0
SECTION
2
HEADER
9
$ACADVER
1
AC1015
9
$DWGCODEPAGE
3
ANSI_1252
9
$HANDSEED
5
322
9
$ANGBASE
50
0
9
$ANGDIR
70
0
9
$ATTMODE
70
1
9
$AUNITS
70
0
9
$AUPREC
70
0
9
$CECOLOR
62
256
9
$CELTSCALE
40
1
9
$CELTYPE
6
ByLayer
9
$CELWEIGHT
370
18
9
$CLAYER
8
0
9
$CMLJUST
70
0
9
$CMLSCALE
40
1
9
$CMLSTYLE
2
Standard
9
$DIMSTYLE
2
Standard
9
$TEXTSIZE
40
0.2
9
$TEXTSTYLE
7
Standard
9
$LUNITS
70
2
9
$LUPREC
70
4
9
$EXTNAMES
290
1
9
$INSUNITS
70
4
9
$LTSCALE
40
1
9
$LWDISPLAY
290
1
9
$PDMODE
70
0
9
$PDSIZE
40
0
9
$PLINEGEN
70
0
0
ENDSEC
0
SECTION
2
CLASSES
0
CLASS
1
RASTERVARIABLES
2
AcDbRasterVariables
3
ISM
90
0
280
0
281
0
0
ENDSEC
0
SECTION
2
TABLES
0
TABLE
2
VPORT
5
318
100
AcDbSymbolTable
0
VPORT
5
1
100
AcDbSymbolTableRecord
100
AcDbViewportTableRecord
2
*Active
70
0
10
0
20
0
11
1
21
1
12
-1
22
1
13
0
23
0
14
0.5
24
0.5
15
10
25
10
16
0
26
0
36
1
17
0
27
0
37
0
0
ENDTAB
0
TABLE
2
LTYPE
5
319
100
AcDbSymbolTable
0
LTYPE
5
14
100
AcDbSymbolTableRecord
100
AcDbLinetypeTableRecord
70
0
2
ByBlock
3

72
65
73
0
40
0
0
LTYPE
5
15
100
AcDbSymbolTableRecord
100
AcDbLinetypeTableRecord
70
0
2
ByLayer
3

72
65
73
0
40
0
0
LTYPE
5
16
100
AcDbSymbolTableRecord
100
AcDbLinetypeTableRecord
70
0
2
Continuous
3
Solid line
72
65
73
0
40
0
0
LTYPE
5
6E
100
AcDbSymbolTableRecord
100
AcDbLinetypeTableRecord
70
0
2
CENTER
3
____ _ ____ _ ____ _ ____
72
65
73
4
40
47.5
49
22
74
0
49
-8.5
74
0
49
8.5
74
0
49
-8.5
74
0
0
LTYPE
5
6F
100
AcDbSymbolTableRecord
100
AcDbLinetypeTableRecord
70
0
2
DASHED
3
__ __ __ __ __ __ __ __ __
72
65
73
2
40
25.72
49
12.86
74
0
49
-12.86
74
0
0
ENDTAB
0
TABLE
2
LAYER
5
31a
100
AcDbSymbolTable
0
LAYER
5
10
100
AcDbSymbolTableRecord
100
AcDbLayerTableRecord
2
0
70
0
62
7
6
Continuous
290
1
370
-3
390
0
0
LAYER
5
71
100
AcDbSymbolTableRecord
100
AcDbLayerTableRecord
2
80
70
0
62
-6
6
Continuous
290
1
370
-3
390
0
0
LAYER
5
73
100
AcDbSymbolTableRecord
100
AcDbLayerTableRecord
2
81
70
0
62
-3
6
Continuous
290
1
370
-3
390
0
0
LAYER
5
75
100
AcDbSymbolTableRecord
100
AcDbLayerTableRecord
2
1
70
0
62
4
6
Continuous
290
1
370
-3
390
0
0
LAYER
5
88
100
AcDbSymbolTableRecord
100
AcDbLayerTableRecord
2
4
70
0
62
-2
6
CENTER
290
1
370
-3
390
0
0
LAYER
5
1F6
100
AcDbSymbolTableRecord
100
AcDbLayerTableRecord
2
Defpoints
70
0
62
7
6
Continuous
290
0
370
-3
390
0
0
LAYER
5
233
100
AcDbSymbolTableRecord
100
AcDbLayerTableRecord
2
2
70
0
62
7
6
Continuous
290
1
370
-3
390
0
0
LAYER
5
304
100
AcDbSymbolTableRecord
100
AcDbLayerTableRecord
2
SK4
70
0
62
2
6
CENTER
290
1
370
-3
390
0
0
LAYER
5
305
100
AcDbSymbolTableRecord
100
AcDbLayerTableRecord
2
SK1
70
0
62
4
6
Continuous
290
1
370
-3
390
0
0
LAYER
5
306
100
AcDbSymbolTableRecord
100
AcDbLayerTableRecord
2
SK2
70
0
62
7
6
Continuous
290
1
370
-3
390
0
0
LAYER
5
307
100
AcDbSymbolTableRecord
100
AcDbLayerTableRecord
2
SK6
70
0
62
5
6
Continuous
290
1
370
-3
390
0
0
ENDTAB
0
TABLE
2
STYLE
5
31b
100
AcDbSymbolTable
0
STYLE
5
11
100
AcDbSymbolTableRecord
100
AcDbTextStyleTableRecord
2
Standard
3
txt
70
0
71
0
40
0
41
1
42
0
50
0
0
STYLE
5
1E4
100
AcDbSymbolTableRecord
100
AcDbTextStyleTableRecord
2
iso_b_vert
3
simplex.shx
70
0
71
0
40
0
41
1
42
0
50
0
0
STYLE
5
1E5
100
AcDbSymbolTableRecord
100
AcDbTextStyleTableRecord
2
DWGDirectTextStyle
3
simplex
70
0
71
0
40
0
41
1
42
0
50
0
0
ENDTAB
0
TABLE
2
DIMSTYLE
5
31c
100
AcDbSymbolTable
100
AcDbDimStyleTable
0
DIMSTYLE
105
27
100
AcDbSymbolTableRecord
100
AcDbDimStyleTableRecord
2
Standard
70
0
3
<>
41
0.18
42
0.0625
44
0.18
140
0.18
147
0.09
73
0
74
0
77
1
271
2
275
0
278
52
280
0
340
11
0
ENDTAB
0
TABLE
2
VIEW
5
31d
100
AcDbSymbolTable
0
ENDTAB
0
TABLE
2
UCS
5
31e
100
AcDbSymbolTable
0
ENDTAB
0
TABLE
2
APPID
5
31f
100
AcDbSymbolTable
0
APPID
5
12
100
AcDbSymbolTableRecord
100
AcDbRegAppTableRecord
2
ACAD
70
0
0
APPID
5
1F2
100
AcDbSymbolTableRecord
100
AcDbRegAppTableRecord
2
ACAD_DSTYLE_DIMBREAK
70
0
0
APPID
5
2C3
100
AcDbSymbolTableRecord
100
AcDbRegAppTableRecord
2
ACAD_DSTYLE_DIM_LINETYPE
70
0
0
APPID
5
2C4
100
AcDbSymbolTableRecord
100
AcDbRegAppTableRecord
2
ACAD_DSTYLE_DIM_EXT1_LINETYPE
70
0
0
APPID
5
2C5
100
AcDbSymbolTableRecord
100
AcDbRegAppTableRecord
2
ACAD_DSTYLE_DIM_EXT2_LINETYPE
70
0
0
APPID
5
300
100
AcDbSymbolTableRecord
100
AcDbRegAppTableRecord
2
ACAD_MLEADERVER
70
0
0
ENDTAB
0
TABLE
2
BLOCK_RECORD
5
320
100
AcDbSymbolTable
0
BLOCK_RECORD
5
1F
100
AcDbSymbolTableRecord
100
AcDbBlockTableRecord
2
*Model_Space
340
0
70
0
0
BLOCK_RECORD
5
1B
100
AcDbSymbolTableRecord
100
AcDbBlockTableRecord
2
*Paper_Space
340
0
70
0
0
BLOCK_RECORD
5
23
100
AcDbSymbolTableRecord
100
AcDbBlockTableRecord
2
*Paper_Space0
340
0
70
0
0
BLOCK_RECORD
5
1F7
100
AcDbSymbolTableRecord
100
AcDbBlockTableRecord
2
*D1
340
0
70
0
0
BLOCK_RECORD
5
203
100
AcDbSymbolTableRecord
100
AcDbBlockTableRecord
2
_U0
340
0
70
0
0
BLOCK_RECORD
5
20F
100
AcDbSymbolTableRecord
100
AcDbBlockTableRecord
2
*D3
340
0
70
0
0
BLOCK_RECORD
5
21B
100
AcDbSymbolTableRecord
100
AcDbBlockTableRecord
2
_U1
340
0
70
0
0
BLOCK_RECORD
5
227
100
AcDbSymbolTableRecord
100
AcDbBlockTableRecord
2
*D5
340
0
70
0
0
BLOCK_RECORD
5
234
100
AcDbSymbolTableRecord
100
AcDbBlockTableRecord
2
_U2
340
0
70
0
0
BLOCK_RECORD
5
240
100
AcDbSymbolTableRecord
100
AcDbBlockTableRecord
2
*D7
340
0
70
0
0
BLOCK_RECORD
5
24D
100
AcDbSymbolTableRecord
100
AcDbBlockTableRecord
2
_U3
340
0
70
0
0
BLOCK_RECORD
5
259
100
AcDbSymbolTableRecord
100
AcDbBlockTableRecord
2
*D9
340
0
70
0
0
BLOCK_RECORD
5
266
100
AcDbSymbolTableRecord
100
AcDbBlockTableRecord
2
_U4
340
0
70
0
0
BLOCK_RECORD
5
273
100
AcDbSymbolTableRecord
100
AcDbBlockTableRecord
2
*D11
340
0
70
0
0
BLOCK_RECORD
5
281
100
AcDbSymbolTableRecord
100
AcDbBlockTableRecord
2
_U5
340
0
70
0
0
BLOCK_RECORD
5
28E
100
AcDbSymbolTableRecord
100
AcDbBlockTableRecord
2
*D13
340
0
70
0
0
BLOCK_RECORD
5
29C
100
AcDbSymbolTableRecord
100
AcDbBlockTableRecord
2
_U6
340
0
70
0
0
ENDTAB
0
ENDSEC
0
SECTION
2
BLOCKS
0
BLOCK
5
20
100
AcDbEntity
8
0
100
AcDbBlockBegin
2
*Model_Space
70
0
10
0
20
0
30
0
3
*Model_Space
0
ENDBLK
5
21
100
AcDbEntity
8
0
100
AcDbBlockEnd
0
BLOCK
5
1C
100
AcDbEntity
8
0
100
AcDbBlockBegin
2
*Paper_Space
70
0
10
0
20
0
30
0
3
*Paper_Space
0
ENDBLK
5
1D
100
AcDbEntity
8
0
100
AcDbBlockEnd
0
BLOCK
5
24
100
AcDbEntity
8
0
100
AcDbBlockBegin
2
*Paper_Space0
70
0
10
0
20
0
30
0
3
*Paper_Space0
0
ENDBLK
5
25
100
AcDbEntity
8
0
100
AcDbBlockEnd
0
BLOCK
5
1F8
100
AcDbEntity
8
0
100
AcDbBlockBegin
2
*D1
70
1
10
0
20
0
30
0
3
*D1
0
LINE
5
1FA
100
AcDbEntity
8
0
62
256
6
ByLayer
370
-2
48
1
60
0
100
AcDbLine
10
-22.87
20
-1.5875
30
0
11
-22.87
21
-53.052102
31
0
39
0
210
0
220
0
230
1
0
LINE
5
1FB
100
AcDbEntity
8
0
62
256
6
ByLayer
370
-2
48
1
60
0
100
AcDbLine
10
57.13
20
-1.5875
30
0
11
57.13
21
-53.052102
31
0
39
0
210
0
220
0
230
1
0
LINE
5
1FC
100
AcDbEntity
8
0
62
256
6
ByLayer
370
-2
48
1
60
0
100
AcDbLine
10
-19.37
20
-51.052102
30
0
11
53.63
21
-51.052102
31
0
39
0
210
0
220
0
230
1
0
SOLID
5
1FD
100
AcDbEntity
8
0
62
256
6
ByLayer
370
-1
48
1
60
0
100
AcDbTrace
10
-19.37
20
-50.468768
30
0
11
-19.37
21
-51.635435
31
0
12
-22.87
22
-51.052102
32
0
13
-22.87
23
-51.052102
33
0
39
0
210
0
220
0
230
1
0
SOLID
5
1FE
100
AcDbEntity
8
0
62
256
6
ByLayer
370
-1
48
1
60
0
100
AcDbTrace
10
53.63
20
-51.635435
30
0
11
53.63
21
-50.468768
31
0
12
57.13
22
-51.052102
32
0
13
57.13
23
-51.052102
33
0
39
0
210
0
220
0
230
1
0
MTEXT
5
1FF
100
AcDbEntity
8
0
62
256
6
ByLayer
370
18
48
1
60
0
100
AcDbMText
10
17.13
20
-45.052102
30
0
210
0
220
0
230
1
1
\A1;80
40
3
41
0
44
1
50
0
71
5
72
5
7
iso_b_vert
0
POINT
5
200
100
AcDbEntity
8
Defpoints
62
0
6
ByLayer
370
-1
48
1
60
0
100
AcDbPoint
10
-22.87
20
0
30
0
39
0
210
0
220
0
230
1
50
360
0
POINT
5
201
100
AcDbEntity
8
Defpoints
62
0
6
ByLayer
370
-1
48
1
60
0
100
AcDbPoint
10
57.13
20
0
30
0
39
0
210
0
220
0
230
1
50
360
0
POINT
5
202
100
AcDbEntity
8
Defpoints
62
0
6
ByLayer
370
-1
48
1
60
0
100
AcDbPoint
10
57.13
20
-51.052102
30
0
39
0
210
0
220
0
230
1
50
360
0
ENDBLK
5
1F9
100
AcDbEntity
8
0
100
AcDbBlockEnd
0
BLOCK
5
20A
100
AcDbEntity
8
0
100
AcDbBlockBegin
2
_U0
70
0
10
0
20
0
30
0
3
_U0
0
MTEXT
5
204
100
AcDbEntity
8
SK2
62
256
6
ByLayer
370
18
48
1
60
0
100
AcDbMText
10
13.768544
20
-50.166987
30
0
210
0
220
0
230
1
1
\W0.7346;80.0
40
3
41
0
44
1.084337
50
0
71
7
72
5
7
iso_b_vert
0
LINE
5
205
100
AcDbEntity
8
SK2
62
256
6
ByLayer
370
13
48
1
60
0
100
AcDbLine
10
-22.87
20
-1.5875
30
0
11
-22.87
21
-53.052102
31
0
39
0
210
0
220
0
230
1
0
LINE
5
206
100
AcDbEntity
8
SK2
62
256
6
ByLayer
370
13
48
1
60
0
100
AcDbLine
10
57.13
20
-1.5875
30
0
11
57.13
21
-53.052102
31
0
39
0
210
0
220
0
230
1
0
LINE
5
207
100
AcDbEntity
8
SK2
62
256
6
ByLayer
370
13
48
1
60
0
100
AcDbLine
10
-22.87
20
-51.052102
30
0
11
57.13
21
-51.052102
31
0
39
0
210
0
220
0
230
1
0
SOLID
5
208
100
AcDbEntity
8
SK2
62
256
6
ByLayer
370
18
48
1
60
0
100
AcDbTrace
10
-22.87
20
-51.052102
30
0
11
-19.370002
21
-50.591318
31
0
12
-19.369998
22
-51.512886
32
0
13
-19.369998
23
-51.512886
33
0
39
0
210
0
220
0
230
1
0
SOLID
5
209
100
AcDbEntity
8
SK2
62
256
6
ByLayer
370
18
48
1
60
0
100
AcDbTrace
10
57.13
20
-51.052102
30
0
11
53.630002
21
-51.512886
31
0
12
53.629998
22
-50.591318
32
0
13
53.629998
23
-50.591318
33
0
39
0
210
0
220
0
230
1
0
ENDBLK
5
20B
100
AcDbEntity
8
0
100
AcDbBlockEnd
0
BLOCK
5
210
100
AcDbEntity
8
0
100
AcDbBlockBegin
2
*D3
70
1
10
0
20
0
30
0
3
*D3
0
LINE
5
212
100
AcDbEntity
8
0
62
256
6
ByLayer
370
-2
48
1
60
0
100
AcDbLine
10
57.13
20
-1.5875
30
0
11
57.13
21
-45.052102
31
0
39
0
210
0
220
0
230
1
0
LINE
5
213
100
AcDbEntity
8
0
62
256
6
ByLayer
370
-2
48
1
60
0
100
AcDbLine
10
32.13
20
-1.5875
30
0
11
32.13
21
-45.052102
31
0
39
0
210
0
220
0
230
1
0
LINE
5
214
100
AcDbEntity
8
0
62
256
6
ByLayer
370
-2
48
1
60
0
100
AcDbLine
10
53.63
20
-43.052102
30
0
11
35.63
21
-43.052102
31
0
39
0
210
0
220
0
230
1
0
SOLID
5
215
100
AcDbEntity
8
0
62
256
6
ByLayer
370
-1
48
1
60
0
100
AcDbTrace
10
53.63
20
-43.635435
30
0
11
53.63
21
-42.468768
31
0
12
57.13
22
-43.052102
32
0
13
57.13
23
-43.052102
33
0
39
0
210
0
220
0
230
1
0
SOLID
5
216
100
AcDbEntity
8
0
62
256
6
ByLayer
370
-1
48
1
60
0
100
AcDbTrace
10
35.63
20
-42.468768
30
0
11
35.63
21
-43.635435
31
0
12
32.13
22
-43.052102
32
0
13
32.13
23
-43.052102
33
0
39
0
210
0
220
0
230
1
0
MTEXT
5
217
100
AcDbEntity
8
0
62
256
6
ByLayer
370
18
48
1
60
0
100
AcDbMText
10
44.63
20
-37.052102
30
0
210
0
220
0
230
1
1
\A1;25
40
3
41
0
44
1
50
0
71
5
72
5
7
iso_b_vert
0
POINT
5
218
100
AcDbEntity
8
Defpoints
62
0
6
ByLayer
370
-1
48
1
60
0
100
AcDbPoint
10
57.13
20
0
30
0
39
0
210
0
220
0
230
1
50
360
0
POINT
5
219
100
AcDbEntity
8
Defpoints
62
0
6
ByLayer
370
-1
48
1
60
0
100
AcDbPoint
10
32.13
20
0
30
0
39
0
210
0
220
0
230
1
50
360
0
POINT
5
21A
100
AcDbEntity
8
Defpoints
62
0
6
ByLayer
370
-1
48
1
60
0
100
AcDbPoint
10
32.13
20
-43.052102
30
0
39
0
210
0
220
0
230
1
50
360
0
ENDBLK
5
211
100
AcDbEntity
8
0
100
AcDbBlockEnd
0
BLOCK
5
222
100
AcDbEntity
8
0
100
AcDbBlockBegin
2
_U1
70
0
10
0
20
0
30
0
3
_U1
0
MTEXT
5
21C
100
AcDbEntity
8
SK2
62
256
6
ByLayer
370
18
48
1
60
0
100
AcDbMText
10
41.268544
20
-42.166987
30
0
210
0
220
0
230
1
1
\W0.7346;25.0
40
3
41
0
44
1.084337
50
0
71
7
72
5
7
iso_b_vert
0
LINE
5
21D
100
AcDbEntity
8
SK2
62
256
6
ByLayer
370
13
48
1
60
0
100
AcDbLine
10
57.13
20
-1.5875
30
0
11
57.13
21
-45.052102
31
0
39
0
210
0
220
0
230
1
0
LINE
5
21E
100
AcDbEntity
8
SK2
62
256
6
ByLayer
370
13
48
1
60
0
100
AcDbLine
10
32.13
20
-1.5875
30
0
11
32.13
21
-45.052102
31
0
39
0
210
0
220
0
230
1
0
LINE
5
21F
100
AcDbEntity
8
SK2
62
256
6
ByLayer
370
13
48
1
60
0
100
AcDbLine
10
57.13
20
-43.052102
30
0
11
32.13
21
-43.052102
31
0
39
0
210
0
220
0
230
1
0
SOLID
5
220
100
AcDbEntity
8
SK2
62
256
6
ByLayer
370
18
48
1
60
0
100
AcDbTrace
10
57.13
20
-43.052102
30
0
11
53.630002
21
-43.512886
31
0
12
53.629998
22
-42.591318
32
0
13
53.629998
23
-42.591318
33
0
39
0
210
0
220
0
230
1
0
SOLID
5
221
100
AcDbEntity
8
SK2
62
256
6
ByLayer
370
18
48
1
60
0
100
AcDbTrace
10
32.13
20
-43.052102
30
0
11
35.629998
21
-42.591318
31
0
12
35.630002
22
-43.512886
32
0
13
35.630002
23
-43.512886
33
0
39
0
210
0
220
0
230
1
0
ENDBLK
5
223
100
AcDbEntity
8
0
100
AcDbBlockEnd
0
BLOCK
5
228
100
AcDbEntity
8
0
100
AcDbBlockBegin
2
*D5
70
1
10
0
20
0
30
0
3
*D5
0
LINE
5
22A
100
AcDbEntity
8
0
62
256
6
ByLayer
370
-2
48
1
60
0
100
AcDbLine
10
57.13
20
-1.5875
30
0
11
57.13
21
-37.052102
31
0
39
0
210
0
220
0
230
1
0
LINE
5
22B
100
AcDbEntity
8
0
62
256
6
ByLayer
370
-2
48
1
60
0
100
AcDbLine
10
35.88
20
-1.5875
30
0
11
35.88
21
-37.052102
31
0
39
0
210
0
220
0
230
1
0
LINE
5
22C
100
AcDbEntity
8
0
62
256
6
ByLayer
370
-2
48
1
60
0
100
AcDbLine
10
53.63
20
-35.052102
30
0
11
39.38
21
-35.052102
31
0
39
0
210
0
220
0
230
1
0
SOLID
5
22D
100
AcDbEntity
8
0
62
256
6
ByLayer
370
-1
48
1
60
0
100
AcDbTrace
10
53.63
20
-35.635435
30
0
11
53.63
21
-34.468768
31
0
12
57.13
22
-35.052102
32
0
13
57.13
23
-35.052102
33
0
39
0
210
0
220
0
230
1
0
SOLID
5
22E
100
AcDbEntity
8
0
62
256
6
ByLayer
370
-1
48
1
60
0
100
AcDbTrace
10
39.38
20
-34.468768
30
0
11
39.38
21
-35.635435
31
0
12
35.88
22
-35.052102
32
0
13
35.88
23
-35.052102
33
0
39
0
210
0
220
0
230
1
0
MTEXT
5
22F
100
AcDbEntity
8
0
62
256
6
ByLayer
370
18
48
1
60
0
100
AcDbMText
10
46.505
20
-29.052102
30
0
210
0
220
0
230
1
1
\A1;21.25
40
3
41
0
44
1
50
0
71
5
72
5
7
iso_b_vert
0
POINT
5
230
100
AcDbEntity
8
Defpoints
62
0
6
ByLayer
370
-1
48
1
60
0
100
AcDbPoint
10
57.13
20
0
30
0
39
0
210
0
220
0
230
1
50
360
0
POINT
5
231
100
AcDbEntity
8
Defpoints
62
0
6
ByLayer
370
-1
48
1
60
0
100
AcDbPoint
10
35.88
20
0
30
0
39
0
210
0
220
0
230
1
50
360
0
POINT
5
232
100
AcDbEntity
8
Defpoints
62
0
6
ByLayer
370
-1
48
1
60
0
100
AcDbPoint
10
35.88
20
-35.052102
30
0
39
0
210
0
220
0
230
1
50
360
0
ENDBLK
5
229
100
AcDbEntity
8
0
100
AcDbBlockEnd
0
BLOCK
5
23B
100
AcDbEntity
8
0
100
AcDbBlockBegin
2
_U2
70
0
10
0
20
0
30
0
3
_U2
0
MTEXT
5
235
100
AcDbEntity
8
2
62
256
6
ByLayer
370
18
48
1
60
0
100
AcDbMText
10
43.518486
20
-34.166987
30
0
210
0
220
0
230
1
1
\W0.6563;21.3
40
3
41
0
44
1.084337
50
0
71
7
72
5
7
iso_b_vert
0
LINE
5
236
100
AcDbEntity
8
2
62
256
6
ByLayer
370
13
48
1
60
0
100
AcDbLine
10
57.13
20
-1.5875
30
0
11
57.13
21
-37.052102
31
0
39
0
210
0
220
0
230
1
0
LINE
5
237
100
AcDbEntity
8
2
62
256
6
ByLayer
370
13
48
1
60
0
100
AcDbLine
10
35.88
20
-1.5875
30
0
11
35.88
21
-37.052102
31
0
39
0
210
0
220
0
230
1
0
LINE
5
238
100
AcDbEntity
8
2
62
256
6
ByLayer
370
13
48
1
60
0
100
AcDbLine
10
57.13
20
-35.052102
30
0
11
35.88
21
-35.052102
31
0
39
0
210
0
220
0
230
1
0
SOLID
5
239
100
AcDbEntity
8
2
62
256
6
ByLayer
370
18
48
1
60
0
100
AcDbTrace
10
57.13
20
-35.052102
30
0
11
53.630002
21
-35.512886
31
0
12
53.629998
22
-34.591318
32
0
13
53.629998
23
-34.591318
33
0
39
0
210
0
220
0
230
1
0
SOLID
5
23A
100
AcDbEntity
8
2
62
256
6
ByLayer
370
18
48
1
60
0
100
AcDbTrace
10
35.88
20
-35.052102
30
0
11
39.379998
21
-34.591318
31
0
12
39.380002
22
-35.512886
32
0
13
39.380002
23
-35.512886
33
0
39
0
210
0
220
0
230
1
0
ENDBLK
5
23C
100
AcDbEntity
8
0
100
AcDbBlockEnd
0
BLOCK
5
241
100
AcDbEntity
8
0
100
AcDbBlockBegin
2
*D7
70
1
10
0
20
0
30
0
3
*D7
0
LINE
5
243
100
AcDbEntity
8
0
62
256
6
ByLayer
370
-2
48
1
60
0
100
AcDbLine
10
57.13
20
-1.5875
30
0
11
57.13
21
-29.052102
31
0
39
0
210
0
220
0
230
1
0
LINE
5
244
100
AcDbEntity
8
0
62
256
6
ByLayer
370
-2
48
1
60
0
100
AcDbLine
10
47.13
20
-4.1249
30
0
11
47.13
21
-29.052102
31
0
39
0
210
0
220
0
230
1
0
LINE
5
245
100
AcDbEntity
8
0
62
256
6
ByLayer
370
-2
48
1
60
0
100
AcDbLine
10
60.63
20
-27.052102
30
0
11
64.13
21
-27.052102
31
0
39
0
210
0
220
0
230
1
0
LINE
5
246
100
AcDbEntity
8
0
62
256
6
ByLayer
370
-2
48
1
60
0
100
AcDbLine
10
43.63
20
-27.052102
30
0
11
40.13
21
-27.052102
31
0
39
0
210
0
220
0
230
1
0
SOLID
5
247
100
AcDbEntity
8
0
62
256
6
ByLayer
370
-1
48
1
60
0
100
AcDbTrace
10
60.63
20
-26.468768
30
0
11
60.63
21
-27.635435
31
0
12
57.13
22
-27.052102
32
0
13
57.13
23
-27.052102
33
0
39
0
210
0
220
0
230
1
0
SOLID
5
248
100
AcDbEntity
8
0
62
256
6
ByLayer
370
-1
48
1
60
0
100
AcDbTrace
10
43.63
20
-27.635435
30
0
11
43.63
21
-26.468768
31
0
12
47.13
22
-27.052102
32
0
13
47.13
23
-27.052102
33
0
39
0
210
0
220
0
230
1
0
MTEXT
5
249
100
AcDbEntity
8
0
62
256
6
ByLayer
370
18
48
1
60
0
100
AcDbMText
10
52.13
20
-21.052102
30
0
210
0
220
0
230
1
1
\A1;10
40
3
41
0
44
1
50
0
71
5
72
5
7
iso_b_vert
0
POINT
5
24A
100
AcDbEntity
8
Defpoints
62
0
6
ByLayer
370
-1
48
1
60
0
100
AcDbPoint
10
57.13
20
0
30
0
39
0
210
0
220
0
230
1
50
360
0
POINT
5
24B
100
AcDbEntity
8
Defpoints
62
0
6
ByLayer
370
-1
48
1
60
0
100
AcDbPoint
10
47.13
20
-2.5374
30
0
39
0
210
0
220
0
230
1
50
360
0
POINT
5
24C
100
AcDbEntity
8
Defpoints
62
0
6
ByLayer
370
-1
48
1
60
0
100
AcDbPoint
10
47.13
20
-27.052102
30
0
39
0
210
0
220
0
230
1
50
360
0
ENDBLK
5
242
100
AcDbEntity
8
0
100
AcDbBlockEnd
0
BLOCK
5
254
100
AcDbEntity
8
0
100
AcDbBlockBegin
2
_U3
70
0
10
0
20
0
30
0
3
_U3
0
MTEXT
5
24E
100
AcDbEntity
8
SK2
62
256
6
ByLayer
370
18
48
1
60
0
100
AcDbMText
10
49.143486
20
-26.166987
30
0
210
0
220
0
230
1
1
\W0.6563;10.0
40
3
41
0
44
1.084337
50
0
71
7
72
5
7
iso_b_vert
0
LINE
5
24F
100
AcDbEntity
8
SK2
62
256
6
ByLayer
370
13
48
1
60
0
100
AcDbLine
10
57.13
20
-1.5875
30
0
11
57.13
21
-29.052102
31
0
39
0
210
0
220
0
230
1
0
LINE
5
250
100
AcDbEntity
8
SK2
62
256
6
ByLayer
370
13
48
1
60
0
100
AcDbLine
10
47.13
20
-4.1249
30
0
11
47.13
21
-29.052102
31
0
39
0
210
0
220
0
230
1
0
LINE
5
251
100
AcDbEntity
8
SK2
62
256
6
ByLayer
370
13
48
1
60
0
100
AcDbLine
10
57.13
20
-27.052102
30
0
11
47.13
21
-27.052102
31
0
39
0
210
0
220
0
230
1
0
SOLID
5
252
100
AcDbEntity
8
SK2
62
256
6
ByLayer
370
18
48
1
60
0
100
AcDbTrace
10
57.13
20
-27.052102
30
0
11
53.630002
21
-27.512886
31
0
12
53.629998
22
-26.591318
32
0
13
53.629998
23
-26.591318
33
0
39
0
210
0
220
0
230
1
0
SOLID
5
253
100
AcDbEntity
8
SK2
62
256
6
ByLayer
370
18
48
1
60
0
100
AcDbTrace
10
47.13
20
-27.052102
30
0
11
50.629998
21
-26.591318
31
0
12
50.630002
22
-27.512886
32
0
13
50.630002
23
-27.512886
33
0
39
0
210
0
220
0
230
1
0
ENDBLK
5
255
100
AcDbEntity
8
0
100
AcDbBlockEnd
0
BLOCK
5
25A
100
AcDbEntity
8
0
100
AcDbBlockBegin
2
*D9
70
1
10
0
20
0
30
0
3
*D9
0
LINE
5
25C
100
AcDbEntity
8
0
62
256
6
ByLayer
370
-2
48
1
60
0
100
AcDbLine
10
57.13
20
1.5875
30
0
11
57.13
21
8.935524
31
0
39
0
210
0
220
0
230
1
0
LINE
5
25D
100
AcDbEntity
8
0
62
256
6
ByLayer
370
-2
48
1
60
0
100
AcDbLine
10
54.64
20
1.5875
30
0
11
54.64
21
8.935524
31
0
39
0
210
0
220
0
230
1
0
LINE
5
25E
100
AcDbEntity
8
0
62
256
6
ByLayer
370
-2
48
1
60
0
100
AcDbLine
10
60.63
20
6.935524
30
0
11
64.13
21
6.935524
31
0
39
0
210
0
220
0
230
1
0
LINE
5
25F
100
AcDbEntity
8
0
62
256
6
ByLayer
370
-2
48
1
60
0
100
AcDbLine
10
51.14
20
6.935524
30
0
11
47.64
21
6.935524
31
0
39
0
210
0
220
0
230
1
0
SOLID
5
260
100
AcDbEntity
8
0
62
256
6
ByLayer
370
-1
48
1
60
0
100
AcDbTrace
10
60.63
20
7.518857
30
0
11
60.63
21
6.352191
31
0
12
57.13
22
6.935524
32
0
13
57.13
23
6.935524
33
0
39
0
210
0
220
0
230
1
0
SOLID
5
261
100
AcDbEntity
8
0
62
256
6
ByLayer
370
-1
48
1
60
0
100
AcDbTrace
10
51.14
20
6.352191
30
0
11
51.14
21
7.518857
31
0
12
54.64
22
6.935524
32
0
13
54.64
23
6.935524
33
0
39
0
210
0
220
0
230
1
0
MTEXT
5
262
100
AcDbEntity
8
0
62
256
6
ByLayer
370
18
48
1
60
0
100
AcDbMText
10
55.885
20
12.935524
30
0
210
0
220
0
230
1
1
\A1;2.49
40
3
41
0
44
1
50
0
71
5
72
5
7
iso_b_vert
0
POINT
5
263
100
AcDbEntity
8
Defpoints
62
0
6
ByLayer
370
-1
48
1
60
0
100
AcDbPoint
10
57.13
20
0
30
0
39
0
210
0
220
0
230
1
50
360
0
POINT
5
264
100
AcDbEntity
8
Defpoints
62
0
6
ByLayer
370
-1
48
1
60
0
100
AcDbPoint
10
54.64
20
0
30
0
39
0
210
0
220
0
230
1
50
360
0
POINT
5
265
100
AcDbEntity
8
Defpoints
62
0
6
ByLayer
370
-1
48
1
60
0
100
AcDbPoint
10
54.64
20
6.935524
30
0
39
0
210
0
220
0
230
1
50
360
0
ENDBLK
5
25B
100
AcDbEntity
8
0
100
AcDbBlockEnd
0
BLOCK
5
26E
100
AcDbEntity
8
0
100
AcDbBlockBegin
2
_U4
70
0
10
0
20
0
30
0
3
_U4
0
MTEXT
5
267
100
AcDbEntity
8
SK2
62
256
6
ByLayer
370
18
48
1
60
0
100
AcDbMText
10
52.365601
20
14.820638
30
0
210
0
220
0
230
1
1
\W0.7756;2.49
40
3
41
0
44
1.084337
50
0
71
7
72
5
7
iso_b_vert
0
MTEXT
5
268
100
AcDbEntity
8
SK2
62
256
6
ByLayer
370
18
48
1
60
0
100
AcDbMText
10
52.392101
20
7.718157
30
0
210
0
220
0
230
1
1
\W0.6474;'C'
40
3.5
41
0
44
1.084337
50
0
71
7
72
5
7
iso_b_vert
0
LINE
5
269
100
AcDbEntity
8
SK2
62
256
6
ByLayer
370
13
48
1
60
0
100
AcDbLine
10
57.13
20
1.5875
30
0
11
57.13
21
8.935524
31
0
39
0
210
0
220
0
230
1
0
LINE
5
26A
100
AcDbEntity
8
SK2
62
256
6
ByLayer
370
13
48
1
60
0
100
AcDbLine
10
54.64
20
1.5875
30
0
11
54.64
21
8.935524
31
0
39
0
210
0
220
0
230
1
0
LINE
5
26B
100
AcDbEntity
8
SK2
62
256
6
ByLayer
370
13
48
1
60
0
100
AcDbLine
10
64.63
20
6.935524
30
0
11
47.14
21
6.935524
31
0
39
0
210
0
220
0
230
1
0
SOLID
5
26C
100
AcDbEntity
8
SK2
62
256
6
ByLayer
370
18
48
1
60
0
100
AcDbTrace
10
57.13
20
6.935524
30
0
11
60.629998
21
7.396308
31
0
12
60.630002
22
6.47474
32
0
13
60.630002
23
6.47474
33
0
39
0
210
0
220
0
230
1
0
SOLID
5
26D
100
AcDbEntity
8
SK2
62
256
6
ByLayer
370
18
48
1
60
0
100
AcDbTrace
10
54.64
20
6.935524
30
0
11
51.140002
21
6.47474
31
0
12
51.139998
22
7.396308
32
0
13
51.139998
23
7.396308
33
0
39
0
210
0
220
0
230
1
0
ENDBLK
5
26F
100
AcDbEntity
8
0
100
AcDbBlockEnd
0
BLOCK
5
274
100
AcDbEntity
8
0
100
AcDbBlockBegin
2
*D11
70
1
10
0
20
0
30
0
3
*D11
0
LINE
5
276
100
AcDbEntity
8
0
62
256
6
ByLayer
370
-2
48
1
60
0
100
AcDbLine
10
58.7175
20
-3.217762
30
0
11
75.63
21
-3.217762
31
0
39
0
210
0
220
0
230
1
0
LINE
5
277
100
AcDbEntity
8
0
62
256
6
ByLayer
370
-2
48
1
60
0
100
AcDbLine
10
58.7175
20
3.217762
30
0
11
75.63
21
3.217762
31
0
39
0
210
0
220
0
230
1
0
LINE
5
278
100
AcDbEntity
8
0
62
256
6
ByLayer
370
-2
48
1
60
0
100
AcDbLine
10
73.63
20
3.217762
30
0
11
73.63
21
28.360619
31
0
39
0
210
0
220
0
230
1
0
LINE
5
279
100
AcDbEntity
8
0
62
256
6
ByLayer
370
-2
48
1
60
0
100
AcDbLine
10
73.63
20
-6.717762
30
0
11
73.63
21
-10.217762
31
0
39
0
210
0
220
0
230
1
0
LINE
5
27A
100
AcDbEntity
8
0
62
256
6
ByLayer
370
-2
48
1
60
0
100
AcDbLine
10
73.63
20
6.717762
30
0
11
73.63
21
10.217762
31
0
39
0
210
0
220
0
230
1
0
SOLID
5
27B
100
AcDbEntity
8
0
62
256
6
ByLayer
370
-1
48
1
60
0
100
AcDbTrace
10
74.213333
20
-6.717762
30
0
11
73.046667
21
-6.717762
31
0
12
73.63
22
-3.217762
32
0
13
73.63
23
-3.217762
33
0
39
0
210
0
220
0
230
1
0
SOLID
5
27C
100
AcDbEntity
8
0
62
256
6
ByLayer
370
-1
48
1
60
0
100
AcDbTrace
10
73.046667
20
6.717762
30
0
11
74.213333
21
6.717762
31
0
12
73.63
22
3.217762
32
0
13
73.63
23
3.217762
33
0
39
0
210
0
220
0
230
1
0
MTEXT
5
27D
100
AcDbEntity
8
0
62
256
6
ByLayer
370
18
48
1
60
0
100
AcDbMText
10
67.63
20
19.289191
30
0
210
0
220
0
230
1
1
\A1;6.44
40
3
41
0
44
1
50
90
71
5
72
5
7
iso_b_vert
0
POINT
5
27E
100
AcDbEntity
8
Defpoints
62
0
6
ByLayer
370
-1
48
1
60
0
100
AcDbPoint
10
57.13
20
-3.217762
30
0
39
0
210
0
220
0
230
1
50
360
0
POINT
5
27F
100
AcDbEntity
8
Defpoints
62
0
6
ByLayer
370
-1
48
1
60
0
100
AcDbPoint
10
57.13
20
3.217762
30
0
39
0
210
0
220
0
230
1
50
360
0
POINT
5
280
100
AcDbEntity
8
Defpoints
62
0
6
ByLayer
370
-1
48
1
60
0
100
AcDbPoint
10
73.63
20
3.217762
30
0
39
0
210
0
220
0
230
1
50
360
0
ENDBLK
5
275
100
AcDbEntity
8
0
100
AcDbBlockEnd
0
BLOCK
5
289
100
AcDbEntity
8
0
100
AcDbBlockBegin
2
_U5
70
0
10
0
20
0
30
0
3
_U5
0
MTEXT
5
282
100
AcDbEntity
8
2
62
256
6
ByLayer
370
18
48
1
60
0
100
AcDbMText
10
73.038886
20
-2.157501
30
0
210
0
220
0
230
1
1
\W0.7383;UNF 1/4-28
40
3
41
0
44
1.084337
50
90
71
7
72
5
7
iso_b_vert
0
MTEXT
5
283
100
AcDbEntity
8
2
62
256
6
ByLayer
370
18
48
1
60
0
100
AcDbMText
10
73.190366
20
23.318196
30
0
210
0
220
0
230
1
1
\W0.7601; 3BX
40
3.5
41
0
44
1.084337
50
90
71
7
72
5
7
iso_b_vert
0
LINE
5
284
100
AcDbEntity
8
2
62
256
6
ByLayer
370
13
48
1
60
0
100
AcDbLine
10
58.7175
20
-3.217762
30
0
11
75.63
21
-3.217762
31
0
39
0
210
0
220
0
230
1
0
LINE
5
285
100
AcDbEntity
8
2
62
256
6
ByLayer
370
13
48
1
60
0
100
AcDbLine
10
58.7175
20
3.217762
30
0
11
75.63
21
3.217762
31
0
39
0
210
0
220
0
230
1
0
LINE
5
286
100
AcDbEntity
8
2
62
256
6
ByLayer
370
13
48
1
60
0
100
AcDbLine
10
73.63
20
33.217762
30
0
11
73.63
21
-10.717762
31
0
39
0
210
0
220
0
230
1
0
SOLID
5
287
100
AcDbEntity
8
2
62
256
6
ByLayer
370
18
48
1
60
0
100
AcDbTrace
10
73.63
20
-3.217762
30
0
11
74.090784
21
-6.71776
31
0
12
73.169216
22
-6.717764
32
0
13
73.169216
23
-6.717764
33
0
39
0
210
0
220
0
230
1
0
SOLID
5
288
100
AcDbEntity
8
2
62
256
6
ByLayer
370
18
48
1
60
0
100
AcDbTrace
10
73.63
20
3.217762
30
0
11
73.169216
21
6.71776
31
0
12
74.090784
22
6.717764
32
0
13
74.090784
23
6.717764
33
0
39
0
210
0
220
0
230
1
0
ENDBLK
5
28A
100
AcDbEntity
8
0
100
AcDbBlockEnd
0
BLOCK
5
28F
100
AcDbEntity
8
0
100
AcDbBlockBegin
2
*D13
70
1
10
0
20
0
30
0
3
*D13
0
LINE
5
291
100
AcDbEntity
8
0
62
256
6
ByLayer
370
-2
48
1
60
0
100
AcDbLine
10
-24.4575
20
2.425
30
0
11
-30.37
21
2.425
31
0
39
0
210
0
220
0
230
1
0
LINE
5
292
100
AcDbEntity
8
0
62
256
6
ByLayer
370
-2
48
1
60
0
100
AcDbLine
10
-24.4575
20
-2.425
30
0
11
-30.37
21
-2.425
31
0
39
0
210
0
220
0
230
1
0
LINE
5
293
100
AcDbEntity
8
0
62
256
6
ByLayer
370
-2
48
1
60
0
100
AcDbLine
10
-28.37
20
2.425
30
0
11
-28.37
21
27.567857
31
0
39
0
210
0
220
0
230
1
0
LINE
5
294
100
AcDbEntity
8
0
62
256
6
ByLayer
370
-2
48
1
60
0
100
AcDbLine
10
-28.37
20
5.925
30
0
11
-28.37
21
9.425
31
0
39
0
210
0
220
0
230
1
0
LINE
5
295
100
AcDbEntity
8
0
62
256
6
ByLayer
370
-2
48
1
60
0
100
AcDbLine
10
-28.37
20
-5.925
30
0
11
-28.37
21
-9.425
31
0
39
0
210
0
220
0
230
1
0
SOLID
5
296
100
AcDbEntity
8
0
62
256
6
ByLayer
370
-1
48
1
60
0
100
AcDbTrace
10
-28.953333
20
5.925
30
0
11
-27.786667
21
5.925
31
0
12
-28.37
22
2.425
32
0
13
-28.37
23
2.425
33
0
39
0
210
0
220
0
230
1
0
SOLID
5
297
100
AcDbEntity
8
0
62
256
6
ByLayer
370
-1
48
1
60
0
100
AcDbTrace
10
-27.786667
20
-5.925
30
0
11
-28.953333
21
-5.925
31
0
12
-28.37
22
-2.425
32
0
13
-28.37
23
-2.425
33
0
39
0
210
0
220
0
230
1
0
MTEXT
5
298
100
AcDbEntity
8
0
62
256
6
ByLayer
370
18
48
1
60
0
100
AcDbMText
10
-34.37
20
18.496429
30
0
210
0
220
0
230
1
1
\A1;4.85
40
3
41
0
44
1
50
90
71
5
72
5
7
iso_b_vert
0
POINT
5
299
100
AcDbEntity
8
Defpoints
62
0
6
ByLayer
370
-1
48
1
60
0
100
AcDbPoint
10
-22.87
20
2.425
30
0
39
0
210
0
220
0
230
1
50
360
0
POINT
5
29A
100
AcDbEntity
8
Defpoints
62
0
6
ByLayer
370
-1
48
1
60
0
100
AcDbPoint
10
-22.87
20
-2.425
30
0
39
0
210
0
220
0
230
1
50
360
0
POINT
5
29B
100
AcDbEntity
8
Defpoints
62
0
6
ByLayer
370
-1
48
1
60
0
100
AcDbPoint
10
-28.37
20
-2.425
30
0
39
0
210
0
220
0
230
1
50
360
0
ENDBLK
5
290
100
AcDbEntity
8
0
100
AcDbBlockEnd
0
BLOCK
5
2A3
100
AcDbEntity
8
0
100
AcDbBlockBegin
2
_U6
70
0
10
0
20
0
30
0
3
_U6
0
MTEXT
5
29D
100
AcDbEntity
8
SK2
62
256
6
ByLayer
370
18
48
1
60
0
100
AcDbMText
10
-28.961114
20
11.135
30
0
210
0
220
0
230
1
1
\W0.7694;6.477
40
3
41
0
44
1.084337
50
90
71
7
72
5
7
iso_b_vert
0
LINE
5
29E
100
AcDbEntity
8
SK2
62
256
6
ByLayer
370
13
48
1
60
0
100
AcDbLine
10
-24.4575
20
2.425
30
0
11
-30.37
21
2.425
31
0
39
0
210
0
220
0
230
1
0
LINE
5
29F
100
AcDbEntity
8
SK2
62
256
6
ByLayer
370
13
48
1
60
0
100
AcDbLine
10
-24.4575
20
-2.425
30
0
11
-30.37
21
-2.425
31
0
39
0
210
0
220
0
230
1
0
LINE
5
2A0
100
AcDbEntity
8
SK2
62
256
6
ByLayer
370
13
48
1
60
0
100
AcDbLine
10
-28.37
20
-9.925
30
0
11
-28.37
21
20.598627
31
0
39
0
210
0
220
0
230
1
0
SOLID
5
2A1
100
AcDbEntity
8
SK2
62
256
6
ByLayer
370
18
48
1
60
0
100
AcDbTrace
10
-28.37
20
2.425
30
0
11
-28.830784
21
5.924998
31
0
12
-27.909216
22
5.925002
32
0
13
-27.909216
23
5.925002
33
0
39
0
210
0
220
0
230
1
0
SOLID
5
2A2
100
AcDbEntity
8
SK2
62
256
6
ByLayer
370
18
48
1
60
0
100
AcDbTrace
10
-28.37
20
-2.425
30
0
11
-27.909216
21
-5.924998
31
0
12
-28.830784
22
-5.925002
32
0
13
-28.830784
23
-5.925002
33
0
39
0
210
0
220
0
230
1
0
ENDBLK
5
2A4
100
AcDbEntity
8
0
100
AcDbBlockEnd
0
ENDSEC
0
SECTION
2
ENTITIES
0
ARC
5
C6
100
AcDbEntity
8
SK1
62
256
6
ByLayer
370
18
48
1
60
0
100
AcDbCircle
39
0
10
-17.425
20
0
30
0
40
3.10896000000018
210
0
220
0
230
1
100
AcDbArc
50
321.260905
51
38.739095
0
ARC
5
C7
100
AcDbEntity
8
1
62
256
6
ByLayer
370
18
48
1
60
0
100
AcDbCircle
39
0
10
32.226238
20
-3.6374
30
0
40
1.1
210
0
220
0
230
1
100
AcDbArc
50
90
51
100
0
ARC
5
C8
100
AcDbEntity
8
1
62
256
6
ByLayer
370
18
48
1
60
0
100
AcDbCircle
39
0
10
32.226238
20
3.6374
30
0
40
1.1
210
0
220
0
230
1
100
AcDbArc
50
260
51
270
0
POINT
5
70
100
AcDbEntity
8
80
62
256
6
ByLayer
370
18
48
1
60
0
100
AcDbPoint
10
0
20
0
30
0
39
0
210
0
220
0
230
1
50
360
0
POINT
5
72
100
AcDbEntity
8
81
62
256
6
ByLayer
370
18
48
1
60
0
100
AcDbPoint
10
57.13
20
0
30
0
39
0
210
0
220
0
230
1
50
360
0
POINT
5
74
100
AcDbEntity
8
1
62
256
6
ByLayer
370
18
48
1
60
1
100
AcDbPoint
10
-22.87
20
0
30
0
39
0
210
0
220
0
230
1
50
360
0
POINT
5
76
100
AcDbEntity
8
1
62
256
6
ByLayer
370
18
48
1
60
1
100
AcDbPoint
10
57.13
20
0
30
0
39
0
210
0
220
0
230
1
50
360
0
POINT
5
77
100
AcDbEntity
8
1
62
256
6
ByLayer
370
18
48
1
60
1
100
AcDbPoint
10
57.13
20
0
30
0
39
0
210
0
220
0
230
1
50
360
0
POINT
5
78
100
AcDbEntity
8
1
62
256
6
ByLayer
370
18
48
1
60
1
100
AcDbPoint
10
32.13
20
0
30
0
39
0
210
0
220
0
230
1
50
360
0
POINT
5
79
100
AcDbEntity
8
1
62
256
6
ByLayer
370
18
48
1
60
1
100
AcDbPoint
10
57.13
20
0
30
0
39
0
210
0
220
0
230
1
50
360
0
POINT
5
7A
100
AcDbEntity
8
1
62
256
6
ByLayer
370
18
48
1
60
1
100
AcDbPoint
10
35.88
20
0
30
0
39
0
210
0
220
0
230
1
50
360
0
POINT
5
7B
100
AcDbEntity
8
1
62
256
6
ByLayer
370
18
48
1
60
1
100
AcDbPoint
10
57.13
20
0
30
0
39
0
210
0
220
0
230
1
50
360
0
POINT
5
7C
100
AcDbEntity
8
1
62
256
6
ByLayer
370
18
48
1
60
1
100
AcDbPoint
10
47.13
20
-2.5374
30
0
39
0
210
0
220
0
230
1
50
360
0
POINT
5
7D
100
AcDbEntity
8
1
62
256
6
ByLayer
370
18
48
1
60
1
100
AcDbPoint
10
57.13
20
0
30
0
39
0
210
0
220
0
230
1
50
360
0
POINT
5
7E
100
AcDbEntity
8
1
62
256
6
ByLayer
370
18
48
1
60
1
100
AcDbPoint
10
54.64
20
0
30
0
39
0
210
0
220
0
230
1
50
360
0
POINT
5
7F
100
AcDbEntity
8
1
62
256
6
ByLayer
370
18
48
1
60
1
100
AcDbPoint
10
57.13
20
-3.217762
30
0
39
0
210
0
220
0
230
1
50
360
0
POINT
5
80
100
AcDbEntity
8
1
62
256
6
ByLayer
370
18
48
1
60
1
100
AcDbPoint
10
57.13
20
3.217762
30
0
39
0
210
0
220
0
230
1
50
360
0
POINT
5
81
100
AcDbEntity
8
1
62
256
6
ByLayer
370
18
48
1
60
1
100
AcDbPoint
10
-22.87
20
2.425
30
0
39
0
210
0
220
0
230
1
50
360
0
POINT
5
82
100
AcDbEntity
8
1
62
256
6
ByLayer
370
18
48
1
60
1
100
AcDbPoint
10
-22.87
20
-2.425
30
0
39
0
210
0
220
0
230
1
50
360
0
SPLINE
5
C9
100
AcDbEntity
8
1
62
256
6
ByLayer
370
18
48
1
60
0
100
AcDbSpline
70
4
71
3
72
8
73
4
40
0
40
0
40
0
40
0
40
1
40
1
40
1
40
1
41
1
10
56.0390412554345
20
-2.67733914599279
30
0
41
1
10
56.0365484680603
20
-2.68399302215022
30
0
41
1
10
56.0340556804616
20
-2.68945569682109
30
0
41
1
10
56.0315628925832
20
-2.69371540945883
30
0
0
SPLINE
5
CA
100
AcDbEntity
8
1
62
256
6
ByLayer
370
13
48
1
60
0
100
AcDbSpline
70
4
71
3
72
8
73
4
40
0
40
0
40
0
40
0
40
1
40
1
40
1
40
1
41
1
10
56.0315628925829
20
-2.69371540945923
30
0
41
1
10
56.0294166670777
20
-2.6973829112097
30
0
41
1
10
56.0272704413651
20
-2.700158685839
30
0
41
1
10
56.0251242154099
20
-2.70203522753673
30
0
0
SPLINE
5
CB
100
AcDbEntity
8
1
62
256
6
ByLayer
370
13
48
1
60
0
100
AcDbSpline
70
4
71
3
72
8
73
4
40
0
40
0
40
0
40
0
40
1
40
1
40
1
40
1
41
1
10
49.6620995575335
20
-2.70208100185681
30
0
41
1
10
49.6683077908325
20
-2.70741651525304
30
0
41
1
10
49.6745160154711
20
-2.70523859895121
30
0
41
1
10
49.6807242407558
20
-2.69561264415611
30
0
0
SPLINE
5
CC
100
AcDbEntity
8
1
62
256
6
ByLayer
370
18
48
1
60
0
100
AcDbSpline
70
4
71
3
72
9
73
5
40
0
40
0
40
0
40
0
40
0.798971403946963
40
1
40
1
40
1
40
1
41
1
10
55.4350912635375
20
-2.87041455595019
30
0
41
1
10
55.4415713871843
20
-2.88877762311662
30
0
41
1
10
55.4495615469502
20
-2.90670961524788
30
0
41
1
10
55.4574230491578
20
-2.91848960994446
30
0
41
1
10
55.458998517327
20
-2.92060892492577
30
0
0
SPLINE
5
CD
100
AcDbEntity
8
1
62
256
6
ByLayer
370
18
48
1
60
0
100
AcDbSpline
70
4
71
3
72
9
73
5
40
0
40
0
40
0
40
0
40
0.442935846961322
40
1
40
1
40
1
40
1
41
1
10
55.4660694426577
20
-2.92847774212564
30
0
41
1
10
55.4683669524177
20
-2.93049527881686
30
0
41
1
10
55.4735319735243
20
-2.93383254493739
30
0
41
1
10
55.4786519262897
20
-2.93441778592725
30
0
41
1
10
55.4814922356438
20
-2.93387599738895
30
0
0
SPLINE
5
CE
100
AcDbEntity
8
1
62
256
6
ByLayer
370
13
48
1
60
0
100
AcDbSpline
70
4
71
3
72
9
73
5
40
0
40
0
40
0
40
0
40
0.4928473956073
40
1
40
1
40
1
40
1
41
1
10
51.2436902593926
20
2.69184453590722
30
0
41
1
10
51.247997589137
20
2.6998085230415
30
0
41
1
10
51.2567372714546
20
2.70868809426253
30
0
41
1
10
51.2654769531143
20
2.70257911416755
30
0
41
1
10
51.269909305355
20
2.69567687689306
30
0
0
SPLINE
5
CF
100
AcDbEntity
8
1
62
256
6
ByLayer
370
18
48
1
60
0
100
AcDbSpline
70
4
71
3
72
12
73
8
40
0
40
0
40
0
40
0
40
0.266335909293069
40
0.266335909293069
40
0.633167954646535
40
0.633167954646535
40
1
40
1
40
1
40
1
41
1
10
49.5131497834984
20
-2.97403622767732
30
0
41
1
10
49.5117429057719
20
-2.97383431373268
30
0
41
1
10
49.510333235606
20
-2.97313356472708
30
0
41
1
10
49.5069723659954
20
-2.97026753471997
30
0
41
1
10
49.5050255150308
20
-2.96765356554457
30
0
41
1
10
49.5011314835082
20
-2.96054211662377
30
0
41
1
10
49.499182195499
20
-2.95604341734347
30
0
41
1
10
49.4972313611937
20
-2.9506052868183
30
0
0
SPLINE
5
D0
100
AcDbEntity
8
1
62
256
6
ByLayer
370
13
48
1
60
0
100
AcDbSpline
70
4
71
3
72
8
73
4
40
0
40
0
40
0
40
0
40
1
40
1
40
1
40
1
41
1
10
55.3273704114487
20
-2.69474132650086
30
0
41
1
10
55.3219299804965
20
-2.68594755932986
30
0
41
1
10
55.3164895495605
20
-2.67144350811742
30
0
41
1
10
55.3110491186422
20
-2.65125640176126
30
0
0
SPLINE
5
D1
100
AcDbEntity
8
1
62
256
6
ByLayer
370
18
48
1
60
0
100
AcDbSpline
70
4
71
3
72
12
73
8
40
0
40
0
40
0
40
0
40
0.658863749907868
40
0.658863749907868
40
0.988295624861802
40
0.988295624861802
40
1
40
1
40
1
40
1
41
1
10
49.0718831892386
20
-2.8123841258392
30
0
41
1
10
49.0809665083813
20
-2.85733233583179
30
0
41
1
10
49.0900186337848
20
-2.88786542964254
30
0
41
1
10
49.1035812049367
20
-2.91229331214493
30
0
41
1
10
49.1081028001341
20
-2.91685474817456
30
0
41
1
10
49.1128146819338
20
-2.91776824312765
30
0
41
1
10
49.1129763957654
20
-2.91779490288758
30
0
41
1
10
49.113138151965
20
-2.91781688367996
30
0
0
SPLINE
5
D2
100
AcDbEntity
8
1
62
256
6
ByLayer
370
18
48
1
60
0
100
AcDbSpline
70
4
71
3
72
10
73
6
40
0
40
0
40
0
40
0
40
0.679432627347585
40
0.679432627347585
40
1
40
1
40
1
40
1
41
1
10
51.5427964991231
20
3.20798080073058
30
0
41
1
10
51.5445300579004
20
3.21099917730103
30
0
41
1
10
51.5462675262656
20
3.21332561896284
30
0
41
1
10
51.5488339180579
20
3.21571963032579
30
0
41
1
10
51.5496588274313
20
3.21633119282458
30
0
41
1
10
51.5504842379548
20
3.21678486981227
30
0
0
SPLINE
5
D3
100
AcDbEntity
8
1
62
256
6
ByLayer
370
18
48
1
60
0
100
AcDbSpline
70
4
71
3
72
12
73
8
40
0
40
0
40
0
40
0
40
0.0190813950326989
40
0.215265116026158
40
0.215265116026158
40
0.607632558013079
40
1
40
1
40
1
40
1
41
1
10
51.5540006859507
20
3.2177617448765
30
0
41
1
10
51.5542157314341
20
3.21776317691058
30
0
41
1
10
51.5566413773527
20
3.21765894690336
30
0
41
1
10
51.559062636856
20
3.21619955450854
30
0
41
1
10
51.565667895148
20
3.20888693164315
30
0
41
1
10
51.5744331564686
20
3.19029028493858
30
0
41
1
10
51.5831429743737
20
3.15423434606836
30
0
41
1
10
51.5875132892046
20
3.13179143235522
30
0
0
SPLINE
5
D4
100
AcDbEntity
8
1
62
256
6
ByLayer
370
18
48
1
60
0
100
AcDbSpline
70
4
71
3
72
16
73
12
40
0
40
0
40
0
40
0
40
0.347112829059772
40
0.347112829059772
40
0.694225658119543
40
0.694225658119543
40
0.781003865384486
40
0.781003865384486
40
0.867782072649429
40
0.867782072649429
40
1
40
1
40
1
40
1
41
1
10
51.6780314483611
20
3.10723829114687
30
0
41
1
10
51.6736690017563
20
3.13256968772595
30
0
41
1
10
51.6693259234756
20
3.15357106678567
30
0
41
1
10
51.6605977064793
20
3.18693051646764
30
0
41
1
10
51.6562039307206
20
3.19928895570675
30
0
41
1
10
51.6506807899864
20
3.20921070817025
30
0
41
1
10
51.6495746292107
20
3.21091818923404
30
0
41
1
10
51.6473591559078
20
3.21377400904393
30
0
41
1
10
51.6462484522095
20
3.21492327501733
30
0
41
1
10
51.6434504994964
20
3.21710350088225
30
0
41
1
10
51.641767404021
20
3.21775855589365
30
0
41
1
10
51.6400895085356
20
3.21776199220758
30
0
0
SPLINE
5
D5
100
AcDbEntity
8
1
62
256
6
ByLayer
370
13
48
1
60
0
100
AcDbSpline
70
4
71
3
72
9
73
5
40
0
40
0
40
0
40
0
40
0.229763951403379
40
1
40
1
40
1
40
1
41
1
10
48.9480565049588
20
-2.59070993096626
30
0
41
1
10
48.9502863608379
20
-2.60273562624002
30
0
41
1
10
48.9599913468058
20
-2.65103249749325
30
0
41
1
10
48.9696963339781
20
-2.68140447014167
30
0
41
1
10
48.9771714650308
20
-2.69400647724746
30
0
0
SPLINE
5
D6
100
AcDbEntity
8
1
62
256
6
ByLayer
370
13
48
1
60
0
100
AcDbSpline
70
4
71
3
72
9
73
5
40
0
40
0
40
0
40
0
40
0.855128987832566
40
1
40
1
40
1
40
1
41
1
10
55.1242331595554
20
-2.69420072730574
30
0
41
1
10
55.1089407160783
20
-2.71958552306427
30
0
41
1
10
55.0910575596004
20
-2.69616669657123
30
0
41
1
10
55.0731743226669
20
-2.61137406771178
30
0
41
1
10
55.0705835587735
20
-2.59783078686138
30
0
0
SPLINE
5
D7
100
AcDbEntity
8
1
62
256
6
ByLayer
370
13
48
1
60
0
100
AcDbSpline
70
4
71
3
72
9
73
5
40
0
40
0
40
0
40
0
40
0.214720508044638
40
1
40
1
40
1
40
1
41
1
10
51.9512853720464
20
2.69080162232632
30
0
41
1
10
51.9536217135349
20
2.68633823098901
30
0
41
1
10
51.9645025643504
20
2.66062050896886
30
0
41
1
10
51.9753834246215
20
2.61193465918436
30
0
41
1
10
51.9839279381872
20
2.56029779424591
30
0
0
SPLINE
5
D8
100
AcDbEntity
8
1
62
256
6
ByLayer
370
13
48
1
60
0
100
AcDbSpline
70
4
71
3
72
10
73
6
40
0
40
0
40
0
40
0
40
0.28348131294605
40
0.934924777873921
40
1
40
1
40
1
40
1
41
1
10
48.7075654640097
20
-2.51731448764812
30
0
41
1
10
48.7139864806671
20
-2.56135084256013
30
0
41
1
10
48.7351630698347
20
-2.6820368701992
30
0
41
1
10
48.7578135483687
20
-2.71972894410573
30
0
41
1
10
48.7740430866159
20
-2.69517326715248
30
0
41
1
10
48.775517076132
20
-2.69252058253215
30
0
0
SPLINE
5
D9
100
AcDbEntity
8
1
62
256
6
ByLayer
370
18
48
1
60
0
100
AcDbSpline
70
4
71
3
72
20
73
16
40
0
40
0
40
0
40
0
40
0.0255444710422157
40
0.0255444710422157
40
0.0768316041452567
40
0.179405870351339
40
0.179405870351339
40
0.384554402763505
40
0.58970293517567
40
0.58970293517567
40
0.692277201381753
40
0.692277201381753
40
0.794851467587835
40
0.794851467587835
40
1
40
1
40
1
40
1
41
1
10
54.9075433482608
20
-3.06690312857774
30
0
41
1
10
54.907311812745
20
-3.0670623503072
30
0
41
1
10
54.9070817872009
20
-3.06715940051689
30
0
41
1
10
54.9063952351628
20
-3.0672642332477
30
0
41
1
10
54.9050398768206
20
-3.06672458159267
30
0
41
1
10
54.9037401016576
20
-3.06396279066314
30
0
41
1
10
54.9012064993434
20
-3.05552544285561
30
0
41
1
10
54.8980044099067
20
-3.03651953442613
30
0
41
1
10
54.8950605893845
20
-3.00217591379928
30
0
41
1
10
54.8929057853314
20
-2.9705698627385
30
0
41
1
10
54.8921953444974
20
-2.95905935379611
30
0
41
1
10
54.8907650145501
20
-2.93408140275346
30
0
41
1
10
54.8900449296719
20
-2.92058613211807
30
0
41
1
10
54.8878799023261
20
-2.87735433832302
30
0
41
1
10
54.8864305234711
20
-2.84491519001361
30
0
41
1
10
54.8849692607263
20
-2.80889543564993
30
0
0
SPLINE
5
DA
100
AcDbEntity
8
1
62
256
6
ByLayer
370
18
48
1
60
0
100
AcDbSpline
70
4
71
3
72
17
73
13
40
0
40
0
40
0
40
0
40
0.234219097547486
40
0.468438195094973
40
0.468438195094973
40
0.585547743868717
40
0.585547743868717
40
0.702657292642461
40
0.702657292642461
40
0.93687639018995
40
0.93687639018995
40
1
40
1
40
1
40
1
41
1
10
54.569045640903
20
-2.72121982089826
30
0
41
1
10
54.5757420394813
20
-2.76792423442365
30
0
41
1
10
54.5890672566704
20
-2.85333676227077
30
0
41
1
10
54.6023849780752
20
-2.92305755529316
30
0
41
1
10
54.6124071967629
20
-2.96935791657666
30
0
41
1
10
54.6157534792179
20
-2.98379072509508
30
0
41
1
10
54.6224618733809
20
-3.01060811752527
30
0
41
1
10
54.625831433635
20
-3.0230092013442
30
0
41
1
10
54.635849412522
20
-3.05672454982064
30
0
41
1
10
54.642427203005
20
-3.07467900671762
30
0
41
1
10
54.6506701061898
20
-3.0919125285445
30
0
41
1
10
54.6524139224027
20
-3.09525302294406
30
0
41
1
10
54.654152093674
20
-3.098275568643
30
0
0
SPLINE
5
DB
100
AcDbEntity
8
1
62
256
6
ByLayer
370
18
48
1
60
0
100
AcDbSpline
70
4
71
3
72
9
73
5
40
0
40
0
40
0
40
0
40
0.362635732072626
40
1
40
1
40
1
40
1
41
1
10
54.6593280534018
20
-3.10635895870098
30
0
41
1
10
54.6622900466784
20
-3.11045626098897
30
0
41
1
10
54.6704158257362
20
-3.11917776386059
30
0
41
1
10
54.6784423514235
20
-3.12079645752212
30
0
41
1
10
54.6835318683191
20
-3.11886730208644
30
0
0
SPLINE
5
DC
100
AcDbEntity
8
1
62
256
6
ByLayer
370
13
48
1
60
0
100
AcDbSpline
70
4
71
3
72
9
73
5
40
0
40
0
40
0
40
0
40
0.691979368942542
40
1
40
1
40
1
40
1
41
1
10
54.3567225345568
20
-2.33828592154123
30
0
41
1
10
54.3709966575883
20
-2.47272995756507
30
0
41
1
10
54.3916246219465
20
-2.61716088579351
30
0
41
1
10
54.4122525813624
20
-2.68029691290741
30
0
41
1
10
54.4186064183168
20
-2.69195211323722
30
0
0
SPLINE
5
DD
100
AcDbEntity
8
1
62
256
6
ByLayer
370
18
48
1
60
0
100
AcDbSpline
70
4
71
3
72
20
73
16
40
0
40
0
40
0
40
0
40
0.0272079733459736
40
0.0272079733459736
40
0.0784075536961864
40
0.0784075536961864
40
0.18080671439661
40
0.18080671439661
40
0.590403357198306
40
0.590403357198306
40
0.795201678599154
40
0.795201678599154
40
0.897600839299577
40
0.897600839299577
40
1
40
1
40
1
40
1
41
1
10
48.6741849744566
20
-2.85612594357417
30
0
41
1
10
48.6736805847057
20
-2.85605047287444
30
0
41
1
10
48.6731757802342
20
-2.85591412764188
30
0
41
1
10
48.6717198405279
20
-2.85534492129662
30
0
41
1
10
48.670766491509
20
-2.85475546657051
30
0
41
1
10
48.6679120582165
20
-2.8523399422096
30
0
41
1
10
48.6660168178789
20
-2.84986996847863
30
0
41
1
10
48.6565730670834
20
-2.83329814902885
30
0
41
1
10
48.6491369356812
20
-2.80662197003676
30
0
41
1
10
48.6378593803419
20
-2.74679737047194
30
0
41
1
10
48.634079164114
20
-2.72353661747343
30
0
41
1
10
48.6283812863113
20
-2.68354988014272
30
0
41
1
10
48.6264744760569
20
-2.66934882345649
30
0
41
1
10
48.6226620436022
20
-2.63931279869055
30
0
41
1
10
48.6207607119961
20
-2.62351424355606
30
0
41
1
10
48.6188624867345
20
-2.60694111554983
30
0
0
SPLINE
5
DE
100
AcDbEntity
8
1
62
256
6
ByLayer
370
18
48
1
60
0
100
AcDbSpline
70
4
71
3
72
20
73
16
40
0
40
0
40
0
40
0
40
0.273561239714576
40
0.273561239714576
40
0.410341859571863
40
0.410341859571863
40
0.478732169500506
40
0.478732169500506
40
0.54712247942915
40
0.54712247942915
40
0.820683719143719
40
0.820683719143719
40
0.957464339001005
40
0.957464339001005
40
1
40
1
40
1
40
1
41
1
10
48.0299142174863
20
-2.26569165793555
30
0
41
1
10
48.0387467333782
20
-2.35565268416974
30
0
41
1
10
48.0474367674567
20
-2.43406768122571
30
0
41
1
10
48.0605023316628
20
-2.53479919717708
30
0
41
1
10
48.0648723780996
20
-2.56554738357744
30
0
41
1
10
48.0714732291324
20
-2.60734503774725
30
0
41
1
10
48.0736797539206
20
-2.62055573286639
30
0
41
1
10
48.0781055018114
20
-2.64550746112923
30
0
41
1
10
48.0803180838364
20
-2.65720798342053
30
0
41
1
10
48.0913191025851
20
-2.71153837569395
30
0
41
1
10
48.0999692541939
20
-2.74209580180482
30
0
41
1
10
48.1130196220854
20
-2.76908801167355
30
0
41
1
10
48.117391338954
20
-2.77492955546086
30
0
41
1
10
48.1231473947959
20
-2.77837194843093
30
0
41
1
10
48.1245145907904
20
-2.77887712651577
30
0
41
1
10
48.1258837303706
20
-2.77906753874652
30
0
0
SPLINE
5
DF
100
AcDbEntity
8
1
62
256
6
ByLayer
370
13
48
1
60
0
100
AcDbSpline
70
4
71
3
72
9
73
5
40
0
40
0
40
0
40
0
40
0.453891316904449
40
1
40
1
40
1
40
1
41
1
10
52.1544498179702
20
2.69772534149268
30
0
41
1
10
52.165037228332
20
2.71220426758777
30
0
41
1
10
52.1883631001688
20
2.69624579582225
30
0
41
1
10
52.2116889670072
20
2.57466867965718
30
0
41
1
10
52.2244274263365
20
2.47925875249982
30
0
0
SPLINE
5
E0
100
AcDbEntity
8
1
62
256
6
ByLayer
370
13
48
1
60
0
100
AcDbSpline
70
4
71
3
72
9
73
5
40
0
40
0
40
0
40
0
40
0.426416432972096
40
1
40
1
40
1
40
1
41
1
10
47.9937226009567
20
-2.20322277070409
30
0
41
1
10
48.0041971579339
20
-2.31705109685487
30
0
41
1
10
48.0287613061606
20
-2.54328266914862
30
0
41
1
10
48.0533254623845
20
-2.66053074582541
30
0
41
1
10
48.0674150569166
20
-2.68913428250954
30
0
0
SPLINE
5
E1
100
AcDbEntity
8
1
62
256
6
ByLayer
370
13
48
1
60
0
100
AcDbSpline
70
4
71
3
72
10
73
6
40
0
40
0
40
0
40
0
40
0.466054204331006
40
0.934745294164253
40
1
40
1
40
1
40
1
41
1
10
47.7532110610697
20
-2.0654481086597
30
0
41
1
10
47.7678836068599
20
-2.24295396131313
30
0
41
1
10
47.7973118356124
20
-2.53425965640991
30
0
41
1
10
47.8287941485735
20
-2.67833769735236
30
0
41
1
10
47.8456040836857
20
-2.70004393525437
30
0
41
1
10
47.8476584642697
20
-2.70187412047727
30
0
0
SPLINE
5
E2
100
AcDbEntity
8
1
62
256
6
ByLayer
370
18
48
1
60
0
100
AcDbSpline
70
4
71
3
72
23
73
19
40
0
40
0
40
0
40
0
40
0.0222099008048742
40
0.185174917337396
40
0.185174917337396
40
0.225916171470526
40
0.225916171470526
40
0.266657425603656
40
0.348139933869916
40
0.348139933869916
40
0.511104950402436
40
0.674069966934956
40
0.674069966934956
40
0.755552475201217
40
0.755552475201217
40
0.837034983467477
40
0.837034983467477
40
1
40
1
40
1
40
1
41
1
10
52.4611760747166
20
3.2177620046549
30
0
41
1
10
52.4617726177885
20
3.21776271380878
30
0
41
1
10
52.4667466670213
20
3.21708172797287
30
0
41
1
10
52.4717260505219
20
3.21066806700407
30
0
41
1
10
52.477252628057
20
3.19787924786112
30
0
41
1
10
52.478359254022
20
3.19503638505273
30
0
41
1
10
52.4805679890114
20
3.18880615974055
30
0
41
1
10
52.4838786496165
20
3.17863546491552
30
0
41
1
10
52.4871846268496
20
3.16601399785299
30
0
41
1
10
52.4937854727317
20
3.13755024647443
30
0
41
1
10
52.5025542692089
20
3.09102276421768
30
0
41
1
10
52.5112763396897
20
3.02751434884891
30
0
41
1
10
52.5178411009658
20
2.97342066981966
30
0
41
1
10
52.5200335802747
20
2.95431073644656
30
0
41
1
10
52.524438298561
20
2.91389692429149
30
0
41
1
10
52.5266559768016
20
2.89254407819823
30
0
41
1
10
52.5332878826229
20
2.82579278743847
30
0
41
1
10
52.5376911798093
20
2.77757000016007
30
0
41
1
10
52.5420751366568
20
2.72572660706388
30
0
0
SPLINE
5
E3
100
AcDbEntity
8
1
62
256
6
ByLayer
370
18
48
1
60
0
100
AcDbSpline
70
4
71
3
72
25
73
21
40
0
40
0
40
0
40
0
40
0.0771788082316356
40
0.115768212347454
40
0.115768212347454
40
0.154357616463272
40
0.154357616463272
40
0.308715232926545
40
0.463072849389818
40
0.463072849389818
40
0.617430465853091
40
0.617430465853091
40
0.694609274084728
40
0.694609274084728
40
0.733198678200547
40
0.733198678200547
40
0.771788082316365
40
0.926145698779641
40
0.926145698779641
40
1
40
1
40
1
40
1
41
1
10
52.6325849949248
20
2.67120533858002
30
0
41
1
10
52.6303867128601
20
2.6984655746067
30
0
41
1
10
52.6270790634986
20
2.73805252257196
30
0
41
1
10
52.6237576299079
20
2.77565387129107
30
0
41
1
10
52.621540114253
20
2.80027540000978
30
0
41
1
10
52.6204288671505
20
2.81237215358152
30
0
41
1
10
52.6148918572535
20
2.87143546787678
30
0
41
1
10
52.60611912698
20
2.9573186509671
30
0
41
1
10
52.5974279994762
20
3.02647709703703
30
0
41
1
10
52.5886921771436
20
3.08731612232666
30
0
41
1
10
52.5842979724603
20
3.11357617864468
30
0
41
1
10
52.5776789700091
20
3.14660451862699
30
0
41
1
10
52.5754677604884
20
3.15655202549294
30
0
41
1
10
52.5721421183266
20
3.16984927045786
30
0
41
1
10
52.5710327213416
20
3.17400747084986
30
0
41
1
10
52.5688218613568
20
3.1817403055357
30
0
41
1
10
52.5633072242287
20
3.19963977696634
30
0
41
1
10
52.5578503155968
20
3.21047004659906
30
0
41
1
10
52.5513994530002
20
3.21674215298722
30
0
41
1
10
52.549310101394
20
3.21775956895752
30
0
41
1
10
52.5472178637936
20
3.21776363509011
30
0
0
SPLINE
5
E4
100
AcDbEntity
8
1
62
256
6
ByLayer
370
13
48
1
60
0
100
AcDbSpline
70
4
71
3
72
10
73
6
40
0
40
0
40
0
40
0
40
0.389027869465842
40
0.924193953323559
40
1
40
1
40
1
40
1
41
1
10
52.8557154440018
20
2.69541829578043
30
0
41
1
10
52.8664416845878
20
2.67853077310843
30
0
41
1
10
52.8919234743276
20
2.58547642502182
30
0
41
1
10
52.9194954222991
20
2.35338433231431
30
0
41
1
10
52.9363410875402
20
2.16604128625596
30
0
41
1
10
52.9384312043412
20
2.14212152905972
30
0
0
SPLINE
5
E5
100
AcDbEntity
8
1
62
256
6
ByLayer
370
18
48
1
60
0
100
AcDbSpline
70
4
71
3
72
22
73
18
40
0
40
0
40
0
40
0
40
0.250000000000001
40
0.250000000000001
40
0.375000000000001
40
0.375000000000001
40
0.437500000000001
40
0.437500000000001
40
0.5
40
0.5
40
0.75
40
0.75
40
0.874999999999999
40
0.874999999999999
40
0.9375
40
0.9375
40
1
40
1
40
1
40
1
41
1
10
47.8284470325782
20
-2.73364528158345
30
0
41
1
10
47.8211421681036
20
-2.72490508419492
30
0
41
1
10
47.8138645668759
20
-2.70401970611596
30
0
41
1
10
47.8029556707836
20
-2.65494699825422
30
0
41
1
10
47.7993214078824
20
-2.63561703632627
30
0
41
1
10
47.7938519749692
20
-2.60208508294858
30
0
41
1
10
47.792025640309
20
-2.59015062921702
30
0
41
1
10
47.7883607441307
20
-2.56474213390987
30
0
41
1
10
47.7865197862723
20
-2.55124651234331
30
0
41
1
10
47.7773500379106
20
-2.48051617350103
30
0
41
1
10
47.7700502654731
20
-2.41319678097741
30
0
41
1
10
47.7591326243299
20
-2.29661478993901
30
0
41
1
10
47.7554969039481
20
-2.25514000146813
30
0
41
1
10
47.7500228082962
20
-2.18894722578716
30
0
41
1
10
47.7481945123024
20
-2.1662186907553
30
0
41
1
10
47.7445241814858
20
-2.11941253521249
30
0
41
1
10
47.7426787590358
20
-2.09528969240355
30
0
41
1
10
47.7408321003808
20
-2.07060782231505
30
0
0
SPLINE
5
E6
100
AcDbEntity
8
1
62
256
6
ByLayer
370
18
48
1
60
0
100
AcDbSpline
70
4
71
3
72
22
73
18
40
0
40
0
40
0
40
0
40
0.125
40
0.125
40
0.1875
40
0.1875
40
0.25
40
0.25
40
0.500000000000001
40
0.500000000000001
40
0.750000000000001
40
0.750000000000001
40
0.8125
40
0.8125
40
0.875
40
0.875
40
1
40
1
40
1
40
1
41
1
10
53.9052806036398
20
-3.21725606616582
30
0
41
1
10
53.9020600735857
20
-3.21598591511591
30
0
41
1
10
53.8988376494468
20
-3.21232460670186
30
0
41
1
10
53.893992404758
20
-3.20318185943785
30
0
41
1
10
53.8923752871602
20
-3.19952529451109
30
0
41
1
10
53.889134247074
20
-3.1909769953887
30
0
41
1
10
53.8875091020971
20
-3.1860786668789
30
0
41
1
10
53.8794188344365
20
-3.15867751161144
30
0
41
1
10
53.8729915934723
20
-3.12738012776384
30
0
41
1
10
53.8601102883177
20
-3.04664203431943
30
0
41
1
10
53.8536863541765
20
-2.99719997898794
30
0
41
1
10
53.8456256220077
20
-2.9238178743031
30
0
41
1
10
53.8440114092811
20
-2.9085600421584
30
0
41
1
10
53.8407753828798
20
-2.87686552002896
30
0
41
1
10
53.8391513568395
20
-2.86040405164852
30
0
41
1
10
53.8342966497052
20
-2.80960083943921
30
0
41
1
10
53.8310711254397
20
-2.77375202681461
30
0
41
1
10
53.8278451649329
20
-2.73597015784256
30
0
0
SPLINE
5
E7
100
AcDbEntity
8
1
62
256
6
ByLayer
370
13
48
1
60
0
100
AcDbSpline
70
4
71
3
72
10
73
6
40
0
40
0
40
0
40
0
40
0.117737272789326
40
0.583967083554265
40
1
40
1
40
1
40
1
41
1
10
54.1161820065782
20
-2.21705148219044
30
0
41
1
10
54.1199082412908
20
-2.25706051883535
30
0
41
1
10
54.1383900461128
20
-2.44452197059965
30
0
41
1
10
54.1700385866553
20
-2.66669046805694
30
0
41
1
10
54.1979610970471
20
-2.71362300289334
30
0
41
1
10
54.2111279911489
20
-2.70192613492046
30
0
0
SPLINE
5
E8
100
AcDbEntity
8
1
62
256
6
ByLayer
370
18
48
1
60
0
100
AcDbSpline
70
4
71
3
72
22
73
18
40
0
40
0
40
0
40
0
40
0.125000000000001
40
0.125000000000001
40
0.187500000000001
40
0.187500000000001
40
0.25
40
0.25
40
0.500000000000002
40
0.500000000000002
40
0.750000000000003
40
0.750000000000003
40
0.812500000000003
40
0.812500000000003
40
0.875000000000002
40
0.875000000000002
40
1
40
1
40
1
40
1
41
1
10
47.535322743374
20
1.69407801758172
30
0
41
1
10
47.5317497333408
20
1.75065665345417
30
0
41
1
10
47.528180209075
20
1.80519448533627
30
0
41
1
10
47.5228360357631
20
1.88396135204783
30
0
41
1
10
47.5210561652283
20
1.90970967433341
30
0
41
1
10
47.5174981334103
20
1.96018743000317
30
0
41
1
10
47.5157170453632
20
1.98495640321539
30
0
41
1
10
47.5068476959523
20
2.10570079760726
30
0
41
1
10
47.4998921367746
20
2.19218867953501
30
0
41
1
10
47.4858811162217
20
2.34563847974914
30
0
41
1
10
47.4788767538294
20
2.41260877214705
30
0
41
1
10
47.4700874197309
20
2.48361131884275
30
0
41
1
10
47.4683330737942
20
2.49711965146364
30
0
41
1
10
47.4648352361469
20
2.52268805255426
30
0
41
1
10
47.4630902453196
20
2.53476031602187
30
0
41
1
10
47.4578556386603
20
2.56884978124933
30
0
41
1
10
47.4543591565981
20
2.58874211377099
30
0
41
1
10
47.4508502934432
20
2.60578456916664
30
0
0
SPLINE
5
E9
100
AcDbEntity
8
1
62
256
6
ByLayer
370
18
48
1
60
0
100
AcDbSpline
70
4
71
3
72
10
73
6
40
0
40
0
40
0
40
0
40
0.5
40
0.5
40
1
40
1
40
1
40
1
41
1
10
53.8278451649334
20
-2.73597015784168
30
0
41
1
10
53.8263016264029
20
-2.67954006815373
30
0
41
1
10
53.8247927322916
20
-2.61941993730133
30
0
41
1
10
53.8217180378539
20
-2.49198800029333
30
0
41
1
10
53.8201487299666
20
-2.42468132557593
30
0
41
1
10
53.8185016280524
20
-2.35372960339052
30
0
0
SPLINE
5
EA
100
AcDbEntity
8
1
62
256
6
ByLayer
370
18
48
1
60
0
100
AcDbSpline
70
4
71
3
72
8
73
4
40
0
40
0
40
0
40
0
40
1
40
1
40
1
40
1
41
1
10
53.827845164929
20
-2.73597015784313
30
0
41
1
10
53.7925080488929
20
-2.65664515699416
30
0
41
1
10
53.7566452113756
20
-2.56858769488096
30
0
41
1
10
53.7214413519419
20
-2.47146616839294
30
0
0
SPLINE
5
EB
100
AcDbEntity
8
1
62
256
6
ByLayer
370
18
48
1
60
0
100
AcDbSpline
70
4
71
3
72
8
73
4
40
0
40
0
40
0
40
0
40
1
40
1
40
1
40
1
41
1
10
53.7031581593506
20
-2.2790835641016
30
0
41
1
10
53.7092264791032
20
-2.34602302408592
30
0
41
1
10
53.7153098885274
20
-2.41014717902627
30
0
41
1
10
53.7214413519419
20
-2.47146616839291
30
0
0
SPLINE
5
EC
100
AcDbEntity
8
1
62
256
6
ByLayer
370
13
48
1
60
0
100
AcDbSpline
70
4
71
3
72
10
73
6
40
0
40
0
40
0
40
0
40
0.246905026559574
40
0.713683107082132
40
1
40
1
40
1
40
1
41
1
10
53.4022633369852
20
-1.77537729698039
30
0
41
1
10
53.4100683728332
20
-1.88571010663597
30
0
41
1
10
53.4326289594808
20
-2.18221914501714
30
0
41
1
10
53.4642404601208
20
-2.49000776988268
30
0
41
1
10
53.4880469155236
20
-2.61877766806575
30
0
41
1
10
53.4970978196331
20
-2.6521504997684
30
0
0
SPLINE
5
ED
100
AcDbEntity
8
1
62
256
6
ByLayer
370
18
48
1
60
0
100
AcDbSpline
70
4
71
3
72
23
73
19
40
0
40
0
40
0
40
0
40
0.125000000000001
40
0.125000000000001
40
0.187500000000001
40
0.187500000000001
40
0.25
40
0.25
40
0.499999999999999
40
0.499999999999999
40
0.749999999999998
40
0.749999999999998
40
0.781249999999998
40
0.781249999999998
40
0.812499999999998
40
0.874999999999999
40
0.874999999999999
40
1
40
1
40
1
40
1
41
1
10
53.7214413519419
20
-2.47146616839291
30
0
41
1
10
53.7253068827369
20
-2.52666482544112
30
0
41
1
10
53.7291877616845
20
-2.57922810671369
30
0
41
1
10
53.7350249708143
20
-2.65407249654911
30
0
41
1
10
53.7369735533156
20
-2.67835306006015
30
0
41
1
10
53.7408776994112
20
-2.72556100897745
30
0
41
1
10
53.7428346096019
20
-2.74850370193451
30
0
41
1
10
53.7526301574666
20
-2.85961132610399
30
0
41
1
10
53.7603204236268
20
-2.93510720264584
30
0
41
1
10
53.7758230629272
20
-3.06040565734841
30
0
41
1
10
53.7835965708165
20
-3.1102084184175
30
0
41
1
10
53.7923944248926
20
-3.1512443229814
30
0
41
1
10
53.7933741046083
20
-3.15559873938452
30
0
41
1
10
53.7953287972782
20
-3.163853852253
30
0
41
1
10
53.7982547170065
20
-3.17556153174797
30
0
41
1
10
53.8011654635991
20
-3.18526386933962
30
0
41
1
10
53.8069772400626
20
-3.20203376117959
30
0
41
1
10
53.8108431412438
20
-3.20970485865405
30
0
41
1
10
53.8147181203281
20
-3.2139177155185
30
0
0
SPLINE
5
EE
100
AcDbEntity
8
1
62
256
6
ByLayer
370
13
48
1
60
0
100
AcDbSpline
70
4
71
3
72
10
73
6
40
0
40
0
40
0
40
0
40
0.421293572611239
40
0.889798538860635
40
1
40
1
40
1
40
1
41
1
10
47.6754737804687
20
2.56917686130234
30
0
41
1
10
47.6887424119131
20
2.49134222377631
30
0
41
1
10
47.7167665996938
20
2.25794628125851
30
0
41
1
10
47.7482615702097
20
1.8521348105995
30
0
41
1
10
47.7664879153756
20
1.57679757961861
30
0
41
1
10
47.7699587078321
20
1.52304528988202
30
0
0
SPLINE
5
EF
100
AcDbEntity
8
1
62
256
6
ByLayer
370
13
48
1
60
0
100
AcDbSpline
70
4
71
3
72
10
73
6
40
0
40
0
40
0
40
0
40
0.334296406721576
40
0.801405520526196
40
1
40
1
40
1
40
1
41
1
10
53.0841314878869
20
2.69563671525847
30
0
41
1
10
53.0946916083982
20
2.67916073911911
30
0
41
1
10
53.1200072833217
20
2.58789327462054
30
0
41
1
10
53.1515963702657
20
2.32422562058176
30
0
41
1
10
53.1726253426913
20
2.07753853820574
30
0
41
1
10
53.1788987621093
20
1.99830628798839
30
0
0
SPLINE
5
F0
100
AcDbEntity
8
1
62
256
6
ByLayer
370
18
48
1
60
0
100
AcDbSpline
70
4
71
3
72
93
73
89
40
0
40
0
40
0
40
0
40
0.0312499999999987
40
0.0312499999999987
40
0.0624999999999974
40
0.0624999999999974
40
0.0937499999999961
40
0.0937499999999961
40
0.109374999999996
40
0.117187499999995
40
0.117187499999995
40
0.124999999999995
40
0.124999999999995
40
0.140624999999994
40
0.140624999999994
40
0.156249999999994
40
0.156249999999994
40
0.18749999999999
40
0.18749999999999
40
0.249999999999984
40
0.249999999999984
40
0.281249999999982
40
0.281249999999982
40
0.312499999999979
40
0.312499999999979
40
0.328124999999978
40
0.328124999999978
40
0.343749999999977
40
0.343749999999977
40
0.374999999999971
40
0.374999999999971
40
0.390624999999967
40
0.390624999999967
40
0.398437499999964
40
0.398437499999964
40
0.406249999999962
40
0.406249999999962
40
0.437499999999957
40
0.437499999999957
40
0.468749999999951
40
0.468749999999951
40
0.484374999999948
40
0.484374999999948
40
0.492187499999948
40
0.492187499999948
40
0.499999999999948
40
0.499999999999948
40
0.51562499999995
40
0.51562499999995
40
0.523437499999952
40
0.523437499999952
40
0.531249999999953
40
0.531249999999953
40
0.562499999999955
40
0.562499999999955
40
0.593749999999958
40
0.593749999999958
40
0.601562499999959
40
0.601562499999959
40
0.609374999999959
40
0.609374999999959
40
0.62499999999996
40
0.62499999999996
40
0.632812499999961
40
0.632812499999961
40
0.640624999999962
40
0.640624999999962
40
0.656249999999963
40
0.656249999999963
40
0.671874999999964
40
0.671874999999964
40
0.687499999999965
40
0.687499999999965
40
0.718749999999969
40
0.718749999999969
40
0.749999999999973
40
0.749999999999973
40
0.781249999999977
40
0.781249999999977
40
0.796874999999979
40
0.796874999999979
40
0.812499999999981
40
0.812499999999981
40
0.874999999999988
40
0.874999999999988
40
0.937499999999994
40
0.937499999999994
40
1
40
1
40
1
40
1
41
1
10
39.453566319773
20
2.49185470405513
30
0
41
1
10
39.3982789538316
20
2.50092302011728
30
0
41
1
10
39.3420443356606
20
2.50833731444058
30
0
41
1
10
39.2274712056906
20
2.52036052982101
30
0
41
1
10
39.1691280062589
20
2.52496614817704
30
0
41
1
10
39.0499440017567
20
2.53186102562884
30
0
41
1
10
38.9890760250738
20
2.53414740694825
30
0
41
1
10
38.8955798612363
20
2.53625038370839
30
0
41
1
10
38.8482854495258
20
2.53697086997892
30
0
41
1
10
38.8001327722796
20
2.5372750826518
30
0
41
1
10
38.7678367829807
20
2.5373942441862
30
0
41
1
10
38.7515770178018
20
2.53741218178064
30
0
41
1
10
38.7026626539462
20
2.53735229641995
30
0
41
1
10
38.6698461920117
20
2.53715949516697
30
0
41
1
10
38.6037859493956
20
2.53650419788932
30
0
41
1
10
38.5705155141121
20
2.53604120531315
30
0
41
1
10
38.4702220418304
20
2.53430562797914
30
0
41
1
10
38.4029136242509
20
2.53269133336946
30
0
41
1
10
38.1995597884549
20
2.52696406441768
30
0
41
1
10
38.0620600057004
20
2.52196973647634
30
0
41
1
10
37.8521220224993
20
2.51477947064535
30
0
41
1
10
37.7815343197271
20
2.51243022579283
30
0
41
1
10
37.638984508778
20
2.50816012219448
30
0
41
1
10
37.5670036182111
20
2.50625025309526
30
0
41
1
10
37.4579189424435
20
2.5039100703851
30
0
41
1
10
37.4214517760676
20
2.50321958773273
30
0
41
1
10
37.3485787556297
20
2.50205275468045
30
0
41
1
10
37.3121309580093
20
2.50158008884711
30
0
41
1
10
37.2027522809276
20
2.5005308533612
30
0
41
1
10
37.1297861837126
20
2.5003265677166
30
0
41
1
10
37.0202600783846
20
2.50085014623807
30
0
41
1
10
36.9837383550911
20
2.50116412355953
30
0
41
1
10
36.9289350578654
20
2.50184850919587
30
0
41
1
10
36.910663834677
20
2.50211218376006
30
0
41
1
10
36.8741141526758
20
2.50271151814178
30
0
41
1
10
36.855827807789
20
2.50304744071303
30
0
41
1
10
36.7648462080999
20
2.5048993288319
30
0
41
1
10
36.69314618061
20
2.50695072100854
30
0
41
1
10
36.5523182055686
20
2.51203556625487
30
0
41
1
10
36.4831759753486
20
2.51507361005781
30
0
41
1
10
36.3819775053318
20
2.52006965441026
30
0
41
1
10
36.348666300961
20
2.52180501250285
30
0
41
1
10
36.2994420703751
20
2.52443012610434
30
0
41
1
10
36.2831087556359
20
2.52531133362976
30
0
41
1
10
36.2510160080063
20
2.52704697319965
30
0
41
1
10
36.2352587268052
20
2.52790124059342
30
0
41
1
10
36.1889306491993
20
2.53039099757382
30
0
41
1
10
36.1592915812702
20
2.53195527422656
30
0
41
1
10
36.1169904076663
20
2.53397573636732
30
0
41
1
10
36.1032520862354
20
2.53459439746914
30
0
41
1
10
36.0765682175788
20
2.53568182336977
30
0
41
1
10
36.0636397725224
20
2.53614908057583
30
0
41
1
10
36.0021964789537
20
2.53796728134125
30
0
41
1
10
35.9623316557109
20
2.5378507013412
30
0
41
1
10
35.9041035998786
20
2.53147822039014
30
0
41
1
10
35.887780777037
20
2.5253725684521
30
0
41
1
10
35.880843797846
20
2.51327163974307
30
0
41
1
10
35.8801501529607
20
2.51064849177396
30
0
41
1
10
35.880024051437
20
2.50503539209876
30
0
41
1
10
35.8806078591668
20
2.50204074898016
30
0
41
1
10
35.8838848643686
20
2.49249762209493
30
0
41
1
10
35.8881536871625
20
2.48539057669026
30
0
41
1
10
35.8977898982508
20
2.47365188351213
30
0
41
1
10
35.9015392416481
20
2.46955921809965
30
0
41
1
10
35.9101145160214
20
2.46101989079088
30
0
41
1
10
35.9149306552102
20
2.45658519500219
30
0
41
1
10
35.930740768358
20
2.44294640021906
30
0
41
1
10
35.9431862794524
20
2.43336436258724
30
0
41
1
10
35.9710357595475
20
2.41329507282353
30
0
41
1
10
35.9864210512043
20
2.40280455627595
30
0
41
1
10
36.0194899029198
20
2.38095219798927
30
0
41
1
10
36.0371764640089
20
2.36959016565913
30
0
41
1
10
36.0930380958422
20
2.33423493806552
30
0
41
1
10
36.1333062028022
20
2.30938616305366
30
0
41
1
10
36.2175972595966
20
2.25733330056298
30
0
41
1
10
36.2616645213792
20
2.23011340500176
30
0
41
1
10
36.3524770121781
20
2.17333489933347
30
0
41
1
10
36.3992349721686
20
2.14377646047671
30
0
41
1
10
36.4708880794119
20
2.09769170648519
30
0
41
1
10
36.4950287610917
20
2.08203908053912
30
0
41
1
10
36.5437545378402
20
2.05014589652652
30
0
41
1
10
36.5683058849091
20
2.03392517739147
30
0
41
1
10
36.6914692684873
20
1.95172092598907
30
0
41
1
10
36.7916383588563
20
1.8821911728374
30
0
41
1
10
36.9932926896609
20
1.73530908081778
30
0
41
1
10
37.0947976615621
20
1.65795180553866
30
0
41
1
10
37.2982146196784
20
1.49489249806337
30
0
41
1
10
37.4001303688817
20
1.40918562100242
30
0
41
1
10
37.5021216998216
20
1.31900314342579
30
0
0
SPLINE
5
F1
100
AcDbEntity
8
1
62
256
6
ByLayer
370
18
48
1
60
0
100
AcDbSpline
70
4
71
3
72
25
73
21
40
0
40
0
40
0
40
0
40
0.0625
40
0.0937499999999999
40
0.0937499999999999
40
0.125
40
0.125
40
0.25
40
0.25
40
0.375
40
0.5
40
0.5
40
0.562500000000001
40
0.562500000000001
40
0.59375
40
0.59375
40
0.625
40
0.75
40
0.875
40
1
40
1
40
1
40
1
41
1
10
53.3913121714262
20
3.17688973578251
30
0
41
1
10
53.3935011593871
20
3.16913142472831
30
0
41
1
10
53.3967875747133
20
3.15582577908643
30
0
41
1
10
53.4000862274826
20
3.1399800072376
30
0
41
1
10
53.4022892649625
20
3.12884571559246
30
0
41
1
10
53.4033941275903
20
3.1229853674283
30
0
41
1
10
53.4089075007333
20
3.09237825277808
30
0
41
1
10
53.4132982908433
20
3.06369729072435
30
0
41
1
10
53.4220786406983
20
2.99820465304109
30
0
41
1
10
53.4308385103997
20
2.92457958636072
30
0
41
1
10
53.4395650697395
20
2.83479206578798
30
0
41
1
10
53.4461344225915
20
2.76127794815858
30
0
41
1
10
53.4483286383723
20
2.73574275302732
30
0
41
1
10
53.4516346510695
20
2.69586509932782
30
0
41
1
10
53.4527398158912
20
2.68230080516776
30
0
41
1
10
53.4549454108557
20
2.65478449013042
30
0
41
1
10
53.4604558641671
20
2.58494415242384
30
0
41
1
10
53.4703402995719
20
2.44991243934828
30
0
41
1
10
53.4834235526299
20
2.2504566271717
30
0
41
1
10
53.4921496190736
20
2.10453315167078
30
0
41
1
10
53.4965521897041
20
2.02824952228133
30
0
0
SPLINE
5
F2
100
AcDbEntity
8
1
62
256
6
ByLayer
370
13
48
1
60
0
100
AcDbSpline
70
4
71
3
72
10
73
6
40
0
40
0
40
0
40
0
40
0.205172888318814
40
0.671201819975707
40
1
40
1
40
1
40
1
41
1
10
53.7980052578656
20
2.56102080710573
30
0
41
1
10
53.8045015022034
20
2.52185834474196
30
0
41
1
10
53.8257532956161
20
2.36839795293113
30
0
41
1
10
53.8574156719527
20
2.02164085721364
30
0
41
1
10
53.8825816860913
20
1.65669893078871
30
0
41
1
10
53.8929921869831
20
1.494116547581
30
0
0
SPLINE
5
F3
100
AcDbEntity
8
1
62
256
6
ByLayer
370
18
48
1
60
0
100
AcDbSpline
70
4
71
3
72
24
73
20
40
0
40
0
40
0
40
0
40
0.125
40
0.125
40
0.25
40
0.25
40
0.375
40
0.375
40
0.5
40
0.5
40
0.625
40
0.625
40
0.75
40
0.75
40
0.8125
40
0.8125
40
0.875
40
0.875
40
1
40
1
40
1
40
1
41
1
10
53.5870917794248
20
1.94943041745299
30
0
41
1
10
53.5826998853107
20
2.02731230285948
30
0
41
1
10
53.5783412112956
20
2.10211877161575
30
0
41
1
10
53.5696288518053
20
2.24567876295595
30
0
41
1
10
53.5652685639564
20
2.31443196917704
30
0
41
1
10
53.5564868898712
20
2.44583239393066
30
0
41
1
10
53.5520758309387
20
2.50848049135314
30
0
41
1
10
53.543208704597
20
2.62746384435579
30
0
41
1
10
53.5388182093311
20
2.68291444669833
30
0
41
1
10
53.5300834905783
20
2.78586325498961
30
0
41
1
10
53.5257373652939
20
2.83338459498569
30
0
41
1
10
53.5169987917939
20
2.92059038223712
30
0
41
1
10
53.5126088400724
20
2.96027505110445
30
0
41
1
10
53.5060033019386
20
3.01383169668517
30
0
41
1
10
53.5037976898285
20
3.03068731316546
30
0
41
1
10
53.4993764789605
20
3.06237037544415
30
0
41
1
10
53.4971579558614
20
3.0772106239817
30
0
41
1
10
53.4905469753865
20
3.11822734072416
30
0
41
1
10
53.4861790930141
20
3.14107085612059
30
0
41
1
10
53.4818137693809
20
3.15953136329318
30
0
0
SPLINE
5
F4
100
AcDbEntity
8
1
62
256
6
ByLayer
370
13
48
1
60
0
100
AcDbSpline
70
4
71
3
72
10
73
6
40
0
40
0
40
0
40
0
40
0.290469955128331
40
0.758557427688184
40
1
40
1
40
1
40
1
41
1
10
48.3894923304387
20
2.28635171657695
30
0
41
1
10
48.398648825737
20
2.19464935682305
30
0
41
1
10
48.4225608558394
20
1.91925698553788
30
0
41
1
10
48.4540840194896
20
1.44847406237582
30
0
41
1
10
48.4764505405511
20
1.0664391623184
30
0
41
1
10
48.4840615385325
20
0.93256747931909
30
0
0
SPLINE
5
F5
100
AcDbEntity
8
1
62
256
6
ByLayer
370
18
48
1
60
0
100
AcDbSpline
70
4
71
3
72
22
73
18
40
0
40
0
40
0
40
0
40
0.249999999999998
40
0.249999999999998
40
0.374999999999997
40
0.374999999999997
40
0.437499999999997
40
0.437499999999997
40
0.499999999999997
40
0.499999999999997
40
0.749999999999998
40
0.749999999999998
40
0.875
40
0.875
40
0.9375
40
0.9375
40
1
40
1
40
1
40
1
41
1
10
47.6824838070129
20
2.5789692156427
30
0
41
1
10
47.6912211331054
20
2.53273334329191
30
0
41
1
10
47.6998589333931
20
2.47516416280649
30
0
41
1
10
47.7127752492124
20
2.37228505720731
30
0
41
1
10
47.7170772325316
20
2.33522395714999
30
0
41
1
10
47.7235689506076
20
2.27541602917637
30
0
41
1
10
47.7257400688427
20
2.2547765715006
30
0
41
1
10
47.7301029098685
20
2.21206858126274
30
0
41
1
10
47.7322960376825
20
2.18997274738879
30
0
41
1
10
47.7432047682411
20
2.07692622503859
30
0
41
1
10
47.7518106934264
20
1.97759919165097
30
0
41
1
10
47.7646888215828
20
1.8156958176402
30
0
41
1
10
47.7689795527349
20
1.75956510284885
30
0
41
1
10
47.7754605902599
20
1.67208191916018
30
0
41
1
10
47.7776289642508
20
1.64237240123023
30
0
41
1
10
47.7819802960232
20
1.58183927593004
30
0
41
1
10
47.7841670131081
20
1.55096056092066
30
0
41
1
10
47.7863473119963
20
1.51971229302046
30
0
0
SPLINE
5
F6
100
AcDbEntity
8
1
62
256
6
ByLayer
370
18
48
1
60
0
100
AcDbSpline
70
4
71
3
72
22
73
18
40
0
40
0
40
0
40
0
40
0.250000000000002
40
0.250000000000002
40
0.375000000000004
40
0.375000000000004
40
0.437500000000004
40
0.437500000000004
40
0.500000000000004
40
0.500000000000004
40
0.750000000000001
40
0.750000000000001
40
0.875
40
0.875
40
0.9375
40
0.9375
40
1
40
1
40
1
40
1
41
1
10
48.4156900151391
20
1.00774622396827
30
0
41
1
10
48.4082302881
20
1.15456926817964
30
0
41
1
10
48.4008839303502
20
1.29509172199351
30
0
41
1
10
48.3897399127653
20
1.49658794448718
30
0
41
1
10
48.3860108885995
20
1.56219811296299
30
0
41
1
10
48.3803951019707
20
1.65823104889392
30
0
41
1
10
48.3785192695151
20
1.68984443066279
30
0
41
1
10
48.3747571846444
20
1.75226080888086
30
0
41
1
10
48.3728825547771
20
1.78287030910795
30
0
41
1
10
48.3635448413518
20
1.93274693353735
30
0
41
1
10
48.3561627511002
20
2.04281087988034
30
0
41
1
10
48.3449778998803
20
2.19344769893877
30
0
41
1
10
48.3412415852641
20
2.24123893847636
30
0
41
1
10
48.3356190652435
20
2.30921917718288
30
0
41
1
10
48.3337416782708
20
2.33126064392565
30
0
41
1
10
48.3299768571958
20
2.37408309211492
30
0
41
1
10
48.3280955371271
20
2.39479288307877
30
0
41
1
10
48.3262189113335
20
2.41473680172516
30
0
0
SPLINE
5
F7
100
AcDbEntity
8
1
62
256
6
ByLayer
370
18
48
1
60
0
100
AcDbSpline
70
4
71
3
72
12
73
8
40
0
40
0
40
0
40
0
40
0.25
40
0.25
40
0.5
40
0.5
40
1
40
1
40
1
40
1
41
1
10
56.8537820500302
20
0.500157910811339
30
0
41
1
10
56.8581571891033
20
0.454035096589109
30
0
41
1
10
56.8623984001319
20
0.407556765442365
30
0
41
1
10
56.8706199144833
20
0.314702134020934
30
0
41
1
10
56.8746112979598
20
0.268237168282184
30
0
41
1
10
56.886259144013
20
0.128733097312448
30
0
41
1
10
56.8935864851334
20
0.0355848777697076
30
0
41
1
10
56.9005485814195
20
-0.0577029898726948
30
0
0
SPLINE
5
F8
100
AcDbEntity
8
1
62
256
6
ByLayer
370
18
48
1
60
0
100
AcDbSpline
70
4
71
3
72
9
73
5
40
0
40
0
40
0
40
0
40
0.5
40
1
40
1
40
1
40
1
41
1
10
56.9256985626356
20
0.430616999271763
30
0
41
1
10
56.920958582129
20
0.350021666837364
30
0
41
1
10
56.9120451399097
20
0.188028778027473
30
0
41
1
10
56.9041996717925
20
0.0244708438563634
30
0
41
1
10
56.9005485814194
20
-0.0577029898726948
30
0
0
SPLINE
5
F9
100
AcDbEntity
8
1
62
256
6
ByLayer
370
18
48
1
60
0
100
AcDbSpline
70
4
71
3
72
18
73
14
40
0
40
0
40
0
40
0
40
0.250000000000001
40
0.250000000000001
40
0.312500000000001
40
0.312500000000001
40
0.375000000000001
40
0.375000000000001
40
0.500000000000001
40
0.500000000000001
40
0.75
40
0.75
40
1
40
1
40
1
40
1
41
1
10
56.9231621009916
20
-1.15518646818074
30
0
41
1
10
56.9217925023824
20
-1.07050073156952
30
0
41
1
10
56.920250791513
20
-0.983485252237131
30
0
41
1
10
56.9181431419559
20
-0.871709775355924
30
0
41
1
10
56.9177127057251
20
-0.849203904039285
30
0
41
1
10
56.9168353326652
20
-0.803886326963408
30
0
41
1
10
56.9163877251823
20
-0.781041060850583
30
0
41
1
10
56.9150296196256
20
-0.712404153774173
30
0
41
1
10
56.9141041828616
20
-0.666453000076501
30
0
41
1
10
56.9112756626485
20
-0.528030937534169
30
0
41
1
10
56.9093073592642
20
-0.434995228532415
30
0
41
1
10
56.9051196815141
20
-0.24745568574221
30
0
41
1
10
56.9029012227105
20
-0.152951669862205
30
0
41
1
10
56.9005485814195
20
-0.0577029898726948
30
0
0
SPLINE
5
FA
100
AcDbEntity
8
1
62
256
6
ByLayer
370
13
48
1
60
0
100
AcDbSpline
70
4
71
3
72
10
73
6
40
0
40
0
40
0
40
0
40
0.379061406903253
40
0.846151805861689
40
1
40
1
40
1
40
1
41
1
10
53.161836773551
20
-1.60125499310629
30
0
41
1
10
53.1738114769043
20
-1.78204038996117
30
0
41
1
10
53.2005418002213
20
-2.14868112367114
30
0
41
1
10
53.2321320431266
20
-2.45413609037672
30
0
41
1
10
53.251747754384
20
-2.57372354621248
30
0
41
1
10
53.2566078854347
20
-2.5989463310016
30
0
0
SPLINE
5
FB
100
AcDbEntity
8
1
62
256
6
ByLayer
370
13
48
1
60
0
100
AcDbSpline
70
4
71
3
72
10
73
6
40
0
40
0
40
0
40
0
40
0.26492533499715
40
0.98355357020673
40
1
40
1
40
1
40
1
41
1
10
56.7565136859461
20
-1.05312232894178
30
0
41
1
10
56.7497231320228
20
-0.935942679896442
30
0
41
1
10
56.7245127324207
20
-0.488016435148069
30
0
41
1
10
56.6988806672895
20
-5.98029791092E-05
30
0
41
1
10
56.6800392295597
20
0.349992553222108
30
0
41
1
10
56.6796176746052
20
0.357819951344396
30
0
0
SPLINE
5
FC
100
AcDbEntity
8
1
62
256
6
ByLayer
370
18
48
1
60
0
100
AcDbSpline
70
4
71
3
72
26
73
22
40
0
40
0
40
0
40
0
40
0.125000000000001
40
0.125000000000001
40
0.250000000000001
40
0.250000000000001
40
0.312500000000002
40
0.343750000000002
40
0.343750000000002
40
0.375000000000002
40
0.375000000000002
40
0.500000000000002
40
0.500000000000002
40
0.625000000000001
40
0.750000000000001
40
0.750000000000001
40
0.812500000000001
40
0.812500000000001
40
0.875000000000001
40
0.875000000000001
40
1
40
1
40
1
40
1
41
1
10
52.9507609141953
20
-3.02672817454368
30
0
41
1
10
52.9463823979884
20
-2.99354155844105
30
0
41
1
10
52.9420018714426
20
-2.95630517522039
30
0
41
1
10
52.9332306885312
20
-2.87382652490328
30
0
41
1
10
52.9288455360073
20
-2.82858417573018
30
0
41
1
10
52.9222592323868
20
-2.7546363742911
30
0
41
1
10
52.9189634115592
20
-2.71613908124095
30
0
41
1
10
52.9156568751278
20
-2.67531973111903
30
0
41
1
10
52.9134490233275
20
-2.64758508209448
30
0
41
1
10
52.912343937504
20
-2.63346340973445
30
0
41
1
10
52.9068353694589
20
-2.56191670553574
30
0
41
1
10
52.9024569480117
20
-2.50140513234811
30
0
41
1
10
52.893686830855
20
-2.37402442374213
30
0
41
1
10
52.8849247296675
20
-2.2402845040881
30
0
41
1
10
52.8761795861422
20
-2.09388013010533
30
0
41
1
10
52.8695946767124
20
-1.97922952599848
30
0
41
1
10
52.8673950182962
20
-1.94020353031769
30
0
41
1
10
52.862976499342
20
-1.86050104497974
30
0
41
1
10
52.8607722525251
20
-1.82008811844315
30
0
41
1
10
52.8541678962911
20
-1.69740902661175
30
0
41
1
10
52.8497687995545
20
-1.61361312940377
30
0
41
1
10
52.8453823842194
20
-1.52785017302628
30
0
0
SPLINE
5
FD
100
AcDbEntity
8
1
62
256
6
ByLayer
370
13
48
1
60
0
100
AcDbSpline
70
4
71
3
72
11
73
7
40
0
40
0
40
0
40
0
40
0.0433681182639575
40
0.509762725461719
40
0.976157332659481
40
1
40
1
40
1
40
1
41
1
10
52.4476958167643
20
-1.02132408873104
30
0
41
1
10
52.4490678749603
20
-1.04513014999577
30
0
41
1
10
52.4651954853732
20
-1.32331973999797
30
0
41
1
10
52.4960786418517
20
-1.81655986059445
30
0
41
1
10
52.5263440753779
20
-2.1840896754041
30
0
41
1
10
52.541853950243
20
-2.33199540361906
30
0
41
1
10
52.5426082722886
20
-2.33909247888187
30
0
0
SPLINE
5
FE
100
AcDbEntity
8
1
62
256
6
ByLayer
370
18
48
1
60
0
100
AcDbSpline
70
4
71
3
72
27
73
23
40
0
40
0
40
0
40
0
40
0.125000000000001
40
0.125000000000001
40
0.156250000000001
40
0.156250000000001
40
0.187500000000001
40
0.250000000000001
40
0.250000000000001
40
0.375000000000001
40
0.375000000000001
40
0.500000000000001
40
0.500000000000001
40
0.562500000000001
40
0.562500000000001
40
0.625
40
0.625
40
0.75
40
0.75
40
0.875
40
0.875
40
1
40
1
40
1
40
1
41
1
10
52.7548491432227
20
-1.43831185137532
30
0
41
1
10
52.7592487115098
20
-1.52564340666325
30
0
41
1
10
52.763663852289
20
-1.61126326061202
30
0
41
1
10
52.7692061008185
20
-1.71608021747213
30
0
41
1
10
52.770316387907
20
-1.73694290201851
30
0
41
1
10
52.7725286730154
20
-1.77823228187373
30
0
41
1
10
52.7758388605353
20
-1.83959129267393
30
0
41
1
10
52.7791275762407
20
-1.89924313110745
30
0
41
1
10
52.7856886030985
20
-2.01630416017801
30
0
41
1
10
52.7900418088662
20
-2.0913591586702
30
0
41
1
10
52.7987867587441
20
-2.23556162269341
30
0
41
1
10
52.8031695493753
20
-2.30470945306169
30
0
41
1
10
52.8097585194559
20
-2.40394048006945
30
0
41
1
10
52.8119576316462
20
-2.43626787556286
30
0
41
1
10
52.8163654188218
20
-2.49939872718838
30
0
41
1
10
52.8185796607712
20
-2.53027554817609
30
0
41
1
10
52.8251893663002
20
-2.61979747174442
30
0
41
1
10
52.8295586580669
20
-2.67547270728426
30
0
41
1
10
52.8383066533848
20
-2.77903689663532
30
0
41
1
10
52.8426930800292
20
-2.82692519197812
30
0
41
1
10
52.8514736183896
20
-2.91494423020958
30
0
41
1
10
52.8558661677039
20
-2.95507526327094
30
0
41
1
10
52.8602702509812
20
-2.99124491812944
30
0
0
SPLINE
5
FF
100
AcDbEntity
8
1
62
256
6
ByLayer
370
13
48
1
60
0
100
AcDbSpline
70
4
71
3
72
10
73
6
40
0
40
0
40
0
40
0
40
0.158499802601732
40
0.626168393915945
40
1
40
1
40
1
40
1
41
1
10
48.6298768503162
20
2.16005396235752
30
0
41
1
10
48.6348777257411
20
2.10366542581861
30
0
41
1
10
48.6546341545694
20
1.86558476058138
30
0
41
1
10
48.6861854503168
20
1.39587238536154
30
0
41
1
10
48.7127358791297
20
0.932549796104865
30
0
41
1
10
48.7245307528799
20
0.719529415014108
30
0
0
SPLINE
5
100
100
AcDbEntity
8
1
62
256
6
ByLayer
370
18
48
1
60
0
100
AcDbSpline
70
4
71
3
72
18
73
14
40
0
40
0
40
0
40
0
40
0.25
40
0.25
40
0.5
40
0.5
40
0.5625
40
0.5625
40
0.624999999999999
40
0.624999999999999
40
0.75
40
0.75
40
1
40
1
40
1
40
1
41
1
10
56.7425917393592
20
-1.0556651844943
30
0
41
1
10
56.7359258660911
20
-0.944367899722465
30
0
41
1
10
56.7297761455772
20
-0.830947639677618
30
0
41
1
10
56.7180960796341
20
-0.600073176260139
30
0
41
1
10
56.712548634487
20
-0.482623040496378
30
0
41
1
10
56.7059985165386
20
-0.333237858941004
30
0
41
1
10
56.7047072885188
20
-0.303231674037221
30
0
41
1
10
56.702161108387
20
-0.242957421086487
30
0
41
1
10
56.7009073905453
20
-0.212716515106337
30
0
41
1
10
56.6972221015048
20
-0.122214846031113
30
0
41
1
10
56.6948582489055
20
-0.0619785730265789
30
0
41
1
10
56.6879978743239
20
0.118438493646209
30
0
41
1
10
56.6837345125015
20
0.238329205944183
30
0
41
1
10
56.6796176746053
20
0.357819951343799
30
0
0
SPLINE
5
101
100
AcDbEntity
8
1
62
256
6
ByLayer
370
18
48
1
60
0
100
AcDbSpline
70
4
71
3
72
10
73
6
40
0
40
0
40
0
40
0
40
0.5
40
0.5
40
1
40
1
40
1
40
1
41
1
10
56.6796176746053
20
0.357819951343942
30
0
41
1
10
56.677741484722
20
0.412276146442821
30
0
41
1
10
56.675976563987
20
0.466345978005677
30
0
41
1
10
56.672749278601
20
0.573712391186831
30
0
41
1
10
56.671285190772
20
0.627048138463977
30
0
41
1
10
56.6700378423655
20
0.679851072996001
30
0
0
SPLINE
5
102
100
AcDbEntity
8
1
62
256
6
ByLayer
370
18
48
1
60
0
100
AcDbSpline
70
4
71
3
72
22
73
18
40
0
40
0
40
0
40
0
40
0.249999999999998
40
0.249999999999998
40
0.374999999999998
40
0.374999999999998
40
0.437499999999998
40
0.437499999999998
40
0.499999999999998
40
0.499999999999998
40
0.749999999999999
40
0.749999999999999
40
0.875
40
0.875
40
0.9375
40
0.9375
40
1
40
1
40
1
40
1
41
1
10
56.0115474893942
20
1.32022741231268
30
0
41
1
10
56.0236164126939
20
1.17834078383242
30
0
41
1
10
56.0351925365564
20
1.03090697108558
30
0
41
1
10
56.0521399230925
20
0.801626386638844
30
0
41
1
10
56.0577149999104
20
0.723842780546761
30
0
41
1
10
56.0659791573909
20
0.60510116708835
30
0
41
1
10
56.0687175781338
20
0.565175689855835
30
0
41
1
10
56.0741654145278
20
0.484622411444064
30
0
41
1
10
56.0768563337172
20
0.444267832602605
30
0
41
1
10
56.0901448760867
20
0.242374285739544
30
0
41
1
10
56.1002559096834
20
0.0802008350133008
30
0
41
1
10
56.1150388159298
20
-0.16400977098948
30
0
41
1
10
56.1199043318969
20
-0.245572611113801
30
0
41
1
10
56.1270896703999
20
-0.36816377507958
30
0
41
1
10
56.1294695926732
20
-0.409129974668417
30
0
41
1
10
56.1341608337771
20
-0.490618454390756
30
0
41
1
10
56.1364749214996
20
-0.531186989097137
30
0
41
1
10
56.1387585187556
20
-0.571580094358183
30
0
0
SPLINE
5
103
100
AcDbEntity
8
1
62
256
6
ByLayer
370
13
48
1
60
0
100
AcDbSpline
70
4
71
3
72
10
73
6
40
0
40
0
40
0
40
0
40
0.187801540480098
40
0.76923018434843
40
1
40
1
40
1
40
1
41
1
10
56.042496501121
20
-0.416068737134168
30
0
41
1
10
56.0365468873862
20
-0.305919864455802
30
0
41
1
10
56.0121774254356
20
0.149552498122574
30
0
41
1
10
55.9804971000115
20
0.7463529910045
30
0
41
1
10
55.9547663884295
20
1.18607404985863
30
0
41
1
10
55.9474555255608
20
1.30601836823189
30
0
0
SPLINE
5
104
100
AcDbEntity
8
1
62
256
6
ByLayer
370
13
48
1
60
0
100
AcDbSpline
70
4
71
3
72
10
73
6
40
0
40
0
40
0
40
0
40
0.0732183513405955
40
0.539293489173948
40
1
40
1
40
1
40
1
41
1
10
54.038457552303
20
2.48052330231278
30
0
41
1
10
54.0407755847134
20
2.46320934397883
30
0
41
1
10
54.0578491699927
20
2.32860734744267
30
0
41
1
10
54.0895083363372
20
1.98391446466707
30
0
41
1
10
54.1188494783741
20
1.54259591186462
30
0
41
1
10
54.1334350640653
20
1.30312607494673
30
0
0
SPLINE
5
105
100
AcDbEntity
8
1
62
256
6
ByLayer
370
13
48
1
60
0
100
AcDbSpline
70
4
71
3
72
9
73
5
40
0
40
0
40
0
40
0
40
0.478459054779766
40
1
40
1
40
1
40
1
41
1
10
54.8475131695571
20
0.686688871177068
30
0
41
1
10
54.8323614530418
20
0.961244705135869
30
0
41
1
10
54.8006937582496
20
1.51143337884292
30
0
41
1
10
54.7690258460483
20
1.95464814461957
30
0
41
1
10
54.7525098079157
20
2.14347394318534
30
0
0
SPLINE
5
106
100
AcDbEntity
8
1
62
256
6
ByLayer
370
18
48
1
60
0
100
AcDbSpline
70
4
71
3
72
27
73
23
40
0
40
0
40
0
40
0
40
0.125000000000002
40
0.125000000000002
40
0.250000000000003
40
0.250000000000003
40
0.312500000000003
40
0.312500000000003
40
0.343750000000002
40
0.343750000000002
40
0.375000000000001
40
0.500000000000001
40
0.500000000000001
40
0.625
40
0.625
40
0.75
40
0.75
40
0.8125
40
0.8125
40
0.875
40
0.875
40
1
40
1
40
1
40
1
41
1
10
54.2803667004406
20
2.77086434343664
30
0
41
1
10
54.2871503243514
20
2.73032884694572
30
0
41
1
10
54.2938784420887
20
2.68575189021888
30
0
41
1
10
54.3073098441698
20
2.58872395567556
30
0
41
1
10
54.314014269138
20
2.53627485557249
30
0
41
1
10
54.324118077572
20
2.45164819363339
30
0
41
1
10
54.3274938183883
20
2.42244490887825
30
0
41
1
10
54.332576677267
20
2.37712077284675
30
0
41
1
10
54.3342755128458
20
2.361746513615
30
0
41
1
10
54.337663531012
20
2.33064544875438
30
0
41
1
10
54.3461174148312
20
2.25192501474584
30
0
41
1
10
54.3545226325553
20
2.16842961791923
30
0
41
1
10
54.3678411152714
20
2.02879651193615
30
0
41
1
10
54.3744251397587
20
1.95594803522513
30
0
41
1
10
54.3874885278457
20
1.80419264865671
30
0
41
1
10
54.3939697746654
20
1.72528860721027
30
0
41
1
10
54.4036669298709
20
1.60225890309093
30
0
41
1
10
54.4068984963792
20
1.56042374296553
30
0
41
1
10
54.4133077802654
20
1.47588593126096
30
0
41
1
10
54.4164912951408
20
1.43310186253359
30
0
41
1
10
54.425968830719
20
1.30321033065087
30
0
41
1
10
54.4321867999998
20
1.21456560298589
30
0
41
1
10
54.4382908041749
20
1.12384229256796
30
0
0
SPLINE
5
107
100
AcDbEntity
8
1
62
256
6
ByLayer
370
18
48
1
60
0
100
AcDbSpline
70
4
71
3
72
23
73
19
40
0
40
0
40
0
40
0
40
0.250000000000003
40
0.250000000000003
40
0.312500000000003
40
0.343750000000003
40
0.343750000000003
40
0.375000000000003
40
0.375000000000003
40
0.500000000000002
40
0.500000000000002
40
0.750000000000001
40
0.750000000000001
40
0.812500000000001
40
0.812500000000001
40
0.875000000000001
40
0.875000000000001
40
1
40
1
40
1
40
1
41
1
10
54.5685271211546
20
0.985804146995861
30
0
41
1
10
54.564096660613
20
1.15584710807934
30
0
41
1
10
54.5602840016257
20
1.31879043255594
30
0
41
1
10
54.5559348613244
20
1.51371409456604
30
0
41
1
10
54.5546569160771
20
1.57153154775432
30
0
41
1
10
54.5534023850207
20
1.62834873363158
30
0
41
1
10
54.5525692944107
20
1.66600258021489
30
0
41
1
10
54.5521538081797
20
1.68473933424011
30
0
41
1
10
54.5500870346681
20
1.77757115939576
30
0
41
1
10
54.548475903193
20
1.84891547736149
30
0
41
1
10
54.543828405878
20
2.05442008809462
30
0
41
1
10
54.5410590785017
20
2.18003921243616
30
0
41
1
10
54.5375732800907
20
2.32305076745072
30
0
41
1
10
54.5368733527376
20
2.35094759298011
30
0
41
1
10
54.5354557702737
20
2.40530946304904
30
0
41
1
10
54.5347379768255
20
2.43177371796097
30
0
41
1
10
54.5325571870947
20
2.50842729745935
30
0
41
1
10
54.5310476851865
20
2.5560896851708
30
0
41
1
10
54.5295181291364
20
2.60027247715675
30
0
0
SPLINE
5
108
100
AcDbEntity
8
1
62
256
6
ByLayer
370
13
48
1
60
0
100
AcDbSpline
70
4
71
3
72
11
73
7
40
0
40
0
40
0
40
0
40
0.0269969381708879
40
0.49521500990133
40
0.963433081631772
40
1
40
1
40
1
40
1
41
1
10
49.3440092418613
20
1.69789778137508
30
0
41
1
10
49.3448600310957
20
1.68549045087048
30
0
41
1
10
49.360466380021
20
1.45626857110685
30
0
41
1
10
49.3908283440746
20
0.953295508911282
30
0
41
1
10
49.4214917584794
20
0.383626694166907
30
0
41
1
10
49.4373996997627
20
0.0857559639770216
30
0
41
1
10
49.4385520804848
20
0.0641719505515823
30
0
0
SPLINE
5
109
100
AcDbEntity
8
1
62
256
6
ByLayer
370
18
48
1
60
0
100
AcDbSpline
70
4
71
3
72
22
73
18
40
0
40
0
40
0
40
0
40
0.25
40
0.25
40
0.375
40
0.375
40
0.437499999999999
40
0.437499999999999
40
0.499999999999999
40
0.499999999999999
40
0.749999999999999
40
0.749999999999999
40
0.875
40
0.875
40
0.9375
40
0.9375
40
1
40
1
40
1
40
1
41
1
10
48.7244161931036
20
2.24820424970736
30
0
41
1
10
48.7334099782229
20
2.14744641689714
30
0
41
1
10
48.7423406604466
20
2.03660406328237
30
0
41
1
10
48.7558140330064
20
1.85547591073649
30
0
41
1
10
48.7603081453664
20
1.79260755602465
30
0
41
1
10
48.7670727557854
20
1.69447392663253
30
0
41
1
10
48.7693373392736
20
1.66103942676668
30
0
41
1
10
48.7738476186927
20
1.59337784809364
30
0
41
1
10
48.7760936952261
20
1.55914896113373
30
0
41
1
10
48.7873003927045
20
1.38605006919454
30
0
41
1
10
48.7962352143002
20
1.24136401014277
30
0
41
1
10
48.8096525130934
20
1.01515114400868
30
0
41
1
10
48.8141257333087
20
0.938207763510604
30
0
41
1
10
48.8208674638943
20
0.820425563377
30
0
41
1
10
48.823123866482
20
0.780705967030315
30
0
41
1
10
48.8276248054252
20
0.701022279279243
30
0
41
1
10
48.8298721835963
20
0.66100949978815
30
0
41
1
10
48.8321215211274
20
0.620827373222539
30
0
0
SPLINE
5
10A
100
AcDbEntity
8
1
62
256
6
ByLayer
370
18
48
1
60
0
100
AcDbSpline
70
4
71
3
72
22
73
18
40
0
40
0
40
0
40
0
40
0.25
40
0.25
40
0.375
40
0.375
40
0.4375
40
0.4375
40
0.500000000000001
40
0.500000000000001
40
0.75
40
0.75
40
0.875
40
0.875
40
0.9375
40
0.9375
40
1
40
1
40
1
40
1
41
1
10
49.2964457463036
20
0.154562399977266
30
0
41
1
10
49.2887865350168
20
0.322974754906937
30
0
41
1
10
49.2811593818358
20
0.488974911502481
30
0
41
1
10
49.2697246003476
20
0.734396212115826
30
0
41
1
10
49.2659104445793
20
0.815603348111978
30
0
41
1
10
49.2601459923607
20
0.936486444864585
30
0
41
1
10
49.2582140320512
20
0.976686370189185
30
0
41
1
10
49.2543622864915
20
1.05601746597671
30
0
41
1
10
49.2524386817402
20
1.09523426137739
30
0
41
1
10
49.2428364992676
20
1.28911100179849
30
0
41
1
10
49.2352232609799
20
1.43719953381464
30
0
41
1
10
49.2237779503079
20
1.64889062779812
30
0
41
1
10
49.2199551209898
20
1.71770426218541
30
0
41
1
10
49.2141596188305
20
1.81821695087547
30
0
41
1
10
49.2122169121507
20
1.85126393581066
30
0
41
1
10
49.2083407958461
20
1.91595006610356
30
0
41
1
10
49.2064037818115
20
1.9476534637887
30
0
41
1
10
49.2044680548133
20
1.97872052292698
30
0
0
SPLINE
5
10B
100
AcDbEntity
8
1
62
256
6
ByLayer
370
13
48
1
60
0
100
AcDbSpline
70
4
71
3
72
10
73
6
40
0
40
0
40
0
40
0
40
0.055519489670045
40
0.637390585573618
40
1
40
1
40
1
40
1
41
1
10
55.8020026935395
20
-0.193162266926294
30
0
41
1
10
55.8002451632571
20
-0.160315292050114
30
0
41
1
10
55.7800678630531
20
0.217274857884689
30
0
41
1
10
55.7484116907213
20
0.814055505073725
30
0
41
1
10
55.7185128063386
20
1.3175078509704
30
0
41
1
10
55.7070338959668
20
1.49666598260828
30
0
0
SPLINE
5
10C
100
AcDbEntity
8
1
62
256
6
ByLayer
370
13
48
1
60
0
100
AcDbSpline
70
4
71
3
72
10
73
6
40
0
40
0
40
0
40
0
40
0.362780772234303
40
0.830615675809707
40
1
40
1
40
1
40
1
41
1
10
49.5844195248126
20
1.51900345938017
30
0
41
1
10
49.5958616604839
20
1.34158480523152
30
0
41
1
10
49.6220593457055
20
0.902592876956277
30
0
41
1
10
49.6535994348396
20
0.317175826544627
30
0
41
1
10
49.6736973812512
20
-0.0599620719239624
30
0
41
1
10
49.6790397765844
20
-0.159886118990329
30
0
0
SPLINE
5
10D
100
AcDbEntity
8
1
62
256
6
ByLayer
370
18
48
1
60
0
100
AcDbSpline
70
4
71
3
72
24
73
20
40
0
40
0
40
0
40
0
40
0.25
40
0.25
40
0.375
40
0.375
40
0.40625
40
0.40625
40
0.4375
40
0.4375
40
0.5
40
0.5
40
0.75
40
0.75
40
0.875
40
0.875
40
0.9375
40
0.9375
40
1
40
1
40
1
40
1
41
1
10
55.649314865478
20
-0.120436560475156
30
0
41
1
10
55.6432501255371
20
0.0451922138782948
30
0
41
1
10
55.6376113264858
20
0.209244806528659
30
0
41
1
10
55.6298174814609
20
0.45300826086887
30
0
41
1
10
55.6273278213812
20
0.533874425911762
30
0
41
1
10
55.6243359967722
20
0.634457824202201
30
0
41
1
10
55.6237435979613
20
0.654549485291994
30
0
41
1
10
55.6225701642791
20
0.694682202351942
30
0
41
1
10
55.6219887159496
20
0.714738006857033
30
0
41
1
10
55.6202688832178
20
0.774532814439766
30
0
41
1
10
55.6191523653052
20
0.813989529318405
30
0
41
1
10
55.6136997281298
20
1.00927235003473
30
0
41
1
10
55.609720405078
20
1.15912038551124
30
0
41
1
10
55.6042701033728
20
1.37445893814405
30
0
41
1
10
55.6025362892853
20
1.44466350540375
30
0
41
1
10
55.6000338017768
20
1.54754794304915
30
0
41
1
10
55.5992157934823
20
1.58144558887915
30
0
41
1
10
55.5976190582807
20
1.64791043273021
30
0
41
1
10
55.5968387192597
20
1.68054373770445
30
0
41
1
10
55.5960729719457
20
1.71258027454292
30
0
0
SPLINE
5
10E
100
AcDbEntity
8
1
62
256
6
ByLayer
370
18
48
1
60
0
100
AcDbSpline
70
4
71
3
72
22
73
18
40
0
40
0
40
0
40
0
40
0.249999999999998
40
0.249999999999998
40
0.374999999999997
40
0.374999999999997
40
0.437499999999997
40
0.437499999999997
40
0.499999999999997
40
0.499999999999997
40
0.749999999999996
40
0.749999999999996
40
0.812499999999997
40
0.812499999999997
40
0.874999999999998
40
0.874999999999998
40
1
40
1
40
1
40
1
41
1
10
55.1463162126615
20
2.11491905640881
30
0
41
1
10
55.1595562522401
20
1.99441464126338
30
0
41
1
10
55.1724604806967
20
1.86307434848931
30
0
41
1
10
55.1915435813824
20
1.64990418613266
30
0
41
1
10
55.1978845088044
20
1.57614990124685
30
0
41
1
10
55.2073790964852
20
1.46135135497826
30
0
41
1
10
55.2105423876574
20
1.42234790952338
30
0
41
1
10
55.2167903405924
20
1.3437592853586
30
0
41
1
10
55.2198831653118
20
1.30407732634015
30
0
41
1
10
55.2351871503681
20
1.1037543422334
30
0
41
1
10
55.2468565230978
20
0.937392105386124
30
0
41
1
10
55.2610674543572
20
0.721870714129381
30
0
41
1
10
55.2638929113342
20
0.678385649395238
30
0
41
1
10
55.2695241821766
20
0.590643621812887
30
0
41
1
10
55.27233636386
20
0.54630571512206
30
0
41
1
10
55.2807126168842
20
0.41272804113143
30
0
41
1
10
55.2861982716955
20
0.323167531484017
30
0
41
1
10
55.2915853033496
20
0.233102612061259
30
0
0
SPLINE
5
10F
100
AcDbEntity
8
1
62
256
6
ByLayer
370
13
48
1
60
0
100
AcDbSpline
70
4
71
3
72
10
73
6
40
0
40
0
40
0
40
0
40
0.0290048981381919
40
0.610091095638131
40
1
40
1
40
1
40
1
41
1
10
55.0879937005472
20
0.468012924454627
30
0
41
1
10
55.0870742744905
20
0.484978804750512
30
0
41
1
10
55.0677350012541
20
0.841234964311241
30
0
41
1
10
55.0360360084883
20
1.40200885466098
30
0
41
1
10
55.0052564415418
20
1.84487369584491
30
0
41
1
10
54.9928967218646
20
2.00078588742875
30
0
0
SPLINE
5
110
100
AcDbEntity
8
1
62
256
6
ByLayer
370
13
48
1
60
0
100
AcDbSpline
70
4
71
3
72
10
73
6
40
0
40
0
40
0
40
0
40
0.305403832105249
40
0.772464961872229
40
1
40
1
40
1
40
1
41
1
10
51.4932669277701
20
-0.160389679076815
30
0
41
1
10
51.5029153490147
20
-0.340854204830435
30
0
41
1
10
51.5273193242578
20
-0.79461455119764
30
0
41
1
10
51.5589116541699
20
-1.34315257352722
30
0
41
1
10
51.5808555725451
20
-1.67347035862309
30
0
41
1
10
51.5880439369245
20
-1.77510066948932
30
0
0
SPLINE
5
111
100
AcDbEntity
8
1
62
256
6
ByLayer
370
18
48
1
60
0
100
AcDbSpline
70
4
71
3
72
27
73
23
40
0
40
0
40
0
40
0
40
0.125
40
0.125
40
0.249999999999999
40
0.249999999999999
40
0.374999999999999
40
0.374999999999999
40
0.437499999999999
40
0.437499999999999
40
0.499999999999999
40
0.499999999999999
40
0.624999999999999
40
0.624999999999999
40
0.749999999999999
40
0.749999999999999
40
0.8125
40
0.843749999999999
40
0.843749999999999
40
0.874999999999999
40
0.874999999999999
40
1
40
1
40
1
40
1
41
1
10
51.8004674931531
20
-0.436281288572701
30
0
41
1
10
51.8048576126092
20
-0.533406729234088
30
0
41
1
10
51.8092133692908
20
-0.629366711171571
30
0
41
1
10
51.8179302224489
20
-0.819003221153139
30
0
41
1
10
51.8223017050773
20
-0.912679214126229
30
0
41
1
10
51.8310741306635
20
-1.09774015360193
30
0
41
1
10
51.8354698864058
20
-1.18912546752318
30
0
41
1
10
51.8420878695585
20
-1.32443688501658
30
0
41
1
10
51.8443022010384
20
-1.36932243400071
30
0
41
1
10
51.8487021303447
20
-1.45761580604278
30
0
41
1
10
51.8508924353667
20
-1.50112116852722
30
0
41
1
10
51.8574478861038
20
-1.62974476096642
30
0
41
1
10
51.8618011144242
20
-1.71297420059443
30
0
41
1
10
51.8705411232222
20
-1.87446470619457
30
0
41
1
10
51.8749174363219
20
-1.95272614199018
30
0
41
1
10
51.8814919837663
20
-2.06635484884052
30
0
41
1
10
51.8847822631016
20
-2.12222688601179
30
0
41
1
10
51.8880817611998
20
-2.17666468683837
30
0
41
1
10
51.8902843358923
20
-2.21263452328168
30
0
41
1
10
51.8913883254877
20
-2.23047858378223
30
0
41
1
10
51.8969022685957
20
-2.31863515237617
30
0
41
1
10
51.9012739955324
20
-2.38546938033696
30
0
41
1
10
51.9056492947109
20
-2.44872938544586
30
0
0
SPLINE
5
112
100
AcDbEntity
8
1
62
256
6
ByLayer
370
18
48
1
60
0
100
AcDbSpline
70
4
71
3
72
27
73
23
40
0
40
0
40
0
40
0
40
0.0624999999999982
40
0.0624999999999982
40
0.0937499999999977
40
0.0937499999999977
40
0.124999999999997
40
0.249999999999998
40
0.249999999999998
40
0.374999999999999
40
0.5
40
0.5
40
0.53125
40
0.53125
40
0.5625
40
0.5625
40
0.625
40
0.625
40
0.75
40
0.75
40
0.875
40
1
40
1
40
1
40
1
41
1
10
51.9962124251078
20
-2.5126525971319
30
0
41
1
10
51.9940174294045
20
-2.48210924627307
30
0
41
1
10
51.9918199304841
20
-2.45062142554204
30
0
41
1
10
51.9885157988611
20
-2.40194750231743
30
0
41
1
10
51.9874116571314
20
-2.38546066022653
30
0
41
1
10
51.9852078061361
20
-2.35212362152583
30
0
41
1
10
51.9797107921977
20
-2.26789486871698
30
0
41
1
10
51.9742599354229
20
-2.17929704165078
30
0
41
1
10
51.965515217711
20
-2.0320925113605
30
0
41
1
10
51.9567656276154
20
-1.8794385731947
30
0
41
1
10
51.9480179074991
20
-1.71589421926694
30
0
41
1
10
51.9425275481866
20
-1.6101934466657
30
0
41
1
10
51.9414282132973
20
-1.58887866945551
30
0
41
1
10
51.9392259681502
20
-1.54589638725636
30
0
41
1
10
51.9381218685244
20
-1.5242051438164
30
0
41
1
10
51.9348181317586
20
-1.45890968245206
30
0
41
1
10
51.9326233214049
20
-1.41501100734263
30
0
41
1
10
51.9260446510276
20
-1.28223096982253
30
0
41
1
10
51.9216596380395
20
-1.19226811040676
30
0
41
1
10
51.9129038748256
20
-1.00950837422425
30
0
41
1
10
51.9041656430034
20
-0.823914112010243
30
0
41
1
10
51.8954228243449
20
-0.632616425487043
30
0
41
1
10
51.8910171178511
20
-0.535497482716295
30
0
0
SPLINE
5
113
100
AcDbEntity
8
1
62
256
6
ByLayer
370
13
48
1
60
0
100
AcDbSpline
70
4
71
3
72
10
73
6
40
0
40
0
40
0
40
0
40
0.174894587575628
40
0.641708999070688
40
1
40
1
40
1
40
1
41
1
10
52.2073096336015
20
-0.812249221905688
30
0
41
1
10
52.2128378723131
20
-0.911062120093732
30
0
41
1
10
52.2331216472524
20
-1.26707530188875
30
0
41
1
10
52.2647308521699
20
-1.77048714956481
30
0
41
1
10
52.2908115468006
20
-2.09727764641025
30
0
41
1
10
52.3021367565854
20
-2.21870614500196
30
0
0
SPLINE
5
114
100
AcDbEntity
8
1
62
256
6
ByLayer
370
18
48
1
60
0
100
AcDbSpline
70
4
71
3
72
22
73
18
40
0
40
0
40
0
40
0
40
0.249999999999999
40
0.249999999999999
40
0.312499999999999
40
0.312499999999999
40
0.374999999999999
40
0.374999999999999
40
0.5
40
0.5
40
0.750000000000001
40
0.750000000000001
40
0.812500000000001
40
0.812500000000001
40
0.875000000000001
40
0.875000000000001
40
1
40
1
40
1
40
1
41
1
10
49.7666395064927
20
1.58108098964772
30
0
41
1
10
49.7759292748532
20
1.43066338988368
30
0
41
1
10
49.785076041763
20
1.27319122342274
30
0
41
1
10
49.7966193107922
20
1.06759152115004
30
0
41
1
10
49.7989361804932
20
1.02603073252655
30
0
41
1
10
49.8035881224989
20
0.942015344901705
30
0
41
1
10
49.8059241690625
20
0.899530151256954
30
0
41
1
10
49.8129461161853
20
0.770897245409685
30
0
41
1
10
49.8175876849508
20
0.684618835221698
30
0
41
1
10
49.8314290264041
20
0.424266545368511
30
0
41
1
10
49.8405411719424
20
0.248686545209836
30
0
41
1
10
49.8521197020937
20
0.0267063488643373
30
0
41
1
10
49.8544422667127
20
-0.0178160366170346
30
0
41
1
10
49.8590999832108
20
-0.107117672880577
30
0
41
1
10
49.8614394238953
20
-0.151979272889349
30
0
41
1
10
49.8684311601592
20
-0.286042429695669
30
0
41
1
10
49.8730639851546
20
-0.374883012242862
30
0
41
1
10
49.8776890887203
20
-0.463192715511582
30
0
0
SPLINE
5
115
100
AcDbEntity
8
1
62
256
6
ByLayer
370
18
48
1
60
0
100
AcDbSpline
70
4
71
3
72
22
73
18
40
0
40
0
40
0
40
0
40
0.250000000000001
40
0.250000000000001
40
0.312500000000001
40
0.312500000000001
40
0.375000000000001
40
0.375000000000001
40
0.5
40
0.5
40
0.75
40
0.75
40
0.812499999999999
40
0.812499999999999
40
0.874999999999999
40
0.874999999999999
40
1
40
1
40
1
40
1
41
1
10
50.1770651780405
20
-0.787587460817178
30
0
41
1
10
50.1692283198181
20
-0.613253103022913
30
0
41
1
10
50.1614927674405
20
-0.436361600730663
30
0
41
1
10
50.1516647564794
20
-0.212062426053478
30
0
41
1
10
50.149693200876
20
-0.16704216058784
30
0
41
1
10
50.1457392744467
20
-0.0766761722687477
30
0
41
1
10
50.1437545341563
20
-0.0312760852410463
30
0
41
1
10
50.137797738092
20
0.105070212176543
30
0
41
1
10
50.1338638406182
20
0.195252953110696
30
0
41
1
10
50.1221205392627
20
0.463721313251341
30
0
41
1
10
50.1143386856305
20
0.639940601235566
30
0
41
1
10
50.1044753514551
20
0.856731194686091
30
0
41
1
10
50.1024986191549
20
0.899914061930332
30
0
41
1
10
50.0985356484504
20
0.985923473525474
30
0
41
1
10
50.0965458428164
20
1.02882580880379
30
0
41
1
10
50.0905970952606
20
1.15612350962317
30
0
41
1
10
50.0866523873261
20
1.23927837401843
30
0
41
1
10
50.0827020472012
20
1.32073271859519
30
0
0
SPLINE
5
116
100
AcDbEntity
8
1
62
256
6
ByLayer
370
13
48
1
60
0
100
AcDbSpline
70
4
71
3
72
10
73
6
40
0
40
0
40
0
40
0
40
0.232755163565838
40
0.700441670734859
40
1
40
1
40
1
40
1
41
1
10
50.2983977829862
20
0.930181990751663
30
0
41
1
10
50.305741244069
20
0.800989273844294
30
0
41
1
10
50.3278402821448
20
0.401379828582492
30
0
41
1
10
50.3593902506336
20
-0.196221516941108
30
0
41
1
10
50.3835969813398
20
-0.642210341292355
30
0
41
1
10
50.3930480986721
20
-0.811138734883912
30
0
0
SPLINE
5
117
100
AcDbEntity
8
1
62
256
6
ByLayer
370
18
48
1
60
0
100
AcDbSpline
70
4
71
3
72
12
73
8
40
0
40
0
40
0
40
0
40
0.5
40
0.5
40
0.75
40
0.75
40
1
40
1
40
1
40
1
41
1
10
46.7143976222321
20
-1.26890903281475
30
0
41
1
10
46.7846235250801
20
-1.32187652447402
30
0
41
1
10
46.8548045573161
20
-1.37674471737048
30
0
41
1
10
46.9589503473985
20
-1.463249021552
30
0
41
1
10
46.9934851063381
20
-1.49278016785388
30
0
41
1
10
47.0620985888359
20
-1.55345700116723
30
0
41
1
10
47.0962067045068
20
-1.58457751759698
30
0
41
1
10
47.1300000000001
20
-1.61669328924751
30
0
0
SPLINE
5
118
100
AcDbEntity
8
1
62
256
6
ByLayer
370
18
48
1
60
0
100
AcDbSpline
70
4
71
3
72
14
73
10
40
0
40
0
40
0
40
0
40
0.500000000000018
40
0.500000000000018
40
0.750000000000009
40
0.750000000000009
40
0.875000000000004
40
0.875000000000004
40
1
40
1
40
1
40
1
41
1
10
47.1300000000001
20
-1.61669328924751
30
0
41
1
10
47.2337434004205
20
-1.69727501732086
30
0
41
1
10
47.3364233889329
20
-1.77548989148593
30
0
41
1
10
47.4890193176025
20
-1.88908069563695
30
0
41
1
10
47.5396510253527
20
-1.92631822626942
30
0
41
1
10
47.6153208760091
20
-1.98117173756353
30
0
41
1
10
47.6405048810741
20
-1.99928463154671
30
0
41
1
10
47.6907723443279
20
-2.03517864194714
30
0
41
1
10
47.7158212196874
20
-2.05298143604995
30
0
41
1
10
47.7408321003855
20
-2.07060782231216
30
0
0
SPLINE
5
119
100
AcDbEntity
8
1
62
256
6
ByLayer
370
18
48
1
60
0
100
AcDbSpline
70
4
71
3
72
8
73
4
40
0
40
0
40
0
40
0
40
1
40
1
40
1
40
1
41
1
10
47.7408321003829
20
-2.07060782230738
30
0
41
1
10
47.7449548326291
20
-2.06891992554748
30
0
41
1
10
47.7490810215809
20
-2.06720039682614
30
0
41
1
10
47.7532110610697
20
-2.06544810865961
30
0
0
SPLINE
5
11A
100
AcDbEntity
8
1
62
256
6
ByLayer
370
18
48
1
60
0
100
AcDbSpline
70
4
71
3
72
26
73
22
40
0
40
0
40
0
40
0
40
0.125
40
0.125
40
0.25
40
0.25
40
0.375
40
0.375
40
0.5
40
0.5
40
0.625
40
0.625
40
0.75
40
0.75
40
0.8125
40
0.8125
40
0.875
40
0.875
40
0.9375
40
0.9375
40
1
40
1
40
1
40
1
41
1
10
47.7532110610699
20
-2.06544810865958
30
0
41
1
10
47.7599534061436
20
-2.06258747463434
30
0
41
1
10
47.7677790868791
20
-2.06137040601013
30
0
41
1
10
47.7850204598386
20
-2.06129231533643
30
0
41
1
10
47.7945202580078
20
-2.06248493759969
30
0
41
1
10
47.8142108439648
20
-2.0668449095748
30
0
41
1
10
47.8244767421718
20
-2.07000541254971
30
0
41
1
10
47.8457682491741
20
-2.07817210061725
30
0
41
1
10
47.8568693244184
20
-2.08322890474653
30
0
41
1
10
47.8790836867202
20
-2.09495984577313
30
0
41
1
10
47.8902706710201
20
-2.10165082158548
30
0
41
1
10
47.9127752683612
20
-2.11691245911044
30
0
41
1
10
47.9242017244886
20
-2.12558099471772
30
0
41
1
10
47.9407150923232
20
-2.13985267345657
30
0
41
1
10
47.9461339110799
20
-2.14483282475973
30
0
41
1
10
47.9567687376347
20
-2.15531179807994
30
0
41
1
10
47.962022108216
20
-2.16085466140535
30
0
41
1
10
47.9720230483329
20
-2.1722880263296
30
0
41
1
10
47.9767834997963
20
-2.17818391132278
30
0
41
1
10
47.9857389134639
20
-2.19039789466672
30
0
41
1
10
47.989959328519
20
-2.19676190649184
30
0
41
1
10
47.9937226009568
20
-2.20322277070429
30
0
0
SPLINE
5
11B
100
AcDbEntity
8
1
62
256
6
ByLayer
370
18
48
1
60
0
100
AcDbSpline
70
4
71
3
72
8
73
4
40
0
40
0
40
0
40
0
40
1
40
1
40
1
40
1
41
1
10
47.9937226009567
20
-2.20322277070409
30
0
41
1
10
48.0058123257899
20
-2.22397866116992
30
0
41
1
10
48.0178756598432
20
-2.24480197563176
30
0
41
1
10
48.0299142174864
20
-2.26569165793555
30
0
0
SPLINE
5
11C
100
AcDbEntity
8
1
62
256
6
ByLayer
370
18
48
1
60
0
100
AcDbSpline
70
4
71
3
72
14
73
10
40
0
40
0
40
0
40
0
40
0.5
40
0.5
40
0.75
40
0.75
40
0.875
40
0.875
40
1
40
1
40
1
40
1
41
1
10
48.0299142174864
20
-2.26569165793555
30
0
41
1
10
48.1280247411675
20
-2.32894674546915
30
0
41
1
10
48.2261256457827
20
-2.38911361552641
30
0
41
1
10
48.3733468104441
20
-2.47453633848895
30
0
41
1
10
48.4224357782464
20
-2.50220297550987
30
0
41
1
10
48.496110108812
20
-2.54245246714686
30
0
41
1
10
48.5206749189319
20
-2.55566052633958
30
0
41
1
10
48.5698196873016
20
-2.58165269394351
30
0
41
1
10
48.5943845503672
20
-2.59442834909754
30
0
41
1
10
48.6188624867343
20
-2.60694111554989
30
0
0
SPLINE
5
11D
100
AcDbEntity
8
1
62
256
6
ByLayer
370
18
48
1
60
0
100
AcDbSpline
70
4
71
3
72
8
73
4
40
0
40
0
40
0
40
0
40
1
40
1
40
1
40
1
41
1
10
48.6188624867344
20
-2.60694111555009
30
0
41
1
10
48.648289624065
20
-2.57840014742641
30
0
41
1
10
48.6778463032667
20
-2.54853181521222
30
0
41
1
10
48.7075654640097
20
-2.51731448764812
30
0
0
SPLINE
5
11E
100
AcDbEntity
8
1
62
256
6
ByLayer
370
18
48
1
60
0
100
AcDbSpline
70
4
71
3
72
26
73
22
40
0
40
0
40
0
40
0
40
0.125000000000021
40
0.125000000000021
40
0.250000000000042
40
0.250000000000042
40
0.375000000000063
40
0.375000000000063
40
0.500000000000085
40
0.500000000000085
40
0.625000000000106
40
0.625000000000106
40
0.750000000000127
40
0.750000000000127
40
0.812500000000095
40
0.812500000000095
40
0.875000000000063
40
0.875000000000063
40
0.937500000000032
40
0.937500000000032
40
1
40
1
40
1
40
1
41
1
10
48.7075654640097
20
-2.51731448764812
30
0
41
1
10
48.7143241917258
20
-2.51021504702612
30
0
41
1
10
48.7221742516681
20
-2.50487657105049
30
0
41
1
10
48.739469165924
20
-2.49674052926659
30
0
41
1
10
48.7490004077606
20
-2.49397449112186
30
0
41
1
10
48.7687465726517
20
-2.49085453633265
30
0
41
1
10
48.7790373363287
20
-2.49045582268647
30
0
41
1
10
48.8003704733139
20
-2.49182965771629
30
0
41
1
10
48.8114832940228
20
-2.49363697942107
30
0
41
1
10
48.8337005809175
20
-2.49940207911936
30
0
41
1
10
48.8448819964642
20
-2.50335014030836
30
0
41
1
10
48.8673625723144
20
-2.51363931591669
30
0
41
1
10
48.8787605540733
20
-2.52005706430211
30
0
41
1
10
48.8952202112712
20
-2.53154964966691
30
0
41
1
10
48.9006212113506
20
-2.53570002531902
30
0
41
1
10
48.9112212771675
20
-2.54474076722653
30
0
41
1
10
48.9164564987094
20
-2.54967120441816
30
0
41
1
10
48.9264197661477
20
-2.56016799273138
30
0
41
1
10
48.9311637015737
20
-2.56573909399918
30
0
41
1
10
48.9400916584522
20
-2.5776424626487
30
0
41
1
10
48.9443008554414
20
-2.58402227419268
30
0
41
1
10
48.9480565049591
20
-2.59070993096771
30
0
0
SPLINE
5
11F
100
AcDbEntity
8
1
62
256
6
ByLayer
370
18
48
1
60
0
100
AcDbSpline
70
4
71
3
72
8
73
4
40
0
40
0
40
0
40
0
40
1
40
1
40
1
40
1
41
1
10
48.9480565049591
20
-2.59070993096762
30
0
41
1
10
48.9896476183879
20
-2.66477091301493
30
0
41
1
10
49.030889405733
20
-2.73867132739005
30
0
41
1
10
49.0718831892356
20
-2.81238412583514
30
0
0
SPLINE
5
120
100
AcDbEntity
8
1
62
256
6
ByLayer
370
18
48
1
60
0
100
AcDbSpline
70
4
71
3
72
10
73
6
40
0
40
0
40
0
40
0
40
0.5
40
0.5
40
1
40
1
40
1
40
1
41
1
10
49.0718831892312
20
-2.81238412583826
30
0
41
1
10
49.1428716744169
20
-2.84017809135986
30
0
41
1
10
49.2138594614889
20
-2.86558999995489
30
0
41
1
10
49.3556333432322
20
-2.91167615502346
30
0
41
1
10
49.4264435085744
20
-2.93234534298352
30
0
41
1
10
49.4972313611936
20
-2.9506052868183
30
0
0
SPLINE
5
121
100
AcDbEntity
8
1
62
256
6
ByLayer
370
18
48
1
60
0
100
AcDbSpline
70
4
71
3
72
10
73
6
40
0
40
0
40
0
40
0
40
0.5
40
0.5
40
1
40
1
40
1
40
1
41
1
10
49.4972313611937
20
-2.95060528681842
30
0
41
1
10
49.5244640987733
20
-2.91099268763583
30
0
41
1
10
49.5518316184892
20
-2.87043482657089
30
0
41
1
10
49.6067761900204
20
-2.78758572703751
30
0
41
1
10
49.6343650732037
20
-2.74527789300509
30
0
41
1
10
49.6620995575336
20
-2.70208100185681
30
0
0
SPLINE
5
122
100
AcDbEntity
8
1
62
256
6
ByLayer
370
18
48
1
60
0
100
AcDbSpline
70
4
71
3
72
26
73
22
40
0
40
0
40
0
40
0
40
0.125
40
0.125
40
0.25
40
0.25
40
0.375
40
0.375
40
0.5
40
0.5
40
0.625
40
0.625
40
0.75
40
0.75
40
0.8125
40
0.8125
40
0.875
40
0.875
40
0.9375
40
0.9375
40
1
40
1
40
1
40
1
41
1
10
49.6620995575335
20
-2.70208100185681
30
0
41
1
10
49.6688469073793
20
-2.69157189942098
30
0
41
1
10
49.6766841715259
20
-2.68273384550588
30
0
41
1
10
49.6939558185575
20
-2.66747567335239
30
0
41
1
10
49.7034782970455
20
-2.6610609511622
30
0
41
1
10
49.7232130406478
20
-2.65080016242911
30
0
41
1
10
49.7334997469167
20
-2.64687695484574
30
0
41
1
10
49.7548302049366
20
-2.64128109411539
30
0
41
1
10
49.7659448959044
20
-2.63962426103961
30
0
41
1
10
49.7881680187647
20
-2.63876089085957
30
0
41
1
10
49.7993539837694
20
-2.63951725217336
30
0
41
1
10
49.8218466303045
20
-2.64368264071791
30
0
41
1
10
49.8332501304652
20
-2.64714601909549
30
0
41
1
10
49.8497105945384
20
-2.654619557823
30
0
41
1
10
49.8551114294271
20
-2.65749328429044
30
0
41
1
10
49.8657100192597
20
-2.66412418959337
30
0
41
1
10
49.8709433678768
20
-2.667914022985
30
0
41
1
10
49.8808966546081
20
-2.67635127897887
30
0
41
1
10
49.8856346497495
20
-2.68100054181068
30
0
41
1
10
49.8945492226929
20
-2.6913133504178
30
0
41
1
10
49.8987503169828
20
-2.69702079612497
30
0
41
1
10
49.902497269728
20
-2.70320814878539
30
0
0
SPLINE
5
123
100
AcDbEntity
8
1
62
256
6
ByLayer
370
18
48
1
60
0
100
AcDbSpline
70
4
71
3
72
10
73
6
40
0
40
0
40
0
40
0
40
0.5
40
0.5
40
1
40
1
40
1
40
1
41
1
10
49.902497269728
20
-2.70320814878542
30
0
41
1
10
49.9381799631067
20
-2.76213107171119
30
0
41
1
10
49.9736224874404
20
-2.82025589343007
30
0
41
1
10
50.0441113536792
20
-2.93487378494493
30
0
41
1
10
50.0791821837446
20
-2.99140643415501
30
0
41
1
10
50.1139867471927
20
-3.04693024720973
30
0
0
SPLINE
5
124
100
AcDbEntity
8
1
62
256
6
ByLayer
370
18
48
1
60
0
100
AcDbSpline
70
4
71
3
72
10
73
6
40
0
40
0
40
0
40
0
40
0.5
40
0.5
40
1
40
1
40
1
40
1
41
1
10
50.1139867471879
20
-3.04693024721607
30
0
41
1
10
50.1579945188379
20
-3.04915659583048
30
0
41
1
10
50.2017974514379
20
-3.05033796612597
30
0
41
1
10
50.2889392530755
20
-3.05058378822517
30
0
41
1
10
50.3322526599121
20
-3.04963757237286
30
0
41
1
10
50.375564541821
20
-3.0476931167089
30
0
0
SPLINE
5
125
100
AcDbEntity
8
1
62
256
6
ByLayer
370
18
48
1
60
0
100
AcDbSpline
70
4
71
3
72
10
73
6
40
0
40
0
40
0
40
0
40
0.5
40
0.5
40
1
40
1
40
1
40
1
41
1
10
50.3755645418211
20
-3.0476931167091
30
0
41
1
10
50.4151340518784
20
-2.97521227885113
30
0
41
1
10
50.455050066145
20
-2.90129556822242
30
0
41
1
10
50.5353953822095
20
-2.75124648618143
30
0
41
1
10
50.5758303902606
20
-2.67510330781468
30
0
41
1
10
50.616613404672
20
-2.59785385273838
30
0
0
SPLINE
5
126
100
AcDbEntity
8
1
62
256
6
ByLayer
370
18
48
1
60
0
100
AcDbSpline
70
4
71
3
72
26
73
22
40
0
40
0
40
0
40
0
40
0.125
40
0.125
40
0.25
40
0.25
40
0.375
40
0.375
40
0.5
40
0.5
40
0.625000000000001
40
0.625000000000001
40
0.750000000000001
40
0.750000000000001
40
0.8125
40
0.8125
40
0.875
40
0.875
40
0.9375
40
0.9375
40
1
40
1
40
1
40
1
41
1
10
50.616613404672
20
-2.59785385273838
30
0
41
1
10
50.6233633975144
20
-2.58506830276451
30
0
41
1
10
50.6312024591143
20
-2.57369454849672
30
0
41
1
10
50.6484760695716
20
-2.55299214329344
30
0
41
1
10
50.6579985593304
20
-2.54364354542193
30
0
41
1
10
50.6777327028883
20
-2.52739763514458
30
0
41
1
10
50.688018803996
20
-2.52039926696693
30
0
41
1
10
50.7093468778983
20
-2.50849050163296
30
0
41
1
10
50.7204604368918
20
-2.50357517077887
30
0
41
1
10
50.7426835287195
20
-2.49622827636443
30
0
41
1
10
50.7538703348543
20
-2.49373659486835
30
0
41
1
10
50.7763653365138
20
-2.49137584067935
30
0
41
1
10
50.7877711647924
20
-2.49153365521926
30
0
41
1
10
50.8042341147168
20
-2.49421628416235
30
0
41
1
10
50.8096356057305
20
-2.4955146174043
30
0
41
1
10
50.820234983705
20
-2.49904244718189
30
0
41
1
10
50.8254687281798
20
-2.50129407199489
30
0
41
1
10
50.8354236372807
20
-2.50679035770293
30
0
41
1
10
50.8401620356562
20
-2.51003127373002
30
0
41
1
10
50.849076531577
20
-2.51767296970832
30
0
41
1
10
50.853277443449
20
-2.52211013895473
30
0
41
1
10
50.8570248651036
20
-2.52715212603195
30
0
0
SPLINE
5
127
100
AcDbEntity
8
1
62
256
6
ByLayer
370
18
48
1
60
0
100
AcDbSpline
70
4
71
3
72
10
73
6
40
0
40
0
40
0
40
0
40
0.5
40
0.5
40
1
40
1
40
1
40
1
41
1
10
50.8570248651036
20
-2.52715212603206
30
0
41
1
10
50.9077683535152
20
-2.59542520454053
30
0
41
1
10
50.9580388520898
20
-2.66089138420435
30
0
41
1
10
51.0578849051033
20
-2.78620966281846
30
0
41
1
10
51.1073249540504
20
-2.84589764517037
30
0
41
1
10
51.1563520069811
20
-2.90256805243385
30
0
0
SPLINE
5
128
100
AcDbEntity
8
1
62
256
6
ByLayer
370
18
48
1
60
0
100
AcDbSpline
70
4
71
3
72
8
73
4
40
0
40
0
40
0
40
0
40
1
40
1
40
1
40
1
41
1
10
51.1563520069813
20
-2.90256805243374
30
0
41
1
10
51.1866868858352
20
-2.89259788912773
30
0
41
1
10
51.217020199259
20
-2.88210818901874
30
0
41
1
10
51.2473570047626
20
-2.87109204187394
30
0
0
SPLINE
5
129
100
AcDbEntity
8
1
62
256
6
ByLayer
370
18
48
1
60
0
100
AcDbSpline
70
4
71
3
72
8
73
4
40
0
40
0
40
0
40
0
40
1
40
1
40
1
40
1
41
1
10
51.2545183675093
20
-2.86751287674213
30
0
41
1
10
51.2521312808858
20
-2.86870890912829
30
0
41
1
10
51.2497441607453
20
-2.86990196404901
30
0
41
1
10
51.2473570047626
20
-2.87109204187394
30
0
0
SPLINE
5
12A
100
AcDbEntity
8
1
62
256
6
ByLayer
370
18
48
1
60
0
100
AcDbSpline
70
4
71
3
72
10
73
6
40
0
40
0
40
0
40
0
40
0.5
40
0.5
40
1
40
1
40
1
40
1
41
1
10
51.2545183675093
20
-2.86751287674213
30
0
41
1
10
51.3064187901255
20
-2.76032822901468
30
0
41
1
10
51.3586981992386
20
-2.65238809213221
30
0
41
1
10
51.4642471878507
20
-2.43526999125049
30
0
41
1
10
51.5173515259813
20
-2.3264115558066
30
0
41
1
10
51.5709971943326
20
-2.21733508658696
30
0
0
SPLINE
5
12B
100
AcDbEntity
8
1
62
256
6
ByLayer
370
18
48
1
60
0
100
AcDbSpline
70
4
71
3
72
18
73
14
40
0
40
0
40
0
40
0
40
0.187037862626525
40
0.187037862626525
40
0.374075725253051
40
0.374075725253051
40
0.561113587879576
40
0.561113587879576
40
0.748151450506102
40
0.748151450506102
40
0.935189313132627
40
0.935189313132627
40
1
40
1
40
1
40
1
41
1
10
51.5709971943326
20
-2.21733508658699
30
0
41
1
10
51.5777603772903
20
-2.20358366656754
30
0
41
1
10
51.5856113231465
20
-2.19083525855058
30
0
41
1
10
51.6029006218894
20
-2.16679260908603
30
0
41
1
10
51.6124248181717
20
-2.15545771734344
30
0
41
1
10
51.6321554725313
20
-2.13485980285441
30
0
41
1
10
51.6424377802234
20
-2.12548120815899
30
0
41
1
10
51.6637555805319
20
-2.10842368473857
30
0
41
1
10
51.6748633780048
20
-2.10071864859219
30
0
41
1
10
51.6970790949251
20
-2.08755784916383
30
0
41
1
10
51.7082627611085
20
-2.08202598343948
30
0
41
1
10
51.7234039279061
20
-2.07613267642137
30
0
41
1
10
51.7273200431955
20
-2.07475400764898
30
0
41
1
10
51.7312313984289
20
-2.07353077110062
30
0
0
SPLINE
5
12C
100
AcDbEntity
8
1
62
256
6
ByLayer
370
18
48
1
60
0
100
AcDbSpline
70
4
71
3
72
10
73
6
40
0
40
0
40
0
40
0
40
0.5
40
0.5
40
1
40
1
40
1
40
1
41
1
10
54.2111279911489
20
-2.70192613492046
30
0
41
1
10
54.1592986731303
20
-2.79026948912306
30
0
41
1
10
54.1079292960035
20
-2.87750121348185
30
0
41
1
10
54.0058841585391
20
-3.04960650481169
30
0
41
1
10
53.9553812987687
20
-3.13418792095337
30
0
41
1
10
53.9052806036398
20
-3.21725606616582
30
0
0
SPLINE
5
12D
100
AcDbEntity
8
1
62
256
6
ByLayer
370
18
48
1
60
0
100
AcDbSpline
70
4
71
3
72
8
73
4
40
0
40
0
40
0
40
0
40
1
40
1
40
1
40
1
41
1
10
53.8147181203285
20
-3.2139177155185
30
0
41
1
10
53.8449008145009
20
-3.21555048810143
30
0
41
1
10
53.8750858456156
20
-3.21666346945631
30
0
41
1
10
53.9052806036398
20
-3.21725606616582
30
0
0
SPLINE
5
12E
100
AcDbEntity
8
1
62
256
6
ByLayer
370
18
48
1
60
0
100
AcDbSpline
70
4
71
3
72
12
73
8
40
0
40
0
40
0
40
0
40
0.0317505527264529
40
0.0317505527264529
40
0.354500368484312
40
0.354500368484312
40
1
40
1
40
1
40
1
41
1
10
53.7439920530729
20
-3.09312232250949
30
0
41
1
10
53.7414107824936
20
-3.08866435605725
30
0
41
1
10
53.7388284779805
20
-3.08419932846826
30
0
41
1
10
53.7099848687565
20
-3.03426768007321
30
0
41
1
10
53.6836056179271
20
-2.98806018987298
30
0
41
1
10
53.6041941353712
20
-2.84745294651032
30
0
41
1
10
53.5508606320746
20
-2.75101728270494
30
0
41
1
10
53.4970978196331
20
-2.65215049976843
30
0
0
SPLINE
5
12F
100
AcDbEntity
8
1
62
256
6
ByLayer
370
18
48
1
60
0
100
AcDbSpline
70
4
71
3
72
28
73
24
40
0
40
0
40
0
40
0
40
0.125
40
0.125
40
0.25
40
0.25
40
0.374999999999999
40
0.374999999999999
40
0.499999999999999
40
0.499999999999999
40
0.624999999999999
40
0.624999999999999
40
0.687499999999999
40
0.687499999999999
40
0.749999999999999
40
0.749999999999999
40
0.812499999999999
40
0.812499999999999
40
0.875
40
0.875
40
0.9375
40
0.9375
40
1
40
1
40
1
40
1
41
1
10
53.497097819633
20
-2.65215049976823
30
0
41
1
10
53.4904801716933
20
-2.63998101806328
30
0
41
1
10
53.4828102965852
20
-2.62921494446468
30
0
41
1
10
53.4659005806706
20
-2.60975148175072
30
0
41
1
10
53.4565839918704
20
-2.60104217561252
30
0
41
1
10
53.4372063392128
20
-2.58602585400501
30
0
41
1
10
53.4270754005983
20
-2.57962898934659
30
0
41
1
10
53.4059986501614
20
-2.56893657423771
30
0
41
1
10
53.3949602228484
20
-2.56462886400624
30
0
41
1
10
53.3727750797496
20
-2.5585154503751
30
0
41
1
10
53.361574150765
20
-2.55665907746541
30
0
41
1
10
53.3446252361024
20
-2.55590188361677
30
0
41
1
10
53.3389507552585
20
-2.55599063707135
30
0
41
1
10
53.3275511162828
20
-2.55694780719554
30
0
41
1
10
53.3218357521271
20
-2.55782125315795
30
0
41
1
10
53.3106361218049
20
-2.56041469250417
30
0
41
1
10
53.3051192077709
20
-2.56213527638033
30
0
41
1
10
53.2942841840583
20
-2.56655733673773
30
0
41
1
10
53.2889248276362
20
-2.56928610885504
30
0
41
1
10
53.278709993626
20
-2.57579262077229
30
0
41
1
10
53.2738497150264
20
-2.57955962027941
30
0
41
1
10
53.2647138180166
20
-2.5883075754241
30
0
41
1
10
53.2604165920926
20
-2.59332833187122
30
0
41
1
10
53.2566078854347
20
-2.59894633100132
30
0
0
SPLINE
5
130
100
AcDbEntity
8
1
62
256
6
ByLayer
370
18
48
1
60
0
100
AcDbSpline
70
4
71
3
72
10
73
6
40
0
40
0
40
0
40
0
40
0.5
40
0.5
40
1
40
1
40
1
40
1
41
1
10
53.2566078854347
20
-2.5989463310016
30
0
41
1
10
53.2047871063826
20
-2.67538411363495
30
0
41
1
10
53.1534262679295
20
-2.74932340022494
30
0
41
1
10
53.0513839760316
20
-2.8921505353832
30
0
41
1
10
53.0008710624477
20
-2.96081543557213
30
0
41
1
10
52.9507609141953
20
-3.02672817454371
30
0
0
SPLINE
5
131
100
AcDbEntity
8
1
62
256
6
ByLayer
370
18
48
1
60
0
100
AcDbSpline
70
4
71
3
72
8
73
4
40
0
40
0
40
0
40
0
40
1
40
1
40
1
40
1
41
1
10
52.8602702509817
20
-2.99124491812938
30
0
41
1
10
52.8904329653557
20
-3.00355613729792
30
0
41
1
10
52.9205929938184
20
-3.01538522449343
30
0
41
1
10
52.9507609141953
20
-3.02672817454368
30
0
0
SPLINE
5
132
100
AcDbEntity
8
1
62
256
6
ByLayer
370
18
48
1
60
0
100
AcDbSpline
70
4
71
3
72
12
73
8
40
0
40
0
40
0
40
0
40
0.25
40
0.25
40
0.5
40
0.5
40
1
40
1
40
1
40
1
41
1
10
52.8602702509816
20
-2.99124491813004
30
0
41
1
10
52.8342332437186
20
-2.93817976316822
30
0
41
1
10
52.8080985237451
20
-2.88475611853431
30
0
41
1
10
52.7555934850914
20
-2.77720186031411
30
0
41
1
10
52.7292121553168
20
-2.72304904175363
30
0
41
1
10
52.6497750882801
20
-2.55978903631265
30
0
41
1
10
52.5964018542912
20
-2.44981336882512
30
0
41
1
10
52.5426082722886
20
-2.33909247888184
30
0
0
SPLINE
5
133
100
AcDbEntity
8
1
62
256
6
ByLayer
370
18
48
1
60
0
100
AcDbSpline
70
4
71
3
72
28
73
24
40
0
40
0
40
0
40
0
40
0.125000000000033
40
0.125000000000033
40
0.250000000000065
40
0.250000000000065
40
0.375000000000098
40
0.375000000000098
40
0.500000000000131
40
0.500000000000131
40
0.625000000000164
40
0.625000000000164
40
0.687500000000136
40
0.687500000000136
40
0.750000000000109
40
0.750000000000109
40
0.812500000000082
40
0.812500000000082
40
0.875000000000055
40
0.875000000000055
40
0.937500000000027
40
0.937500000000027
40
1
40
1
40
1
40
1
41
1
10
52.5426082722886
20
-2.33909247888187
30
0
41
1
10
52.5359870248382
20
-2.32546426557189
30
0
41
1
10
52.5283112312608
20
-2.31290515175562
30
0
41
1
10
52.5113868777271
20
-2.28936942384465
30
0
41
1
10
52.5020608509983
20
-2.27835914098921
30
0
41
1
10
52.4826656183653
20
-2.25846960983773
30
0
41
1
10
52.4725271161599
20
-2.24948408827453
30
0
41
1
10
52.4514383256736
20
-2.23331752692928
30
0
41
1
10
52.4403959640343
20
-2.22609934674671
30
0
41
1
10
52.418208351401
20
-2.21402261488842
30
0
41
1
10
52.4070076600163
20
-2.20909973299928
30
0
41
1
10
52.3900618873733
20
-2.20358545355197
30
0
41
1
10
52.3843889272963
20
-2.2020620415887
30
0
41
1
10
52.3729935469464
20
-2.19973179762232
30
0
41
1
10
52.3672844153303
20
-2.19893298858781
30
0
41
1
10
52.3560966682897
20
-2.19818826203502
30
0
41
1
10
52.350586118895
20
-2.19823375464597
30
0
41
1
10
52.339763904997
20
-2.19929007265662
30
0
41
1
10
52.3344112526425
20
-2.20031462741574
30
0
41
1
10
52.3242108929909
20
-2.2034744215986
30
0
41
1
10
52.3193573503839
20
-2.2055985923929
30
0
41
1
10
52.3102335117168
20
-2.21113311551824
30
0
41
1
10
52.3059416306281
20
-2.21457411060288
30
0
41
1
10
52.3021367565853
20
-2.21870614500131
30
0
0
SPLINE
5
134
100
AcDbEntity
8
1
62
256
6
ByLayer
370
18
48
1
60
0
100
AcDbSpline
70
4
71
3
72
10
73
6
40
0
40
0
40
0
40
0
40
0.5
40
0.5
40
1
40
1
40
1
40
1
41
1
10
52.3021367565853
20
-2.21870614500193
30
0
41
1
10
52.2503013175626
20
-2.27499863055863
30
0
41
1
10
52.1989289519702
20
-2.32765074456003
30
0
41
1
10
52.0968629827337
20
-2.42573318949121
30
0
41
1
10
52.0463378652723
20
-2.47102029808312
30
0
41
1
10
51.9962124251078
20
-2.5126525971319
30
0
0
SPLINE
5
135
100
AcDbEntity
8
1
62
256
6
ByLayer
370
18
48
1
60
0
100
AcDbSpline
70
4
71
3
72
8
73
4
40
0
40
0
40
0
40
0
40
1
40
1
40
1
40
1
41
1
10
51.9056492947113
20
-2.44872938544586
30
0
41
1
10
51.9358336149663
20
-2.47043544451461
30
0
41
1
10
51.9660180952117
20
-2.49174516165755
30
0
41
1
10
51.9962124251078
20
-2.5126525971319
30
0
0
SPLINE
5
136
100
AcDbEntity
8
1
62
256
6
ByLayer
370
18
48
1
60
0
100
AcDbSpline
70
4
71
3
72
12
73
8
40
0
40
0
40
0
40
0
40
0.25
40
0.25
40
0.5
40
0.5
40
1
40
1
40
1
40
1
41
1
10
51.9056492947113
20
-2.44872938544637
30
0
41
1
10
51.8796048136377
20
-2.39218898102482
30
0
41
1
10
51.8534710589929
20
-2.33570173675204
30
0
41
1
10
51.8009787488125
20
-2.22285537059656
30
0
41
1
10
51.7746097294667
20
-2.16647385490177
30
0
41
1
10
51.6952119582622
20
-1.99780871581407
30
0
41
1
10
51.6418683830102
20
-1.88592071116614
30
0
41
1
10
51.5880439369245
20
-1.77510066948935
30
0
0
SPLINE
5
137
100
AcDbEntity
8
1
62
256
6
ByLayer
370
18
48
1
60
0
100
AcDbSpline
70
4
71
3
72
28
73
24
40
0
40
0
40
0
40
0
40
0.124999999999999
40
0.124999999999999
40
0.249999999999999
40
0.249999999999999
40
0.374999999999998
40
0.374999999999998
40
0.499999999999997
40
0.499999999999997
40
0.624999999999997
40
0.624999999999997
40
0.687499999999997
40
0.687499999999997
40
0.749999999999998
40
0.749999999999998
40
0.812499999999998
40
0.812499999999998
40
0.874999999999999
40
0.874999999999999
40
0.937499999999999
40
0.937499999999999
40
1
40
1
40
1
40
1
41
1
10
51.5880439369245
20
-1.77510066948929
30
0
41
1
10
51.5814309032835
20
-1.76148498522309
30
0
41
1
10
51.5737639061977
20
-1.74848700897539
30
0
41
1
10
51.5568531144299
20
-1.72341631516443
30
0
41
1
10
51.5475313030288
20
-1.71129155599019
30
0
41
1
10
51.5281386499759
20
-1.68867140818063
30
0
41
1
10
51.5179993052449
20
-1.67806499091208
30
0
41
1
10
51.4969064657949
20
-1.65816665111072
30
0
41
1
10
51.4858604977133
20
-1.64881675852681
30
0
41
1
10
51.463665595932
20
-1.63208713435978
30
0
41
1
10
51.4524602610754
20
-1.62463581446559
30
0
41
1
10
51.4355067733305
20
-1.61497556618892
30
0
41
1
10
51.4298311280351
20
-1.61201070352672
30
0
41
1
10
51.4184304832862
20
-1.60665928423583
30
0
41
1
10
51.4127220335497
20
-1.60428471696389
30
0
41
1
10
51.4015356021924
20
-1.60030444804195
30
0
41
1
10
51.3960260449633
20
-1.59868247945647
30
0
41
1
10
51.3852063690205
20
-1.59628684091629
30
0
41
1
10
51.3798554029645
20
-1.59551210903416
30
0
41
1
10
51.3696618469489
20
-1.59501836941726
30
0
41
1
10
51.3648119643051
20
-1.59528837580331
30
0
41
1
10
51.355695638002
20
-1.59704904558168
30
0
41
1
10
51.3514080085005
20
-1.5985580038641
30
0
41
1
10
51.347607068158
20
-1.60077588262465
30
0
0
SPLINE
5
138
100
AcDbEntity
8
1
62
256
6
ByLayer
370
18
48
1
60
0
100
AcDbSpline
70
4
71
3
72
28
73
24
40
0
40
0
40
0
40
0
40
0.125
40
0.125
40
0.25
40
0.25
40
0.375
40
0.375
40
0.5
40
0.5
40
0.625
40
0.625
40
0.6875
40
0.6875
40
0.75
40
0.75
40
0.8125
40
0.8125
40
0.875
40
0.875
40
0.9375
40
0.9375
40
1
40
1
40
1
40
1
41
1
10
50.6335305778334
20
-1.02192361059349
30
0
41
1
10
50.626913112568
20
-1.00972921643628
30
0
41
1
10
50.6192431878961
20
-0.997636961076154
30
0
41
1
10
50.6023331105922
20
-0.973619357305836
30
0
41
1
10
50.5930160549577
20
-0.961630986831864
30
0
41
1
10
50.5736373947005
20
-0.938604633274394
30
0
41
1
10
50.5635066576009
20
-0.927462043448912
30
0
41
1
10
50.5424325778735
20
-0.905857285634198
30
0
41
1
10
50.5313958554281
20
-0.895320760081091
30
0
41
1
10
50.5092114928669
20
-0.875611868044814
30
0
41
1
10
50.4980097173317
20
-0.866370734397549
30
0
41
1
10
50.4810584416131
20
-0.853510909098162
30
0
41
1
10
50.4753830245934
20
-0.84939287114014
30
0
41
1
10
50.463981943434
20
-0.841535377960241
30
0
41
1
10
50.45826604741
20
-0.837805616444626
30
0
41
1
10
50.447066493712
20
-0.830955541711916
30
0
41
1
10
50.4415500864581
20
-0.827811552903256
30
0
41
1
10
50.4307163559258
20
-0.822168591162978
30
0
41
1
10
50.425357833341
20
-0.819653397136136
30
0
41
1
10
50.4151444669512
20
-0.815517440393847
30
0
41
1
10
50.4102852135912
20
-0.813887801388404
30
0
41
1
10
50.4011518511407
20
-0.811662905117089
30
0
41
1
10
50.3968559000691
20
-0.811071750331166
30
0
41
1
10
50.393048098672
20
-0.811138734882746
30
0
0
SPLINE
5
139
100
AcDbEntity
8
1
62
256
6
ByLayer
370
18
48
1
60
0
100
AcDbSpline
70
4
71
3
72
10
73
6
40
0
40
0
40
0
40
0
40
0.5
40
0.5
40
1
40
1
40
1
40
1
41
1
10
50.3930480986721
20
-0.81113873488394
30
0
41
1
10
50.3566347674845
20
-0.811779296301381
30
0
41
1
10
50.3204483236803
20
-0.810141852365064
30
0
41
1
10
50.248457426815
20
-0.802247675552451
30
0
41
1
10
50.212627794102
20
-0.796019166973622
30
0
41
1
10
50.1770651780498
20
-0.787587460814223
30
0
0
SPLINE
5
13A
100
AcDbEntity
8
1
62
256
6
ByLayer
370
18
48
1
60
0
100
AcDbSpline
70
4
71
3
72
11
73
7
40
0
40
0
40
0
40
0
40
0.25
40
0.25
40
0.5
40
1
40
1
40
1
40
1
41
1
10
50.1770651780487
20
-0.787587460821129
30
0
41
1
10
50.1520914075125
20
-0.760500991721159
30
0
41
1
10
50.1270743493281
20
-0.733359752288095
30
0
41
1
10
50.0771285751551
20
-0.679178948910533
30
0
41
1
10
50.0022644516273
20
-0.597974938273211
30
0
41
1
10
49.92751298315
20
-0.51701827436753
30
0
41
1
10
49.8776890887078
20
-0.463192715512008
30
0
0
SPLINE
5
13B
100
AcDbEntity
8
1
62
256
6
ByLayer
370
18
48
1
60
0
100
AcDbSpline
70
4
71
3
72
8
73
4
40
0
40
0
40
0
40
0
40
1
40
1
40
1
40
1
41
1
10
49.8776890887144
20
-0.463192715515561
30
0
41
1
10
49.8120985871601
20
-0.356431517658109
30
0
41
1
10
49.7459014062952
20
-0.255054084413956
30
0
41
1
10
49.6790397765844
20
-0.159886118990443
30
0
0
SPLINE
5
13C
100
AcDbEntity
8
1
62
256
6
ByLayer
370
18
48
1
60
0
100
AcDbSpline
70
4
71
3
72
28
73
24
40
0
40
0
40
0
40
0
40
0.124999999999968
40
0.124999999999968
40
0.249999999999936
40
0.249999999999936
40
0.374999999999904
40
0.374999999999904
40
0.499999999999871
40
0.499999999999871
40
0.624999999999839
40
0.624999999999839
40
0.687499999999866
40
0.687499999999866
40
0.749999999999893
40
0.749999999999893
40
0.81249999999992
40
0.81249999999992
40
0.874999999999946
40
0.874999999999946
40
0.937499999999973
40
0.937499999999973
40
1
40
1
40
1
40
1
41
1
10
49.6790397765843
20
-0.159886118990329
30
0
41
1
10
49.6724162652649
20
-0.150458498111846
30
0
41
1
10
49.6647378874502
20
-0.14060479381402
30
0
41
1
10
49.6478084655085
20
-0.120286823166424
30
0
41
1
10
49.6384801236825
20
-0.109753814894901
30
0
41
1
10
49.6190813864236
20
-0.0888584572061291
30
0
41
1
10
49.6089414822039
20
-0.0784092189773276
30
0
41
1
10
49.5878527985376
20
-0.0574832703180164
30
0
41
1
10
49.5768118784243
20
-0.046925961110361
30
0
41
1
10
49.5546260862385
20
-0.0264231607952468
30
0
41
1
10
49.5434254959573
20
-0.0164161073483911
30
0
41
1
10
49.5264794187503
20
-0.0017779411275853
30
0
41
1
10
49.5208063320687
20
0.0030388238759258
30
0
41
1
10
49.5094112254761
20
0.0125367856110756
30
0
41
1
10
49.5037027390691
20
0.0172054849731751
30
0
41
1
10
49.4925160884217
20
0.0261671294464918
30
0
41
1
10
49.4870059868961
20
0.0304871292662483
30
0
41
1
10
49.4761842638789
20
0.0387608211432848
30
0
41
1
10
49.4708317064061
20
0.0427437804567887
30
0
41
1
10
49.4606307966172
20
0.0500784253549966
30
0
41
1
10
49.4557766709369
20
0.0534371287516535
30
0
41
1
10
49.44665115678
20
0.059425085205703
30
0
41
1
10
49.4423581364063
20
0.0620649854995747
30
0
41
1
10
49.4385520804847
20
0.0641719505527192
30
0
0
SPLINE
5
13D
100
AcDbEntity
8
1
62
256
6
ByLayer
370
18
48
1
60
0
100
AcDbSpline
70
4
71
3
72
8
73
4
40
0
40
0
40
0
40
0
40
1
40
1
40
1
40
1
41
1
10
49.4385520804847
20
0.0641719505515823
30
0
41
1
10
49.3908239727324
20
0.0905933844875619
30
0
41
1
10
49.3434860286182
20
0.120733320415354
30
0
41
1
10
49.2964457463035
20
0.154562399977266
30
0
0
SPLINE
5
13E
100
AcDbEntity
8
1
62
256
6
ByLayer
370
18
48
1
60
0
100
AcDbSpline
70
4
71
3
72
14
73
10
40
0
40
0
40
0
40
0
40
0.499999999999979
40
0.499999999999979
40
0.749999999999968
40
0.749999999999968
40
0.874999999999984
40
0.874999999999984
40
1
40
1
40
1
40
1
41
1
10
49.2964457463035
20
0.154562399977294
30
0
41
1
10
49.2199945565551
20
0.233882737982554
30
0
41
1
10
49.1432466340357
20
0.312568880415199
30
0
41
1
10
49.0272189607127
20
0.429206022520759
30
0
41
1
10
48.9883912212613
20
0.467852328046718
30
0
41
1
10
48.9299397760205
20
0.525489466742613
30
0
41
1
10
48.9104206095658
20
0.544646086533049
30
0
41
1
10
48.8713076462602
20
0.582843931058733
30
0
41
1
10
48.8517018525811
20
0.601896619309997
30
0
41
1
10
48.8321215211275
20
0.620827373222539
30
0
0
SPLINE
5
13F
100
AcDbEntity
8
1
62
256
6
ByLayer
370
18
48
1
60
0
100
AcDbSpline
70
4
71
3
72
8
73
4
40
0
40
0
40
0
40
0
40
1
40
1
40
1
40
1
41
1
10
48.8321215211274
20
0.620827373222568
30
0
41
1
10
48.7964370763251
20
0.655899044260138
30
0
41
1
10
48.7605866815649
20
0.688835071959829
30
0
41
1
10
48.7245307528799
20
0.719529415014648
30
0
0
SPLINE
5
140
100
AcDbEntity
8
1
62
256
6
ByLayer
370
18
48
1
60
0
100
AcDbSpline
70
4
71
3
72
28
73
24
40
0
40
0
40
0
40
0
40
0.124999999999968
40
0.124999999999968
40
0.249999999999935
40
0.249999999999935
40
0.374999999999903
40
0.374999999999903
40
0.499999999999871
40
0.499999999999871
40
0.624999999999838
40
0.624999999999838
40
0.687499999999865
40
0.687499999999865
40
0.749999999999892
40
0.749999999999892
40
0.812499999999919
40
0.812499999999919
40
0.874999999999946
40
0.874999999999946
40
0.937499999999973
40
0.937499999999973
40
1
40
1
40
1
40
1
41
1
10
48.7245307528798
20
0.719529415014051
30
0
41
1
10
48.7179068969501
20
0.725168290884653
30
0
41
1
10
48.7102267879166
20
0.731715443350367
30
0
41
1
10
48.6932913901766
20
0.746132699578055
30
0
41
1
10
48.6839582841528
20
0.754069945905798
30
0
41
1
10
48.6645496595735
20
0.770575095223791
30
0
41
1
10
48.6544046815706
20
0.779202342288613
30
0
41
1
10
48.6333064480503
20
0.797190455258686
30
0
41
1
10
48.6222616574137
20
0.806630020629626
30
0
41
1
10
48.6000724643238
20
0.825715280001276
30
0
41
1
10
48.5888710993582
20
0.835408247333902
30
0
41
1
10
48.5719257933292
20
0.850243144619157
30
0
41
1
10
48.5662532938377
20
0.855237866488665
30
0
41
1
10
48.554860003775
20
0.865348392734205
30
0
41
1
10
48.5491561084448
20
0.87044981995453
30
0
41
1
10
48.5379775282332
20
0.880549307755558
30
0
41
1
10
48.5324715818163
20
0.885574892551716
30
0
41
1
10
48.5216582633076
20
0.895576311294036
30
0
41
1
10
48.5163101420867
20
0.900591254529871
30
0
41
1
10
48.5061197456587
20
0.910318677446668
30
0
41
1
10
48.5012705031995
20
0.915036121826887
30
0
41
1
10
48.4921536720933
20
0.92412517493932
30
0
41
1
10
48.4878646314759
20
0.92852086096309
30
0
41
1
10
48.4840615385324
20
0.932567479320142
30
0
0
SPLINE
5
141
100
AcDbEntity
8
1
62
256
6
ByLayer
370
18
48
1
60
0
100
AcDbSpline
70
4
71
3
72
8
73
4
40
0
40
0
40
0
40
0
40
1
40
1
40
1
40
1
41
1
10
48.4840615385324
20
0.932567479319061
30
0
41
1
10
48.4611841337945
20
0.956909804723921
30
0
41
1
10
48.4383967357897
20
0.98196981428265
30
0
41
1
10
48.41569001515
20
1.00774622395974
30
0
0
SPLINE
5
142
100
AcDbEntity
8
1
62
256
6
ByLayer
370
18
48
1
60
0
100
AcDbSpline
70
4
71
3
72
8
73
4
40
0
40
0
40
0
40
0
40
1
40
1
40
1
40
1
41
1
10
48.4156900151456
20
1.00774622396645
30
0
41
1
10
48.2073957887353
20
1.19277910731893
30
0
41
1
10
47.9988312737728
20
1.36446695342531
30
0
41
1
10
47.7863473119833
20
1.51971229301893
30
0
0
SPLINE
5
143
100
AcDbEntity
8
1
62
256
6
ByLayer
370
18
48
1
60
0
100
AcDbSpline
70
4
71
3
72
8
73
4
40
0
40
0
40
0
40
0
40
1
40
1
40
1
40
1
41
1
10
47.7863473119905
20
1.51971229301023
30
0
41
1
10
47.7808896170059
20
1.52088021223108
30
0
41
1
10
47.775426847447
20
1.52199138850483
30
0
41
1
10
47.7699587078321
20
1.52304528988202
30
0
0
SPLINE
5
144
100
AcDbEntity
8
1
62
256
6
ByLayer
370
18
48
1
60
0
100
AcDbSpline
70
4
71
3
72
26
73
22
40
0
40
0
40
0
40
0
40
0.125000000000009
40
0.125000000000009
40
0.250000000000017
40
0.250000000000017
40
0.375000000000026
40
0.375000000000026
40
0.437499999999989
40
0.437499999999989
40
0.499999999999952
40
0.499999999999952
40
0.624999999999965
40
0.624999999999965
40
0.687499999999971
40
0.687499999999971
40
0.749999999999977
40
0.749999999999977
40
0.874999999999988
40
0.874999999999988
40
1
40
1
40
1
40
1
41
1
10
47.7699587078321
20
1.52304528988202
30
0
41
1
10
47.7635424430534
20
1.52428192807398
30
0
41
1
10
47.7561328055685
20
1.52673021606031
30
0
41
1
10
47.7398198234723
20
1.53340889792275
30
0
41
1
10
47.7308327446043
20
1.53769671733178
30
0
41
1
10
47.7121211667346
20
1.54757163125083
30
0
41
1
10
47.70234354353
20
1.55317627633914
30
0
41
1
10
47.6871018834083
20
1.56253637565786
30
0
41
1
10
47.6819245341615
20
1.565817043686
30
0
41
1
10
47.6713755545335
20
1.5727125108352
30
0
41
1
10
47.6660089035196
20
1.57632521978971
30
0
41
1
10
47.6498994193727
20
1.58749362663428
30
0
41
1
10
47.6390567471318
20
1.595432286332
30
0
41
1
10
47.6226569871766
20
1.60818520070723
30
0
41
1
10
47.6171676029495
20
1.61257827939261
30
0
41
1
10
47.6061438774738
20
1.62168836297349
30
0
41
1
10
47.6005783621833
20
1.62643345966924
30
0
41
1
10
47.5841398269612
20
1.64095570591556
30
0
41
1
10
47.5734737327676
20
1.6510377233044
30
0
41
1
10
47.5529790342222
20
1.6723325202625
30
0
41
1
10
47.5435237880362
20
1.68315864147169
30
0
41
1
10
47.5353227433707
20
1.69407801758661
30
0
0
SPLINE
5
145
100
AcDbEntity
8
1
62
256
6
ByLayer
370
18
48
1
60
0
100
AcDbSpline
70
4
71
3
72
8
73
4
40
0
40
0
40
0
40
0
40
1
40
1
40
1
40
1
41
1
10
47.535322743374
20
1.69407801758172
30
0
41
1
10
47.4006362522383
20
1.78283772109757
30
0
41
1
10
47.2657291040064
20
1.86394911279055
30
0
41
1
10
47.13
20
1.93707324099955
30
0
0
SPLINE
5
146
100
AcDbEntity
8
1
62
256
6
ByLayer
370
18
48
1
60
0
100
AcDbSpline
70
4
71
3
72
12
73
8
40
0
40
0
40
0
40
0
40
0.250000000000013
40
0.250000000000013
40
0.500000000000026
40
0.500000000000026
40
1
40
1
40
1
40
1
41
1
10
47.13
20
1.93707324099955
30
0
41
1
10
47.098131276387
20
1.94745251761756
30
0
41
1
10
47.0655120489863
20
1.95863106712599
30
0
41
1
10
46.9987815927457
20
1.98251563807548
30
0
41
1
10
46.9646362441681
20
1.9951933826116
30
0
41
1
10
46.8601929292051
20
2.03591863481196
30
0
41
1
10
46.7880183947367
20
2.06676423779163
30
0
41
1
10
46.7143976222321
20
2.10284984898971
30
0
0
SPLINE
5
147
100
AcDbEntity
8
1
62
256
6
ByLayer
370
18
48
1
60
0
100
AcDbSpline
70
4
71
3
72
34
73
30
40
0
40
0
40
0
40
0
40
0.0580063256207184
40
0.0580063256207184
40
0.116012651241437
40
0.116012651241437
40
0.232025302482868
40
0.232025302482868
40
0.348037953724298
40
0.348037953724298
40
0.377041116534654
40
0.377041116534654
40
0.40604427934501
40
0.40604427934501
40
0.464050604965723
40
0.464050604965723
40
0.580063256207147
40
0.580063256207147
40
0.696075907448572
40
0.696075907448572
40
0.754082233069284
40
0.754082233069284
40
0.783085395879641
40
0.783085395879641
40
0.812088558689997
40
0.812088558689997
40
0.928101209931422
40
0.928101209931422
40
1
40
1
40
1
40
1
41
1
10
46.7143976222321
20
2.10284984898971
30
0
41
1
10
46.6381267239815
20
2.14023443334506
30
0
41
1
10
46.5620849939842
20
2.17520031430502
30
0
41
1
10
46.4102750636499
20
2.24034308921657
30
0
41
1
10
46.334498017257
20
2.27051928595304
30
0
41
1
10
46.1077713621502
20
2.35409241318072
30
0
41
1
10
45.9574361952062
20
2.40051884554055
30
0
41
1
10
45.6564744593386
20
2.47387119990566
30
0
41
1
10
45.5058170393088
20
2.50077610640705
30
0
41
1
10
45.3157943324187
20
2.52156991618924
30
0
41
1
10
45.2777116834267
20
2.52508823064454
30
0
41
1
10
45.2013526537866
20
2.53082786454172
30
0
41
1
10
45.1631449863818
20
2.53304121055419
30
0
41
1
10
45.0488070646252
20
2.53771387987246
30
0
41
1
10
44.9729111403983
20
2.53822285039598
30
0
41
1
10
44.7457929899631
20
2.53205136365369
30
0
41
1
10
44.5952838647568
20
2.51768077069198
30
0
41
1
10
44.2944310631316
20
2.46874381164432
30
0
41
1
10
44.1441406038381
20
2.43413402616432
30
0
41
1
10
43.9168574784238
20
2.36743980841058
30
0
41
1
10
43.8407448813413
20
2.3427736190408
30
0
41
1
10
43.7261581408384
20
2.30201400189057
30
0
41
1
10
43.6879084449116
20
2.28779919260833
30
0
41
1
10
43.6116877320774
20
2.25828668578245
30
0
41
1
10
43.5736615105764
20
2.24297005848376
30
0
41
1
10
43.3838772440974
20
2.16364770873759
30
0
41
1
10
43.2331866093414
20
2.0914155216154
30
0
41
1
10
42.9894679964733
20
1.961367995085
30
0
41
1
10
42.8963186952615
20
1.90849789277783
30
0
41
1
10
42.8029892289726
20
1.85273081119073
30
0
0
SPLINE
5
148
100
AcDbEntity
8
1
62
256
6
ByLayer
370
18
48
1
60
0
100
AcDbSpline
70
4
71
3
72
77
73
73
40
0
40
0
40
0
40
0
40
0.0083112772674382
40
0.0083112772674382
40
0.0555345497785118
40
0.0555345497785118
40
0.102757822289585
40
0.102757822289585
40
0.126369458545122
40
0.126369458545122
40
0.149981094800659
40
0.149981094800659
40
0.173592731056195
40
0.173592731056195
40
0.197204367311732
40
0.197204367311732
40
0.244427639822802
40
0.244427639822802
40
0.291650912333872
40
0.291650912333872
40
0.315262548589408
40
0.315262548589408
40
0.338874184844945
40
0.338874184844945
40
0.386097457356018
40
0.386097457356018
40
0.397903275483788
40
0.397903275483788
40
0.409709093611559
40
0.409709093611559
40
0.433320729867095
40
0.433320729867095
40
0.480544002378169
40
0.480544002378169
40
0.527767274889242
40
0.527767274889242
40
0.539573093017013
40
0.539573093017013
40
0.551378911144783
40
0.551378911144783
40
0.574990547400323
40
0.574990547400323
40
0.622213819911401
40
0.622213819911401
40
0.645825456166939
40
0.645825456166939
40
0.657631274294709
40
0.669437092422478
40
0.669437092422478
40
0.716660364933555
40
0.716660364933555
40
0.740272001189096
40
0.740272001189096
40
0.752077819316864
40
0.752077819316864
40
0.763883637444633
40
0.763883637444633
40
0.811106909955706
40
0.811106909955706
40
0.85833018246678
40
0.85833018246678
40
0.881941818722316
40
0.881941818722316
40
0.905553454977853
40
0.905553454977853
40
0.92916509123339
40
0.92916509123339
40
0.952776727488926
40
0.952776727488926
40
0.976388363744463
40
0.976388363744463
40
1
40
1
40
1
40
1
41
1
10
40.6196873499284
20
2.53740031527647
30
0
41
1
10
40.6365545387544
20
2.53739495733746
30
0
41
1
10
40.6534168461044
20
2.5372634940681
30
0
41
1
10
40.7660578816487
20
2.53554504508142
30
0
41
1
10
40.8617033087752
20
2.53002777106786
30
0
41
1
10
41.0527122465955
20
2.51081803746106
30
0
41
1
10
41.1481056008494
20
2.49712457180777
30
0
41
1
10
41.2912431291565
20
2.47031558076566
30
0
41
1
10
41.3388677826806
20
2.4603020212727
30
0
41
1
10
41.434754383183
20
2.4383370865944
30
0
41
1
10
41.4828747599218
20
2.42635084798454
30
0
41
1
10
41.5793973952262
20
2.40033624611252
30
0
41
1
10
41.6278782165701
20
2.38629448159219
30
0
41
1
10
41.7245521561864
20
2.35641515335354
30
0
41
1
10
41.7728194197784
20
2.34055958955466
30
0
41
1
10
41.9174032189215
20
2.29029087256731
30
0
41
1
10
42.0134732639593
20
2.25316681749487
30
0
41
1
10
42.2050616357311
20
2.1718368676014
30
0
41
1
10
42.3005935613725
20
2.12764017023889
30
0
41
1
10
42.4434826051705
20
2.05597437449316
30
0
41
1
10
42.4910407782568
20
2.03118564775807
30
0
41
1
10
42.5861609112538
20
1.97988888847919
30
0
41
1
10
42.633736981605
20
1.95338979120382
30
0
41
1
10
42.7769413492617
20
1.8716589230344
30
0
41
1
10
42.8729415962486
20
1.81413088938223
30
0
41
1
10
42.9935673247955
20
1.73836447073484
30
0
41
1
10
43.0177258730083
20
1.72301960827593
30
0
41
1
10
43.0661140988462
20
1.69194812156411
30
0
41
1
10
43.0903641767856
20
1.67620806752453
30
0
41
1
10
43.1630701086094
20
1.62851850097826
30
0
41
1
10
43.2114239533054
20
1.59613970875398
30
0
41
1
10
43.3561619843133
20
1.49729251676268
30
0
41
1
10
43.4522095996118
20
1.42910346708433
30
0
41
1
10
43.6435712396674
20
1.28833510802477
30
0
41
1
10
43.7388962046918
20
1.21576716597389
30
0
41
1
10
43.8576522977459
20
1.12234507175992
30
0
41
1
10
43.8813679629189
20
1.10350844360681
30
0
41
1
10
43.9288483492079
20
1.06565560011049
30
0
41
1
10
43.952639428179
20
1.04666743721128
30
0
41
1
10
44.0240762069829
20
0.989426934623509
30
0
41
1
10
44.0717533841845
20
0.950863617114891
30
0
41
1
10
44.2151522440087
20
0.834195983176613
30
0
41
1
10
44.3112184964344
20
0.755096632423857
30
0
41
1
10
44.4558773935768
20
0.634289563025305
30
0
41
1
10
44.5041983346045
20
0.593668687529089
30
0
41
1
10
44.5768511945723
20
0.53222191654018
30
0
41
1
10
44.6253880663532
20
0.491047070303551
30
0
41
1
10
44.6737761990438
20
0.449756521269393
30
0
41
1
10
44.7945635308004
20
0.34638909411413
30
0
41
1
10
44.8905456890446
20
0.263170897432502
30
0
41
1
10
45.0339452887205
20
0.13801979882308
30
0
41
1
10
45.0816785471941
20
0.0962825296045366
30
0
41
1
10
45.1530585461933
20
0.0335066460508813
30
0
41
1
10
45.1767922223495
20
0.0125263093136141
30
0
41
1
10
45.224309865466
20
-0.0293471138186021
30
0
41
1
10
45.2480954523948
20
-0.0502383674972577
30
0
41
1
10
45.3671065045635
20
-0.154526984978702
30
0
41
1
10
45.462465727652
20
-0.23755568387449
30
0
41
1
10
45.65380745295
20
-0.402441120709625
30
0
41
1
10
45.7498267747427
20
-0.484255814014148
30
0
41
1
10
45.8942935900548
20
-0.606130568598758
30
0
41
1
10
45.9425249653884
20
-0.64661091860367
30
0
41
1
10
46.0391539272736
20
-0.727263842934263
30
0
41
1
10
46.0876054080295
20
-0.767480943259983
30
0
41
1
10
46.1844132672978
20
-0.847385004716955
30
0
41
1
10
46.2327109303007
20
-0.887024274361096
30
0
41
1
10
46.3290786117127
20
-0.965687167916741
30
0
41
1
10
46.3771375102932
20
-1.0047217901153
30
0
41
1
10
46.4732100437307
20
-1.08197406633494
30
0
41
1
10
46.5212799164249
20
-1.12013317527143
30
0
41
1
10
46.6176770913751
20
-1.19532878331654
30
0
41
1
10
46.6659802701419
20
-1.23239051772276
30
0
41
1
10
46.7143976222322
20
-1.26890903281478
30
0
0
SPLINE
5
149
100
AcDbEntity
8
1
62
256
6
ByLayer
370
18
48
1
60
0
100
AcDbSpline
70
4
71
3
72
22
73
18
40
0
40
0
40
0
40
0
40
0.0994648410366138
40
0.0994648410366138
40
0.279571872829339
40
0.279571872829339
40
0.459678904622064
40
0.459678904622064
40
0.639785936414789
40
0.639785936414789
40
0.729839452311092
40
0.729839452311092
40
0.819892968207395
40
0.819892968207395
40
0.909946484103697
40
0.909946484103697
40
1
40
1
40
1
40
1
41
1
10
52.9084330511206
20
2.64938341286626
30
0
41
1
10
52.9140813884233
20
2.64688515669911
30
0
41
1
10
52.9198503234
20
2.6447416042941
30
0
41
1
10
52.9363876816422
20
2.63967220340899
30
0
41
1
10
52.9474914869676
20
2.63753324836384
30
0
41
1
10
52.9697068219117
20
2.63571770076734
30
0
41
1
10
52.98089252021
20
2.63600150552654
30
0
41
1
10
53.0033824716503
20
2.63922865926344
30
0
41
1
10
53.0147898379708
20
2.64222284470606
30
0
41
1
10
53.0312639513844
20
2.64903295335441
30
0
41
1
10
53.0366688638356
20
2.65169069724527
30
0
41
1
10
53.0472743615453
20
2.65790048750944
30
0
41
1
10
53.0525120803648
20
2.66148425092996
30
0
41
1
10
53.0624850583099
20
2.66954465719786
30
0
41
1
10
53.0672321032138
20
2.67401781225641
30
0
41
1
10
53.0761627927427
20
2.68400651817186
30
0
41
1
10
53.0803726381603
20
2.68956614913026
30
0
41
1
10
53.0841314878869
20
2.69563671525847
30
0
0
SPLINE
5
14A
100
AcDbEntity
8
1
62
256
6
ByLayer
370
18
48
1
60
0
100
AcDbSpline
70
4
71
3
72
10
73
6
40
0
40
0
40
0
40
0
40
0.5
40
0.5
40
1
40
1
40
1
40
1
41
1
10
53.0841314878869
20
2.69563671525847
30
0
41
1
10
53.1362304659604
20
2.77977689499676
30
0
41
1
10
53.1878248637152
20
2.86201934388481
30
0
41
1
10
53.2902898938579
20
3.02269431384625
30
0
41
1
10
53.3410043941966
20
3.10088420647719
30
0
41
1
10
53.3913121714262
20
3.17688973578251
30
0
0
SPLINE
5
14B
100
AcDbEntity
8
1
62
256
6
ByLayer
370
18
48
1
60
0
100
AcDbSpline
70
4
71
3
72
8
73
4
40
0
40
0
40
0
40
0
40
1
40
1
40
1
40
1
41
1
10
53.4818137693808
20
3.15953136329318
30
0
41
1
10
53.4516893553308
20
3.16581116460191
30
0
41
1
10
53.4215235877766
20
3.1715995394957
30
0
41
1
10
53.3913121714262
20
3.17688973578251
30
0
0
SPLINE
5
14C
100
AcDbEntity
8
1
62
256
6
ByLayer
370
18
48
1
60
0
100
AcDbSpline
70
4
71
3
72
10
73
6
40
0
40
0
40
0
40
0
40
0.5
40
0.5
40
1
40
1
40
1
40
1
41
1
10
53.4818137693808
20
3.1595313632933
30
0
41
1
10
53.5335925423698
20
3.06361115064252
30
0
41
1
10
53.5858350370073
20
2.96553400522441
30
0
41
1
10
53.6912556586804
20
2.76574787691712
30
0
41
1
10
53.7443810346206
20
2.66413581368312
30
0
41
1
10
53.7980052578656
20
2.56102080710573
30
0
0
SPLINE
5
14D
100
AcDbEntity
8
1
62
256
6
ByLayer
370
18
48
1
60
0
100
AcDbSpline
70
4
71
3
72
26
73
22
40
0
40
0
40
0
40
0
40
0.125
40
0.125
40
0.25
40
0.25
40
0.375
40
0.375
40
0.5
40
0.5
40
0.625
40
0.625
40
0.75
40
0.75
40
0.8125
40
0.8125
40
0.875
40
0.875
40
0.9375
40
0.9375
40
1
40
1
40
1
40
1
41
1
10
53.7980052578656
20
2.56102080710573
30
0
41
1
10
53.8047793684731
20
2.54799474504676
30
0
41
1
10
53.8126501068625
20
2.53634381700837
30
0
41
1
10
53.8299908411427
20
2.5150310239124
30
0
41
1
10
53.8395495789179
20
2.5053462213919
30
0
41
1
10
53.859344073147
20
2.48840547705697
30
0
41
1
10
53.8696567154198
20
2.48104432851844
30
0
41
1
10
53.8910273986722
20
2.46837452664442
30
0
41
1
10
53.902151757641
20
2.46306055858599
30
0
41
1
10
53.9243765180209
20
2.45489303012644
30
0
41
1
10
53.9355567512874
20
2.45197608394341
30
0
41
1
10
53.9580244864378
20
2.44872232503229
30
0
41
1
10
53.9694000940834
20
2.44840871297754
30
0
41
1
10
53.9858128732751
20
2.45036534130782
30
0
41
1
10
53.9911978063233
20
2.45141780420843
30
0
41
1
10
54.001764371931
20
2.45444424440569
30
0
41
1
10
54.0069811338642
20
2.4564382780751
30
0
41
1
10
54.0169045973039
20
2.46142114387357
30
0
41
1
10
54.0216293083775
20
2.46440603838622
30
0
41
1
10
54.0305212174819
20
2.47153911280702
30
0
41
1
10
54.0347136415628
20
2.47572202055525
30
0
41
1
10
54.038457552303
20
2.48052330231269
30
0
0
SPLINE
5
14E
100
AcDbEntity
8
1
62
256
6
ByLayer
370
18
48
1
60
0
100
AcDbSpline
70
4
71
3
72
12
73
8
40
0
40
0
40
0
40
0
40
0.500000000000019
40
0.500000000000019
40
0.750000000000009
40
0.750000000000009
40
1
40
1
40
1
40
1
41
1
10
54.038457552303
20
2.48052330231278
30
0
41
1
10
54.079373609338
20
2.5329950442588
30
0
41
1
10
54.1199539106569
20
2.58343283230397
30
0
41
1
10
54.180418281156
20
2.65597743179808
30
0
41
1
10
54.2005153179801
20
2.67965295360898
30
0
41
1
10
54.2405518756906
20
2.72600352581151
30
0
41
1
10
54.2604936256871
20
2.74868195371619
30
0
41
1
10
54.2803667004406
20
2.77086434343673
30
0
0
SPLINE
5
14F
100
AcDbEntity
8
1
62
256
6
ByLayer
370
18
48
1
60
0
100
AcDbSpline
70
4
71
3
72
8
73
4
40
0
40
0
40
0
40
0
40
1
40
1
40
1
40
1
41
1
10
54.2803667004406
20
2.77086434343676
30
0
41
1
10
54.3629985032627
20
2.71704232521276
30
0
41
1
10
54.4460224688983
20
2.66011563904448
30
0
41
1
10
54.5295181291364
20
2.60027247715675
30
0
0
SPLINE
5
150
100
AcDbEntity
8
1
62
256
6
ByLayer
370
18
48
1
60
0
100
AcDbSpline
70
4
71
3
72
8
73
4
40
0
40
0
40
0
40
0
40
1
40
1
40
1
40
1
41
1
10
54.5295181291364
20
2.60027247715675
30
0
41
1
10
54.6029191396123
20
2.44831644693625
30
0
41
1
10
54.6772477498137
20
2.29565833674667
30
0
41
1
10
54.7525098079157
20
2.14347394318534
30
0
0
SPLINE
5
151
100
AcDbEntity
8
1
62
256
6
ByLayer
370
18
48
1
60
0
100
AcDbSpline
70
4
71
3
72
26
73
22
40
0
40
0
40
0
40
0
40
0.124999999999979
40
0.124999999999979
40
0.249999999999958
40
0.249999999999958
40
0.374999999999937
40
0.374999999999937
40
0.499999999999917
40
0.499999999999917
40
0.624999999999896
40
0.624999999999896
40
0.749999999999875
40
0.749999999999875
40
0.812499999999906
40
0.812499999999906
40
0.874999999999937
40
0.874999999999937
40
0.937499999999969
40
0.937499999999969
40
1
40
1
40
1
40
1
41
1
10
54.7525098079157
20
2.14347394318534
30
0
41
1
10
54.7592762031832
20
2.12979188629831
30
0
41
1
10
54.767137964958
20
2.11704324554711
30
0
41
1
10
54.7844616077673
20
2.09290363302097
30
0
41
1
10
54.7940132484384
20
2.08146505704397
30
0
41
1
10
54.8137978449913
20
2.06059539195834
30
0
41
1
10
54.8241066202724
20
2.05104840366164
30
0
41
1
10
54.8454741934297
20
2.03359007086175
30
0
41
1
10
54.8565996807458
20
2.02565443148643
30
0
41
1
10
54.8788289710338
20
2.01197750254383
30
0
41
1
10
54.8900129401823
20
2.00615632086868
30
0
41
1
10
54.9124903563171
20
1.99674805918241
30
0
41
1
10
54.9238706291883
20
1.99315694914449
30
0
41
1
10
54.9402852290181
20
1.99007034818814
30
0
41
1
10
54.9456704116829
20
1.98941419882806
30
0
41
1
10
54.9562364262781
20
1.98895737697236
30
0
41
1
10
54.9614520185325
20
1.98916397728027
30
0
41
1
10
54.971369003251
20
1.99058163613393
30
0
41
1
10
54.976089655837
20
1.99178413941917
30
0
41
1
10
54.9849721231415
20
1.99535100450544
30
0
41
1
10
54.9891588047879
20
1.99773789538301
30
0
41
1
10
54.9928967218646
20
2.00078588742855
30
0
0
SPLINE
5
152
100
AcDbEntity
8
1
62
256
6
ByLayer
370
18
48
1
60
0
100
AcDbSpline
70
4
71
3
72
8
73
4
40
0
40
0
40
0
40
0
40
1
40
1
40
1
40
1
41
1
10
54.9928967218646
20
2.00078588742875
30
0
41
1
10
55.0445023142799
20
2.04286639161251
30
0
41
1
10
55.0955973606702
20
2.08090336139605
30
0
41
1
10
55.1463162126615
20
2.11491905640881
30
0
0
SPLINE
5
153
100
AcDbEntity
8
1
62
256
6
ByLayer
370
18
48
1
60
0
100
AcDbSpline
70
4
71
3
72
12
73
8
40
0
40
0
40
0
40
0
40
0.499999999999978
40
0.499999999999978
40
0.749999999999989
40
0.749999999999989
40
1
40
1
40
1
40
1
41
1
10
55.1463162126615
20
2.11491905640878
30
0
41
1
10
55.2214977461672
20
2.05081630600927
30
0
41
1
10
55.2964984802167
20
1.98518002190497
30
0
41
1
10
55.4088090087927
20
1.88450255641703
30
0
41
1
10
55.4461651850562
20
1.85053982104191
30
0
41
1
10
55.5209500413655
20
1.78196524493413
30
0
41
1
10
55.5584845658157
20
1.74742451204287
30
0
41
1
10
55.5960729719457
20
1.71258027454292
30
0
0
SPLINE
5
154
100
AcDbEntity
8
1
62
256
6
ByLayer
370
18
48
1
60
0
100
AcDbSpline
70
4
71
3
72
8
73
4
40
0
40
0
40
0
40
0
40
1
40
1
40
1
40
1
41
1
10
55.5960729719457
20
1.71258027454292
30
0
41
1
10
55.6328164227627
20
1.63977143186017
30
0
41
1
10
55.6697791292867
20
1.56778241134961
30
0
41
1
10
55.7070338959668
20
1.49666598260828
30
0
0
SPLINE
5
155
100
AcDbEntity
8
1
62
256
6
ByLayer
370
18
48
1
60
0
100
AcDbSpline
70
4
71
3
72
26
73
22
40
0
40
0
40
0
40
0
40
0.124999999999979
40
0.124999999999979
40
0.249999999999958
40
0.249999999999958
40
0.374999999999937
40
0.374999999999937
40
0.499999999999917
40
0.499999999999917
40
0.624999999999896
40
0.624999999999896
40
0.749999999999875
40
0.749999999999875
40
0.812499999999906
40
0.812499999999906
40
0.874999999999937
40
0.874999999999937
40
0.937499999999969
40
0.937499999999969
40
1
40
1
40
1
40
1
41
1
10
55.7070338959668
20
1.49666598260828
30
0
41
1
10
55.7138040956174
20
1.48374220227299
30
0
41
1
10
55.7216677411297
20
1.47121296610141
30
0
41
1
10
55.7389909013426
20
1.44673911955749
30
0
41
1
10
55.7485392431053
20
1.43472950072265
30
0
41
1
10
55.7683153973163
20
1.41208423477803
30
0
41
1
10
55.7786189538011
20
1.40133292635426
30
0
41
1
10
55.7999752553441
20
1.38087250723902
30
0
41
1
10
55.8110959888737
20
1.37112195596055
30
0
41
1
10
55.833321417169
20
1.35331260044566
30
0
41
1
10
55.8445054179062
20
1.34516665912761
30
0
41
1
10
55.8669858548924
20
1.33052204556407
30
0
41
1
10
55.8783725923682
20
1.32398974694485
30
0
41
1
10
55.8947986450103
20
1.31611617746577
30
0
41
1
10
55.9001874150447
20
1.31379678322878
30
0
41
1
10
55.9107604535045
20
1.30985677509773
30
0
41
1
10
55.91598006817
20
1.30822926405563
30
0
41
1
10
55.9259074404324
20
1.30588499202938
30
0
41
1
10
55.930632759948
20
1.3051558205984
30
0
41
1
10
55.9395232054315
20
1.30473907023389
30
0
41
1
10
55.9437136195729
20
1.30505927913052
30
0
41
1
10
55.9474555255608
20
1.30601836823166
30
0
0
SPLINE
5
156
100
AcDbEntity
8
1
62
256
6
ByLayer
370
18
48
1
60
0
100
AcDbSpline
70
4
71
3
72
8
73
4
40
0
40
0
40
0
40
0
40
1
40
1
40
1
40
1
41
1
10
55.9474555255608
20
1.30601836823189
30
0
41
1
10
55.9689019888065
20
1.31151531797443
30
0
41
1
10
55.9902630318335
20
1.31625173379581
30
0
41
1
10
56.0115474893942
20
1.32022741231265
30
0
0
SPLINE
5
157
100
AcDbEntity
8
1
62
256
6
ByLayer
370
18
48
1
60
0
100
AcDbSpline
70
4
71
3
72
14
73
10
40
0
40
0
40
0
40
0
40
0.25
40
0.25
40
0.5
40
0.5
40
0.75
40
0.75
40
1
40
1
40
1
40
1
41
1
10
56.0115474893942
20
1.32022741231265
30
0
41
1
10
56.0656720547132
20
1.26836805167292
30
0
41
1
10
56.1200382676464
20
1.21602297744988
30
0
41
1
10
56.2293103633407
20
1.11039961576881
30
0
41
1
10
56.2842406935268
20
1.05709952793671
30
0
41
1
10
56.3945909126287
20
0.949676415847705
30
0
41
1
10
56.4497148488349
20
0.895842632467549
30
0
41
1
10
56.5598763063764
20
0.787949935835087
30
0
41
1
10
56.6148865480558
20
0.733863392186095
30
0
41
1
10
56.6700378423529
20
0.679851073004471
30
0
0
SPLINE
5
158
100
AcDbEntity
8
1
62
256
6
ByLayer
370
18
48
1
60
0
100
AcDbSpline
70
4
71
3
72
20
73
16
40
0
40
0
40
0
40
0
40
0.12499999999999
40
0.12499999999999
40
0.249999999999981
40
0.249999999999981
40
0.500000000000061
40
0.500000000000061
40
0.625000000000046
40
0.625000000000046
40
0.750000000000031
40
0.750000000000031
40
0.875000000000015
40
0.875000000000015
40
1
40
1
40
1
40
1
41
1
10
56.6700378423566
20
0.679851073005381
30
0
41
1
10
56.675673406431
20
0.671749352046334
30
0
41
1
10
56.6818285304596
20
0.663561079544422
30
0
41
1
10
56.6950023481185
20
0.647041479096686
30
0
41
1
10
56.7020587870193
20
0.63867443466836
30
0
41
1
10
56.72377933369
20
0.61406721618647
30
0
41
1
10
56.7391513154634
20
0.598074533875661
30
0
41
1
10
56.7633818278105
20
0.574601132854582
30
0
41
1
10
56.7715840720865
20
0.566939003774422
30
0
41
1
10
56.7879967652184
20
0.552141902718034
30
0
41
1
10
56.7962420766589
20
0.544972507094542
30
0
41
1
10
56.8127983631623
20
0.531108332949174
30
0
41
1
10
56.8211490499338
20
0.524382510337034
30
0
41
1
10
56.8377331725213
20
0.511611743346975
30
0
41
1
10
56.8458598923903
20
0.505645777658515
30
0
41
1
10
56.8537820500296
20
0.500157910810032
30
0
0
SPLINE
5
159
100
AcDbEntity
8
1
62
256
6
ByLayer
370
18
48
1
60
0
100
AcDbSpline
70
4
71
3
72
8
73
4
40
0
40
0
40
0
40
0
40
1
40
1
40
1
40
1
41
1
10
56.85378205003
20
0.500157910811339
30
0
41
1
10
56.877700191581
20
0.476935344497633
30
0
41
1
10
56.9016706822796
20
0.453753291294078
30
0
41
1
10
56.9256985626519
20
0.430616999270626
30
0
0
SPLINE
5
15A
100
AcDbEntity
8
1
62
256
6
ByLayer
370
18
48
1
60
0
100
AcDbSpline
70
4
71
3
72
14
73
10
40
0
40
0
40
0
40
0
40
0.500000000000025
40
0.500000000000025
40
0.750000000000013
40
0.750000000000013
40
0.875000000000007
40
0.875000000000007
40
1
40
1
40
1
40
1
41
1
10
57.23
20
0.119380890269923
30
0
41
1
10
57.1765757006502
20
0.162200080805803
30
0
41
1
10
57.1248092133144
20
0.20992493303342
30
0
41
1
10
57.0488761673911
20
0.288010258663945
30
0
41
1
10
57.0238540253381
20
0.315126900907984
30
0
41
1
10
56.9866842027207
20
0.357384179197027
30
0
41
1
10
56.9743357839539
20
0.371756468526968
30
0
41
1
10
56.9498597727824
20
0.400910567506372
30
0
41
1
10
56.9377504360928
20
0.415701455301217
30
0
41
1
10
56.9256985626477
20
0.430616999271564
30
0
0
SPLINE
5
15B
100
AcDbEntity
8
1
62
256
6
ByLayer
370
18
48
1
60
0
100
AcDbSpline
70
4
71
3
72
47
73
43
40
0
40
0
40
0
40
0
40
0.03125
40
0.03125
40
0.046875
40
0.046875
40
0.0625
40
0.0625
40
0.09375
40
0.09375
40
0.125
40
0.125
40
0.25
40
0.25
40
0.375
40
0.375
40
0.40625
40
0.40625
40
0.4375
40
0.5
40
0.5
40
0.625
40
0.625
40
0.6875
40
0.6875
40
0.71875
40
0.71875
40
0.75
40
0.75
40
0.812500000000001
40
0.812500000000001
40
0.828125000000001
40
0.828125000000001
40
0.843750000000001
40
0.843750000000001
40
0.859375000000001
40
0.859375000000001
40
0.875000000000001
40
0.875000000000001
40
0.9375
40
0.9375
40
1
40
1
40
1
40
1
41
1
10
57.23
20
2.33926393209134
30
0
41
1
10
57.23
20
2.30387315421561
30
0
41
1
10
57.23
20
2.26898311114275
30
0
41
1
10
57.23
20
2.21740808943633
30
0
41
1
10
57.23
20
2.20037170872655
30
0
41
1
10
57.2300000000001
20
2.1663529592719
30
0
41
1
10
57.23
20
2.14938153632295
30
0
41
1
10
57.23
20
2.0985588420379
30
0
41
1
10
57.23
20
2.06479550732564
30
0
41
1
10
57.23
20
1.99795515143981
30
0
41
1
10
57.23
20
1.96482163451196
30
0
41
1
10
57.23
20
1.80056001672497
30
0
41
1
10
57.23
20
1.67361368464489
30
0
41
1
10
57.23
20
1.4285695646401
30
0
41
1
10
57.23
20
1.31047060888713
30
0
41
1
10
57.23
20
1.16857013021732
30
0
41
1
10
57.23
20
1.1405017544912
30
0
41
1
10
57.23
20
1.08537271614009
30
0
41
1
10
57.23
20
1.0040317908045
30
0
41
1
10
57.23
20
0.926673967895312
30
0
41
1
10
57.23
20
0.777203007278871
30
0
41
1
10
57.23
20
0.684527273395304
30
0
41
1
10
57.23
20
0.556087569294192
30
0
41
1
10
57.23
20
0.515034714731542
30
0
41
1
10
57.23
20
0.456167242095461
30
0
41
1
10
57.23
20
0.437028872501685
30
0
41
1
10
57.23
20
0.39989015171534
30
0
41
1
10
57.23
20
0.381864630096942
30
0
41
1
10
57.23
20
0.329414888793053
30
0
41
1
10
57.23
20
0.296607375447877
30
0
41
1
10
57.23
20
0.258298927355583
30
0
41
1
10
57.23
20
0.25077381991855
30
0
41
1
10
57.23
20
0.235989420603971
30
0
41
1
10
57.23
20
0.228734628543577
30
0
41
1
10
57.23
20
0.214988728824323
30
0
41
1
10
57.23
20
0.20844704922672
30
0
41
1
10
57.23
20
0.196004053629338
30
0
41
1
10
57.23
20
0.190092926133616
30
0
41
1
10
57.23
20
0.162370597056878
30
0
41
1
10
57.23
20
0.145975133620766
30
0
41
1
10
57.23
20
0.124242042036286
30
0
41
1
10
57.23
20
0.11888742867373
30
0
41
1
10
57.23
20
0.119380890269895
30
0
0
SPLINE
5
15C
100
AcDbEntity
8
1
62
256
6
ByLayer
370
18
48
1
60
0
100
AcDbSpline
70
4
71
3
72
14
73
10
40
0
40
0
40
0
40
0
40
0.124999999999994
40
0.124999999999994
40
0.249999999999989
40
0.249999999999989
40
0.499999999999978
40
0.499999999999978
40
1
40
1
40
1
40
1
41
1
10
56.8706346586106
20
2.68962357261086
30
0
41
1
10
56.8860333548964
20
2.67516239635677
30
0
41
1
10
56.9014891407438
20
2.66056464901408
30
0
41
1
10
56.9324844353239
20
2.63114224882361
30
0
41
1
10
56.9480285875698
20
2.6163137443059
30
0
41
1
10
56.9942887697889
20
2.57206452035391
30
0
41
1
10
57.0246734221509
20
2.54282375103841
30
0
41
1
10
57.1146952685133
20
2.45535022109357
30
0
41
1
10
57.1731555381593
20
2.3974252157721
30
0
41
1
10
57.2300000000026
20
2.33926393209057
30
0
0
SPLINE
5
15D
100
AcDbEntity
8
1
62
256
6
ByLayer
370
18
48
1
60
0
100
AcDbSpline
70
4
71
3
72
8
73
4
40
0
40
0
40
0
40
0
40
1
40
1
40
1
40
1
41
1
10
56.8706346586106
20
2.68962357261106
30
0
41
1
10
56.8132508615372
20
2.69836363484205
30
0
41
1
10
56.7561478811818
20
2.70551653527008
30
0
41
1
10
56.6993073773076
20
2.71106345151671
30
0
0
SPLINE
5
15E
100
AcDbEntity
8
1
62
256
6
ByLayer
370
18
48
1
60
0
100
AcDbSpline
70
4
71
3
72
8
73
4
40
0
40
0
40
0
40
0
40
1
40
1
40
1
40
1
41
1
10
56.6993073773077
20
2.71106345151657
30
0
41
1
10
56.692485941135
20
2.69891545110718
30
0
41
1
10
56.6856566572099
20
2.68672232364807
30
0
41
1
10
56.6788207753023
20
2.6744866183468
30
0
0
SPLINE
5
15F
100
AcDbEntity
8
1
62
256
6
ByLayer
370
18
48
1
60
0
100
AcDbSpline
70
4
71
3
72
28
73
24
40
0
40
0
40
0
40
0
40
0.124999999999968
40
0.124999999999968
40
0.249999999999935
40
0.249999999999935
40
0.374999999999903
40
0.374999999999903
40
0.49999999999987
40
0.49999999999987
40
0.624999999999838
40
0.624999999999838
40
0.687499999999865
40
0.687499999999865
40
0.749999999999892
40
0.749999999999892
40
0.812499999999919
40
0.812499999999919
40
0.874999999999946
40
0.874999999999946
40
0.937499999999973
40
0.937499999999973
40
1
40
1
40
1
40
1
41
1
10
56.6788207753023
20
2.6744866183468
30
0
41
1
10
56.6722131252104
20
2.6626594305236
30
0
41
1
10
56.6645540425181
20
2.65226518107423
30
0
41
1
10
56.6476625871139
20
2.63359224610019
30
0
41
1
10
56.638353504793
20
2.62530400206171
30
0
41
1
10
56.6189778499554
20
2.61114476395917
30
0
41
1
10
56.6088423194441
20
2.6051883064427
30
0
41
1
10
56.5877512402195
20
2.59540710225869
30
0
41
1
10
56.5767031424651
20
2.59157427882352
30
0
41
1
10
56.5545047542858
20
2.58641516592846
30
0
41
1
10
56.5432990451706
20
2.5850399265021
30
0
41
1
10
56.5263466359384
20
2.58501015751318
30
0
41
1
10
56.5206715828951
20
2.58534233269691
30
0
41
1
10
56.5092714031925
20
2.58678883303298
30
0
41
1
10
56.5035601624902
20
2.58790703670789
30
0
41
1
10
56.492367308804
20
2.59098058254258
30
0
41
1
10
56.4868535562547
20
2.59293804090726
30
0
41
1
10
56.476023543137
20
2.59782827313342
30
0
41
1
10
56.470666318189
20
2.60079030042314
30
0
41
1
10
56.4604615791233
20
2.60773852189624
30
0
41
1
10
56.4556065770835
20
2.61171578552671
30
0
41
1
10
56.4464812515296
20
2.62085846531565
30
0
41
1
10
56.4421901413194
20
2.62606386529345
30
0
41
1
10
56.4383872732027
20
2.63184301248836
30
0
0
SPLINE
5
160
100
AcDbEntity
8
1
62
256
6
ByLayer
370
18
48
1
60
0
100
AcDbSpline
70
4
71
3
72
8
73
4
40
0
40
0
40
0
40
0
40
1
40
1
40
1
40
1
41
1
10
56.4383872732025
20
2.63184301248845
30
0
41
1
10
56.4176679505515
20
2.66332977766254
30
0
41
1
10
56.3970258180471
20
2.69442898750839
30
0
41
1
10
56.37644795135
20
2.72516358770113
30
0
0
SPLINE
5
161
100
AcDbEntity
8
1
62
256
6
ByLayer
370
18
48
1
60
0
100
AcDbSpline
70
4
71
3
72
8
73
4
40
0
40
0
40
0
40
0
40
1
40
1
40
1
40
1
41
1
10
56.37644795135
20
2.72516358770116
30
0
41
1
10
56.2022343818244
20
2.72316204042642
30
0
41
1
10
56.029742338365
20
2.7053734072538
30
0
41
1
10
55.8570925830894
20
2.67139694277148
30
0
0
SPLINE
5
162
100
AcDbEntity
8
1
62
256
6
ByLayer
370
18
48
1
60
0
100
AcDbSpline
70
4
71
3
72
8
73
4
40
0
40
0
40
0
40
0
40
1
40
1
40
1
40
1
41
1
10
55.8570925830894
20
2.67139694277145
30
0
41
1
10
55.8131112344537
20
2.58194805780542
30
0
41
1
10
55.7688484114732
20
2.49158752220592
30
0
41
1
10
55.7242810014135
20
2.40053403789915
30
0
0
SPLINE
5
163
100
AcDbEntity
8
1
62
256
6
ByLayer
370
18
48
1
60
0
100
AcDbSpline
70
4
71
3
72
28
73
24
40
0
40
0
40
0
40
0
40
0.125000000000032
40
0.125000000000032
40
0.250000000000064
40
0.250000000000064
40
0.375000000000096
40
0.375000000000096
40
0.500000000000129
40
0.500000000000129
40
0.625000000000161
40
0.625000000000161
40
0.687500000000134
40
0.687500000000134
40
0.750000000000107
40
0.750000000000107
40
0.81250000000008
40
0.81250000000008
40
0.875000000000054
40
0.875000000000054
40
0.937500000000027
40
0.937500000000027
40
1
40
1
40
1
40
1
41
1
10
55.7242810014134
20
2.40053403789915
30
0
41
1
10
55.7176725543634
20
2.38703264463996
30
0
41
1
10
55.7100143681834
20
2.37465176111087
30
0
41
1
10
55.6931285201821
20
2.35154910340529
30
0
41
1
10
55.6838248351057
20
2.34079683844916
30
0
41
1
10
55.6644640792372
20
2.32147214908653
30
0
41
1
10
55.6543373959462
20
2.31279616467248
30
0
41
1
10
55.633263656184
20
2.29730620164835
30
0
41
1
10
55.6222233419962
20
2.29045744177017
30
0
41
1
10
55.6000324905533
20
2.27916073388789
30
0
41
1
10
55.588828128966
20
2.27465039222142
30
0
41
1
10
55.5718729541418
20
2.26979588205364
30
0
41
1
10
55.5661961777734
20
2.26849929806886
30
0
41
1
10
55.5547910920686
20
2.26663961355612
30
0
41
1
10
55.5490720349071
20
2.26608366393415
30
0
41
1
10
55.537865195437
20
2.26583541923713
30
0
41
1
10
55.5323444112885
20
2.26613578969236
30
0
41
1
10
55.5215010142853
20
2.26771740436249
30
0
41
1
10
55.5161373386768
20
2.26901432785027
30
0
41
1
10
55.5059171022386
20
2.2727213567089
30
0
41
1
10
55.5010550159191
20
2.27512041330868
30
0
41
1
10
55.4919173357755
20
2.28120575209519
30
0
41
1
10
55.487620540763
20
2.28492424727574
30
0
41
1
10
55.4838133161195
20
2.2893233573694
30
0
0
SPLINE
5
164
100
AcDbEntity
8
1
62
256
6
ByLayer
370
18
48
1
60
0
100
AcDbSpline
70
4
71
3
72
10
73
6
40
0
40
0
40
0
40
0
40
0.5
40
0.5
40
1
40
1
40
1
40
1
41
1
10
55.4838133161196
20
2.28932335737011
30
0
41
1
10
55.4508067819934
20
2.32746121132607
30
0
41
1
10
55.4179887559034
20
2.36416653956451
30
0
41
1
10
55.3526668189629
20
2.43471941714768
30
0
41
1
10
55.3201395337432
20
2.46858283281949
30
0
41
1
10
55.2878252297077
20
2.50094894193722
30
0
0
SPLINE
5
165
100
AcDbEntity
8
1
62
256
6
ByLayer
370
18
48
1
60
0
100
AcDbSpline
70
4
71
3
72
8
73
4
40
0
40
0
40
0
40
0
40
1
40
1
40
1
40
1
41
1
10
55.2878252297082
20
2.50094894193754
30
0
41
1
10
55.1939937919396
20
2.46322120225364
30
0
41
1
10
55.1007516513025
20
2.42094828315379
30
0
41
1
10
55.0078623100406
20
2.37418703737185
30
0
0
SPLINE
5
166
100
AcDbEntity
8
1
62
256
6
ByLayer
370
18
48
1
60
0
100
AcDbSpline
70
4
71
3
72
10
73
6
40
0
40
0
40
0
40
0
40
0.739132031401859
40
0.739132031401859
40
1
40
1
40
1
40
1
41
1
10
55.0078623100406
20
2.37418703737185
30
0
41
1
10
54.9686588628308
20
2.2899832118822
30
0
41
1
10
54.9291974353195
20
2.2057680455913
30
0
41
1
10
54.8755178755336
20
2.09216821364012
30
0
41
1
10
54.8614868795166
20
2.06256323128917
30
0
41
1
10
54.847427623625
20
2.03299566381895
30
0
0
SPLINE
5
167
100
AcDbEntity
8
1
62
256
6
ByLayer
370
18
48
1
60
0
100
AcDbSpline
70
4
71
3
72
20
73
16
40
0
40
0
40
0
40
0
40
0.201859338076927
40
0.201859338076927
40
0.334882781730772
40
0.334882781730772
40
0.467906225384618
40
0.467906225384618
40
0.600929669038464
40
0.600929669038464
40
0.733953112692309
40
0.733953112692309
40
0.866976556346155
40
0.866976556346155
40
1
40
1
40
1
40
1
41
1
10
47.9668185415328
20
-2.63885975929847
30
0
41
1
10
47.9583622924499
20
-2.63876542606258
30
0
41
1
10
47.9498448636522
20
-2.639373278227
30
0
41
1
10
47.9356211356737
20
-2.64165926311068
30
0
41
1
10
47.9299464981896
20
-2.64290493639473
30
0
41
1
10
47.9185478025284
20
-2.64616899414935
30
0
41
1
10
47.9128358860772
20
-2.64818948301198
30
0
41
1
10
47.9016433481375
20
-2.65301310172015
30
0
41
1
10
47.8961304488733
20
-2.65582344737191
30
0
41
1
10
47.8853035887695
20
-2.66236846789764
30
0
41
1
10
47.8799485828625
20
-2.66613825521503
30
0
41
1
10
47.8697428370715
20
-2.67460836048656
30
0
41
1
10
47.8648868561059
20
-2.67929945390369
30
0
41
1
10
47.8557587666716
20
-2.68975941488273
30
0
41
1
10
47.8514649180854
20
-2.695571989283
30
0
41
1
10
47.8476584642696
20
-2.70187412047719
30
0
0
SPLINE
5
168
100
AcDbEntity
8
1
62
256
6
ByLayer
370
18
48
1
60
0
100
AcDbSpline
70
4
71
3
72
8
73
4
40
0
40
0
40
0
40
0
40
1
40
1
40
1
40
1
41
1
10
47.8476584642697
20
-2.70187412047724
30
0
41
1
10
47.8412477075535
20
-2.71248804930295
30
0
41
1
10
47.8348439578723
20
-2.72307849803187
30
0
41
1
10
47.8284470325782
20
-2.73364528158345
30
0
0
SPLINE
5
169
100
AcDbEntity
8
1
62
256
6
ByLayer
370
18
48
1
60
0
100
AcDbSpline
70
4
71
3
72
14
73
10
40
0
40
0
40
0
40
0
40
0.249999999999969
40
0.249999999999969
40
0.374999999999969
40
0.374999999999969
40
0.499999999999969
40
0.499999999999969
40
1
40
1
40
1
40
1
41
1
10
47.8284470325782
20
-2.73364528158345
30
0
41
1
10
47.7711431115623
20
-2.72272695440969
30
0
41
1
10
47.7135508733113
20
-2.71007306287615
30
0
41
1
10
47.6266984697247
20
-2.68848891515725
30
0
41
1
10
47.5976766596178
20
-2.68086019006398
30
0
41
1
10
47.5394755111768
20
-2.66473088628956
30
0
41
1
10
47.5102946573265
20
-2.65622911337064
30
0
41
1
10
47.3644373681583
20
-2.61168556198589
30
0
41
1
10
47.2475272573288
20
-2.56944713159408
30
0
41
1
10
47.13
20
-2.52078255739122
30
0
0
SPLINE
5
16A
100
AcDbEntity
8
1
62
256
6
ByLayer
370
18
48
1
60
0
100
AcDbSpline
70
4
71
3
72
12
73
8
40
0
40
0
40
0
40
0
40
0.25
40
0.25
40
0.499999999999999
40
0.499999999999999
40
1
40
1
40
1
40
1
41
1
10
47.13
20
-2.52078255739122
30
0
41
1
10
47.098131276387
20
-2.49510168557708
30
0
41
1
10
47.0655120489863
20
-2.47085401954715
30
0
41
1
10
46.9987815927457
20
-2.42515345479814
30
0
41
1
10
46.9646362441681
20
-2.40370849456619
30
0
41
1
10
46.8601929292051
20
-2.343697682661
30
0
41
1
10
46.7880183947367
20
-2.30942350427537
30
0
41
1
10
46.7143976222321
20
-2.28118748468805
30
0
0
SPLINE
5
16B
100
AcDbEntity
8
1
62
256
6
ByLayer
370
18
48
1
60
0
100
AcDbSpline
70
4
71
3
72
57
73
53
40
0
40
0
40
0
40
0
40
0.0312499999999936
40
0.0312499999999936
40
0.0624999999999872
40
0.0624999999999872
40
0.124999999999975
40
0.124999999999975
40
0.187499999999962
40
0.187499999999962
40
0.203124999999959
40
0.203124999999959
40
0.218749999999957
40
0.218749999999957
40
0.249999999999952
40
0.249999999999952
40
0.312499999999943
40
0.312499999999943
40
0.374999999999933
40
0.374999999999933
40
0.406249999999929
40
0.406249999999929
40
0.421874999999928
40
0.421874999999928
40
0.437499999999927
40
0.437499999999927
40
0.499999999999931
40
0.499999999999931
40
0.562499999999934
40
0.562499999999934
40
0.593749999999938
40
0.593749999999938
40
0.609374999999939
40
0.609374999999939
40
0.624999999999941
40
0.624999999999941
40
0.687499999999948
40
0.687499999999948
40
0.749999999999954
40
0.749999999999954
40
0.812499999999961
40
0.812499999999961
40
0.828124999999964
40
0.828124999999964
40
0.843749999999967
40
0.874999999999974
40
0.874999999999974
40
0.90624999999998
40
0.90624999999998
40
0.937499999999987
40
0.937499999999987
40
1
40
1
40
1
40
1
41
1
10
46.7143976222321
20
-2.28118748468802
30
0
41
1
10
46.6381267237979
20
-2.25193505349412
30
0
41
1
10
46.5620849936182
20
-2.22049553828194
30
0
41
1
10
46.4102750629202
20
-2.15347758915857
30
0
41
1
10
46.3344980163458
20
-2.11790799310503
30
0
41
1
10
46.1077713606994
20
-2.00496774785319
30
0
41
1
10
45.9574361933975
20
-1.92134298052963
30
0
41
1
10
45.6564744568029
20
-1.738732877432
30
0
41
1
10
45.5058170364015
20
-1.6397634305614
30
0
41
1
10
45.3157943290311
20
-1.50754293177974
30
0
41
1
10
45.2777116799424
20
-1.48066716549215
30
0
41
1
10
45.2013526501063
20
-1.42607922002588
30
0
41
1
10
45.163144982618
20
-1.39843062421366
30
0
41
1
10
45.0488070605997
20
-1.31471897234655
30
0
41
1
10
44.9729111362019
20
-1.25767469086682
30
0
41
1
10
44.7457929852422
20
-1.08330014907699
30
0
41
1
10
44.5952838596891
20
-0.962584859871498
30
0
41
1
10
44.2944310573425
20
-0.714004073709845
30
0
41
1
10
44.1441405976773
20
-0.586069344799085
30
0
41
1
10
43.9168574716618
20
-0.390940316092639
30
0
41
1
10
43.840744874374
20
-0.325413800440629
30
0
41
1
10
43.7261581335708
20
-0.226249822492292
30
0
41
1
10
43.6879084375657
20
-0.193054156070787
30
0
41
1
10
43.6116877245701
20
-0.126780212547999
30
0
41
1
10
43.5736615029877
20
-0.0936547311843015
30
0
41
1
10
43.3838772360991
20
0.0718326533182392
30
0
41
1
10
43.2331866010076
20
0.203807579396397
30
0
41
1
10
42.9322529026109
20
0.464860821383837
30
0
41
1
10
42.7820528214465
20
0.593985619718836
30
0
41
1
10
42.555371877696
20
0.783543556694838
30
0
41
1
10
42.4795468590676
20
0.846003955960612
30
0
41
1
10
42.3654834028012
20
0.93867740928664
30
0
41
1
10
42.3274115716305
20
0.969402843715955
30
0
41
1
10
42.2511480960228
20
1.03049883911422
30
0
41
1
10
42.2129119202153
20
1.06090071408329
30
0
41
1
10
42.0223843730076
20
1.21110256714258
30
0
41
1
10
41.871419985177
20
1.32603381748365
30
0
41
1
10
41.5702873004579
20
1.54363440869335
30
0
41
1
10
41.4200474916044
20
1.64623221726839
30
0
41
1
10
41.1180171226002
20
1.83721448895017
30
0
41
1
10
40.9667035922809
20
1.92602132349478
30
0
41
1
10
40.7763876022772
20
2.02772571585612
30
0
41
1
10
40.7382066559993
20
2.04762465214546
30
0
41
1
10
40.6619889708938
20
2.08629526407199
30
0
41
1
10
40.5479258963624
20
2.14259105095255
30
0
41
1
10
40.4345098826579
20
2.19371746333184
30
0
41
1
10
40.2835985248913
20
2.25721055575986
30
0
41
1
10
40.2082950180216
20
2.28661638355334
30
0
41
1
10
40.0576339534816
20
2.34062996420755
30
0
41
1
10
39.9822152911977
20
2.36521569113134
30
0
41
1
10
39.7559238654102
20
2.43186615957009
30
0
41
1
10
39.6051623923043
20
2.46686547464256
30
0
41
1
10
39.4535623957658
20
2.49185640496114
30
0
0
SPLINE
5
16C
100
AcDbEntity
8
1
62
256
6
ByLayer
370
18
48
1
60
0
100
AcDbSpline
70
4
71
3
72
28
73
24
40
0
40
0
40
0
40
0
40
0.0059725492350355
40
0.0059725492350355
40
0.103239551624887
40
0.103239551624887
40
0.200506554014739
40
0.200506554014739
40
0.297773556404591
40
0.297773556404591
40
0.492307561184293
40
0.492307561184293
40
0.589574563574145
40
0.589574563574145
40
0.686841565963996
40
0.686841565963996
40
0.784108568353848
40
0.784108568353848
40
0.8813755707437
40
0.8813755707437
40
0.978642573133551
40
0.978642573133551
40
1
40
1
40
1
40
1
41
1
10
39.4535646538869
20
2.49185079531787
30
0
41
1
10
39.4520498207934
20
2.48829649305051
30
0
41
1
10
39.4505156232025
20
2.48473294875919
30
0
41
1
10
39.4236101578968
20
2.42295053614589
30
0
41
1
10
39.3925987224228
20
2.36143077266024
30
0
41
1
10
39.3217104664937
20
2.23748414094803
30
0
41
1
10
39.2819501628489
20
2.17536817292415
30
0
41
1
10
39.1938447651
20
2.05085250445416
30
0
41
1
10
39.1473608239451
20
1.98816087276865
30
0
41
1
10
39.0031990303978
20
1.80263211541964
30
0
41
1
10
38.9017393639132
20
1.68324052000821
30
0
41
1
10
38.7391535678347
20
1.51249502804771
30
0
41
1
10
38.6829429226303
20
1.45688683365165
30
0
41
1
10
38.570786531722
20
1.35253548195823
30
0
41
1
10
38.5143554247406
20
1.30346767217222
30
0
41
1
10
38.4007665570493
20
1.21173122714154
30
0
41
1
10
38.3432940841377
20
1.16887924684053
30
0
41
1
10
38.232153307823
20
1.09348787804788
30
0
41
1
10
38.177952599502
20
1.06047289151377
30
0
41
1
10
38.0724120225345
20
1.00421945584426
30
0
41
1
10
38.0207216103478
20
0.980935383676069
30
0
41
1
10
37.9620987293073
20
0.959833243189223
30
0
41
1
10
37.9516941965559
20
0.956307097019874
30
0
41
1
10
37.9414383133019
20
0.953051496770883
30
0
0
SPLINE
5
16D
100
AcDbEntity
8
1
62
256
6
ByLayer
370
18
48
1
60
0
100
AcDbSpline
70
4
71
3
72
95
73
91
40
0
40
0
40
0
40
0
40
0.0344827586206891
40
0.0344827586206891
40
0.0689655172413783
40
0.0689655172413783
40
0.103448275862067
40
0.103448275862067
40
0.120689655172413
40
0.120689655172413
40
0.129310344827586
40
0.129310344827586
40
0.137931034482759
40
0.137931034482759
40
0.155172413793106
40
0.155172413793106
40
0.172413793103453
40
0.172413793103453
40
0.206896551724145
40
0.206896551724145
40
0.241379310344837
40
0.241379310344837
40
0.275862068965529
40
0.275862068965529
40
0.293103448275874
40
0.293103448275874
40
0.310344827586221
40
0.310344827586221
40
0.327586206896566
40
0.327586206896566
40
0.344827586206913
40
0.344827586206913
40
0.379310344827605
40
0.379310344827605
40
0.413793103448297
40
0.413793103448297
40
0.448275862068989
40
0.448275862068989
40
0.465517241379334
40
0.465517241379334
40
0.482758620689681
40
0.482758620689681
40
0.500000000000027
40
0.500000000000027
40
0.517241379310373
40
0.517241379310373
40
0.551724137931062
40
0.551724137931062
40
0.586206896551751
40
0.586206896551751
40
0.603448275862097
40
0.603448275862097
40
0.620689655172443
40
0.620689655172443
40
0.655172413793135
40
0.655172413793135
40
0.663793103448307
40
0.663793103448307
40
0.672413793103478
40
0.672413793103478
40
0.689655172413822
40
0.689655172413822
40
0.724137931034511
40
0.724137931034511
40
0.7586206896552
40
0.7586206896552
40
0.767241379310373
40
0.767241379310373
40
0.775862068965546
40
0.775862068965546
40
0.793103448275889
40
0.793103448275889
40
0.827586206896579
40
0.827586206896579
40
0.844827586206923
40
0.844827586206923
40
0.853448275862096
40
0.862068965517268
40
0.862068965517268
40
0.896551724137949
40
0.896551724137949
40
0.913793103448291
40
0.913793103448291
40
0.922413793103462
40
0.922413793103462
40
0.931034482758632
40
0.931034482758632
40
0.965517241379316
40
0.965517241379316
40
1
40
1
40
1
40
1
41
1
10
37.5021265599383
20
1.31900265985328
30
0
41
1
10
37.5981785229322
20
1.24691136026718
30
0
41
1
10
37.6940407955105
20
1.17303101559924
30
0
41
1
10
37.8860993579906
20
1.02252521517101
30
0
41
1
10
37.98224777717
20
0.945856210262491
30
0
41
1
10
38.1745568561705
20
0.789474017814456
30
0
41
1
10
38.270756075404
20
0.709800843808551
30
0
41
1
10
38.4151654415437
20
0.588069624190297
30
0
41
1
10
38.4633171299695
20
0.547118100159793
30
0
41
1
10
38.5355669621427
20
0.48511585383676
30
0
41
1
10
38.5596570481354
20
0.464356050674638
30
0
41
1
10
38.6078895734912
20
0.422694644993442
30
0
41
1
10
38.6320428957994
20
0.401801844450034
30
0
41
1
10
38.7043129640476
20
0.339098830985222
30
0
41
1
10
38.7522283558506
20
0.297082845468651
30
0
41
1
10
38.848099283174
20
0.213290675401368
30
0
41
1
10
38.8960268401455
20
0.171481134665299
30
0
41
1
10
39.0397998841293
20
0.0463218454394223
30
0
41
1
10
39.1355301772523
20
-0.0368823393460787
30
0
41
1
10
39.3269379044411
20
-0.202621603625744
30
0
41
1
10
39.4226198033791
20
-0.285151717199454
30
0
41
1
10
39.6139837930527
20
-0.449479994557805
30
0
41
1
10
39.7096955020641
20
-0.531243983315363
30
0
41
1
10
39.8534336162737
20
-0.653131813280766
30
0
41
1
10
39.9013678687011
20
-0.693642485772244
30
0
41
1
10
39.9972483572159
20
-0.774457246962839
30
0
41
1
10
40.0452307428947
20
-0.814719990484207
30
0
41
1
10
40.1416916461041
20
-0.894488874384422
30
0
41
1
10
40.1899143409526
20
-0.933889859576141
30
0
41
1
10
40.2862288601611
20
-1.01150063730824
30
0
41
1
10
40.3343469489903
20
-1.04974359897832
30
0
41
1
10
40.4785630094807
20
-1.16284463552697
30
0
41
1
10
40.5744914301818
20
-1.23611053459223
30
0
41
1
10
40.7660578816487
20
-1.37831155654274
30
0
41
1
10
40.8617033087752
20
-1.44724071293385
30
0
41
1
10
41.0527122465956
20
-1.58072670265716
30
0
41
1
10
41.1481056008494
20
-1.64525289696371
30
0
41
1
10
41.2912431291565
20
-1.73842382105522
30
0
41
1
10
41.3388677826806
20
-1.76895574905905
30
0
41
1
10
41.4347543831829
20
-1.82827383974393
30
0
41
1
10
41.4828747599218
20
-1.85718277070734
30
0
41
1
10
41.5793973952262
20
-1.91355351676592
30
0
41
1
10
41.6278782165701
20
-1.94102445972121
30
0
41
1
10
41.7245521561864
20
-1.99405196626921
30
0
41
1
10
41.7728194197784
20
-2.01965627648099
30
0
41
1
10
41.9174032189215
20
-2.09380121512544
30
0
41
1
10
42.0134732639593
20
-2.13969880181082
30
0
41
1
10
42.2050616357312
20
-2.22447752126715
30
0
41
1
10
42.3005935613725
20
-2.26335213366099
30
0
41
1
10
42.4434826051705
20
-2.31633127756862
30
0
41
1
10
42.4910407782568
20
-2.33310085279714
30
0
41
1
10
42.5861609112538
20
-2.36476943308904
30
0
41
1
10
42.633736981605
20
-2.37966101246448
30
0
41
1
10
42.7769413492617
20
-2.42133381232722
30
0
41
1
10
42.8729415962486
20
-2.4451715169383
30
0
41
1
10
42.9935673247954
20
-2.47002434003025
30
0
41
1
10
43.0177258730082
20
-2.47474644853676
30
0
41
1
10
43.0661140988462
20
-2.4836900203307
30
0
41
1
10
43.0903641767856
20
-2.4879147448425
30
0
41
1
10
43.1630701086094
20
-2.49980675663144
30
0
41
1
10
43.2114239533054
20
-2.5066847533034
30
0
41
1
10
43.3561619843133
20
-2.52421223303625
30
0
41
1
10
43.4522095996118
20
-2.53176267555034
30
0
41
1
10
43.6435712396674
20
-2.53867346177611
30
0
41
1
10
43.7388962046919
20
-2.53803458174426
30
0
41
1
10
43.8576522977458
20
-2.53205645493364
30
0
41
1
10
43.8813679629189
20
-2.53059974900296
30
0
41
1
10
43.9288483492079
20
-2.52717265258607
30
0
41
1
10
43.952639428179
20
-2.52520562550049
30
0
41
1
10
44.0240762069828
20
-2.51854183073507
30
0
41
1
10
44.0717533841845
20
-2.51307637838659
30
0
41
1
10
44.2151522440087
20
-2.49365692721113
30
0
41
1
10
44.3112184964344
20
-2.4766923373127
30
0
41
1
10
44.4558773935768
20
-2.44514039213178
30
0
41
1
10
44.5041983346045
20
-2.43360490824025
30
0
41
1
10
44.5768511945722
20
-2.41475803450121
30
0
41
1
10
44.6253880663532
20
-2.40166525094443
30
0
41
1
10
44.6737761990438
20
-2.38761226058804
30
0
41
1
10
44.7945635308004
20
-2.35128768339729
30
0
41
1
10
44.8905456890446
20
-2.31838725505941
30
0
41
1
10
45.0339452887205
20
-2.26350842678428
30
0
41
1
10
45.081678547194
20
-2.24431077886459
30
0
41
1
10
45.1530585461933
20
-2.2140893466366
30
0
41
1
10
45.1767922223495
20
-2.20376404241804
30
0
41
1
10
45.2243098654659
20
-2.18270713227796
30
0
41
1
10
45.2480954523948
20
-2.17197723872627
30
0
41
1
10
45.3671065045635
20
-2.11730133122634
30
0
41
1
10
45.4624657276519
20
-2.07020697500775
30
0
41
1
10
45.6538074529499
20
-1.96961105777979
30
0
41
1
10
45.7498267747426
20
-1.91614251864135
30
0
41
1
10
45.8461379849507
20
-1.85943101133503
30
0
0
SPLINE
5
16E
100
AcDbEntity
8
1
62
256
6
ByLayer
370
18
48
1
60
0
100
AcDbSpline
70
4
71
3
72
12
73
8
40
0
40
0
40
0
40
0
40
0.5
40
0.5
40
0.75
40
0.75
40
1
40
1
40
1
40
1
41
1
10
46.7143976222321
20
2.53739998851924
30
0
41
1
10
46.7846235250807
20
2.53739417004042
30
0
41
1
10
46.8548045573174
20
2.54333332600476
30
0
41
1
10
46.9589503474008
20
2.56206785497835
30
0
41
1
10
46.9934851063407
20
2.56996066377465
30
0
41
1
10
47.062098588839
20
2.58944575901444
30
0
41
1
10
47.0962067045064
20
2.60105237372596
30
0
41
1
10
47.13
20
2.61483055286104
30
0
0
SPLINE
5
16F
100
AcDbEntity
8
1
62
256
6
ByLayer
370
18
48
1
60
0
100
AcDbSpline
70
4
71
3
72
8
73
4
40
0
40
0
40
0
40
0
40
1
40
1
40
1
40
1
41
1
10
47.1300000000001
20
2.61483055286101
30
0
41
1
10
47.2380608353498
20
2.61710052003661
30
0
41
1
10
47.3449647059638
20
2.61409017081346
30
0
41
1
10
47.4508502934431
20
2.60578456916653
30
0
0
SPLINE
5
170
100
AcDbEntity
8
1
62
256
6
ByLayer
370
18
48
1
60
0
100
AcDbSpline
70
4
71
3
72
29
73
25
40
0
40
0
40
0
40
0
40
0.0624999999999649
40
0.0624999999999649
40
0.12499999999993
40
0.12499999999993
40
0.24999999999994
40
0.24999999999994
40
0.37499999999995
40
0.37499999999995
40
0.49999999999996
40
0.49999999999996
40
0.62499999999997
40
0.62499999999997
40
0.687499999999975
40
0.687499999999975
40
0.74999999999998
40
0.812499999999985
40
0.812499999999985
40
0.87499999999999
40
0.87499999999999
40
0.937499999999995
40
0.937499999999995
40
1
40
1
40
1
40
1
41
1
10
47.4508502934432
20
2.60578456916664
30
0
41
1
10
47.4545602510202
20
2.60090911512523
30
0
41
1
10
47.4584514116725
20
2.59627468057624
30
0
41
1
10
47.4665639793849
20
2.58744483305972
30
0
41
1
10
47.4708057479572
20
2.58323220252328
30
0
41
1
10
47.4838278533661
20
2.5713741848507
30
0
41
1
10
47.4928875611914
20
2.56449313463904
30
0
41
1
10
47.5116523535929
20
2.5525152461604
30
0
41
1
10
47.5213593152568
20
2.54742139019785
30
0
41
1
10
47.5414004322492
20
2.53903896650667
30
0
41
1
10
47.5515311699601
20
2.53583892501118
30
0
41
1
10
47.5718732196472
20
2.53146985428452
30
0
41
1
10
47.5821021010235
20
2.53028961110761
30
0
41
1
10
47.5975215403325
20
2.53026715107495
30
0
41
1
10
47.6026959992935
20
2.53055843120509
30
0
41
1
10
47.6128814562559
20
2.53178654539443
30
0
41
1
10
47.6229347720585
20
2.53365520285712
30
0
41
1
10
47.6326889655246
20
2.53692990968088
30
0
41
1
10
47.6422662286243
20
2.54102110806696
30
0
41
1
10
47.646972306493
20
2.54348608411118
30
0
41
1
10
47.6559135092664
20
2.54923157879989
30
0
41
1
10
47.6601808043467
20
2.55252195908676
30
0
41
1
10
47.6682387555696
20
2.56008329818602
30
0
41
1
10
47.6720476050038
20
2.56438413005995
30
0
41
1
10
47.6754737804687
20
2.56917686130222
30
0
0
SPLINE
5
171
100
AcDbEntity
8
1
62
256
6
ByLayer
370
18
48
1
60
0
100
AcDbSpline
70
4
71
3
72
8
73
4
40
0
40
0
40
0
40
0
40
1
40
1
40
1
40
1
41
1
10
47.6754737804687
20
2.56917686130234
30
0
41
1
10
47.6778115755795
20
2.57244710352441
30
0
41
1
10
47.6801482511194
20
2.57571124184167
30
0
41
1
10
47.6824838070129
20
2.57896921564267
30
0
0
SPLINE
5
172
100
AcDbEntity
8
1
62
256
6
ByLayer
370
18
48
1
60
0
100
AcDbSpline
70
4
71
3
72
14
73
10
40
0
40
0
40
0
40
0
40
0.124999999999987
40
0.124999999999987
40
0.249999999999974
40
0.249999999999974
40
0.499999999999983
40
0.499999999999983
40
1
40
1
40
1
40
1
41
1
10
47.6824838070129
20
2.5789692156427
30
0
41
1
10
47.7094253372284
20
2.57482825908846
30
0
41
1
10
47.7362530424435
20
2.57030397443421
30
0
41
1
10
47.7899378850131
20
2.56061015892286
30
0
41
1
10
47.8167834735231
20
2.55543617669832
30
0
41
1
10
47.8972712401324
20
2.53890173214151
30
0
41
1
10
47.9508926776409
20
2.52654343942348
30
0
41
1
10
48.1117389731214
20
2.48548802020309
30
0
41
1
10
48.218950244355
20
2.45282523662442
30
0
41
1
10
48.3262189113379
20
2.41473680172831
30
0
0
SPLINE
5
173
100
AcDbEntity
8
1
62
256
6
ByLayer
370
18
48
1
60
0
100
AcDbSpline
70
4
71
3
72
8
73
4
40
0
40
0
40
0
40
0
40
1
40
1
40
1
40
1
41
1
10
48.3262189113355
20
2.41473680172513
30
0
41
1
10
48.3472331254359
20
2.37200713357819
30
0
41
1
10
48.368319877773
20
2.32921054206565
30
0
41
1
10
48.3894923304387
20
2.28635171657695
30
0
0
SPLINE
5
174
100
AcDbEntity
8
1
62
256
6
ByLayer
370
18
48
1
60
0
100
AcDbSpline
70
4
71
3
72
26
73
22
40
0
40
0
40
0
40
0
40
0.125
40
0.125
40
0.25
40
0.25
40
0.375
40
0.375
40
0.5
40
0.5
40
0.625
40
0.625
40
0.75
40
0.75
40
0.8125
40
0.8125
40
0.875
40
0.875
40
0.9375
40
0.9375
40
1
40
1
40
1
40
1
41
1
10
48.3894923304387
20
2.28635171657695
30
0
41
1
10
48.3962325700637
20
2.27270763110422
30
0
41
1
10
48.4040612597989
20
2.2601243633047
30
0
41
1
10
48.421316064076
20
2.23650482085262
30
0
41
1
10
48.4308301785265
20
2.22542755582282
30
0
41
1
10
48.450552118978
20
2.2054134493348
30
0
41
1
10
48.4608339089606
20
2.19636387607153
30
0
41
1
10
48.4821578999243
20
2.18003714623018
30
0
41
1
10
48.4932718940513
20
2.17273747090564
30
0
41
1
10
48.5154969809599
20
2.16044272760229
30
0
41
1
10
48.5266852408604
20
2.15537256095357
30
0
41
1
10
48.5491849035685
20
2.14760880152292
30
0
41
1
10
48.5605945029159
20
2.14491593052989
30
0
41
1
10
48.5770646014767
20
2.14326494500395
30
0
41
1
10
48.582468599351
20
2.14310378719677
30
0
41
1
10
48.5930734038456
20
2.14367709654957
30
0
41
1
10
48.598309865755
20
2.14442278607652
30
0
41
1
10
48.6082684494172
20
2.14694074802108
30
0
41
1
10
48.6130087422897
20
2.14870546670161
30
0
41
1
10
48.6219271602615
20
2.15342658645537
30
0
41
1
10
48.6261296179924
20
2.15640981573245
30
0
41
1
10
48.6298768503162
20
2.1600539623573
30
0
0
SPLINE
5
175
100
AcDbEntity
8
1
62
256
6
ByLayer
370
18
48
1
60
0
100
AcDbSpline
70
4
71
3
72
8
73
4
40
0
40
0
40
0
40
0
40
1
40
1
40
1
40
1
41
1
10
48.6298768503162
20
2.16005396235752
30
0
41
1
10
48.6615704140321
20
2.19087564173634
30
0
41
1
10
48.693074021604
20
2.22026309721241
30
0
41
1
10
48.7244161930989
20
2.24820424969511
30
0
0
SPLINE
5
176
100
AcDbEntity
8
1
62
256
6
ByLayer
370
18
48
1
60
0
100
AcDbSpline
70
4
71
3
72
12
73
8
40
0
40
0
40
0
40
0
40
0.5
40
0.5
40
0.75
40
0.75
40
1
40
1
40
1
40
1
41
1
10
48.724416193092
20
2.24820424970579
30
0
41
1
10
48.8056075899469
20
2.20901681141626
30
0
41
1
10
48.8860737340657
20
2.16688778555982
30
0
41
1
10
49.0058318830482
20
2.09932998963436
30
0
41
1
10
49.0455778734078
20
2.07606826182533
30
0
41
1
10
49.1250259533027
20
2.02829968029857
30
0
41
1
10
49.1647566659799
20
2.0038184377558
30
0
41
1
10
49.2044680548187
20
1.97872052293164
30
0
0
SPLINE
5
177
100
AcDbEntity
8
1
62
256
6
ByLayer
370
18
48
1
60
0
100
AcDbSpline
70
4
71
3
72
8
73
4
40
0
40
0
40
0
40
0
40
1
40
1
40
1
40
1
41
1
10
49.2044680548156
20
1.97872052292973
30
0
41
1
10
49.250613982062
20
1.88417974548426
30
0
41
1
10
49.2970861812583
20
1.79054671446733
30
0
41
1
10
49.3440092418613
20
1.69789778137505
30
0
0
SPLINE
5
178
100
AcDbEntity
8
1
62
256
6
ByLayer
370
18
48
1
60
0
100
AcDbSpline
70
4
71
3
72
26
73
22
40
0
40
0
40
0
40
0
40
0.125000000000021
40
0.125000000000021
40
0.250000000000042
40
0.250000000000042
40
0.375000000000063
40
0.375000000000063
40
0.500000000000084
40
0.500000000000084
40
0.625000000000105
40
0.625000000000105
40
0.750000000000126
40
0.750000000000126
40
0.812500000000094
40
0.812500000000094
40
0.875000000000063
40
0.875000000000063
40
0.937500000000031
40
0.937500000000031
40
1
40
1
40
1
40
1
41
1
10
49.3440092418613
20
1.69789778137505
30
0
41
1
10
49.3507532714856
20
1.68458178831304
30
0
41
1
10
49.3585849049967
20
1.67182177893957
30
0
41
1
10
49.3758427687546
20
1.64712103802421
30
0
41
1
10
49.3853565165077
20
1.63512031713867
30
0
41
1
10
49.4050757465789
20
1.612687849406
30
0
41
1
10
49.4153553923256
20
1.60214035159515
30
0
41
1
10
49.4366729737137
20
1.58227237888497
30
0
41
1
10
49.447783780614
20
1.57291090530111
30
0
41
1
10
49.4700058693025
20
1.55605227118511
30
0
41
1
10
49.4811935612265
20
1.5484708745829
30
0
41
1
10
49.5036932960066
20
1.53516065209399
30
0
41
1
10
49.5151058703585
20
1.52940044925845
30
0
41
1
10
49.5315821936555
20
1.52283726452882
30
0
41
1
10
49.5369881928288
20
1.52098216638703
30
0
41
1
10
49.5475966675328
20
1.51803541099631
30
0
41
1
10
49.5528352769362
20
1.51694087631145
30
0
41
1
10
49.5628000200661
20
1.51571448368139
30
0
41
1
10
49.5675429570346
20
1.51557114651598
30
0
41
1
10
49.5764655937986
20
1.51639074065065
30
0
41
1
10
49.5806700227507
20
1.51736658860898
30
0
41
1
10
49.5844195248126
20
1.51900345937989
30
0
0
SPLINE
5
179
100
AcDbEntity
8
1
62
256
6
ByLayer
370
18
48
1
60
0
100
AcDbSpline
70
4
71
3
72
10
73
6
40
0
40
0
40
0
40
0
40
0.5
40
0.5
40
1
40
1
40
1
40
1
41
1
10
49.5844195248126
20
1.51900345938017
30
0
41
1
10
49.6151009377295
20
1.5323976400432
30
0
41
1
10
49.6456098768288
20
1.54426324929634
30
0
41
1
10
49.7063350995177
20
1.56494546211349
30
0
41
1
10
49.7365720069956
20
1.57376984414191
30
0
41
1
10
49.7666395064927
20
1.58108098964774
30
0
0
SPLINE
5
17A
100
AcDbEntity
8
1
62
256
6
ByLayer
370
18
48
1
60
0
100
AcDbSpline
70
4
71
3
72
12
73
8
40
0
40
0
40
0
40
0
40
0.5
40
0.5
40
0.75
40
0.75
40
1
40
1
40
1
40
1
41
1
10
49.7666395064927
20
1.58108098964774
30
0
41
1
10
49.8194053537315
20
1.53982431121682
30
0
41
1
10
49.8721798986716
20
1.49745627989506
30
0
41
1
10
49.9513815979067
20
1.43221153853961
30
0
41
1
10
49.9777780479807
20
1.41018854538706
30
0
41
1
10
50.0303565968066
20
1.36577211503303
30
0
41
1
10
50.0565673320974
20
1.34335549752171
30
0
41
1
10
50.0827020472011
20
1.32073271859519
30
0
0
SPLINE
5
17B
100
AcDbEntity
8
1
62
256
6
ByLayer
370
18
48
1
60
0
100
AcDbSpline
70
4
71
3
72
10
73
6
40
0
40
0
40
0
40
0
40
0.5
40
0.5
40
1
40
1
40
1
40
1
41
1
10
50.0827020472012
20
1.32073271859517
30
0
41
1
10
50.1182462959083
20
1.25336496324894
30
0
41
1
10
50.1540254027266
20
1.1869841414464
30
0
41
1
10
50.2259107605159
20
1.0567502566509
30
0
41
1
10
50.2620297797378
20
0.992826926329883
30
0
41
1
10
50.2983977829862
20
0.930181990751663
30
0
0
SPLINE
5
17C
100
AcDbEntity
8
1
62
256
6
ByLayer
370
18
48
1
60
0
100
AcDbSpline
70
4
71
3
72
26
73
22
40
0
40
0
40
0
40
0
40
0.125
40
0.125
40
0.25
40
0.25
40
0.375
40
0.375
40
0.5
40
0.5
40
0.625000000000001
40
0.625000000000001
40
0.750000000000001
40
0.750000000000001
40
0.8125
40
0.8125
40
0.875
40
0.875
40
0.9375
40
0.9375
40
1
40
1
40
1
40
1
41
1
10
50.2983977829862
20
0.930181990751663
30
0
41
1
10
50.3051527986712
20
0.918546281209814
30
0
41
1
10
50.3129927585794
20
0.906897398880062
30
0
41
1
10
50.3302608831896
20
0.883604379470057
30
0
41
1
10
50.3397745251833
20
0.871889420470239
30
0
41
1
10
50.3594900010285
20
0.849296209467667
30
0
41
1
10
50.3697671595355
20
0.838309998108429
30
0
41
1
10
50.3910786963191
20
0.816892721864292
30
0
41
1
10
50.4021865567582
20
0.806405575729627
30
0
41
1
10
50.4244062374227
20
0.786658360263374
30
0
41
1
10
50.4355931257398
20
0.777314210111001
30
0
41
1
10
50.4580904463153
20
0.759757246945071
30
0
41
1
10
50.4695059337007
20
0.751480962815748
30
0
41
1
10
50.4859953962429
20
0.740608454787235
30
0
41
1
10
50.4914058680038
20
0.737225111039265
30
0
41
1
10
50.50202329913
20
0.731008722360343
30
0
41
1
10
50.5072673333059
20
0.728158182778657
30
0
41
1
10
50.5172501130152
20
0.723251322510009
30
0
41
1
10
50.52200191281
20
0.721182964773931
30
0
41
1
10
50.5309414326049
20
0.717952844386957
30
0
41
1
10
50.5351548984609
20
0.716787965159796
30
0
41
1
10
50.5389144234201
20
0.716216567788734
30
0
0
SPLINE
5
17D
100
AcDbEntity
8
1
62
256
6
ByLayer
370
18
48
1
60
0
100
AcDbSpline
70
4
71
3
72
26
73
22
40
0
40
0
40
0
40
0
40
0.125
40
0.125
40
0.25
40
0.25
40
0.375
40
0.375
40
0.5
40
0.5
40
0.625
40
0.625
40
0.75
40
0.75
40
0.8125
40
0.8125
40
0.875
40
0.875
40
0.9375
40
0.9375
40
1
40
1
40
1
40
1
41
1
10
51.2527871676563
20
0.0635447175335457
30
0
41
1
10
51.2595527293068
20
0.0549723133618727
30
0
41
1
10
51.267411194523
20
0.0458172607587812
30
0
41
1
10
51.2847232459663
20
0.0266819994086234
30
0
41
1
10
51.294264037598
20
0.0166235462444888
30
0
41
1
10
51.3140263112828
20
-0.0034933188636046
30
0
41
1
10
51.3243240638529
20
-0.0136380964222269
30
0
41
1
10
51.3456691510401
20
-0.0341142152921918
30
0
41
1
10
51.3567856450211
20
-0.0445065036429071
30
0
41
1
10
51.3790054063165
20
-0.0648438234713637
30
0
41
1
10
51.3901865281663
20
-0.0748665484784965
30
0
41
1
10
51.4126632136162
20
-0.0946360945409594
30
0
41
1
10
51.4240545259681
20
-0.104460020088055
30
0
41
1
10
51.44049915278
20
-0.118355956286791
30
0
41
1
10
51.4458948451602
20
-0.122867569439364
30
0
41
1
10
51.4564834257933
20
-0.131618367723092
30
0
41
1
10
51.4617122173912
20
-0.135886201589159
30
0
41
1
10
51.4716616323497
20
-0.143884502282248
30
0
41
1
10
51.4763985943412
20
-0.147629561381308
30
0
41
1
10
51.4853129531594
20
-0.154519413073388
30
0
41
1
10
51.4895156565005
20
-0.157682334858521
30
0
41
1
10
51.4932669277701
20
-0.160389679077099
30
0
0
SPLINE
5
17E
100
AcDbEntity
8
1
62
256
6
ByLayer
370
18
48
1
60
0
100
AcDbSpline
70
4
71
3
72
10
73
6
40
0
40
0
40
0
40
0
40
0.5
40
0.5
40
1
40
1
40
1
40
1
41
1
10
51.4932669277701
20
-0.160389679076815
30
0
41
1
10
51.5454120887311
20
-0.198023561008768
30
0
41
1
10
51.5970026885801
20
-0.24015286401243
30
0
41
1
10
51.6994560890421
20
-0.332525832529939
30
0
41
1
10
51.7501628872003
20
-0.382586366850234
30
0
41
1
10
51.8004674931531
20
-0.436281288572701
30
0
0
SPLINE
5
17F
100
AcDbEntity
8
1
62
256
6
ByLayer
370
18
48
1
60
0
100
AcDbSpline
70
4
71
3
72
8
73
4
40
0
40
0
40
0
40
0
40
1
40
1
40
1
40
1
41
1
10
51.891017117851
20
-0.535497482716352
30
0
41
1
10
51.8607983684969
20
-0.502516734713225
30
0
41
1
10
51.8306164042701
20
-0.46944360486475
30
0
41
1
10
51.800467493153
20
-0.436281288572701
30
0
0
SPLINE
5
180
100
AcDbEntity
8
1
62
256
6
ByLayer
370
18
48
1
60
0
100
AcDbSpline
70
4
71
3
72
12
73
8
40
0
40
0
40
0
40
0
40
0.500000000000012
40
0.500000000000012
40
0.750000000000006
40
0.750000000000006
40
1
40
1
40
1
40
1
41
1
10
51.891017117851
20
-0.53549748271638
30
0
41
1
10
51.9427568823744
20
-0.590928031966882
30
0
41
1
10
51.9949929340588
20
-0.641872077788861
30
0
41
1
10
52.0740767197541
20
-0.711179688047025
30
0
41
1
10
52.1005698413224
20
-0.733106598621816
30
0
41
1
10
52.1537595153402
20
-0.774511294235737
30
0
41
1
10
52.180465956287
20
-0.794001003688265
30
0
41
1
10
52.2073096336015
20
-0.812249221905688
30
0
0
SPLINE
5
181
100
AcDbEntity
8
1
62
256
6
ByLayer
370
18
48
1
60
0
100
AcDbSpline
70
4
71
3
72
26
73
22
40
0
40
0
40
0
40
0
40
0.125
40
0.125
40
0.249999999999999
40
0.249999999999999
40
0.374999999999999
40
0.374999999999999
40
0.499999999999998
40
0.499999999999998
40
0.624999999999998
40
0.624999999999998
40
0.749999999999998
40
0.749999999999998
40
0.812499999999998
40
0.812499999999998
40
0.874999999999999
40
0.874999999999999
40
0.937499999999999
40
0.937499999999999
40
1
40
1
40
1
40
1
41
1
10
52.2073096336015
20
-0.812249221905716
30
0
41
1
10
52.2140665243288
20
-0.816842527622299
30
0
41
1
10
52.2219160645291
20
-0.822524083000104
30
0
41
1
10
52.239214049849
20
-0.835442963016874
30
0
41
1
10
52.2487516864029
20
-0.842757107325355
30
0
41
1
10
52.2685127960995
20
-0.858217884500306
30
0
41
1
10
52.2788112236565
20
-0.866419430198107
30
0
41
1
10
52.3001616906596
20
-0.883723156368006
30
0
41
1
10
52.311282466451
20
-0.892886812617149
30
0
41
1
10
52.3335095574759
20
-0.911581891365501
30
0
41
1
10
52.3446948522718
20
-0.921174946365369
30
0
41
1
10
52.367180158262
20
-0.940956401584856
30
0
41
1
10
52.3785715326452
20
-0.951230400638963
30
0
41
1
10
52.3950071745249
20
-0.966581297298148
30
0
41
1
10
52.400399472879
20
-0.971708424309043
30
0
41
1
10
52.4109802369875
20
-0.981991600548071
30
0
41
1
10
52.4162038139659
20
-0.987184102879581
30
0
41
1
10
52.426136849937
20
-0.997338942570593
30
0
41
1
10
52.4308651022025
20
-1.00231753469868
30
0
41
1
10
52.4397614733016
20
-1.0120413055086
30
0
41
1
10
52.4439542871243
20
-1.01681700060087
30
0
41
1
10
52.4476958167643
20
-1.02132408873135
30
0
0
SPLINE
5
182
100
AcDbEntity
8
1
62
256
6
ByLayer
370
18
48
1
60
0
100
AcDbSpline
70
4
71
3
72
10
73
6
40
0
40
0
40
0
40
0
40
0.5
40
0.5
40
1
40
1
40
1
40
1
41
1
10
52.4476958167643
20
-1.02132408873104
30
0
41
1
10
52.4998295806501
20
-1.08412499932518
30
0
41
1
10
52.5514467373786
20
-1.15039152358617
30
0
41
1
10
52.6539207513836
20
-1.28972003539425
30
0
41
1
10
52.7046039950413
20
-1.36254118093959
30
0
41
1
10
52.7548491432227
20
-1.43831185137535
30
0
0
SPLINE
5
183
100
AcDbEntity
8
1
62
256
6
ByLayer
370
18
48
1
60
0
100
AcDbSpline
70
4
71
3
72
8
73
4
40
0
40
0
40
0
40
0
40
1
40
1
40
1
40
1
41
1
10
52.8453823842194
20
-1.52785017302628
30
0
41
1
10
52.8152297090362
20
-1.49821033692274
30
0
41
1
10
52.7850503539342
20
-1.46836496540482
30
0
41
1
10
52.7548491432227
20
-1.43831185137535
30
0
0
SPLINE
5
184
100
AcDbEntity
8
1
62
256
6
ByLayer
370
18
48
1
60
0
100
AcDbSpline
70
4
71
3
72
12
73
8
40
0
40
0
40
0
40
0
40
0.250000000000006
40
0.250000000000006
40
0.500000000000012
40
0.500000000000012
40
1
40
1
40
1
40
1
41
1
10
52.8453823842194
20
-1.52785017302628
30
0
41
1
10
52.8712746757582
20
-1.53907858417477
30
0
41
1
10
52.8972477889541
20
-1.54914605561879
30
0
41
1
10
52.9494471194482
20
-1.56672999673503
30
0
41
1
10
52.9756975180426
20
-1.57418834439613
30
0
41
1
10
53.0548714936417
20
-1.59259701168469
30
0
41
1
10
53.1080525799784
20
-1.59961741648181
30
0
41
1
10
53.1618367735508
20
-1.60125499310268
30
0
0
SPLINE
5
185
100
AcDbEntity
8
1
62
256
6
ByLayer
370
18
48
1
60
0
100
AcDbSpline
70
4
71
3
72
26
73
22
40
0
40
0
40
0
40
0
40
0.125
40
0.125
40
0.25
40
0.25
40
0.375000000000001
40
0.375000000000001
40
0.500000000000001
40
0.500000000000001
40
0.625000000000001
40
0.625000000000001
40
0.750000000000001
40
0.750000000000001
40
0.812500000000001
40
0.812500000000001
40
0.875000000000001
40
0.875000000000001
40
0.9375
40
0.9375
40
1
40
1
40
1
40
1
41
1
10
53.1618367735508
20
-1.60125499310268
30
0
41
1
10
53.1685967976172
20
-1.6014608167217
30
0
41
1
10
53.176447905496
20
-1.60315124893512
30
0
41
1
10
53.1937455444534
20
-1.60865603165135
30
0
41
1
10
53.2032803165467
20
-1.61253590492299
30
0
41
1
10
53.2230344080402
20
-1.62186773937029
30
0
41
1
10
53.2333288031159
20
-1.62733945975214
30
0
41
1
10
53.2546700569697
20
-1.6398024783804
30
0
41
1
10
53.2657869751382
20
-1.64685032161194
30
0
41
1
10
53.2880113451333
20
-1.66208959617026
30
0
41
1
10
53.2991969397671
20
-1.67031904949684
30
0
41
1
10
53.3216852556713
20
-1.68817969692753
30
0
41
1
10
53.3330826411619
20
-1.69790289387467
30
0
41
1
10
53.3495292013638
20
-1.71322163524636
30
0
41
1
10
53.3549250274194
20
-1.71846730733895
30
0
41
1
10
53.365512669245
20
-1.7292848504521
30
0
41
1
10
53.3707401812474
20
-1.73489871536907
30
0
41
1
10
53.3806834714234
20
-1.74623197148077
30
0
41
1
10
53.3854163995847
20
-1.7519638872192
30
0
41
1
10
53.3943209687954
20
-1.76358101065367
30
0
41
1
10
53.3985177177319
20
-1.76950714151818
30
0
41
1
10
53.4022633369852
20
-1.77537729698059
30
0
0
SPLINE
5
186
100
AcDbEntity
8
1
62
256
6
ByLayer
370
18
48
1
60
0
100
AcDbSpline
70
4
71
3
72
10
73
6
40
0
40
0
40
0
40
0
40
0.5
40
0.5
40
1
40
1
40
1
40
1
41
1
10
53.4022633369852
20
-1.77537729698039
30
0
41
1
10
53.4532833232112
20
-1.85533610501392
30
0
41
1
10
53.5038205417554
20
-1.93742790011453
30
0
41
1
10
53.6041882437051
20
-2.10567202404027
30
0
41
1
10
53.6538802871595
20
-2.19158136911329
30
0
41
1
10
53.7031581593507
20
-2.27908356410157
30
0
0
SPLINE
5
187
100
AcDbEntity
8
1
62
256
6
ByLayer
370
18
48
1
60
0
100
AcDbSpline
70
4
71
3
72
8
73
4
40
0
40
0
40
0
40
0
40
1
40
1
40
1
40
1
41
1
10
53.7031581593508
20
-2.27908356410157
30
0
41
1
10
53.7415447446552
20
-2.30469666636378
30
0
41
1
10
53.7799930845244
20
-2.32957752678442
30
0
41
1
10
53.818501628052
20
-2.35372960339063
30
0
0
SPLINE
5
188
100
AcDbEntity
8
1
62
256
6
ByLayer
370
18
48
1
60
0
100
AcDbSpline
70
4
71
3
72
12
73
8
40
0
40
0
40
0
40
0
40
0.249999999999999
40
0.249999999999999
40
0.499999999999999
40
0.499999999999999
40
1
40
1
40
1
40
1
41
1
10
53.8185016280521
20
-2.35372960339089
30
0
41
1
10
53.842925027871
20
-2.34653770446411
30
0
41
1
10
53.867434388697
20
-2.33830299139581
30
0
41
1
10
53.916656521656
20
-2.31973599694206
30
0
41
1
10
53.9413811068802
20
-2.30939770286454
30
0
41
1
10
54.0158266183817
20
-2.27523261116428
30
0
41
1
10
54.0657682061292
20
-2.24829935168481
30
0
41
1
10
54.1161820065782
20
-2.21705148219047
30
0
0
SPLINE
5
189
100
AcDbEntity
8
1
62
256
6
ByLayer
370
18
48
1
60
0
100
AcDbSpline
70
4
71
3
72
26
73
22
40
0
40
0
40
0
40
0
40
0.125000000000001
40
0.125000000000001
40
0.250000000000001
40
0.250000000000001
40
0.375000000000002
40
0.375000000000002
40
0.500000000000003
40
0.500000000000003
40
0.625000000000003
40
0.625000000000003
40
0.750000000000004
40
0.750000000000004
40
0.812500000000003
40
0.812500000000003
40
0.875000000000002
40
0.875000000000002
40
0.937500000000001
40
0.937500000000001
40
1
40
1
40
1
40
1
41
1
10
54.1161820065782
20
-2.21705148219044
30
0
41
1
10
54.122963313764
20
-2.2128482402199
30
0
41
1
10
54.1308374842446
20
-2.21038214192805
30
0
41
1
10
54.1481715625779
20
-2.20793743257556
30
0
41
1
10
54.1577174917807
20
-2.20800786347127
30
0
41
1
10
54.1774742648784
20
-2.21030135161746
30
0
41
1
10
54.1877625675084
20
-2.21250568247265
30
0
41
1
10
54.2090826426387
20
-2.21888270548757
30
0
41
1
10
54.2201850667545
20
-2.2231008682418
30
0
41
1
10
54.2423894716041
20
-2.23332246911957
30
0
41
1
10
54.2535670606794
20
-2.23933758593748
30
0
41
1
10
54.2760423066886
20
-2.25341698608213
30
0
41
1
10
54.2874398835561
20
-2.26156997149792
30
0
41
1
10
54.3038987268838
20
-2.27524691695624
30
0
41
1
10
54.3092991448925
20
-2.28005909811668
30
0
41
1
10
54.319896536481
20
-2.29027122563323
30
0
41
1
10
54.3251301551638
20
-2.29571431651229
30
0
41
1
10
54.3350930093841
20
-2.30703549430047
30
0
41
1
10
54.3398357508298
20
-2.31291881480249
30
0
41
1
10
54.3487592584554
20
-2.32520982500938
30
0
41
1
10
54.3529660305979
20
-2.33166490624816
30
0
41
1
10
54.3567225345568
20
-2.33828592154134
30
0
0
SPLINE
5
18A
100
AcDbEntity
8
1
62
256
6
ByLayer
370
18
48
1
60
0
100
AcDbSpline
70
4
71
3
72
10
73
6
40
0
40
0
40
0
40
0
40
0.5
40
0.5
40
1
40
1
40
1
40
1
41
1
10
54.3567225345568
20
-2.33828592154126
30
0
41
1
10
54.3925351336553
20
-2.40140731550528
30
0
41
1
10
54.4281107062942
20
-2.46490740197265
30
0
41
1
10
54.4988755349943
20
-2.5926109465619
30
0
41
1
10
54.5340871392477
20
-2.65685303980163
30
0
41
1
10
54.569045640903
20
-2.72121982089823
30
0
0
SPLINE
5
18B
100
AcDbEntity
8
1
62
256
6
ByLayer
370
18
48
1
60
0
100
AcDbSpline
70
4
71
3
72
8
73
4
40
0
40
0
40
0
40
0
40
1
40
1
40
1
40
1
41
1
10
54.569045640903
20
-2.72121982089823
30
0
41
1
10
54.6735345658781
20
-2.7567185369584
30
0
41
1
10
54.7787788189905
20
-2.7859410618195
30
0
41
1
10
54.8849692607263
20
-2.80889543564993
30
0
0
SPLINE
5
18C
100
AcDbEntity
8
1
62
256
6
ByLayer
370
18
48
1
60
0
100
AcDbSpline
70
4
71
3
72
10
73
6
40
0
40
0
40
0
40
0
40
0.5
40
0.5
40
1
40
1
40
1
40
1
41
1
10
54.8849692607263
20
-2.80889543564993
30
0
41
1
10
54.9156004265452
20
-2.77648955895992
30
0
41
1
10
54.9463966666045
20
-2.7426634017576
30
0
41
1
10
55.0082677226979
20
-2.67228906951763
30
0
41
1
10
55.0393395357028
20
-2.63574717448461
30
0
41
1
10
55.0705835587735
20
-2.59783078686135
30
0
0
SPLINE
5
18D
100
AcDbEntity
8
1
62
256
6
ByLayer
370
18
48
1
60
0
100
AcDbSpline
70
4
71
3
72
26
73
22
40
0
40
0
40
0
40
0
40
0.125
40
0.125
40
0.249999999999999
40
0.249999999999999
40
0.374999999999999
40
0.374999999999999
40
0.499999999999998
40
0.499999999999998
40
0.624999999999998
40
0.624999999999998
40
0.749999999999997
40
0.749999999999997
40
0.812499999999998
40
0.812499999999998
40
0.874999999999999
40
0.874999999999999
40
0.937499999999999
40
0.937499999999999
40
1
40
1
40
1
40
1
41
1
10
55.0705835587735
20
-2.59783078686138
30
0
41
1
10
55.0773653348746
20
-2.58960071831857
30
0
41
1
10
55.0852447987916
20
-2.58315447971776
30
0
41
1
10
55.1026013362101
20
-2.57282664314255
30
0
41
1
10
55.1121670642203
20
-2.56897036092732
30
0
41
1
10
55.1319711427179
20
-2.56376563035548
30
0
41
1
10
55.1422873748227
20
-2.56236068722663
30
0
41
1
10
55.163661917622
20
-2.5617818401287
30
0
41
1
10
55.1747858967651
20
-2.56263808231318
30
0
41
1
10
55.1970074092294
20
-2.56661281344245
30
0
41
1
10
55.2081848711292
20
-2.5697144071782
30
0
41
1
10
55.2306450180494
20
-2.57840905495564
30
0
41
1
10
55.242015226273
20
-2.58406879860493
30
0
41
1
10
55.2584209542381
20
-2.59454656932331
30
0
41
1
10
55.2638036959229
20
-2.59837874897812
30
0
41
1
10
55.2743658607587
20
-2.60682813185909
30
0
41
1
10
55.2795804810945
20
-2.61148305566462
30
0
41
1
10
55.2895007424453
20
-2.62149221599324
30
0
41
1
10
55.2942240506085
20
-2.62685180877966
30
0
41
1
10
55.3031135250976
20
-2.63840721407976
30
0
41
1
10
55.3073050931733
20
-2.6446499868824
30
0
41
1
10
55.3110491186422
20
-2.65125640176132
30
0
0
SPLINE
5
18E
100
AcDbEntity
8
1
62
256
6
ByLayer
370
18
48
1
60
0
100
AcDbSpline
70
4
71
3
72
8
73
4
40
0
40
0
40
0
40
0
40
1
40
1
40
1
40
1
41
1
10
55.3110491186422
20
-2.65125640176126
30
0
41
1
10
55.3527207468115
20
-2.72478690166187
30
0
41
1
10
55.3940487154236
20
-2.79785669954151
30
0
41
1
10
55.4350912635375
20
-2.87041455595019
30
0
0
SPLINE
5
18F
100
AcDbEntity
8
1
62
256
6
ByLayer
370
18
48
1
60
0
100
AcDbSpline
70
4
71
3
72
14
73
10
40
0
40
0
40
0
40
0
40
0.125
40
0.125
40
0.25
40
0.25
40
0.5
40
0.5
40
1
40
1
40
1
40
1
41
1
10
55.4350912635374
20
-2.87041455595019
30
0
41
1
10
55.4564404689955
20
-2.8705736798955
30
0
41
1
10
55.4777672597937
20
-2.87047588267132
30
0
41
1
10
55.5205178484509
20
-2.8697068302551
30
0
41
1
10
55.5419430145977
20
-2.86903585135465
30
0
41
1
10
55.6062780524369
20
-2.86621526042288
30
0
41
1
10
55.6492529102395
20
-2.86325465134124
30
0
41
1
10
55.7785309353877
20
-2.85115215150535
30
0
41
1
10
55.8652103763231
20
-2.83878704223108
30
0
41
1
10
55.9525433100306
20
-2.82217262814595
30
0
0
SPLINE
5
190
100
AcDbEntity
8
1
62
256
6
ByLayer
370
18
48
1
60
0
100
AcDbSpline
70
4
71
3
72
8
73
4
40
0
40
0
40
0
40
0
40
1
40
1
40
1
40
1
41
1
10
55.9525433100306
20
-2.82217262814595
30
0
41
1
10
55.9766399223849
20
-2.78271307496195
30
0
41
1
10
56.0008270463429
20
-2.74266743149795
30
0
41
1
10
56.0251242154092
20
-2.70203522753727
30
0
0
SPLINE
5
191
100
AcDbEntity
8
1
62
256
6
ByLayer
370
18
48
1
60
0
100
AcDbSpline
70
4
71
3
72
26
73
22
40
0
40
0
40
0
40
0
40
0.125000000000021
40
0.125000000000021
40
0.250000000000042
40
0.250000000000042
40
0.375000000000063
40
0.375000000000063
40
0.500000000000084
40
0.500000000000084
40
0.625000000000105
40
0.625000000000105
40
0.750000000000126
40
0.750000000000126
40
0.812500000000095
40
0.812500000000095
40
0.875000000000063
40
0.875000000000063
40
0.937500000000032
40
0.937500000000032
40
1
40
1
40
1
40
1
41
1
10
56.0251242154092
20
-2.70203522753724
30
0
41
1
10
56.0318947579951
20
-2.69071283575886
30
0
41
1
10
56.0397620049542
20
-2.68102564670411
30
0
41
1
10
56.0570975892475
20
-2.66401023844617
30
0
41
1
10
56.0666561540319
20
-2.65668009329042
30
0
41
1
10
56.0864527456047
20
-2.64460446521946
30
0
41
1
10
56.0967668445169
20
-2.63977266757868
30
0
41
1
10
56.1181434192263
20
-2.63234949356027
30
0
41
1
10
56.1292715315559
20
-2.62977023868274
30
0
41
1
10
56.1515025730942
20
-2.62710019481074
30
0
41
1
10
56.1626863424155
20
-2.62696523278814
30
0
41
1
10
56.185161020674
20
-2.62936347429326
30
0
41
1
10
56.1965359689666
20
-2.6319421154121
30
0
41
1
10
56.212939828168
20
-2.63813996424273
30
0
41
1
10
56.2183213546507
20
-2.64059613025631
30
0
41
1
10
56.2288798056806
20
-2.64640750470295
30
0
41
1
10
56.234091220983
20
-2.64979211980111
30
0
41
1
10
56.2439993812481
20
-2.65745441145205
30
0
41
1
10
56.2487158176239
20
-2.66173384887938
30
0
41
1
10
56.2575904624439
20
-2.67134698382475
30
0
41
1
10
56.2617735627188
20
-2.67672256291598
30
0
41
1
10
56.2655091118158
20
-2.68261700960917
30
0
0
SPLINE
5
192
100
AcDbEntity
8
1
62
256
6
ByLayer
370
18
48
1
60
0
100
AcDbSpline
70
4
71
3
72
8
73
4
40
0
40
0
40
0
40
0
40
1
40
1
40
1
40
1
41
1
10
56.2655091118158
20
-2.6826170096092
30
0
41
1
10
56.2766501577031
20
-2.70019683506015
30
0
41
1
10
56.2877675012119
20
-2.71767942080746
30
0
41
1
10
56.2988623960399
20
-2.73506417737406
30
0
0
SPLINE
5
193
100
AcDbEntity
8
1
62
256
6
ByLayer
370
18
48
1
60
0
100
AcDbSpline
70
4
71
3
72
18
73
14
40
0
40
0
40
0
40
0
40
0.124999999999983
40
0.124999999999983
40
0.249999999999966
40
0.249999999999966
40
0.499999999999966
40
0.499999999999966
40
0.624999999999983
40
0.624999999999983
40
0.75
40
0.75
40
1
40
1
40
1
40
1
41
1
10
56.29886239604
20
-2.73506417737394
30
0
41
1
10
56.3249148481231
20
-2.72694162426538
30
0
41
1
10
56.3510458240641
20
-2.71844413208211
30
0
41
1
10
56.4032399656267
20
-2.70077593405466
30
0
41
1
10
56.42932606494
20
-2.69159869899479
30
0
41
1
10
56.5075541463792
20
-2.66304916393708
30
0
41
1
10
56.5596408169407
20
-2.64265963256366
30
0
41
1
10
56.6378237049612
20
-2.61007106696974
30
0
41
1
10
56.663910533081
20
-2.59887450118552
30
0
41
1
10
56.7161147621897
20
-2.57582080527436
30
0
41
1
10
56.7421911513858
20
-2.56396181809063
30
0
41
1
10
56.8205168340605
20
-2.52739885072637
30
0
41
1
10
56.8729706951716
20
-2.50171791582591
30
0
41
1
10
56.9256985626485
20
-2.47477178074487
30
0
0
SPLINE
5
194
100
AcDbEntity
8
1
62
256
6
ByLayer
370
18
48
1
60
0
100
AcDbSpline
70
4
71
3
72
14
73
10
40
0
40
0
40
0
40
0
40
0.500000000000024
40
0.500000000000024
40
0.750000000000035
40
0.750000000000035
40
0.875000000000018
40
0.875000000000018
40
1
40
1
40
1
40
1
41
1
10
57.2299999999999
20
-2.08355090284402
30
0
41
1
10
57.1765757006501
20
-2.14939330483111
30
0
41
1
10
57.1248092133142
20
-2.21513404218214
30
0
41
1
10
57.0488761673908
20
-2.31316414610382
30
0
41
1
10
57.0238540253378
20
-2.34574484146742
30
0
41
1
10
56.9866842027203
20
-2.39442352641129
30
0
41
1
10
56.9743357839535
20
-2.41064278846821
30
0
41
1
10
56.949859772782
20
-2.44287118609543
30
0
41
1
10
56.9377504360924
20
-2.4588675671676
30
0
41
1
10
56.9256985626472
20
-2.4747717807368
30
0
0
SPLINE
5
195
100
AcDbEntity
8
1
62
256
6
ByLayer
370
18
48
1
60
0
100
AcDbSpline
70
4
71
3
72
28
73
24
40
0
40
0
40
0
40
0
40
0.0964535977388798
40
0.0964535977388798
40
0.2470446647824
40
0.2470446647824
40
0.32234019830416
40
0.32234019830416
40
0.39763573182592
40
0.39763573182592
40
0.54822679886944
40
0.54822679886944
40
0.58587456563032
40
0.58587456563032
40
0.623522332391199
40
0.623522332391199
40
0.661170099152079
40
0.661170099152079
40
0.69881786591296
40
0.69881786591296
40
0.84940893295648
40
0.84940893295648
40
1
40
1
40
1
40
1
41
1
10
57.2299999999999
20
-1.27218590284565
30
0
41
1
10
57.2299999999999
20
-1.28761816868243
30
0
41
1
10
57.2299999999999
20
-1.30398890298292
30
0
41
1
10
57.23
20
-1.34833116689916
30
0
41
1
10
57.23
20
-1.37765411098044
30
0
41
1
10
57.2300000000001
20
-1.42517124764504
30
0
41
1
10
57.23
20
-1.44157659433077
30
0
41
1
10
57.23
20
-1.47537593043268
30
0
41
1
10
57.23
20
-1.49279068755752
30
0
41
1
10
57.23
20
-1.54657579853367
30
0
41
1
10
57.23
20
-1.58447740950982
30
0
41
1
10
57.23
20
-1.63441266895521
30
0
41
1
10
57.23
20
-1.64452908710021
30
0
41
1
10
57.23
20
-1.66501369613098
30
0
41
1
10
57.23
20
-1.67538615734503
30
0
41
1
10
57.23
20
-1.69685442898791
30
0
41
1
10
57.23
20
-1.7079023378183
30
0
41
1
10
57.23
20
-1.73060470466351
30
0
41
1
10
57.23
20
-1.74228507276425
30
0
41
1
10
57.23
20
-1.80180783628339
30
0
41
1
10
57.23
20
-1.85314335863728
30
0
41
1
10
57.23
20
-1.96292363669363
30
0
41
1
10
57.23
20
-2.02139093165974
30
0
41
1
10
57.23
20
-2.083550902844
30
0
0
SPLINE
5
196
100
AcDbEntity
8
1
62
256
6
ByLayer
370
18
48
1
60
0
100
AcDbSpline
70
4
71
3
72
14
73
10
40
0
40
0
40
0
40
0
40
0.125000000000012
40
0.125000000000012
40
0.250000000000025
40
0.250000000000025
40
0.499999999999998
40
0.499999999999998
40
1
40
1
40
1
40
1
41
1
10
56.9231621009916
20
-1.15518646818109
30
0
41
1
10
56.9364711242776
20
-1.15719932672144
30
0
41
1
10
56.9498029125457
20
-1.15907916251905
30
0
41
1
10
56.9762794801302
20
-1.16320881557243
30
0
41
1
10
56.9894324595188
20
-1.16543426478685
30
0
41
1
10
57.028660627393
20
-1.17249074289538
30
0
41
1
10
57.0545126326305
20
-1.17768142046521
30
0
41
1
10
57.1312164238973
20
-1.19434055479078
30
0
41
1
10
57.1812046549048
20
-1.20693064197619
30
0
41
1
10
57.2299999999971
20
-1.22045707800711
30
0
0
SPLINE
5
197
100
AcDbEntity
8
1
62
256
6
ByLayer
370
18
48
1
60
0
100
AcDbSpline
70
4
71
3
72
22
73
18
40
0
40
0
40
0
40
0
40
0.250000000000003
40
0.250000000000003
40
0.375000000000003
40
0.375000000000003
40
0.500000000000004
40
0.500000000000004
40
0.625000000000004
40
0.625000000000004
40
0.750000000000005
40
0.750000000000005
40
0.812500000000005
40
0.812500000000005
40
0.875000000000004
40
0.875000000000004
40
1
40
1
40
1
40
1
41
1
10
56.9231621009914
20
-1.15518646818069
30
0
41
1
10
56.9095584821515
20
-1.14091763455136
30
0
41
1
10
56.895469795933
20
-1.12763841963442
30
0
41
1
10
56.8736577604674
20
-1.10919043435163
30
0
41
1
10
56.8662298103565
20
-1.10325988929856
30
0
41
1
10
56.8514178756399
20
-1.09216168490337
30
0
41
1
10
56.8440216111299
20
-1.08697877983869
30
0
41
1
10
56.8292630733132
20
-1.07741436510281
30
0
41
1
10
56.8219005700596
20
-1.07303105571836
30
0
41
1
10
56.807229422095
20
-1.06522626592096
30
0
41
1
10
56.8000664344206
20
-1.06188464353201
30
0
41
1
10
56.7897118353831
20
-1.05789164797645
30
0
41
1
10
56.7863221846055
20
-1.05672960778878
30
0
41
1
10
56.7796853119089
20
-1.05478747940674
30
0
41
1
10
56.7764282705492
20
-1.05400772021298
30
0
41
1
10
56.7671269604009
20
-1.05237058463524
30
0
41
1
10
56.7614737580751
20
-1.05217465918659
30
0
41
1
10
56.7565136859462
20
-1.05312232894204
30
0
0
SPLINE
5
198
100
AcDbEntity
8
1
62
256
6
ByLayer
370
18
48
1
60
0
100
AcDbSpline
70
4
71
3
72
8
73
4
40
0
40
0
40
0
40
0
40
1
40
1
40
1
40
1
41
1
10
56.7565136859462
20
-1.0531223289421
30
0
41
1
10
56.7518690949873
20
-1.05400972296854
30
0
41
1
10
56.7472285751983
20
-1.05485641696583
30
0
41
1
10
56.7425917393592
20
-1.05566518449427
30
0
0
SPLINE
5
199
100
AcDbEntity
8
1
62
256
6
ByLayer
370
18
48
1
60
0
100
AcDbSpline
70
4
71
3
72
10
73
6
40
0
40
0
40
0
40
0
40
0.5
40
0.5
40
1
40
1
40
1
40
1
41
1
10
56.7425917393593
20
-1.0556651844943
30
0
41
1
10
56.640533915306
20
-0.981656435973491
30
0
41
1
10
56.5393241570026
20
-0.904216374769277
30
0
41
1
10
56.3382549265825
20
-0.742679557738114
30
0
41
1
10
56.238363963677
20
-0.658620707561369
30
0
41
1
10
56.138758518755
20
-0.571580094358239
30
0
0
SPLINE
5
19A
100
AcDbEntity
8
1
62
256
6
ByLayer
370
18
48
1
60
0
100
AcDbSpline
70
4
71
3
72
8
73
4
40
0
40
0
40
0
40
0
40
1
40
1
40
1
40
1
41
1
10
56.1387585187554
20
-0.571580094357046
30
0
41
1
10
56.1068120496068
20
-0.518481891714856
30
0
41
1
10
56.0747323378965
20
-0.4666322721001
30
0
41
1
10
56.042496501121
20
-0.416068737134168
30
0
0
SPLINE
5
19B
100
AcDbEntity
8
1
62
256
6
ByLayer
370
18
48
1
60
0
100
AcDbSpline
70
4
71
3
72
28
73
24
40
0
40
0
40
0
40
0
40
0.125
40
0.125
40
0.250000000000001
40
0.250000000000001
40
0.375000000000001
40
0.375000000000001
40
0.500000000000001
40
0.500000000000001
40
0.625000000000002
40
0.625000000000002
40
0.687500000000001
40
0.687500000000001
40
0.750000000000001
40
0.750000000000001
40
0.812500000000001
40
0.812500000000001
40
0.875000000000001
40
0.875000000000001
40
0.9375
40
0.9375
40
1
40
1
40
1
40
1
41
1
10
56.042496501121
20
-0.416068737134197
30
0
41
1
10
56.0358789656223
20
-0.405688799119616
30
0
41
1
10
56.0282100900904
20
-0.395034859462328
30
0
41
1
10
56.0113041039944
20
-0.373342525790349
30
0
41
1
10
56.0019913723364
20
-0.362236307882881
30
0
41
1
10
55.9826169577584
20
-0.340435919171767
30
0
41
1
10
55.9724852981904
20
-0.329649000998216
30
0
41
1
10
55.9514073604416
20
-0.308261813768382
30
0
41
1
10
55.940368446381
20
-0.297580413135478
30
0
41
1
10
55.9181845984742
20
-0.27705492785276
30
0
41
1
10
55.9069857739009
20
-0.267147394255915
30
0
41
1
10
55.890041350622
20
-0.252849299622824
30
0
41
1
10
55.8843685604316
20
-0.24817809566693
30
0
41
1
10
55.8729720578791
20
-0.239046722919255
30
0
41
1
10
55.8672569864743
20
-0.234595395772232
30
0
41
1
10
55.8560567247805
20
-0.226148212311102
30
0
41
1
10
55.8505386982028
20
-0.222125493190731
30
0
41
1
10
55.8396994047023
20
-0.214538891416652
30
0
41
1
10
55.8343370837735
20
-0.21094895835941
30
0
41
1
10
55.824116783578
20
-0.204488290046953
30
0
41
1
10
55.8192537287272
20
-0.201610535782009
30
0
41
1
10
55.8101125185096
20
-0.19668732199392
30
0
41
1
10
55.8058129626153
20
-0.19463575002294
30
0
41
1
10
55.8020026935394
20
-0.193162266924077
30
0
0
SPLINE
5
19C
100
AcDbEntity
8
1
62
256
6
ByLayer
370
18
48
1
60
0
100
AcDbSpline
70
4
71
3
72
8
73
4
40
0
40
0
40
0
40
0
40
1
40
1
40
1
40
1
41
1
10
55.8020026935395
20
-0.193162266925498
30
0
41
1
10
55.7507006080705
20
-0.17332304970293
30
0
41
1
10
55.6998453573791
20
-0.149047425412874
30
0
41
1
10
55.649314865478
20
-0.120436560475184
30
0
0
SPLINE
5
19D
100
AcDbEntity
8
1
62
256
6
ByLayer
370
18
48
1
60
0
100
AcDbSpline
70
4
71
3
72
8
73
4
40
0
40
0
40
0
40
0
40
1
40
1
40
1
40
1
41
1
10
55.649314865478
20
-0.120436560475156
30
0
41
1
10
55.5288475221718
20
-0.0043122531033362
30
0
41
1
10
55.4097574928422
20
0.113685208285119
30
0
41
1
10
55.2915853033501
20
0.233102612060947
30
0
0
SPLINE
5
19E
100
AcDbEntity
8
1
62
256
6
ByLayer
370
18
48
1
60
0
100
AcDbSpline
70
4
71
3
72
8
73
4
40
0
40
0
40
0
40
0
40
1
40
1
40
1
40
1
41
1
10
55.2915853033496
20
0.233102612061259
30
0
41
1
10
55.224406972038
20
0.318604090409991
30
0
41
1
10
55.1565259183813
20
0.397166439001239
30
0
41
1
10
55.0879937005472
20
0.468012924454655
30
0
0
SPLINE
5
19F
100
AcDbEntity
8
1
62
256
6
ByLayer
370
18
48
1
60
0
100
AcDbSpline
70
4
71
3
72
28
73
24
40
0
40
0
40
0
40
0
40
0.124999999999968
40
0.124999999999968
40
0.249999999999935
40
0.249999999999935
40
0.374999999999902
40
0.374999999999902
40
0.499999999999869
40
0.499999999999869
40
0.624999999999837
40
0.624999999999837
40
0.687499999999864
40
0.687499999999864
40
0.749999999999891
40
0.749999999999891
40
0.812499999999918
40
0.812499999999918
40
0.874999999999946
40
0.874999999999946
40
0.937499999999973
40
0.937499999999973
40
1
40
1
40
1
40
1
41
1
10
55.0879937005471
20
0.468012924454882
30
0
41
1
10
55.0813747854253
20
0.474855354026204
30
0
41
1
10
55.0737026081946
20
0.482471951398736
30
0
41
1
10
55.0567870515281
20
0.498826854924374
30
0
41
1
10
55.0474671209916
20
0.507633669113829
30
0
41
1
10
55.0280809974286
20
0.525639542714572
30
0
41
1
10
55.0179444240105
20
0.534905538880224
30
0
41
1
10
54.996857641474
20
0.55396350609476
30
0
41
1
10
54.9858151548937
20
0.563837155846301
30
0
41
1
10
54.9636272567236
20
0.583553951530291
30
0
41
1
10
54.9524270811139
20
0.593447842758138
30
0
41
1
10
54.9354823122074
20
0.608387999598733
30
0
41
1
10
54.929809696192
20
0.613384716462633
30
0
41
1
10
54.9184143881675
20
0.623422587596622
30
0
41
1
10
54.9127030275101
20
0.628453757639278
30
0
41
1
10
54.9015102839849
20
0.638325412115478
30
0
41
1
10
54.8959964658257
20
0.643194320706556
30
0
41
1
10
54.8851667267204
20
0.652784682201201
30
0
41
1
10
54.8798099791028
20
0.657543259741999
30
0
41
1
10
54.869601757643
20
0.666656564158643
30
0
41
1
10
54.8647445535698
20
0.671015947450599
30
0
41
1
10
54.855614198877
20
0.679269176296657
30
0
41
1
10
54.8513196568224
20
0.683183215567396
30
0
41
1
10
54.847513169557
20
0.686688871178376
30
0
0
SPLINE
5
1A0
100
AcDbEntity
8
1
62
256
6
ByLayer
370
18
48
1
60
0
100
AcDbSpline
70
4
71
3
72
10
73
6
40
0
40
0
40
0
40
0
40
0.5
40
0.5
40
1
40
1
40
1
40
1
41
1
10
54.847513169557
20
0.686688871177239
30
0
41
1
10
54.8003177688864
20
0.730154357763041
30
0
41
1
10
54.7535041953435
20
0.776925917824258
30
0
41
1
10
54.6604484554643
20
0.876859862703981
30
0
41
1
10
54.6143062173504
20
0.929913772380644
30
0
41
1
10
54.5685271211546
20
0.985804146995832
30
0
0
SPLINE
5
1A1
100
AcDbEntity
8
1
62
256
6
ByLayer
370
18
48
1
60
0
100
AcDbSpline
70
4
71
3
72
10
73
6
40
0
40
0
40
0
40
0
40
0.5
40
0.5
40
1
40
1
40
1
40
1
41
1
10
54.5685271211546
20
0.985804146995861
30
0
41
1
10
54.5467831562863
20
1.00883952533033
30
0
41
1
10
54.5250156545725
20
1.03191091290617
30
0
41
1
10
54.4815793422956
20
1.07795477831246
30
0
41
1
10
54.4599119183781
20
1.10092575896181
30
0
41
1
10
54.4382908041752
20
1.12384229256793
30
0
0
SPLINE
5
1A2
100
AcDbEntity
8
1
62
256
6
ByLayer
370
18
48
1
60
0
100
AcDbSpline
70
4
71
3
72
12
73
8
40
0
40
0
40
0
40
0
40
0.25
40
0.25
40
0.499999999999999
40
0.499999999999999
40
1
40
1
40
1
40
1
41
1
10
54.438290804175
20
1.12384229256821
30
0
41
1
10
54.4132854306927
20
1.14339798629214
30
0
41
1
10
54.3881922642675
20
1.16184359487414
30
0
41
1
10
54.3377904288456
20
1.19646694327136
30
0
41
1
10
54.3124747074689
20
1.21264773567233
30
0
41
1
10
54.2362627637249
20
1.25763306423562
30
0
41
1
10
54.1850630273751
20
1.28291511358731
30
0
41
1
10
54.1334350640654
20
1.30312607494673
30
0
0
SPLINE
5
1A3
100
AcDbEntity
8
1
62
256
6
ByLayer
370
18
48
1
60
0
100
AcDbSpline
70
4
71
3
72
28
73
24
40
0
40
0
40
0
40
0
40
0.125
40
0.125
40
0.25
40
0.25
40
0.375
40
0.375
40
0.5
40
0.5
40
0.625
40
0.625
40
0.6875
40
0.6875
40
0.75
40
0.75
40
0.8125
40
0.8125
40
0.875
40
0.875
40
0.9375
40
0.9375
40
1
40
1
40
1
40
1
41
1
10
54.1334350640654
20
1.30312607494673
30
0
41
1
10
54.1268217999353
20
1.30571499027909
30
0
41
1
10
54.1191548212148
20
1.30948894544241
30
0
41
1
10
54.1022454536584
20
1.31876882545078
30
0
41
1
10
54.0929253082693
20
1.32433598598737
30
0
41
1
10
54.0735371085814
20
1.33662408124096
30
0
41
1
10
54.0633992632858
20
1.34337918233683
30
0
41
1
10
54.0423077613266
20
1.35807088654255
30
0
41
1
10
54.0312619494688
20
1.36608130849197
30
0
41
1
10
54.0090681227058
20
1.38288013762585
30
0
41
1
10
53.9978643924864
20
1.3917010842741
30
0
41
1
10
53.980914091917
20
1.40568256079709
30
0
41
1
10
53.9752396102682
20
1.41046923320278
30
0
41
1
10
53.9638408495797
20
1.42033731562347
30
0
41
1
10
53.9581312785221
20
1.42540780613879
30
0
41
1
10
53.9469422068411
20
1.43564194356051
30
0
41
1
10
53.94143078193
20
1.44083251119363
30
0
41
1
10
53.9306072860711
20
1.45139128011147
30
0
41
1
10
53.9252542595654
20
1.45680318160322
30
0
41
1
10
53.9150560855792
20
1.46757789873246
30
0
41
1
10
53.9102040150735
20
1.47294320130376
30
0
41
1
10
53.9010837029135
20
1.48362209914811
30
0
41
1
10
53.8967943144209
20
1.48896742853478
30
0
41
1
10
53.892992186983
20
1.49411654758211
30
0
0
SPLINE
5
1A4
100
AcDbEntity
8
1
62
256
6
ByLayer
370
18
48
1
60
0
100
AcDbSpline
70
4
71
3
72
10
73
6
40
0
40
0
40
0
40
0
40
0.5
40
0.5
40
1
40
1
40
1
40
1
41
1
10
53.8929921869831
20
1.49411654758103
30
0
41
1
10
53.8411547231197
20
1.56431863230927
30
0
41
1
10
53.7897873669349
20
1.63753617701568
30
0
41
1
10
53.6877308149974
20
1.78970978544075
30
0
41
1
10
53.6372122766059
20
1.86839317278242
30
0
41
1
10
53.5870917794247
20
1.94943041745302
30
0
0
SPLINE
5
1A5
100
AcDbEntity
8
1
62
256
6
ByLayer
370
18
48
1
60
0
100
AcDbSpline
70
4
71
3
72
8
73
4
40
0
40
0
40
0
40
0
40
1
40
1
40
1
40
1
41
1
10
53.4965521897041
20
2.0282495222813
30
0
41
1
10
53.5267420290383
20
2.00229063451445
30
0
41
1
10
53.5569192124202
20
1.97601548641887
30
0
41
1
10
53.5870917794247
20
1.94943041745299
30
0
0
SPLINE
5
1A6
100
AcDbEntity
8
1
62
256
6
ByLayer
370
18
48
1
60
0
100
AcDbSpline
70
4
71
3
72
12
73
8
40
0
40
0
40
0
40
0
40
0.250000000000006
40
0.250000000000006
40
0.500000000000013
40
0.500000000000013
40
1
40
1
40
1
40
1
41
1
10
53.4965521897041
20
2.0282495222813
30
0
41
1
10
53.4704915306003
20
2.03088406444471
30
0
41
1
10
53.4443423345006
20
2.03225684995252
30
0
41
1
10
53.3918243176286
20
2.03245034975481
30
0
41
1
10
53.3654452470535
20
2.03126983642613
30
0
41
1
10
53.2860289545125
20
2.02385338797552
30
0
41
1
10
53.2326857621744
20
2.01376329233776
30
0
41
1
10
53.1788987621093
20
1.99830628798839
30
0
0
SPLINE
5
1A7
100
AcDbEntity
8
1
62
256
6
ByLayer
370
18
48
1
60
0
100
AcDbSpline
70
4
71
3
72
28
73
24
40
0
40
0
40
0
40
0
40
0.124999999999968
40
0.124999999999968
40
0.249999999999935
40
0.249999999999935
40
0.374999999999903
40
0.374999999999903
40
0.49999999999987
40
0.49999999999987
40
0.624999999999838
40
0.624999999999838
40
0.687499999999865
40
0.687499999999865
40
0.749999999999892
40
0.749999999999892
40
0.812499999999919
40
0.812499999999919
40
0.874999999999946
40
0.874999999999946
40
0.937499999999973
40
0.937499999999973
40
1
40
1
40
1
40
1
41
1
10
53.1788987621092
20
1.99830628798839
30
0
41
1
10
53.1722863108114
20
1.99640603907423
30
0
41
1
10
53.1646225606404
20
1.9959830590598
30
0
41
1
10
53.1477246747194
20
1.9972999805625
30
0
41
1
10
53.138413530039
20
1.99908710277899
30
0
41
1
10
53.1190442236904
20
2.00444404814837
30
0
41
1
10
53.1089168840031
20
2.00801364546348
30
0
41
1
10
53.0878451455544
20
2.01685670210264
30
0
41
1
10
53.0768076827117
20
2.02218892165425
30
0
41
1
10
53.0546214928063
20
2.03435193310673
30
0
41
1
10
53.0434187812349
20
2.04119221770188
30
0
41
1
10
53.0264650658532
20
2.05276762172247
30
0
41
1
10
53.0207886345126
20
2.05684735633469
30
0
41
1
10
53.0093844417506
20
2.06551835360628
30
0
41
1
10
53.003666434221
20
2.07010578073493
30
0
41
1
10
52.9924622689204
20
2.07964297515284
30
0
41
1
10
52.9869433501064
20
2.08461644225201
30
0
41
1
10
52.9761048339929
20
2.09504367150876
30
0
41
1
10
52.9707439458846
20
2.10054378452344
30
0
41
1
10
52.9605279745894
20
2.11185803608944
30
0
41
1
10
52.9556678301049
20
2.11766907880184
30
0
41
1
10
52.9465335621435
20
2.12965536972601
30
0
41
1
10
52.9422379585927
20
2.13587116607255
30
0
41
1
10
52.9384312043411
20
2.14212152906055
30
0
0
SPLINE
5
1A8
100
AcDbEntity
8
1
62
256
6
ByLayer
370
18
48
1
60
0
100
AcDbSpline
70
4
71
3
72
10
73
6
40
0
40
0
40
0
40
0
40
0.5
40
0.5
40
1
40
1
40
1
40
1
41
1
10
52.9384312043412
20
2.14212152905975
30
0
41
1
10
52.8866013417661
20
2.2272217045101
30
0
41
1
10
52.835237042083
20
2.31400385438386
30
0
41
1
10
52.7331981578067
20
2.49078874790462
30
0
41
1
10
52.6826908455279
20
2.58045574370993
30
0
41
1
10
52.6325849949247
20
2.67120533858011
30
0
0
SPLINE
5
1A9
100
AcDbEntity
8
1
62
256
6
ByLayer
370
18
48
1
60
0
100
AcDbSpline
70
4
71
3
72
8
73
4
40
0
40
0
40
0
40
0
40
1
40
1
40
1
40
1
41
1
10
52.5420751366567
20
2.72572660706388
30
0
41
1
10
52.5722540918512
20
2.70798257651725
30
0
41
1
10
52.6024216500573
20
2.68980733531828
30
0
41
1
10
52.6325849949247
20
2.67120533858002
30
0
0
SPLINE
5
1AA
100
AcDbEntity
8
1
62
256
6
ByLayer
370
18
48
1
60
0
100
AcDbSpline
70
4
71
3
72
12
73
8
40
0
40
0
40
0
40
0
40
0.250000000000006
40
0.250000000000006
40
0.500000000000012
40
0.500000000000012
40
1
40
1
40
1
40
1
41
1
10
52.5420751366568
20
2.72572660706385
30
0
41
1
10
52.5160148772804
20
2.70994202778817
30
0
41
1
10
52.4898622237787
20
2.69296994276778
30
0
41
1
10
52.4373351826895
20
2.65663542512681
30
0
41
1
10
52.4109505487202
20
2.63726475087
30
0
41
1
10
52.3315234261806
20
2.57562107530814
30
0
41
1
10
52.2781851093353
20
2.52981018001162
30
0
41
1
10
52.2244274263366
20
2.47925875249911
30
0
0
SPLINE
5
1AB
100
AcDbEntity
8
1
62
256
6
ByLayer
370
18
48
1
60
0
100
AcDbSpline
70
4
71
3
72
28
73
24
40
0
40
0
40
0
40
0
40
0.124999999999968
40
0.124999999999968
40
0.249999999999935
40
0.249999999999935
40
0.374999999999903
40
0.374999999999903
40
0.499999999999871
40
0.499999999999871
40
0.624999999999838
40
0.624999999999838
40
0.687499999999865
40
0.687499999999865
40
0.749999999999892
40
0.749999999999892
40
0.812499999999919
40
0.812499999999919
40
0.874999999999946
40
0.874999999999946
40
0.937499999999973
40
0.937499999999973
40
1
40
1
40
1
40
1
41
1
10
52.2244274263362
20
2.47925875249908
30
0
41
1
10
52.2178058845547
20
2.47303213760947
30
0
41
1
10
52.2101309239864
20
2.46842160634748
30
0
41
1
10
52.1932105030027
20
2.46157111675964
30
0
41
1
10
52.1838882337346
20
2.45936014507208
30
0
41
1
10
52.1645011429209
20
2.45716998110012
30
0
41
1
10
52.154366933989
20
2.45715511133193
30
0
41
1
10
52.1332867065054
20
2.45917888644422
30
0
41
1
10
52.122248219827
20
2.46125420503165
30
0
41
1
10
52.1000645575244
20
2.46747007200474
30
0
41
1
10
52.0888648020224
20
2.47159741008881
30
0
41
1
10
52.0719185050245
20
2.47953309864022
30
0
41
1
10
52.0662450517599
20
2.48247190474589
30
0
41
1
10
52.0548480392899
20
2.48902432100141
30
0
41
1
10
52.0491349542952
20
2.49263674301201
30
0
41
1
10
52.0379398634442
20
2.50045754769397
30
0
41
1
10
52.0324254365348
20
2.50468284060537
30
0
41
1
10
52.021594997884
20
2.51386652115738
30
0
41
1
10
52.0162378748439
20
2.51886865167566
30
0
41
1
10
52.0060265947935
20
2.52951612793998
30
0
41
1
10
52.001167687142
20
2.53515476960879
30
0
41
1
10
51.992033681048
20
2.54717680438279
30
0
41
1
10
51.9877368345433
20
2.5536052041642
30
0
41
1
10
51.9839279381872
20
2.56029779424617
30
0
0
SPLINE
5
1AC
100
AcDbEntity
8
1
62
256
6
ByLayer
370
18
48
1
60
0
100
AcDbSpline
70
4
71
3
72
10
73
6
40
0
40
0
40
0
40
0
40
0.5
40
0.5
40
1
40
1
40
1
40
1
41
1
10
51.9839279381873
20
2.56029779424574
30
0
41
1
10
51.9320990101923
20
2.65136610827562
30
0
41
1
10
51.8807282450348
20
2.74260525065174
30
0
41
1
10
51.7786666240833
20
2.92529360838398
30
0
41
1
10
51.7281448863324
20
3.01643225949408
30
0
41
1
10
51.6780314483611
20
3.10723829114696
30
0
0
SPLINE
5
1AD
100
AcDbEntity
8
1
62
256
6
ByLayer
370
18
48
1
60
0
100
AcDbSpline
70
4
71
3
72
8
73
4
40
0
40
0
40
0
40
0
40
1
40
1
40
1
40
1
41
1
10
51.5875132892046
20
3.13179143235522
30
0
41
1
10
51.6177021092809
20
3.12411145995154
30
0
41
1
10
51.6478679249824
20
3.11592532116347
30
0
41
1
10
51.6780314483611
20
3.10723829114687
30
0
0
SPLINE
5
1AE
100
AcDbEntity
8
1
62
256
6
ByLayer
370
18
48
1
60
0
100
AcDbSpline
70
4
71
3
72
12
73
8
40
0
40
0
40
0
40
0
40
0.250000000000006
40
0.250000000000006
40
0.500000000000012
40
0.500000000000012
40
1
40
1
40
1
40
1
41
1
10
51.5875132892046
20
3.13179143235522
30
0
41
1
10
51.5614843424462
20
3.0993825070596
30
0
41
1
10
51.5353553624739
20
3.0659665103087
30
0
41
1
10
51.4828622191697
20
2.99713177972953
30
0
41
1
10
51.4564874637414
20
2.96169805678107
30
0
41
1
10
51.3770703030925
20
2.8525458952638
30
0
41
1
10
51.3237088821961
20
2.77594862002613
30
0
41
1
10
51.269909305355
20
2.69567687689306
30
0
0
SPLINE
5
1AF
100
AcDbEntity
8
1
62
256
6
ByLayer
370
18
48
1
60
0
100
AcDbSpline
70
4
71
3
72
28
73
24
40
0
40
0
40
0
40
0
40
0.125000000000032
40
0.125000000000032
40
0.250000000000065
40
0.250000000000065
40
0.375000000000097
40
0.375000000000097
40
0.50000000000013
40
0.50000000000013
40
0.625000000000162
40
0.625000000000162
40
0.687500000000135
40
0.687500000000135
40
0.750000000000108
40
0.750000000000108
40
0.812500000000081
40
0.812500000000081
40
0.875000000000054
40
0.875000000000054
40
0.937500000000027
40
0.937500000000027
40
1
40
1
40
1
40
1
41
1
10
51.269909305355
20
2.69567687689303
30
0
41
1
10
51.2632877736792
20
2.68579721015516
30
0
41
1
10
51.2556111868748
20
2.67749188301136
30
0
41
1
10
51.238683891232
20
2.66319869371836
30
0
41
1
10
51.2293554482878
20
2.65721768614748
30
0
41
1
10
51.2099549728319
20
2.64769678227046
30
0
41
1
10
51.1998137643278
20
2.64408888234712
30
0
41
1
10
51.1787208601776
20
2.63905656645929
30
0
41
1
10
51.1676770497018
20
2.63764328270926
30
0
41
1
10
51.1454877202497
20
2.63722877711785
30
0
41
1
10
51.1342860438727
20
2.63819257285127
30
0
41
1
10
51.1173390726869
20
2.6416263442953
30
0
41
1
10
51.1116657737332
20
2.64310546932577
30
0
41
1
10
51.100270168693
20
2.64682970435055
30
0
41
1
10
51.0945631786107
20
2.64907517145627
30
0
41
1
10
51.0833793114009
20
2.65432985842233
30
0
41
1
10
51.0778707603056
20
2.65734751643703
30
0
41
1
10
51.0670524523429
20
2.66428851460822
30
0
41
1
10
51.0617018366489
20
2.66824834713151
30
0
41
1
10
51.0515065092123
20
2.67706485427402
30
0
41
1
10
51.0466552444588
20
2.68191367675641
30
0
41
1
10
51.0375353957294
20
2.69265280364115
30
0
41
1
10
51.0332453623476
20
2.69858695753365
30
0
41
1
10
51.0294419265488
20
2.70498424150978
30
0
0
SPLINE
5
1B0
100
AcDbEntity
8
1
62
256
6
ByLayer
370
18
48
1
60
0
100
AcDbSpline
70
4
71
3
72
12
73
8
40
0
40
0
40
0
40
0
40
0.49999999999998
40
0.49999999999998
40
0.74999999999999
40
0.74999999999999
40
1
40
1
40
1
40
1
41
1
10
51.0294419265489
20
2.70498424150978
30
0
41
1
10
50.9845950985022
20
2.78041548568635
30
0
41
1
10
50.9400937189517
20
2.85484718197643
30
0
41
1
10
50.8737429298719
20
2.96495027461009
30
0
41
1
10
50.8516887815891
20
3.00140075296773
30
0
41
1
10
50.8077878921399
20
3.07362813183676
30
0
41
1
10
50.785928943133
20
3.10942537728178
30
0
41
1
10
50.7641497674132
20
3.14490706981687
30
0
0
SPLINE
5
1B1
100
AcDbEntity
8
1
62
256
6
ByLayer
370
18
48
1
60
0
100
AcDbSpline
70
4
71
3
72
8
73
4
40
0
40
0
40
0
40
0
40
1
40
1
40
1
40
1
41
1
10
50.7641497674109
20
3.14490706983111
30
0
41
1
10
50.701131602732
20
3.13212980674098
30
0
41
1
10
50.6379793867606
20
3.11700990101872
30
0
41
1
10
50.5745938133293
20
3.09955256417931
30
0
0
SPLINE
5
1B2
100
AcDbEntity
8
1
62
256
6
ByLayer
370
18
48
1
60
0
100
AcDbSpline
70
4
71
3
72
10
73
6
40
0
40
0
40
0
40
0
40
0.5
40
0.5
40
1
40
1
40
1
40
1
41
1
10
50.5745938133338
20
3.09955256417382
30
0
41
1
10
50.5319608703036
20
3.02366232630743
30
0
41
1
10
50.4890250685138
20
2.94592662620764
30
0
41
1
10
50.4026180159811
20
2.78720397817546
30
0
41
1
10
50.3591405053481
20
2.706209369786
30
0
41
1
10
50.3153491519916
20
2.62372792210212
30
0
0
SPLINE
5
1B3
100
AcDbEntity
8
1
62
256
6
ByLayer
370
18
48
1
60
0
100
AcDbSpline
70
4
71
3
72
28
73
24
40
0
40
0
40
0
40
0
40
0.125000000000033
40
0.125000000000033
40
0.250000000000065
40
0.250000000000065
40
0.375000000000098
40
0.375000000000098
40
0.500000000000131
40
0.500000000000131
40
0.625000000000164
40
0.625000000000164
40
0.687500000000136
40
0.687500000000136
40
0.750000000000109
40
0.750000000000109
40
0.812500000000082
40
0.812500000000082
40
0.875000000000055
40
0.875000000000055
40
0.937500000000027
40
0.937500000000027
40
1
40
1
40
1
40
1
41
1
10
50.3153491519948
20
2.62372792210738
30
0
41
1
10
50.3087358196584
20
2.61127164516429
30
0
41
1
10
50.3010687316042
20
2.6001748656762
30
0
41
1
10
50.2841587606727
20
2.57999069270915
30
0
41
1
10
50.2748379163399
20
2.57088694497736
30
0
41
1
10
50.2554464309978
20
2.55506135433797
30
0
41
1
10
50.2453069772989
20
2.54824698276167
30
0
41
1
10
50.2242116621004
20
2.53669524487623
30
0
41
1
10
50.2131632413407
20
2.53194250883754
30
0
41
1
10
50.1909628829474
20
2.52494181066768
30
0
41
1
10
50.1797547280584
20
2.52264025269318
30
0
41
1
10
50.1627990142738
20
2.52120827351013
30
0
41
1
10
50.1571229227221
20
2.5210709109453
30
0
41
1
10
50.145722318154
20
2.52157174783457
30
0
41
1
10
50.1400141562304
20
2.5222146815745
30
0
41
1
10
50.128828851471
20
2.52435038237215
30
0
41
1
10
50.1233201262149
20
2.52584260511705
30
0
41
1
10
50.1125025320122
20
2.52980896292374
30
0
41
1
10
50.1071527971595
20
2.53230858295379
30
0
41
1
10
50.0969608709495
20
2.53836552732204
30
0
41
1
10
50.092111880199
20
2.54191303901328
30
0
41
1
10
50.0829972981077
20
2.55023401613767
30
0
41
1
10
50.0787102573964
20
2.55504589617962
30
0
41
1
10
50.0749094875871
20
2.56046940916775
30
0
0
SPLINE
5
1B4
100
AcDbEntity
8
1
62
256
6
ByLayer
370
18
48
1
60
0
100
AcDbSpline
70
4
71
3
72
10
73
6
40
0
40
0
40
0
40
0
40
0.5
40
0.5
40
1
40
1
40
1
40
1
41
1
10
50.0749094875871
20
2.56046940916815
30
0
41
1
10
50.0426873885368
20
2.6064487716329
30
0
41
1
10
50.010646083897
20
2.65137825813167
30
0
41
1
10
49.9468681702781
20
2.73912357649351
30
0
41
1
10
49.915105424745
20
2.78197601765703
30
0
41
1
10
49.8835372324357
20
2.8236903100844
30
0
0
SPLINE
5
1B5
100
AcDbEntity
8
1
62
256
6
ByLayer
370
18
48
1
60
0
100
AcDbSpline
70
4
71
3
72
8
73
4
40
0
40
0
40
0
40
0
40
1
40
1
40
1
40
1
41
1
10
49.8835372324357
20
2.82369031008434
30
0
41
1
10
49.7655109472728
20
2.76273000198657
30
0
41
1
10
49.6475665831501
20
2.69512779918267
30
0
41
1
10
49.5292145578948
20
2.62124813668339
30
0
0
SPLINE
5
1B6
100
AcDbEntity
8
1
62
256
6
ByLayer
370
18
48
1
60
0
100
AcDbSpline
70
4
71
3
72
8
73
4
40
0
40
0
40
0
40
0
40
1
40
1
40
1
40
1
41
1
10
49.5292145579
20
2.62124813667955
30
0
41
1
10
49.473540597435
20
2.5054585046293
30
0
41
1
10
49.4174336388767
20
2.38867010404826
30
0
41
1
10
49.3608439861377
20
2.27133025126017
30
0
0
SPLINE
5
1B7
100
AcDbEntity
8
1
62
256
6
ByLayer
370
18
48
1
60
0
100
AcDbSpline
70
4
71
3
72
28
73
24
40
0
40
0
40
0
40
0
40
0.125
40
0.125
40
0.250000000000001
40
0.250000000000001
40
0.375000000000001
40
0.375000000000001
40
0.500000000000002
40
0.500000000000002
40
0.625000000000002
40
0.625000000000002
40
0.687500000000002
40
0.687500000000002
40
0.750000000000001
40
0.750000000000001
40
0.812500000000001
40
0.812500000000001
40
0.875000000000001
40
0.875000000000001
40
0.9375
40
0.9375
40
1
40
1
40
1
40
1
41
1
10
49.3608439861376
20
2.27133025126003
30
0
41
1
10
49.3542234115798
20
2.25760234860661
30
0
41
1
10
49.3465490075603
20
2.2448840153418
30
0
41
1
10
49.32962837169
20
2.22094290266915
30
0
41
1
10
49.3203050435501
20
2.2096840003409
30
0
41
1
10
49.3009149799032
20
2.18923655217313
30
0
41
1
10
49.2907788958527
20
2.17994024257331
30
0
41
1
10
49.2696963576483
20
2.16308999954282
30
0
41
1
10
49.2586572975711
20
2.15549515890899
30
0
41
1
10
49.2364719053074
20
2.14262266348038
30
0
41
1
10
49.2252706308105
20
2.13727979577203
30
0
41
1
10
49.208322499044
20
2.13109659569795
30
0
41
1
10
49.2026485802917
20
2.12934359923119
30
0
41
1
10
49.1912514569108
20
2.12653826205946
30
0
41
1
10
49.1855397297238
20
2.12549399172266
30
0
41
1
10
49.1743474287248
20
2.12425267573886
30
0
41
1
10
49.1688345120203
20
2.12404576180518
30
0
41
1
10
49.1580072302904
20
2.12458792422612
30
0
41
1
10
49.1526518008802
20
2.12534852625174
30
0
41
1
10
49.142444672647
20
2.1279825179538
30
0
41
1
10
49.1375878291649
20
2.12984465047953
30
0
41
1
10
49.1284578419431
20
2.13485715816367
30
0
41
1
10
49.1241630304192
20
2.13803665927307
30
0
41
1
10
49.1203558849835
20
2.14191635252587
30
0
0
SPLINE
5
1B8
100
AcDbEntity
8
1
62
256
6
ByLayer
370
18
48
1
60
0
100
AcDbSpline
70
4
71
3
72
8
73
4
40
0
40
0
40
0
40
0
40
1
40
1
40
1
40
1
41
1
10
49.1203558849836
20
2.14191635252666
30
0
41
1
10
49.0809430282739
20
2.18208024876626
30
0
41
1
10
49.0417894892263
20
2.22011619247027
30
0
41
1
10
49.0028542596227
20
2.25594480952711
30
0
0
SPLINE
5
1B9
100
AcDbEntity
8
1
62
256
6
ByLayer
370
18
48
1
60
0
100
AcDbSpline
70
4
71
3
72
8
73
4
40
0
40
0
40
0
40
0
40
1
40
1
40
1
40
1
41
1
10
49.0028542596202
20
2.25594480955081
30
0
41
1
10
48.9620043917056
20
2.22503017223596
30
0
41
1
10
48.9209988396741
20
2.19345220406007
30
0
41
1
10
48.8798288801354
20
2.1612108022735
30
0
0
SPLINE
5
1BA
100
AcDbEntity
8
1
62
256
6
ByLayer
370
18
48
1
60
0
100
AcDbSpline
70
4
71
3
72
23
73
19
40
0
40
0
40
0
40
0
40
0.0903715699239195
40
0.0903715699239195
40
0.272297255939121
40
0.272297255939121
40
0.454222941954322
40
0.454222941954322
40
0.499704363458124
40
0.499704363458124
40
0.545185784961927
40
0.636148627969541
40
0.636148627969541
40
0.727111470977156
40
0.727111470977156
40
0.818074313984771
40
0.818074313984771
40
1
40
1
40
1
40
1
41
1
10
41.9456596598603
20
-2.53740017716632
30
0
41
1
10
41.8705395132909
20
-2.53741313251342
30
0
41
1
10
41.7956474730807
20
-2.53486902913488
30
0
41
1
10
41.5702873127553
20
-2.51960013368327
30
0
41
1
10
41.4200475042953
20
-2.49917426219201
30
0
41
1
10
41.1180171360676
20
-2.43854589899669
30
0
41
1
10
40.9667036061368
20
-2.39824627705374
30
0
41
1
10
40.7763876166698
20
-2.3351784234055
30
0
41
1
10
40.7382066705075
20
-2.32190996240766
30
0
41
1
10
40.6619889855404
20
-2.29421180475569
30
0
41
1
10
40.5479259112222
20
-2.25094707970149
30
0
41
1
10
40.4345098977452
20
-2.20265143825722
30
0
41
1
10
40.2835985403011
20
-2.13400326973925
30
0
41
1
10
40.2082950336035
20
-2.0975527291682
30
0
41
1
10
40.0576339694337
20
-2.02068668256362
30
0
41
1
10
39.9822153073532
20
-1.98031847603116
30
0
41
1
10
39.7559238820958
20
-1.85329308770019
30
0
41
1
10
39.6051624093849
20
-1.76059182734244
30
0
41
1
10
39.4535624132723
20
-1.66040114777553
30
0
0
SPLINE
5
1BB
100
AcDbEntity
8
1
62
256
6
ByLayer
370
18
48
1
60
0
100
AcDbSpline
70
4
71
3
72
28
73
24
40
0
40
0
40
0
40
0
40
0.127689459358343
40
0.127689459358343
40
0.255378918716686
40
0.255378918716686
40
0.383068378075029
40
0.383068378075029
40
0.4469131077542
40
0.4469131077542
40
0.478835472593788
40
0.478835472593788
40
0.510757837433377
40
0.510757837433377
40
0.574602567112558
40
0.574602567112558
40
0.63844729679174
40
0.63844729679174
40
0.766136756150098
40
0.766136756150098
40
0.893826215508456
40
0.893826215508456
40
1
40
1
40
1
40
1
41
1
10
37.5021265599383
20
-2.53672615862317
30
0
41
1
10
37.5981785229322
20
-2.53867087676025
30
0
41
1
10
37.6940407955105
20
-2.53639320919166
30
0
41
1
10
37.8860993579905
20
-2.5236880127394
30
0
41
1
10
37.98224777717
20
-2.51327333166339
30
0
41
1
10
38.1745568561704
20
-2.484363698701
30
0
41
1
10
38.2707560754039
20
-2.46587144439312
30
0
41
1
10
38.4151654415436
20
-2.43196495287989
30
0
41
1
10
38.4633171299694
20
-2.41963217467654
30
0
41
1
10
38.5355669621426
20
-2.39955343878356
30
0
41
1
10
38.5596570481352
20
-2.39259809071947
30
0
41
1
10
38.6078895734911
20
-2.37817257919713
30
0
41
1
10
38.6320428957993
20
-2.37070522692557
30
0
41
1
10
38.7043129640475
20
-2.34759873231656
30
0
41
1
10
38.7522283558505
20
-2.33118553478442
30
0
41
1
10
38.848099283174
20
-2.29662462950023
30
0
41
1
10
38.8960268401454
20
-2.27846799275935
30
0
41
1
10
39.0397998841293
20
-2.22143867871353
30
0
41
1
10
39.1355301772523
20
-2.17995389704075
30
0
41
1
10
39.3269379044411
20
-2.09030263670138
30
0
41
1
10
39.4226198033791
20
-2.04214083398793
30
0
41
1
10
39.5978613761997
20
-1.94783259264258
30
0
41
1
10
39.677441498333
20
-1.90272767279589
30
0
41
1
10
39.7570904477144
20
-1.85532214494049
30
0
0
SPLINE
5
1BC
100
AcDbEntity
8
1
62
256
6
ByLayer
370
18
48
1
60
0
100
AcDbSpline
70
4
71
3
72
12
73
8
40
0
40
0
40
0
40
0
40
0.499999999999981
40
0.499999999999981
40
0.749999999999991
40
0.749999999999991
40
1
40
1
40
1
40
1
41
1
10
50.5389144234201
20
0.71621656778899
30
0
41
1
10
50.5846179713167
20
0.709270241484688
30
0
41
1
10
50.629936272711
20
0.698833448434925
30
0
41
1
10
50.6974784258517
20
0.678065708126269
30
0
41
1
10
50.7199213895427
20
0.670290990728205
30
0
41
1
10
50.7645946048955
20
0.65310384484269
30
0
41
1
10
50.7868367106676
20
0.643688255707303
30
0
41
1
10
50.8089968077601
20
0.633464564082033
30
0
0
SPLINE
5
1BD
100
AcDbEntity
8
1
62
256
6
ByLayer
370
13
48
1
60
0
100
AcDbSpline
70
4
71
3
72
10
73
6
40
0
40
0
40
0
40
0
40
0.0996796841933776
40
0.567534845903442
40
1
40
1
40
1
40
1
41
1
10
50.5389144234201
20
0.716216567788962
30
0
41
1
10
50.542058192762
20
0.659419491161884
30
0
41
1
10
50.5599575139312
20
0.333144089884712
30
0
41
1
10
50.5914962374869
20
-0.264062186070646
30
0
41
1
10
50.6198911812326
20
-0.785300516173407
30
0
41
1
10
50.6335305778335
20
-1.02192361059352
30
0
0
SPLINE
5
1BE
100
AcDbEntity
8
1
62
256
6
ByLayer
370
18
48
1
60
0
100
AcDbSpline
70
4
71
3
72
10
73
6
40
0
40
0
40
0
40
0
40
0.5
40
0.5
40
1
40
1
40
1
40
1
41
1
10
50.9230746127686
20
-1.58656614763723
30
0
41
1
10
50.8755055766806
20
-1.48904849434337
30
0
41
1
10
50.8275773386882
20
-1.39298538467847
30
0
41
1
10
50.731055484758
20
-1.20452244060038
30
0
41
1
10
50.6824708192448
20
-1.11210868448325
30
0
41
1
10
50.6335305778336
20
-1.02192361059366
30
0
0
SPLINE
5
1BF
100
AcDbEntity
8
1
62
256
6
ByLayer
370
18
48
1
60
0
100
AcDbSpline
70
4
71
3
72
27
73
23
40
0
40
0
40
0
40
0
40
0.124999999999999
40
0.249999999999999
40
0.249999999999999
40
0.312499999999999
40
0.312499999999999
40
0.343749999999999
40
0.343749999999999
40
0.374999999999999
40
0.499999999999999
40
0.499999999999999
40
0.624999999999998
40
0.749999999999997
40
0.749999999999997
40
0.781249999999998
40
0.781249999999998
40
0.812499999999999
40
0.812499999999999
40
0.874999999999999
40
0.874999999999999
40
1
40
1
40
1
40
1
41
1
10
50.8089968077658
20
0.633464564093828
30
0
41
1
10
50.8137435903927
20
0.540144630948674
30
0
41
1
10
50.8232375325982
20
0.352309475282084
30
0
41
1
10
50.8327139231402
20
0.16209888464735
30
0
41
1
10
50.8398409646925
20
0.0185360108271482
30
0
41
1
10
50.8422202864014
20
-0.0294693087427333
30
0
41
1
10
50.8458013433986
20
-0.101707563237937
30
0
41
1
10
50.8469984228128
20
-0.125852708154753
30
0
41
1
10
50.8493869426883
20
-0.173996704124789
30
0
41
1
10
50.855346176647
20
-0.294081784111882
30
0
41
1
10
50.861291555427
20
-0.412809844048439
30
0
41
1
10
50.8707922870146
20
-0.601079868901735
30
0
41
1
10
50.8802693716692
20
-0.787655104034229
30
0
41
1
10
50.889720978643
20
-0.970839896790864
30
0
41
1
10
50.8956572757368
20
-1.08424370989391
30
0
41
1
10
50.8968461149285
20
-1.10687002589111
30
0
41
1
10
50.8992283929589
20
-1.1520126289507
30
0
41
1
10
50.9004223583358
20
-1.17453856902705
30
0
41
1
10
50.9039993353251
20
-1.24168222543045
30
0
41
1
10
50.906383156404
20
-1.28595218194511
30
0
41
1
10
50.9135377613867
20
-1.41729677621694
30
0
41
1
10
50.9183062460517
20
-1.50290905241667
30
0
41
1
10
50.9230746127728
20
-1.58656614763714
30
0
0
SPLINE
5
1C0
100
AcDbEntity
8
1
62
256
6
ByLayer
370
18
48
1
60
0
100
AcDbSpline
70
4
71
3
72
8
73
4
40
0
40
0
40
0
40
0
40
1
40
1
40
1
40
1
41
1
10
51.0576606822898
20
-1.72557581477045
30
0
41
1
10
51.0128147568411
20
-1.67965325529056
30
0
41
1
10
50.9679622333351
20
-1.63330801827044
30
0
41
1
10
50.9230746127636
20
-1.58656614763697
30
0
0
SPLINE
5
1C1
100
AcDbEntity
8
1
62
256
6
ByLayer
370
18
48
1
60
0
100
AcDbSpline
70
4
71
3
72
8
73
4
40
0
40
0
40
0
40
0
40
1
40
1
40
1
40
1
41
1
10
50.8089968077528
20
0.633464564092947
30
0
41
1
10
50.8597354909328
20
0.582300223243607
30
0
41
1
10
50.9104555056137
20
0.530578478760447
30
0
41
1
10
50.9611689860279
20
0.478303314613441
30
0
0
SPLINE
5
1C2
100
AcDbEntity
8
1
62
256
6
ByLayer
370
18
48
1
60
0
100
AcDbSpline
70
4
71
3
72
25
73
21
40
0
40
0
40
0
40
0
40
0.125000000000001
40
0.250000000000001
40
0.250000000000001
40
0.312500000000002
40
0.312500000000002
40
0.343750000000002
40
0.343750000000002
40
0.375000000000002
40
0.500000000000001
40
0.500000000000001
40
0.625000000000001
40
0.750000000000001
40
0.750000000000001
40
0.812500000000001
40
0.812500000000001
40
0.875
40
0.875
40
1
40
1
40
1
40
1
41
1
10
51.0576606822898
20
-1.72557581477048
30
0
41
1
10
51.0536612250428
20
-1.64487984368606
30
0
41
1
10
51.0456573402094
20
-1.47942425209882
30
0
41
1
10
51.0376640390419
20
-1.30590385878796
30
0
41
1
10
51.0316523048729
20
-1.172688025881
30
0
41
1
10
51.0296453003596
20
-1.12776938032914
30
0
41
1
10
51.0266247041346
20
-1.05960754474759
30
0
41
1
10
51.0256149266909
20
-1.03672869184805
30
0
41
1
10
51.0235970277807
20
-0.990848335736615
30
0
41
1
10
51.0185624810367
20
-0.875932978925391
30
0
41
1
10
51.0135403272521
20
-0.759960822422983
30
0
41
1
10
51.0055100017145
20
-0.573087733176123
30
0
41
1
10
50.9974954642533
20
-0.384896591321308
30
0
41
1
10
50.9894929902995
20
-0.194074087456755
30
0
41
1
10
50.9834585395849
20
-0.0499484409461104
30
0
41
1
10
50.9814389061365
20
-0.0016809227739145
30
0
41
1
10
50.9773885638875
20
0.0949432898323721
30
0
41
1
10
50.9753636241255
20
0.143138513802484
30
0
41
1
10
50.9692828740207
20
0.287376154349374
30
0
41
1
10
50.9652265296268
20
0.383071560794946
30
0
41
1
10
50.9611689860279
20
0.478303314613441
30
0
0
SPLINE
5
1C3
100
AcDbEntity
8
1
62
256
6
ByLayer
370
18
48
1
60
0
100
AcDbSpline
70
4
71
3
72
10
73
6
40
0
40
0
40
0
40
0
40
0.5
40
0.5
40
1
40
1
40
1
40
1
41
1
10
51.3476070681581
20
-1.6007758826257
30
0
41
1
10
51.2985169428055
20
-1.62942035913929
30
0
41
1
10
51.24984642743
20
-1.65410943360922
30
0
41
1
10
51.1531307644255
20
-1.69567578836856
30
0
41
1
10
51.1052018836415
20
-1.71252389176229
30
0
41
1
10
51.0576606822897
20
-1.72557581477054
30
0
0
SPLINE
5
1C4
100
AcDbEntity
8
1
62
256
6
ByLayer
370
13
48
1
60
0
100
AcDbSpline
70
4
71
3
72
10
73
6
40
0
40
0
40
0
40
0
40
0.437750145245772
40
0.904600131400228
40
1
40
1
40
1
40
1
41
1
10
51.2527871676563
20
0.0635447175335457
30
0
41
1
10
51.2666229687178
20
-0.195609571048152
30
0
41
1
10
51.2952142565299
20
-0.73302796224948
30
0
41
1
10
51.3268209896002
20
-1.28072877624007
30
0
41
1
10
51.3445918025891
20
-1.55524374765074
30
0
41
1
10
51.347607068158
20
-1.6007758826257
30
0
0
SPLINE
5
1C5
100
AcDbEntity
8
1
62
256
6
ByLayer
370
18
48
1
60
0
100
AcDbSpline
70
4
71
3
72
10
73
6
40
0
40
0
40
0
40
0
40
0.5
40
0.5
40
1
40
1
40
1
40
1
41
1
10
50.9611689860279
20
0.478303314613441
30
0
41
1
10
51.0090077808215
20
0.40295532477387
30
0
41
1
10
51.0572479377842
20
0.330527843096036
30
0
41
1
10
51.1545002918999
20
0.19204979031818
30
0
41
1
10
51.2034252661209
20
0.126089439243941
30
0
41
1
10
51.2527871676563
20
0.0635447175335457
30
0
0
SPLINE
5
1C6
100
AcDbEntity
8
1
62
256
6
ByLayer
370
18
48
1
60
0
100
AcDbSpline
70
4
71
3
72
93
73
89
40
0
40
0
40
0
40
0
40
0.0312500000000002
40
0.0312500000000002
40
0.0625000000000004
40
0.0625000000000004
40
0.0937500000000005
40
0.0937500000000005
40
0.109374999999999
40
0.1171875
40
0.1171875
40
0.125000000000001
40
0.125000000000001
40
0.140625000000002
40
0.140625000000002
40
0.156250000000004
40
0.156250000000004
40
0.187500000000007
40
0.187500000000007
40
0.250000000000013
40
0.250000000000013
40
0.281250000000016
40
0.281250000000016
40
0.312500000000019
40
0.312500000000019
40
0.328125000000019
40
0.328125000000019
40
0.343750000000019
40
0.343750000000019
40
0.37500000000002
40
0.37500000000002
40
0.39062500000002
40
0.39062500000002
40
0.39843750000002
40
0.39843750000002
40
0.40625000000002
40
0.40625000000002
40
0.437500000000023
40
0.437500000000023
40
0.468750000000026
40
0.468750000000026
40
0.484375000000026
40
0.484375000000026
40
0.492187500000026
40
0.492187500000026
40
0.500000000000026
40
0.500000000000026
40
0.515625000000024
40
0.515625000000024
40
0.523437500000023
40
0.523437500000023
40
0.531250000000022
40
0.531250000000022
40
0.562500000000019
40
0.562500000000019
40
0.593750000000016
40
0.593750000000016
40
0.601562500000015
40
0.601562500000015
40
0.609375000000014
40
0.609375000000014
40
0.625000000000013
40
0.625000000000013
40
0.632812500000012
40
0.632812500000012
40
0.640625000000011
40
0.640625000000011
40
0.656250000000009
40
0.656250000000009
40
0.671875000000008
40
0.671875000000008
40
0.687500000000007
40
0.687500000000007
40
0.718750000000004
40
0.718750000000004
40
0.750000000000002
40
0.750000000000002
40
0.78125
40
0.78125
40
0.796874999999998
40
0.796874999999998
40
0.812499999999997
40
0.812499999999997
40
0.874999999999998
40
0.874999999999998
40
0.937499999999999
40
0.937499999999999
40
1
40
1
40
1
40
1
41
1
10
39.453566319773
20
-1.66040795520328
30
0
41
1
10
39.3982789538316
20
-1.62405312012302
30
0
41
1
10
39.3420443356606
20
-1.58805578412668
30
0
41
1
10
39.2274712056907
20
-1.51734708929763
30
0
41
1
10
39.1691280062589
20
-1.48264026592346
30
0
41
1
10
39.0499440017568
20
-1.41532775633974
30
0
41
1
10
38.9890760250739
20
-1.38275757571949
30
0
41
1
10
38.8955798612365
20
-1.33614954745988
30
0
41
1
10
38.8482854495259
20
-1.31340467639657
30
0
41
1
10
38.8001327722797
20
-1.29159696527049
30
0
41
1
10
38.7678367829807
20
-1.27727652243428
30
0
41
1
10
38.751577017802
20
-1.27024546628519
30
0
41
1
10
38.7026626539464
20
-1.24927247996686
30
0
41
1
10
38.6698461920118
20
-1.23548662788434
30
0
41
1
10
38.6037859493957
20
-1.20834614702196
30
0
41
1
10
38.5705155141122
20
-1.19498107743749
30
0
41
1
10
38.4702220418305
20
-1.15567141594605
30
0
41
1
10
38.402913624251
20
-1.13058945569713
30
0
41
1
10
38.1995597884551
20
-1.059184654554
30
0
41
1
10
38.0620600057006
20
-1.01678007598406
30
0
41
1
10
37.8521220224995
20
-0.964160155300931
30
0
41
1
10
37.7815343197273
20
-0.948431543420185
30
0
41
1
10
37.6389845087782
20
-0.92119936727039
30
0
41
1
10
37.5670036182113
20
-0.909755667977549
30
0
41
1
10
37.4579189424437
20
-0.896086161270318
30
0
41
1
10
37.4214517760678
20
-0.892127913383575
30
0
41
1
10
37.3485787556299
20
-0.885502834597617
30
0
41
1
10
37.3121309580095
20
-0.882856483352242
30
0
41
1
10
37.2027522809278
20
-0.877007978341823
30
0
41
1
10
37.1297861837129
20
-0.875893941154771
30
0
41
1
10
37.0202600783849
20
-0.878791820437812
30
0
41
1
10
36.9837383550914
20
-0.880530490142718
30
0
41
1
10
36.9289350578657
20
-0.884364584656197
30
0
41
1
10
36.9106638346773
20
-0.885847255672616
30
0
41
1
10
36.8741141526761
20
-0.88924000153645
30
0
41
1
10
36.8558278077893
20
-0.891151594388646
30
0
41
1
10
36.7648462081002
20
-0.901778227562744
30
0
41
1
10
36.6931461806103
20
-0.913741277649706
30
0
41
1
10
36.5523182055689
20
-0.945729738514274
30
0
41
1
10
36.483175975349
20
-0.965714250955671
30
0
41
1
10
36.3819775053322
20
-1.0033731472472
30
0
41
1
10
36.3486663009614
20
-1.0172126399172
30
0
41
1
10
36.2994420703755
20
-1.04019875339208
30
0
41
1
10
36.2831087556363
20
-1.04826099257309
30
0
41
1
10
36.2510160080066
20
-1.06505869981322
30
0
41
1
10
36.2352587268056
20
-1.07378940118861
30
0
41
1
10
36.1889306491997
20
-1.10105213724211
30
0
41
1
10
36.1592915812705
20
-1.12064154564777
30
0
41
1
10
36.1169904076665
20
-1.1524029378906
30
0
41
1
10
36.1032520862357
20
-1.16338898046169
30
0
41
1
10
36.0765682175791
20
-1.18622133339517
30
0
41
1
10
36.0636397725227
20
-1.19806179478132
30
0
41
1
10
36.0021964789539
20
-1.25849705260075
30
0
41
1
10
35.962331655711
20
-1.31155909145599
30
0
41
1
10
35.9041035998787
20
-1.42712618323563
30
0
41
1
10
35.887780777037
20
-1.48583333762266
30
0
41
1
10
35.8808437978461
20
-1.55938350699259
30
0
41
1
10
35.8801501529607
20
-1.57397332230795
30
0
41
1
10
35.880024051437
20
-1.60273531994699
30
0
41
1
10
35.8806078591669
20
-1.61693686684097
30
0
41
1
10
35.8838848643687
20
-1.65904142127354
30
0
41
1
10
35.8881536871625
20
-1.68644055804052
30
0
41
1
10
35.8977898982508
20
-1.72655058147541
30
0
41
1
10
35.9015392416481
20
-1.7397558865479
30
0
41
1
10
35.9101145160214
20
-1.76584060252262
30
0
41
1
10
35.9149306552102
20
-1.77867908871886
30
0
41
1
10
35.930740768358
20
-1.81623876233905
30
0
41
1
10
35.9431862794524
20
-1.84014969456413
30
0
41
1
10
35.9710357595475
20
-1.88610577615145
30
0
41
1
10
35.9864210512043
20
-1.90815571070888
30
0
41
1
10
36.0194899029198
20
-1.9506752106513
30
0
41
1
10
36.0371764640088
20
-1.9711434501674
30
0
41
1
10
36.0930380958421
20
-2.03046033792154
30
0
41
1
10
36.1333062028022
20
-2.06657113671253
30
0
41
1
10
36.2175972595966
20
-2.13355704367478
30
0
41
1
10
36.2616645213792
20
-2.16443324529737
30
0
41
1
10
36.3524770121781
20
-2.22187978198713
30
0
41
1
10
36.3992349721686
20
-2.24844066544009
30
0
41
1
10
36.4708880794119
20
-2.28543132246617
30
0
41
1
10
36.4950287610916
20
-2.29728383447406
30
0
41
1
10
36.5437545378402
20
-2.32007927210066
30
0
41
1
10
36.5683058849091
20
-2.33100654124718
30
0
41
1
10
36.6914692684873
20
-2.38323628160504
30
0
41
1
10
36.7916383588562
20
-2.41759162548041
30
0
41
1
10
36.9932926896609
20
-2.47344096992518
30
0
41
1
10
37.094797661562
20
-2.49490360055825
30
0
41
1
10
37.2982146196784
20
-2.52533560183247
30
0
41
1
10
37.4001303688817
20
-2.53429338015536
30
0
41
1
10
37.5021216998217
20
-2.53672614557846
30
0
0
SPLINE
5
1C7
100
AcDbEntity
8
1
62
256
6
ByLayer
370
18
48
1
60
0
100
AcDbSpline
70
4
71
3
72
22
73
18
40
0
40
0
40
0
40
0
40
0.104408094078763
40
0.104408094078763
40
0.234270296805318
40
0.234270296805318
40
0.364132499531872
40
0.364132499531872
40
0.493994702258426
40
0.493994702258426
40
0.623856904984981
40
0.623856904984981
40
0.753719107711534
40
0.753719107711534
40
0.883581310438089
40
0.883581310438089
40
1
40
1
40
1
40
1
41
1
10
38.0942956288533
20
-1.02570157812093
30
0
41
1
10
38.0522876519661
20
-1.05249791186807
30
0
41
1
10
38.0112998146557
20
-1.08386814220611
30
0
41
1
10
37.9245850565871
20
-1.16232963234771
30
0
41
1
10
37.8796294359973
20
-1.21159916481693
30
0
41
1
10
37.7956748787657
20
-1.32119224592583
30
0
41
1
10
37.756749545575
20
-1.38163513799074
30
0
41
1
10
37.6869507242642
20
-1.50855361849565
30
0
41
1
10
37.6556694354313
20
-1.57551551164843
30
0
41
1
10
37.5993973719439
20
-1.71552905634726
30
0
41
1
10
37.5738218346642
20
-1.78772198557459
30
0
41
1
10
37.5345301394615
20
-1.93579759286999
30
0
41
1
10
37.5202970350881
20
-2.01196722267383
30
0
41
1
10
37.5009799841842
20
-2.16790990723467
30
0
41
1
10
37.4959473333349
20
-2.24811191206848
30
0
41
1
10
37.4943509846727
20
-2.397321683207
30
0
41
1
10
37.4968144456665
20
-2.46727845728265
30
0
41
1
10
37.5021217241367
20
-2.53672646375159
30
0
0
SPLINE
5
1C8
100
AcDbEntity
8
SK1
62
256
6
ByLayer
370
18
48
1
60
0
100
AcDbSpline
70
4
71
3
72
22
73
18
40
0
40
0
40
0
40
0
40
0.125064128007112
40
0.125064128007112
40
0.187596192010668
40
0.187596192010668
40
0.250128256014224
40
0.250128256014224
40
0.500256512028447
40
0.500256512028447
40
0.625320640035559
40
0.625320640035559
40
0.750384768042671
40
0.750384768042671
40
0.875448896049783
40
0.875448896049783
40
1
40
1
40
1
40
1
41
1
10
-21.87
20
2.42499999999998
30
0
41
1
10
-21.9161286994883
20
2.42499999999998
30
0
41
1
10
-21.9611809603311
20
2.42499999999998
30
0
41
1
10
-22.0267735041401
20
2.42499999999998
30
0
41
1
10
-22.0483224129895
20
2.42499999999998
30
0
41
1
10
-22.0905995560873
20
2.42499999999998
30
0
41
1
10
-22.1113088348484
20
2.42499999999998
30
0
41
1
10
-22.2125001674621
20
2.42499999999998
30
0
41
1
10
-22.2860194291454
20
2.42499999999998
30
0
41
1
10
-22.3799881112948
20
2.42499999999998
30
0
41
1
10
-22.4085719462844
20
2.42499999999998
30
0
41
1
10
-22.4591338700697
20
2.42499999999998
30
0
41
1
10
-22.4811148066356
20
2.42499999999998
30
0
41
1
10
-22.5171473245934
20
2.42499999999998
30
0
41
1
10
-22.5308921377331
20
2.42499999999998
30
0
41
1
10
-22.5492656356126
20
2.42499999999998
30
0
41
1
10
-22.5539296342784
20
2.42499999999998
30
0
41
1
10
-22.553960000001
20
2.42499999999998
30
0
0
SPLINE
5
1C9
100
AcDbEntity
8
SK1
62
256
6
ByLayer
370
18
48
1
60
0
100
AcDbSpline
70
4
71
3
72
23
73
19
40
0
40
0
40
0
40
0
40
0.0003019553309727
40
0.125264210914601
40
0.125264210914601
40
0.250226466498229
40
0.250226466498229
40
0.375188722081858
40
0.375188722081858
40
0.500150977665486
40
0.500150977665486
40
0.750075488832743
40
0.750075488832743
40
0.812556616624557
40
0.812556616624557
40
0.875037744416372
40
0.875037744416372
40
1
40
1
40
1
40
1
41
1
10
-22.5539592396048
20
-2.42500000000001
30
0
41
1
10
-22.5539602397048
20
-2.42500000000001
30
0
41
1
10
-22.5539789525887
20
-2.42500000000001
30
0
41
1
10
-22.5493033979172
20
-2.42500000000004
30
0
41
1
10
-22.5308921377331
20
-2.42500000000004
30
0
41
1
10
-22.5171473245934
20
-2.42500000000004
30
0
41
1
10
-22.4811148066356
20
-2.42500000000004
30
0
41
1
10
-22.4591338700697
20
-2.42500000000004
30
0
41
1
10
-22.4085719462844
20
-2.42500000000004
30
0
41
1
10
-22.3799881112948
20
-2.42500000000004
30
0
41
1
10
-22.2860194291454
20
-2.42500000000004
30
0
41
1
10
-22.2125001674621
20
-2.42500000000004
30
0
41
1
10
-22.1113088348484
20
-2.42500000000004
30
0
41
1
10
-22.0905995560873
20
-2.42500000000004
30
0
41
1
10
-22.0483224129895
20
-2.42500000000004
30
0
41
1
10
-22.0267735041401
20
-2.42500000000004
30
0
41
1
10
-21.9611809603311
20
-2.42500000000004
30
0
41
1
10
-21.9161286994882
20
-2.42500000000004
30
0
41
1
10
-21.87
20
-2.42500000000001
30
0
0
SPLINE
5
1CA
100
AcDbEntity
8
SK1
62
256
6
ByLayer
370
18
48
1
60
0
100
AcDbSpline
70
4
71
3
72
39
73
35
40
0
40
0
40
0
40
0
40
0.125
40
0.125
40
0.15625
40
0.15625
40
0.1875
40
0.1875
40
0.25
40
0.25
40
0.375
40
0.375
40
0.40625
40
0.40625
40
0.421875
40
0.421875
40
0.4375
40
0.4375
40
0.5
40
0.5625
40
0.5625
40
0.625
40
0.625
40
0.6875
40
0.6875
40
0.75
40
0.75
40
0.875
40
0.875
40
0.90625
40
0.90625
40
0.9375
40
0.9375
40
1
40
1
40
1
40
1
41
1
10
-21.8700000000001
20
-1.94550951722172
30
0
41
1
10
-21.9617651518119
20
-1.79886711642567
30
0
41
1
10
-22.0492873517802
20
-1.64913452522694
30
0
41
1
10
-22.1505892647162
20
-1.45606885388207
30
0
41
1
10
-22.1704385682289
20
-1.41715632601688
30
0
41
1
10
-22.2092172904702
20
-1.33866130766719
30
0
41
1
10
-22.2280943359419
20
-1.2991823626638
30
0
41
1
10
-22.2829175461676
20
-1.18024215816848
30
0
41
1
10
-22.3171107315207
20
-1.100177554439
30
0
41
1
10
-22.4112462683972
20
-0.857219516933043
30
0
41
1
10
-22.4628058776618
20
-0.691581916396188
30
0
41
1
10
-22.5076299776698
20
-0.478110359126191
30
0
41
1
10
-22.5156089333792
20
-0.435093316048409
30
0
41
1
10
-22.5259821127037
20
-0.370045530477853
30
0
41
1
10
-22.5291781080732
20
-0.348242856020761
30
0
41
1
10
-22.534994808535
20
-0.304643440516486
30
0
41
1
10
-22.537615614096
20
-0.282853877047046
30
0
41
1
10
-22.5492720364585
20
-0.173957129743428
30
0
41
1
10
-22.5586325615654
20
-5.00669868018E-05
30
0
41
1
10
-22.5493033979172
20
0.173197642612138
30
0
41
1
10
-22.5308921377331
20
0.346124945108073
30
0
41
1
10
-22.5171473245934
20
0.432428458607632
30
0
41
1
10
-22.4811148066356
20
0.604734101101201
30
0
41
1
10
-22.4591338700697
20
0.689343813069286
30
0
41
1
10
-22.4085719462844
20
0.855900645063912
30
0
41
1
10
-22.3799881112948
20
0.937864176391628
30
0
41
1
10
-22.2860194291454
20
1.18048348504715
30
0
41
1
10
-22.2125001674621
20
1.33790092513371
30
0
41
1
10
-22.1113088348484
20
1.53097344768682
30
0
41
1
10
-22.0905995560873
20
1.56940044067241
30
0
41
1
10
-22.0483224129895
20
1.64591262089519
30
0
41
1
10
-22.0267735041401
20
1.68396212476608
30
0
41
1
10
-21.9611809603311
20
1.79726421471696
30
0
41
1
10
-21.9161286994883
20
1.87179500681108
30
0
41
1
10
-21.87
20
1.94550951722161
30
0
0
SPLINE
5
1CB
100
AcDbEntity
8
1
62
256
6
ByLayer
370
18
48
1
60
0
100
AcDbSpline
70
4
71
2
72
6
73
3
40
0
40
0
40
0
40
1
40
1
40
1
41
1
10
55.3311802562297
20
-2.69996567571934
30
0
41
1
10
55.3938707670357
20
-2.80815016064102
30
0
41
1
10
55.4565470226038
20
-2.91637052953797
30
0
0
SPLINE
5
1CC
100
AcDbEntity
8
1
62
256
6
ByLayer
370
18
48
1
60
0
100
AcDbSpline
70
4
71
2
72
6
73
3
40
0
40
0
40
0
40
1
40
1
40
1
41
1
10
48.9759875308999
20
-2.69192031965648
30
0
41
1
10
49.0313854506558
20
-2.78736805232902
30
0
41
1
10
49.0867593938172
20
-2.88287147323703
30
0
0
SPLINE
5
1CD
100
AcDbEntity
8
1
62
256
6
ByLayer
370
18
48
1
60
0
100
AcDbSpline
70
4
71
2
72
6
73
3
40
0
40
0
40
0
40
1
40
1
40
1
41
1
10
54.9106729926716
20
-3.06218327553785
30
0
41
1
10
55.0173712740213
20
-2.87819122897798
30
0
41
1
10
55.1242795394911
20
-2.69412359938099
30
0
0
SPLINE
5
1CE
100
AcDbEntity
8
1
62
256
6
ByLayer
370
18
48
1
60
0
100
AcDbSpline
70
4
71
2
72
6
73
3
40
0
40
0
40
0
40
1
40
1
40
1
41
1
10
48.6993422749697
20
-2.82369831313415
30
0
41
1
10
48.7374847438393
20
-2.75798289487855
30
0
41
1
10
48.7756398611332
20
-2.69229863368847
30
0
0
SPLINE
5
1CF
100
AcDbEntity
8
1
62
256
6
ByLayer
370
18
48
1
60
0
100
AcDbSpline
70
4
71
1
72
4
73
2
40
0
40
0
40
1
40
1
41
1
10
53.7433677909389
20
-3.09207173215145
30
0
41
1
10
53.8124307657346
20
-3.21129452886333
30
0
0
SPLINE
5
1D0
100
AcDbEntity
8
1
62
256
6
ByLayer
370
18
48
1
60
0
100
AcDbSpline
70
4
71
1
72
4
73
2
40
0
40
0
40
1
40
1
41
1
10
51.7574409971909
20
-0.399616201383651
30
0
41
1
10
51.8565020102719
20
-0.497775088487913
30
0
0
SPLINE
5
1D1
100
AcDbEntity
8
1
62
256
6
ByLayer
370
18
48
1
60
0
100
AcDbSpline
70
4
71
2
72
6
73
3
40
0
40
0
40
0
40
1
40
1
40
1
41
1
10
55.958570121493
20
-2.81945223365526
30
0
41
1
10
55.9951048791783
20
-2.75648905981239
30
0
41
1
10
56.0316646312546
20
-2.69354088901636
30
0
0
SPLINE
5
1D2
100
AcDbEntity
8
1
62
256
6
ByLayer
370
18
48
1
60
0
100
AcDbSpline
70
4
71
2
72
6
73
3
40
0
40
0
40
0
40
1
40
1
40
1
41
1
10
49.6846059146874
20
-2.68862407439229
30
0
41
1
10
49.7166210882223
20
-2.63144933652723
30
0
41
1
10
49.792789537317
20
-2.64230994518391
30
0
0
SPLINE
5
1D3
100
AcDbEntity
8
1
62
256
6
ByLayer
370
18
48
1
60
0
100
AcDbSpline
70
4
71
2
72
6
73
3
40
0
40
0
40
0
40
1
40
1
40
1
41
1
10
51.2442297150931
20
2.69282319415427
30
0
41
1
10
51.1993996753503
20
2.61758998343845
30
0
41
1
10
51.1294464110792
20
2.64987115239754
30
0
0
SPLINE
5
1D4
100
AcDbEntity
8
1
62
256
6
ByLayer
370
18
48
1
60
0
100
AcDbSpline
70
4
71
2
72
6
73
3
40
0
40
0
40
0
40
1
40
1
40
1
41
1
10
49.5170939065271
20
-2.9775977707734
30
0
41
1
10
49.5988993269447
20
-2.83654366870058
30
0
41
1
10
49.6807546884083
20
-2.6955653748571
30
0
0
SPLINE
5
1D5
100
AcDbEntity
8
1
62
256
6
ByLayer
370
18
48
1
60
0
100
AcDbSpline
70
4
71
1
72
4
73
2
40
0
40
0
40
1
40
1
41
1
10
55.4831578130712
20
-2.93348722172348
30
0
41
1
10
55.9551350596633
20
-2.82399225889745
30
0
0
SPLINE
5
1D6
100
AcDbEntity
8
1
62
256
6
ByLayer
370
18
48
1
60
0
100
AcDbSpline
70
4
71
2
72
6
73
3
40
0
40
0
40
0
40
1
40
1
40
1
41
1
10
51.544692871388
20
3.21125401942084
30
0
41
1
10
51.394375739856
20
2.95162355115772
30
0
41
1
10
51.2436636116137
20
2.69179522003523
30
0
0
SPLINE
5
1D7
100
AcDbEntity
8
1
62
256
6
ByLayer
370
18
48
1
60
0
100
AcDbSpline
70
4
71
3
72
11
73
7
40
0
40
0
40
0
40
0
40
0.258911594656475
40
0.516354827890237
40
0.764776883171016
40
1
40
1
40
1
40
1
41
1
10
55.1247120438739
20
-2.69339095558877
30
0
41
1
10
55.1344203315476
20
-2.67604634618632
30
0
41
1
10
55.1606704963647
20
-2.65079703488323
30
0
41
1
10
55.2334642550253
20
-2.6316848035537
30
0
41
1
10
55.297488038352
20
-2.65708410418588
30
0
41
1
10
55.3190675543779
20
-2.67891126248966
30
0
41
1
10
55.3260793241466
20
-2.69254726435898
30
0
0
SPLINE
5
1D8
100
AcDbEntity
8
1
62
256
6
ByLayer
370
18
48
1
60
0
100
AcDbSpline
70
4
71
2
72
6
73
3
40
0
40
0
40
0
40
1
40
1
40
1
41
1
10
51.9512538369547
20
2.69086180327159
30
0
41
1
10
51.8011376408411
20
2.94926350604521
30
0
41
1
10
51.6512156867563
20
3.20799499092564
30
0
0
SPLINE
5
1D9
100
AcDbEntity
8
1
62
256
6
ByLayer
370
18
48
1
60
0
100
AcDbSpline
70
4
71
3
72
11
73
7
40
0
40
0
40
0
40
0
40
0.213404193446705
40
0.45408236702147
40
0.719388309267878
40
1
40
1
40
1
40
1
41
1
10
48.7751502844343
20
-2.69317196157371
30
0
41
1
10
48.7808966606964
20
-2.68158175909747
30
0
41
1
10
48.7998221077013
20
-2.66140316246597
30
0
41
1
10
48.8580712839622
20
-2.63279204681876
30
0
41
1
10
48.9362027535846
20
-2.64694353608954
30
0
41
1
10
48.9653897162576
20
-2.67375694895759
30
0
41
1
10
48.9768747742721
20
-2.69350063246472
30
0
0
SPLINE
5
1DA
100
AcDbEntity
8
1
62
256
6
ByLayer
370
18
48
1
60
0
100
AcDbSpline
70
4
71
3
72
10
73
6
40
0
40
0
40
0
40
0
40
0.465404762706102
40
0.727701753954989
40
1
40
1
40
1
40
1
41
1
10
52.1500759549886
20
2.69050814908974
30
0
41
1
10
52.1319166197766
20
2.65911423460605
30
0
41
1
10
52.0941539336635
20
2.63320477404144
30
0
41
1
10
51.9904062204569
20
2.64565077052066
30
0
41
1
10
51.961602707216
20
2.67377040998926
30
0
41
1
10
51.9498324424928
20
2.69344084489666
30
0
0
SPLINE
5
1DB
100
AcDbEntity
8
1
62
256
6
ByLayer
370
18
48
1
60
0
100
AcDbSpline
70
4
71
1
72
4
73
2
40
0
40
0
40
1
40
1
41
1
10
54.6855203304981
20
-3.11840927463831
30
0
41
1
10
54.9297848094236
20
-3.06174413602375
30
0
0
SPLINE
5
1DC
100
AcDbEntity
8
1
62
256
6
ByLayer
370
18
48
1
60
0
100
AcDbSpline
70
4
71
2
72
6
73
3
40
0
40
0
40
0
40
1
40
1
40
1
41
1
10
54.4184698547858
20
-2.69170040725942
30
0
41
1
10
54.535277547305
20
-2.89305246246468
30
0
41
1
10
54.6517864022287
20
-3.0942001183829
30
0
0
SPLINE
5
1DD
100
AcDbEntity
8
1
62
256
6
ByLayer
370
18
48
1
60
0
100
AcDbSpline
70
4
71
3
72
11
73
7
40
0
40
0
40
0
40
0
40
0.242321393189855
40
0.500520307197376
40
0.758409502642948
40
1
40
1
40
1
40
1
41
1
10
54.2078924186181
20
-2.70411993107351
30
0
41
1
10
54.2176751222107
20
-2.68520999821604
30
0
41
1
10
54.2442058241528
20
-2.65528922995065
30
0
41
1
10
54.3143466599217
20
-2.63012276079084
30
0
41
1
10
54.3845476218872
20
-2.65127445595934
30
0
41
1
10
54.4110974430191
20
-2.67834912500925
30
0
41
1
10
54.4209018084983
20
-2.69582356287543
30
0
0
SPLINE
5
1DE
100
AcDbEntity
8
1
62
256
6
ByLayer
370
18
48
1
60
0
100
AcDbSpline
70
4
71
2
72
6
73
3
40
0
40
0
40
0
40
1
40
1
40
1
41
1
10
48.0689257558815
20
-2.69205294849345
30
0
41
1
10
48.0909234961865
20
-2.72995942332352
30
0
41
1
10
48.1129191299271
20
-2.76787443697637
30
0
0
SPLINE
5
1DF
100
AcDbEntity
8
1
62
256
6
ByLayer
370
18
48
1
60
0
100
AcDbSpline
70
4
71
2
72
6
73
3
40
0
40
0
40
0
40
1
40
1
40
1
41
1
10
52.4532778398122
20
3.21361375919057
30
0
41
1
10
52.3038442730771
20
2.95548960193415
30
0
41
1
10
52.1543391216164
20
2.69757316597432
30
0
0
SPLINE
5
1E0
100
AcDbEntity
8
1
62
256
6
ByLayer
370
18
48
1
60
0
100
AcDbSpline
70
4
71
2
72
6
73
3
40
0
40
0
40
0
40
1
40
1
40
1
41
1
10
47.9668873655547
20
-2.64750598420184
30
0
41
1
10
48.0342611241857
20
-2.62426674130143
30
0
41
1
10
48.0665456782316
20
-2.68732031701006
30
0
0
SPLINE
5
1E1
100
AcDbEntity
8
1
62
256
6
ByLayer
370
18
48
1
60
0
100
AcDbSpline
70
4
71
2
72
6
73
3
40
0
40
0
40
0
40
1
40
1
40
1
41
1
10
52.8554405853114
20
2.69584615898106
30
0
41
1
10
52.7055110221891
20
2.95412268985294
30
0
41
1
10
52.5557281330409
20
3.21262833409489
30
0
0
SPLINE
5
1E2
100
AcDbEntity
8
1
62
256
6
ByLayer
370
18
48
1
60
0
100
AcDbSpline
70
4
71
2
72
6
73
3
40
0
40
0
40
0
40
1
40
1
40
1
41
1
10
52.9086616750116
20
2.65052424522688
30
0
41
1
10
52.8586292114676
20
2.66702839284238
30
0
41
1
10
52.8568584369385
20
2.69353444778255
30
0
0
LINE
5
83
100
AcDbEntity
8
81
62
256
6
ByLayer
370
18
48
1
60
0
100
AcDbLine
10
57.13
20
0
30
0
11
62.13
21
0
31
0
39
0
210
0
220
0
230
1
0
LINE
5
84
100
AcDbEntity
8
SK4
62
256
6
ByLayer
370
18
48
0.05
60
0
100
AcDbLine
10
-27.87
20
0
30
0
11
62.13
21
0
31
0
39
0
210
0
220
0
230
1
0
LINE
5
86
100
AcDbEntity
8
80
62
256
6
ByLayer
370
18
48
1
60
0
100
AcDbLine
10
0
20
0
30
0
11
-5
21
0
31
0
39
0
210
0
220
0
230
1
0
LINE
5
87
100
AcDbEntity
8
4
62
256
6
ByLayer
370
18
48
0.05
60
0
100
AcDbLine
10
-5
20
0
30
0
11
62.13
21
0
31
0
39
0
210
0
220
0
230
1
0
LINE
5
89
100
AcDbEntity
8
1
62
256
6
ByLayer
370
18
48
1
60
0
100
AcDbLine
10
0
20
3.2385
30
0
11
0
21
-3.2385
31
0
39
0
210
0
220
0
230
1
0
LINE
5
8A
100
AcDbEntity
8
1
62
256
6
ByLayer
370
18
48
1
60
0
100
AcDbLine
10
57.23
20
2.34
30
0
11
57.23
21
2.339264
31
0
39
0
210
0
220
0
230
1
0
LINE
5
8B
100
AcDbEntity
8
1
62
256
6
ByLayer
370
18
48
1
60
0
100
AcDbLine
10
55.957109
20
-2.821965
30
0
11
55.952543
21
-2.822173
31
0
39
0
210
0
220
0
230
1
0
LINE
5
8C
100
AcDbEntity
8
1
62
256
6
ByLayer
370
18
48
1
60
0
100
AcDbLine
10
51.94893
20
2.694943
30
0
11
51.951285
21
2.690801
31
0
39
0
210
0
220
0
230
1
0
LINE
5
8D
100
AcDbEntity
8
1
62
256
6
ByLayer
370
18
48
1
60
0
100
AcDbLine
10
54.418606
20
-2.691952
30
0
11
54.421177
21
-2.696242
31
0
39
0
210
0
220
0
230
1
0
LINE
5
8E
100
AcDbEntity
8
1
62
256
6
ByLayer
370
18
48
1
60
0
100
AcDbLine
10
52.150794
20
2.691863
30
0
11
52.15445
21
2.697725
31
0
39
0
210
0
220
0
230
1
0
LINE
5
8F
100
AcDbEntity
8
1
62
256
6
ByLayer
370
18
48
1
60
0
100
AcDbLine
10
52.451476
20
3.210504
30
0
11
52.456594
21
3.216137
31
0
39
0
210
0
220
0
230
1
0
LINE
5
90
100
AcDbEntity
8
1
62
256
6
ByLayer
370
18
48
1
60
0
100
AcDbLine
10
47.13
20
2.614831
30
0
11
47.13
21
1.937073
31
0
39
0
210
0
220
0
230
1
0
LINE
5
91
100
AcDbEntity
8
1
62
256
6
ByLayer
370
18
48
1
60
0
100
AcDbLine
10
47.13
20
-1.616693
30
0
11
47.13
21
-2.520783
31
0
39
0
210
0
220
0
230
1
0
LINE
5
92
100
AcDbEntity
8
1
62
256
6
ByLayer
370
13
48
1
60
0
100
AcDbLine
10
46.714398
20
-2.281187
30
0
11
46.714398
21
-1.268909
31
0
39
0
210
0
220
0
230
1
0
LINE
5
93
100
AcDbEntity
8
1
62
256
6
ByLayer
370
13
48
1
60
0
100
AcDbLine
10
46.714398
20
2.10285
30
0
11
46.714398
21
2.5374
31
0
39
0
210
0
220
0
230
1
0
LINE
5
94
100
AcDbEntity
8
1
62
256
6
ByLayer
370
13
48
1
60
0
100
AcDbLine
10
32.226238
20
-2.5374
30
0
11
32.226238
21
2.5374
31
0
39
0
210
0
220
0
230
1
0
LINE
5
95
100
AcDbEntity
8
1
62
256
6
ByLayer
370
18
48
1
60
0
100
AcDbLine
10
57.23
20
0.119381
30
0
11
57.23
21
-1.220457
31
0
39
0
210
0
220
0
230
1
0
LINE
5
96
100
AcDbEntity
8
1
62
256
6
ByLayer
370
13
48
1
60
0
100
AcDbLine
10
32.035225
20
2.554111
30
0
11
32.035225
21
-2.554111
31
0
39
0
210
0
220
0
230
1
0
LINE
5
97
100
AcDbEntity
8
1
62
256
6
ByLayer
370
18
48
1
60
0
100
AcDbLine
10
28.153864
20
3.2385
30
0
11
28.153864
21
-3.2385
31
0
39
0
210
0
220
0
230
1
0
LINE
5
98
100
AcDbEntity
8
SK1
62
256
6
ByLayer
370
18
48
1
60
0
100
AcDbLine
10
-22.87
20
2.10896
30
0
11
-22.87
21
-2.10896
31
0
39
0
210
0
220
0
230
1
0
LINE
5
9A
100
AcDbEntity
8
SK1
62
256
6
ByLayer
370
18
48
1
60
0
100
AcDbLine
10
-15
20
2.425
30
0
11
-14.31604
21
3.10896
31
0
39
0
210
0
220
0
230
1
0
LINE
5
9B
100
AcDbEntity
8
SK1
62
256
6
ByLayer
370
18
48
1
60
0
100
AcDbLine
10
-21.87
20
2.425
30
0
11
-15
21
2.425
31
0
39
0
210
0
220
0
230
1
0
LINE
5
9C
100
AcDbEntity
8
SK1
62
256
6
ByLayer
370
18
48
1
60
0
100
AcDbLine
10
-21.87
20
1.94551
30
0
11
-21.87
21
2.425
31
0
39
0
210
0
220
0
230
1
0
LINE
5
9D
100
AcDbEntity
8
SK1
62
256
6
ByLayer
370
18
48
1
60
0
100
AcDbLine
10
-15
20
1.94551
30
0
11
-21.87
21
1.94551
31
0
39
0
210
0
220
0
230
1
0
LINE
5
9E
100
AcDbEntity
8
SK1
62
256
6
ByLayer
370
18
48
1
60
0
100
AcDbLine
10
-21.87
20
-1.94551
30
0
11
-15
21
-1.94551
31
0
39
0
210
0
220
0
230
1
0
LINE
5
9F
100
AcDbEntity
8
SK1
62
256
6
ByLayer
370
18
48
1
60
0
100
AcDbLine
10
-21.87
20
-2.425
30
0
11
-21.87
21
-1.94551
31
0
39
0
210
0
220
0
230
1
0
LINE
5
A0
100
AcDbEntity
8
SK1
62
256
6
ByLayer
370
18
48
1
60
0
100
AcDbLine
10
-15
20
-2.425
30
0
11
-21.87
21
-2.425
31
0
39
0
210
0
220
0
230
1
0
LINE
5
A1
100
AcDbEntity
8
SK1
62
256
6
ByLayer
370
18
48
1
60
0
100
AcDbLine
10
-15
20
-2.425
30
0
11
-14.31604
21
-3.10896
31
0
39
0
210
0
220
0
230
1
0
LINE
5
A2
100
AcDbEntity
8
SK1
62
256
6
ByLayer
370
18
48
1
60
0
100
AcDbLine
10
-15
20
1.94551
30
0
11
-15
21
-1.94551
31
0
39
0
210
0
220
0
230
1
0
LINE
5
A3
100
AcDbEntity
8
SK1
62
256
6
ByLayer
370
18
48
1
60
0
100
AcDbLine
10
-14.213
20
3.10896
30
0
11
-14.213
21
-3.10896
31
0
39
0
210
0
220
0
230
1
0
LINE
5
A4
100
AcDbEntity
8
SK1
62
256
6
ByLayer
370
18
48
1
60
0
100
AcDbLine
10
0
20
3.2385
30
0
11
0
21
-3.2385
31
0
39
0
210
0
220
0
230
1
0
LINE
5
A5
100
AcDbEntity
8
SK1
62
256
6
ByLayer
370
18
48
1
60
0
100
AcDbLine
10
-14.08346
20
-3.2385
30
0
11
-14.08346
21
3.2385
31
0
39
0
210
0
220
0
230
1
0
LINE
5
A6
100
AcDbEntity
8
1
62
256
6
ByLayer
370
18
48
1
60
0
100
AcDbLine
10
57.23
20
2.34
30
0
11
57.158058
21
2.411942
31
0
39
0
210
0
220
0
230
1
0
LINE
5
A7
100
AcDbEntity
8
1
62
256
6
ByLayer
370
18
48
1
60
0
100
AcDbLine
10
49.112319
20
-2.917702
30
0
11
49.512191
21
-2.9739
31
0
39
0
210
0
220
0
230
1
0
LINE
5
A8
100
AcDbEntity
8
1
62
256
6
ByLayer
370
18
48
1
60
0
100
AcDbLine
10
48.125158
20
-2.778965
30
0
11
48.672874
21
-2.855942
31
0
39
0
210
0
220
0
230
1
0
LINE
5
A9
100
AcDbEntity
8
1
62
256
6
ByLayer
370
18
48
1
60
0
100
AcDbLine
10
28.153864
20
3.2385
30
0
11
0
21
3.2385
31
0
39
0
210
0
220
0
230
1
0
LINE
5
AA
100
AcDbEntity
8
1
62
256
6
ByLayer
370
18
48
1
60
0
100
AcDbLine
10
0
20
-3.2385
30
0
11
28.153864
21
-3.2385
31
0
39
0
210
0
220
0
230
1
0
LINE
5
AB
100
AcDbEntity
8
1
62
256
6
ByLayer
370
18
48
1
60
0
100
AcDbLine
10
51.640095
20
3.217762
30
0
11
51.55403
21
3.217762
31
0
39
0
210
0
220
0
230
1
0
LINE
5
AC
100
AcDbEntity
8
1
62
256
6
ByLayer
370
18
48
1
60
0
100
AcDbLine
10
52.547206
20
3.217762
30
0
11
52.461175
21
3.217762
31
0
39
0
210
0
220
0
230
1
0
LINE
5
AD
100
AcDbEntity
8
1
62
256
6
ByLayer
370
18
48
1
60
0
100
AcDbLine
10
32.226238
20
-2.5374
30
0
11
37.56917
21
-2.5374
31
0
39
0
210
0
220
0
230
1
0
LINE
5
AE
100
AcDbEntity
8
1
62
256
6
ByLayer
370
18
48
1
60
0
100
AcDbLine
10
41.945584
20
-2.5374
30
0
11
43.667618
21
-2.5374
31
0
39
0
210
0
220
0
230
1
0
LINE
5
AF
100
AcDbEntity
8
1
62
256
6
ByLayer
370
18
48
1
60
0
100
AcDbLine
10
46.714123
20
2.5374
30
0
11
44.988774
21
2.5374
31
0
39
0
210
0
220
0
230
1
0
LINE
5
B0
100
AcDbEntity
8
1
62
256
6
ByLayer
370
18
48
1
60
0
100
AcDbLine
10
40.619579
20
2.5374
30
0
11
38.726568
21
2.5374
31
0
39
0
210
0
220
0
230
1
0
LINE
5
B1
100
AcDbEntity
8
1
62
256
6
ByLayer
370
18
48
1
60
0
100
AcDbLine
10
36.013181
20
2.5374
30
0
11
32.226238
21
2.5374
31
0
39
0
210
0
220
0
230
1
0
LINE
5
B2
100
AcDbEntity
8
1
62
256
6
ByLayer
370
18
48
1
60
0
100
AcDbLine
10
32.035225
20
2.554111
30
0
11
28.153864
21
3.2385
31
0
39
0
210
0
220
0
230
1
0
LINE
5
B3
100
AcDbEntity
8
1
62
256
6
ByLayer
370
18
48
1
60
0
100
AcDbLine
10
28.153864
20
-3.2385
30
0
11
32.035225
21
-2.554111
31
0
39
0
210
0
220
0
230
1
0
LINE
5
B4
100
AcDbEntity
8
SK1
62
256
6
ByLayer
370
18
48
1
60
0
100
AcDbLine
10
-22.87
20
-2.10896
30
0
11
-22.55396
21
-2.425
31
0
39
0
210
0
220
0
230
1
0
LINE
5
B5
100
AcDbEntity
8
SK1
62
256
6
ByLayer
370
18
48
1
60
0
100
AcDbLine
10
-22.55396
20
2.425
30
0
11
-22.87
21
2.10896
31
0
39
0
210
0
220
0
230
1
0
LINE
5
B6
100
AcDbEntity
8
SK1
62
256
6
ByLayer
370
18
48
1
60
0
100
AcDbLine
10
-14.213
20
3.10896
30
0
11
-14.31604
21
3.10896
31
0
39
0
210
0
220
0
230
1
0
LINE
5
B7
100
AcDbEntity
8
SK1
62
256
6
ByLayer
370
18
48
1
60
0
100
AcDbLine
10
-14.31604
20
-3.10896
30
0
11
-14.213
21
-3.10896
31
0
39
0
210
0
220
0
230
1
0
LINE
5
B8
100
AcDbEntity
8
SK1
62
256
6
ByLayer
370
18
48
1
60
0
100
AcDbLine
10
-14.213
20
-3.10896
30
0
11
-14.08346
21
-3.2385
31
0
39
0
210
0
220
0
230
1
0
LINE
5
B9
100
AcDbEntity
8
SK1
62
256
6
ByLayer
370
18
48
1
60
0
100
AcDbLine
10
-14.08346
20
3.2385
30
0
11
-14.213
21
3.10896
31
0
39
0
210
0
220
0
230
1
0
LINE
5
BA
100
AcDbEntity
8
SK1
62
256
6
ByLayer
370
18
48
1
60
0
100
AcDbLine
10
0
20
3.2385
30
0
11
-14.08346
21
3.2385
31
0
39
0
210
0
220
0
230
1
0
LINE
5
BB
100
AcDbEntity
8
SK1
62
256
6
ByLayer
370
18
48
1
60
0
100
AcDbLine
10
-14.08346
20
-3.2385
30
0
11
0
21
-3.2385
31
0
39
0
210
0
220
0
230
1
0
LINE
5
BC
100
AcDbEntity
8
SK2
62
256
6
ByLayer
370
13
48
1
60
0
100
AcDbLine
10
6.63
20
58.938923
30
0
11
6.63
21
-10.7385
31
0
39
0
210
0
220
0
230
1
0
LINE
5
BE
100
AcDbEntity
8
SK2
62
256
6
ByLayer
370
13
48
1
60
0
100
AcDbLine
10
6.7175
20
3.2385
30
0
11
8.63
21
3.2385
31
0
39
0
210
0
220
0
230
1
0
LINE
5
BF
100
AcDbEntity
8
SK2
62
256
6
ByLayer
370
13
48
1
60
0
100
AcDbLine
10
6.7175
20
-3.2385
30
0
11
8.63
21
-3.2385
31
0
39
0
210
0
220
0
230
1
0
LINE
5
C0
100
AcDbEntity
8
1
62
256
6
ByLayer
370
18
48
1
60
1
100
AcDbLine
10
6.63
20
3.2385
30
0
11
6.169216
21
6.738498
31
0
39
0
210
0
220
0
230
1
0
LINE
5
C1
100
AcDbEntity
8
1
62
256
6
ByLayer
370
18
48
1
60
1
100
AcDbLine
10
6.169216
20
6.738498
30
0
11
7.090784
21
6.738502
31
0
39
0
210
0
220
0
230
1
0
LINE
5
C2
100
AcDbEntity
8
1
62
256
6
ByLayer
370
18
48
1
60
1
100
AcDbLine
10
7.090784
20
6.738502
30
0
11
6.63
21
3.2385
31
0
39
0
210
0
220
0
230
1
0
LINE
5
C3
100
AcDbEntity
8
1
62
256
6
ByLayer
370
18
48
1
60
1
100
AcDbLine
10
6.63
20
-3.2385
30
0
11
7.090784
21
-6.738498
31
0
39
0
210
0
220
0
230
1
0
LINE
5
C4
100
AcDbEntity
8
1
62
256
6
ByLayer
370
18
48
1
60
1
100
AcDbLine
10
7.090784
20
-6.738498
30
0
11
6.169216
21
-6.738502
31
0
39
0
210
0
220
0
230
1
0
LINE
5
C5
100
AcDbEntity
8
1
62
256
6
ByLayer
370
18
48
1
60
1
100
AcDbLine
10
6.169216
20
-6.738502
30
0
11
6.63
21
-3.2385
31
0
39
0
210
0
220
0
230
1
0
LINE
5
1E8
100
AcDbEntity
8
1
62
256
6
ByLayer
370
18
48
1
60
1
100
AcDbLine
10
6.63
20
3.2385
30
0
11
6.169216
21
6.738498
31
0
39
0
210
0
220
0
230
1
0
LINE
5
1E9
100
AcDbEntity
8
1
62
256
6
ByLayer
370
18
48
1
60
1
100
AcDbLine
10
6.169216
20
6.738498
30
0
11
7.090784
21
6.738502
31
0
39
0
210
0
220
0
230
1
0
LINE
5
1EA
100
AcDbEntity
8
1
62
256
6
ByLayer
370
18
48
1
60
1
100
AcDbLine
10
7.090784
20
6.738502
30
0
11
6.63
21
3.2385
31
0
39
0
210
0
220
0
230
1
0
LINE
5
1EC
100
AcDbEntity
8
1
62
256
6
ByLayer
370
18
48
1
60
1
100
AcDbLine
10
6.63
20
-3.2385
30
0
11
7.090784
21
-6.738498
31
0
39
0
210
0
220
0
230
1
0
LINE
5
1ED
100
AcDbEntity
8
1
62
256
6
ByLayer
370
18
48
1
60
1
100
AcDbLine
10
7.090784
20
-6.738498
30
0
11
6.169216
21
-6.738502
31
0
39
0
210
0
220
0
230
1
0
LINE
5
1EE
100
AcDbEntity
8
1
62
256
6
ByLayer
370
18
48
1
60
1
100
AcDbLine
10
6.169216
20
-6.738502
30
0
11
6.63
21
-3.2385
31
0
39
0
210
0
220
0
230
1
0
MTEXT
5
1E3
100
AcDbEntity
8
SK2
62
256
6
ByLayer
370
18
48
1
60
0
100
AcDbMText
10
5.288886
20
13.419937
30
0
210
0
220
0
230
1
1
%%c
40
3
41
0
44
1.084337
50
90
71
7
72
5
7
iso_b_vert
0
MTEXT
5
1E6
100
AcDbEntity
8
SK2
62
256
6
ByLayer
370
18
48
1
60
0
100
AcDbMText
10
5.440366
20
32.517627
30
0
210
0
220
0
230
1
1
\W0.8220;ASME-B94.9
40
3.5
41
0
44
1.084337
50
90
71
7
72
5
7
iso_b_vert
0
MTEXT
5
1E7
100
AcDbEntity
8
SK2
62
256
6
ByLayer
370
18
48
1
60
0
100
AcDbMText
10
5.288886
20
19.3965
30
0
210
0
220
0
230
1
1
\W0.7694;6.477
40
3
41
0
44
1.084337
50
90
71
7
72
5
7
iso_b_vert
0
MTEXT
5
1F0
100
AcDbEntity
8
SK6
62
256
6
ByLayer
370
18
48
1
60
0
100
AcDbMText
10
0.829533
20
-67.114886
30
0
210
0
220
0
230
1
1
\W0.7697;T300-PM100AF-1/4 P1PM
40
3
41
0
44
1.084337
50
0
71
7
72
5
7
iso_b_vert
0
HATCH
5
1EB
100
AcDbEntity
8
SK2
62
256
6
ByLayer
370
13
48
1
60
0
100
AcDbHatch
10
0
20
0
30
0
210
0
220
0
230
1
2
ANSI31
70
0
71
0
91
1
92
5
93
3
72
1
10
6.62999999999999
20
3.23849999999999
11
6.16921625844722
21
6.7384983074468
72
1
10
6.16921625844722
20
6.7384983074468
11
7.09078374155277
21
6.73850169255317
72
1
10
7.09078374155277
20
6.73850169255317
11
6.62999999999999
21
3.23849999999999
97
0
75
0
76
1
52
0
41
0.0062
77
0
78
1
53
45
43
0
44
0
45
-0.0139193969876572
46
0.0139193969876572
79
0
47
0
98
1
10
0
20
0
0
HATCH
5
1EF
100
AcDbEntity
8
SK2
62
256
6
ByLayer
370
13
48
1
60
0
100
AcDbHatch
10
0
20
0
30
0
210
0
220
0
230
1
2
ANSI31
70
0
71
0
91
1
92
5
93
3
72
1
10
6.62999999999999
20
-3.23850000000002
11
7.09078374155277
21
-6.73849830744683
72
1
10
7.09078374155277
20
-6.73849830744683
11
6.16921625844722
21
-6.7385016925532
72
1
10
6.16921625844722
20
-6.7385016925532
11
6.62999999999999
21
-3.23850000000002
97
0
75
0
76
1
52
0
41
0.0062
77
0
78
1
53
45
43
0
44
0
45
-0.0139193969876572
46
0.0139193969876572
79
0
47
0
98
1
10
0
20
0
0
DIMENSION
5
1F3
100
AcDbEntity
8
SK2
62
256
6
ByLayer
370
18
48
1
60
0
100
AcDbDimension
2
_U0
10
57.13
20
-51.052102
30
0
11
17.13
21
-51.052102
31
0
70
32
71
1
72
1
41
1
210
0
220
0
230
1
3
Standard
100
AcDbAlignedDimension
13
-22.87
23
0
33
0
14
57.13
24
0
34
0
50
0
100
AcDbRotatedDimension
1001
ACAD
1000
DSTYLE
1002
{
1070
   371
1070
    13
1070
   372
1070
    13
1070
     3
1000

1070
   170
1070
     0
1070
   144
1040
1.0
1070
   277
1070
     2
1070
   284
1070
     8
1070
   278
1070
    46
1070
   146
1040
1.166667
1070
   345
1005
16
1070
   347
1005
16
1070
   346
1005
16
1070
   344
1005
0
1070
   343
1005
0
1070
   172
1070
     1
1070
    76
1070
     0
1070
    75
1070
     0
1070
   282
1070
     0
1070
   281
1070
     0
1070
    71
1070
     0
1070
    74
1070
     0
1070
   279
1070
     0
1070
   173
1070
     1
1070
   340
1005
1E4
1070
   271
1070
     2
1070
   272
1070
     3
1070
    77
1070
     1
1070
    73
1070
     1
1070
   171
1070
     3
1070
   274
1070
     4
1070
   177
1070
     2
1070
   176
1070
     2
1070
   178
1070
     2
1070
    78
1070
     8
1070
    48
1040
-0.1
1070
    41
1040
3.5
1070
   147
1040
1.5
1070
    42
1040
1.5875
1070
    44
1040
2.0
1070
   140
1040
3.0
1002
}
1001
ACAD_DSTYLE_DIM_LINETYPE
1070
   380
1005
16
1001
ACAD_DSTYLE_DIM_EXT1_LINETYPE
1070
   381
1005
16
1001
ACAD_DSTYLE_DIM_EXT2_LINETYPE
1070
   382
1005
16
0
DIMENSION
5
20C
100
AcDbEntity
8
SK2
62
256
6
ByLayer
370
18
48
1
60
0
100
AcDbDimension
2
_U1
10
32.13
20
-43.052102
30
0
11
44.63
21
-43.052102
31
0
70
32
71
1
72
1
41
1
210
0
220
0
230
1
3
Standard
100
AcDbAlignedDimension
13
57.13
23
0
33
0
14
32.13
24
0
34
0
50
0
100
AcDbRotatedDimension
1001
ACAD
1000
DSTYLE
1002
{
1070
   371
1070
    13
1070
   372
1070
    13
1070
     3
1000

1070
   170
1070
     0
1070
   144
1040
1.0
1070
   277
1070
     2
1070
   284
1070
     8
1070
   278
1070
    46
1070
   146
1040
1.166667
1070
   345
1005
16
1070
   347
1005
16
1070
   346
1005
16
1070
   344
1005
0
1070
   343
1005
0
1070
   172
1070
     1
1070
    76
1070
     0
1070
    75
1070
     0
1070
   282
1070
     0
1070
   281
1070
     0
1070
    71
1070
     0
1070
    74
1070
     0
1070
   279
1070
     0
1070
   173
1070
     1
1070
   340
1005
1E4
1070
   271
1070
     2
1070
   272
1070
     3
1070
    77
1070
     1
1070
    73
1070
     1
1070
   171
1070
     3
1070
   274
1070
     4
1070
   177
1070
     2
1070
   176
1070
     2
1070
   178
1070
     2
1070
    78
1070
     8
1070
    48
1040
-0.1
1070
    41
1040
3.5
1070
   147
1040
1.5
1070
    42
1040
1.5875
1070
    44
1040
2.0
1070
   140
1040
3.0
1002
}
1001
ACAD_DSTYLE_DIM_LINETYPE
1070
   380
1005
16
1001
ACAD_DSTYLE_DIM_EXT1_LINETYPE
1070
   381
1005
16
1001
ACAD_DSTYLE_DIM_EXT2_LINETYPE
1070
   382
1005
16
0
DIMENSION
5
224
100
AcDbEntity
8
2
62
256
6
ByLayer
370
18
48
1
60
0
100
AcDbDimension
2
_U2
10
35.88
20
-35.052102
30
0
11
46.505
21
-35.052102
31
0
70
32
71
1
72
1
41
1
210
0
220
0
230
1
3
Standard
100
AcDbAlignedDimension
13
57.13
23
0
33
0
14
35.88
24
0
34
0
50
0
100
AcDbRotatedDimension
1001
ACAD
1000
DSTYLE
1002
{
1070
   371
1070
    13
1070
   372
1070
    13
1070
     3
1000

1070
   170
1070
     0
1070
   144
1040
1.0
1070
   277
1070
     2
1070
   284
1070
     8
1070
   278
1070
    46
1070
   146
1040
1.166667
1070
   345
1005
16
1070
   347
1005
16
1070
   346
1005
16
1070
   344
1005
0
1070
   343
1005
0
1070
   172
1070
     1
1070
    76
1070
     0
1070
    75
1070
     0
1070
   282
1070
     0
1070
   281
1070
     0
1070
    71
1070
     0
1070
    74
1070
     0
1070
   279
1070
     0
1070
   173
1070
     1
1070
   340
1005
1E4
1070
   271
1070
     2
1070
   272
1070
     3
1070
    77
1070
     1
1070
    73
1070
     1
1070
   171
1070
     3
1070
   274
1070
     4
1070
   177
1070
     2
1070
   176
1070
     2
1070
   178
1070
     2
1070
    78
1070
     8
1070
    48
1040
-0.1
1070
    41
1040
3.5
1070
   147
1040
1.5
1070
    42
1040
1.5875
1070
    44
1040
2.0
1070
   140
1040
3.0
1002
}
1001
ACAD_DSTYLE_DIM_LINETYPE
1070
   380
1005
16
1001
ACAD_DSTYLE_DIM_EXT1_LINETYPE
1070
   381
1005
16
1001
ACAD_DSTYLE_DIM_EXT2_LINETYPE
1070
   382
1005
16
0
DIMENSION
5
23D
100
AcDbEntity
8
SK2
62
256
6
ByLayer
370
18
48
1
60
0
100
AcDbDimension
2
_U3
10
47.13
20
-27.052102
30
0
11
52.13
21
-27.052102
31
0
70
32
71
1
72
1
41
1
210
0
220
0
230
1
3
Standard
100
AcDbAlignedDimension
13
57.13
23
0
33
0
14
47.13
24
-2.5374
34
0
50
0
100
AcDbRotatedDimension
1001
ACAD
1000
DSTYLE
1002
{
1070
   371
1070
    13
1070
   372
1070
    13
1070
     3
1000

1070
   170
1070
     0
1070
   144
1040
1.0
1070
   277
1070
     2
1070
   284
1070
     8
1070
   278
1070
    46
1070
   146
1040
1.166667
1070
   345
1005
16
1070
   347
1005
16
1070
   346
1005
16
1070
   344
1005
0
1070
   343
1005
0
1070
   172
1070
     1
1070
    76
1070
     0
1070
    75
1070
     0
1070
   282
1070
     0
1070
   281
1070
     0
1070
    71
1070
     0
1070
    74
1070
     0
1070
   279
1070
     0
1070
   173
1070
     1
1070
   340
1005
1E4
1070
   271
1070
     2
1070
   272
1070
     3
1070
    77
1070
     1
1070
    73
1070
     1
1070
   171
1070
     3
1070
   274
1070
     4
1070
   177
1070
     2
1070
   176
1070
     2
1070
   178
1070
     2
1070
    78
1070
     8
1070
    48
1040
-0.1
1070
    41
1040
3.5
1070
   147
1040
1.5
1070
    42
1040
1.5875
1070
    44
1040
2.0
1070
   140
1040
3.0
1002
}
1001
ACAD_DSTYLE_DIM_LINETYPE
1070
   380
1005
16
1001
ACAD_DSTYLE_DIM_EXT1_LINETYPE
1070
   381
1005
16
1001
ACAD_DSTYLE_DIM_EXT2_LINETYPE
1070
   382
1005
16
0
DIMENSION
5
256
100
AcDbEntity
8
SK2
62
256
6
ByLayer
370
18
48
1
60
0
100
AcDbDimension
2
_U4
10
54.64
20
6.935524
30
0
11
55.885
21
6.935524
31
0
70
32
71
1
72
1
41
1
210
0
220
0
230
1
3
Standard
100
AcDbAlignedDimension
13
57.13
23
0
33
0
14
54.64
24
0
34
0
50
0
100
AcDbRotatedDimension
1001
ACAD
1000
DSTYLE
1002
{
1070
   371
1070
    13
1070
   372
1070
    13
1070
     3
1000

1070
   170
1070
     0
1070
   144
1040
1.0
1070
   277
1070
     2
1070
   284
1070
     8
1070
   278
1070
    46
1070
   146
1040
1.166667
1070
   345
1005
16
1070
   347
1005
16
1070
   346
1005
16
1070
   344
1005
0
1070
   343
1005
0
1070
   172
1070
     1
1070
    76
1070
     0
1070
    75
1070
     0
1070
   282
1070
     0
1070
   281
1070
     0
1070
    71
1070
     0
1070
    74
1070
     0
1070
   279
1070
     0
1070
   173
1070
     1
1070
   340
1005
1E4
1070
   271
1070
     2
1070
   272
1070
     3
1070
    77
1070
     1
1070
    73
1070
     1
1070
   171
1070
     3
1070
   274
1070
     4
1070
   177
1070
     2
1070
   176
1070
     2
1070
   178
1070
     2
1070
    78
1070
     8
1070
    48
1040
-0.1
1070
    41
1040
3.5
1070
   147
1040
1.5
1070
    42
1040
1.5875
1070
    44
1040
2.0
1070
   140
1040
3.0
1002
}
1001
ACAD_DSTYLE_DIM_LINETYPE
1070
   380
1005
16
1001
ACAD_DSTYLE_DIM_EXT1_LINETYPE
1070
   381
1005
16
1001
ACAD_DSTYLE_DIM_EXT2_LINETYPE
1070
   382
1005
16
0
DIMENSION
5
270
100
AcDbEntity
8
2
62
256
6
ByLayer
370
18
48
1
60
0
100
AcDbDimension
2
_U5
10
73.63
20
3.217762
30
0
11
73.63
21
19.289191
31
0
70
32
71
1
72
1
41
1
210
0
220
0
230
1
3
Standard
100
AcDbAlignedDimension
13
57.13
23
-3.217762
33
0
14
57.13
24
3.217762
34
0
50
90
100
AcDbRotatedDimension
1001
ACAD
1000
DSTYLE
1002
{
1070
   371
1070
    13
1070
   372
1070
    13
1070
     3
1000

1070
   170
1070
     0
1070
   144
1040
1.0
1070
   277
1070
     2
1070
   284
1070
     8
1070
   278
1070
    46
1070
   146
1040
1.166667
1070
   345
1005
16
1070
   347
1005
16
1070
   346
1005
16
1070
   344
1005
0
1070
   343
1005
0
1070
   172
1070
     1
1070
    76
1070
     0
1070
    75
1070
     0
1070
   282
1070
     0
1070
   281
1070
     0
1070
    71
1070
     0
1070
    74
1070
     0
1070
   279
1070
     0
1070
   173
1070
     1
1070
   340
1005
1E4
1070
   271
1070
     2
1070
   272
1070
     3
1070
    77
1070
     1
1070
    73
1070
     0
1070
   171
1070
     3
1070
   274
1070
     4
1070
   177
1070
     2
1070
   176
1070
     2
1070
   178
1070
     2
1070
    78
1070
     8
1070
    48
1040
-0.1
1070
    41
1040
3.5
1070
   147
1040
1.5
1070
    42
1040
1.5875
1070
    44
1040
2.0
1070
   140
1040
3.0
1002
}
1001
ACAD_DSTYLE_DIM_LINETYPE
1070
   380
1005
16
1001
ACAD_DSTYLE_DIM_EXT1_LINETYPE
1070
   381
1005
16
1001
ACAD_DSTYLE_DIM_EXT2_LINETYPE
1070
   382
1005
16
0
DIMENSION
5
28B
100
AcDbEntity
8
SK2
62
256
6
ByLayer
370
18
48
1
60
0
100
AcDbDimension
2
_U6
10
-28.37
20
-2.425
30
0
11
-28.37
21
18.496429
31
0
70
32
71
1
72
1
41
1
210
0
220
0
230
1
3
Standard
100
AcDbAlignedDimension
13
-22.87
23
2.425
33
0
14
-22.87
24
-2.425
34
0
50
90
100
AcDbRotatedDimension
1001
ACAD
1000
DSTYLE
1002
{
1070
   371
1070
    13
1070
   372
1070
    13
1070
     3
1000

1070
   170
1070
     0
1070
   144
1040
1.0
1070
   277
1070
     2
1070
   284
1070
     8
1070
   278
1070
    46
1070
   146
1040
1.166667
1070
   345
1005
16
1070
   347
1005
16
1070
   346
1005
16
1070
   344
1005
0
1070
   343
1005
0
1070
   172
1070
     1
1070
    76
1070
     0
1070
    75
1070
     0
1070
   282
1070
     0
1070
   281
1070
     0
1070
    71
1070
     0
1070
    74
1070
     0
1070
   279
1070
     0
1070
   173
1070
     1
1070
   340
1005
1E4
1070
   271
1070
     2
1070
   272
1070
     3
1070
    77
1070
     1
1070
    73
1070
     0
1070
   171
1070
     3
1070
   274
1070
     4
1070
   177
1070
     2
1070
   176
1070
     2
1070
   178
1070
     2
1070
    78
1070
     8
1070
    48
1040
-0.1
1070
    41
1040
3.5
1070
   147
1040
1.5
1070
    42
1040
1.5875
1070
    44
1040
2.0
1070
   140
1040
3.0
1002
}
1001
ACAD_DSTYLE_DIM_LINETYPE
1070
   380
1005
16
1001
ACAD_DSTYLE_DIM_EXT1_LINETYPE
1070
   381
1005
16
1001
ACAD_DSTYLE_DIM_EXT2_LINETYPE
1070
   382
1005
16
0
ENDSEC
0
SECTION
2
OBJECTS
0
DICTIONARY
5
315
330
0
100
AcDbDictionary
280
0
281
1
3
ACAD_GROUP
350
316
3
ACAD_MLINESTYLE
350
317
0
DICTIONARY
5
316
330
0
100
AcDbDictionary
280
0
281
1
0
DICTIONARY
5
317
330
0
100
AcDbDictionary
280
0
281
1
3
Standard
350
18
0
MLINESTYLE
5
18
330
317
100
AcDbMlineStyle
2
Standard
70
0
3

62
256
51
90
52
90
71
2
49
-0.5
62
256
6
ByLayer
49
0.5
62
256
6
ByLayer
0
RASTERVARIABLES
5
303
330

100
AcDbRasterVariables
90
0
70
1
71
1
72
1
0
ENDSEC
0
EOF
