0
SECTION
2
HEADER
9
$ACADVER
1
AC1015
9
$DWGCODEPAGE
3
ANSI_1252
9
$HANDSEED
5
326
9
$ANGBASE
50
0
9
$ANGDIR
70
0
9
$ATTMODE
70
1
9
$AUNITS
70
0
9
$AUPREC
70
0
9
$CECOLOR
62
256
9
$CELTSCALE
40
1
9
$CELTYPE
6
ByLayer
9
$CELWEIGHT
370
18
9
$CLAYER
8
0
9
$CMLJUST
70
0
9
$CMLSCALE
40
1
9
$CMLSTYLE
2
Standard
9
$DIMSTYLE
2
Standard
9
$TEXTSIZE
40
0.2
9
$TEXTSTYLE
7
Standard
9
$LUNITS
70
2
9
$LUPREC
70
4
9
$EXTNAMES
290
1
9
$INSUNITS
70
4
9
$LTSCALE
40
1
9
$LWDISPLAY
290
1
9
$PDMODE
70
0
9
$PDSIZE
40
0
9
$PLINEGEN
70
0
0
ENDSEC
0
SECTION
2
CLASSES
0
CLASS
1
RASTERVARIABLES
2
AcDbRasterVariables
3
ISM
90
0
280
0
281
0
0
ENDSEC
0
SECTION
2
TABLES
0
TABLE
2
VPORT
5
31c
100
AcDbSymbolTable
0
VPORT
5
1
100
AcDbSymbolTableRecord
100
AcDbViewportTableRecord
2
*Active
70
0
10
0
20
0
11
1
21
1
12
-1
22
1
13
0
23
0
14
0.5
24
0.5
15
10
25
10
16
0
26
0
36
1
17
0
27
0
37
0
0
ENDTAB
0
TABLE
2
LTYPE
5
31d
100
AcDbSymbolTable
0
LTYPE
5
14
100
AcDbSymbolTableRecord
100
AcDbLinetypeTableRecord
70
0
2
ByBlock
3

72
65
73
0
40
0
0
LTYPE
5
15
100
AcDbSymbolTableRecord
100
AcDbLinetypeTableRecord
70
0
2
ByLayer
3

72
65
73
0
40
0
0
LTYPE
5
16
100
AcDbSymbolTableRecord
100
AcDbLinetypeTableRecord
70
0
2
Continuous
3
Solid line
72
65
73
0
40
0
0
LTYPE
5
6E
100
AcDbSymbolTableRecord
100
AcDbLinetypeTableRecord
70
0
2
CENTER
3
____ _ ____ _ ____ _ ____
72
65
73
4
40
47.5
49
22
74
0
49
-8.5
74
0
49
8.5
74
0
49
-8.5
74
0
0
LTYPE
5
6F
100
AcDbSymbolTableRecord
100
AcDbLinetypeTableRecord
70
0
2
DASHED
3
__ __ __ __ __ __ __ __ __
72
65
73
2
40
25.72
49
12.86
74
0
49
-12.86
74
0
0
ENDTAB
0
TABLE
2
LAYER
5
31e
100
AcDbSymbolTable
0
LAYER
5
10
100
AcDbSymbolTableRecord
100
AcDbLayerTableRecord
2
0
70
0
62
7
6
Continuous
290
1
370
-3
390
0
0
LAYER
5
71
100
AcDbSymbolTableRecord
100
AcDbLayerTableRecord
2
81
70
0
62
-3
6
Continuous
290
1
370
-3
390
0
0
LAYER
5
73
100
AcDbSymbolTableRecord
100
AcDbLayerTableRecord
2
80
70
0
62
-6
6
Continuous
290
1
370
-3
390
0
0
LAYER
5
75
100
AcDbSymbolTableRecord
100
AcDbLayerTableRecord
2
1
70
0
62
4
6
Continuous
290
1
370
-3
390
0
0
LAYER
5
87
100
AcDbSymbolTableRecord
100
AcDbLayerTableRecord
2
4
70
0
62
-2
6
CENTER
290
1
370
-3
390
0
0
LAYER
5
1FA
100
AcDbSymbolTableRecord
100
AcDbLayerTableRecord
2
Defpoints
70
0
62
7
6
Continuous
290
0
370
-3
390
0
0
LAYER
5
237
100
AcDbSymbolTableRecord
100
AcDbLayerTableRecord
2
2
70
0
62
7
6
Continuous
290
1
370
-3
390
0
0
LAYER
5
308
100
AcDbSymbolTableRecord
100
AcDbLayerTableRecord
2
SK4
70
0
62
2
6
CENTER
290
1
370
-3
390
0
0
LAYER
5
309
100
AcDbSymbolTableRecord
100
AcDbLayerTableRecord
2
SK1
70
0
62
4
6
Continuous
290
1
370
-3
390
0
0
LAYER
5
30a
100
AcDbSymbolTableRecord
100
AcDbLayerTableRecord
2
SK2
70
0
62
7
6
Continuous
290
1
370
-3
390
0
0
LAYER
5
30b
100
AcDbSymbolTableRecord
100
AcDbLayerTableRecord
2
SK6
70
0
62
5
6
Continuous
290
1
370
-3
390
0
0
ENDTAB
0
TABLE
2
STYLE
5
31f
100
AcDbSymbolTable
0
STYLE
5
11
100
AcDbSymbolTableRecord
100
AcDbTextStyleTableRecord
2
Standard
3
txt
70
0
71
0
40
0
41
1
42
0
50
0
0
STYLE
5
1E8
100
AcDbSymbolTableRecord
100
AcDbTextStyleTableRecord
2
iso_b_vert
3
simplex.shx
70
0
71
0
40
0
41
1
42
0
50
0
0
STYLE
5
1E9
100
AcDbSymbolTableRecord
100
AcDbTextStyleTableRecord
2
DWGDirectTextStyle
3
simplex
70
0
71
0
40
0
41
1
42
0
50
0
0
ENDTAB
0
TABLE
2
DIMSTYLE
5
320
100
AcDbSymbolTable
100
AcDbDimStyleTable
0
DIMSTYLE
105
27
100
AcDbSymbolTableRecord
100
AcDbDimStyleTableRecord
2
Standard
70
0
3
<>
41
0.18
42
0.0625
44
0.18
140
0.18
147
0.09
73
0
74
0
77
1
271
2
275
0
278
52
280
0
340
11
0
ENDTAB
0
TABLE
2
VIEW
5
321
100
AcDbSymbolTable
0
ENDTAB
0
TABLE
2
UCS
5
322
100
AcDbSymbolTable
0
ENDTAB
0
TABLE
2
APPID
5
323
100
AcDbSymbolTable
0
APPID
5
12
100
AcDbSymbolTableRecord
100
AcDbRegAppTableRecord
2
ACAD
70
0
0
APPID
5
1F6
100
AcDbSymbolTableRecord
100
AcDbRegAppTableRecord
2
ACAD_DSTYLE_DIMBREAK
70
0
0
APPID
5
2C7
100
AcDbSymbolTableRecord
100
AcDbRegAppTableRecord
2
ACAD_DSTYLE_DIM_LINETYPE
70
0
0
APPID
5
2C8
100
AcDbSymbolTableRecord
100
AcDbRegAppTableRecord
2
ACAD_DSTYLE_DIM_EXT1_LINETYPE
70
0
0
APPID
5
2C9
100
AcDbSymbolTableRecord
100
AcDbRegAppTableRecord
2
ACAD_DSTYLE_DIM_EXT2_LINETYPE
70
0
0
APPID
5
304
100
AcDbSymbolTableRecord
100
AcDbRegAppTableRecord
2
ACAD_MLEADERVER
70
0
0
ENDTAB
0
TABLE
2
BLOCK_RECORD
5
324
100
AcDbSymbolTable
0
BLOCK_RECORD
5
1F
100
AcDbSymbolTableRecord
100
AcDbBlockTableRecord
2
*Model_Space
340
0
70
0
0
BLOCK_RECORD
5
1B
100
AcDbSymbolTableRecord
100
AcDbBlockTableRecord
2
*Paper_Space
340
0
70
0
0
BLOCK_RECORD
5
23
100
AcDbSymbolTableRecord
100
AcDbBlockTableRecord
2
*Paper_Space0
340
0
70
0
0
BLOCK_RECORD
5
1FB
100
AcDbSymbolTableRecord
100
AcDbBlockTableRecord
2
*D1
340
0
70
0
0
BLOCK_RECORD
5
207
100
AcDbSymbolTableRecord
100
AcDbBlockTableRecord
2
_U0
340
0
70
0
0
BLOCK_RECORD
5
213
100
AcDbSymbolTableRecord
100
AcDbBlockTableRecord
2
*D3
340
0
70
0
0
BLOCK_RECORD
5
21F
100
AcDbSymbolTableRecord
100
AcDbBlockTableRecord
2
_U1
340
0
70
0
0
BLOCK_RECORD
5
22B
100
AcDbSymbolTableRecord
100
AcDbBlockTableRecord
2
*D5
340
0
70
0
0
BLOCK_RECORD
5
238
100
AcDbSymbolTableRecord
100
AcDbBlockTableRecord
2
_U2
340
0
70
0
0
BLOCK_RECORD
5
244
100
AcDbSymbolTableRecord
100
AcDbBlockTableRecord
2
*D7
340
0
70
0
0
BLOCK_RECORD
5
251
100
AcDbSymbolTableRecord
100
AcDbBlockTableRecord
2
_U3
340
0
70
0
0
BLOCK_RECORD
5
25D
100
AcDbSymbolTableRecord
100
AcDbBlockTableRecord
2
*D9
340
0
70
0
0
BLOCK_RECORD
5
26A
100
AcDbSymbolTableRecord
100
AcDbBlockTableRecord
2
_U4
340
0
70
0
0
BLOCK_RECORD
5
277
100
AcDbSymbolTableRecord
100
AcDbBlockTableRecord
2
*D11
340
0
70
0
0
BLOCK_RECORD
5
285
100
AcDbSymbolTableRecord
100
AcDbBlockTableRecord
2
_U5
340
0
70
0
0
BLOCK_RECORD
5
292
100
AcDbSymbolTableRecord
100
AcDbBlockTableRecord
2
*D13
340
0
70
0
0
BLOCK_RECORD
5
2A0
100
AcDbSymbolTableRecord
100
AcDbBlockTableRecord
2
_U6
340
0
70
0
0
ENDTAB
0
ENDSEC
0
SECTION
2
BLOCKS
0
BLOCK
5
20
100
AcDbEntity
8
0
100
AcDbBlockBegin
2
*Model_Space
70
0
10
0
20
0
30
0
3
*Model_Space
0
ENDBLK
5
21
100
AcDbEntity
8
0
100
AcDbBlockEnd
0
BLOCK
5
1C
100
AcDbEntity
8
0
100
AcDbBlockBegin
2
*Paper_Space
70
0
10
0
20
0
30
0
3
*Paper_Space
0
ENDBLK
5
1D
100
AcDbEntity
8
0
100
AcDbBlockEnd
0
BLOCK
5
24
100
AcDbEntity
8
0
100
AcDbBlockBegin
2
*Paper_Space0
70
0
10
0
20
0
30
0
3
*Paper_Space0
0
ENDBLK
5
25
100
AcDbEntity
8
0
100
AcDbBlockEnd
0
BLOCK
5
1FC
100
AcDbEntity
8
0
100
AcDbBlockBegin
2
*D1
70
1
10
0
20
0
30
0
3
*D1
0
LINE
5
1FE
100
AcDbEntity
8
0
62
256
6
ByLayer
370
-2
48
1
60
0
100
AcDbLine
10
-21.35
20
-1.5875
30
0
11
-21.35
21
-53.043306
31
0
39
0
210
0
220
0
230
1
0
LINE
5
1FF
100
AcDbEntity
8
0
62
256
6
ByLayer
370
-2
48
1
60
0
100
AcDbLine
10
48.65
20
-1.5875
30
0
11
48.65
21
-53.043306
31
0
39
0
210
0
220
0
230
1
0
LINE
5
200
100
AcDbEntity
8
0
62
256
6
ByLayer
370
-2
48
1
60
0
100
AcDbLine
10
-17.85
20
-51.043306
30
0
11
45.15
21
-51.043306
31
0
39
0
210
0
220
0
230
1
0
SOLID
5
201
100
AcDbEntity
8
0
62
256
6
ByLayer
370
-1
48
1
60
0
100
AcDbTrace
10
-17.85
20
-50.459973
30
0
11
-17.85
21
-51.626639
31
0
12
-21.35
22
-51.043306
32
0
13
-21.35
23
-51.043306
33
0
39
0
210
0
220
0
230
1
0
SOLID
5
202
100
AcDbEntity
8
0
62
256
6
ByLayer
370
-1
48
1
60
0
100
AcDbTrace
10
45.15
20
-51.626639
30
0
11
45.15
21
-50.459973
31
0
12
48.65
22
-51.043306
32
0
13
48.65
23
-51.043306
33
0
39
0
210
0
220
0
230
1
0
MTEXT
5
203
100
AcDbEntity
8
0
62
256
6
ByLayer
370
18
48
1
60
0
100
AcDbMText
10
13.65
20
-45.043306
30
0
210
0
220
0
230
1
1
\A1;70
40
3
41
0
44
1
50
0
71
5
72
5
7
iso_b_vert
0
POINT
5
204
100
AcDbEntity
8
Defpoints
62
0
6
ByLayer
370
-1
48
1
60
0
100
AcDbPoint
10
-21.35
20
0
30
0
39
0
210
0
220
0
230
1
50
360
0
POINT
5
205
100
AcDbEntity
8
Defpoints
62
0
6
ByLayer
370
-1
48
1
60
0
100
AcDbPoint
10
48.65
20
0
30
0
39
0
210
0
220
0
230
1
50
360
0
POINT
5
206
100
AcDbEntity
8
Defpoints
62
0
6
ByLayer
370
-1
48
1
60
0
100
AcDbPoint
10
48.65
20
-51.043306
30
0
39
0
210
0
220
0
230
1
50
360
0
ENDBLK
5
1FD
100
AcDbEntity
8
0
100
AcDbBlockEnd
0
BLOCK
5
20E
100
AcDbEntity
8
0
100
AcDbBlockBegin
2
_U0
70
0
10
0
20
0
30
0
3
_U0
0
MTEXT
5
208
100
AcDbEntity
8
SK2
62
256
6
ByLayer
370
18
48
1
60
0
100
AcDbMText
10
10.288544
20
-50.158192
30
0
210
0
220
0
230
1
1
\W0.7346;70.0
40
3
41
0
44
1.084337
50
0
71
7
72
5
7
iso_b_vert
0
LINE
5
209
100
AcDbEntity
8
SK2
62
256
6
ByLayer
370
13
48
1
60
0
100
AcDbLine
10
-21.35
20
-1.5875
30
0
11
-21.35
21
-53.043306
31
0
39
0
210
0
220
0
230
1
0
LINE
5
20A
100
AcDbEntity
8
SK2
62
256
6
ByLayer
370
13
48
1
60
0
100
AcDbLine
10
48.65
20
-1.5875
30
0
11
48.65
21
-53.043306
31
0
39
0
210
0
220
0
230
1
0
LINE
5
20B
100
AcDbEntity
8
SK2
62
256
6
ByLayer
370
13
48
1
60
0
100
AcDbLine
10
-21.35
20
-51.043306
30
0
11
48.65
21
-51.043306
31
0
39
0
210
0
220
0
230
1
0
SOLID
5
20C
100
AcDbEntity
8
SK2
62
256
6
ByLayer
370
18
48
1
60
0
100
AcDbTrace
10
-21.35
20
-51.043306
30
0
11
-17.850002
21
-50.582522
31
0
12
-17.849998
22
-51.50409
32
0
13
-17.849998
23
-51.50409
33
0
39
0
210
0
220
0
230
1
0
SOLID
5
20D
100
AcDbEntity
8
SK2
62
256
6
ByLayer
370
18
48
1
60
0
100
AcDbTrace
10
48.65
20
-51.043306
30
0
11
45.150002
21
-51.50409
31
0
12
45.149998
22
-50.582522
32
0
13
45.149998
23
-50.582522
33
0
39
0
210
0
220
0
230
1
0
ENDBLK
5
20F
100
AcDbEntity
8
0
100
AcDbBlockEnd
0
BLOCK
5
214
100
AcDbEntity
8
0
100
AcDbBlockBegin
2
*D3
70
1
10
0
20
0
30
0
3
*D3
0
LINE
5
216
100
AcDbEntity
8
0
62
256
6
ByLayer
370
-2
48
1
60
0
100
AcDbLine
10
48.65
20
-1.5875
30
0
11
48.65
21
-45.043306
31
0
39
0
210
0
220
0
230
1
0
LINE
5
217
100
AcDbEntity
8
0
62
256
6
ByLayer
370
-2
48
1
60
0
100
AcDbLine
10
21.15
20
-1.5875
30
0
11
21.15
21
-45.043306
31
0
39
0
210
0
220
0
230
1
0
LINE
5
218
100
AcDbEntity
8
0
62
256
6
ByLayer
370
-2
48
1
60
0
100
AcDbLine
10
45.15
20
-43.043306
30
0
11
24.65
21
-43.043306
31
0
39
0
210
0
220
0
230
1
0
SOLID
5
219
100
AcDbEntity
8
0
62
256
6
ByLayer
370
-1
48
1
60
0
100
AcDbTrace
10
45.15
20
-43.626639
30
0
11
45.15
21
-42.459973
31
0
12
48.65
22
-43.043306
32
0
13
48.65
23
-43.043306
33
0
39
0
210
0
220
0
230
1
0
SOLID
5
21A
100
AcDbEntity
8
0
62
256
6
ByLayer
370
-1
48
1
60
0
100
AcDbTrace
10
24.65
20
-42.459973
30
0
11
24.65
21
-43.626639
31
0
12
21.15
22
-43.043306
32
0
13
21.15
23
-43.043306
33
0
39
0
210
0
220
0
230
1
0
MTEXT
5
21B
100
AcDbEntity
8
0
62
256
6
ByLayer
370
18
48
1
60
0
100
AcDbMText
10
34.9
20
-37.043306
30
0
210
0
220
0
230
1
1
\A1;27.5
40
3
41
0
44
1
50
0
71
5
72
5
7
iso_b_vert
0
POINT
5
21C
100
AcDbEntity
8
Defpoints
62
0
6
ByLayer
370
-1
48
1
60
0
100
AcDbPoint
10
48.65
20
0
30
0
39
0
210
0
220
0
230
1
50
360
0
POINT
5
21D
100
AcDbEntity
8
Defpoints
62
0
6
ByLayer
370
-1
48
1
60
0
100
AcDbPoint
10
21.15
20
0
30
0
39
0
210
0
220
0
230
1
50
360
0
POINT
5
21E
100
AcDbEntity
8
Defpoints
62
0
6
ByLayer
370
-1
48
1
60
0
100
AcDbPoint
10
21.15
20
-43.043306
30
0
39
0
210
0
220
0
230
1
50
360
0
ENDBLK
5
215
100
AcDbEntity
8
0
100
AcDbBlockEnd
0
BLOCK
5
226
100
AcDbEntity
8
0
100
AcDbBlockBegin
2
_U1
70
0
10
0
20
0
30
0
3
_U1
0
MTEXT
5
220
100
AcDbEntity
8
SK2
62
256
6
ByLayer
370
18
48
1
60
0
100
AcDbMText
10
31.538544
20
-42.158192
30
0
210
0
220
0
230
1
1
\W0.7346;27.5
40
3
41
0
44
1.084337
50
0
71
7
72
5
7
iso_b_vert
0
LINE
5
221
100
AcDbEntity
8
SK2
62
256
6
ByLayer
370
13
48
1
60
0
100
AcDbLine
10
48.65
20
-1.5875
30
0
11
48.65
21
-45.043306
31
0
39
0
210
0
220
0
230
1
0
LINE
5
222
100
AcDbEntity
8
SK2
62
256
6
ByLayer
370
13
48
1
60
0
100
AcDbLine
10
21.15
20
-1.5875
30
0
11
21.15
21
-45.043306
31
0
39
0
210
0
220
0
230
1
0
LINE
5
223
100
AcDbEntity
8
SK2
62
256
6
ByLayer
370
13
48
1
60
0
100
AcDbLine
10
48.65
20
-43.043306
30
0
11
21.15
21
-43.043306
31
0
39
0
210
0
220
0
230
1
0
SOLID
5
224
100
AcDbEntity
8
SK2
62
256
6
ByLayer
370
18
48
1
60
0
100
AcDbTrace
10
48.65
20
-43.043306
30
0
11
45.150002
21
-43.50409
31
0
12
45.149998
22
-42.582522
32
0
13
45.149998
23
-42.582522
33
0
39
0
210
0
220
0
230
1
0
SOLID
5
225
100
AcDbEntity
8
SK2
62
256
6
ByLayer
370
18
48
1
60
0
100
AcDbTrace
10
21.15
20
-43.043306
30
0
11
24.649998
21
-42.582522
31
0
12
24.650002
22
-43.50409
32
0
13
24.650002
23
-43.50409
33
0
39
0
210
0
220
0
230
1
0
ENDBLK
5
227
100
AcDbEntity
8
0
100
AcDbBlockEnd
0
BLOCK
5
22C
100
AcDbEntity
8
0
100
AcDbBlockBegin
2
*D5
70
1
10
0
20
0
30
0
3
*D5
0
LINE
5
22E
100
AcDbEntity
8
0
62
256
6
ByLayer
370
-2
48
1
60
0
100
AcDbLine
10
48.65
20
-1.5875
30
0
11
48.65
21
-37.043306
31
0
39
0
210
0
220
0
230
1
0
LINE
5
22F
100
AcDbEntity
8
0
62
256
6
ByLayer
370
-2
48
1
60
0
100
AcDbLine
10
25.275
20
-1.5875
30
0
11
25.275
21
-37.043306
31
0
39
0
210
0
220
0
230
1
0
LINE
5
230
100
AcDbEntity
8
0
62
256
6
ByLayer
370
-2
48
1
60
0
100
AcDbLine
10
45.15
20
-35.043306
30
0
11
28.775
21
-35.043306
31
0
39
0
210
0
220
0
230
1
0
SOLID
5
231
100
AcDbEntity
8
0
62
256
6
ByLayer
370
-1
48
1
60
0
100
AcDbTrace
10
45.15
20
-35.626639
30
0
11
45.15
21
-34.459973
31
0
12
48.65
22
-35.043306
32
0
13
48.65
23
-35.043306
33
0
39
0
210
0
220
0
230
1
0
SOLID
5
232
100
AcDbEntity
8
0
62
256
6
ByLayer
370
-1
48
1
60
0
100
AcDbTrace
10
28.775
20
-34.459973
30
0
11
28.775
21
-35.626639
31
0
12
25.275
22
-35.043306
32
0
13
25.275
23
-35.043306
33
0
39
0
210
0
220
0
230
1
0
MTEXT
5
233
100
AcDbEntity
8
0
62
256
6
ByLayer
370
18
48
1
60
0
100
AcDbMText
10
36.9625
20
-29.043306
30
0
210
0
220
0
230
1
1
\A1;23.38
40
3
41
0
44
1
50
0
71
5
72
5
7
iso_b_vert
0
POINT
5
234
100
AcDbEntity
8
Defpoints
62
0
6
ByLayer
370
-1
48
1
60
0
100
AcDbPoint
10
48.65
20
0
30
0
39
0
210
0
220
0
230
1
50
360
0
POINT
5
235
100
AcDbEntity
8
Defpoints
62
0
6
ByLayer
370
-1
48
1
60
0
100
AcDbPoint
10
25.275
20
0
30
0
39
0
210
0
220
0
230
1
50
360
0
POINT
5
236
100
AcDbEntity
8
Defpoints
62
0
6
ByLayer
370
-1
48
1
60
0
100
AcDbPoint
10
25.275
20
-35.043306
30
0
39
0
210
0
220
0
230
1
50
360
0
ENDBLK
5
22D
100
AcDbEntity
8
0
100
AcDbBlockEnd
0
BLOCK
5
23F
100
AcDbEntity
8
0
100
AcDbBlockBegin
2
_U2
70
0
10
0
20
0
30
0
3
_U2
0
MTEXT
5
239
100
AcDbEntity
8
2
62
256
6
ByLayer
370
18
48
1
60
0
100
AcDbMText
10
33.443101
20
-34.158192
30
0
210
0
220
0
230
1
1
\W0.7528;23.4
40
3
41
0
44
1.084337
50
0
71
7
72
5
7
iso_b_vert
0
LINE
5
23A
100
AcDbEntity
8
2
62
256
6
ByLayer
370
13
48
1
60
0
100
AcDbLine
10
48.65
20
-1.5875
30
0
11
48.65
21
-37.043306
31
0
39
0
210
0
220
0
230
1
0
LINE
5
23B
100
AcDbEntity
8
2
62
256
6
ByLayer
370
13
48
1
60
0
100
AcDbLine
10
25.275
20
-1.5875
30
0
11
25.275
21
-37.043306
31
0
39
0
210
0
220
0
230
1
0
LINE
5
23C
100
AcDbEntity
8
2
62
256
6
ByLayer
370
13
48
1
60
0
100
AcDbLine
10
48.65
20
-35.043306
30
0
11
25.275
21
-35.043306
31
0
39
0
210
0
220
0
230
1
0
SOLID
5
23D
100
AcDbEntity
8
2
62
256
6
ByLayer
370
18
48
1
60
0
100
AcDbTrace
10
48.65
20
-35.043306
30
0
11
45.150002
21
-35.50409
31
0
12
45.149998
22
-34.582522
32
0
13
45.149998
23
-34.582522
33
0
39
0
210
0
220
0
230
1
0
SOLID
5
23E
100
AcDbEntity
8
2
62
256
6
ByLayer
370
18
48
1
60
0
100
AcDbTrace
10
25.275
20
-35.043306
30
0
11
28.774998
21
-34.582522
31
0
12
28.775002
22
-35.50409
32
0
13
28.775002
23
-35.50409
33
0
39
0
210
0
220
0
230
1
0
ENDBLK
5
240
100
AcDbEntity
8
0
100
AcDbBlockEnd
0
BLOCK
5
245
100
AcDbEntity
8
0
100
AcDbBlockBegin
2
*D7
70
1
10
0
20
0
30
0
3
*D7
0
LINE
5
247
100
AcDbEntity
8
0
62
256
6
ByLayer
370
-2
48
1
60
0
100
AcDbLine
10
48.65
20
-1.5875
30
0
11
48.65
21
-29.043306
31
0
39
0
210
0
220
0
230
1
0
LINE
5
248
100
AcDbEntity
8
0
62
256
6
ByLayer
370
-2
48
1
60
0
100
AcDbLine
10
40.15
20
-3.4352
30
0
11
40.15
21
-29.043306
31
0
39
0
210
0
220
0
230
1
0
LINE
5
249
100
AcDbEntity
8
0
62
256
6
ByLayer
370
-2
48
1
60
0
100
AcDbLine
10
52.15
20
-27.043306
30
0
11
55.65
21
-27.043306
31
0
39
0
210
0
220
0
230
1
0
LINE
5
24A
100
AcDbEntity
8
0
62
256
6
ByLayer
370
-2
48
1
60
0
100
AcDbLine
10
36.65
20
-27.043306
30
0
11
33.15
21
-27.043306
31
0
39
0
210
0
220
0
230
1
0
SOLID
5
24B
100
AcDbEntity
8
0
62
256
6
ByLayer
370
-1
48
1
60
0
100
AcDbTrace
10
52.15
20
-26.459973
30
0
11
52.15
21
-27.626639
31
0
12
48.65
22
-27.043306
32
0
13
48.65
23
-27.043306
33
0
39
0
210
0
220
0
230
1
0
SOLID
5
24C
100
AcDbEntity
8
0
62
256
6
ByLayer
370
-1
48
1
60
0
100
AcDbTrace
10
36.65
20
-27.626639
30
0
11
36.65
21
-26.459973
31
0
12
40.15
22
-27.043306
32
0
13
40.15
23
-27.043306
33
0
39
0
210
0
220
0
230
1
0
MTEXT
5
24D
100
AcDbEntity
8
0
62
256
6
ByLayer
370
18
48
1
60
0
100
AcDbMText
10
44.4
20
-21.043306
30
0
210
0
220
0
230
1
1
\A1;8.5
40
3
41
0
44
1
50
0
71
5
72
5
7
iso_b_vert
0
POINT
5
24E
100
AcDbEntity
8
Defpoints
62
0
6
ByLayer
370
-1
48
1
60
0
100
AcDbPoint
10
48.65
20
0
30
0
39
0
210
0
220
0
230
1
50
360
0
POINT
5
24F
100
AcDbEntity
8
Defpoints
62
0
6
ByLayer
370
-1
48
1
60
0
100
AcDbPoint
10
40.15
20
-1.8477
30
0
39
0
210
0
220
0
230
1
50
360
0
POINT
5
250
100
AcDbEntity
8
Defpoints
62
0
6
ByLayer
370
-1
48
1
60
0
100
AcDbPoint
10
40.15
20
-27.043306
30
0
39
0
210
0
220
0
230
1
50
360
0
ENDBLK
5
246
100
AcDbEntity
8
0
100
AcDbBlockEnd
0
BLOCK
5
258
100
AcDbEntity
8
0
100
AcDbBlockBegin
2
_U3
70
0
10
0
20
0
30
0
3
_U3
0
MTEXT
5
252
100
AcDbEntity
8
SK2
62
256
6
ByLayer
370
18
48
1
60
0
100
AcDbMText
10
42.159458
20
-26.158192
30
0
210
0
220
0
230
1
1
\W0.7121;8.5
40
3
41
0
44
1.084337
50
0
71
7
72
5
7
iso_b_vert
0
LINE
5
253
100
AcDbEntity
8
SK2
62
256
6
ByLayer
370
13
48
1
60
0
100
AcDbLine
10
48.65
20
-1.5875
30
0
11
48.65
21
-29.043306
31
0
39
0
210
0
220
0
230
1
0
LINE
5
254
100
AcDbEntity
8
SK2
62
256
6
ByLayer
370
13
48
1
60
0
100
AcDbLine
10
40.15
20
-3.4352
30
0
11
40.15
21
-29.043306
31
0
39
0
210
0
220
0
230
1
0
LINE
5
255
100
AcDbEntity
8
SK2
62
256
6
ByLayer
370
13
48
1
60
0
100
AcDbLine
10
48.65
20
-27.043306
30
0
11
40.15
21
-27.043306
31
0
39
0
210
0
220
0
230
1
0
SOLID
5
256
100
AcDbEntity
8
SK2
62
256
6
ByLayer
370
18
48
1
60
0
100
AcDbTrace
10
48.65
20
-27.043306
30
0
11
45.150002
21
-27.50409
31
0
12
45.149998
22
-26.582522
32
0
13
45.149998
23
-26.582522
33
0
39
0
210
0
220
0
230
1
0
SOLID
5
257
100
AcDbEntity
8
SK2
62
256
6
ByLayer
370
18
48
1
60
0
100
AcDbTrace
10
40.15
20
-27.043306
30
0
11
43.649998
21
-26.582522
31
0
12
43.650002
22
-27.50409
32
0
13
43.650002
23
-27.50409
33
0
39
0
210
0
220
0
230
1
0
ENDBLK
5
259
100
AcDbEntity
8
0
100
AcDbBlockEnd
0
BLOCK
5
25E
100
AcDbEntity
8
0
100
AcDbBlockBegin
2
*D9
70
1
10
0
20
0
30
0
3
*D9
0
LINE
5
260
100
AcDbEntity
8
0
62
256
6
ByLayer
370
-2
48
1
60
0
100
AcDbLine
10
48.65
20
1.5875
30
0
11
48.65
21
7.403017
31
0
39
0
210
0
220
0
230
1
0
LINE
5
261
100
AcDbEntity
8
0
62
256
6
ByLayer
370
-2
48
1
60
0
100
AcDbLine
10
46.47
20
1.5875
30
0
11
46.47
21
7.403017
31
0
39
0
210
0
220
0
230
1
0
LINE
5
262
100
AcDbEntity
8
0
62
256
6
ByLayer
370
-2
48
1
60
0
100
AcDbLine
10
52.15
20
5.403017
30
0
11
55.65
21
5.403017
31
0
39
0
210
0
220
0
230
1
0
LINE
5
263
100
AcDbEntity
8
0
62
256
6
ByLayer
370
-2
48
1
60
0
100
AcDbLine
10
42.97
20
5.403017
30
0
11
39.47
21
5.403017
31
0
39
0
210
0
220
0
230
1
0
SOLID
5
264
100
AcDbEntity
8
0
62
256
6
ByLayer
370
-1
48
1
60
0
100
AcDbTrace
10
52.15
20
5.986351
30
0
11
52.15
21
4.819684
31
0
12
48.65
22
5.403017
32
0
13
48.65
23
5.403017
33
0
39
0
210
0
220
0
230
1
0
SOLID
5
265
100
AcDbEntity
8
0
62
256
6
ByLayer
370
-1
48
1
60
0
100
AcDbTrace
10
42.97
20
4.819684
30
0
11
42.97
21
5.986351
31
0
12
46.47
22
5.403017
32
0
13
46.47
23
5.403017
33
0
39
0
210
0
220
0
230
1
0
MTEXT
5
266
100
AcDbEntity
8
0
62
256
6
ByLayer
370
18
48
1
60
0
100
AcDbMText
10
47.56
20
11.403017
30
0
210
0
220
0
230
1
1
\A1;2.18
40
3
41
0
44
1
50
0
71
5
72
5
7
iso_b_vert
0
POINT
5
267
100
AcDbEntity
8
Defpoints
62
0
6
ByLayer
370
-1
48
1
60
0
100
AcDbPoint
10
48.65
20
0
30
0
39
0
210
0
220
0
230
1
50
360
0
POINT
5
268
100
AcDbEntity
8
Defpoints
62
0
6
ByLayer
370
-1
48
1
60
0
100
AcDbPoint
10
46.47
20
0
30
0
39
0
210
0
220
0
230
1
50
360
0
POINT
5
269
100
AcDbEntity
8
Defpoints
62
0
6
ByLayer
370
-1
48
1
60
0
100
AcDbPoint
10
46.47
20
5.403017
30
0
39
0
210
0
220
0
230
1
50
360
0
ENDBLK
5
25F
100
AcDbEntity
8
0
100
AcDbBlockEnd
0
BLOCK
5
272
100
AcDbEntity
8
0
100
AcDbBlockBegin
2
_U4
70
0
10
0
20
0
30
0
3
_U4
0
MTEXT
5
26B
100
AcDbEntity
8
SK2
62
256
6
ByLayer
370
18
48
1
60
0
100
AcDbMText
10
44.573486
20
13.288132
30
0
210
0
220
0
230
1
1
\W0.6563;2.18
40
3
41
0
44
1.084337
50
0
71
7
72
5
7
iso_b_vert
0
MTEXT
5
26C
100
AcDbEntity
8
SK2
62
256
6
ByLayer
370
18
48
1
60
0
100
AcDbMText
10
44.599986
20
6.185651
30
0
210
0
220
0
230
1
1
\W0.6474;'C'
40
3.5
41
0
44
1.084337
50
0
71
7
72
5
7
iso_b_vert
0
LINE
5
26D
100
AcDbEntity
8
SK2
62
256
6
ByLayer
370
13
48
1
60
0
100
AcDbLine
10
48.65
20
1.5875
30
0
11
48.65
21
7.403017
31
0
39
0
210
0
220
0
230
1
0
LINE
5
26E
100
AcDbEntity
8
SK2
62
256
6
ByLayer
370
13
48
1
60
0
100
AcDbLine
10
46.47
20
1.5875
30
0
11
46.47
21
7.403017
31
0
39
0
210
0
220
0
230
1
0
LINE
5
26F
100
AcDbEntity
8
SK2
62
256
6
ByLayer
370
13
48
1
60
0
100
AcDbLine
10
56.15
20
5.403017
30
0
11
38.97
21
5.403017
31
0
39
0
210
0
220
0
230
1
0
SOLID
5
270
100
AcDbEntity
8
SK2
62
256
6
ByLayer
370
18
48
1
60
0
100
AcDbTrace
10
48.65
20
5.403017
30
0
11
52.149998
21
5.863801
31
0
12
52.150002
22
4.942234
32
0
13
52.150002
23
4.942234
33
0
39
0
210
0
220
0
230
1
0
SOLID
5
271
100
AcDbEntity
8
SK2
62
256
6
ByLayer
370
18
48
1
60
0
100
AcDbTrace
10
46.47
20
5.403017
30
0
11
42.970002
21
4.942234
31
0
12
42.969998
22
5.863801
32
0
13
42.969998
23
5.863801
33
0
39
0
210
0
220
0
230
1
0
ENDBLK
5
273
100
AcDbEntity
8
0
100
AcDbBlockEnd
0
BLOCK
5
278
100
AcDbEntity
8
0
100
AcDbBlockBegin
2
*D11
70
1
10
0
20
0
30
0
3
*D11
0
LINE
5
27A
100
AcDbEntity
8
0
62
256
6
ByLayer
370
-2
48
1
60
0
100
AcDbLine
10
50.2375
20
-2.451509
30
0
11
67.15
21
-2.451509
31
0
39
0
210
0
220
0
230
1
0
LINE
5
27B
100
AcDbEntity
8
0
62
256
6
ByLayer
370
-2
48
1
60
0
100
AcDbLine
10
50.2375
20
2.451509
30
0
11
67.15
21
2.451509
31
0
39
0
210
0
220
0
230
1
0
LINE
5
27C
100
AcDbEntity
8
0
62
256
6
ByLayer
370
-2
48
1
60
0
100
AcDbLine
10
65.15
20
2.451509
30
0
11
65.15
21
24.594366
31
0
39
0
210
0
220
0
230
1
0
LINE
5
27D
100
AcDbEntity
8
0
62
256
6
ByLayer
370
-2
48
1
60
0
100
AcDbLine
10
65.15
20
-5.951509
30
0
11
65.15
21
-9.451509
31
0
39
0
210
0
220
0
230
1
0
LINE
5
27E
100
AcDbEntity
8
0
62
256
6
ByLayer
370
-2
48
1
60
0
100
AcDbLine
10
65.15
20
5.951509
30
0
11
65.15
21
9.451509
31
0
39
0
210
0
220
0
230
1
0
SOLID
5
27F
100
AcDbEntity
8
0
62
256
6
ByLayer
370
-1
48
1
60
0
100
AcDbTrace
10
65.733333
20
-5.951509
30
0
11
64.566667
21
-5.951509
31
0
12
65.15
22
-2.451509
32
0
13
65.15
23
-2.451509
33
0
39
0
210
0
220
0
230
1
0
SOLID
5
280
100
AcDbEntity
8
0
62
256
6
ByLayer
370
-1
48
1
60
0
100
AcDbTrace
10
64.566667
20
5.951509
30
0
11
65.733333
21
5.951509
31
0
12
65.15
22
2.451509
32
0
13
65.15
23
2.451509
33
0
39
0
210
0
220
0
230
1
0
MTEXT
5
281
100
AcDbEntity
8
0
62
256
6
ByLayer
370
18
48
1
60
0
100
AcDbMText
10
59.15
20
17.022937
30
0
210
0
220
0
230
1
1
\A1;4.9
40
3
41
0
44
1
50
90
71
5
72
5
7
iso_b_vert
0
POINT
5
282
100
AcDbEntity
8
Defpoints
62
0
6
ByLayer
370
-1
48
1
60
0
100
AcDbPoint
10
48.65
20
-2.451509
30
0
39
0
210
0
220
0
230
1
50
360
0
POINT
5
283
100
AcDbEntity
8
Defpoints
62
0
6
ByLayer
370
-1
48
1
60
0
100
AcDbPoint
10
48.65
20
2.451509
30
0
39
0
210
0
220
0
230
1
50
360
0
POINT
5
284
100
AcDbEntity
8
Defpoints
62
0
6
ByLayer
370
-1
48
1
60
0
100
AcDbPoint
10
65.15
20
2.451509
30
0
39
0
210
0
220
0
230
1
50
360
0
ENDBLK
5
279
100
AcDbEntity
8
0
100
AcDbBlockEnd
0
BLOCK
5
28D
100
AcDbEntity
8
0
100
AcDbBlockBegin
2
_U5
70
0
10
0
20
0
30
0
3
_U5
0
MTEXT
5
286
100
AcDbEntity
8
2
62
256
6
ByLayer
370
18
48
1
60
0
100
AcDbMText
10
64.558886
20
0.305103
30
0
210
0
220
0
230
1
1
\W0.7039;UNF 10-32
40
3
41
0
44
1.084337
50
90
71
7
72
5
7
iso_b_vert
0
MTEXT
5
287
100
AcDbEntity
8
2
62
256
6
ByLayer
370
18
48
1
60
0
100
AcDbMText
10
64.710366
20
22.551943
30
0
210
0
220
0
230
1
1
\W0.7601; 3BX
40
3.5
41
0
44
1.084337
50
90
71
7
72
5
7
iso_b_vert
0
LINE
5
288
100
AcDbEntity
8
2
62
256
6
ByLayer
370
13
48
1
60
0
100
AcDbLine
10
50.2375
20
-2.451509
30
0
11
67.15
21
-2.451509
31
0
39
0
210
0
220
0
230
1
0
LINE
5
289
100
AcDbEntity
8
2
62
256
6
ByLayer
370
13
48
1
60
0
100
AcDbLine
10
50.2375
20
2.451509
30
0
11
67.15
21
2.451509
31
0
39
0
210
0
220
0
230
1
0
LINE
5
28A
100
AcDbEntity
8
2
62
256
6
ByLayer
370
13
48
1
60
0
100
AcDbLine
10
65.15
20
32.451509
30
0
11
65.15
21
-9.951509
31
0
39
0
210
0
220
0
230
1
0
SOLID
5
28B
100
AcDbEntity
8
2
62
256
6
ByLayer
370
18
48
1
60
0
100
AcDbTrace
10
65.15
20
-2.451509
30
0
11
65.610784
21
-5.951507
31
0
12
64.689216
22
-5.95151
32
0
13
64.689216
23
-5.95151
33
0
39
0
210
0
220
0
230
1
0
SOLID
5
28C
100
AcDbEntity
8
2
62
256
6
ByLayer
370
18
48
1
60
0
100
AcDbTrace
10
65.15
20
2.451509
30
0
11
64.689216
21
5.951507
31
0
12
65.610784
22
5.95151
32
0
13
65.610784
23
5.95151
33
0
39
0
210
0
220
0
230
1
0
ENDBLK
5
28E
100
AcDbEntity
8
0
100
AcDbBlockEnd
0
BLOCK
5
293
100
AcDbEntity
8
0
100
AcDbBlockBegin
2
*D13
70
1
10
0
20
0
30
0
3
*D13
0
LINE
5
295
100
AcDbEntity
8
0
62
256
6
ByLayer
370
-2
48
1
60
0
100
AcDbLine
10
-22.9375
20
1.93
30
0
11
-28.85
21
1.93
31
0
39
0
210
0
220
0
230
1
0
LINE
5
296
100
AcDbEntity
8
0
62
256
6
ByLayer
370
-2
48
1
60
0
100
AcDbLine
10
-22.9375
20
-1.93
30
0
11
-28.85
21
-1.93
31
0
39
0
210
0
220
0
230
1
0
LINE
5
297
100
AcDbEntity
8
0
62
256
6
ByLayer
370
-2
48
1
60
0
100
AcDbLine
10
-26.85
20
1.93
30
0
11
-26.85
21
27.072857
31
0
39
0
210
0
220
0
230
1
0
LINE
5
298
100
AcDbEntity
8
0
62
256
6
ByLayer
370
-2
48
1
60
0
100
AcDbLine
10
-26.85
20
5.43
30
0
11
-26.85
21
8.93
31
0
39
0
210
0
220
0
230
1
0
LINE
5
299
100
AcDbEntity
8
0
62
256
6
ByLayer
370
-2
48
1
60
0
100
AcDbLine
10
-26.85
20
-5.43
30
0
11
-26.85
21
-8.93
31
0
39
0
210
0
220
0
230
1
0
SOLID
5
29A
100
AcDbEntity
8
0
62
256
6
ByLayer
370
-1
48
1
60
0
100
AcDbTrace
10
-27.433333
20
5.43
30
0
11
-26.266667
21
5.43
31
0
12
-26.85
22
1.93
32
0
13
-26.85
23
1.93
33
0
39
0
210
0
220
0
230
1
0
SOLID
5
29B
100
AcDbEntity
8
0
62
256
6
ByLayer
370
-1
48
1
60
0
100
AcDbTrace
10
-26.266667
20
-5.43
30
0
11
-27.433333
21
-5.43
31
0
12
-26.85
22
-1.93
32
0
13
-26.85
23
-1.93
33
0
39
0
210
0
220
0
230
1
0
MTEXT
5
29C
100
AcDbEntity
8
0
62
256
6
ByLayer
370
18
48
1
60
0
100
AcDbMText
10
-32.85
20
18.001429
30
0
210
0
220
0
230
1
1
\A1;3.86
40
3
41
0
44
1
50
90
71
5
72
5
7
iso_b_vert
0
POINT
5
29D
100
AcDbEntity
8
Defpoints
62
0
6
ByLayer
370
-1
48
1
60
0
100
AcDbPoint
10
-21.35
20
1.93
30
0
39
0
210
0
220
0
230
1
50
360
0
POINT
5
29E
100
AcDbEntity
8
Defpoints
62
0
6
ByLayer
370
-1
48
1
60
0
100
AcDbPoint
10
-21.35
20
-1.93
30
0
39
0
210
0
220
0
230
1
50
360
0
POINT
5
29F
100
AcDbEntity
8
Defpoints
62
0
6
ByLayer
370
-1
48
1
60
0
100
AcDbPoint
10
-26.85
20
-1.93
30
0
39
0
210
0
220
0
230
1
50
360
0
ENDBLK
5
294
100
AcDbEntity
8
0
100
AcDbBlockEnd
0
BLOCK
5
2A7
100
AcDbEntity
8
0
100
AcDbBlockBegin
2
_U6
70
0
10
0
20
0
30
0
3
_U6
0
MTEXT
5
2A1
100
AcDbEntity
8
SK2
62
256
6
ByLayer
370
18
48
1
60
0
100
AcDbMText
10
-27.441114
20
11.135
30
0
210
0
220
0
230
1
1
\W0.7694;4.928
40
3
41
0
44
1.084337
50
90
71
7
72
5
7
iso_b_vert
0
LINE
5
2A2
100
AcDbEntity
8
SK2
62
256
6
ByLayer
370
13
48
1
60
0
100
AcDbLine
10
-22.9375
20
1.93
30
0
11
-28.85
21
1.93
31
0
39
0
210
0
220
0
230
1
0
LINE
5
2A3
100
AcDbEntity
8
SK2
62
256
6
ByLayer
370
13
48
1
60
0
100
AcDbLine
10
-22.9375
20
-1.93
30
0
11
-28.85
21
-1.93
31
0
39
0
210
0
220
0
230
1
0
LINE
5
2A4
100
AcDbEntity
8
SK2
62
256
6
ByLayer
370
13
48
1
60
0
100
AcDbLine
10
-26.85
20
-9.43
30
0
11
-26.85
21
20.598627
31
0
39
0
210
0
220
0
230
1
0
SOLID
5
2A5
100
AcDbEntity
8
SK2
62
256
6
ByLayer
370
18
48
1
60
0
100
AcDbTrace
10
-26.85
20
1.93
30
0
11
-27.310784
21
5.429998
31
0
12
-26.389216
22
5.430002
32
0
13
-26.389216
23
5.430002
33
0
39
0
210
0
220
0
230
1
0
SOLID
5
2A6
100
AcDbEntity
8
SK2
62
256
6
ByLayer
370
18
48
1
60
0
100
AcDbTrace
10
-26.85
20
-1.93
30
0
11
-26.389216
21
-5.429998
31
0
12
-27.310784
22
-5.430002
32
0
13
-27.310784
23
-5.430002
33
0
39
0
210
0
220
0
230
1
0
ENDBLK
5
2A8
100
AcDbEntity
8
0
100
AcDbBlockEnd
0
ENDSEC
0
SECTION
2
ENTITIES
0
ARC
5
D0
100
AcDbEntity
8
SK1
62
256
6
ByLayer
370
18
48
1
60
0
100
AcDbCircle
39
0
10
-16.93
20
0
30
0
40
2.36544000000002
210
0
220
0
230
1
100
AcDbArc
50
324.67802
51
35.32198
0
ARC
5
D1
100
AcDbEntity
8
1
62
256
6
ByLayer
370
18
48
1
60
0
100
AcDbCircle
39
0
10
39.822901
20
2.4477
30
0
40
0.6
210
0
220
0
230
1
100
AcDbArc
50
270
51
301
0
ARC
5
D2
100
AcDbEntity
8
1
62
256
6
ByLayer
370
18
48
1
60
0
100
AcDbCircle
39
0
10
21.219991
20
-2.6477
30
0
40
0.8
210
0
220
0
230
1
100
AcDbArc
50
90
51
100
0
ARC
5
D3
100
AcDbEntity
8
1
62
256
6
ByLayer
370
18
48
1
60
0
100
AcDbCircle
39
0
10
21.219991
20
2.6477
30
0
40
0.8
210
0
220
0
230
1
100
AcDbArc
50
260
51
270
0
POINT
5
70
100
AcDbEntity
8
81
62
256
6
ByLayer
370
18
48
1
60
0
100
AcDbPoint
10
48.65
20
0
30
0
39
0
210
0
220
0
230
1
50
360
0
POINT
5
72
100
AcDbEntity
8
80
62
256
6
ByLayer
370
18
48
1
60
0
100
AcDbPoint
10
0
20
0
30
0
39
0
210
0
220
0
230
1
50
360
0
POINT
5
74
100
AcDbEntity
8
1
62
256
6
ByLayer
370
18
48
1
60
1
100
AcDbPoint
10
-21.35
20
0
30
0
39
0
210
0
220
0
230
1
50
360
0
POINT
5
76
100
AcDbEntity
8
1
62
256
6
ByLayer
370
18
48
1
60
1
100
AcDbPoint
10
48.65
20
0
30
0
39
0
210
0
220
0
230
1
50
360
0
POINT
5
77
100
AcDbEntity
8
1
62
256
6
ByLayer
370
18
48
1
60
1
100
AcDbPoint
10
48.65
20
0
30
0
39
0
210
0
220
0
230
1
50
360
0
POINT
5
78
100
AcDbEntity
8
1
62
256
6
ByLayer
370
18
48
1
60
1
100
AcDbPoint
10
21.15
20
0
30
0
39
0
210
0
220
0
230
1
50
360
0
POINT
5
79
100
AcDbEntity
8
1
62
256
6
ByLayer
370
18
48
1
60
1
100
AcDbPoint
10
48.65
20
0
30
0
39
0
210
0
220
0
230
1
50
360
0
POINT
5
7A
100
AcDbEntity
8
1
62
256
6
ByLayer
370
18
48
1
60
1
100
AcDbPoint
10
25.275
20
0
30
0
39
0
210
0
220
0
230
1
50
360
0
POINT
5
7B
100
AcDbEntity
8
1
62
256
6
ByLayer
370
18
48
1
60
1
100
AcDbPoint
10
48.65
20
0
30
0
39
0
210
0
220
0
230
1
50
360
0
POINT
5
7C
100
AcDbEntity
8
1
62
256
6
ByLayer
370
18
48
1
60
1
100
AcDbPoint
10
40.15
20
-1.8477
30
0
39
0
210
0
220
0
230
1
50
360
0
POINT
5
7D
100
AcDbEntity
8
1
62
256
6
ByLayer
370
18
48
1
60
1
100
AcDbPoint
10
48.65
20
0
30
0
39
0
210
0
220
0
230
1
50
360
0
POINT
5
7E
100
AcDbEntity
8
1
62
256
6
ByLayer
370
18
48
1
60
1
100
AcDbPoint
10
46.47
20
0
30
0
39
0
210
0
220
0
230
1
50
360
0
POINT
5
7F
100
AcDbEntity
8
1
62
256
6
ByLayer
370
18
48
1
60
1
100
AcDbPoint
10
48.65
20
-2.451509
30
0
39
0
210
0
220
0
230
1
50
360
0
POINT
5
80
100
AcDbEntity
8
1
62
256
6
ByLayer
370
18
48
1
60
1
100
AcDbPoint
10
48.65
20
2.451509
30
0
39
0
210
0
220
0
230
1
50
360
0
POINT
5
81
100
AcDbEntity
8
1
62
256
6
ByLayer
370
18
48
1
60
1
100
AcDbPoint
10
-21.35
20
1.93
30
0
39
0
210
0
220
0
230
1
50
360
0
POINT
5
82
100
AcDbEntity
8
1
62
256
6
ByLayer
370
18
48
1
60
1
100
AcDbPoint
10
-21.35
20
-1.93
30
0
39
0
210
0
220
0
230
1
50
360
0
SPLINE
5
D4
100
AcDbEntity
8
1
62
256
6
ByLayer
370
13
48
1
60
0
100
AcDbSpline
70
4
71
3
72
8
73
4
40
0
40
0
40
0
40
0
40
1
40
1
40
1
40
1
41
1
10
47.7061937599461
20
-1.98558401464348
30
0
41
1
10
47.7019851360534
20
-1.99404806407088
30
0
41
1
10
47.6977765034025
20
-1.9992063215669
30
0
41
1
10
47.6935678655205
20
-2.00105184043699
30
0
0
SPLINE
5
D5
100
AcDbEntity
8
1
62
256
6
ByLayer
370
18
48
1
60
0
100
AcDbSpline
70
4
71
3
72
12
73
8
40
0
40
0
40
0
40
0
40
0.117973014039144
40
0.117973014039144
40
0.294378411231315
40
0.294378411231315
40
1
40
1
40
1
40
1
41
1
10
43.7664484571181
20
2.42818125565896
30
0
41
1
10
43.7671395743229
20
2.43002945181024
30
0
41
1
10
43.7678319061655
20
2.43177052669043
30
0
41
1
10
43.7695631680908
20
2.43584566672521
30
0
41
1
10
43.770604570906
20
2.43804702226169
30
0
41
1
10
43.7757984077609
20
2.447785167354
30
0
41
1
10
43.7799310306757
20
2.45158200861888
30
0
41
1
10
43.7840430452846
20
2.45150761871133
30
0
0
SPLINE
5
D6
100
AcDbEntity
8
1
62
256
6
ByLayer
370
13
48
1
60
0
100
AcDbSpline
70
4
71
3
72
8
73
4
40
0
40
0
40
0
40
0
40
1
40
1
40
1
40
1
41
1
10
42.9302755796871
20
-2.00135918420889
30
0
41
1
10
42.9336114693218
20
-2.00009632580904
30
0
41
1
10
42.9369473585794
20
-1.99673039388824
30
0
41
1
10
42.9402832474538
20
-1.99128690789846
30
0
0
SPLINE
5
D7
100
AcDbEntity
8
1
62
256
6
ByLayer
370
18
48
1
60
0
100
AcDbSpline
70
4
71
3
72
14
73
10
40
0
40
0
40
0
40
0
40
0.0381756689037337
40
0.0381756689037337
40
0.278631751677801
40
0.278631751677801
40
0.519087834451869
40
0.519087834451869
40
1
40
1
40
1
40
1
41
1
10
42.7605358548407
20
-2.30050066004892
30
0
41
1
10
42.7602668722489
20
-2.30097407675603
30
0
41
1
10
42.7599978365673
20
-2.30142936876535
30
0
41
1
10
42.7580338063106
20
-2.30462007461185
30
0
41
1
10
42.756335582959
20
-2.30664914301789
30
0
41
1
10
42.7529258561814
20
-2.30923439672637
30
0
41
1
10
42.7512109904754
20
-2.3097890486778
30
0
41
1
10
42.7460660930589
20
-2.30920422948677
30
0
41
1
10
42.7426360191836
20
-2.3058364262773
30
0
41
1
10
42.7392072254137
20
-2.29951605821765
30
0
0
SPLINE
5
D8
100
AcDbEntity
8
1
62
256
6
ByLayer
370
18
48
1
60
0
100
AcDbSpline
70
4
71
3
72
12
73
8
40
0
40
0
40
0
40
0
40
0.0721560260195214
40
0.0721560260195214
40
0.381437350679683
40
0.381437350679683
40
1
40
1
40
1
40
1
41
1
10
47.6400387818866
20
-2.0990667663506
30
0
41
1
10
47.6398265399154
20
-2.09958643276295
30
0
41
1
10
47.6396151016171
20
-2.1000720496389
30
0
41
1
10
47.6385015838782
20
-2.10245862877505
30
0
41
1
10
47.6376115235655
20
-2.10376720905202
30
0
41
1
10
47.6349999431446
20
-2.1057606480787
30
0
41
1
10
47.6333385824425
20
-2.10452992319196
30
0
41
1
10
47.6317681135007
20
-2.10073635486626
30
0
0
SPLINE
5
D9
100
AcDbEntity
8
1
62
256
6
ByLayer
370
18
48
1
60
0
100
AcDbSpline
70
4
71
3
72
8
73
4
40
0
40
0
40
0
40
0
40
1
40
1
40
1
40
1
41
1
10
47.1711293382225
20
-2.12745632913624
30
0
41
1
10
47.1791727202398
20
-2.1521061962269
30
0
41
1
10
47.1871420323548
20
-2.17078404278754
30
0
41
1
10
47.1949480925067
20
-2.18334543659253
30
0
0
SPLINE
5
DA
100
AcDbEntity
8
1
62
256
6
ByLayer
370
18
48
1
60
0
100
AcDbSpline
70
4
71
3
72
10
73
6
40
0
40
0
40
0
40
0
40
0.843290736082653
40
0.843290736082653
40
1
40
1
40
1
40
1
41
1
10
42.4619245171832
20
-2.22110683779516
30
0
41
1
10
42.4699274785191
20
-2.24926733764477
30
0
41
1
10
42.4778369783189
20
-2.26600939674708
30
0
41
1
10
42.4873303478709
20
-2.27236886295694
30
0
41
1
10
42.4888200818163
20
-2.27296954352894
30
0
41
1
10
42.4903120455214
20
-2.27317020059553
30
0
0
SPLINE
5
DB
100
AcDbEntity
8
1
62
256
6
ByLayer
370
13
48
1
60
0
100
AcDbSpline
70
4
71
3
72
9
73
5
40
0
40
0
40
0
40
0
40
0.14353829617189
40
1
40
1
40
1
40
1
41
1
10
47.0824034819766
20
-1.98969651182375
30
0
41
1
10
47.0815658374248
20
-1.98823096613057
30
0
41
1
10
47.0757301505534
20
-1.9770997584744
30
0
41
1
10
47.069894463746
20
-1.95954492972245
30
0
41
1
10
47.0648964215221
20
-1.93997138655882
30
0
0
SPLINE
5
DC
100
AcDbEntity
8
1
62
256
6
ByLayer
370
13
48
1
60
0
100
AcDbSpline
70
4
71
3
72
8
73
4
40
0
40
0
40
0
40
0
40
1
40
1
40
1
40
1
41
1
10
42.3015964318553
20
-1.93804042446843
30
0
41
1
10
42.3075838074686
20
-1.96181351559744
30
0
41
1
10
42.3135711830224
20
-1.97908070648526
30
0
41
1
10
42.3195585591487
20
-1.98962364555183
30
0
0
SPLINE
5
DD
100
AcDbEntity
8
1
62
256
6
ByLayer
370
13
48
1
60
0
100
AcDbSpline
70
4
71
3
72
9
73
5
40
0
40
0
40
0
40
0
40
0.190918643178738
40
1
40
1
40
1
40
1
41
1
10
44.3053544651042
20
1.99178464313297
30
0
41
1
10
44.3077807881922
20
1.99566624507958
30
0
41
1
10
44.3204894639888
20
2.01022242254439
30
0
41
1
10
44.3331981417249
20
1.99419320292253
30
0
41
1
10
44.3434804949439
20
1.96172426916942
30
0
0
SPLINE
5
DE
100
AcDbEntity
8
1
62
256
6
ByLayer
370
13
48
1
60
0
100
AcDbSpline
70
4
71
3
72
9
73
5
40
0
40
0
40
0
40
0
40
0.598735200214533
40
1
40
1
40
1
40
1
41
1
10
42.0897048790709
20
-1.88299364922386
30
0
41
1
10
42.1012195492808
20
-1.94492224400437
30
0
41
1
10
42.1204512942969
20
-2.00901914863758
30
0
41
1
10
42.1396828763648
20
-2.00318067513925
30
0
41
1
10
42.1473998347145
20
-1.9897400399733
30
0
0
SPLINE
5
DF
100
AcDbEntity
8
1
62
256
6
ByLayer
370
13
48
1
60
0
100
AcDbSpline
70
4
71
3
72
9
73
5
40
0
40
0
40
0
40
0
40
0.520043372908994
40
1
40
1
40
1
40
1
41
1
10
46.9102781322839
20
-1.98961020485695
30
0
41
1
10
46.9003486300469
20
-2.00696460699939
30
0
41
1
10
46.8812549836722
20
-2.00503473623269
30
0
41
1
10
46.8621615322023
20
-1.9343025864988
30
0
41
1
10
46.852997518401
20
-1.88555401755894
30
0
0
SPLINE
5
E0
100
AcDbEntity
8
1
62
256
6
ByLayer
370
18
48
1
60
0
100
AcDbSpline
70
4
71
3
72
21
73
17
40
0
40
0
40
0
40
0
40
0.0251039471092305
40
0.0251039471092305
40
0.146965953720577
40
0.146965953720577
40
0.268827960331924
40
0.268827960331924
40
0.512551973554615
40
0.512551973554615
40
0.756275986777306
40
0.756275986777306
40
0.878137993388652
40
0.939068996694326
40
0.939068996694326
40
1
40
1
40
1
40
1
41
1
10
44.5777156558597
20
2.45150947561746
30
0
41
1
10
44.5781113172684
20
2.45150806910107
30
0
41
1
10
44.5785073687246
20
2.45147091019598
30
0
41
1
10
44.5808284138642
20
2.45104369819984
30
0
41
1
10
44.5827599064608
20
2.44983320017471
30
0
41
1
10
44.5865985109177
20
2.44573612702726
30
0
41
1
10
44.5885106227859
20
2.44284999226866
30
0
41
1
10
44.5942299771794
20
2.43171801674848
30
0
41
1
10
44.5980193573973
20
2.42100355009981
30
0
41
1
10
44.6055969414381
20
2.39307275937546
30
0
41
1
10
44.6093882362421
20
2.37585644218285
30
0
41
1
10
44.6151189022525
20
2.34509965182139
30
0
41
1
10
44.6179926163531
20
2.3284862942395
30
0
41
1
10
44.6208779935935
20
2.30999230670608
30
0
41
1
10
44.6228043296296
20
2.29724063639631
30
0
41
1
10
44.6237700038965
20
2.29064535349306
30
0
41
1
10
44.6247327963847
20
2.28386787115087
30
0
0
SPLINE
5
E1
100
AcDbEntity
8
1
62
256
6
ByLayer
370
18
48
1
60
0
100
AcDbSpline
70
4
71
3
72
19
73
15
40
0
40
0
40
0
40
0
40
0.111484857416235
40
0.111484857416235
40
0.222969714832471
40
0.222969714832471
40
0.445939429664942
40
0.668909144497413
40
0.668909144497413
40
0.780394001913649
40
0.780394001913649
40
0.891878859329884
40
0.891878859329884
40
1
40
1
40
1
40
1
41
1
10
44.7031582318423
20
2.25163415615628
30
0
41
1
10
44.7012388854121
20
2.26639461701967
30
0
41
1
10
44.6993199698496
20
2.28036408154861
30
0
41
1
10
44.6954940324873
20
2.30659936190523
30
0
41
1
10
44.6935829272435
20
2.31888928844751
30
0
41
1
10
44.6878544941658
20
2.35331174563046
30
0
41
1
10
44.680235270013
20
2.39269206575759
30
0
41
1
10
44.6726472116616
20
2.41917563306163
30
0
41
1
10
44.6669404280255
20
2.43413379495689
30
0
41
1
10
44.6650352795667
20
2.43830119421747
30
0
41
1
10
44.6612112995773
20
2.44497175033319
30
0
41
1
10
44.6592877395809
20
2.44747675165422
30
0
41
1
10
44.6555085637396
20
2.4507145044233
30
0
41
1
10
44.6536518533482
20
2.45151231213779
30
0
41
1
10
44.651798451553
20
2.45152001414084
30
0
0
SPLINE
5
E2
100
AcDbEntity
8
1
62
256
6
ByLayer
370
18
48
1
60
0
100
AcDbSpline
70
4
71
3
72
19
73
15
40
0
40
0
40
0
40
0
40
0.0790630077246698
40
0.0790630077246698
40
0.15812601544934
40
0.316252030898679
40
0.316252030898679
40
0.632504061797358
40
0.632504061797358
40
0.790630077246697
40
0.790630077246697
40
0.948756092696036
40
0.948756092696036
40
1
40
1
40
1
40
1
41
1
10
40.2540391673058
20
1.73291340056434
30
0
41
1
10
40.2527372358699
20
1.74450735609526
30
0
41
1
10
40.2514342079525
20
1.75566372449265
30
0
41
1
10
40.2488421030501
20
1.77701679399996
30
0
41
1
10
40.2449694303399
20
1.80765038327888
30
0
41
1
10
40.2411601479817
20
1.83416261749366
30
0
41
1
10
40.2336282699966
20
1.88176960012137
30
0
41
1
10
40.2287407610066
20
1.90631861324613
30
0
41
1
10
40.221300345546
20
1.93204741919718
30
0
41
1
10
40.2187982383982
20
1.93877248982625
30
0
41
1
10
40.2138819666102
20
1.94826308041263
30
0
41
1
10
40.2114606214807
20
1.95106695054724
30
0
41
1
10
40.2083054931302
20
1.9522575139593
30
0
41
1
10
40.2075377697435
20
1.95234980289786
30
0
41
1
10
40.2067736199655
20
1.95224237310356
30
0
0
SPLINE
5
E3
100
AcDbEntity
8
1
62
256
6
ByLayer
370
13
48
1
60
0
100
AcDbSpline
70
4
71
3
72
9
73
5
40
0
40
0
40
0
40
0
40
0.635648032493041
40
1
40
1
40
1
40
1
41
1
10
44.9242383276767
20
1.99215474801375
30
0
41
1
10
44.9344009428973
20
1.97625548135682
30
0
41
1
10
44.9503886944588
20
1.92081890413462
30
0
41
1
10
44.9663765675637
20
1.81969835469118
30
0
41
1
10
44.972201782542
20
1.77720821561644
30
0
0
SPLINE
5
E4
100
AcDbEntity
8
1
62
256
6
ByLayer
370
18
48
1
60
0
100
AcDbSpline
70
4
71
3
72
20
73
16
40
0
40
0
40
0
40
0
40
0.279525243539107
40
0.279525243539107
40
0.41928786530866
40
0.41928786530866
40
0.489169176193438
40
0.489169176193438
40
0.559050487078215
40
0.559050487078215
40
0.838575730617331
40
0.838575730617331
40
0.978338352386889
40
0.978338352386889
40
1
40
1
40
1
40
1
41
1
10
41.5438380888761
20
-1.7662810730337
30
0
41
1
10
41.5515636893179
20
-1.83510819111092
30
0
41
1
10
41.5591772581254
20
-1.8950103308014
30
0
41
1
10
41.5707117185709
20
-1.97170673548496
30
0
41
1
10
41.5745692094714
20
-1.99506744333363
30
0
41
1
10
41.5803780520476
20
-2.02672143458423
30
0
41
1
10
41.5823226405638
20
-2.03672804706781
30
0
41
1
10
41.5862000476542
20
-2.05548073272399
30
0
41
1
10
41.5881302342091
20
-2.06421724519132
30
0
41
1
10
41.5977497305038
20
-2.10475693860826
30
0
41
1
10
41.6053577499432
20
-2.12719820203492
30
0
41
1
10
41.6168629036486
20
-2.14614325805857
30
0
41
1
10
41.6207042920602
20
-2.1499915755212
30
0
41
1
10
41.6251565176487
20
-2.15152084042725
30
0
41
1
10
41.625754605013
20
-2.15166521314615
30
0
41
1
10
41.626353071546
20
-2.15174850620559
30
0
0
SPLINE
5
E5
100
AcDbEntity
8
1
62
256
6
ByLayer
370
18
48
1
60
0
100
AcDbSpline
70
4
71
3
72
18
73
14
40
0
40
0
40
0
40
0
40
0.088497017628658
40
0.088497017628658
40
0.189775126781029
40
0.189775126781029
40
0.594887563390516
40
0.594887563390516
40
0.797443781695259
40
0.797443781695259
40
0.898721890847629
40
0.898721890847629
40
1
40
1
40
1
40
1
41
1
10
42.0151487708769
20
-2.20639022452974
30
0
41
1
10
42.0137035529067
20
-2.20617914753637
30
0
41
1
10
42.0122535408002
20
-2.20545725582161
30
0
41
1
10
42.0091551583259
20
-2.2028245499244
30
0
41
1
10
42.0075052220115
20
-2.20075938598166
30
0
41
1
10
41.9992586385132
20
-2.18718397024671
30
0
41
1
10
41.9926939301977
20
-2.16599684376567
30
0
41
1
10
41.9828356336447
20
-2.11888507055605
30
0
41
1
10
41.9795452351912
20
-2.10061224148453
30
0
41
1
10
41.974572223082
20
-2.06924100021908
30
0
41
1
10
41.9729056753354
20
-2.05810384052316
30
0
41
1
10
41.9695759655504
20
-2.03464871267713
30
0
41
1
10
41.9679108920112
20
-2.02231833763557
30
0
41
1
10
41.9662460904859
20
-2.00938904423177
30
0
0
SPLINE
5
E6
100
AcDbEntity
8
1
62
256
6
ByLayer
370
18
48
1
60
0
100
AcDbSpline
70
4
71
3
72
22
73
18
40
0
40
0
40
0
40
0
40
0.122658352741362
40
0.122658352741362
40
0.210392517467225
40
0.210392517467225
40
0.298126682193089
40
0.298126682193089
40
0.473595011644816
40
0.473595011644816
40
0.649063341096544
40
0.649063341096544
40
0.736797505822408
40
0.736797505822408
40
0.824531670548272
40
0.824531670548272
40
1
40
1
40
1
40
1
41
1
10
46.7166255055116
20
-2.32072549926235
30
0
41
1
10
46.7154048179961
20
-2.32092814458224
30
0
41
1
10
46.7142214895583
20
-2.31971849555302
30
0
41
1
10
46.712270503648
20
-2.31512628288039
30
0
41
1
10
46.7114838967426
20
-2.3124582488523
30
0
41
1
10
46.7099827815623
20
-2.30564943534637
30
0
41
1
10
46.7092653211305
20
-2.30150695778849
30
0
41
1
10
46.7071864264088
20
-2.28691950532132
30
0
41
1
10
46.7058942777973
20
-2.27431461009115
30
0
41
1
10
46.7033410860325
20
-2.24366056818028
30
0
41
1
10
46.7020754552101
20
-2.22562476454516
30
0
41
1
10
46.7001212296173
20
-2.19458176190275
30
0
41
1
10
46.6994609590311
20
-2.18356729112793
30
0
41
1
10
46.6981153336146
20
-2.16019435771122
30
0
41
1
10
46.6974291453164
20
-2.1478202059661
30
0
41
1
10
46.695331824569
20
-2.10875065681782
30
0
41
1
10
46.693887598609
20
-2.08024997437099
30
0
41
1
10
46.6923990388829
20
-2.04927306513179
30
0
0
SPLINE
5
E7
100
AcDbEntity
8
1
62
256
6
ByLayer
370
18
48
1
60
0
100
AcDbSpline
70
4
71
3
72
17
73
13
40
0
40
0
40
0
40
0
40
0.189214388953181
40
0.378428777906363
40
0.378428777906363
40
0.473035972382953
40
0.473035972382953
40
0.567643166859544
40
0.567643166859544
40
0.756857555812727
40
0.756857555812727
40
1
40
1
40
1
40
1
41
1
10
46.4081658349319
20
-1.95106712602256
30
0
41
1
10
46.4138126299074
20
-1.99153194058471
30
0
41
1
10
46.4249368359608
20
-2.0666331866972
30
0
41
1
10
46.436060007491
20
-2.1306260948835
30
0
41
1
10
46.4444958295931
20
-2.17447837761708
30
0
41
1
10
46.4473230257035
20
-2.18840355691759
30
0
41
1
10
46.4530198393254
20
-2.21485010396407
30
0
41
1
10
46.4558922800673
20
-2.2273748905356
30
0
41
1
10
46.4644924228746
20
-2.26246416498444
30
0
41
1
10
46.470230046977
20
-2.28269080321235
30
0
41
1
10
46.4832752691794
20
-2.32172544985045
30
0
41
1
10
46.4905280073038
20
-2.33847311502379
30
0
41
1
10
46.4976445640312
20
-2.34973725643175
30
0
0
SPLINE
5
E8
100
AcDbEntity
8
1
62
256
6
ByLayer
370
13
48
1
60
0
100
AcDbSpline
70
4
71
3
72
10
73
6
40
0
40
0
40
0
40
0
40
0.0124077739067355
40
0.610469744061012
40
1
40
1
40
1
40
1
41
1
10
46.2243245372237
20
-1.62982706081232
30
0
41
1
10
46.224589054705
20
-1.63226128383198
30
0
41
1
10
46.2376034696692
20
-1.75149564580582
30
0
41
1
10
46.2589221547719
20
-1.90380106141995
30
0
41
1
10
46.2799763297127
20
-1.97419618031694
30
0
41
1
10
46.2882806053602
20
-1.98910518305695
30
0
0
SPLINE
5
E9
100
AcDbEntity
8
1
62
256
6
ByLayer
370
13
48
1
60
0
100
AcDbSpline
70
4
71
3
72
10
73
6
40
0
40
0
40
0
40
0
40
0.339986105440187
40
0.955696061321007
40
1
40
1
40
1
40
1
41
1
10
41.4610352257069
20
-1.62526673296725
30
0
41
1
10
41.4680755341248
20
-1.69040504197443
30
0
41
1
10
41.4878657398411
20
-1.85231062918442
30
0
41
1
10
41.5085733741882
20
-1.95194675319027
30
0
41
1
10
41.522240702461
20
-1.98271951581165
30
0
41
1
10
41.5231581323565
20
-1.98462749617303
30
0
0
SPLINE
5
EA
100
AcDbEntity
8
1
62
256
6
ByLayer
370
13
48
1
60
0
100
AcDbSpline
70
4
71
3
72
10
73
6
40
0
40
0
40
0
40
0
40
0.4197112418818
40
0.896641920630371
40
1
40
1
40
1
40
1
41
1
10
41.2490948331833
20
-1.50906838969277
30
0
41
1
10
41.2603150651223
20
-1.62586742037962
30
0
41
1
10
41.2842851992826
20
-1.8371729502218
30
0
41
1
10
41.3110184336462
20
-1.96341728191217
30
0
41
1
10
41.3265314227409
20
-1.9915625148237
30
0
41
1
10
41.3292945173816
20
-1.99514464070785
30
0
0
SPLINE
5
EB
100
AcDbEntity
8
1
62
256
6
ByLayer
370
18
48
1
60
0
100
AcDbSpline
70
4
71
3
72
17
73
13
40
0
40
0
40
0
40
0
40
0.142228860215219
40
0.142228860215219
40
0.42815257347681
40
0.42815257347681
40
0.499633501792209
40
0.499633501792209
40
0.571114430107608
40
0.714076286738405
40
0.714076286738405
40
1
40
1
40
1
40
1
41
1
10
40.3191654705145
20
1.96803430055596
30
0
41
1
10
40.3232597317725
20
1.96866220345586
30
0
41
1
10
40.3273003398009
20
1.96723165900389
30
0
41
1
10
40.3393562496684
20
1.95683111812266
30
0
41
1
10
40.3472845270072
20
1.94174534239755
30
0
41
1
10
40.3572965601989
20
1.9124921538417
30
0
41
1
10
40.3593020125613
20
1.90611197614294
30
0
41
1
10
40.3633068870846
20
1.89231115244874
30
0
41
1
10
40.3692775860082
20
1.87014764404751
30
0
41
1
10
40.3751437704561
20
1.84367477301993
30
0
41
1
10
40.3867946054087
20
1.78509115203826
30
0
41
1
10
40.3944839326897
20
1.73855787772987
30
0
41
1
10
40.4022450392387
20
1.68441033182657
30
0
0
SPLINE
5
EC
100
AcDbEntity
8
1
62
256
6
ByLayer
370
18
48
1
60
0
100
AcDbSpline
70
4
71
3
72
20
73
16
40
0
40
0
40
0
40
0
40
0.249999999999999
40
0.249999999999999
40
0.374999999999999
40
0.374999999999999
40
0.499999999999999
40
0.499999999999999
40
0.749999999999999
40
0.749999999999999
40
0.874999999999999
40
0.874999999999999
40
0.9375
40
0.9375
40
1
40
1
40
1
40
1
41
1
10
41.011292061648
20
1.38978631614034
30
0
41
1
10
41.0049892444557
20
1.4714464081913
30
0
41
1
10
40.9987330323142
20
1.54639271379872
30
0
41
1
10
40.9893292257144
20
1.64882352289479
30
0
41
1
10
40.9861872095227
20
1.68131613999265
30
0
41
1
10
40.9798628764235
20
1.74277646174414
30
0
41
1
10
40.9767117696904
20
1.77140441119178
30
0
41
1
10
40.9672875363033
20
1.85117241594526
30
0
41
1
10
40.9610558858522
20
1.89623653418371
30
0
41
1
10
40.9516707738833
20
1.95167663389444
30
0
41
1
10
40.9485341820528
20
1.96812082348913
30
0
41
1
10
40.9437838217622
20
1.98964200299571
30
0
41
1
10
40.9421925786801
20
1.99628878921291
30
0
41
1
10
40.9390205959607
20
2.00842412534436
30
0
41
1
10
40.9374367114044
20
2.01392769967495
30
0
41
1
10
40.9358547114494
20
2.01887224579079
30
0
0
SPLINE
5
ED
100
AcDbEntity
8
1
62
256
6
ByLayer
370
13
48
1
60
0
100
AcDbSpline
70
4
71
3
72
10
73
6
40
0
40
0
40
0
40
0
40
0.098040706031487
40
0.575054054069657
40
1
40
1
40
1
40
1
41
1
10
40.9688966891415
20
1.95928287048642
30
0
41
1
10
40.971517187849
20
1.95076741392714
30
0
41
1
10
40.9868876099844
20
1.8934013641022
30
0
41
1
10
41.0136160297021
20
1.71853172316585
30
0
41
1
10
41.0377242232621
20
1.4681830328413
30
0
41
1
10
41.0490824419476
20
1.33401261610354
30
0
0
SPLINE
5
EE
100
AcDbEntity
8
1
62
256
6
ByLayer
370
13
48
1
60
0
100
AcDbSpline
70
4
71
3
72
10
73
6
40
0
40
0
40
0
40
0
40
0.153140095635573
40
0.627619404897544
40
1
40
1
40
1
40
1
41
1
10
45.1035317470821
20
1.99756220721739
30
0
41
1
10
45.1076468271086
20
2.00189219721258
30
0
41
1
10
45.124511803872
20
2.0066413854297
30
0
41
1
10
45.151383156202
20
1.92835104651621
30
0
41
1
10
45.174139419822
20
1.76927464191664
30
0
41
1
10
45.1841457871589
20
1.68349587473625
30
0
0
SPLINE
5
EF
100
AcDbEntity
8
1
62
256
6
ByLayer
370
18
48
1
60
0
100
AcDbSpline
70
4
71
3
72
22
73
18
40
0
40
0
40
0
40
0
40
0.249999999999999
40
0.249999999999999
40
0.374999999999999
40
0.374999999999999
40
0.437499999999999
40
0.437499999999999
40
0.499999999999999
40
0.499999999999999
40
0.749999999999999
40
0.749999999999999
40
0.875
40
0.875
40
0.9375
40
0.9375
40
1
40
1
40
1
40
1
41
1
10
41.2698027486551
20
-2.09190989871237
30
0
41
1
10
41.2634467512054
20
-2.08000899841193
30
0
41
1
10
41.2571191557541
20
-2.05896634697422
30
0
41
1
10
41.2476077034536
20
-2.01396411338791
30
0
41
1
10
41.2444358283507
20
-1.99671274751057
30
0
41
1
10
41.2396591738884
20
-1.96739129032662
30
0
41
1
10
41.2380636767467
20
-1.95704267040028
30
0
41
1
10
41.2348615639062
20
-1.93517508877272
30
0
41
1
10
41.2332590631462
20
-1.92368202857028
30
0
41
1
10
41.2252759161732
20
-1.8638100002139
30
0
41
1
10
41.2189178524507
20
-1.80793633699409
30
0
41
1
10
41.2093915505827
20
-1.71247231099449
30
0
41
1
10
41.2062171727892
20
-1.6786987906853
30
0
41
1
10
41.2014368735964
20
-1.62505903489577
30
0
41
1
10
41.1998401780168
20
-1.60668190735817
30
0
41
1
10
41.1966350914844
20
-1.56891673115368
30
0
41
1
10
41.1950248376569
20
-1.54950447645774
30
0
41
1
10
41.1934167885955
20
-1.52971700719095
30
0
0
SPLINE
5
F0
100
AcDbEntity
8
1
62
256
6
ByLayer
370
18
48
1
60
0
100
AcDbSpline
70
4
71
3
72
22
73
18
40
0
40
0
40
0
40
0
40
0.249999999999997
40
0.249999999999997
40
0.374999999999996
40
0.374999999999996
40
0.437499999999996
40
0.437499999999996
40
0.499999999999996
40
0.499999999999996
40
0.749999999999997
40
0.749999999999997
40
0.874999999999999
40
0.874999999999999
40
0.937499999999999
40
0.937499999999999
40
1
40
1
40
1
40
1
41
1
10
40.6259457335045
20
-1.09946075732529
30
0
41
1
10
40.6333516552641
20
-1.19072622614371
30
0
41
1
10
40.6406529629541
20
-1.27648865354118
30
0
41
1
10
40.6516907034019
20
-1.39700981671493
30
0
41
1
10
40.6553852391231
20
-1.43582339298555
30
0
41
1
10
40.6609496126047
20
-1.49195924941327
30
0
41
1
10
40.662808263834
20
-1.51032066575752
30
0
41
1
10
40.6665039035445
20
-1.54604194664373
30
0
41
1
10
40.6683448155311
20
-1.56344190936099
30
0
41
1
10
40.6775221467594
20
-1.64817231010983
30
0
41
1
10
40.6847706253469
20
-1.70873665232566
30
0
41
1
10
40.6957449288253
20
-1.78888407083733
30
0
41
1
10
40.6994156928476
20
-1.81380804128199
30
0
41
1
10
40.7049440425072
20
-1.848442592531
30
0
41
1
10
40.7067940304045
20
-1.85954726871336
30
0
41
1
10
40.7104867344742
20
-1.88072300247734
30
0
41
1
10
40.7123272061525
20
-1.8907832791912
30
0
41
1
10
40.7141634984009
20
-1.90032200711778
30
0
0
SPLINE
5
F1
100
AcDbEntity
8
1
62
256
6
ByLayer
370
18
48
1
60
0
100
AcDbSpline
70
4
71
3
72
22
73
18
40
0
40
0
40
0
40
0
40
0.125
40
0.125
40
0.1875
40
0.1875
40
0.25
40
0.25
40
0.5
40
0.5
40
0.625
40
0.625
40
0.6875
40
0.6875
40
0.75
40
0.75
40
1
40
1
40
1
40
1
41
1
10
45.3737632468815
20
2.45110550273813
30
0
41
1
10
45.377558768307
20
2.4497681600553
30
0
41
1
10
45.3813736423926
20
2.44510953025787
30
0
41
1
10
45.3871219083283
20
2.43304064409173
30
0
41
1
10
45.3890424532715
20
2.42816956103783
30
0
41
1
10
45.392894684708
20
2.4166981005034
30
0
41
1
10
45.3948179674857
20
2.41011997941362
30
0
41
1
10
45.4043835294339
20
2.37324178520026
30
0
41
1
10
45.4119278972929
20
2.33093866704772
30
0
41
1
10
45.4233760382995
20
2.24868419105394
30
0
41
1
10
45.4272019904124
20
2.21811349826564
30
0
41
1
10
45.4329639637674
20
2.1674017413917
30
0
41
1
10
45.4348933472592
20
2.1496408242576
30
0
41
1
10
45.4387304736242
20
2.11280206082068
30
0
41
1
10
45.4406406089597
20
2.0937071748248
30
0
41
1
10
45.450166234285
20
1.99491370071428
30
0
41
1
10
45.4577483467932
20
1.90533957671371
30
0
41
1
10
45.4653771875347
20
1.80530704564592
30
0
0
SPLINE
5
F2
100
AcDbEntity
8
1
62
256
6
ByLayer
370
13
48
1
60
0
100
AcDbSpline
70
4
71
3
72
10
73
6
40
0
40
0
40
0
40
0
40
0.31953563493057
40
0.793595394579746
40
1
40
1
40
1
40
1
41
1
10
45.732187771428
20
1.95762967285251
30
0
41
1
10
45.7407817240195
20
1.92912871458762
30
0
41
1
10
45.7621255754054
20
1.82467445420889
30
0
41
1
10
45.7890206878097
20
1.5934326483918
30
0
41
1
10
45.8073218865182
20
1.38826723930211
30
0
41
1
10
45.8128731711823
20
1.32221854931987
30
0
0
SPLINE
5
F3
100
AcDbEntity
8
1
62
256
6
ByLayer
370
18
48
1
60
0
100
AcDbSpline
70
4
71
3
72
24
73
20
40
0
40
0
40
0
40
0
40
0.250000000000003
40
0.250000000000003
40
0.312500000000003
40
0.312500000000003
40
0.375000000000003
40
0.375000000000003
40
0.500000000000003
40
0.500000000000003
40
0.750000000000003
40
0.750000000000003
40
0.781250000000003
40
0.781250000000003
40
0.812500000000003
40
0.812500000000003
40
0.875000000000001
40
0.875000000000001
40
1
40
1
40
1
40
1
41
1
10
45.5438467141574
20
1.74674245288327
30
0
41
1
10
45.536250826588
20
1.85045696083947
30
0
41
1
10
45.5286533043071
20
1.9440456554791
30
0
41
1
10
45.5190893323147
20
2.04825109889728
30
0
41
1
10
45.5171735878208
20
2.06844829578623
30
0
41
1
10
45.5133322060034
20
2.10753152349255
30
0
41
1
10
45.5114064147815
20
2.12641404450301
30
0
41
1
10
45.5056646631131
20
2.18051166939944
30
0
41
1
10
45.5018648823589
20
2.21339027764245
30
0
41
1
10
45.4904467354102
20
2.30270448343399
30
0
41
1
10
45.4828399675978
20
2.3498949084088
30
0
41
1
10
45.4742336065661
20
2.38876356630541
30
0
41
1
10
45.4732763150222
20
2.39288318692235
30
0
41
1
10
45.4713588601975
20
2.4007202181987
30
0
41
1
10
45.4703975238883
20
2.40444163587207
30
0
41
1
10
45.4675205565659
20
2.41495049218128
30
0
41
1
10
45.4656098938706
20
2.42109378817622
30
0
41
1
10
45.4598863291409
20
2.43698380286338
30
0
41
1
10
45.4560751047102
20
2.44419577487395
30
0
41
1
10
45.4522660620574
20
2.44808890582036
30
0
0
SPLINE
5
F4
100
AcDbEntity
8
1
62
256
6
ByLayer
370
13
48
1
60
0
100
AcDbSpline
70
4
71
3
72
10
73
6
40
0
40
0
40
0
40
0
40
0.418797999252314
40
0.895724373984804
40
1
40
1
40
1
40
1
41
1
10
41.1808205240468
20
1.91249787253364
30
0
41
1
10
41.1920164492121
20
1.86002042134183
30
0
41
1
10
41.2159622772466
20
1.69946697112755
30
0
41
1
10
41.2426957441081
20
1.4177416378256
30
0
41
1
10
41.2582332916168
20
1.2244667921581
30
0
41
1
10
41.2610209412178
20
1.18892235127021
30
0
0
SPLINE
5
F5
100
AcDbEntity
8
1
62
256
6
ByLayer
370
13
48
1
60
0
100
AcDbSpline
70
4
71
3
72
10
73
6
40
0
40
0
40
0
40
0
40
0.252345699671775
40
0.729585936793857
40
1
40
1
40
1
40
1
41
1
10
40.6204379844265
20
-1.0919063069706
30
0
41
1
10
40.627179624977
20
-1.18144830583708
30
0
41
1
10
40.6466711643649
20
-1.42690315696362
30
0
41
1
10
40.6733870477191
20
-1.6969818614908
30
0
41
1
10
40.6933613004433
20
-1.83368386597599
30
0
41
1
10
40.7005856537901
20
-1.87396781329949
30
0
0
SPLINE
5
F6
100
AcDbEntity
8
1
62
256
6
ByLayer
370
18
48
1
60
0
100
AcDbSpline
70
4
71
3
72
17
73
13
40
0
40
0
40
0
40
0
40
0.25
40
0.25
40
0.5
40
0.5
40
0.5625
40
0.5625
40
0.625
40
0.75
40
0.75
40
1
40
1
40
1
40
1
41
1
10
40.4947379934623
20
-1.79302674094149
30
0
41
1
10
40.4887147736557
20
-1.74653992637582
30
0
41
1
10
40.4827621370466
20
-1.69327709609217
30
0
41
1
10
40.4708590281486
20
-1.57370113578733
30
0
41
1
10
40.4649405752632
20
-1.507390394754
30
0
41
1
10
40.4574839367391
20
-1.41604936679494
30
0
41
1
10
40.45598752622
20
-1.39733644097851
30
0
41
1
10
40.4530079117818
20
-1.35938418537546
30
0
41
1
10
40.4485460567854
20
-1.30155228932435
30
0
41
1
10
40.444100946277
20
-1.24105388034232
30
0
41
1
10
40.4352426054189
20
-1.11655624218838
30
0
41
1
10
40.4293902724856
20
-1.02891203960937
30
0
41
1
10
40.4235015871226
20
-0.93650199461635
30
0
0
SPLINE
5
F7
100
AcDbEntity
8
1
62
256
6
ByLayer
370
18
48
1
60
0
100
AcDbSpline
70
4
71
3
72
22
73
18
40
0
40
0
40
0
40
0
40
0.125000000000001
40
0.125000000000001
40
0.187500000000001
40
0.187500000000001
40
0.25
40
0.25
40
0.500000000000001
40
0.500000000000001
40
0.750000000000001
40
0.750000000000001
40
0.875000000000001
40
0.875000000000001
40
0.9375
40
0.9375
40
1
40
1
40
1
40
1
41
1
10
45.8240383775639
20
-2.42550148612338
30
0
41
1
10
45.8215612562215
20
-2.41851898697911
30
0
41
1
10
45.8190826155527
20
-2.41012406509174
30
0
41
1
10
45.8153535047855
20
-2.39537391212051
30
0
41
1
10
45.8141085590213
20
-2.39009732579424
30
0
41
1
10
45.8116127373287
20
-2.37881487013752
30
0
41
1
10
45.8103636416478
20
-2.37281587685032
30
0
41
1
10
45.8041378256481
20
-2.34119782802801
30
0
41
1
10
45.7991768957041
20
-2.31059738621744
30
0
41
1
10
45.7892733516074
20
-2.23910560685133
30
0
41
1
10
45.7843377597653
20
-2.19821338437583
30
0
41
1
10
45.7769113503743
20
-2.12907173001847
30
0
41
1
10
45.7744313451183
20
-2.10472068685934
30
0
41
1
10
45.770691935877
20
-2.06619683100007
30
0
41
1
10
45.769440072124
20
-2.05299938848634
30
0
41
1
10
45.7669394731788
20
-2.02606335290759
30
0
41
1
10
45.7656906161471
20
-2.01232757581386
30
0
41
1
10
45.7644428703964
20
-1.99832748658008
30
0
0
SPLINE
5
F8
100
AcDbEntity
8
1
62
256
6
ByLayer
370
13
48
1
60
0
100
AcDbSpline
70
4
71
3
72
10
73
6
40
0
40
0
40
0
40
0
40
0.16509675980109
40
0.63913210128866
40
1
40
1
40
1
40
1
41
1
10
46.0123959966184
20
-1.51423787123187
30
0
41
1
10
46.0168365132935
20
-1.56027407070786
30
0
41
1
10
46.0340269085918
20
-1.72765599805601
30
0
41
1
10
46.0609235865325
20
-1.91754571438324
30
0
41
1
10
46.0833794651733
20
-1.98490945509721
30
0
41
1
10
46.0930855261223
20
-1.99636324621406
30
0
0
SPLINE
5
F9
100
AcDbEntity
8
1
62
256
6
ByLayer
370
18
48
1
60
0
100
AcDbSpline
70
4
71
3
72
28
73
24
40
0
40
0
40
0
40
0
40
0.0606351910860038
40
0.0606351910860038
40
0.196283562722299
40
0.196283562722299
40
0.331931934358594
40
0.331931934358594
40
0.399756120176751
40
0.399756120176751
40
0.467580305994907
40
0.467580305994907
40
0.535404491813063
40
0.535404491813063
40
0.603228677631219
40
0.603228677631219
40
0.738877049267531
40
0.738877049267531
40
0.874525420903843
40
0.874525420903843
40
0.942349606722008
40
0.942349606722008
40
1
40
1
40
1
40
1
41
1
10
27.096549826253
20
-1.84769643871917
30
0
41
1
10
27.0733047127721
20
-1.84767964183581
30
0
41
1
10
27.0499618892917
20
-1.84760424084601
30
0
41
1
10
26.9740679271085
20
-1.84722635752558
30
0
41
1
10
26.9211097336888
20
-1.84675977666333
30
0
41
1
10
26.8140443824472
20
-1.84577022454195
30
0
41
1
10
26.7599384786295
20
-1.84524791472703
30
0
41
1
10
26.6777704351848
20
-1.84464847851913
30
0
41
1
10
26.6502132523341
20
-1.84447860608438
30
0
41
1
10
26.594717962956
20
-1.84423137736201
30
0
41
1
10
26.5666899187362
20
-1.84415452690666
30
0
41
1
10
26.511022205534
20
-1.84411895646687
30
0
41
1
10
26.4833279011144
20
-1.84416789494475
30
0
41
1
10
26.4281532504912
20
-1.84436227314288
30
0
41
1
10
26.4006597931302
20
-1.84450082049341
30
0
41
1
10
26.3182934809561
20
-1.84494893559261
30
0
41
1
10
26.2636118173455
20
-1.84532973291815
30
0
41
1
10
26.1547666034723
20
-1.84615163780475
30
0
41
1
10
26.1006060005459
20
-1.84659569347602
30
0
41
1
10
26.0198262935183
20
-1.84715561268229
30
0
41
1
10
25.9929243352619
20
-1.84732382433361
30
0
41
1
10
25.9435615873339
20
-1.84756159729437
30
0
41
1
10
25.9210666034731
20
-1.84764214878737
30
0
41
1
10
25.8987693084816
20
-1.84767854682366
30
0
0
SPLINE
5
FA
100
AcDbEntity
8
1
62
256
6
ByLayer
370
18
48
1
60
0
100
AcDbSpline
70
4
71
3
72
8
73
4
40
0
40
0
40
0
40
0
40
1
40
1
40
1
40
1
41
1
10
28.0116315243057
20
1.36012100985181
30
0
41
1
10
27.988062759296
20
1.34661686789099
30
0
41
1
10
27.9644267400386
20
1.33297779018156
30
0
41
1
10
27.9406583591144
20
1.3192903718552
30
0
0
SPLINE
5
FB
100
AcDbEntity
8
1
62
256
6
ByLayer
370
18
48
1
60
0
100
AcDbSpline
70
4
71
3
72
10
73
6
40
0
40
0
40
0
40
0
40
0.142366110070102
40
0.142366110070102
40
1
40
1
40
1
40
1
41
1
10
26.259776856187
20
1.84770025434696
30
0
41
1
10
26.2727452917944
20
1.84770314751529
30
0
41
1
10
26.2857098989344
20
1.84756938620572
30
0
41
1
10
26.3767386119716
20
1.84567251638427
30
0
41
1
10
26.4546036687199
20
1.83911415481558
30
0
41
1
10
26.5322029469331
20
1.82746833895922
30
0
0
SPLINE
5
FC
100
AcDbEntity
8
1
62
256
6
ByLayer
370
13
48
1
60
0
100
AcDbSpline
70
4
71
3
72
10
73
6
40
0
40
0
40
0
40
0
40
0.472836515372821
40
0.94746487329675
40
1
40
1
40
1
40
1
41
1
10
45.3837692436584
20
-1.09896249143014
30
0
41
1
10
45.3964710071371
20
-1.26719224850223
30
0
41
1
10
45.4219226699463
20
-1.57068964180212
30
0
41
1
10
45.4487855732856
20
-1.79082114854293
30
0
41
1
10
45.462946718058
20
-1.87164978305148
30
0
41
1
10
45.4643579644147
20
-1.87935216126553
30
0
0
SPLINE
5
FD
100
AcDbEntity
8
1
62
256
6
ByLayer
370
18
48
1
60
0
100
AcDbSpline
70
4
71
3
72
21
73
17
40
0
40
0
40
0
40
0
40
0.250000000000002
40
0.250000000000002
40
0.312500000000002
40
0.312500000000002
40
0.375000000000001
40
0.500000000000001
40
0.500000000000001
40
0.750000000000001
40
0.750000000000001
40
0.812500000000001
40
0.812500000000001
40
0.875000000000001
40
0.875000000000001
40
1
40
1
40
1
40
1
41
1
10
45.6710277512588
20
-1.75856944251024
30
0
41
1
10
45.6772005383499
20
-1.84217047247716
30
0
41
1
10
45.683393711012
20
-1.91957993962177
30
0
41
1
10
45.691249833313
20
-2.00828800128315
30
0
41
1
10
45.6928212453645
20
-2.02557554735435
30
0
41
1
10
45.6959487649648
20
-2.05907447061958
30
0
41
1
10
45.7006246960055
20
-2.10779149263379
30
0
41
1
10
45.7052603149157
20
-2.15198184875717
30
0
41
1
10
45.7145124007286
20
-2.23441139707589
30
0
41
1
10
45.7206707067439
20
-2.28146141902624
30
0
41
1
10
45.7284698324842
20
-2.33018962121142
30
0
41
1
10
45.7300332628622
20
-2.33942850724245
30
0
41
1
10
45.7331679668291
20
-2.35687699134911
30
0
41
1
10
45.7347390539202
20
-2.36508255903917
30
0
41
1
10
45.739426706753
20
-2.38794947643982
30
0
41
1
10
45.7425305489766
20
-2.40094006672481
30
0
41
1
10
45.7456241821773
20
-2.41172930464154
30
0
0
SPLINE
5
FE
100
AcDbEntity
8
1
62
256
6
ByLayer
370
18
48
1
60
0
100
AcDbSpline
70
4
71
3
72
12
73
8
40
0
40
0
40
0
40
0
40
0.5
40
0.5
40
0.75
40
0.75
40
1
40
1
40
1
40
1
41
1
10
45.7644428703965
20
-1.99832748657971
30
0
41
1
10
45.762442568075
20
-1.93717424913788
30
0
41
1
10
45.7604775296816
20
-1.8714808769754
30
0
41
1
10
45.7573622581882
20
-1.76636101206424
30
0
41
1
10
45.7562941601343
20
-1.73022281369552
30
0
41
1
10
45.7540866936676
20
-1.65570616793286
30
0
41
1
10
45.7529464736135
20
-1.6172872992972
30
0
41
1
10
45.7517726100837
20
-1.57803270784643
30
0
0
SPLINE
5
FF
100
AcDbEntity
8
1
62
256
6
ByLayer
370
18
48
1
60
0
100
AcDbSpline
70
4
71
3
72
8
73
4
40
0
40
0
40
0
40
0
40
1
40
1
40
1
40
1
41
1
10
45.6463888841703
20
-1.50047191861134
30
0
41
1
10
45.6545180837743
20
-1.59123848100245
30
0
41
1
10
45.6627049949378
20
-1.67726875848516
30
0
41
1
10
45.6710277512588
20
-1.75856944251026
30
0
0
SPLINE
5
100
100
AcDbEntity
8
1
62
256
6
ByLayer
370
18
48
1
60
0
100
AcDbSpline
70
4
71
3
72
8
73
4
40
0
40
0
40
0
40
0
40
1
40
1
40
1
40
1
41
1
10
45.7644428703964
20
-1.99832748658008
30
0
41
1
10
45.7331548097837
20
-1.92598124793366
30
0
41
1
10
45.7014951228578
20
-1.84619762368806
30
0
41
1
10
45.6710277512589
20
-1.75856944251024
30
0
0
SPLINE
5
101
100
AcDbEntity
8
1
62
256
6
ByLayer
370
18
48
1
60
0
100
AcDbSpline
70
4
71
3
72
22
73
18
40
0
40
0
40
0
40
0
40
0.249999999999995
40
0.249999999999995
40
0.374999999999993
40
0.374999999999993
40
0.437499999999993
40
0.437499999999993
40
0.499999999999993
40
0.499999999999993
40
0.749999999999998
40
0.749999999999998
40
0.875
40
0.875
40
0.9375
40
0.9375
40
1
40
1
40
1
40
1
41
1
10
41.2378281382734
20
1.99324127988012
30
0
41
1
10
41.245469753252
20
1.95809657441535
30
0
41
1
10
41.2530184893669
20
1.91413997928916
30
0
41
1
10
41.2643429544061
20
1.83526569614111
30
0
41
1
10
41.2681204450358
20
1.80680702377154
30
0
41
1
10
41.2738312427251
20
1.76080613104429
30
0
41
1
10
41.2757425010355
20
1.74491969002193
30
0
41
1
10
41.2795795179178
20
1.71202056391184
30
0
41
1
10
41.2814937383941
20
1.69510625003051
30
0
41
1
10
41.2910294065486
20
1.60838323312572
30
0
41
1
10
41.2985480912922
20
1.53202627383985
30
0
41
1
10
41.3098369807784
20
1.40728298756861
30
0
41
1
10
41.3136069139493
20
1.36399264027699
30
0
41
1
10
41.3193028238265
20
1.29644832795364
30
0
41
1
10
41.3212070901391
20
1.27349802427216
30
0
41
1
10
41.3250271241946
20
1.22671106658515
30
0
41
1
10
41.3269393665583
20
1.20291628495582
30
0
41
1
10
41.3288445925944
20
1.17884543246169
30
0
0
SPLINE
5
102
100
AcDbEntity
8
1
62
256
6
ByLayer
370
18
48
1
60
0
100
AcDbSpline
70
4
71
3
72
22
73
18
40
0
40
0
40
0
40
0
40
0.25
40
0.25
40
0.375000000000001
40
0.375000000000001
40
0.437500000000002
40
0.437500000000002
40
0.500000000000003
40
0.500000000000003
40
0.75
40
0.75
40
0.874999999999999
40
0.874999999999999
40
0.937499999999999
40
0.937499999999999
40
1
40
1
40
1
40
1
41
1
10
41.7868320192585
20
0.813559339067325
30
0
41
1
10
41.7803057338642
20
0.925613271849812
30
0
41
1
10
41.7738513439612
20
1.03279139097293
30
0
41
1
10
41.7641385603781
20
1.18633194726112
30
0
41
1
10
41.7608925976447
20
1.23630115465929
30
0
41
1
10
41.7559764904929
20
1.30939005422408
30
0
41
1
10
41.7543269859637
20
1.33349645929985
30
0
41
1
10
41.7510349742336
20
1.38077940226165
30
0
41
1
10
41.7493940075509
20
1.4039361810938
30
0
41
1
10
41.7412122401827
20
1.51733792634195
30
0
41
1
10
41.7347520747872
20
1.60048749110416
30
0
41
1
10
41.7250109248911
20
1.71401043823192
30
0
41
1
10
41.7217484416215
20
1.74997392358651
30
0
41
1
10
41.7168179327027
20
1.80103436849563
30
0
41
1
10
41.7151665880138
20
1.81759697927595
30
0
41
1
10
41.7118642582565
20
1.84962621937129
30
0
41
1
10
41.7102165570878
20
1.86506280409586
30
0
41
1
10
41.708571399404
20
1.87992580332653
30
0
0
SPLINE
5
103
100
AcDbEntity
8
1
62
256
6
ByLayer
370
13
48
1
60
0
100
AcDbSpline
70
4
71
3
72
10
73
6
40
0
40
0
40
0
40
0
40
0.109383055336224
40
0.585888428910466
40
1
40
1
40
1
40
1
41
1
10
41.8094709768207
20
1.6777831967988
30
0
41
1
10
41.812397746985
20
1.65249205191077
30
0
41
1
10
41.828074406007
20
1.50979446768608
30
0
41
1
10
41.8548315038962
20
1.2027449841263
30
0
41
1
10
41.8786618431935
20
0.866650481455849
30
0
41
1
10
41.8897422605686
20
0.702247396071385
30
0
0
SPLINE
5
104
100
AcDbEntity
8
1
62
256
6
ByLayer
370
18
48
1
60
0
100
AcDbSpline
70
4
71
3
72
18
73
14
40
0
40
0
40
0
40
0
40
0.25
40
0.25
40
0.375
40
0.375
40
0.4375
40
0.4375
40
0.5
40
0.5
40
0.75
40
0.75
40
1
40
1
40
1
40
1
41
1
10
48.4249390668025
20
-0.799380021602104
30
0
41
1
10
48.425791924559
20
-0.710788519877752
30
0
41
1
10
48.425858104527
20
-0.619909602046903
30
0
41
1
10
48.4254150429615
20
-0.479908270676361
30
0
41
1
10
48.425176319681
20
-0.432625319792947
30
0
41
1
10
48.4246768866998
20
-0.360752905054397
30
0
41
1
10
48.4244862371057
20
-0.33658247762628
30
0
41
1
10
48.4240601953432
20
-0.288245128692978
30
0
41
1
10
48.4238249568418
20
-0.264079997230112
30
0
41
1
10
48.4225426283522
20
-0.143271722080129
30
0
41
1
10
48.4211734604495
20
-0.0466805047850869
30
0
41
1
10
48.4179412239336
20
0.14639601282056
30
0
41
1
10
48.4161098379259
20
0.242881606593102
30
0
41
1
10
48.4140755576482
20
0.33931300647194
30
0
0
SPLINE
5
105
100
AcDbEntity
8
1
62
256
6
ByLayer
370
13
48
1
60
0
100
AcDbSpline
70
4
71
3
72
9
73
5
40
0
40
0
40
0
40
0
40
0.28579543653977
40
1
40
1
40
1
40
1
41
1
10
48.3348763854129
20
-0.763655924601466
30
0
41
1
10
48.3296652328389
20
-0.687336376578259
30
0
41
1
10
48.3114313472278
20
-0.413517835011788
30
0
41
1
10
48.293197394681
20
-0.122991225294555
30
0
41
1
10
48.2801746777235
20
0.0831645575405844
30
0
0
SPLINE
5
106
100
AcDbEntity
8
1
62
256
6
ByLayer
370
13
48
1
60
0
100
AcDbSpline
70
4
71
3
72
10
73
6
40
0
40
0
40
0
40
0
40
0.164239226812112
40
0.638235535951361
40
1
40
1
40
1
40
1
41
1
10
45.9441167567371
20
1.91013591925761
30
0
41
1
10
45.9485345828739
20
1.88918837278297
30
0
41
1
10
45.9657023067951
20
1.79420865447142
30
0
41
1
10
45.992601039359
20
1.5650521035233
30
0
41
1
10
46.015081938041
20
1.30099725289063
30
0
41
1
10
46.0248129412473
20
1.17624218674598
30
0
0
SPLINE
5
107
100
AcDbEntity
8
1
62
256
6
ByLayer
370
13
48
1
60
0
100
AcDbSpline
70
4
71
3
72
10
73
6
40
0
40
0
40
0
40
0
40
0.0632469206992811
40
0.63774479893852
40
1
40
1
40
1
40
1
41
1
10
46.6535425509312
20
0.687461221563467
30
0
41
1
10
46.6518393874022
20
0.712808298966337
30
0
41
1
10
46.6346656830844
20
0.966490284484792
30
0
41
1
10
46.6077368538926
20
1.3307249848921
30
0
41
1
10
46.58251142937
20
1.58870710558256
30
0
41
1
10
46.5727563948686
20
1.67356650269042
30
0
0
SPLINE
5
108
100
AcDbEntity
8
1
62
256
6
ByLayer
370
18
48
1
60
0
100
AcDbSpline
70
4
71
3
72
26
73
22
40
0
40
0
40
0
40
0
40
0.125000000000002
40
0.125000000000002
40
0.250000000000005
40
0.250000000000005
40
0.312500000000006
40
0.312500000000006
40
0.375000000000007
40
0.375000000000007
40
0.500000000000006
40
0.500000000000006
40
0.625000000000006
40
0.625000000000006
40
0.750000000000006
40
0.750000000000006
40
0.812500000000005
40
0.812500000000005
40
0.875000000000004
40
0.875000000000004
40
1
40
1
40
1
40
1
41
1
10
46.1539982015552
20
2.19314671823847
30
0
41
1
10
46.1597224950003
20
2.16977036475873
30
0
41
1
10
46.1654453189676
20
2.14328040773805
30
0
41
1
10
46.1768077775168
20
2.08395091886465
30
0
41
1
10
46.182422430302
20
2.05107758079077
30
0
41
1
10
46.1908555609766
20
1.99702391135875
30
0
41
1
10
46.1936700030903
20
1.97821639263731
30
0
41
1
10
46.1993266860948
20
1.93901821314543
30
0
41
1
10
46.2021597599905
20
1.91868868342382
30
0
41
1
10
46.2106465876163
20
1.85594009395419
30
0
41
1
10
46.2163150055814
20
1.8116195865654
30
0
41
1
10
46.2277437938095
20
1.71814613776598
30
0
41
1
10
46.2334969140649
20
1.66899423222318
30
0
41
1
10
46.2450285289873
20
1.56577630216191
30
0
41
1
10
46.250809811712
20
1.5117155167637
30
0
41
1
10
46.2594002599626
20
1.42665445064321
30
0
41
1
10
46.2622526921178
20
1.39760394527838
30
0
41
1
10
46.2678739505087
20
1.33864906124109
30
0
41
1
10
46.270648528862
20
1.30868774368227
30
0
41
1
10
46.2788747455598
20
1.21735773021049
30
0
41
1
10
46.2842377539602
20
1.15455707154206
30
0
41
1
10
46.2895411006851
20
1.08989248040803
30
0
0
SPLINE
5
109
100
AcDbEntity
8
1
62
256
6
ByLayer
370
18
48
1
60
0
100
AcDbSpline
70
4
71
3
72
25
73
21
40
0
40
0
40
0
40
0
40
0.125000000000001
40
0.125000000000001
40
0.250000000000002
40
0.250000000000002
40
0.312500000000002
40
0.312500000000002
40
0.375000000000002
40
0.375000000000002
40
0.500000000000002
40
0.500000000000002
40
0.625000000000001
40
0.75
40
0.75
40
0.8125
40
0.8125
40
0.875
40
0.875
40
1
40
1
40
1
40
1
41
1
10
46.4142127782448
20
0.964382324958081
30
0
41
1
10
46.4123440455882
20
1.02498007690659
30
0
41
1
10
46.4105335385889
20
1.08403449460491
30
0
41
1
10
46.4070903862905
20
1.19904417310786
30
0
41
1
10
46.4054614273203
20
1.25499649414613
30
0
41
1
10
46.4032388421253
20
1.33648463698654
30
0
41
1
10
46.4025323501562
20
1.36324199102657
30
0
41
1
10
46.4011736129782
20
1.41594277687059
30
0
41
1
10
46.4005201314453
20
1.44193615132204
30
0
41
1
10
46.3986111536662
20
1.51834139985826
30
0
41
1
10
46.3974070100872
20
1.5669091376387
30
0
41
1
10
46.3948931055656
20
1.65966600616687
30
0
41
1
10
46.392282292675
20
1.74803248616951
30
0
41
1
10
46.3894245613304
20
1.82778454884593
30
0
41
1
10
46.3872063035189
20
1.88428355033159
30
0
41
1
10
46.386454756769
20
1.90256253684601
30
0
41
1
10
46.3849347035828
20
1.93797912791047
30
0
41
1
10
46.384166257563
20
1.95511210010193
30
0
41
1
10
46.3818676508477
20
2.00438863462202
30
0
41
1
10
46.380342114763
20
2.03453905427708
30
0
41
1
10
46.3788668930495
20
2.06187765532871
30
0
0
SPLINE
5
10A
100
AcDbEntity
8
1
62
256
6
ByLayer
370
18
48
1
60
0
100
AcDbSpline
70
4
71
3
72
16
73
12
40
0
40
0
40
0
40
0
40
0.25
40
0.25
40
0.5
40
0.5
40
0.625
40
0.625
40
0.75
40
0.75
40
1
40
1
40
1
40
1
41
1
10
48.327577756331
20
-0.765282603981433
30
0
41
1
10
48.3228275173632
20
-0.698254960080305
30
0
41
1
10
48.3183469042061
20
-0.630163038698413
30
0
41
1
10
48.3097707944731
20
-0.491930231886272
30
0
41
1
10
48.3056649279814
20
-0.421790650954108
30
0
41
1
10
48.2997592229274
20
-0.315041790176963
30
0
41
1
10
48.2978324828684
20
-0.279201825058863
30
0
41
1
10
48.2940581485947
20
-0.206998664863846
30
0
41
1
10
48.292213408144
20
-0.170683516671346
30
0
41
1
10
48.2868341545689
20
-0.0619426312310907
30
0
41
1
10
48.2834392863293
20
0.0105920181909198
30
0
41
1
10
48.280174677723
20
0.0831645575478603
30
0
0
SPLINE
5
10B
100
AcDbEntity
8
1
62
256
6
ByLayer
370
18
48
1
60
0
100
AcDbSpline
70
4
71
3
72
12
73
8
40
0
40
0
40
0
40
0
40
0.5
40
0.5
40
0.75
40
0.75
40
1
40
1
40
1
40
1
41
1
10
48.2801746777248
20
0.0831645575214566
30
0
41
1
10
48.277172802954
20
0.149896500371995
30
0
41
1
10
48.2743942568481
20
0.216153883801809
30
0
41
1
10
48.2706565496709
20
0.314829907098272
30
0
41
1
10
48.2694864358295
20
0.34759660519282
30
0
41
1
10
48.2673507622881
20
0.41261883387017
30
0
41
1
10
48.2663834882731
20
0.444908495651418
30
0
41
1
10
48.2655485951989
20
0.476974705512959
30
0
0
SPLINE
5
10C
100
AcDbEntity
8
1
62
256
6
ByLayer
370
18
48
1
60
0
100
AcDbSpline
70
4
71
3
72
20
73
16
40
0
40
0
40
0
40
0
40
0.250000000000002
40
0.250000000000002
40
0.375000000000003
40
0.375000000000003
40
0.500000000000003
40
0.500000000000003
40
0.750000000000002
40
0.750000000000002
40
0.812500000000001
40
0.812500000000001
40
0.875
40
0.875
40
1
40
1
40
1
40
1
41
1
10
47.6795854744664
20
1.02156648014412
30
0
41
1
10
47.6897218393413
20
0.919678892735305
30
0
41
1
10
47.6995253115802
20
0.813297914615617
30
0
41
1
10
47.7139254729308
20
0.647140197628261
30
0
41
1
10
47.7186690261379
20
0.590614149367639
30
0
41
1
10
47.7280520774318
20
0.475442036341093
30
0
41
1
10
47.7326326682681
20
0.417523775424741
30
0
41
1
10
47.7461158511167
20
0.242809090544313
30
0
41
1
10
47.7547841195335
20
0.125061332055367
30
0
41
1
10
47.7653880678891
20
-0.0237138384453033
30
0
41
1
10
47.7674948813726
20
-0.0535491088315609
30
0
41
1
10
47.7716802896324
20
-0.113382825589667
30
0
41
1
10
47.7737627440125
20
-0.143438101827712
30
0
41
1
10
47.7799287537466
20
-0.233266326488206
30
0
41
1
10
47.783936242111
20
-0.292780262764723
30
0
41
1
10
47.7878544877009
20
-0.351923903826986
30
0
0
SPLINE
5
10D
100
AcDbEntity
8
1
62
256
6
ByLayer
370
13
48
1
60
0
100
AcDbSpline
70
4
71
3
72
10
73
6
40
0
40
0
40
0
40
0
40
0.283353327826624
40
0.857400912986745
40
1
40
1
40
1
40
1
41
1
10
47.706147478425
20
-0.227588847220716
30
0
41
1
10
47.6985111661392
20
-0.107364655935072
30
0
41
1
10
47.6754043930148
20
0.260174716282478
30
0
41
1
10
47.6484546052699
20
0.68086870517422
30
0
41
1
10
47.6291411296251
20
0.952471317847056
30
0
41
1
10
47.6252981145075
20
1.00512398631011
30
0
0
SPLINE
5
10E
100
AcDbEntity
8
1
62
256
6
ByLayer
370
13
48
1
60
0
100
AcDbSpline
70
4
71
3
72
10
73
6
40
0
40
0
40
0
40
0
40
0.154105979942129
40
0.628589277957855
40
1
40
1
40
1
40
1
41
1
10
45.1718012883486
20
-0.937570935237659
30
0
41
1
10
45.1759422865961
20
-0.995549532771378
30
0
41
1
10
45.1928331729856
20
-1.22589283179227
30
0
41
1
10
45.2197042573708
20
-1.54484122715883
30
0
41
1
10
45.242434430072
20
-1.73854002554742
30
0
41
1
10
45.2524146605131
20
-1.80668086020586
30
0
0
SPLINE
5
10F
100
AcDbEntity
8
1
62
256
6
ByLayer
370
13
48
1
60
0
100
AcDbSpline
70
4
71
3
72
10
73
6
40
0
40
0
40
0
40
0
40
0.429436162414375
40
0.906057861031053
40
1
40
1
40
1
40
1
41
1
10
42.0214385717997
20
1.56834629807517
30
0
41
1
10
42.032926230629
20
1.45518137557104
30
0
41
1
10
42.0571637888108
20
1.17520633172779
30
0
41
1
10
42.0839143464607
20
0.794108839614296
30
0
41
1
10
42.0991772492314
20
0.562561262126678
30
0
41
1
10
42.1016902541832
20
0.524125367550369
30
0
0
SPLINE
5
110
100
AcDbEntity
8
1
62
256
6
ByLayer
370
13
48
1
60
0
100
AcDbSpline
70
4
71
3
72
10
73
6
40
0
40
0
40
0
40
0
40
0.128108547763812
40
0.70235616399872
40
1
40
1
40
1
40
1
41
1
10
47.4941913962144
20
-0.0408014447577614
30
0
41
1
10
47.4907401053044
20
0.0138734532312412
30
0
41
1
10
47.4718183863639
20
0.313873036215426
30
0
41
1
10
47.4448780972646
20
0.735062243413296
30
0
41
1
10
47.4213889332108
20
1.05859579942603
30
0
41
1
10
47.4133702792202
20
1.16206071935264
30
0
0
SPLINE
5
111
100
AcDbEntity
8
1
62
256
6
ByLayer
370
13
48
1
60
0
100
AcDbSpline
70
4
71
3
72
10
73
6
40
0
40
0
40
0
40
0
40
0.462233870309004
40
0.937155234744277
40
1
40
1
40
1
40
1
41
1
10
44.5431534320588
20
-0.418391311220546
30
0
41
1
10
44.5555627170111
20
-0.610678857740083
30
0
41
1
10
44.5807219039707
20
-0.988168911365449
30
0
41
1
10
44.6075682325024
20
-1.32903683522133
30
0
41
1
10
44.6220052818317
20
-1.48376711988968
30
0
41
1
10
44.6236924334469
20
-1.50144671128078
30
0
0
SPLINE
5
112
100
AcDbEntity
8
1
62
256
6
ByLayer
370
18
48
1
60
0
100
AcDbSpline
70
4
71
3
72
22
73
18
40
0
40
0
40
0
40
0
40
0.250000000000001
40
0.250000000000001
40
0.312500000000001
40
0.312500000000001
40
0.375000000000001
40
0.375000000000001
40
0.500000000000001
40
0.625000000000001
40
0.625000000000001
40
0.687500000000002
40
0.718750000000002
40
0.718750000000002
40
0.750000000000001
40
0.750000000000001
40
1
40
1
40
1
40
1
41
1
10
44.9833731888933
20
-2.13128803625827
30
0
41
1
10
44.975773357703
20
-2.0584117442701
30
0
41
1
10
44.968240176434
20
-1.97424371212077
30
0
41
1
10
44.9586174592048
20
-1.8544415763306
30
0
41
1
10
44.9566832487387
20
-1.82973410494674
30
0
41
1
10
44.9528372685581
20
-1.77935448357545
30
0
41
1
10
44.9509205102538
20
-1.75362145002333
30
0
41
1
10
44.9451869364097
20
-1.67481848156882
30
0
41
1
10
44.9375885441839
20
-1.56547727812392
30
0
41
1
10
44.930016195958
20
-1.44770911194271
30
0
41
1
10
44.9242986855211
20
-1.3561891780198
30
0
41
1
10
44.9214287660907
20
-1.30962963138026
30
0
41
1
10
44.9185430097948
20
-1.26185261758619
30
0
41
1
10
44.9166158157887
20
-1.22972787080567
30
0
41
1
10
44.9156492958637
20
-1.21350805470004
30
0
41
1
10
44.9069719515337
20
-1.06691295232591
30
0
41
1
10
44.8994078998122
20
-0.931898835828321
30
0
41
1
10
44.8918289679409
20
-0.792359610136913
30
0
0
SPLINE
5
113
100
AcDbEntity
8
1
62
256
6
ByLayer
370
18
48
1
60
0
100
AcDbSpline
70
4
71
3
72
21
73
17
40
0
40
0
40
0
40
0
40
0.249999999999996
40
0.249999999999996
40
0.312499999999996
40
0.312499999999996
40
0.374999999999996
40
0.374999999999996
40
0.499999999999997
40
0.624999999999998
40
0.624999999999998
40
0.687499999999999
40
0.687499999999999
40
0.749999999999999
40
0.749999999999999
40
1
40
1
40
1
40
1
41
1
10
44.8134026500526
20
-0.711802763966034
30
0
41
1
10
44.8210068273606
20
-0.85287476708487
30
0
41
1
10
44.8285583343859
20
-0.989907066176386
30
0
41
1
10
44.8381661012901
20
-1.15592972748956
30
0
41
1
10
44.8400889465879
20
-1.18870738280833
30
0
41
1
10
44.8439254195362
20
-1.2531435274467
30
0
41
1
10
44.8458406963973
20
-1.28484710368113
30
0
41
1
10
44.851575883168
20
-1.3784364316744
30
0
41
1
10
44.8591924690574
20
-1.49917130654572
30
0
41
1
10
44.8667777493085
20
-1.61188486517426
30
0
41
1
10
44.8724905214125
20
-1.69336725201626
30
0
41
1
10
44.8743990058907
20
-1.72001847259878
30
0
41
1
10
44.8782336236546
20
-1.77228449230532
30
0
41
1
10
44.8801651528009
20
-1.79795543073081
30
0
41
1
10
44.8897830649425
20
-1.9225289387366
30
0
41
1
10
44.8973696058349
20
-2.01081788740854
30
0
41
1
10
44.9049466810666
20
-2.08808812498663
30
0
0
SPLINE
5
114
100
AcDbEntity
8
1
62
256
6
ByLayer
370
18
48
1
60
0
100
AcDbSpline
70
4
71
3
72
24
73
20
40
0
40
0
40
0
40
0
40
0.250000000000003
40
0.250000000000003
40
0.312500000000003
40
0.312500000000003
40
0.375000000000003
40
0.375000000000003
40
0.500000000000003
40
0.500000000000003
40
0.625000000000003
40
0.625000000000003
40
0.750000000000003
40
0.750000000000003
40
0.812500000000002
40
0.812500000000002
40
0.875000000000002
40
0.875000000000002
40
1
40
1
40
1
40
1
41
1
10
47.3644189714301
20
0.0254815067543461
30
0
41
1
10
47.359335672363
20
0.14689757013312
30
0
41
1
10
47.3545694092468
20
0.26692964542417
30
0
41
1
10
47.3489702258168
20
0.415245155806104
30
0
41
1
10
47.347869205883
20
0.444821388874772
30
0
41
1
10
47.3457040144908
20
0.503797593588644
30
0
41
1
10
47.3446393621355
20
0.533213201827181
30
0
41
1
10
47.3415255916395
20
0.620404879470271
30
0
41
1
10
47.3395472032034
20
0.677392537103628
30
0
41
1
10
47.3357478783222
20
0.789138515082925
30
0
41
1
10
47.3339290762588
20
0.843895229084154
30
0
41
1
10
47.3303821818767
20
0.951188836761645
30
0
41
1
10
47.3286499130173
20
1.00372796057167
30
0
41
1
10
47.3261552698222
20
1.08081758238205
30
0
41
1
10
47.3253413861292
20
1.10622684974501
30
0
41
1
10
47.3237605715349
20
1.15645118607455
30
0
41
1
10
47.3229974250421
20
1.18118979149176
30
0
41
1
10
47.3207974317773
20
1.2539012964528
30
0
41
1
10
47.3194470426352
20
1.30053338994455
30
0
41
1
10
47.3181512830789
20
1.34539147556666
30
0
0
SPLINE
5
115
100
AcDbEntity
8
1
62
256
6
ByLayer
370
18
48
1
60
0
100
AcDbSpline
70
4
71
3
72
24
73
20
40
0
40
0
40
0
40
0
40
0.124999999999999
40
0.124999999999999
40
0.249999999999998
40
0.249999999999998
40
0.374999999999997
40
0.374999999999997
40
0.437499999999997
40
0.437499999999997
40
0.499999999999996
40
0.499999999999996
40
0.624999999999997
40
0.624999999999997
40
0.749999999999998
40
0.749999999999998
40
0.874999999999999
40
0.874999999999999
40
1
40
1
40
1
40
1
41
1
10
46.9165404057925
20
1.67840320448798
30
0
41
1
10
46.9221105231432
20
1.63702362420884
30
0
41
1
10
46.9276800345825
20
1.59356427537162
30
0
41
1
10
46.9388551945389
20
1.5025347112813
30
0
41
1
10
46.944461716424
20
1.45496605861752
30
0
41
1
10
46.9556024132982
20
1.35558354194481
30
0
41
1
10
46.9611281041296
20
1.30375925185382
30
0
41
1
10
46.9692944015458
20
1.22264075648351
30
0
41
1
10
46.9720028675683
20
1.19496745009974
30
0
41
1
10
46.9773343757544
20
1.139024973376
30
0
41
1
10
46.9799634314867
20
1.11071637654297
30
0
41
1
10
46.9877696546422
20
1.02481030428447
30
0
41
1
10
46.9928676977114
20
0.966236349184101
30
0
41
1
10
47.0029571793758
20
0.846552268384158
30
0
41
1
10
47.0079489360172
20
0.785438505578242
30
0
41
1
10
47.0178225079996
20
0.660647381455618
30
0
41
1
10
47.0227049374597
20
0.596971441781136
30
0
41
1
10
47.0323809795885
20
0.466977942860325
30
0
41
1
10
47.0371249628352
20
0.40132581916339
30
0
41
1
10
47.0417877575351
20
0.335156438081157
30
0
0
SPLINE
5
116
100
AcDbEntity
8
1
62
256
6
ByLayer
370
13
48
1
60
0
100
AcDbSpline
70
4
71
3
72
10
73
6
40
0
40
0
40
0
40
0
40
0.218508005142265
40
0.79330791573413
40
1
40
1
40
1
40
1
41
1
10
46.8654767450672
20
0.508987395792474
30
0
41
1
10
46.8595957077454
20
0.599130930190995
30
0
41
1
10
46.8382442084271
20
0.920413976958201
30
0
41
1
10
46.811329690048
20
1.28314680094692
30
0
41
1
10
46.7902962096533
20
1.50836104807826
30
0
41
1
10
46.7847331918541
20
1.56340063866355
30
0
0
SPLINE
5
117
100
AcDbEntity
8
1
62
256
6
ByLayer
370
18
48
1
60
0
100
AcDbSpline
70
4
71
3
72
20
73
16
40
0
40
0
40
0
40
0
40
0.250000000000003
40
0.250000000000003
40
0.375000000000004
40
0.375000000000004
40
0.437500000000005
40
0.437500000000005
40
0.500000000000005
40
0.500000000000005
40
0.750000000000003
40
0.750000000000003
40
0.875000000000001
40
0.875000000000001
40
1
40
1
40
1
40
1
41
1
10
42.155881862822
20
1.68853341818962
30
0
41
1
10
42.1638167107032
20
1.60585378702277
30
0
41
1
10
42.1716578485934
20
1.51546808860084
30
0
41
1
10
42.1834663245718
20
1.36842704032861
30
0
41
1
10
42.1874164668361
20
1.31749350718985
30
0
41
1
10
42.1933996768539
20
1.23812995629709
30
0
41
1
10
42.1953972662115
20
1.21124528188722
30
0
41
1
10
42.1993712637961
20
1.15699133518734
30
0
41
1
10
42.201351711778
20
1.12956870867438
30
0
41
1
10
42.2112251397027
20
0.990998968179412
30
0
41
1
10
42.219016044943
20
0.875511864723137
30
0
41
1
10
42.23080430028
20
0.695380959318584
30
0
41
1
10
42.2347595983997
20
0.634182209312542
30
0
41
1
10
42.2427249356057
20
0.509399172115508
30
0
41
1
10
42.2466899130374
20
0.44649662646168
30
0
41
1
10
42.2506428419755
20
0.383147012085004
30
0
0
SPLINE
5
118
100
AcDbEntity
8
1
62
256
6
ByLayer
370
18
48
1
60
0
100
AcDbSpline
70
4
71
3
72
22
73
18
40
0
40
0
40
0
40
0
40
0.25
40
0.25
40
0.375
40
0.375
40
0.4375
40
0.4375
40
0.5
40
0.5
40
0.75
40
0.75
40
0.8125
40
0.8125
40
0.875
40
0.875
40
1
40
1
40
1
40
1
41
1
10
42.5622496635701
20
0.0687102598811293
30
0
41
1
10
42.5555257387876
20
0.199713573896787
30
0
41
1
10
42.5488816448968
20
0.32926358276859
30
0
41
1
10
42.5388411220652
20
0.521402663194891
30
0
41
1
10
42.5354735763537
20
0.585082181721219
30
0
41
1
10
42.5303753843299
20
0.680032353919984
30
0
41
1
10
42.5286781067542
20
0.711418358293145
30
0
41
1
10
42.5252974881537
20
0.773480127954173
30
0
41
1
10
42.5236124721372
20
0.804187071456028
30
0
41
1
10
42.5152085742346
20
0.956123953255883
30
0
41
1
10
42.508566314792
20
1.07259697274628
30
0
41
1
10
42.50014844248
20
1.21181810647184
30
0
41
1
10
42.4984588125376
20
1.23934159583942
30
0
41
1
10
42.4950684281992
20
1.29373815065958
30
0
41
1
10
42.493366171612
20
1.32063461491325
30
0
41
1
10
42.4882516100174
20
1.40017763363804
30
0
41
1
10
42.4848584501831
20
1.45127619203601
30
0
41
1
10
42.4814711277992
20
1.50046563578098
30
0
0
SPLINE
5
119
100
AcDbEntity
8
1
62
256
6
ByLayer
370
13
48
1
60
0
100
AcDbSpline
70
4
71
3
72
10
73
6
40
0
40
0
40
0
40
0
40
0.120231763836926
40
0.596479259433466
40
1
40
1
40
1
40
1
41
1
10
42.6500881802849
20
1.16838427964694
30
0
41
1
10
42.6533069737269
20
1.12697486829961
30
0
41
1
10
42.6692756734018
20
0.915907214858123
30
0
41
1
10
42.6960474380904
20
0.519947629425332
30
0
41
1
10
42.7196000795779
20
0.146132548757066
30
0
41
1
10
42.7304029391403
20
-0.0250355976548917
30
0
0
SPLINE
5
11A
100
AcDbEntity
8
1
62
256
6
ByLayer
370
13
48
1
60
0
100
AcDbSpline
70
4
71
3
72
10
73
6
40
0
40
0
40
0
40
0
40
0.451378646752316
40
0.926636592480682
40
1
40
1
40
1
40
1
41
1
10
43.7025602016249
20
0.318648825270401
30
0
41
1
10
43.7146694815095
20
0.129213843986605
30
0
41
1
10
43.7395286569351
20
-0.268718890758208
30
0
41
1
10
43.7663559805414
20
-0.682137639014712
30
0
41
1
10
43.781074020967
20
-0.891786219676021
30
0
41
1
10
43.7830421645304
20
-0.919485775738622
30
0
0
SPLINE
5
11B
100
AcDbEntity
8
1
62
256
6
ByLayer
370
18
48
1
60
0
100
AcDbSpline
70
4
71
3
72
23
73
19
40
0
40
0
40
0
40
0
40
0.0625000000000005
40
0.0625000000000005
40
0.125000000000001
40
0.125000000000001
40
0.250000000000001
40
0.250000000000001
40
0.5
40
0.5
40
0.5625
40
0.5625
40
0.59375
40
0.59375
40
0.624999999999999
40
0.75
40
0.75
40
1
40
1
40
1
40
1
41
1
10
43.9727237072976
20
0.187095565022304
30
0
41
1
10
43.9746325193223
20
0.150238622559527
30
0
41
1
10
43.9765433918409
20
0.113246772189086
30
0
41
1
10
43.9803721181429
20
0.0389893995177033
30
0
41
1
10
43.9822936062408
20
0.0016530993830202
30
0
41
1
10
43.9880510130349
20
-0.110282663394401
30
0
41
1
10
43.9918531479689
20
-0.1843046965094
30
0
41
1
10
44.0032491979787
20
-0.404616829580163
30
0
41
1
10
44.0108500335203
20
-0.549166027823247
30
0
41
1
10
44.020391653676
20
-0.726912915192599
30
0
41
1
10
44.0223030128411
20
-0.762314139829186
30
0
41
1
10
44.0251788803515
20
-0.815189468955197
30
0
41
1
10
44.0261401847029
20
-0.832798482253622
30
0
41
1
10
44.0280583154882
20
-0.867787497750527
30
0
41
1
10
44.0328434655351
20
-0.954729765905626
30
0
41
1
10
44.0376046287426
20
-1.03905539033769
30
0
41
1
10
44.0490372663523
20
-1.23653478578538
30
0
41
1
10
44.0566205934031
20
-1.36169347840382
30
0
41
1
10
44.0642607266662
20
-1.48019669742402
30
0
0
SPLINE
5
11C
100
AcDbEntity
8
1
62
256
6
ByLayer
370
18
48
1
60
0
100
AcDbSpline
70
4
71
3
72
22
73
18
40
0
40
0
40
0
40
0
40
0.250000000000004
40
0.250000000000004
40
0.375000000000006
40
0.375000000000006
40
0.437500000000006
40
0.437500000000006
40
0.500000000000007
40
0.500000000000007
40
0.750000000000003
40
0.750000000000003
40
0.875000000000001
40
0.875000000000001
40
0.937500000000001
40
0.937500000000001
40
1
40
1
40
1
40
1
41
1
10
44.1427025019643
20
-1.54697154210916
30
0
41
1
10
44.135042391895
20
-1.43172053164133
30
0
41
1
10
44.1275164966216
20
-1.3093738235664
30
0
41
1
10
44.1160972655373
20
-1.11545293602694
30
0
41
1
10
44.1122732748462
20
-1.04906847720821
30
0
41
1
10
44.1065117927911
20
-0.946806558171318
30
0
41
1
10
44.1045819202453
20
-0.912182048245853
30
0
41
1
10
44.1007427273707
20
-0.842613901706073
30
0
41
1
10
44.0988319434982
20
-0.80764650747841
30
0
41
1
10
44.0893087379326
20
-0.631909513877815
30
0
41
1
10
44.081764483527
20
-0.488462728721004
30
0
41
1
10
44.0703208240907
20
-0.269054974232319
30
0
41
1
10
44.0664963238577
20
-0.195208011982459
30
0
41
1
10
44.0607281885077
20
-0.0833362338815391
30
0
41
1
10
44.0588106670907
20
-0.046069366182337
30
0
41
1
10
44.054992444098
20
0.0281789843609204
30
0
41
1
10
44.0530897456833
20
0.0651991495415984
30
0
41
1
10
44.051189620654
20
0.102116572838099
30
0
0
SPLINE
5
11D
100
AcDbEntity
8
1
62
256
6
ByLayer
370
13
48
1
60
0
100
AcDbSpline
70
4
71
3
72
10
73
6
40
0
40
0
40
0
40
0
40
0.142813759085714
40
0.617842862362065
40
1
40
1
40
1
40
1
41
1
10
44.3312316474657
20
-0.23411875832042
30
0
41
1
10
44.3350648136285
20
-0.294440353779294
30
0
41
1
10
44.3516478997668
20
-0.554005121800628
30
0
41
1
10
44.3784880026712
20
-0.956714138927367
30
0
41
1
10
44.4014951405085
20
-1.25282551958662
30
0
41
1
10
44.4117523398379
20
-1.37126589964561
30
0
0
SPLINE
5
11E
100
AcDbEntity
8
1
62
256
6
ByLayer
370
18
48
1
60
0
100
AcDbSpline
70
4
71
3
72
28
73
24
40
0
40
0
40
0
40
0
40
0.125
40
0.125
40
0.25
40
0.25
40
0.375
40
0.375
40
0.5
40
0.5
40
0.625000000000001
40
0.625000000000001
40
0.6875
40
0.6875
40
0.75
40
0.75
40
0.8125
40
0.8125
40
0.875
40
0.875
40
0.9375
40
0.9375
40
1
40
1
40
1
40
1
41
1
10
42.9423626542846
20
-0.212055649932097
30
0
41
1
10
42.9365612349081
20
-0.203618628898482
30
0
41
1
10
42.9298370073748
20
-0.194917749206326
30
0
41
1
10
42.9149893096775
20
-0.177142799095293
30
0
41
1
10
42.9067931525669
20
-0.168005538736253
30
0
41
1
10
42.8897133090548
20
-0.150002848529397
30
0
41
1
10
42.8807739429901
20
-0.141066062023725
30
0
41
1
10
42.8621596813674
20
-0.123287825393987
30
0
41
1
10
42.8523986595154
20
-0.11437513156514
30
0
41
1
10
42.8327730048374
20
-0.097191568013983
30
0
41
1
10
42.8228622856936
20
-0.0888699957498318
30
0
41
1
10
42.80786669626
20
-0.076803645781979
30
0
41
1
10
42.8028464111478
20
-0.0728514847026247
30
0
41
1
10
42.792762452004
20
-0.0650998772709954
30
0
41
1
10
42.7877114325057
20
-0.0613114964637305
30
0
41
1
10
42.7778230355687
20
-0.0540941459049691
30
0
41
1
10
42.77295629139
20
-0.0506421433265984
30
0
41
1
10
42.7634071593501
20
-0.0440941723771289
30
0
41
1
10
42.7586884519101
20
-0.0409756424184593
30
0
41
1
10
42.7497192820888
20
-0.0353216758691701
30
0
41
1
10
42.7454592439069
20
-0.0327770478629645
30
0
41
1
10
42.7374663434979
20
-0.0283491933898006
30
0
41
1
10
42.7337175218512
20
-0.0264610500470042
30
0
41
1
10
42.7304029391405
20
-0.0250355976577339
30
0
0
SPLINE
5
11F
100
AcDbEntity
8
1
62
256
6
ByLayer
370
18
48
1
60
0
100
AcDbSpline
70
4
71
3
72
10
73
6
40
0
40
0
40
0
40
0
40
0.5
40
0.5
40
1
40
1
40
1
40
1
41
1
10
42.7304029391401
20
-0.0250355976579328
30
0
41
1
10
42.7020833294777
20
-0.0128566120118592
30
0
41
1
10
42.6739300309919
20
0.0010780611638381
30
0
41
1
10
42.6178914981806
20
0.0323667279443214
30
0
41
1
10
42.5899771021299
20
0.0497390698817526
30
0
41
1
10
42.5622496635701
20
0.0687102598811293
30
0
0
SPLINE
5
120
100
AcDbEntity
8
1
62
256
6
ByLayer
370
18
48
1
60
0
100
AcDbSpline
70
4
71
3
72
8
73
4
40
0
40
0
40
0
40
0
40
1
40
1
40
1
40
1
41
1
10
42.56224966357
20
0.068710259881243
30
0
41
1
10
42.4587915147264
20
0.175625270638477
30
0
41
1
10
42.3550839777363
20
0.280587466201752
30
0
41
1
10
42.2506428419654
20
0.383147012084152
30
0
0
SPLINE
5
121
100
AcDbEntity
8
1
62
256
6
ByLayer
370
18
48
1
60
0
100
AcDbSpline
70
4
71
3
72
8
73
4
40
0
40
0
40
0
40
0
40
1
40
1
40
1
40
1
41
1
10
42.250642841971
20
0.383147012079064
30
0
41
1
10
42.2014455024606
20
0.435280653482465
30
0
41
1
10
42.1518042634131
20
0.482426573236808
30
0
41
1
10
42.1016902541832
20
0.524125367551022
30
0
0
SPLINE
5
122
100
AcDbEntity
8
1
62
256
6
ByLayer
370
18
48
1
60
0
100
AcDbSpline
70
4
71
3
72
28
73
24
40
0
40
0
40
0
40
0
40
0.125
40
0.125
40
0.25
40
0.25
40
0.375
40
0.375
40
0.5
40
0.5
40
0.625
40
0.625
40
0.6875
40
0.6875
40
0.75
40
0.75
40
0.8125
40
0.8125
40
0.875
40
0.875
40
0.9375
40
0.9375
40
1
40
1
40
1
40
1
41
1
10
42.1016902541832
20
0.524125367550369
30
0
41
1
10
42.0958908389531
20
0.528950936818092
30
0
41
1
10
42.0891693287028
20
0.534502361358335
30
0
41
1
10
42.074327387538
20
0.546666753700151
30
0
41
1
10
42.0661341476524
20
0.553339177784693
30
0
41
1
10
42.0490586821182
20
0.567187891245425
30
0
41
1
10
42.0401209625537
20
0.574410276183045
30
0
41
1
10
42.0215080379222
20
0.589450714730901
30
0
41
1
10
42.0117464449927
20
0.59733867872734
30
0
41
1
10
41.9921181532554
20
0.61327733121513
30
0
41
1
10
41.9822054558385
20
0.621364277443433
30
0
41
1
10
41.9672063885327
20
0.633738174634061
30
0
41
1
10
41.9621848561227
20
0.637903814966393
30
0
41
1
10
41.952098241523
20
0.646336619038124
30
0
41
1
10
41.9470460516737
20
0.650593561656791
30
0
41
1
10
41.9371557464501
20
0.659013523927257
30
0
41
1
10
41.9322881984
20
0.663200892438795
30
0
41
1
10
41.9227382917316
20
0.671530549758756
30
0
41
1
10
41.9180195978727
20
0.67570585298833
30
0
41
1
10
41.9090514022519
20
0.683792096130475
30
0
41
1
10
41.9047924741557
20
0.687710037571065
30
0
41
1
10
41.8968026883125
20
0.695253280294054
30
0
41
1
10
41.8930555613936
20
0.698896285825242
30
0
41
1
10
41.8897422605686
20
0.702247396071471
30
0
0
SPLINE
5
123
100
AcDbEntity
8
1
62
256
6
ByLayer
370
18
48
1
60
0
100
AcDbSpline
70
4
71
3
72
8
73
4
40
0
40
0
40
0
40
0
40
1
40
1
40
1
40
1
41
1
10
41.8897422605681
20
0.702247396071499
30
0
41
1
10
41.855208259814
20
0.737175478333029
30
0
41
1
10
41.8209261686575
20
0.774319819484987
30
0
41
1
10
41.7868320192681
20
0.81355933905985
30
0
0
SPLINE
5
124
100
AcDbEntity
8
1
62
256
6
ByLayer
370
18
48
1
60
0
100
AcDbSpline
70
4
71
3
72
10
73
6
40
0
40
0
40
0
40
0
40
0.5
40
0.5
40
1
40
1
40
1
40
1
41
1
10
41.7868320192634
20
0.813559339066728
30
0
41
1
10
41.7105464990463
20
0.879699575404658
30
0
41
1
10
41.6343762444223
20
0.943291101167404
30
0
41
1
10
41.4818694084933
20
1.06515921852812
30
0
41
1
10
41.4055300709858
20
1.12343120962922
30
0
41
1
10
41.3288445925849
20
1.17884543246041
30
0
0
SPLINE
5
125
100
AcDbEntity
8
1
62
256
6
ByLayer
370
18
48
1
60
0
100
AcDbSpline
70
4
71
3
72
8
73
4
40
0
40
0
40
0
40
0
40
1
40
1
40
1
40
1
41
1
10
41.3288445925903
20
1.17884543245401
30
0
41
1
10
41.3063313894981
20
1.18340848641293
30
0
41
1
10
41.2837318885231
20
1.18677770303131
30
0
41
1
10
41.2610209412172
20
1.18892235127737
30
0
0
SPLINE
5
126
100
AcDbEntity
8
1
62
256
6
ByLayer
370
18
48
1
60
0
100
AcDbSpline
70
4
71
3
72
28
73
24
40
0
40
0
40
0
40
0
40
0.125
40
0.125
40
0.25
40
0.25
40
0.375
40
0.375
40
0.499999999999999
40
0.499999999999999
40
0.624999999999999
40
0.624999999999999
40
0.687499999999999
40
0.687499999999999
40
0.749999999999999
40
0.749999999999999
40
0.8125
40
0.8125
40
0.875
40
0.875
40
0.9375
40
0.9375
40
1
40
1
40
1
40
1
41
1
10
41.2610209412168
20
1.18892235127808
30
0
41
1
10
41.2552199603457
20
1.18947015156499
30
0
41
1
10
41.2484954711236
20
1.19110675952487
30
0
41
1
10
41.2336443274092
20
1.19598673920362
30
0
41
1
10
41.2254444179113
20
1.19927775128892
30
0
41
1
10
41.2083543067934
20
1.20707468172023
30
0
41
1
10
41.1994086464434
20
1.2115952653584
30
0
41
1
10
41.1807809499585
20
1.22184914632413
30
0
41
1
10
41.1710132588371
20
1.22764114277385
30
0
41
1
10
41.1513800973788
20
1.24017784148239
30
0
41
1
10
41.1414672951482
20
1.24694018773957
30
0
41
1
10
41.1264715175255
20
1.25795865006865
30
0
41
1
10
41.1214516488689
20
1.2617787168922
30
0
41
1
10
41.1113695700378
20
1.26976240924239
30
0
41
1
10
41.1063240740747
20
1.27391509233493
30
0
41
1
10
41.0964453475836
20
1.28240802196203
30
0
41
1
10
41.0915836214213
20
1.28677005284587
30
0
41
1
10
41.0820447168683
20
1.29576669327091
30
0
41
1
10
41.0773315389594
20
1.30044005593112
30
0
41
1
10
41.0683748389052
20
1.30987323129997
30
0
41
1
10
41.0641205750348
20
1.31463830490498
30
0
41
1
10
41.0561379464569
20
1.32428252701064
30
0
41
1
10
41.0523937249658
20
1.3291891582214
30
0
41
1
10
41.0490824419477
20
1.33401261610302
30
0
0
SPLINE
5
127
100
AcDbEntity
8
1
62
256
6
ByLayer
370
18
48
1
60
0
100
AcDbSpline
70
4
71
3
72
8
73
4
40
0
40
0
40
0
40
0
40
1
40
1
40
1
40
1
41
1
10
41.049082441947
20
1.33401261610322
30
0
41
1
10
41.0364532050819
20
1.35240928946573
30
0
41
1
10
41.0238574455283
20
1.37100215239079
30
0
41
1
10
41.011292061648
20
1.38978631614034
30
0
0
SPLINE
5
128
100
AcDbEntity
8
1
62
256
6
ByLayer
370
18
48
1
60
0
100
AcDbSpline
70
4
71
3
72
14
73
10
40
0
40
0
40
0
40
0
40
0.125000000000002
40
0.125000000000002
40
0.250000000000005
40
0.250000000000005
40
0.50000000000001
40
0.50000000000001
40
1
40
1
40
1
40
1
41
1
10
41.011292061648
20
1.38978631614034
30
0
41
1
10
40.986179277628
20
1.40498384281622
30
0
41
1
10
40.960999138967
20
1.41985946143942
30
0
41
1
10
40.9104899657882
20
1.44895343728965
30
0
41
1
10
40.8851317589916
20
1.46318794210708
30
0
41
1
10
40.8090562814159
20
1.50474905859505
30
0
41
1
10
40.758368441281
20
1.53091998521381
30
0
41
1
10
40.6061802282574
20
1.60476679177381
30
0
41
1
10
40.5045290299458
20
1.647764086195
30
0
41
1
10
40.4022450392388
20
1.68441033182657
30
0
0
SPLINE
5
129
100
AcDbEntity
8
1
62
256
6
ByLayer
370
18
48
1
60
0
100
AcDbSpline
70
4
71
3
72
18
73
14
40
0
40
0
40
0
40
0
40
0.12499999999999
40
0.12499999999999
40
0.24999999999998
40
0.24999999999998
40
0.499999999999961
40
0.499999999999961
40
0.749999999999941
40
0.749999999999941
40
0.87499999999997
40
0.87499999999997
40
1
40
1
40
1
40
1
41
1
10
40.4022450392387
20
1.68441033182657
30
0
41
1
10
40.3973928850052
20
1.68329003604916
30
0
41
1
10
40.3921991799831
20
1.68261295722988
30
0
41
1
10
40.3813193265325
20
1.68208389723768
30
0
41
1
10
40.3756875991261
20
1.68223092741616
30
0
41
1
10
40.358279999802
20
1.68379100306962
30
0
41
1
10
40.3459843214602
20
1.68630221221835
30
0
41
1
10
40.3201562714007
20
1.69436961450404
30
0
41
1
10
40.3070579564976
20
1.69978489137287
30
0
41
1
10
40.2871875251374
20
1.71026535086935
30
0
41
1
10
40.2805263556628
20
1.71415754680581
30
0
41
1
10
40.2671294082473
20
1.72290509947877
30
0
41
1
10
40.2604983936119
20
1.72769616707714
30
0
41
1
10
40.2540391673087
20
1.73291340055812
30
0
0
SPLINE
5
12A
100
AcDbEntity
8
1
62
256
6
ByLayer
370
18
48
1
60
0
100
AcDbSpline
70
4
71
3
72
8
73
4
40
0
40
0
40
0
40
0
40
1
40
1
40
1
40
1
41
1
10
40.2540391673063
20
1.73291340056437
30
0
41
1
10
40.2194614093571
20
1.74315291741428
30
0
41
1
10
40.1847892543286
20
1.7526636680563
30
0
41
1
10
40.15
20
1.76143219829001
30
0
0
SPLINE
5
12B
100
AcDbEntity
8
1
62
256
6
ByLayer
370
18
48
1
60
0
100
AcDbSpline
70
4
71
3
72
8
73
4
40
0
40
0
40
0
40
0
40
1
40
1
40
1
40
1
41
1
10
40.15
20
1.76143219829001
30
0
41
1
10
40.1439793926892
20
1.76074843728318
30
0
41
1
10
40.1379538873287
20
1.76002581925186
30
0
41
1
10
40.1319237883469
20
1.75926456385892
30
0
0
SPLINE
5
12C
100
AcDbEntity
8
1
62
256
6
ByLayer
370
18
48
1
60
0
100
AcDbSpline
70
4
71
3
72
12
73
8
40
0
40
0
40
0
40
0
40
0.249999999999991
40
0.249999999999991
40
0.499999999999982
40
0.499999999999982
40
1
40
1
40
1
40
1
41
1
10
40.1319237883469
20
1.75926456385892
30
0
41
1
10
40.1087178345035
20
1.75633498383621
30
0
41
1
10
40.0848402155544
20
1.7544703728793
30
0
41
1
10
40.0356828847758
20
1.75268415072517
30
0
41
1
10
40.0103957263635
20
1.75276831289179
30
0
41
1
10
39.9327282753734
20
1.75633765264806
30
0
41
1
10
39.8785627637499
20
1.76312688089101
30
0
41
1
10
39.8229009434042
20
1.77565059542994
30
0
0
SPLINE
5
12D
100
AcDbEntity
8
1
62
256
6
ByLayer
370
18
48
1
60
0
100
AcDbSpline
70
4
71
3
72
28
73
24
40
0
40
0
40
0
40
0
40
0.155472627556603
40
0.155472627556603
40
0.233208941334903
40
0.233208941334903
40
0.310945255113202
40
0.310945255113202
40
0.4664178826698
40
0.4664178826698
40
0.505286039558948
40
0.505286039558948
40
0.544154196448097
40
0.544154196448097
40
0.621890510226399
40
0.621890510226399
40
0.777363137783008
40
0.777363137783008
40
0.855099451561309
40
0.855099451561309
40
0.932835765339611
40
0.932835765339611
40
1
40
1
40
1
40
1
41
1
10
39.8229009434008
20
1.77565059544173
30
0
41
1
10
39.6985743290747
20
1.80362364802565
30
0
41
1
10
39.5755029218373
20
1.82343163718207
30
0
41
1
10
39.3915570053491
20
1.84094846539946
30
0
41
1
10
39.3303309295389
20
1.8447512662074
30
0
41
1
10
39.2078376425824
20
1.84830621232632
30
0
41
1
10
39.1465709589533
20
1.84806155138554
30
0
41
1
10
38.9626693386278
20
1.84126012152447
30
0
41
1
10
38.8400371802391
20
1.82861346705934
30
0
41
1
10
38.6855828215463
20
1.8025066606323
30
0
41
1
10
38.6546284454162
20
1.79677198895078
30
0
41
1
10
38.5925602923401
20
1.7842762316501
30
0
41
1
10
38.561514736275
20
1.77752766042633
30
0
41
1
10
38.4685898433044
20
1.755878773929
30
0
41
1
10
38.4068924878544
20
1.73951908172421
30
0
41
1
10
38.222305701636
20
1.68484844787952
30
0
41
1
10
38.0999824333351
20
1.64091529056358
30
0
41
1
10
37.9163842338316
20
1.56455047194987
30
0
41
1
10
37.855119593951
20
1.5373824823445
30
0
41
1
10
37.7323748165633
20
1.47967902927937
30
0
41
1
10
37.6709512577148
20
1.44910053729791
30
0
41
1
10
37.5561302568924
20
1.38900905310109
30
0
41
1
10
37.5027845338519
20
1.35991189691086
30
0
41
1
10
37.4492600224391
20
1.32959216316499
30
0
0
SPLINE
5
12E
100
AcDbEntity
8
1
62
256
6
ByLayer
370
18
48
1
60
0
100
AcDbSpline
70
4
71
3
72
44
73
40
40
0
40
0
40
0
40
0
40
0.045194197368098
40
0.045194197368098
40
0.0906611403505719
40
0.0906611403505719
40
0.18159502631552
40
0.18159502631552
40
0.204328497806757
40
0.204328497806757
40
0.227061969297994
40
0.227061969297994
40
0.272528912280465
40
0.272528912280465
40
0.363462798245404
40
0.363462798245404
40
0.454396684210342
40
0.454396684210342
40
0.477130155701579
40
0.477130155701579
40
0.499863627192815
40
0.499863627192815
40
0.545330570175286
40
0.545330570175286
40
0.590797513157757
40
0.590797513157757
40
0.636264456140228
40
0.636264456140228
40
0.727198342105169
40
0.727198342105169
40
0.77266528508764
40
0.77266528508764
40
0.795398756578875
40
0.795398756578875
40
0.818132228070111
40
0.818132228070111
40
0.909066114035056
40
0.909066114035056
40
1
40
1
40
1
40
1
41
1
10
32.0696096702277
20
-1.84769996739956
30
0
41
1
10
32.0087412233846
20
-1.847690632487
30
0
41
1
10
31.9479543876448
20
-1.84567287350555
30
0
41
1
10
31.8258944794488
20
-1.8376259927507
30
0
41
1
10
31.7645931078298
20
-1.83158012282874
30
0
41
1
10
31.580409260368
20
-1.80741042203988
30
0
41
1
10
31.4573243371942
20
-1.78323593638623
30
0
41
1
10
31.3022212628604
20
-1.74278652617576
30
0
41
1
10
31.2711958404182
20
-1.73419986316236
30
0
41
1
10
31.2093273997682
20
-1.71611166186756
30
0
41
1
10
31.1784517246698
20
-1.70660138669413
30
0
41
1
10
31.085939277474
20
-1.67671689235732
30
0
41
1
10
31.0243814738389
20
-1.65501130944384
30
0
41
1
10
30.8401724593066
20
-1.58457217901554
30
0
41
1
10
30.7178738189134
20
-1.53057005201515
30
0
41
1
10
30.4728497955777
20
-1.40949575914431
30
0
41
1
10
30.350056034429
20
-1.34248710152332
30
0
41
1
10
30.195554348228
20
-1.25098189418284
30
0
41
1
10
30.1646063034731
20
-1.23229004763797
30
0
41
1
10
30.1025920131862
20
-1.19413476669354
30
0
41
1
10
30.0715269580046
20
-1.17467119210727
30
0
41
1
10
29.9786594645771
20
-1.11549775531665
30
0
41
1
10
29.9170159363367
20
-1.07488150314291
30
0
41
1
10
29.7939596606735
20
-0.991662679265147
30
0
41
1
10
29.7324881014061
20
-0.949124499254367
30
0
41
1
10
29.609787822484
20
-0.862079518710402
30
0
41
1
10
29.5485603677052
20
-0.817568958852121
30
0
41
1
10
29.364948373886
20
-0.681397588254754
30
0
41
1
10
29.2426398184449
20
-0.587085744784105
30
0
41
1
10
29.057859069949
20
-0.441974740643161
30
0
41
1
10
28.9960489794096
20
-0.392996187955276
30
0
41
1
10
28.9030099787968
20
-0.318590075740701
30
0
41
1
10
28.8719108499802
20
-0.293602190779922
30
0
41
1
10
28.8099261498649
20
-0.243606329605683
30
0
41
1
10
28.7790052415058
20
-0.21857220606239
30
0
41
1
10
28.6246889062393
20
-0.0933054401658069
30
0
41
1
10
28.5021865796061
20
0.0072500173810965
30
0
41
1
10
28.2569824420876
20
0.20646735769796
30
0
41
1
10
28.1345795233207
20
0.305503102915935
30
0
41
1
10
28.0118153848248
20
0.403266767773374
30
0
0
SPLINE
5
12F
100
AcDbEntity
8
1
62
256
6
ByLayer
370
18
48
1
60
0
100
AcDbSpline
70
4
71
3
72
54
73
50
40
0
40
0
40
0
40
0
40
0.0547735123494694
40
0.0547735123494694
40
0.109547024698939
40
0.109547024698939
40
0.164320537048408
40
0.164320537048408
40
0.219094049397877
40
0.219094049397877
40
0.273867561747347
40
0.273867561747347
40
0.301254317922083
40
0.301254317922083
40
0.32864107409682
40
0.32864107409682
40
0.383414586446296
40
0.383414586446296
40
0.438188098795771
40
0.438188098795771
40
0.492961611145247
40
0.492961611145247
40
0.547735123494723
40
0.547735123494723
40
0.575121879669461
40
0.575121879669461
40
0.602508635844199
40
0.602508635844199
40
0.657282148193679
40
0.657282148193679
40
0.684668904368418
40
0.684668904368418
40
0.712055660543158
40
0.712055660543158
40
0.766829172892634
40
0.766829172892634
40
0.82160268524211
40
0.82160268524211
40
0.848989441416846
40
0.848989441416846
40
0.876376197591583
40
0.876376197591583
40
0.903762953766319
40
0.903762953766319
40
0.931149709941055
40
0.931149709941055
40
0.985923222290525
40
0.985923222290525
40
1
40
1
40
1
40
1
41
1
10
26.5320449943475
20
-1.14990322401678
30
0
41
1
10
26.601458150554
20
-1.19415385705929
30
0
41
1
10
26.6707476339149
20
-1.2365105805886
30
0
41
1
10
26.8090220088192
20
-1.31758418386485
30
0
41
1
10
26.8780226121749
20
-1.35628425466587
30
0
41
1
10
27.0158533577472
20
-1.42993000885335
30
0
41
1
10
27.0846231257216
20
-1.46491695230665
30
0
41
1
10
27.2225350976753
20
-1.53068392472088
30
0
41
1
10
27.2916620891756
20
-1.56148398719134
30
0
41
1
10
27.4303098842296
20
-1.61884717194747
30
0
41
1
10
27.4998119193535
20
-1.64541948681486
30
0
41
1
10
27.6045316162011
20
-1.68191430520943
30
0
41
1
10
27.639475671093
20
-1.69348901114765
30
0
41
1
10
27.7090809736891
20
-1.71537688062949
30
0
41
1
10
27.7437049193354
20
-1.72574460156403
30
0
41
1
10
27.8476185825899
20
-1.75486473956178
30
0
41
1
10
27.9169235589506
20
-1.77167408363701
30
0
41
1
10
28.0551233010813
20
-1.80039777596639
30
0
41
1
10
28.1240925150749
20
-1.81227681714989
30
0
41
1
10
28.2618894769897
20
-1.831036467709
30
0
41
1
10
28.3307588374164
20
-1.83791090843783
30
0
41
1
10
28.4684304351189
20
-1.84656996354298
30
0
41
1
10
28.5375712482647
20
-1.84832219292551
30
0
41
1
10
28.6417261026617
20
-1.84709743229453
30
0
41
1
10
28.6765157146139
20
-1.8460460437241
30
0
41
1
10
28.7462207645418
20
-1.84264310363301
30
0
41
1
10
28.7811623338213
20
-1.84028955355655
30
0
41
1
10
28.886064529787
20
-1.83126197242396
30
0
41
1
10
28.9556176574585
20
-1.82267251138308
30
0
41
1
10
29.0593739076187
20
-1.80596857391248
30
0
41
1
10
29.0938182201983
20
-1.79974843541328
30
0
41
1
10
29.1627765068213
20
-1.78610910345094
30
0
41
1
10
29.1973493200796
20
-1.77871366435076
30
0
41
1
10
29.3008901773131
20
-1.75468299969691
30
0
41
1
10
29.3698676068064
20
-1.73625932670936
30
0
41
1
10
29.5079223429759
20
-1.69473443691439
30
0
41
1
10
29.5769392553628
20
-1.67160832542888
30
0
41
1
10
29.6804719822859
20
-1.63333119579553
30
0
41
1
10
29.7149790537276
20
-1.61997027204293
30
0
41
1
10
29.7840108533906
20
-1.59204006631194
30
0
41
1
10
29.8185460282683
20
-1.57747568915283
30
0
41
1
10
29.8878535332119
20
-1.54727113383089
30
0
41
1
10
29.922627608744
20
-1.53163442305183
30
0
41
1
10
29.9923652427584
20
-1.49925489556205
30
0
41
1
10
30.0273794959981
20
-1.48247829812215
30
0
41
1
10
30.132190726498
20
-1.43070123042463
30
0
41
1
10
30.2017424993778
20
-1.39427987483384
30
0
41
1
10
30.2887869243762
20
-1.34615717369965
30
0
41
1
10
30.3065640073513
20
-1.33619531760496
30
0
41
1
10
30.3243255834131
20
-1.32611438593557
30
0
0
SPLINE
5
130
100
AcDbEntity
8
1
62
256
6
ByLayer
370
18
48
1
60
0
100
AcDbSpline
70
4
71
3
72
60
73
56
40
0
40
0
40
0
40
0
40
0.0154498619005765
40
0.0154498619005765
40
0.0406947372364592
40
0.0406947372364592
40
0.0659396125723415
40
0.0659396125723415
40
0.0911844879082242
40
0.0911844879082242
40
0.116429363244107
40
0.116429363244107
40
0.14167423857999
40
0.14167423857999
40
0.192163989251755
40
0.192163989251755
40
0.217408864587637
40
0.217408864587637
40
0.24265373992352
40
0.24265373992352
40
0.293143490595288
40
0.293143490595288
40
0.343633241267057
40
0.343633241267057
40
0.394122991938825
40
0.394122991938825
40
0.419367867274711
40
0.419367867274711
40
0.444612742610597
40
0.444612742610597
40
0.495102493282365
40
0.495102493282365
40
0.520347368618249
40
0.520347368618249
40
0.545592243954133
40
0.545592243954133
40
0.596081994625898
40
0.596081994625898
40
0.646571745297663
40
0.646571745297663
40
0.671816620633545
40
0.671816620633545
40
0.697061495969426
40
0.697061495969426
40
0.747551246641188
40
0.747551246641188
40
0.79804099731295
40
0.79804099731295
40
0.848530747984713
40
0.848530747984713
40
0.899020498656475
40
0.899020498656475
40
0.949510249328237
40
0.949510249328237
40
1
40
1
40
1
40
1
41
1
10
35.7091651130953
20
1.84769991392378
30
0
41
1
10
35.7302691596881
20
1.84770697709396
30
0
41
1
10
35.751372253267
20
1.84747422250749
30
0
41
1
10
35.8069531210581
20
1.84622450226465
30
0
41
1
10
35.8414019366064
20
1.84480131411223
30
0
41
1
10
35.9104099791166
20
1.84065016474176
30
0
41
1
10
35.9450918709289
20
1.8379372998231
30
0
41
1
10
36.0145914943645
20
1.83122081645024
30
0
41
1
10
36.0494005802445
20
1.82721298145771
30
0
41
1
10
36.1192169571928
20
1.81789910340166
30
0
41
1
10
36.1542611823383
20
1.81258785625619
30
0
41
1
10
36.2240999110531
20
1.80073607777572
30
0
41
1
10
36.2589410303831
20
1.79418871678948
30
0
41
1
10
36.3632263361942
20
1.77269810869893
30
0
41
1
10
36.4324421396194
20
1.75591283121719
30
0
41
1
10
36.5358115536197
20
1.72705397148775
30
0
41
1
10
36.5701978474164
20
1.71682072762644
30
0
41
1
10
36.639019702762
20
1.69521913149944
30
0
41
1
10
36.6734718363298
20
1.68386061418886
30
0
41
1
10
36.7769029021312
20
1.64811123298716
30
0
41
1
10
36.8459074379061
20
1.62202303837287
30
0
41
1
10
36.9840122634822
20
1.56532480650529
30
0
41
1
10
37.053091419248
20
1.53469778899489
30
0
41
1
10
37.1915254690771
20
1.46893520348863
30
0
41
1
10
37.2609013309066
20
1.4338093827663
30
0
41
1
10
37.3656141879868
20
1.37800633070495
30
0
41
1
10
37.400566046276
20
1.35890685310631
30
0
41
1
10
37.4702384780829
20
1.31991146004162
30
0
41
1
10
37.505007824354
20
1.29998958368327
30
0
41
1
10
37.6091190080774
20
1.23896710520339
30
0
41
1
10
37.6782583003942
20
1.19660379005606
30
0
41
1
10
37.7817752763024
20
1.13076125398533
30
0
41
1
10
37.8162736689664
20
1.10845586289162
30
0
41
1
10
37.885114608853
20
1.06298809494669
30
0
41
1
10
37.9194417984723
20
1.03980743524727
30
0
41
1
10
38.0227441713932
20
0.969545519394671
30
0
41
1
10
38.0917902435721
20
0.921498195253008
30
0
41
1
10
38.2299418319989
20
0.822681496987599
30
0
41
1
10
38.2991054756396
20
0.771971779223833
30
0
41
1
10
38.4030847689976
20
0.694027749401329
30
0
41
1
10
38.4377886252669
20
0.66773883566708
30
0
41
1
10
38.5072990679973
20
0.614551980777861
30
0
41
1
10
38.5420690801298
20
0.58758670045458
30
0
41
1
10
38.6466846435572
20
0.506078772732991
30
0
41
1
10
38.7162780574551
20
0.451459480532833
30
0
41
1
10
38.8550926355377
20
0.3415786791399
30
0
41
1
10
38.9243058239076
20
0.286307207113168
30
0
41
1
10
39.0623683301032
20
0.175134445667197
30
0
41
1
10
39.1311626477545
20
0.119164629309495
30
0
41
1
10
39.2686870095712
20
0.0069663123851171
30
0
41
1
10
39.3374985252271
20
-0.0491606725295526
30
0
41
1
10
39.4755243965857
20
-0.161090221027138
30
0
41
1
10
39.5447288329332
20
-0.216904962289732
30
0
41
1
10
39.6835122878637
20
-0.328247139487303
30
0
41
1
10
39.7530884028219
20
-0.383778267273954
30
0
41
1
10
39.8229009434008
20
-0.439107439896304
30
0
0
SPLINE
5
131
100
AcDbEntity
8
1
62
256
6
ByLayer
370
18
48
1
60
0
100
AcDbSpline
70
4
71
3
72
14
73
10
40
0
40
0
40
0
40
0
40
0.25
40
0.25
40
0.5
40
0.5
40
0.75
40
0.75
40
1
40
1
40
1
40
1
41
1
10
39.8229009434008
20
-0.439107439896333
30
0
41
1
10
39.8493081522131
20
-0.460036187120437
30
0
41
1
10
39.8756112741951
20
-0.481044042346724
30
0
41
1
10
39.9278798046057
20
-0.523373324059207
30
0
41
1
10
39.9538505747762
20
-0.544688376503984
30
0
41
1
10
40.0054253092396
20
-0.58766037860849
30
0
41
1
10
40.0310361883417
20
-0.6093089691432
30
0
41
1
10
40.0818256766723
20
-0.653012230772561
30
0
41
1
10
40.10700419887
20
-0.675067263848831
30
0
41
1
10
40.1319237883469
20
-0.697363549237792
30
0
0
SPLINE
5
132
100
AcDbEntity
8
1
62
256
6
ByLayer
370
18
48
1
60
0
100
AcDbSpline
70
4
71
3
72
8
73
4
40
0
40
0
40
0
40
0
40
1
40
1
40
1
40
1
41
1
10
40.1319237883469
20
-0.697363549237792
30
0
41
1
10
40.1379501871219
20
-0.702755544442255
30
0
41
1
10
40.1439767142939
20
-0.708153510409062
30
0
41
1
10
40.1500000000001
20
-0.713562299137919
30
0
0
SPLINE
5
133
100
AcDbEntity
8
1
62
256
6
ByLayer
370
18
48
1
60
0
100
AcDbSpline
70
4
71
3
72
8
73
4
40
0
40
0
40
0
40
0
40
1
40
1
40
1
40
1
41
1
10
40.15
20
-0.713562299137891
30
0
41
1
10
40.2420801167034
20
-0.788957664526777
30
0
41
1
10
40.333228499936
20
-0.863297476642629
30
0
41
1
10
40.4235015871226
20
-0.936501994616322
30
0
0
SPLINE
5
134
100
AcDbEntity
8
1
62
256
6
ByLayer
370
18
48
1
60
0
100
AcDbSpline
70
4
71
3
72
29
73
25
40
0
40
0
40
0
40
0
40
0.0624999999999693
40
0.0624999999999693
40
0.124999999999938
40
0.124999999999938
40
0.249999999999924
40
0.249999999999924
40
0.37499999999991
40
0.37499999999991
40
0.499999999999895
40
0.499999999999895
40
0.624999999999881
40
0.624999999999881
40
0.687499999999901
40
0.687499999999901
40
0.74999999999992
40
0.81249999999994
40
0.81249999999994
40
0.87499999999996
40
0.87499999999996
40
0.93749999999998
40
0.93749999999998
40
1
40
1
40
1
40
1
41
1
10
40.4235015871226
20
-0.93650199461635
30
0
41
1
10
40.4267632777343
20
-0.938024803688052
30
0
41
1
10
40.4301810660782
20
-0.939719017348551
30
0
41
1
10
40.4373039453043
20
-0.943423501956062
30
0
41
1
10
40.4410266347936
20
-0.945444010688874
30
0
41
1
10
40.4524392413938
20
-0.95186610848512
30
0
41
1
10
40.4603806248861
20
-0.956625790171728
30
0
41
1
10
40.4768440462536
20
-0.967000857990939
30
0
41
1
10
40.4853674396282
20
-0.972616912000348
30
0
41
1
10
40.5029832907003
20
-0.98475708126341
30
0
41
1
10
40.5118775858783
20
-0.991146177677535
30
0
41
1
10
40.5297551458715
20
-1.00457112573784
30
0
41
1
10
40.538747075627
20
-1.01161110914245
30
0
41
1
10
40.5523038312165
20
-1.02277272365907
30
0
41
1
10
40.5568525463251
20
-1.02661101511046
30
0
41
1
10
40.5657958535017
20
-1.03437004234002
30
0
41
1
10
40.5746182375153
20
-1.04223723620672
30
0
41
1
10
40.5831645541695
20
-1.05035376080363
30
0
41
1
10
40.5915476648099
20
-1.05861835977768
30
0
41
1
10
40.5956563473874
20
-1.06282642549235
30
0
41
1
10
40.6034506204004
20
-1.07117709909386
30
0
41
1
10
40.6071650118079
20
-1.07534703555481
30
0
41
1
10
40.6141692067564
20
-1.08367207851757
30
0
41
1
10
40.6174723147823
20
-1.08784749748759
30
0
41
1
10
40.6204379844265
20
-1.09190630697097
30
0
0
SPLINE
5
135
100
AcDbEntity
8
1
62
256
6
ByLayer
370
18
48
1
60
0
100
AcDbSpline
70
4
71
3
72
8
73
4
40
0
40
0
40
0
40
0
40
1
40
1
40
1
40
1
41
1
10
40.6204379844265
20
-1.0919063069706
30
0
41
1
10
40.6222746370205
20
-1.09441994600016
30
0
41
1
10
40.6241105521664
20
-1.09693808904757
30
0
41
1
10
40.6259457335045
20
-1.09946075732529
30
0
0
SPLINE
5
136
100
AcDbEntity
8
1
62
256
6
ByLayer
370
18
48
1
60
0
100
AcDbSpline
70
4
71
3
72
10
73
6
40
0
40
0
40
0
40
0
40
0.5
40
0.5
40
1
40
1
40
1
40
1
41
1
10
40.6259457335046
20
-1.09946075732543
30
0
41
1
10
40.7210776534018
20
-1.17526813002687
30
0
41
1
10
40.8158247790512
20
-1.24917459453184
30
0
41
1
10
41.0048557600309
20
-1.39277325361468
30
0
41
1
10
41.0990990819115
20
-1.46249603963889
30
0
41
1
10
41.1934167885954
20
-1.52971700719101
30
0
0
SPLINE
5
137
100
AcDbEntity
8
1
62
256
6
ByLayer
370
18
48
1
60
0
100
AcDbSpline
70
4
71
3
72
8
73
4
40
0
40
0
40
0
40
0
40
1
40
1
40
1
40
1
41
1
10
41.1934167885954
20
-1.52971700719107
30
0
41
1
10
41.2119100707433
20
-1.52359451900838
30
0
41
1
10
41.2304655967859
20
-1.51671177824588
30
0
41
1
10
41.2490948331833
20
-1.50906838969277
30
0
0
SPLINE
5
138
100
AcDbEntity
8
1
62
256
6
ByLayer
370
18
48
1
60
0
100
AcDbSpline
70
4
71
3
72
26
73
22
40
0
40
0
40
0
40
0
40
0.125
40
0.125
40
0.250000000000001
40
0.250000000000001
40
0.375000000000001
40
0.375000000000001
40
0.500000000000002
40
0.500000000000002
40
0.625000000000002
40
0.625000000000002
40
0.750000000000003
40
0.750000000000003
40
0.812500000000002
40
0.812500000000002
40
0.875000000000001
40
0.875000000000001
40
0.937500000000001
40
0.937500000000001
40
1
40
1
40
1
40
1
41
1
10
41.2490948331834
20
-1.50906838969274
30
0
41
1
10
41.2549982143601
20
-1.50664629169859
30
0
41
1
10
41.2618509015817
20
-1.5055789261998
30
0
41
1
10
41.2769644403358
20
-1.5054207361691
30
0
41
1
10
41.2853048287009
20
-1.50637274283744
30
0
41
1
10
41.3026264377058
20
-1.5099446160452
30
0
41
1
10
41.3116686041216
20
-1.51255501497357
30
0
41
1
10
41.3304552960457
20
-1.51933684518073
30
0
41
1
10
41.3402719062568
20
-1.52355549064279
30
0
41
1
10
41.3599288647386
20
-1.5333881876951
30
0
41
1
10
41.3698320348006
20
-1.53901425133108
30
0
41
1
10
41.3897563320012
20
-1.55189731982088
30
0
41
1
10
41.3998787392739
20
-1.55924144492812
30
0
41
1
10
41.4144784910464
20
-1.57135751102191
30
0
41
1
10
41.4192646723901
20
-1.57558963328486
30
0
41
1
10
41.4286462771399
20
-1.58450336772691
30
0
41
1
10
41.4332744468765
20
-1.58922267380592
30
0
41
1
10
41.4420625003158
20
-1.59895268721681
30
0
41
1
10
41.4462369884655
20
-1.60397114776373
30
0
41
1
10
41.4540745345817
20
-1.61436523752997
30
0
41
1
10
41.4577585279993
20
-1.6197784537562
30
0
41
1
10
41.4610352257069
20
-1.62526673296745
30
0
0
SPLINE
5
139
100
AcDbEntity
8
1
62
256
6
ByLayer
370
18
48
1
60
0
100
AcDbSpline
70
4
71
3
72
8
73
4
40
0
40
0
40
0
40
0
40
1
40
1
40
1
40
1
41
1
10
41.4610352257069
20
-1.62526673296725
30
0
41
1
10
41.4887924086547
20
-1.67175840956614
30
0
41
1
10
41.5163832130301
20
-1.71876922958248
30
0
41
1
10
41.5438380888728
20
-1.76628107303199
30
0
0
SPLINE
5
13A
100
AcDbEntity
8
1
62
256
6
ByLayer
370
18
48
1
60
0
100
AcDbSpline
70
4
71
3
72
12
73
8
40
0
40
0
40
0
40
0
40
0.500000000000026
40
0.500000000000026
40
0.750000000000013
40
0.750000000000013
40
1
40
1
40
1
40
1
41
1
10
41.5438380888676
20
-1.76628107303296
30
0
41
1
10
41.6150695749085
20
-1.81133218758222
30
0
41
1
10
41.6858289577639
20
-1.85416905717824
30
0
41
1
10
41.7913882870786
20
-1.91499216217599
30
0
41
1
10
41.8264832064494
20
-1.93469191872285
30
0
41
1
10
41.896502294768
20
-1.97292103480879
30
0
41
1
10
41.9313778211413
20
-1.99146649303742
30
0
41
1
10
41.9662460904859
20
-2.00938904423174
30
0
0
SPLINE
5
13B
100
AcDbEntity
8
1
62
256
6
ByLayer
370
18
48
1
60
0
100
AcDbSpline
70
4
71
3
72
8
73
4
40
0
40
0
40
0
40
0
40
1
40
1
40
1
40
1
41
1
10
41.9662460904859
20
-2.00938904423177
30
0
41
1
10
42.0070150385593
20
-1.97067200390416
30
0
41
1
10
42.0481666157621
20
-1.92850124620608
30
0
41
1
10
42.0897048790709
20
-1.88299364922384
30
0
0
SPLINE
5
13C
100
AcDbEntity
8
1
62
256
6
ByLayer
370
18
48
1
60
0
100
AcDbSpline
70
4
71
3
72
26
73
22
40
0
40
0
40
0
40
0
40
0.125
40
0.125
40
0.25
40
0.25
40
0.375
40
0.375
40
0.5
40
0.5
40
0.625000000000001
40
0.625000000000001
40
0.750000000000001
40
0.750000000000001
40
0.8125
40
0.8125
40
0.875
40
0.875
40
0.9375
40
0.9375
40
1
40
1
40
1
40
1
41
1
10
42.0897048790709
20
-1.88299364922384
30
0
41
1
10
42.0956091375203
20
-1.8765251887589
30
0
41
1
10
42.1024667458671
20
-1.87151351701442
30
0
41
1
10
42.1176007048292
20
-1.86362636374841
30
0
41
1
10
42.125958245115
20
-1.86077032250557
30
0
41
1
10
42.1433152458676
20
-1.85714521147889
30
0
41
1
10
42.1523746182708
20
-1.85633359164115
30
0
41
1
10
42.1711882645176
20
-1.85659830557068
30
0
41
1
10
42.1810123793445
20
-1.85770353020263
30
0
41
1
10
42.2006707734785
20
-1.86183728917246
30
0
41
1
10
42.2105705519582
20
-1.86485228648382
30
0
41
1
10
42.2304814110499
20
-1.87302450298651
30
0
41
1
10
42.2405860238298
20
-1.87825010639668
30
0
41
1
10
42.2551512091945
20
-1.88778245604365
30
0
41
1
10
42.2599264236706
20
-1.89124882332604
30
0
41
1
10
42.2692873745727
20
-1.89884840240524
30
0
41
1
10
42.2739045575911
20
-1.90301582749288
30
0
41
1
10
42.2826675992136
20
-1.91192077331308
30
0
41
1
10
42.2868312426395
20
-1.91666523132838
30
0
41
1
10
42.2946505513672
20
-1.92683645700737
30
0
41
1
10
42.2983264276533
20
-1.93230245904786
30
0
41
1
10
42.3015964318553
20
-1.93804042446854
30
0
0
SPLINE
5
13D
100
AcDbEntity
8
1
62
256
6
ByLayer
370
18
48
1
60
0
100
AcDbSpline
70
4
71
3
72
10
73
6
40
0
40
0
40
0
40
0
40
0.5
40
0.5
40
1
40
1
40
1
40
1
41
1
10
42.3015964318553
20
-1.93804042446843
30
0
41
1
10
42.3286039851889
20
-1.98543131376212
30
0
41
1
10
42.3554545677241
20
-2.03273414020447
30
0
41
1
10
42.4088945226993
20
-2.12713145761967
30
0
41
1
10
42.4354939465585
20
-2.17424111750728
30
0
41
1
10
42.4619245171832
20
-2.22110683779516
30
0
0
SPLINE
5
13E
100
AcDbEntity
8
1
62
256
6
ByLayer
370
18
48
1
60
0
100
AcDbSpline
70
4
71
3
72
12
73
8
40
0
40
0
40
0
40
0
40
0.499999999999962
40
0.499999999999962
40
0.749999999999981
40
0.749999999999981
40
1
40
1
40
1
40
1
41
1
10
42.4619245171832
20
-2.22110683779516
30
0
41
1
10
42.5086913413874
20
-2.23688082291693
30
0
41
1
10
42.5551418790955
20
-2.25130603480835
30
0
41
1
10
42.6243446477367
20
-2.2709095717957
30
0
41
1
10
42.6473246470005
20
-2.27710400864069
30
0
41
1
10
42.6932784991529
20
-2.28881555255299
30
0
41
1
10
42.7162627670094
20
-2.29433420174101
30
0
41
1
10
42.7392072254137
20
-2.29951605821765
30
0
0
SPLINE
5
13F
100
AcDbEntity
8
1
62
256
6
ByLayer
370
18
48
1
60
0
100
AcDbSpline
70
4
71
3
72
10
73
6
40
0
40
0
40
0
40
0
40
0.5
40
0.5
40
1
40
1
40
1
40
1
41
1
10
42.7392072254137
20
-2.29951605821768
30
0
41
1
10
42.7706061901646
20
-2.25275480211204
30
0
41
1
10
42.80224099674
20
-2.20444760004457
30
0
41
1
10
42.8659399619764
20
-2.10498302556266
30
0
41
1
10
42.8979898796696
20
-2.0538490384169
30
0
41
1
10
42.9302755796872
20
-2.00135918420889
30
0
0
SPLINE
5
140
100
AcDbEntity
8
1
62
256
6
ByLayer
370
18
48
1
60
0
100
AcDbSpline
70
4
71
3
72
26
73
22
40
0
40
0
40
0
40
0
40
0.125000000000025
40
0.125000000000025
40
0.25000000000005
40
0.25000000000005
40
0.375000000000075
40
0.375000000000075
40
0.5000000000001
40
0.5000000000001
40
0.625000000000125
40
0.625000000000125
40
0.75000000000015
40
0.75000000000015
40
0.812500000000113
40
0.812500000000113
40
0.875000000000075
40
0.875000000000075
40
0.937500000000038
40
0.937500000000038
40
1
40
1
40
1
40
1
41
1
10
42.9302755796872
20
-2.00135918420889
30
0
41
1
10
42.9361869247825
20
-1.99174856272461
30
0
41
1
10
42.9430537893841
20
-1.98350849989933
30
0
41
1
10
42.9582065463228
20
-1.96904233351813
30
0
41
1
10
42.9665740062994
20
-1.96280945077797
30
0
41
1
10
42.9839466799652
20
-1.95255815471691
30
0
41
1
10
42.9930126121331
20
-1.94846924572823
30
0
41
1
10
43.0118358414058
20
-1.94223660822098
30
0
41
1
10
43.0216618209751
20
-1.9401014752147
30
0
41
1
10
43.041319046511
20
-1.9380122663116
30
0
41
1
10
43.0512165498496
20
-1.93801991570425
30
0
41
1
10
43.0711201934257
20
-1.94038913762148
30
0
41
1
10
43.0812174416133
20
-1.94279571473149
30
0
41
1
10
43.0957698327422
20
-1.94846625878631
30
0
41
1
10
43.1005409100632
20
-1.95070076511547
30
0
41
1
10
43.1098935594554
20
-1.95596100105135
30
0
41
1
10
43.1145063761464
20
-1.95901383384472
30
0
41
1
10
43.1232611587076
20
-1.96589467288845
30
0
41
1
10
43.1274211221255
20
-1.96972460844725
30
0
41
1
10
43.1352341503516
20
-1.97829590211205
30
0
41
1
10
43.1389075935892
20
-1.9830738040682
30
0
41
1
10
43.1421764928754
20
-1.98828462849656
30
0
0
SPLINE
5
141
100
AcDbEntity
8
1
62
256
6
ByLayer
370
18
48
1
60
0
100
AcDbSpline
70
4
71
3
72
10
73
6
40
0
40
0
40
0
40
0
40
0.5
40
0.5
40
1
40
1
40
1
40
1
41
1
10
43.1421764928754
20
-1.98828462849661
30
0
41
1
10
43.1825091873883
20
-2.05257739845555
30
0
41
1
10
43.2225227092089
20
-2.11544166764551
30
0
41
1
10
43.3018919892365
20
-2.23789408581712
30
0
41
1
10
43.3412358314195
20
-2.2974636287336
30
0
41
1
10
43.3802268219387
20
-2.35525683321049
30
0
0
SPLINE
5
142
100
AcDbEntity
8
1
62
256
6
ByLayer
370
18
48
1
60
0
100
AcDbSpline
70
4
71
3
72
8
73
4
40
0
40
0
40
0
40
0
40
1
40
1
40
1
40
1
41
1
10
43.3802268219387
20
-2.35525683321046
30
0
41
1
10
43.4241413439166
20
-2.35272813044185
30
0
41
1
10
43.4681720231926
20
-2.34888238996714
30
0
41
1
10
43.5122811745371
20
-2.3436857786175
30
0
0
SPLINE
5
143
100
AcDbEntity
8
1
62
256
6
ByLayer
370
18
48
1
60
0
100
AcDbSpline
70
4
71
3
72
8
73
4
40
0
40
0
40
0
40
0
40
1
40
1
40
1
40
1
41
1
10
43.5122811745371
20
-2.3436857786175
30
0
41
1
10
43.5968315980558
20
-2.18427687999531
30
0
41
1
10
43.68305367472
20
-2.01833481110057
30
0
41
1
10
43.7708235800795
20
-1.84868843207676
30
0
0
SPLINE
5
144
100
AcDbEntity
8
1
62
256
6
ByLayer
370
18
48
1
60
0
100
AcDbSpline
70
4
71
3
72
26
73
22
40
0
40
0
40
0
40
0
40
0.125
40
0.125
40
0.25
40
0.25
40
0.375
40
0.375
40
0.499999999999999
40
0.499999999999999
40
0.624999999999999
40
0.624999999999999
40
0.749999999999999
40
0.749999999999999
40
0.812499999999999
40
0.812499999999999
40
0.874999999999999
40
0.874999999999999
40
0.9375
40
0.9375
40
1
40
1
40
1
40
1
41
1
10
43.7708235800795
20
-1.84868843207676
30
0
41
1
10
43.7767467025125
20
-1.83723990345919
30
0
41
1
10
43.7836279779364
20
-1.82688882577437
30
0
41
1
10
43.7988085872893
20
-1.80780118924514
30
0
41
1
10
43.807189399725
20
-1.79903305108374
30
0
41
1
10
43.8245819328088
20
-1.7835355687788
30
0
41
1
10
43.833655916114
20
-1.7767172379171
30
0
41
1
10
43.8524891110191
20
-1.76481497674885
30
0
41
1
10
43.8623157663711
20
-1.75971861060867
30
0
41
1
10
43.8819688099152
20
-1.75166336668562
30
0
41
1
10
43.8918619835466
20
-1.74864644447206
30
0
41
1
10
43.9117533334402
20
-1.74485285343022
30
0
41
1
10
43.9218409563626
20
-1.74409250866188
30
0
41
1
10
43.9363805151721
20
-1.74509746726051
30
0
41
1
10
43.9411476479879
20
-1.74578484378577
30
0
41
1
10
43.9504930234635
20
-1.74796658153835
30
0
41
1
10
43.955102536254
20
-1.74947729985803
30
0
41
1
10
43.9638531260439
20
-1.75337437398369
30
0
41
1
10
43.9680117732694
20
-1.75575698558106
30
0
41
1
10
43.9758236136473
20
-1.76153943753218
30
0
41
1
10
43.9794975372825
20
-1.7649680968251
30
0
41
1
10
43.98276823119
20
-1.76893287274194
30
0
0
SPLINE
5
145
100
AcDbEntity
8
1
62
256
6
ByLayer
370
18
48
1
60
0
100
AcDbSpline
70
4
71
3
72
10
73
6
40
0
40
0
40
0
40
0
40
0.5
40
0.5
40
1
40
1
40
1
40
1
41
1
10
43.9827682311899
20
-1.76893287274211
30
0
41
1
10
44.0286266109311
20
-1.82452297219245
30
0
41
1
10
44.0740423665344
20
-1.87682533501763
30
0
41
1
10
44.1641356514619
20
-1.97486377386156
30
0
41
1
10
44.2087478555518
20
-2.02052973952487
30
0
41
1
10
44.2529132898909
20
-2.06273974580782
30
0
0
SPLINE
5
146
100
AcDbEntity
8
1
62
256
6
ByLayer
370
18
48
1
60
0
100
AcDbSpline
70
4
71
3
72
8
73
4
40
0
40
0
40
0
40
0
40
1
40
1
40
1
40
1
41
1
10
44.3313545346538
20
-2.0157730224376
30
0
41
1
10
44.3051814882851
20
-2.03184898669693
30
0
41
1
10
44.2790351820987
20
-2.04750414192992
30
0
41
1
10
44.2529132898905
20
-2.06273974580842
30
0
0
SPLINE
5
147
100
AcDbEntity
8
1
62
256
6
ByLayer
370
18
48
1
60
0
100
AcDbSpline
70
4
71
3
72
12
73
8
40
0
40
0
40
0
40
0
40
0.25
40
0.25
40
0.5
40
0.5
40
1
40
1
40
1
40
1
41
1
10
44.3313545346538
20
-2.0157730224376
30
0
41
1
10
44.3542333887127
20
-1.96807681461507
30
0
41
1
10
44.3772115894143
20
-1.92037000713935
30
0
41
1
10
44.4234122523634
20
-1.82495594364104
30
0
41
1
10
44.4466472541239
20
-1.77722253434109
30
0
41
1
10
44.5166738005362
20
-1.63430232692667
30
0
41
1
10
44.5638175755749
20
-1.53934924933773
30
0
41
1
10
44.6114243889255
20
-1.44520085510399
30
0
0
SPLINE
5
148
100
AcDbEntity
8
1
62
256
6
ByLayer
370
18
48
1
60
0
100
AcDbSpline
70
4
71
3
72
22
73
18
40
0
40
0
40
0
40
0
40
0.0622705140782
40
0.0622705140782
40
0.29670288555865
40
0.29670288555865
40
0.413919071298875
40
0.413919071298875
40
0.5311352570391
40
0.5311352570391
40
0.648351442779325
40
0.648351442779325
40
0.76556762851955
40
0.76556762851955
40
0.882783814259775
40
0.882783814259775
40
1
40
1
40
1
40
1
41
1
10
46.2131264197447
20
-1.94435436454586
30
0
41
1
10
46.2105353031613
20
-1.94398385667989
30
0
41
1
10
46.2079328343143
20
-1.94368688467665
30
0
41
1
10
46.1955144511187
20
-1.94263358172057
30
0
41
1
10
46.1856032252129
20
-1.94284259666961
30
0
41
1
10
46.1706046123589
20
-1.94492998200582
30
0
41
1
10
46.165582927467
20
-1.94592426926624
30
0
41
1
10
46.1554956981272
20
-1.948597332692
30
0
41
1
10
46.1504400242382
20
-1.95027873033416
30
0
41
1
10
46.1405437747049
20
-1.95433715660562
30
0
41
1
10
46.1356732827999
20
-1.95672024155562
30
0
41
1
10
46.1261168403331
20
-1.96230568518638
30
0
41
1
10
46.1213943233694
20
-1.96553915181411
30
0
41
1
10
46.1124166484778
20
-1.9728221367962
30
0
41
1
10
46.1081528380444
20
-1.97686616037282
30
0
41
1
10
46.1001534889728
20
-1.98589810290173
30
0
41
1
10
46.0964019140634
20
-1.99092111975924
30
0
41
1
10
46.0930855261221
20
-1.99636324621397
30
0
0
SPLINE
5
149
100
AcDbEntity
8
1
62
256
6
ByLayer
370
18
48
1
60
0
100
AcDbSpline
70
4
71
3
72
10
73
6
40
0
40
0
40
0
40
0
40
0.5
40
0.5
40
1
40
1
40
1
40
1
41
1
10
46.0930855261223
20
-1.99636324621406
30
0
41
1
10
46.0474640035485
20
-2.07122725467775
30
0
41
1
10
46.0022742849635
20
-2.14449889000093
30
0
41
1
10
45.9124775450088
20
-2.28787798114484
30
0
41
1
10
45.8680694463012
20
-2.35766452939078
30
0
41
1
10
45.8240383775639
20
-2.42550148612338
30
0
0
SPLINE
5
14A
100
AcDbEntity
8
1
62
256
6
ByLayer
370
18
48
1
60
0
100
AcDbSpline
70
4
71
3
72
8
73
4
40
0
40
0
40
0
40
0
40
1
40
1
40
1
40
1
41
1
10
45.7456241821692
20
-2.41172930464165
30
0
41
1
10
45.7717568097284
20
-2.41680186002415
30
0
41
1
10
45.7978922776823
20
-2.42139310299012
30
0
41
1
10
45.8240383775639
20
-2.42550148612338
30
0
0
SPLINE
5
14B
100
AcDbEntity
8
1
62
256
6
ByLayer
370
18
48
1
60
0
100
AcDbSpline
70
4
71
3
72
12
73
8
40
0
40
0
40
0
40
0
40
0.25
40
0.25
40
0.500000000000001
40
0.500000000000001
40
1
40
1
40
1
40
1
41
1
10
45.7456241821705
20
-2.41172930462986
30
0
41
1
10
45.7226017242061
20
-2.36949894003382
30
0
41
1
10
45.6994900843838
20
-2.32670075302681
30
0
41
1
10
45.6530424543613
20
-2.23997439162369
30
0
41
1
10
45.6296942025841
20
-2.19602274368921
30
0
41
1
10
45.5593683193952
20
-2.06271613723376
30
0
41
1
10
45.5120776359016
20
-1.97184598701867
30
0
41
1
10
45.4643579644147
20
-1.87935216126536
30
0
0
SPLINE
5
14C
100
AcDbEntity
8
1
62
256
6
ByLayer
370
18
48
1
60
0
100
AcDbSpline
70
4
71
3
72
28
73
24
40
0
40
0
40
0
40
0
40
0.124999999999961
40
0.124999999999961
40
0.249999999999923
40
0.249999999999923
40
0.374999999999884
40
0.374999999999884
40
0.499999999999846
40
0.499999999999846
40
0.624999999999807
40
0.624999999999807
40
0.687499999999839
40
0.687499999999839
40
0.749999999999871
40
0.749999999999871
40
0.812499999999903
40
0.812499999999903
40
0.874999999999936
40
0.874999999999936
40
0.937499999999968
40
0.937499999999968
40
1
40
1
40
1
40
1
41
1
10
45.4643579644147
20
-1.87935216126536
30
0
41
1
10
45.4585631556477
20
-1.86812023079176
30
0
41
1
10
45.4518473910474
20
-1.85795642732208
30
0
41
1
10
45.4370173150238
20
-1.83922983063715
30
0
41
1
10
45.4288304590923
20
-1.83064024223774
30
0
41
1
10
45.4117656646983
20
-1.81545521874344
30
0
41
1
10
45.4028325277575
20
-1.80877840727783
30
0
41
1
10
45.3842270927896
20
-1.7971651925134
30
0
41
1
10
45.374467696773
20
-1.792205516579
30
0
41
1
10
45.354839359138
20
-1.78446116556211
30
0
41
1
10
45.3449253265932
20
-1.78162695120002
30
0
41
1
10
45.3299215811594
20
-1.77912838545788
30
0
41
1
10
45.3248979892114
20
-1.77859049172017
30
0
41
1
10
45.3148067964673
20
-1.77818801688485
30
0
41
1
10
45.3097500862623
20
-1.77832904135596
30
0
41
1
10
45.2998527444976
20
-1.77936885184658
30
0
41
1
10
45.2949822302086
20
-1.78026460381409
30
0
41
1
10
45.2854271189657
20
-1.78292286122579
30
0
41
1
10
45.2807059742696
20
-1.78470516248865
30
0
41
1
10
45.2717322665605
20
-1.78921484406556
30
0
41
1
10
45.267470997553
20
-1.79193418820188
30
0
41
1
10
45.2594773394582
20
-1.79846110836323
30
0
41
1
10
45.2557286958332
20
-1.80229862210135
30
0
41
1
10
45.252414660517
20
-1.80668086019966
30
0
0
SPLINE
5
14D
100
AcDbEntity
8
1
62
256
6
ByLayer
370
18
48
1
60
0
100
AcDbSpline
70
4
71
3
72
10
73
6
40
0
40
0
40
0
40
0
40
0.5
40
0.5
40
1
40
1
40
1
40
1
41
1
10
45.2524146605131
20
-1.80668086020566
30
0
41
1
10
45.20678973176
20
-1.86701193153522
30
0
41
1
10
45.1616008796408
20
-1.92421797845131
30
0
41
1
10
45.0718070055899
20
-2.03261031334583
30
0
41
1
10
45.027402257223
20
-2.08354682540934
30
0
41
1
10
44.9833731888933
20
-2.13128803625827
30
0
0
SPLINE
5
14E
100
AcDbEntity
8
1
62
256
6
ByLayer
370
18
48
1
60
0
100
AcDbSpline
70
4
71
3
72
8
73
4
40
0
40
0
40
0
40
0
40
1
40
1
40
1
40
1
41
1
10
44.9049466810587
20
-2.08808812498759
30
0
41
1
10
44.9310826381131
20
-2.10290727666842
30
0
41
1
10
44.957222069094
20
-2.11730862670743
30
0
41
1
10
44.9833731888934
20
-2.13128803625827
30
0
0
SPLINE
5
14F
100
AcDbEntity
8
1
62
256
6
ByLayer
370
18
48
1
60
0
100
AcDbSpline
70
4
71
3
72
12
73
8
40
0
40
0
40
0
40
0
40
0.249999999999993
40
0.249999999999993
40
0.499999999999986
40
0.499999999999986
40
1
40
1
40
1
40
1
41
1
10
44.9049466810599
20
-2.08808812497702
30
0
41
1
10
44.8819307329825
20
-2.03951218772667
30
0
41
1
10
44.8588256548118
20
-1.99081081194456
30
0
41
1
10
44.8123894519201
20
-1.89317492696645
30
0
41
1
10
44.7890461023164
20
-1.84421459494621
30
0
41
1
10
44.7187291525181
20
-1.69728193146884
30
0
41
1
10
44.6714345914206
20
-1.59918376597648
30
0
41
1
10
44.6236924334469
20
-1.50144671128132
30
0
0
SPLINE
5
150
100
AcDbEntity
8
1
62
256
6
ByLayer
370
18
48
1
60
0
100
AcDbSpline
70
4
71
3
72
28
73
24
40
0
40
0
40
0
40
0
40
0.125
40
0.125
40
0.25
40
0.25
40
0.375
40
0.375
40
0.5
40
0.5
40
0.625
40
0.625
40
0.6875
40
0.6875
40
0.75
40
0.75
40
0.8125
40
0.8125
40
0.875
40
0.875
40
0.9375
40
0.9375
40
1
40
1
40
1
40
1
41
1
10
44.6236924334465
20
-1.50144671128061
30
0
41
1
10
44.6178944452335
20
-1.48957715374181
30
0
41
1
10
44.6111735668873
20
-1.47840764572211
30
0
41
1
10
44.5963299299133
20
-1.45712771397155
30
0
41
1
10
44.5881342259418
20
-1.44697137156899
30
0
41
1
10
44.5710523489747
20
-1.42827473112828
30
0
41
1
10
44.5621107503325
20
-1.41964430488667
30
0
41
1
10
44.5434916205525
20
-1.40373453894071
30
0
41
1
10
44.5337281347863
20
-1.3964093348296
30
0
41
1
10
44.5140991802618
20
-1.38365562776192
30
0
41
1
10
44.5041870868703
20
-1.37816882322804
30
0
41
1
10
44.4891901138938
20
-1.37142342029225
30
0
41
1
10
44.4841694844275
20
-1.3694247575591
30
0
41
1
10
44.4740851613975
20
-1.36599486823911
30
0
41
1
10
44.4690358651366
20
-1.36457279596129
30
0
41
1
10
44.4591504929526
20
-1.36244265827827
30
0
41
1
10
44.4542853471939
20
-1.36172326629864
30
0
41
1
10
44.4447394559742
20
-1.36108032629701
30
0
41
1
10
44.4400225368954
20
-1.36116259527299
30
0
41
1
10
44.4310582410495
20
-1.36227310921214
30
0
41
1
10
44.4268004851268
20
-1.36329193518949
30
0
41
1
10
44.4188116727247
20
-1.36641661346863
30
0
41
1
10
44.4150649917662
20
-1.36854272313929
30
0
41
1
10
44.4117523398387
20
-1.37126589965459
30
0
0
SPLINE
5
151
100
AcDbEntity
8
1
62
256
6
ByLayer
370
18
48
1
60
0
100
AcDbSpline
70
4
71
3
72
10
73
6
40
0
40
0
40
0
40
0
40
0.5
40
0.5
40
1
40
1
40
1
40
1
41
1
10
44.4117523398383
20
-1.37126589965462
30
0
41
1
10
44.3661281362433
20
-1.40877142769628
30
0
41
1
10
44.3209372876027
20
-1.4420942064464
30
0
41
1
10
44.2311407357687
20
-1.50069596887755
30
0
41
1
10
44.18673319638
20
-1.52584371352623
30
0
41
1
10
44.1427025019643
20
-1.54697154210919
30
0
0
SPLINE
5
152
100
AcDbEntity
8
1
62
256
6
ByLayer
370
18
48
1
60
0
100
AcDbSpline
70
4
71
3
72
8
73
4
40
0
40
0
40
0
40
0
40
1
40
1
40
1
40
1
41
1
10
44.0642607266582
20
-1.48019669742649
30
0
41
1
10
44.0904017264328
20
-1.50275430622625
30
0
41
1
10
44.1165462839907
20
-1.52501461990048
30
0
41
1
10
44.1427025019643
20
-1.54697154210916
30
0
0
SPLINE
5
153
100
AcDbEntity
8
1
62
256
6
ByLayer
370
18
48
1
60
0
100
AcDbSpline
70
4
71
3
72
12
73
8
40
0
40
0
40
0
40
0
40
0.25
40
0.25
40
0.499999999999999
40
0.499999999999999
40
1
40
1
40
1
40
1
41
1
10
44.0642607266594
20
-1.48019669741836
30
0
41
1
10
44.0412544686616
20
-1.43190411402136
30
0
41
1
10
44.0181581643293
20
-1.38394588171127
30
0
41
1
10
43.9717342470299
20
-1.28873212842527
30
0
41
1
10
43.9483938062336
20
-1.24145208055231
30
0
41
1
10
43.8780771349375
20
-1.10098680270943
30
0
41
1
10
43.8307689945808
20
-1.00910920304179
30
0
41
1
10
43.7830421645305
20
-0.919485775739531
30
0
0
SPLINE
5
154
100
AcDbEntity
8
1
62
256
6
ByLayer
370
18
48
1
60
0
100
AcDbSpline
70
4
71
3
72
28
73
24
40
0
40
0
40
0
40
0
40
0.124999999999961
40
0.124999999999961
40
0.249999999999922
40
0.249999999999922
40
0.374999999999884
40
0.374999999999884
40
0.499999999999845
40
0.499999999999845
40
0.624999999999806
40
0.624999999999806
40
0.687499999999838
40
0.687499999999838
40
0.749999999999871
40
0.749999999999871
40
0.812499999999903
40
0.812499999999903
40
0.874999999999935
40
0.874999999999935
40
0.937499999999968
40
0.937499999999968
40
1
40
1
40
1
40
1
41
1
10
43.7830421645298
20
-0.91948577573794
30
0
41
1
10
43.7772404674461
20
-0.908591107555054
30
0
41
1
10
43.7705154018749
20
-0.897931312574116
30
0
41
1
10
43.7556649932109
20
-0.876979772749451
30
0
41
1
10
43.7474668195232
20
-0.866629539153479
30
0
41
1
10
43.7303827412144
20
-0.846941652929246
30
0
41
1
10
43.7214411582705
20
-0.837517267043467
30
0
41
1
10
43.7028228411434
20
-0.819443864758057
30
0
41
1
10
43.6930601425896
20
-0.810732169852258
30
0
41
1
10
43.6734326210578
20
-0.794670027105582
30
0
41
1
10
43.6635213374864
20
-0.787260969707859
30
0
41
1
10
43.6485259185029
20
-0.777166014256437
30
0
41
1
10
43.6435058628586
20
-0.773972384362679
30
0
41
1
10
43.6334228110332
20
-0.767970981224693
30
0
41
1
10
43.6283735716633
20
-0.765174411493035
30
0
41
1
10
43.6184884038244
20
-0.760156489858701
30
0
41
1
10
43.6136233456803
20
-0.757916753678387
30
0
41
1
10
43.604077622558
20
-0.754054664312321
30
0
41
1
10
43.5993607310381
20
-0.752423314113855
30
0
41
1
10
43.5903954373787
20
-0.749980788501034
30
0
41
1
10
43.5861371345962
20
-0.749159505038904
30
0
41
1
10
43.5781471590172
20
-0.748454806305375
30
0
41
1
10
43.5743995912938
20
-0.748579669214593
30
0
41
1
10
43.5710859110738
20
-0.749273504978447
30
0
0
SPLINE
5
155
100
AcDbEntity
8
1
62
256
6
ByLayer
370
18
48
1
60
0
100
AcDbSpline
70
4
71
3
72
22
73
18
40
0
40
0
40
0
40
0
40
0.123334117277037
40
0.123334117277037
40
0.342500587957778
40
0.342500587957778
40
0.452083823298148
40
0.452083823298148
40
0.561667058638519
40
0.561667058638519
40
0.671250293978889
40
0.671250293978889
40
0.780833529319259
40
0.780833529319259
40
0.89041676465963
40
0.89041676465963
40
1
40
1
40
1
40
1
41
1
10
41.4578968407534
20
-1.94537601742093
30
0
41
1
10
41.4524778685399
20
-1.94421564506482
30
0
41
1
10
41.4469710829398
20
-1.94337426495275
30
0
41
1
10
41.4316342109297
20
-1.94198659786838
30
0
41
1
10
41.4217226958669
20
-1.94214234726471
30
0
41
1
10
41.4067270268486
20
-1.944151480133
30
0
41
1
10
41.4017068931938
20
-1.9451199420235
30
0
41
1
10
41.391623683518
20
-1.94774163640793
30
0
41
1
10
41.386575390475
20
-1.94939599303382
30
0
41
1
10
41.3766915978828
20
-1.95340118206317
30
0
41
1
10
41.3718271811066
20
-1.95575783030571
30
0
41
1
10
41.3622826787063
20
-1.96129059218865
30
0
41
1
10
41.3575664282983
20
-1.96449745319609
30
0
41
1
10
41.3486025031588
20
-1.97172655647586
30
0
41
1
10
41.3443447651027
20
-1.97574433298675
30
0
41
1
10
41.3363556957625
20
-1.98472569051464
30
0
41
1
10
41.3326083478775
20
-1.98972414818439
30
0
41
1
10
41.3292945173815
20
-1.99514464070774
30
0
0
SPLINE
5
156
100
AcDbEntity
8
1
62
256
6
ByLayer
370
18
48
1
60
0
100
AcDbSpline
70
4
71
3
72
8
73
4
40
0
40
0
40
0
40
0
40
1
40
1
40
1
40
1
41
1
10
41.3292945173813
20
-1.99514464070771
30
0
41
1
10
41.3093849058452
20
-2.02771115266555
30
0
41
1
10
41.2895583150628
20
-2.05996532557344
30
0
41
1
10
41.2698027486688
20
-2.0919098986893
30
0
0
SPLINE
5
157
100
AcDbEntity
8
1
62
256
6
ByLayer
370
18
48
1
60
0
100
AcDbSpline
70
4
71
3
72
16
73
12
40
0
40
0
40
0
40
0
40
0.250000000000005
40
0.250000000000005
40
0.50000000000001
40
0.50000000000001
40
0.625000000000012
40
0.625000000000012
40
0.750000000000015
40
0.750000000000015
40
1
40
1
40
1
40
1
41
1
10
41.2698027486648
20
-2.09190989871419
30
0
41
1
10
41.2242058364355
20
-2.08131667523551
30
0
41
1
10
41.1784258730856
20
-2.06936125807408
30
0
41
1
10
41.0865280105209
20
-2.04273984771754
30
0
41
1
10
41.0404007019877
20
-2.02807241925726
30
0
41
1
10
40.9708430436349
20
-2.00403634932519
30
0
41
1
10
40.9475969120269
20
-1.99568511412446
30
0
41
1
10
40.9009729996584
20
-1.97830306010729
30
0
41
1
10
40.8775947520508
20
-1.96927098763092
30
0
41
1
10
40.807551560844
20
-1.94128151703058
30
0
41
1
10
40.7608754467914
20
-1.92139393362632
30
0
41
1
10
40.7141634983905
20
-1.90032200711661
30
0
0
SPLINE
5
158
100
AcDbEntity
8
1
62
256
6
ByLayer
370
18
48
1
60
0
100
AcDbSpline
70
4
71
3
72
8
73
4
40
0
40
0
40
0
40
0
40
1
40
1
40
1
40
1
41
1
10
40.7141634983964
20
-1.9003220071115
30
0
41
1
10
40.7096417090312
20
-1.89155204385872
30
0
41
1
10
40.7051158257104
20
-1.88276730544587
30
0
41
1
10
40.7005856537901
20
-1.87396781329952
30
0
0
SPLINE
5
159
100
AcDbEntity
8
1
62
256
6
ByLayer
370
18
48
1
60
0
100
AcDbSpline
70
4
71
3
72
28
73
24
40
0
40
0
40
0
40
0
40
0.124999999999949
40
0.124999999999949
40
0.249999999999898
40
0.249999999999898
40
0.374999999999847
40
0.374999999999847
40
0.437499999999846
40
0.437499999999846
40
0.499999999999845
40
0.499999999999845
40
0.624999999999844
40
0.624999999999844
40
0.68749999999987
40
0.68749999999987
40
0.749999999999896
40
0.749999999999896
40
0.874999999999948
40
0.874999999999948
40
0.937499999999974
40
0.937499999999974
40
1
40
1
40
1
40
1
41
1
10
40.7005856537896
20
-1.873967813299
30
0
41
1
10
40.6949925213971
20
-1.8631036065037
30
0
41
1
10
40.6885399010237
20
-1.85323107779226
30
0
41
1
10
40.6743228095439
20
-1.83498111014285
30
0
41
1
10
40.6664816010042
20
-1.82656396452464
30
0
41
1
10
40.650121981426
20
-1.81157889361657
30
0
41
1
10
40.6415657756024
20
-1.80494668806688
30
0
41
1
10
40.6282164151024
20
-1.79620801586103
30
0
41
1
10
40.6236799771842
20
-1.79349881335688
30
0
41
1
10
40.6144329648596
20
-1.78849837180536
30
0
41
1
10
40.6097180355702
20
-1.78620796979939
30
0
41
1
10
40.5955640273823
20
-1.780101919858
30
0
41
1
10
40.5860346942044
20
-1.77699330920524
30
0
41
1
10
40.5716198196031
20
-1.77390137134714
30
0
41
1
10
40.5667945618534
20
-1.77313485505516
30
0
41
1
10
40.5571044768642
20
-1.77218983440787
30
0
41
1
10
40.5522103387348
20
-1.77201291236807
30
0
41
1
10
40.5377294605001
20
-1.77250008912534
30
0
41
1
10
40.5283422885254
20
-1.7741310041161
30
0
41
1
10
40.5148257700845
20
-1.77918377948941
30
0
41
1
10
40.5104700681873
20
-1.78129627362026
30
0
41
1
10
40.5022477081482
20
-1.78642583497398
30
0
41
1
10
40.4983585787554
20
-1.78944861980185
30
0
41
1
10
40.4947379934622
20
-1.79302674094149
30
0
0
SPLINE
5
15A
100
AcDbEntity
8
1
62
256
6
ByLayer
370
18
48
1
60
0
100
AcDbSpline
70
4
71
3
72
8
73
4
40
0
40
0
40
0
40
0
40
1
40
1
40
1
40
1
41
1
10
40.4947379934622
20
-1.79302674094149
30
0
41
1
10
40.3806558915426
20
-1.73306250181648
30
0
41
1
10
40.2659667355317
20
-1.66644353769462
30
0
41
1
10
40.15
20
-1.59354869043341
30
0
0
SPLINE
5
15B
100
AcDbEntity
8
1
62
256
6
ByLayer
370
18
48
1
60
0
100
AcDbSpline
70
4
71
3
72
8
73
4
40
0
40
0
40
0
40
0
40
1
40
1
40
1
40
1
41
1
10
40.15
20
-1.59354869043338
30
0
41
1
10
40.1439793926892
20
-1.58707382616339
30
0
41
1
10
40.1379538873286
20
-1.58058629203771
30
0
41
1
10
40.1319237883469
20
-1.57408653708464
30
0
0
SPLINE
5
15C
100
AcDbEntity
8
1
62
256
6
ByLayer
370
18
48
1
60
0
100
AcDbSpline
70
4
71
3
72
12
73
8
40
0
40
0
40
0
40
0
40
0.25
40
0.25
40
0.5
40
0.5
40
1
40
1
40
1
40
1
41
1
10
40.1319237883469
20
-1.57408653708464
30
0
41
1
10
40.1087178345035
20
-1.54907318093751
30
0
41
1
10
40.0848402155544
20
-1.52526207173045
30
0
41
1
10
40.0356828847758
20
-1.47999581200136
30
0
41
1
10
40.0103957263635
20
-1.45855067936014
30
0
41
1
10
39.9327282753733
20
-1.39769668020426
30
0
41
1
10
39.8785627637499
20
-1.36174309403015
30
0
41
1
10
39.8229009434041
20
-1.33031280000085
30
0
0
SPLINE
5
15D
100
AcDbEntity
8
1
62
256
6
ByLayer
370
18
48
1
60
0
100
AcDbSpline
70
4
71
3
72
82
73
78
40
0
40
0
40
0
40
0
40
0.0518094478636766
40
0.0518094478636766
40
0.0777141717955149
40
0.0777141717955149
40
0.103618895727353
40
0.103618895727353
40
0.155428343591028
40
0.155428343591028
40
0.168380705556947
40
0.168380705556947
40
0.181333067522866
40
0.181333067522866
40
0.207237791454705
40
0.207237791454705
40
0.259047239318379
40
0.259047239318379
40
0.284951963250216
40
0.284951963250216
40
0.310856687182053
40
0.310856687182053
40
0.336761411113889
40
0.336761411113889
40
0.349713773079807
40
0.349713773079807
40
0.362666135045726
40
0.362666135045726
40
0.414475582909404
40
0.414475582909404
40
0.440380306841242
40
0.440380306841242
40
0.46628503077308
40
0.46628503077308
40
0.492189754704919
40
0.492189754704919
40
0.505142116670838
40
0.505142116670838
40
0.518094478636757
40
0.518094478636757
40
0.543999202568595
40
0.543999202568595
40
0.569903926500433
40
0.569903926500433
40
0.62171337436411
40
0.62171337436411
40
0.647618098295949
40
0.647618098295949
40
0.673522822227788
40
0.673522822227788
40
0.686475184193708
40
0.686475184193708
40
0.699427546159627
40
0.699427546159627
40
0.725332270091467
40
0.725332270091467
40
0.751236994023306
40
0.751236994023306
40
0.777141717955145
40
0.777141717955145
40
0.828951165818821
40
0.828951165818821
40
0.84190352778474
40
0.84190352778474
40
0.85485588975066
40
0.85485588975066
40
0.880760613682496
40
0.880760613682496
40
0.906665337614332
40
0.906665337614332
40
0.932570061546169
40
0.932570061546169
40
0.958474785478005
40
0.958474785478005
40
0.984379509409842
40
0.984379509409842
40
1
40
1
40
1
40
1
41
1
10
39.8229009434008
20
-1.33031280000836
30
0
41
1
10
39.6985743290747
20
-1.26010988498248
30
0
41
1
10
39.5755029218373
20
-1.18438758674225
30
0
41
1
10
39.3915570053491
20
-1.06386420836384
30
0
41
1
10
39.3303309295389
20
-1.0225537735262
30
0
41
1
10
39.2078376425825
20
-0.937907907356333
30
0
41
1
10
39.1465709589533
20
-0.89457354077885
30
0
41
1
10
38.9626693386278
20
-0.761580134491197
30
0
41
1
10
38.8400371802391
20
-0.668807227465805
30
0
41
1
10
38.6855828215463
20
-0.548830972783065
30
0
41
1
10
38.6546284454162
20
-0.52464173005032
30
0
41
1
10
38.5925602923401
20
-0.475910164726543
30
0
41
1
10
38.561514736275
20
-0.451420432319736
30
0
41
1
10
38.4685898433044
20
-0.377870754260158
30
0
41
1
10
38.4068924878544
20
-0.328523583941291
30
0
41
1
10
38.222305701636
20
-0.179853299764943
30
0
41
1
10
38.0999824333351
20
-0.0798258369492544
30
0
41
1
10
37.9163842338316
20
0.070077769428508
30
0
41
1
10
37.855119593951
20
0.119965159556756
30
0
41
1
10
37.7323748165632
20
0.219473442144789
30
0
41
1
10
37.6709512577148
20
0.269164572231091
30
0
41
1
10
37.5477528096144
20
0.368111725671838
30
0
41
1
10
37.4859875484409
20
0.417379701225599
30
0
41
1
10
37.3929630561286
20
0.490814940596664
30
0
41
1
10
37.3618968965677
20
0.515208084567803
30
0
41
1
10
37.2999702179378
20
0.563519067752452
30
0
41
1
10
37.2690644406684
20
0.587472589022809
30
0
41
1
10
37.1147554675308
20
0.706164512301172
30
0
41
1
10
36.9920437329113
20
0.797726022958585
30
0
41
1
10
36.8083746073733
20
0.92930284070772
30
0
41
1
10
36.7472099705306
20
0.972189027485797
30
0
41
1
10
36.624776701268
20
1.05577778806941
30
0
41
1
10
36.5634515740629
20
1.09642265026344
30
0
41
1
10
36.4404760617245
20
1.17530252941998
30
0
41
1
10
36.3789013448773
20
1.2136119182679
30
0
41
1
10
36.2862922527469
20
1.26923298729113
30
0
41
1
10
36.255379283796
20
1.28746408447711
30
0
41
1
10
36.1934395155528
20
1.32327541779995
30
0
41
1
10
36.1623816290971
20
1.34087287636439
30
0
41
1
10
36.0695032460953
20
1.39234920014252
30
0
41
1
10
36.0078250453635
20
1.4249916187303
30
0
41
1
10
35.884699566452
20
1.48681086304697
30
0
41
1
10
35.823238701574
20
1.51598031942416
30
0
41
1
10
35.6391143071063
20
1.59832209241097
30
0
41
1
10
35.516861298123
20
1.64642439740118
30
0
41
1
10
35.3331030108509
20
1.70763618730396
30
0
41
1
10
35.2717693495883
20
1.72620567872585
30
0
41
1
10
35.1486644999806
20
1.75952369225547
30
0
41
1
10
35.0868804750093
20
1.77427278292939
30
0
41
1
10
34.9939345567073
20
1.7935085338498
30
0
41
1
10
34.9628556168417
20
1.79944305753793
30
0
41
1
10
34.9008491452087
20
1.81027295160464
30
0
41
1
10
34.869916897357
20
1.81517123943587
30
0
41
1
10
34.777285519755
20
1.82832042406753
30
0
41
1
10
34.7157447589651
20
1.8350244047997
30
0
41
1
10
34.5928867446687
20
1.84434878757395
30
0
41
1
10
34.5315782907197
20
1.84697000306176
30
0
41
1
10
34.4089932899837
20
1.84816516435171
30
0
41
1
10
34.347736159563
20
1.84674194381333
30
0
41
1
10
34.1639904540999
20
1.83640653017036
30
0
41
1
10
34.0414133095061
20
1.82143480421868
30
0
41
1
10
33.8871931636052
20
1.79255831297857
30
0
41
1
10
33.8562964365556
20
1.78627533534558
30
0
41
1
10
33.7943754392093
20
1.77269146752568
30
0
41
1
10
33.7633160591397
20
1.76538070657301
30
0
41
1
10
33.6701926192133
20
1.74197629581323
30
0
41
1
10
33.6083725688533
20
1.72446644026365
30
0
41
1
10
33.4851475382536
20
1.68574951180324
30
0
41
1
10
33.423736485912
20
1.66454396799603
30
0
41
1
10
33.3011200583201
20
1.61858164111948
30
0
41
1
10
33.2399226996402
20
1.59381762589118
30
0
41
1
10
33.1173685445504
20
1.54099748811893
30
0
41
1
10
33.0560584116346
20
1.51291679134528
30
0
41
1
10
32.9334265816981
20
1.45336574779466
30
0
41
1
10
32.8720789603769
20
1.42191159014538
30
0
41
1
10
32.7735542884219
20
1.36886393215218
30
0
41
1
10
32.7364505112456
20
1.34831273826811
30
0
41
1
10
32.6992753373949
20
1.32718366950311
30
0
0
SPLINE
5
15E
100
AcDbEntity
8
1
62
256
6
ByLayer
370
18
48
1
60
0
100
AcDbSpline
70
4
71
3
72
121
73
117
40
0
40
0
40
0
40
0
40
0.0048003783655521
40
0.0048003783655521
40
0.0165086092083097
40
0.0165086092083097
40
0.0282168400510675
40
0.0282168400510675
40
0.0399250708938252
40
0.0399250708938252
40
0.0633415325793391
40
0.0633415325793391
40
0.0867579942648531
40
0.0867579942648531
40
0.0984662251076101
40
0.0984662251076101
40
0.110174455950367
40
0.110174455950367
40
0.157007379321399
40
0.157007379321399
40
0.168715610164157
40
0.168715610164157
40
0.180423841006915
40
0.180423841006915
40
0.203840302692431
40
0.203840302692431
40
0.227256764377947
40
0.227256764377947
40
0.250673226063463
40
0.250673226063463
40
0.262381456906221
40
0.262381456906221
40
0.274089687748979
40
0.274089687748979
40
0.297506149434494
40
0.297506149434494
40
0.309214380277251
40
0.309214380277251
40
0.320922611120009
40
0.320922611120009
40
0.344339072805524
40
0.344339072805524
40
0.36775553449104
40
0.36775553449104
40
0.391171996176557
40
0.391171996176557
40
0.402880227019315
40
0.402880227019315
40
0.414588457862074
40
0.414588457862074
40
0.43800491954759
40
0.43800491954759
40
0.449713150390348
40
0.449713150390348
40
0.461421381233106
40
0.473129612075864
40
0.473129612075864
40
0.484837842918621
40
0.484837842918621
40
0.508254304604138
40
0.508254304604138
40
0.531670766289654
40
0.531670766289654
40
0.543378997132412
40
0.543378997132412
40
0.55508722797517
40
0.55508722797517
40
0.566795458817928
40
0.566795458817928
40
0.578503689660686
40
0.578503689660686
40
0.590211920503444
40
0.590211920503444
40
0.601920151346201
40
0.601920151346201
40
0.625336613031719
40
0.625336613031719
40
0.637044843874478
40
0.637044843874478
40
0.648753074717238
40
0.648753074717238
40
0.672169536402757
40
0.672169536402757
40
0.695585998088275
40
0.695585998088275
40
0.719002459773794
40
0.719002459773794
40
0.730710690616553
40
0.730710690616553
40
0.742418921459311
40
0.742418921459311
40
0.765835383144827
40
0.765835383144827
40
0.777543613987585
40
0.777543613987585
40
0.789251844830343
40
0.789251844830343
40
0.812668306515861
40
0.812668306515861
40
0.836084768201378
40
0.836084768201378
40
0.847792999044137
40
0.847792999044137
40
0.859501229886895
40
0.859501229886895
40
0.882917691572413
40
0.882917691572413
40
0.90633415325793
40
0.90633415325793
40
0.929750614943448
40
0.929750614943448
40
0.953167076628965
40
0.953167076628965
40
0.976583538314483
40
0.976583538314483
40
1
40
1
40
1
40
1
41
1
10
30.9529405309451
20
1.84769997597758
30
0
41
1
10
30.9671158045397
20
1.84769997931991
30
0
41
1
10
30.9812980918365
20
1.84759194584851
30
0
41
1
10
31.0301014145445
20
1.84684764427237
30
0
41
1
10
31.0647841421623
20
1.84567768497931
30
0
41
1
10
31.1341056115732
20
1.84201979736019
30
0
41
1
10
31.1688082916227
20
1.83953265077213
30
0
41
1
10
31.2385619855709
20
1.83326812361804
30
0
41
1
10
31.2735979355125
20
1.829481894997
30
0
41
1
10
31.3782881985115
20
1.81623280985184
30
0
41
1
10
31.4477712059704
20
1.8048722736786
30
0
41
1
10
31.5862575642034
20
1.77721798944745
30
0
41
1
10
31.6552608006224
20
1.76092334758741
30
0
41
1
10
31.7585373429476
20
1.73283820189053
30
0
41
1
10
31.792874216691
20
1.72284535897182
30
0
41
1
10
31.8616866477876
20
1.70173994741256
30
0
41
1
10
31.8961239940651
20
1.69061217745434
30
0
41
1
10
32.0684904830622
20
1.63213287043587
30
0
41
1
10
32.2069187285533
20
1.57631795795783
30
0
41
1
10
32.3805875260093
20
1.49485185594281
30
0
41
1
10
32.4153616043519
20
1.47797407322099
30
0
41
1
10
32.4850994633476
20
1.4431137025702
30
0
41
1
10
32.5200103572016
20
1.42515870423199
30
0
41
1
10
32.6244317108577
20
1.37003791234997
30
0
41
1
10
32.6938487154366
20
1.33154318311662
30
0
41
1
10
32.8323743684398
20
1.2512202901288
30
0
41
1
10
32.9014614271532
20
1.20937284879142
30
0
41
1
10
33.0393339619237
20
1.12236511306722
30
0
41
1
10
33.108079494466
20
1.07716247231147
30
0
41
1
10
33.2111993437225
20
1.00707159930837
30
0
41
1
10
33.2456088320641
20
0.983363884223365
30
0
41
1
10
33.3146035241544
20
0.935374618516818
30
0
41
1
10
33.3491717692929
20
0.911075854288356
30
0
41
1
10
33.4530073027773
20
0.83717852181843
30
0
41
1
10
33.5224251533402
20
0.786601563513102
30
0
41
1
10
33.6268752104411
20
0.708753162242914
30
0
41
1
10
33.661755399655
20
0.682455626113324
30
0
41
1
10
33.731592760455
20
0.629264093728835
30
0
41
1
10
33.7664091726836
20
0.602479452786497
30
0
41
1
10
33.8706360138556
20
0.521662922106685
30
0
41
1
10
33.9398687928584
20
0.467222627037216
30
0
41
1
10
34.0781652407317
20
0.357636872301981
30
0
41
1
10
34.147191765395
20
0.302446473031694
30
0
41
1
10
34.2850668390649
20
0.191355262592509
30
0
41
1
10
34.3539225383926
20
0.135462815753868
30
0
41
1
10
34.457317574934
20
0.0513930821755366
30
0
41
1
10
34.4917317959063
20
0.0232449256201335
30
0
41
1
10
34.5606013489667
20
-0.0331250675042725
30
0
41
1
10
34.5951307998581
20
-0.0612541001302134
30
0
41
1
10
34.6989352275102
20
-0.145557395634995
30
0
41
1
10
34.7683616253486
20
-0.201729087723805
30
0
41
1
10
34.872965600124
20
-0.28578445014378
30
0
41
1
10
34.9079684587932
20
-0.313813338269227
30
0
41
1
10
34.9778170165587
20
-0.369537512422596
30
0
41
1
10
35.0474866792466
20
-0.424912898383781
30
0
41
1
10
35.1167892141841
20
-0.479611530764458
30
0
41
1
10
35.1858880644976
20
-0.53399649627201
30
0
41
1
10
35.2203973546706
20
-0.560956752930196
30
0
41
1
10
35.323982569679
20
-0.640941385073347
30
0
41
1
10
35.393043489777
20
-0.693159942653494
30
0
41
1
10
35.5310799088243
20
-0.795533923852844
30
0
41
1
10
35.6000545837481
20
-0.845688853903653
30
0
41
1
10
35.7035103079062
20
-0.919293541170703
30
0
41
1
10
35.7379942249584
20
-0.943557220539731
30
0
41
1
10
35.8069531210581
20
-0.991541898203451
30
0
41
1
10
35.8414019366064
20
-1.01529006644853
30
0
41
1
10
35.9104099791166
20
-1.06210867474681
30
0
41
1
10
35.9450918709289
20
-1.08505298300244
30
0
41
1
10
36.0145914943644
20
-1.13024238466045
30
0
41
1
10
36.0494005802445
20
-1.15249501904037
30
0
41
1
10
36.1192169571928
20
-1.19623047005976
30
0
41
1
10
36.1542611823383
20
-1.21772606470503
30
0
41
1
10
36.2240999110531
20
-1.25968435054949
30
0
41
1
10
36.2589410303831
20
-1.28018364546173
30
0
41
1
10
36.3632263361942
20
-1.34026063261916
30
0
41
1
10
36.4324421396195
20
-1.37841182660344
30
0
41
1
10
36.5358115536197
20
-1.43278553041492
30
0
41
1
10
36.5701978474164
20
-1.45042781948007
30
0
41
1
10
36.6390197027619
20
-1.48460548258811
30
0
41
1
10
36.6734718363298
20
-1.50113006076933
30
0
41
1
10
36.7769029021312
20
-1.54906912347516
30
0
41
1
10
36.8459074379061
20
-1.57888608061683
30
0
41
1
10
36.9840122634822
20
-1.63423100439732
30
0
41
1
10
37.053091419248
20
-1.6597686421685
30
0
41
1
10
37.1915254690771
20
-1.70635134461509
30
0
41
1
10
37.2609013309066
20
-1.72738026072972
30
0
41
1
10
37.3656141879868
20
-1.75527036286195
30
0
41
1
10
37.4005660462761
20
-1.76394706986622
30
0
41
1
10
37.4702384780829
20
-1.77998815909999
30
0
41
1
10
37.505007824354
20
-1.78736593802077
30
0
41
1
10
37.6091190080775
20
-1.80759223086579
30
0
41
1
10
37.6782583003942
20
-1.81853420374477
30
0
41
1
10
37.7817752763024
20
-1.83113027857982
30
0
41
1
10
37.8162736689664
20
-1.83468984504435
30
0
41
1
10
37.885114608853
20
-1.84055124433746
30
0
41
1
10
37.9194417984723
20
-1.84284994872169
30
0
41
1
10
38.0227441713932
20
-1.84779959015938
30
0
41
1
10
38.0917902435721
20
-1.84854697118874
30
0
41
1
10
38.2299418319989
20
-1.84495453771333
30
0
41
1
10
38.2991054756396
20
-1.84060914015609
30
0
41
1
10
38.4030847689976
20
-1.83019879014816
30
0
41
1
10
38.4377886252669
20
-1.82608023327563
30
0
41
1
10
38.5072990679973
20
-1.81652874569778
30
0
41
1
10
38.5420690801299
20
-1.81108125590407
30
0
41
1
10
38.6466846435572
20
-1.79279539003971
30
0
41
1
10
38.7162780574551
20
-1.77814973748747
30
0
41
1
10
38.8550926355377
20
-1.7441178491832
30
0
41
1
10
38.9243058239076
20
-1.72472614216403
30
0
41
1
10
39.0623683301032
20
-1.68125681054087
30
0
41
1
10
39.1311626477545
20
-1.65714589726741
30
0
41
1
10
39.2686870095712
20
-1.60436515059999
30
0
41
1
10
39.3374985252271
20
-1.57574480550951
30
0
41
1
10
39.4755243965857
20
-1.51425600363976
30
0
41
1
10
39.5447288329332
20
-1.48138613009655
30
0
41
1
10
39.6835122878638
20
-1.41133286994528
30
0
41
1
10
39.7530884028219
20
-1.37414585043155
30
0
41
1
10
39.8229009434008
20
-1.33475801187095
30
0
0
SPLINE
5
15F
100
AcDbEntity
8
1
62
256
6
ByLayer
370
18
48
1
60
0
100
AcDbSpline
70
4
71
3
72
14
73
10
40
0
40
0
40
0
40
0
40
0.25
40
0.25
40
0.5
40
0.5
40
0.75
40
0.75
40
1
40
1
40
1
40
1
41
1
10
45.1035317470821
20
1.99756220721739
30
0
41
1
10
45.1264821402275
20
2.03664646168673
30
0
41
1
10
45.1493176191986
20
2.07544898880903
30
0
41
1
10
45.1947894616211
20
2.15246241483746
30
0
41
1
10
45.2174402626448
20
2.19069833064424
30
0
41
1
10
45.2624965785618
20
2.26642308644432
30
0
41
1
10
45.2849134810126
20
2.30393098871536
30
0
41
1
10
45.3295154615836
20
2.37813938209518
30
0
41
1
10
45.3516868591212
20
2.41481893200267
30
0
41
1
10
45.3737632468815
20
2.45110550273813
30
0
0
SPLINE
5
160
100
AcDbEntity
8
1
62
256
6
ByLayer
370
18
48
1
60
0
100
AcDbSpline
70
4
71
3
72
8
73
4
40
0
40
0
40
0
40
0
40
1
40
1
40
1
40
1
41
1
10
45.4522660620574
20
2.44808890582036
30
0
41
1
10
45.426065452562
20
2.44958540700313
30
0
41
1
10
45.3998996648521
20
2.45059124524906
30
0
41
1
10
45.3737632468815
20
2.45110550273813
30
0
0
SPLINE
5
161
100
AcDbEntity
8
1
62
256
6
ByLayer
370
18
48
1
60
0
100
AcDbSpline
70
4
71
3
72
10
73
6
40
0
40
0
40
0
40
0
40
0.311160965301082
40
0.311160965301082
40
1
40
1
40
1
40
1
41
1
10
45.5278393044448
20
2.31947715246721
30
0
41
1
10
45.5487167781642
20
2.28350310324046
30
0
41
1
10
45.5697071941441
20
2.24698249799749
30
0
41
1
10
45.6374532748702
20
2.12809309407615
30
0
41
1
10
45.6845766800461
20
2.04384841417971
30
0
41
1
10
45.732187771428
20
1.95762967285251
30
0
0
SPLINE
5
162
100
AcDbEntity
8
1
62
256
6
ByLayer
370
18
48
1
60
0
100
AcDbSpline
70
4
71
3
72
26
73
22
40
0
40
0
40
0
40
0
40
0.125
40
0.125
40
0.25
40
0.25
40
0.375
40
0.375
40
0.5
40
0.5
40
0.625
40
0.625
40
0.75
40
0.75
40
0.8125
40
0.8125
40
0.875
40
0.875
40
0.9375
40
0.9375
40
1
40
1
40
1
40
1
41
1
10
45.732187771428
20
1.95762967285251
30
0
41
1
10
45.7381193677311
20
1.94688816803779
30
0
41
1
10
45.7450126446039
20
1.93741129347345
30
0
41
1
10
45.760221024001
20
1.92031381823671
30
0
41
1
10
45.7686188384553
20
1.91267338616154
30
0
41
1
10
45.7860428770432
20
1.89956800703578
30
0
41
1
10
45.7951320897962
20
1.89402095608861
30
0
41
1
10
45.8139918934825
20
1.88480466656057
30
0
41
1
10
45.8238274800214
20
1.8811348343975
30
0
41
1
10
45.8434870036706
20
1.87599067682487
30
0
41
1
10
45.8533797786168
20
1.87446697815238
30
0
41
1
10
45.8732615338678
20
1.87374794760132
30
0
41
1
10
45.8833328543036
20
1.87458340647331
30
0
41
1
10
45.8978406284455
20
1.87796019656176
30
0
41
1
10
45.9025971906445
20
1.87943806947888
30
0
41
1
10
45.9119212621595
20
1.88320130811601
30
0
41
1
10
45.9165192086744
20
1.88550834010255
30
0
41
1
10
45.9252460420082
20
1.89095522498607
30
0
41
1
10
45.9293937454815
20
1.89409481862273
30
0
41
1
10
45.9371861001379
20
1.90134865896599
30
0
41
1
10
45.9408515467321
20
1.90549596893317
30
0
41
1
10
45.9441167567371
20
1.91013591925753
30
0
0
SPLINE
5
163
100
AcDbEntity
8
1
62
256
6
ByLayer
370
18
48
1
60
0
100
AcDbSpline
70
4
71
3
72
10
73
6
40
0
40
0
40
0
40
0
40
0.5
40
0.5
40
1
40
1
40
1
40
1
41
1
10
45.9441167567371
20
1.91013591925761
30
0
41
1
10
45.979602115072
20
1.96056155793363
30
0
41
1
10
46.0148044193954
20
2.00937600767511
30
0
41
1
10
46.0847847577907
20
2.10378339248936
30
0
41
1
10
46.1195233511549
20
2.14932934673263
30
0
41
1
10
46.1539982015553
20
2.19314671823855
30
0
0
SPLINE
5
164
100
AcDbEntity
8
1
62
256
6
ByLayer
370
18
48
1
60
0
100
AcDbSpline
70
4
71
3
72
8
73
4
40
0
40
0
40
0
40
0
40
1
40
1
40
1
40
1
41
1
10
46.1539982015553
20
2.19314671823855
30
0
41
1
10
46.2282342589429
20
2.15293498804795
30
0
41
1
10
46.3031686399241
20
2.10921305913914
30
0
41
1
10
46.3788668930495
20
2.06187765532871
30
0
0
SPLINE
5
165
100
AcDbEntity
8
1
62
256
6
ByLayer
370
18
48
1
60
0
100
AcDbSpline
70
4
71
3
72
10
73
6
40
0
40
0
40
0
40
0
40
0.5
40
0.5
40
1
40
1
40
1
40
1
41
1
10
46.3788668930495
20
2.06187765532871
30
0
41
1
10
46.4107372323843
20
1.99769623180447
30
0
41
1
10
46.4428482337279
20
1.93310287359151
30
0
41
1
10
46.5074818460952
20
1.80355203580416
30
0
41
1
10
46.5400031018867
20
1.73858609072741
30
0
41
1
10
46.5727563948686
20
1.67356650269042
30
0
0
SPLINE
5
166
100
AcDbEntity
8
1
62
256
6
ByLayer
370
18
48
1
60
0
100
AcDbSpline
70
4
71
3
72
26
73
22
40
0
40
0
40
0
40
0
40
0.125
40
0.125
40
0.25
40
0.25
40
0.375
40
0.375
40
0.5
40
0.5
40
0.625
40
0.625
40
0.75
40
0.75
40
0.8125
40
0.8125
40
0.875
40
0.875
40
0.9375
40
0.9375
40
1
40
1
40
1
40
1
41
1
10
46.5727563948686
20
1.67356650269042
30
0
41
1
10
46.5786976630843
20
1.66177230501953
30
0
41
1
10
46.5856015532293
20
1.65087891962742
30
0
41
1
10
46.6008280224872
20
1.63041523857601
30
0
41
1
10
46.60923264305
20
1.62080228885819
30
0
41
1
10
46.6266633857405
20
1.60342068286639
30
0
41
1
10
46.6357535737017
20
1.59555765848296
30
0
41
1
10
46.6546084552903
20
1.58136382897584
30
0
41
1
10
46.6644376499239
20
1.57501218296855
30
0
41
1
10
46.6840841133048
20
1.5643049703101
30
0
41
1
10
46.6939699946086
20
1.55988356483678
30
0
41
1
10
46.7138410202691
20
1.55309611660744
30
0
41
1
10
46.7239095823404
20
1.55073252998105
30
0
41
1
10
46.7384195224752
20
1.54925398570231
30
0
41
1
10
46.7431774408069
20
1.54909761170742
30
0
41
1
10
46.7525054809915
20
1.54955377841949
30
0
41
1
10
46.7571062678815
20
1.55017615373438
30
0
41
1
10
46.765840678371
20
1.55229712530448
30
0
41
1
10
46.7699926183457
20
1.55378960034105
30
0
41
1
10
46.7777936593209
20
1.55778692893856
30
0
41
1
10
46.7814636973545
20
1.56031466882487
30
0
41
1
10
46.7847331918542
20
1.56340063866335
30
0
0
SPLINE
5
167
100
AcDbEntity
8
1
62
256
6
ByLayer
370
18
48
1
60
0
100
AcDbSpline
70
4
71
3
72
8
73
4
40
0
40
0
40
0
40
0
40
1
40
1
40
1
40
1
41
1
10
46.7847331918542
20
1.56340063866355
30
0
41
1
10
46.8290656903102
20
1.60524464638752
30
0
41
1
10
46.8729609079666
20
1.64359799077576
30
0
41
1
10
46.9165404057925
20
1.67840320448801
30
0
0
SPLINE
5
168
100
AcDbEntity
8
1
62
256
6
ByLayer
370
18
48
1
60
0
100
AcDbSpline
70
4
71
3
72
10
73
6
40
0
40
0
40
0
40
0
40
0.5
40
0.5
40
1
40
1
40
1
40
1
41
1
10
46.9165404057925
20
1.67840320448801
30
0
41
1
10
46.9828140578168
20
1.62634135199679
30
0
41
1
10
47.0493870572208
20
1.5725483643088
30
0
41
1
10
47.1832193689479
20
1.46155010457559
30
0
41
1
10
47.2504507353857
20
1.40432910628093
30
0
41
1
10
47.3181512830792
20
1.3453914755668
30
0
0
SPLINE
5
169
100
AcDbEntity
8
1
62
256
6
ByLayer
370
18
48
1
60
0
100
AcDbSpline
70
4
71
3
72
8
73
4
40
0
40
0
40
0
40
0
40
1
40
1
40
1
40
1
41
1
10
47.318151283079
20
1.34539147556677
30
0
41
1
10
47.3496781390418
20
1.28356991335411
30
0
41
1
10
47.381403272262
20
1.22240208124785
30
0
41
1
10
47.4133702792202
20
1.16206071935264
30
0
0
SPLINE
5
16A
100
AcDbEntity
8
1
62
256
6
ByLayer
370
18
48
1
60
0
100
AcDbSpline
70
4
71
3
72
26
73
22
40
0
40
0
40
0
40
0
40
0.125
40
0.125
40
0.25
40
0.25
40
0.375
40
0.375
40
0.499999999999999
40
0.499999999999999
40
0.624999999999999
40
0.624999999999999
40
0.749999999999999
40
0.749999999999999
40
0.812499999999999
40
0.812499999999999
40
0.874999999999999
40
0.874999999999999
40
0.9375
40
0.9375
40
1
40
1
40
1
40
1
41
1
10
47.4133702792202
20
1.16206071935264
30
0
41
1
10
47.4193055984924
20
1.150857129081
30
0
41
1
10
47.4262022263063
20
1.14006033393682
30
0
41
1
10
47.4414157184116
20
1.11907289931298
30
0
41
1
10
47.4498154666239
20
1.10882063094652
30
0
41
1
10
47.4672418564805
20
1.08957879903491
30
0
41
1
10
47.4763316498227
20
1.08049667682565
30
0
41
1
10
47.4951927444645
20
1.06332045124031
30
0
41
1
10
47.5050287190189
20
1.05518857395009
30
0
41
1
10
47.5246895734234
20
1.04046434540976
30
0
41
1
10
47.5345836160512
20
1.03379799201704
30
0
41
1
10
47.5544689400661
20
1.02197554987833
30
0
41
1
10
47.5645416690624
20
1.0167950580165
30
0
41
1
10
47.5790478853601
20
1.01074852391767
30
0
41
1
10
47.5838035137867
20
1.0090071427355
30
0
41
1
10
47.5931245394121
20
1.0061462152209
30
0
41
1
10
47.5977204426267
20
1.00502343143262
30
0
41
1
10
47.6064425922032
20
1.00356952068503
30
0
41
1
10
47.6105873588004
20
1.00322760546752
30
0
41
1
10
47.6183729492491
20
1.00344508115569
30
0
41
1
10
47.6220348860971
20
1.00401389944784
30
0
41
1
10
47.6252981145075
20
1.00512398630988
30
0
0
SPLINE
5
16B
100
AcDbEntity
8
1
62
256
6
ByLayer
370
18
48
1
60
0
100
AcDbSpline
70
4
71
3
72
8
73
4
40
0
40
0
40
0
40
0
40
1
40
1
40
1
40
1
41
1
10
47.6252981145075
20
1.00512398631011
30
0
41
1
10
47.6434668894098
20
1.01130465029729
30
0
41
1
10
47.661560618648
20
1.01679268161902
30
0
41
1
10
47.6795854744664
20
1.02156648014412
30
0
0
SPLINE
5
16C
100
AcDbEntity
8
1
62
256
6
ByLayer
370
18
48
1
60
0
100
AcDbSpline
70
4
71
3
72
12
73
8
40
0
40
0
40
0
40
0
40
0.500000000000019
40
0.500000000000019
40
0.750000000000009
40
0.750000000000009
40
1
40
1
40
1
40
1
41
1
10
47.6795854744663
20
1.02156648014412
30
0
41
1
10
47.7765851097081
20
0.932695831441634
30
0
41
1
10
47.8735806826908
20
0.842522482277474
30
0
41
1
10
48.0197795846751
20
0.706075947836524
30
0
41
1
10
48.0684758240931
20
0.660246145077139
30
0
41
1
10
48.1666055222909
20
0.568677238832919
30
0
41
1
10
48.2159572233229
20
0.522861816184502
30
0
41
1
10
48.2655485951991
20
0.476974705513101
30
0
0
SPLINE
5
16D
100
AcDbEntity
8
1
62
256
6
ByLayer
370
18
48
1
60
0
100
AcDbSpline
70
4
71
3
72
20
73
16
40
0
40
0
40
0
40
0
40
0.124999999999964
40
0.124999999999964
40
0.249999999999927
40
0.249999999999927
40
0.499999999999854
40
0.499999999999854
40
0.62499999999989
40
0.62499999999989
40
0.749999999999927
40
0.749999999999927
40
0.874999999999963
40
0.874999999999963
40
1
40
1
40
1
40
1
41
1
10
48.2655485951989
20
0.476974705512987
30
0
41
1
10
48.2702515798615
20
0.470769142082503
30
0
41
1
10
48.27531439119
20
0.464512777851752
30
0
41
1
10
48.2860692785663
20
0.451910947339172
30
0
41
1
10
48.2917690227813
20
0.445562731891073
30
0
41
1
10
48.30926837909
20
0.426892786009347
30
0
41
1
10
48.3216147766202
20
0.414763764207265
30
0
41
1
10
48.3410387814121
20
0.396961995415865
30
0
41
1
10
48.3476532724124
20
0.391108588491392
30
0
41
1
10
48.3608623997978
20
0.379800040061809
30
0
41
1
10
48.3674952397331
20
0.374309290749267
30
0
41
1
10
48.3808068087723
20
0.363655577645005
30
0
41
1
10
48.3874855869705
20
0.358492319185558
30
0
41
1
10
48.4008832738886
20
0.348524907651068
30
0
41
1
10
48.4075730882715
20
0.343745833663462
30
0
41
1
10
48.4140755576477
20
0.339313006470121
30
0
0
SPLINE
5
16E
100
AcDbEntity
8
1
62
256
6
ByLayer
370
18
48
1
60
0
100
AcDbSpline
70
4
71
3
72
16
73
12
40
0
40
0
40
0
40
0
40
0.249999999999989
40
0.249999999999989
40
0.499999999999978
40
0.499999999999978
40
0.749999999999966
40
0.749999999999966
40
0.874999999999983
40
0.874999999999983
40
1
40
1
40
1
40
1
41
1
10
48.7499999999993
20
0.0332434898489566
30
0
41
1
10
48.7199722837189
20
0.0512458262489588
30
0
41
1
10
48.6904289598997
20
0.0717165146950549
30
0
41
1
10
48.631906872388
20
0.116685794387365
30
0
41
1
10
48.6033763675247
20
0.140914573924334
30
0
41
1
10
48.5475285247768
20
0.192509915081274
30
0
41
1
10
48.5202025003178
20
0.219879506951799
30
0
41
1
10
48.4799177987609
20
0.263090081925895
30
0
41
1
10
48.4666081456379
20
0.277855163426551
30
0
41
1
10
48.4402016393105
20
0.308089157493612
30
0
41
1
10
48.4271215685367
20
0.323593892431831
30
0
41
1
10
48.4140755576483
20
0.339313006471968
30
0
0
SPLINE
5
16F
100
AcDbEntity
8
1
62
256
6
ByLayer
370
18
48
1
60
0
100
AcDbSpline
70
4
71
3
72
49
73
45
40
0
40
0
40
0
40
0
40
0.0624999999999998
40
0.0937499999999996
40
0.0937499999999996
40
0.125
40
0.125
40
0.187499999999999
40
0.187499999999999
40
0.249999999999999
40
0.249999999999999
40
0.265624999999999
40
0.265624999999999
40
0.281249999999999
40
0.281249999999999
40
0.312499999999999
40
0.312499999999999
40
0.374999999999999
40
0.374999999999999
40
0.499999999999999
40
0.499999999999999
40
0.624999999999999
40
0.624999999999999
40
0.687499999999999
40
0.687499999999999
40
0.718749999999999
40
0.718749999999999
40
0.734374999999999
40
0.734374999999999
40
0.749999999999999
40
0.749999999999999
40
0.781249999999999
40
0.781249999999999
40
0.812499999999999
40
0.812499999999999
40
0.874999999999999
40
0.874999999999999
40
0.90625
40
0.90625
40
0.921875
40
0.921875
40
0.9375
40
0.9375
40
1
40
1
40
1
40
1
41
1
10
48.75
20
1.61946788695911
30
0
41
1
10
48.7499999999999
20
1.57066585988267
30
0
41
1
10
48.75
20
1.49856315088286
30
0
41
1
10
48.75
20
1.42807278247992
30
0
41
1
10
48.75
20
1.38144515717906
30
0
41
1
10
48.75
20
1.35827507478049
30
0
41
1
10
48.7500000000001
20
1.28958119820143
30
0
41
1
10
48.7500000000001
20
1.24583390580301
30
0
41
1
10
48.75
20
1.16229539732407
30
0
41
1
10
48.75
20
1.12250589440171
30
0
41
1
10
48.75
20
1.0753114154671
30
0
41
1
10
48.75
20
1.06601675375356
30
0
41
1
10
48.75
20
1.04780543605864
30
0
41
1
10
48.75
20
1.03884307185638
30
0
41
1
10
48.75
20
1.01186983995822
30
0
41
1
10
48.7500000000001
20
0.99390356670844
30
0
41
1
10
48.75
20
0.940244069609093
30
0
41
1
10
48.75
20
0.904741335058475
30
0
41
1
10
48.75
20
0.798997299346837
30
0
41
1
10
48.75
20
0.729499030253692
30
0
41
1
10
48.75
20
0.592459895876004
30
0
41
1
10
48.7499999999999
20
0.524925608944926
30
0
41
1
10
48.75
20
0.425115774966542
30
0
41
1
10
48.7500000000001
20
0.392095103464754
30
0
41
1
10
48.7500000000001
20
0.342951455763
30
0
41
1
10
48.7500000000001
20
0.326635169471217
30
0
41
1
10
48.75
20
0.302258836982872
30
0
41
1
10
48.75
20
0.294138670684447
30
0
41
1
10
48.75
20
0.277910769427365
30
0
41
1
10
48.75
20
0.269843878293301
30
0
41
1
10
48.75
20
0.246144303768403
30
0
41
1
10
48.75
20
0.230918654855202
30
0
41
1
10
48.75
20
0.20220412789979
30
0
41
1
10
48.75
20
0.188647655257938
30
0
41
1
10
48.75
20
0.150307747962899
30
0
41
1
10
48.75
20
0.127865804257169
30
0
41
1
10
48.75
20
0.0989117251453706
30
0
41
1
10
48.75
20
0.0900469685233247
30
0
41
1
10
48.7500000000001
20
0.0779566273727141
30
0
41
1
10
48.75
20
0.0741312192912744
30
0
41
1
10
48.75
20
0.0669482120848102
30
0
41
1
10
48.75
20
0.0635824600560966
30
0
41
1
10
48.7500000000001
20
0.0478622738625063
30
0
41
1
10
48.7499999999999
20
0.0388122012424219
30
0
41
1
10
48.75
20
0.0332434898485019
30
0
0
SPLINE
5
170
100
AcDbEntity
8
1
62
256
6
ByLayer
370
18
48
1
60
0
100
AcDbSpline
70
4
71
3
72
16
73
12
40
0
40
0
40
0
40
0
40
0.124999999999983
40
0.124999999999983
40
0.249999999999967
40
0.249999999999967
40
0.499999999999978
40
0.499999999999978
40
0.749999999999989
40
0.749999999999989
40
1
40
1
40
1
40
1
41
1
10
48.3641788008956
20
1.9916941704318
30
0
41
1
10
48.3804424877329
20
1.97675016471757
30
0
41
1
10
48.3967759387011
20
1.9616238131992
30
0
41
1
10
48.4296109622234
20
1.9309893927074
30
0
41
1
10
48.4460986007209
20
1.91550200110723
30
0
41
1
10
48.4952411936475
20
1.86918362069784
30
0
41
1
10
48.5277172925157
20
1.83831063255334
30
0
41
1
10
48.592158763326
20
1.77632946520413
30
0
41
1
10
48.6241165749244
20
1.7452311049864
30
0
41
1
10
48.6874887326065
20
1.68265797312947
30
0
41
1
10
48.718915057511
20
1.65117314810084
30
0
41
1
10
48.75
20
1.61946788695909
30
0
0
SPLINE
5
171
100
AcDbEntity
8
1
62
256
6
ByLayer
370
18
48
1
60
0
100
AcDbSpline
70
4
71
3
72
8
73
4
40
0
40
0
40
0
40
0
40
1
40
1
40
1
40
1
41
1
10
48.3641788008956
20
1.99169417043183
30
0
41
1
10
48.3363290373895
20
1.99524513761852
30
0
41
1
10
48.3085707622824
20
1.99832897247225
30
0
41
1
10
48.2808911611027
20
2.00094367189058
30
0
0
SPLINE
5
172
100
AcDbEntity
8
1
62
256
6
ByLayer
370
18
48
1
60
0
100
AcDbSpline
70
4
71
3
72
8
73
4
40
0
40
0
40
0
40
0
40
1
40
1
40
1
40
1
41
1
10
48.2808911611029
20
2.00094367189024
30
0
41
1
10
48.2761284201864
20
1.99251101972499
30
0
41
1
10
48.271361248055
20
1.98405231754404
30
0
41
1
10
48.2665894280355
20
1.97556754948573
30
0
0
SPLINE
5
173
100
AcDbEntity
8
1
62
256
6
ByLayer
370
18
48
1
60
0
100
AcDbSpline
70
4
71
3
72
28
73
24
40
0
40
0
40
0
40
0
40
0.124999999999963
40
0.124999999999963
40
0.249999999999924
40
0.249999999999924
40
0.374999999999885
40
0.374999999999885
40
0.499999999999847
40
0.499999999999847
40
0.624999999999808
40
0.624999999999808
40
0.68749999999984
40
0.68749999999984
40
0.749999999999872
40
0.749999999999872
40
0.812499999999904
40
0.812499999999904
40
0.874999999999936
40
0.874999999999936
40
0.937499999999968
40
0.937499999999968
40
1
40
1
40
1
40
1
41
1
10
48.2665894280355
20
1.97556754948573
30
0
41
1
10
48.2607948038102
20
1.96526413436601
30
0
41
1
10
48.2540792421235
20
1.95616262300263
30
0
41
1
10
48.2392495036875
20
1.93975775552948
30
0
41
1
10
48.2310630666654
20
1.9324391672902
30
0
41
1
10
48.2140011275337
20
1.91988866303467
30
0
41
1
10
48.2050703372379
20
1.91458377852757
30
0
41
1
10
48.1864669122241
20
1.90582352827084
30
0
41
1
10
48.1767076973792
20
1.90235861269073
30
0
41
1
10
48.157081636114
20
1.89763054564199
30
0
41
1
10
48.1471697618744
20
1.89632431598881
30
0
41
1
10
48.1321692352126
20
1.89615892295925
30
0
41
1
10
48.1271466798988
20
1.89640568942173
30
0
41
1
10
48.11705634817
20
1.89759079206982
30
0
41
1
10
48.1119991960424
20
1.89853325554816
30
0
41
1
10
48.1020995344284
20
1.90115797457619
30
0
41
1
10
48.097227275237
20
1.90284172971369
30
0
41
1
10
48.0876673970054
20
1.90706766151291
30
0
41
1
10
48.0829432764404
20
1.90963587266617
30
0
41
1
10
48.0739637963088
20
1.91566791884125
30
0
41
1
10
48.0696990202289
20
1.91912529496992
30
0
41
1
10
48.0616977242714
20
1.92707508948999
30
0
41
1
10
48.0579456808993
20
1.93160015992774
30
0
41
1
10
48.0546293867575
20
1.93661448527075
30
0
0
SPLINE
5
174
100
AcDbEntity
8
1
62
256
6
ByLayer
370
18
48
1
60
0
100
AcDbSpline
70
4
71
3
72
8
73
4
40
0
40
0
40
0
40
0
40
1
40
1
40
1
40
1
41
1
10
48.0546293867576
20
1.93661448527115
30
0
41
1
10
48.0379391069362
20
1.96185063427117
30
0
41
1
10
48.0213057839146
20
1.98677140974309
30
0
41
1
10
48.0047226062325
20
2.01138057108955
30
0
0
SPLINE
5
175
100
AcDbEntity
8
1
62
256
6
ByLayer
370
18
48
1
60
0
100
AcDbSpline
70
4
71
3
72
12
73
8
40
0
40
0
40
0
40
0
40
0.499999999999976
40
0.499999999999976
40
0.749999999999988
40
0.749999999999988
40
1
40
1
40
1
40
1
41
1
10
48.0047226062325
20
2.01138057108955
30
0
41
1
10
47.9268401129628
20
2.00984516734712
30
0
41
1
10
47.8493074813984
20
2.00444158914212
30
0
41
1
10
47.7331955556269
20
1.99043398686152
30
0
41
1
10
47.694519357371
20
1.98478350147951
30
0
41
1
10
47.6171743828959
20
1.97148728140411
30
0
41
1
10
47.5784366547055
20
1.96382429806201
30
0
41
1
10
47.5399596256029
20
1.95522027823648
30
0
0
SPLINE
5
176
100
AcDbEntity
8
1
62
256
6
ByLayer
370
18
48
1
60
0
100
AcDbSpline
70
4
71
3
72
8
73
4
40
0
40
0
40
0
40
0
40
1
40
1
40
1
40
1
41
1
10
47.5399596256028
20
1.95522027823651
30
0
41
1
10
47.5022201364255
20
1.8786826521802
30
0
41
1
10
47.4642127019798
20
1.80148221221256
30
0
41
1
10
47.4259249865676
20
1.72385619293129
30
0
0
SPLINE
5
177
100
AcDbEntity
8
1
62
256
6
ByLayer
370
18
48
1
60
0
100
AcDbSpline
70
4
71
3
72
28
73
24
40
0
40
0
40
0
40
0
40
0.125000000000038
40
0.125000000000038
40
0.250000000000076
40
0.250000000000076
40
0.375000000000114
40
0.375000000000114
40
0.500000000000152
40
0.500000000000152
40
0.62500000000019
40
0.62500000000019
40
0.687500000000159
40
0.687500000000159
40
0.750000000000127
40
0.750000000000127
40
0.812500000000095
40
0.812500000000095
40
0.875000000000063
40
0.875000000000063
40
0.937500000000032
40
0.937500000000032
40
1
40
1
40
1
40
1
41
1
10
47.4259249865672
20
1.72385619293067
30
0
41
1
10
47.4201308364092
20
1.71210890513765
30
0
41
1
10
47.4134153004866
20
1.70126428688948
30
0
41
1
10
47.3985839964562
20
1.68093400543725
30
0
41
1
10
47.3903955843644
20
1.67141178575716
30
0
41
1
10
47.3733276394954
20
1.65420854399252
30
0
41
1
10
47.3643931160917
20
1.64644010485213
30
0
41
1
10
47.3457835244044
20
1.63248203220269
30
0
41
1
10
47.3360214835442
20
1.62625780767416
30
0
41
1
10
47.3163911436221
20
1.61588652514115
30
0
41
1
10
47.3064770278777
20
1.61168429423503
30
0
41
1
10
47.2914743252024
20
1.60703252603557
30
0
41
1
10
47.2864512636352
20
1.60575987551667
30
0
41
1
10
47.276360939554
20
1.60384794120972
30
0
41
1
10
47.2713066961051
20
1.60321589309456
30
0
41
1
10
47.2614128704211
20
1.60270150895272
30
0
41
1
10
47.2565437837256
20
1.60281194853133
30
0
41
1
10
47.2469906161774
20
1.60388017842578
30
0
41
1
10
47.2422701527942
20
1.60485126670463
30
0
41
1
10
47.2332989783589
20
1.60775611452078
30
0
41
1
10
47.2290383127095
20
1.60968122164115
30
0
41
1
10
47.221044787123
20
1.61463953924544
30
0
41
1
10
47.2172963162785
20
1.61769819012454
30
0
41
1
10
47.2139826413385
20
1.62133725323247
30
0
0
SPLINE
5
178
100
AcDbEntity
8
1
62
256
6
ByLayer
370
18
48
1
60
0
100
AcDbSpline
70
4
71
3
72
10
73
6
40
0
40
0
40
0
40
0
40
0.5
40
0.5
40
1
40
1
40
1
40
1
41
1
10
47.2139826413387
20
1.62133725323338
30
0
41
1
10
47.1857789012308
20
1.65231047540885
30
0
41
1
10
47.1577398094664
20
1.68186648674785
30
0
41
1
10
47.1019236858731
20
1.73821584374306
30
0
41
1
10
47.0741192135011
20
1.76503420782387
30
0
41
1
10
47.0465022178797
20
1.790412911045
30
0
0
SPLINE
5
179
100
AcDbEntity
8
1
62
256
6
ByLayer
370
18
48
1
60
0
100
AcDbSpline
70
4
71
3
72
8
73
4
40
0
40
0
40
0
40
0
40
1
40
1
40
1
40
1
41
1
10
47.0465022178797
20
1.79041291104497
30
0
41
1
10
46.9612031180872
20
1.75251783883172
30
0
41
1
10
46.8763876936809
20
1.70994694988855
30
0
41
1
10
46.7916766346309
20
1.66283568901363
30
0
0
SPLINE
5
17A
100
AcDbEntity
8
1
62
256
6
ByLayer
370
18
48
1
60
0
100
AcDbSpline
70
4
71
3
72
8
73
4
40
0
40
0
40
0
40
0
40
1
40
1
40
1
40
1
41
1
10
46.7916766346311
20
1.66283568901355
30
0
41
1
10
46.7740096847339
20
1.62550585518539
30
0
41
1
10
46.7562710987692
20
1.58823822327014
30
0
41
1
10
46.7384665829809
20
1.55107524180036
30
0
0
SPLINE
5
17B
100
AcDbEntity
8
1
62
256
6
ByLayer
370
13
48
1
60
0
100
AcDbSpline
70
4
71
3
72
10
73
6
40
0
40
0
40
0
40
0
40
0.440326177122289
40
0.916385125186748
40
1
40
1
40
1
40
1
41
1
10
42.8620161070961
20
1.01180236781215
30
0
41
1
10
42.8738090033234
20
0.850540474630691
30
0
41
1
10
42.8983517927673
20
0.487260037117636
30
0
41
1
10
42.9251339797843
20
0.0600792834893014
30
0
41
1
10
42.9401232655928
20
-0.176769879483743
30
0
41
1
10
42.9423626542851
20
-0.21205564994051
30
0
0
SPLINE
5
17C
100
AcDbEntity
8
1
62
256
6
ByLayer
370
18
48
1
60
0
100
AcDbSpline
70
4
71
3
72
10
73
6
40
0
40
0
40
0
40
0
40
0.5
40
0.5
40
1
40
1
40
1
40
1
41
1
10
43.1721550157807
20
-0.57964136121754
30
0
41
1
10
43.1344337726524
20
-0.513989909670727
30
0
41
1
10
43.0963970047784
20
-0.450319886879726
30
0
41
1
10
43.019792496596
20
-0.327613474462737
30
0
41
1
10
42.9812161087423
20
-0.268560341493753
30
0
41
1
10
42.9423626542846
20
-0.212055649932068
30
0
0
SPLINE
5
17D
100
AcDbEntity
8
1
62
256
6
ByLayer
370
18
48
1
60
0
100
AcDbSpline
70
4
71
3
72
10
73
6
40
0
40
0
40
0
40
0
40
0.5
40
0.5
40
1
40
1
40
1
40
1
41
1
10
43.2908582560068
20
1.93268865696749
30
0
41
1
10
43.2550954217755
20
1.98645562258613
30
0
41
1
10
43.2196034721647
20
2.03872474785518
30
0
41
1
10
43.1490213067662
20
2.14034120553907
30
0
41
1
10
43.1139367163315
20
2.18967830257859
30
0
41
1
10
43.0791625768099
20
2.23733057688136
30
0
0
SPLINE
5
17E
100
AcDbEntity
8
1
62
256
6
ByLayer
370
18
48
1
60
0
100
AcDbSpline
70
4
71
3
72
12
73
8
40
0
40
0
40
0
40
0
40
0.5
40
0.5
40
0.75
40
0.75
40
1
40
1
40
1
40
1
41
1
10
43.0791625768079
20
2.23733057690455
30
0
41
1
10
43.0437038639754
20
2.22070941059909
30
0
41
1
10
43.0081078819555
20
2.20322612627746
30
0
41
1
10
42.9544704661146
20
2.17570447010712
30
0
41
1
10
42.9365453828956
20
2.16631110841772
30
0
41
1
10
42.9007558362349
20
2.14717203208858
30
0
41
1
10
42.8828732514831
20
2.13741719937292
30
0
41
1
10
42.8650000192815
20
2.12748012926778
30
0
0
SPLINE
5
17F
100
AcDbEntity
8
1
62
256
6
ByLayer
370
18
48
1
60
0
100
AcDbSpline
70
4
71
3
72
10
73
6
40
0
40
0
40
0
40
0
40
0.5
40
0.5
40
1
40
1
40
1
40
1
41
1
10
42.8650000192878
20
2.12748012926215
30
0
41
1
10
42.8316313190297
20
2.05999186042084
30
0
41
1
10
42.7980255252248
20
1.99180307375212
30
0
41
1
10
42.7303981258505
20
1.85447574218614
30
0
41
1
10
42.6963804626526
20
1.78534268061722
30
0
41
1
10
42.6621325260035
20
1.71588217432316
30
0
0
SPLINE
5
180
100
AcDbEntity
8
1
62
256
6
ByLayer
370
18
48
1
60
0
100
AcDbSpline
70
4
71
3
72
28
73
24
40
0
40
0
40
0
40
0
40
0.125000000000039
40
0.125000000000039
40
0.250000000000078
40
0.250000000000078
40
0.375000000000117
40
0.375000000000117
40
0.500000000000156
40
0.500000000000156
40
0.625000000000195
40
0.625000000000195
40
0.687500000000162
40
0.687500000000162
40
0.75000000000013
40
0.75000000000013
40
0.812500000000097
40
0.812500000000097
40
0.875000000000065
40
0.875000000000065
40
0.937500000000032
40
0.937500000000032
40
1
40
1
40
1
40
1
41
1
10
42.6621325260035
20
1.71588217432316
30
0
41
1
10
42.6563355009947
20
1.70412484434917
30
0
41
1
10
42.6496159804449
20
1.69326314140216
30
0
41
1
10
42.6347755743651
20
1.67288756650908
30
0
41
1
10
42.6265815897944
20
1.66333624261136
30
0
41
1
10
42.609501996724
20
1.64606826550511
30
0
41
1
10
42.6005610663063
20
1.63826424906696
30
0
41
1
10
42.5819401187596
20
1.62422781183776
30
0
41
1
10
42.5721739723205
20
1.61796047614354
30
0
41
1
10
42.5525395700819
20
1.60749699105926
30
0
41
1
10
42.5426243270913
20
1.60324531876975
30
0
41
1
10
42.5276230287582
20
1.598511181482
30
0
41
1
10
42.5226010160405
20
1.59720962553635
30
0
41
1
10
42.5125141740199
20
1.59523603652522
30
0
41
1
10
42.5074650194035
20
1.59457171055351
30
0
41
1
10
42.4975802461403
20
1.59398950106487
30
0
41
1
10
42.4927157686669
20
1.59406439471172
30
0
41
1
10
42.4831720321166
20
1.5950573820283
30
0
41
1
10
42.4784566462749
20
1.59598833503216
30
0
41
1
10
42.4694960794651
20
1.59880874242268
30
0
41
1
10
42.4652404760384
20
1.60068970796232
30
0
41
1
10
42.4572561994566
20
1.60555499761819
30
0
41
1
10
42.4535116111197
20
1.6085645704521
30
0
41
1
10
42.4502003409819
20
1.61215413226927
30
0
0
SPLINE
5
181
100
AcDbEntity
8
1
62
256
6
ByLayer
370
18
48
1
60
0
100
AcDbSpline
70
4
71
3
72
8
73
4
40
0
40
0
40
0
40
0
40
1
40
1
40
1
40
1
41
1
10
42.4502003409819
20
1.61215413227004
30
0
41
1
10
42.4009449218712
20
1.66554916329119
30
0
41
1
10
42.3521828645452
20
1.71457987853717
30
0
41
1
10
42.3037958401647
20
1.75939337229667
30
0
0
SPLINE
5
182
100
AcDbEntity
8
1
62
256
6
ByLayer
370
18
48
1
60
0
100
AcDbSpline
70
4
71
3
72
8
73
4
40
0
40
0
40
0
40
0
40
1
40
1
40
1
40
1
41
1
10
42.3037958401647
20
1.75939337229667
30
0
41
1
10
42.2661733307143
20
1.73129228009424
30
0
41
1
10
42.2284669338817
20
1.70250131128128
30
0
41
1
10
42.1906384276572
20
1.67304052937388
30
0
0
SPLINE
5
183
100
AcDbEntity
8
1
62
256
6
ByLayer
370
18
48
1
60
0
100
AcDbSpline
70
4
71
3
72
98
73
94
40
0
40
0
40
0
40
0
40
0.0147783489451156
40
0.0147783489451156
40
0.0357405117335172
40
0.0357405117335172
40
0.0567026745219189
40
0.0567026745219189
40
0.0671837559161205
40
0.0671837559161205
40
0.077664837310322
40
0.077664837310322
40
0.0986270000987238
40
0.0986270000987238
40
0.119589162887125
40
0.119589162887125
40
0.16151348846393
40
0.16151348846393
40
0.182475651252332
40
0.182475651252332
40
0.203437814040734
40
0.203437814040734
40
0.213918895434934
40
0.213918895434934
40
0.224399976829135
40
0.224399976829135
40
0.245362139617538
40
0.245362139617538
40
0.266324302405941
40
0.266324302405941
40
0.287286465194344
40
0.287286465194344
40
0.329210790771149
40
0.329210790771149
40
0.33969187216535
40
0.33969187216535
40
0.350172953559551
40
0.350172953559551
40
0.371135116347954
40
0.371135116347954
40
0.392097279136356
40
0.392097279136356
40
0.413059441924758
40
0.413059441924758
40
0.434021604713161
40
0.434021604713161
40
0.454983767501563
40
0.454983767501563
40
0.475945930289966
40
0.475945930289966
40
0.496908093078368
40
0.496908093078368
40
0.51787025586677
40
0.51787025586677
40
0.538832418655173
40
0.538832418655173
40
0.559794581443575
40
0.559794581443575
40
0.580756744231977
40
0.580756744231977
40
0.622681069808782
40
0.622681069808782
40
0.633162151202983
40
0.633162151202983
40
0.643643232597185
40
0.643643232597185
40
0.664605395385587
40
0.664605395385587
40
0.706529720962392
40
0.706529720962392
40
0.748454046539196
40
0.748454046539196
40
0.758935127933397
40
0.758935127933397
40
0.769416209327597
40
0.769416209327597
40
0.790378372115998
40
0.790378372115998
40
0.8113405349044
40
0.8113405349044
40
0.832302697692801
40
0.832302697692801
40
0.874227023269601
40
0.874227023269601
40
0.895189186058002
40
0.895189186058002
40
0.905670267452202
40
0.905670267452202
40
0.916151348846402
40
0.916151348846402
40
0.958075674423201
40
0.958075674423201
40
1
40
1
40
1
40
1
41
1
10
36.8154278827413
20
-1.84769994386062
30
0
41
1
10
36.7722830876674
20
-1.84769655474292
30
0
41
1
10
36.7291511339261
20
-1.84668559798231
30
0
41
1
10
36.624776701268
20
-1.84180329878862
30
0
41
1
10
36.5634515740628
20
-1.8369179788927
30
0
41
1
10
36.4404760617245
20
-1.82311465296158
30
0
41
1
10
36.3789013448772
20
-1.81418300792578
30
0
41
1
10
36.2862922527469
20
-1.79769774924279
30
0
41
1
10
36.255379283796
20
-1.79168836301949
30
0
41
1
10
36.1934395155528
20
-1.77863509811783
30
0
41
1
10
36.1623816290971
20
-1.77158205286523
30
0
41
1
10
36.0695032460953
20
-1.7489994890243
30
0
41
1
10
36.0078250453635
20
-1.73202296862183
30
0
41
1
10
35.884699566452
20
-1.69442149694765
30
0
41
1
10
35.823238701574
20
-1.67380601314511
30
0
41
1
10
35.6391143071063
20
-1.60662569585014
30
0
41
1
10
35.5168612981229
20
-1.55463442155627
30
0
41
1
10
35.3331030108509
20
-1.46648415242407
30
0
41
1
10
35.2717693495883
20
-1.43541806402902
30
0
41
1
10
35.1486644999805
20
-1.37011022496404
30
0
41
1
10
35.0868804750093
20
-1.33588473347913
30
0
41
1
10
34.9939345567073
20
-1.28207193624709
30
0
41
1
10
34.9628556168417
20
-1.26369922526482
30
0
41
1
10
34.9008491452087
20
-1.2263219861448
30
0
41
1
10
34.869916897357
20
-1.2073156076284
30
0
41
1
10
34.777285519755
20
-1.14939640342371
30
0
41
1
10
34.7157447589651
20
-1.10959045747757
30
0
41
1
10
34.5928867446687
20
-1.02783017007209
30
0
41
1
10
34.5315782907198
20
-0.985866743254832
30
0
41
1
10
34.4089932899837
20
-0.90001455742285
30
0
41
1
10
34.347736159563
20
-0.856106236768142
30
0
41
1
10
34.1639904540999
20
-0.721519536851275
30
0
41
1
10
34.0414133095061
20
-0.628105226552805
30
0
41
1
10
33.8871931636052
20
-0.507663701585102
30
0
41
1
10
33.8562964365556
20
-0.483394878500718
30
0
41
1
10
33.7943754392093
20
-0.434518826366059
30
0
41
1
10
33.7633160591397
20
-0.409880321816502
30
0
41
1
10
33.6701926192132
20
-0.335680799765726
30
0
41
1
10
33.6083725688533
20
-0.285993536637562
30
0
41
1
10
33.4851475382536
20
-0.186310221280962
30
0
41
1
10
33.423736485912
20
-0.136321849735651
30
0
41
1
10
33.3011200583201
20
-0.036295569153225
30
0
41
1
10
33.2399226996401
20
0.0137521663637301
30
0
41
1
10
33.1173685445504
20
0.113445398991559
30
0
41
1
10
33.0560584116346
20
0.163149149572234
30
0
41
1
10
32.933426581698
20
0.262337830018993
30
0
41
1
10
32.8720789603769
20
0.31179054935717
30
0
41
1
10
32.749153433954
20
0.410203955828166
30
0
41
1
10
32.6875755230336
20
0.459164551963767
30
0
41
1
10
32.5639200536042
20
0.556258866922462
30
0
41
1
10
32.5016975967314
20
0.604474736349289
30
0
41
1
10
32.3779316730299
20
0.698811616546152
30
0
41
1
10
32.3162480728835
20
0.745046988972234
30
0
41
1
10
32.1932622437312
20
0.835669807427024
30
0
41
1
10
32.1319484791194
20
0.880042308393683
30
0
41
1
10
32.0094749146477
20
0.966698122036433
30
0
41
1
10
31.9483215935339
20
1.00898762724492
30
0
41
1
10
31.8258944794487
20
1.09119705477716
30
0
41
1
10
31.7645931078298
20
1.13109137126733
30
0
41
1
10
31.580409260368
20
1.24712496488991
30
0
41
1
10
31.4573243371941
20
1.3196878288922
30
0
41
1
10
31.3022212628603
20
1.40336953792982
30
0
41
1
10
31.2711958404182
20
1.41971909912348
30
0
41
1
10
31.2093273997682
20
1.45151635310944
30
0
41
1
10
31.1784517246698
20
1.46698204766992
30
0
41
1
10
31.085939277474
20
1.51204980164917
30
0
41
1
10
31.0243814738389
20
1.54030051391277
30
0
41
1
10
30.8401724593066
20
1.61984406507861
30
0
41
1
10
30.7178738189134
20
1.66584143475032
30
0
41
1
10
30.4728497955777
20
1.74300441681984
30
0
41
1
10
30.350056034429
20
1.77415033645818
30
0
41
1
10
30.195554348228
20
1.80330899619943
30
0
41
1
10
30.1646063034731
20
1.80865172807796
30
0
41
1
10
30.1025920131862
20
1.81834046094392
30
0
41
1
10
30.0715269580046
20
1.822684157673
30
0
41
1
10
29.9786594645771
20
1.83413466157825
30
0
41
1
10
29.9170159363367
20
1.83969193592898
30
0
41
1
10
29.7939596606735
20
1.84669760963274
30
0
41
1
10
29.7324881014061
20
1.8481481804933
30
0
41
1
10
29.609787822484
20
1.84701309008995
30
0
41
1
10
29.5485603677052
20
1.8444217661721
30
0
41
1
10
29.364948373886
20
1.83058411735129
30
0
41
1
10
29.242639818445
20
1.81326161853997
30
0
41
1
10
29.0578590699489
20
1.77529683995772
30
0
41
1
10
28.9960489794096
20
1.76065071071065
30
0
41
1
10
28.9030099787967
20
1.73563561057841
30
0
41
1
10
28.8719108499801
20
1.72677690957252
30
0
41
1
10
28.8099261498649
20
1.70814084176726
30
0
41
1
10
28.7790052415058
20
1.69835566871765
30
0
41
1
10
28.6246889062394
20
1.64714721343026
30
0
41
1
10
28.5021865796062
20
1.59884915135658
30
0
41
1
10
28.2569824420875
20
1.48924592175405
30
0
41
1
10
28.1345795233207
20
1.42776235109261
30
0
41
1
10
28.0118153848248
20
1.35994543353098
30
0
0
SPLINE
5
184
100
AcDbEntity
8
1
62
256
6
ByLayer
370
18
48
1
60
0
100
AcDbSpline
70
4
71
3
72
8
73
4
40
0
40
0
40
0
40
0
40
1
40
1
40
1
40
1
41
1
10
28.0116217737626
20
1.36009264848894
30
0
41
1
10
28.0037235874041
20
1.33711966152828
30
0
41
1
10
27.9955374407235
20
1.31436300459376
30
0
41
1
10
27.9869042216518
20
1.29196828206363
30
0
0
SPLINE
5
185
100
AcDbEntity
8
1
62
256
6
ByLayer
370
18
48
1
60
0
100
AcDbSpline
70
4
71
3
72
112
73
108
40
0
40
0
40
0
40
0
40
0.0243143363546844
40
0.0243143363546844
40
0.0486286727093688
40
0.0486286727093688
40
0.0729430090640532
40
0.0729430090640532
40
0.0972573454187375
40
0.0972573454187375
40
0.121571681773422
40
0.121571681773422
40
0.133728849950764
40
0.133728849950764
40
0.145886018128106
40
0.145886018128106
40
0.170200354482789
40
0.170200354482789
40
0.194514690837472
40
0.194514690837472
40
0.218829027192155
40
0.218829027192155
40
0.243143363546838
40
0.243143363546838
40
0.255300531724179
40
0.255300531724179
40
0.267457699901521
40
0.267457699901521
40
0.291772036256204
40
0.291772036256204
40
0.303929204433546
40
0.303929204433546
40
0.316086372610888
40
0.316086372610888
40
0.340400708965574
40
0.340400708965574
40
0.36471504532026
40
0.36471504532026
40
0.376872213497603
40
0.376872213497603
40
0.389029381674947
40
0.389029381674947
40
0.401186549852291
40
0.401186549852291
40
0.413343718029634
40
0.413343718029634
40
0.437658054384321
40
0.437658054384321
40
0.461972390739009
40
0.461972390739009
40
0.486286727093696
40
0.486286727093696
40
0.510601063448384
40
0.510601063448384
40
0.522758231625726
40
0.522758231625726
40
0.534915399803069
40
0.534915399803069
40
0.547072567980412
40
0.547072567980412
40
0.559229736157755
40
0.559229736157755
40
0.583544072512442
40
0.60785840886713
40
0.60785840886713
40
0.620015577044472
40
0.620015577044472
40
0.632172745221815
40
0.632172745221815
40
0.680801417931184
40
0.680801417931184
40
0.692958586108525
40
0.692958586108525
40
0.705115754285867
40
0.705115754285867
40
0.729430090640551
40
0.729430090640551
40
0.753744426995234
40
0.753744426995234
40
0.778058763349918
40
0.778058763349918
40
0.79021593152726
40
0.79021593152726
40
0.802373099704603
40
0.802373099704603
40
0.826687436059288
40
0.826687436059288
40
0.83884460423663
40
0.83884460423663
40
0.851001772413973
40
0.851001772413973
40
0.875316108768659
40
0.875316108768659
40
0.899630445123346
40
0.899630445123346
40
0.923944781478032
40
0.923944781478032
40
0.936101949655375
40
0.936101949655375
40
0.948259117832718
40
0.948259117832718
40
0.972573454187403
40
0.972573454187403
40
0.984730622364746
40
0.984730622364746
40
0.996887790542088
40
1
40
1
40
1
40
1
41
1
10
26.5320449943475
20
1.82746444589344
30
0
41
1
10
26.6014581505539
20
1.8191206461168
30
0
41
1
10
26.6707476339148
20
1.80827093928639
30
0
41
1
10
26.8090220088191
20
1.78166118296602
30
0
41
1
10
26.8780226121748
20
1.76590258889286
30
0
41
1
10
27.0158533577472
20
1.729523126793
30
0
41
1
10
27.0846231257216
20
1.70886794488965
30
0
41
1
10
27.2225350976753
20
1.66290352039161
30
0
41
1
10
27.2916620891755
20
1.63759749600052
30
0
41
1
10
27.4303098842296
20
1.58232455576282
30
0
41
1
10
27.4998119193535
20
1.55234249922705
30
0
41
1
10
27.6045316162011
20
1.50388628463037
30
0
41
1
10
27.639475671093
20
1.48718990009323
30
0
41
1
10
27.7090809736891
20
1.45284446571549
30
0
41
1
10
27.7437049193353
20
1.43510517885628
30
0
41
1
10
27.8476185825899
20
1.38065504749173
30
0
41
1
10
27.9169235589506
20
1.34270865539949
30
0
41
1
10
28.0551233010813
20
1.26321314595501
30
0
41
1
10
28.1240925150749
20
1.22172260610941
30
0
41
1
10
28.2618894769897
20
1.13536573249274
30
0
41
1
10
28.3307588374165
20
1.09054088304813
30
0
41
1
10
28.4684304351189
20
0.99753770702992
30
0
41
1
10
28.5375712482647
20
0.949708388237411
30
0
41
1
10
28.6417261026617
20
0.875965919636826
30
0
41
1
10
28.6765157146139
20
0.851048548774855
30
0
41
1
10
28.7462207645418
20
0.80051337364344
30
0
41
1
10
28.7811623338212
20
0.774882609524127
30
0
41
1
10
28.886064529787
20
0.697063832926091
30
0
41
1
10
28.9556176574585
20
0.644325684029866
30
0
41
1
10
29.0593739076187
20
0.563934920782117
30
0
41
1
10
29.0938182201983
20
0.536868919191221
30
0
41
1
10
29.1627765068213
20
0.482622617347943
30
0
41
1
10
29.1973493200796
20
0.455514194470652
30
0
41
1
10
29.3008901773131
20
0.373683965567238
30
0
41
1
10
29.3698676068063
20
0.318682415731615
30
0
41
1
10
29.5079223429758
20
0.208034749109743
30
0
41
1
10
29.5769392553628
20
0.152314772011266
30
0
41
1
10
29.6804719822859
20
0.0681603274655913
30
0
41
1
10
29.7149790537276
20
0.0400066140692843
30
0
41
1
10
29.7840108533906
20
-0.0164767400301855
30
0
41
1
10
29.8185460282683
20
-0.0447935075254691
30
0
41
1
10
29.8878535332119
20
-0.101327692969306
30
0
41
1
10
29.9226276087439
20
-0.12954252977994
30
0
41
1
10
29.9923652427584
20
-0.185932886649198
30
0
41
1
10
30.0273794959981
20
-0.214162313981859
30
0
41
1
10
30.132190726498
20
-0.298416924707226
30
0
41
1
10
30.2017424993778
20
-0.35398636496933
30
0
41
1
10
30.3402380346478
20
-0.463910279894463
30
0
41
1
10
30.409189440037
20
-0.518252056895307
30
0
41
1
10
30.5469787705729
20
-0.625133386828566
30
0
41
1
10
30.6158680927177
20
-0.677614599429205
30
0
41
1
10
30.75374861209
20
-0.780546335450083
30
0
41
1
10
30.8227165216718
20
-0.831023275702876
30
0
41
1
10
30.9263166786104
20
-0.905121793363548
30
0
41
1
10
30.9608768589264
20
-0.929549224891474
30
0
41
1
10
31.0301014145445
20
-0.977800960585171
30
0
41
1
10
31.0647841421623
20
-1.00160634587667
30
0
41
1
10
31.1341056115732
20
-1.04876437732011
30
0
41
1
10
31.1688082916227
20
-1.07204778772447
30
0
41
1
10
31.2385619855709
20
-1.11774575691638
30
0
41
1
10
31.2735979355125
20
-1.1402275527702
30
0
41
1
10
31.3782881985116
20
-1.20623254304385
30
0
41
1
10
31.5172543277844
20
-1.29058885816875
30
0
41
1
10
31.6552608006224
20
-1.36752250510804
30
0
41
1
10
31.7585373429476
20
-1.42233528868351
30
0
41
1
10
31.792874216691
20
-1.44016344800087
30
0
41
1
10
31.8616866477875
20
-1.47468792701844
30
0
41
1
10
31.896123994065
20
-1.49141579576533
30
0
41
1
10
32.0684904830622
20
-1.57238526916157
30
0
41
1
10
32.2069187285533
20
-1.62871448544936
30
0
41
1
10
32.3805875260093
20
-1.68825599517948
30
0
41
1
10
32.4153616043519
20
-1.69961095073029
30
0
41
1
10
32.4850994633476
20
-1.72114224348755
30
0
41
1
10
32.5200103572016
20
-1.73129955668782
30
0
41
1
10
32.6244317108576
20
-1.75979944729815
30
0
41
1
10
32.6938487154367
20
-1.77622463141364
30
0
41
1
10
32.8323743684398
20
-1.80404012995095
30
0
41
1
10
32.9014614271532
20
-1.81543738010251
30
0
41
1
10
33.0393339619237
20
-1.8332192332916
30
0
41
1
10
33.108079494466
20
-1.8396054529419
30
0
41
1
10
33.2111993437225
20
-1.845342700868
30
0
41
1
10
33.2456088320641
20
-1.84661155559635
30
0
41
1
10
33.3146035241544
20
-1.84786606448171
30
0
41
1
10
33.3491717692929
20
-1.84785368956125
30
0
41
1
10
33.4530073027773
20
-1.84589793647899
30
0
41
1
10
33.5224251533402
20
-1.84203797839592
30
0
41
1
10
33.6268752104411
20
-1.8323305931977
30
0
41
1
10
33.6617553996549
20
-1.82843801496048
30
0
41
1
10
33.731592760455
20
-1.81933250579797
30
0
41
1
10
33.7664091726835
20
-1.81413863532731
30
0
41
1
10
33.8706360138556
20
-1.79667271326011
30
0
41
1
10
33.9398687928584
20
-1.78252819166758
30
0
41
1
10
34.0781652407317
20
-1.74946738913314
30
0
41
1
10
34.147191765395
20
-1.73054179872832
30
0
41
1
10
34.2850668390649
20
-1.68796840101908
30
0
41
1
10
34.3539225383926
20
-1.66431967780648
30
0
41
1
10
34.457317574934
20
-1.62541701591519
30
0
41
1
10
34.4917317959063
20
-1.61183714289336
30
0
41
1
10
34.5606013489667
20
-1.58352162488032
30
0
41
1
10
34.5951307998582
20
-1.56883412829248
30
0
41
1
10
34.6989352275103
20
-1.52314762240357
30
0
41
1
10
34.7683616253486
20
-1.49047996472643
30
0
41
1
10
34.872965600124
20
-1.43819675568687
30
0
41
1
10
34.9079684587932
20
-1.42019199456246
30
0
41
1
10
34.9778170165587
20
-1.38324936347874
30
0
41
1
10
35.0215694913861
20
-1.35947287386608
30
0
41
1
10
35.0651771773881
20
-1.33497390659878
30
0
41
1
10
35.0740591262636
20
-1.32995035628383
30
0
0
SPLINE
5
186
100
AcDbEntity
8
1
62
256
6
ByLayer
370
18
48
1
60
0
100
AcDbSpline
70
4
71
3
72
10
73
6
40
0
40
0
40
0
40
0
40
0.293645204890841
40
0.293645204890841
40
1
40
1
40
1
40
1
41
1
10
40.4923247327984
20
1.99236613162762
30
0
41
1
10
40.5361001217133
20
1.99860407071887
30
0
41
1
10
40.5797010686532
20
2.00377431393542
30
0
41
1
10
40.7278157833554
20
2.01773545613227
30
0
41
1
10
40.8319705027203
20
2.02145765328385
30
0
41
1
10
40.9358547114495
20
2.01887224579079
30
0
0
SPLINE
5
187
100
AcDbEntity
8
1
62
256
6
ByLayer
370
18
48
1
60
0
100
AcDbSpline
70
4
71
3
72
8
73
4
40
0
40
0
40
0
40
0
40
1
40
1
40
1
40
1
41
1
10
40.9358547114494
20
2.01887224579082
30
0
41
1
10
40.9468423825114
20
1.9991244051142
30
0
41
1
10
40.9578546626663
20
1.97926231930995
30
0
41
1
10
40.9688966891415
20
1.95928287048613
30
0
0
SPLINE
5
188
100
AcDbEntity
8
1
62
256
6
ByLayer
370
18
48
1
60
0
100
AcDbSpline
70
4
71
3
72
26
73
22
40
0
40
0
40
0
40
0
40
0.125
40
0.125
40
0.25
40
0.25
40
0.375
40
0.375
40
0.5
40
0.5
40
0.625000000000001
40
0.625000000000001
40
0.750000000000001
40
0.750000000000001
40
0.8125
40
0.8125
40
0.875
40
0.875
40
0.9375
40
0.9375
40
1
40
1
40
1
40
1
41
1
10
40.9688966891415
20
1.95928287048613
30
0
41
1
10
40.9748023101001
20
1.94859723665084
30
0
41
1
10
40.9816609175885
20
1.93916105282952
30
0
41
1
10
40.9967943972807
20
1.92212892867596
30
0
41
1
10
41.00514969837
20
1.91451384739341
30
0
41
1
10
41.0224994644482
20
1.90143909206086
30
0
41
1
10
41.0315543007949
20
1.89589909401812
30
0
41
1
10
41.0503566655192
20
1.88668698851094
30
0
41
1
10
41.060174588665
20
1.88301170442719
30
0
41
1
10
41.0798238823369
20
1.87785763878301
30
0
41
1
10
41.089719674098
20
1.87633036673458
30
0
41
1
10
41.1096260007969
20
1.87561774840737
30
0
41
1
10
41.1197331113666
20
1.87646356991274
30
0
41
1
10
41.1343102076046
20
1.87988546729937
30
0
41
1
10
41.1390899028567
20
1.88138238519494
30
0
41
1
10
41.1484608387637
20
1.88519465473712
30
0
41
1
10
41.1530839161708
20
1.88753245781663
30
0
41
1
10
41.1618604076455
20
1.89305495112134
30
0
41
1
10
41.1660308843358
20
1.89623818035628
30
0
41
1
10
41.1738634999119
20
1.90359338585756
30
0
41
1
10
41.1775457900208
20
1.90779875974187
30
0
41
1
10
41.1808205240469
20
1.91249787253364
30
0
0
SPLINE
5
189
100
AcDbEntity
8
1
62
256
6
ByLayer
370
18
48
1
60
0
100
AcDbSpline
70
4
71
3
72
8
73
4
40
0
40
0
40
0
40
0
40
1
40
1
40
1
40
1
41
1
10
41.1808205240468
20
1.91249787253375
30
0
41
1
10
41.1999000499039
20
1.93987623160109
30
0
41
1
10
41.2189015107692
20
1.96680391215773
30
0
41
1
10
41.2378281382697
20
1.9932412798714
30
0
0
SPLINE
5
18A
100
AcDbEntity
8
1
62
256
6
ByLayer
370
18
48
1
60
0
100
AcDbSpline
70
4
71
3
72
14
73
10
40
0
40
0
40
0
40
0
40
0.125000000000006
40
0.125000000000006
40
0.250000000000012
40
0.250000000000012
40
0.500000000000024
40
0.500000000000024
40
1
40
1
40
1
40
1
41
1
10
41.2378281382641
20
1.99324127987873
30
0
41
1
10
41.2576193396931
20
1.9903477272581
30
0
41
1
10
41.2773892930767
20
1.98719893354857
30
0
41
1
10
41.316977410327
20
1.98043195796979
30
0
41
1
10
41.3367932098694
20
1.97681949623248
30
0
41
1
10
41.3961027875036
20
1.9653306975728
30
0
41
1
10
41.4355195470338
20
1.95678603962332
30
0
41
1
10
41.5532706413766
20
1.92843893488774
30
0
41
1
10
41.6311656200184
20
1.90595662113773
30
0
41
1
10
41.7085713994039
20
1.87992580332647
30
0
0
SPLINE
5
18B
100
AcDbEntity
8
1
62
256
6
ByLayer
370
18
48
1
60
0
100
AcDbSpline
70
4
71
3
72
8
73
4
40
0
40
0
40
0
40
0
40
1
40
1
40
1
40
1
41
1
10
41.708571399404
20
1.87992580332653
30
0
41
1
10
41.7419760136184
20
1.81274026661197
30
0
41
1
10
41.7755983738797
20
1.7453123676562
30
0
41
1
10
41.8094709768211
20
1.67778319679556
30
0
0
SPLINE
5
18C
100
AcDbEntity
8
1
62
256
6
ByLayer
370
18
48
1
60
0
100
AcDbSpline
70
4
71
3
72
26
73
22
40
0
40
0
40
0
40
0
40
0.125000000000025
40
0.125000000000025
40
0.250000000000049
40
0.250000000000049
40
0.375000000000074
40
0.375000000000074
40
0.500000000000099
40
0.500000000000099
40
0.625000000000123
40
0.625000000000123
40
0.750000000000148
40
0.750000000000148
40
0.812500000000111
40
0.812500000000111
40
0.875000000000074
40
0.875000000000074
40
0.937500000000037
40
0.937500000000037
40
1
40
1
40
1
40
1
41
1
10
41.8094709768211
20
1.67778319679556
30
0
41
1
10
41.8153864290063
20
1.66599002040397
30
0
41
1
10
41.8222570999046
20
1.65509430743234
30
0
41
1
10
41.8374153020988
20
1.6346279825631
30
0
41
1
10
41.8457831769365
20
1.62501540051531
30
0
41
1
10
41.8631530383289
20
1.60763033248924
30
0
41
1
10
41.872216403808
20
1.59976450088854
30
0
41
1
10
41.8910288291618
20
1.58556897940213
30
0
41
1
10
41.9008468768158
20
1.57921540953274
30
0
41
1
10
41.9204864476378
20
1.56851174063306
30
0
41
1
10
41.9303713575315
20
1.56409579848281
30
0
41
1
10
41.9502540043336
20
1.55733697992559
30
0
41
1
10
41.960350051559
20
1.55499657679846
30
0
41
1
10
41.9749206115056
20
1.55359215931051
30
0
41
1
10
41.9796993893452
20
1.55346631514951
30
0
41
1
10
41.9890699336335
20
1.55399748866171
30
0
41
1
10
41.9936931070168
20
1.55466461736862
30
0
41
1
10
42.0024699911466
20
1.55688953129069
30
0
41
1
10
42.0066414570319
20
1.55844100019419
30
0
41
1
10
42.0144772353006
20
1.56257384855232
30
0
41
1
10
42.0181615889803
20
1.56517867501228
30
0
41
1
10
42.0214385717997
20
1.56834629807511
30
0
0
SPLINE
5
18D
100
AcDbEntity
8
1
62
256
6
ByLayer
370
18
48
1
60
0
100
AcDbSpline
70
4
71
3
72
8
73
4
40
0
40
0
40
0
40
0
40
1
40
1
40
1
40
1
41
1
10
42.0214385717997
20
1.5683462980754
30
0
41
1
10
42.066659087037
20
1.61205771033349
30
0
41
1
10
42.1114270888517
20
1.65210378200689
30
0
41
1
10
42.155881862822
20
1.68853341818965
30
0
0
SPLINE
5
18E
100
AcDbEntity
8
1
62
256
6
ByLayer
370
18
48
1
60
0
100
AcDbSpline
70
4
71
3
72
12
73
8
40
0
40
0
40
0
40
0
40
0.5
40
0.5
40
0.75
40
0.75
40
1
40
1
40
1
40
1
41
1
10
42.1558818628218
20
1.68853341818979
30
0
41
1
10
42.2101330864101
20
1.66059964212076
30
0
41
1
10
42.264388359849
20
1.63098097036547
30
0
41
1
10
42.3458038098285
20
1.5839644517788
30
0
41
1
10
42.3729490004423
20
1.56786166441242
30
0
41
1
10
42.4272591902951
20
1.53478208459546
30
0
41
1
10
42.4544370759928
20
1.51779564446494
30
0
41
1
10
42.4814711277992
20
1.50046563578098
30
0
0
SPLINE
5
18F
100
AcDbEntity
8
1
62
256
6
ByLayer
370
18
48
1
60
0
100
AcDbSpline
70
4
71
3
72
10
73
6
40
0
40
0
40
0
40
0
40
0.5
40
0.5
40
1
40
1
40
1
40
1
41
1
10
42.4814711277992
20
1.50046563578098
30
0
41
1
10
42.5092654414668
20
1.44419140095485
30
0
41
1
10
42.5372020809854
20
1.3883379632808
30
0
41
1
10
42.5934238217163
20
1.27754060668877
30
0
41
1
10
42.6216548710735
20
1.22265666478077
30
0
41
1
10
42.6500881802849
20
1.16838427964694
30
0
0
SPLINE
5
190
100
AcDbEntity
8
1
62
256
6
ByLayer
370
18
48
1
60
0
100
AcDbSpline
70
4
71
3
72
26
73
22
40
0
40
0
40
0
40
0
40
0.125
40
0.125
40
0.250000000000001
40
0.250000000000001
40
0.375000000000001
40
0.375000000000001
40
0.500000000000002
40
0.500000000000002
40
0.625000000000002
40
0.625000000000002
40
0.750000000000003
40
0.750000000000003
40
0.812500000000002
40
0.812500000000002
40
0.875000000000001
40
0.875000000000001
40
0.937500000000001
40
0.937500000000001
40
1
40
1
40
1
40
1
41
1
10
42.6500881802849
20
1.16838427964694
30
0
41
1
10
42.6559939375418
20
1.15711160188812
30
0
41
1
10
42.6628504469238
20
1.14625391509924
30
0
41
1
10
42.6779821026659
20
1.1251664299152
30
0
41
1
10
42.6863387617674
20
1.11487714556011
30
0
41
1
10
42.7036994551609
20
1.09557416055012
30
0
41
1
10
42.712763588761
20
1.0864680957948
30
0
41
1
10
42.7315876811454
20
1.06925954729391
30
0
41
1
10
42.7414167677442
20
1.06111450380453
30
0
41
1
10
42.7610803514582
20
1.04637981057118
30
0
41
1
10
42.7709809735557
20
1.03971878779268
30
0
41
1
10
42.7908914398198
20
1.0279341633844
30
0
41
1
10
42.8009952405105
20
1.02277984097339
30
0
41
1
10
42.8155605120829
20
1.01680133663444
30
0
41
1
10
42.8203356928463
20
1.01508789577787
30
0
41
1
10
42.8296966338611
20
1.01229785168871
30
0
41
1
10
42.8343141100571
20
1.01121798044448
30
0
41
1
10
42.8430795941209
20
1.00986723937876
30
0
41
1
10
42.8472445305529
20
1.00958580577893
30
0
41
1
10
42.8550664378061
20
1.00994649715645
30
0
41
1
10
42.8587439747861
20
1.01059897937424
30
0
41
1
10
42.8620161070962
20
1.01180236781187
30
0
0
SPLINE
5
191
100
AcDbEntity
8
1
62
256
6
ByLayer
370
18
48
1
60
0
100
AcDbSpline
70
4
71
3
72
10
73
6
40
0
40
0
40
0
40
0
40
0.499999999999999
40
0.499999999999999
40
1
40
1
40
1
40
1
41
1
10
42.8620161070961
20
1.01180236781221
30
0
41
1
10
42.8978698798613
20
1.02498826969588
30
0
41
1
10
42.9334363224047
20
1.03545828531429
30
0
41
1
10
43.004130874546
20
1.05102318764389
30
0
41
1
10
43.0392568295556
20
1.05613080723668
30
0
41
1
10
43.0740650833404
20
1.05859384855941
30
0
0
SPLINE
5
192
100
AcDbEntity
8
1
62
256
6
ByLayer
370
18
48
1
60
0
100
AcDbSpline
70
4
71
3
72
26
73
22
40
0
40
0
40
0
40
0
40
0.125
40
0.125
40
0.25
40
0.25
40
0.375000000000001
40
0.375000000000001
40
0.500000000000001
40
0.500000000000001
40
0.625000000000001
40
0.625000000000001
40
0.750000000000001
40
0.750000000000001
40
0.812500000000001
40
0.812500000000001
40
0.875000000000001
40
0.875000000000001
40
0.9375
40
0.9375
40
1
40
1
40
1
40
1
41
1
10
43.4906648805203
20
0.500976481947504
30
0
41
1
10
43.4965787250346
20
0.491790800319421
30
0
41
1
10
43.5034489583605
20
0.482483409561553
30
0
41
1
10
43.5186093491021
20
0.46370374367612
30
0
41
1
10
43.5269814187409
20
0.454160507685515
30
0
41
1
10
43.5443621596679
20
0.435599423035797
30
0
41
1
10
43.553431662458
20
0.42650247594375
30
0
41
1
10
43.5722606902275
20
0.408630919354039
30
0
41
1
10
43.582088252312
20
0.399803542003923
30
0
41
1
10
43.6017461232062
20
0.383034245244375
30
0
41
1
10
43.6116432215336
20
0.375022104702282
30
0
41
1
10
43.6315444637001
20
0.359779093911356
30
0
41
1
10
43.6416378925924
20
0.352494135226493
30
0
41
1
10
43.6561825270392
20
0.342740688498026
30
0
41
1
10
43.6609510109819
20
0.339669076996813
30
0
41
1
10
43.6702984108477
20
0.333930771764358
30
0
41
1
10
43.6749083506875
20
0.331248280635151
30
0
41
1
10
43.6836570581099
20
0.326502048082972
30
0
41
1
10
43.6878141634813
20
0.324424317077188
30
0
41
1
10
43.6956219112431
20
0.320962058948169
30
0
41
1
10
43.6992929529842
20
0.319573395014572
30
0
41
1
10
43.7025602016249
20
0.31864882527006
30
0
0
SPLINE
5
193
100
AcDbEntity
8
1
62
256
6
ByLayer
370
18
48
1
60
0
100
AcDbSpline
70
4
71
3
72
12
73
8
40
0
40
0
40
0
40
0
40
0.249999999999992
40
0.249999999999992
40
0.499999999999983
40
0.499999999999983
40
1
40
1
40
1
40
1
41
1
10
43.7025602016249
20
0.318648825270401
30
0
41
1
10
43.7254982482947
20
0.312157790677816
30
0
41
1
10
43.7483233631055
20
0.304536383063208
30
0
41
1
10
43.7937770557776
20
0.286991344506532
30
0
41
1
10
43.8164197061501
20
0.277074738163037
30
0
41
1
10
43.883987035601
20
0.244047513030466
30
0
41
1
10
43.9285891896071
20
0.217619055836536
30
0
41
1
10
43.9727237072976
20
0.187095565022219
30
0
0
SPLINE
5
194
100
AcDbEntity
8
1
62
256
6
ByLayer
370
18
48
1
60
0
100
AcDbSpline
70
4
71
3
72
8
73
4
40
0
40
0
40
0
40
0
40
1
40
1
40
1
40
1
41
1
10
44.051189620654
20
0.102116572838099
30
0
41
1
10
44.0250100086077
20
0.130469975573448
30
0
41
1
10
43.9988654497411
20
0.15880623210208
30
0
41
1
10
43.9727237072976
20
0.187095565022275
30
0
0
SPLINE
5
195
100
AcDbEntity
8
1
62
256
6
ByLayer
370
18
48
1
60
0
100
AcDbSpline
70
4
71
3
72
12
73
8
40
0
40
0
40
0
40
0
40
0.25
40
0.25
40
0.5
40
0.5
40
1
40
1
40
1
40
1
41
1
10
44.051189620654
20
0.102116572838099
30
0
41
1
10
44.0740411829427
20
0.06997576331446
30
0
41
1
10
44.0969987959897
20
0.0388276769967035
30
0
41
1
10
44.1431736213384
20
-0.0214593536134373
30
0
41
1
10
44.1664041066107
20
-0.0506138012743804
30
0
41
1
10
44.2364333641772
20
-0.134860089209013
30
0
41
1
10
44.2835889211848
20
-0.186790308765694
30
0
41
1
10
44.3312316474657
20
-0.23411875832042
30
0
0
SPLINE
5
196
100
AcDbEntity
8
1
62
256
6
ByLayer
370
18
48
1
60
0
100
AcDbSpline
70
4
71
3
72
26
73
22
40
0
40
0
40
0
40
0
40
0.125
40
0.125
40
0.25
40
0.25
40
0.375
40
0.375
40
0.5
40
0.5
40
0.624999999999999
40
0.624999999999999
40
0.749999999999999
40
0.749999999999999
40
0.812499999999999
40
0.812499999999999
40
0.875
40
0.875
40
0.9375
40
0.9375
40
1
40
1
40
1
40
1
41
1
10
44.3312316474657
20
-0.23411875832042
30
0
41
1
10
44.3371543263469
20
-0.240002368066086
30
0
41
1
10
44.3440352136869
20
-0.246534947114611
30
0
41
1
10
44.3592158572804
20
-0.260539239976737
30
0
41
1
10
44.3675975989801
20
-0.268081694591729
30
0
41
1
10
44.3849925731201
20
-0.28346189986442
30
0
41
1
10
44.394067751482
20
-0.291354750534538
30
0
41
1
10
44.4129034873712
20
-0.307544223499292
30
0
41
1
10
44.4227311974612
20
-0.315898299419956
30
0
41
1
10
44.44238498114
20
-0.33251510641108
30
0
41
1
10
44.4522782036818
20
-0.340836370772251
30
0
41
1
10
44.4721691199283
20
-0.357559097533112
30
0
41
1
10
44.482254927607
20
-0.366032679303004
30
0
41
1
10
44.4967898323006
20
-0.378303785945974
30
0
41
1
10
44.5015554135594
20
-0.382338066098811
30
0
41
1
10
44.51089751858
20
-0.390285924145871
30
0
41
1
10
44.515505078381
20
-0.39422610555556
30
0
41
1
10
44.5242506932976
20
-0.40175829759761
30
0
41
1
10
44.5284068235956
20
-0.405365449752253
30
0
41
1
10
44.5362136429234
20
-0.412205645031605
30
0
41
1
10
44.5398849711564
20
-0.41545700389463
30
0
41
1
10
44.5431534320588
20
-0.418391311220887
30
0
0
SPLINE
5
197
100
AcDbEntity
8
1
62
256
6
ByLayer
370
18
48
1
60
0
100
AcDbSpline
70
4
71
3
72
12
73
8
40
0
40
0
40
0
40
0
40
0.249999999999991
40
0.249999999999991
40
0.499999999999982
40
0.499999999999982
40
1
40
1
40
1
40
1
41
1
10
44.5431534320588
20
-0.418391311220546
30
0
41
1
10
44.5661104868786
20
-0.439001334151499
30
0
41
1
10
44.5889482317791
20
-0.460583400565184
30
0
41
1
10
44.6344010774542
20
-0.505822410321201
30
0
41
1
10
44.6570150447161
20
-0.52949152352781
30
0
41
1
10
44.7246191168557
20
-0.603280528521964
30
0
41
1
10
44.7692052406492
20
-0.655883648260215
30
0
41
1
10
44.8134026500525
20
-0.711802763966119
30
0
0
SPLINE
5
198
100
AcDbEntity
8
1
62
256
6
ByLayer
370
18
48
1
60
0
100
AcDbSpline
70
4
71
3
72
8
73
4
40
0
40
0
40
0
40
0
40
1
40
1
40
1
40
1
41
1
10
44.8918289679408
20
-0.792359610136913
30
0
41
1
10
44.8656703642119
20
-0.765651975425982
30
0
41
1
10
44.8395297957302
20
-0.738798283712896
30
0
41
1
10
44.8134026500524
20
-0.711802763966034
30
0
0
SPLINE
5
199
100
AcDbEntity
8
1
62
256
6
ByLayer
370
18
48
1
60
0
100
AcDbSpline
70
4
71
3
72
12
73
8
40
0
40
0
40
0
40
0
40
0.250000000000007
40
0.250000000000007
40
0.500000000000014
40
0.500000000000014
40
1
40
1
40
1
40
1
41
1
10
44.8918289679408
20
-0.792359610136913
30
0
41
1
10
44.9146955739735
20
-0.809269079516127
30
0
41
1
10
44.9376628555051
20
-0.825001871195411
30
0
41
1
10
44.9838451450749
20
-0.854093054928484
30
0
41
1
10
45.0070729591347
20
-0.86745763072193
30
0
41
1
10
45.0770805096818
20
-0.903873016841516
30
0
41
1
10
45.1242000256019
20
-0.923292653512505
30
0
41
1
10
45.1718012883486
20
-0.937570935237659
30
0
0
SPLINE
5
19A
100
AcDbEntity
8
1
62
256
6
ByLayer
370
18
48
1
60
0
100
AcDbSpline
70
4
71
3
72
26
73
22
40
0
40
0
40
0
40
0
40
0.124999999999999
40
0.124999999999999
40
0.249999999999999
40
0.249999999999999
40
0.374999999999998
40
0.374999999999998
40
0.499999999999998
40
0.499999999999998
40
0.624999999999998
40
0.624999999999998
40
0.749999999999998
40
0.749999999999998
40
0.812499999999998
40
0.812499999999998
40
0.874999999999999
40
0.874999999999999
40
0.937499999999999
40
0.937499999999999
40
1
40
1
40
1
40
1
41
1
10
45.1718012883486
20
-0.937570935237659
30
0
41
1
10
45.1777344270001
20
-0.939350615445505
30
0
41
1
10
45.1846281626863
20
-0.942223153473265
30
0
41
1
10
45.1998350441442
20
-0.949558343680025
30
0
41
1
10
45.2082300559174
20
-0.954082224741967
30
0
41
1
10
45.2256474626648
20
-0.964208396706852
30
0
41
1
10
45.2347329227601
20
-0.969834483674475
30
0
41
1
10
45.2535836416342
20
-0.982165142602355
30
0
41
1
10
45.2634146230956
20
-0.988923922766759
30
0
41
1
10
45.2830665211814
20
-1.003158394623
30
0
41
1
10
45.2929552583921
20
-1.0106734075269
30
0
41
1
10
45.3128269015651
20
-1.02663782431071
30
0
41
1
10
45.3228941212806
20
-1.03516734606245
30
0
41
1
10
45.3374104522721
20
-1.04830846172325
30
0
41
1
10
45.3421715872966
20
-1.05276248861992
30
0
41
1
10
45.3515085988878
20
-1.06184723977123
30
0
41
1
10
45.3561149153365
20
-1.06651166604303
30
0
41
1
10
45.3648591719719
20
-1.07580750312746
30
0
41
1
10
45.3690158563028
20
-1.08045405118244
30
0
41
1
10
45.3768252821699
20
-1.08974354803078
30
0
41
1
10
45.3804985660479
20
-1.09441622434034
30
0
41
1
10
45.3837692436584
20
-1.09896249143043
30
0
0
SPLINE
5
19B
100
AcDbEntity
8
1
62
256
6
ByLayer
370
18
48
1
60
0
100
AcDbSpline
70
4
71
3
72
10
73
6
40
0
40
0
40
0
40
0
40
0.5
40
0.5
40
1
40
1
40
1
40
1
41
1
10
45.3837692436584
20
-1.09896249143017
30
0
41
1
10
45.4283396447536
20
-1.16091569251657
30
0
41
1
10
45.4724606471335
20
-1.22550386116834
30
0
41
1
10
45.5600794347691
20
-1.35969919493834
30
0
41
1
10
45.6034278838229
20
-1.42906725724708
30
0
41
1
10
45.6463888841704
20
-1.50047191861111
30
0
0
SPLINE
5
19C
100
AcDbEntity
8
1
62
256
6
ByLayer
370
18
48
1
60
0
100
AcDbSpline
70
4
71
3
72
8
73
4
40
0
40
0
40
0
40
0
40
1
40
1
40
1
40
1
41
1
10
45.6463888841705
20
-1.50047191861111
30
0
41
1
10
45.681486884849
20
-1.52708230404988
30
0
41
1
10
45.7166131846318
20
-1.55293262479583
30
0
41
1
10
45.7517726100837
20
-1.5780327078464
30
0
0
SPLINE
5
19D
100
AcDbEntity
8
1
62
256
6
ByLayer
370
18
48
1
60
0
100
AcDbSpline
70
4
71
3
72
12
73
8
40
0
40
0
40
0
40
0
40
0.249999999999993
40
0.249999999999993
40
0.499999999999985
40
0.499999999999985
40
1
40
1
40
1
40
1
41
1
10
45.7517726100837
20
-1.57803270784646
30
0
41
1
10
45.7730947187487
20
-1.57692503963506
30
0
41
1
10
45.7945060176
20
-1.57477547902758
30
0
41
1
10
45.8375428657131
20
-1.5683814876148
30
0
41
1
10
45.8591750460793
20
-1.56413571812817
30
0
41
1
10
45.9243265211792
20
-1.54824930688716
30
0
41
1
10
45.9681384387186
20
-1.53346588723431
30
0
41
1
10
46.0123959966184
20
-1.51423787123184
30
0
0
SPLINE
5
19E
100
AcDbEntity
8
1
62
256
6
ByLayer
370
18
48
1
60
0
100
AcDbSpline
70
4
71
3
72
26
73
22
40
0
40
0
40
0
40
0
40
0.125
40
0.125
40
0.250000000000001
40
0.250000000000001
40
0.375000000000001
40
0.375000000000001
40
0.500000000000001
40
0.500000000000001
40
0.625000000000002
40
0.625000000000002
40
0.750000000000002
40
0.750000000000002
40
0.812500000000001
40
0.812500000000001
40
0.875000000000001
40
0.875000000000001
40
0.9375
40
0.9375
40
1
40
1
40
1
40
1
41
1
10
46.0123959966184
20
-1.51423787123187
30
0
41
1
10
46.0183247969533
20
-1.51166206106234
30
0
41
1
10
46.025212667061
20
-1.51046947635518
30
0
41
1
10
46.0404067425643
20
-1.51009914720475
30
0
41
1
10
46.0487953168853
20
-1.51096502126001
30
0
41
1
10
46.066201786056
20
-1.51440658860153
30
0
41
1
10
46.0752821489551
20
-1.51697094197445
30
0
41
1
10
46.0941268418906
20
-1.5236954500287
30
0
41
1
10
46.1039575454063
20
-1.52790023621378
30
0
41
1
10
46.1236147832282
20
-1.53772546542063
30
0
41
1
10
46.133509184529
20
-1.54335989607006
30
0
41
1
10
46.1533999601165
20
-1.55627690030735
30
0
41
1
10
46.1634823393949
20
-1.56363704885095
30
0
41
1
10
46.1780075552704
20
-1.57577165609652
30
0
41
1
10
46.1827695225165
20
-1.58001156209335
30
0
41
1
10
46.1921034169547
20
-1.58894483968262
30
0
41
1
10
46.1967063416611
20
-1.59367442640408
30
0
41
1
10
46.2054427839241
20
-1.60342332223237
30
0
41
1
10
46.2095941421297
20
-1.60845403462514
30
0
41
1
10
46.2173914172685
20
-1.61887947348686
30
0
41
1
10
46.2210583615741
20
-1.62431179036088
30
0
41
1
10
46.2243245372238
20
-1.62982706081246
30
0
0
SPLINE
5
19F
100
AcDbEntity
8
1
62
256
6
ByLayer
370
18
48
1
60
0
100
AcDbSpline
70
4
71
3
72
10
73
6
40
0
40
0
40
0
40
0
40
0.5
40
0.5
40
1
40
1
40
1
40
1
41
1
10
46.2243245372237
20
-1.62982706081232
30
0
41
1
10
46.255354293775
20
-1.68222396709825
30
0
41
1
10
46.2861654248335
20
-1.73521981244227
30
0
41
1
10
46.3474357662869
20
-1.84236329006478
30
0
41
1
10
46.377924042025
20
-1.89655339480379
30
0
41
1
10
46.4081658349319
20
-1.95106712602254
30
0
0
SPLINE
5
1A0
100
AcDbEntity
8
1
62
256
6
ByLayer
370
18
48
1
60
0
100
AcDbSpline
70
4
71
3
72
8
73
4
40
0
40
0
40
0
40
0
40
1
40
1
40
1
40
1
41
1
10
46.408165834932
20
-1.95106712602254
30
0
41
1
10
46.5031930066214
20
-1.99028881926392
30
0
41
1
10
46.5978124225326
20
-2.0228776014981
30
0
41
1
10
46.692399038883
20
-2.04927306513176
30
0
0
SPLINE
5
1A1
100
AcDbEntity
8
1
62
256
6
ByLayer
370
18
48
1
60
0
100
AcDbSpline
70
4
71
3
72
8
73
4
40
0
40
0
40
0
40
0
40
1
40
1
40
1
40
1
41
1
10
46.692399038883
20
-2.04927306513173
30
0
41
1
10
46.7453017918373
20
-2.00036878746496
30
0
41
1
10
46.7987961809489
20
-1.94578615219282
30
0
41
1
10
46.852997518401
20
-1.88555401755892
30
0
0
SPLINE
5
1A2
100
AcDbEntity
8
1
62
256
6
ByLayer
370
18
48
1
60
0
100
AcDbSpline
70
4
71
3
72
26
73
22
40
0
40
0
40
0
40
0
40
0.124999999999975
40
0.124999999999975
40
0.24999999999995
40
0.24999999999995
40
0.374999999999925
40
0.374999999999925
40
0.4999999999999
40
0.4999999999999
40
0.624999999999875
40
0.624999999999875
40
0.74999999999985
40
0.74999999999985
40
0.812499999999888
40
0.812499999999888
40
0.874999999999925
40
0.874999999999925
40
0.937499999999962
40
0.937499999999962
40
1
40
1
40
1
40
1
41
1
10
46.852997518401
20
-1.88555401755894
30
0
41
1
10
46.8589274227948
20
-1.87896431301286
30
0
41
1
10
46.8658184273258
20
-1.8738606210882
30
0
41
1
10
46.8810227417956
20
-1.86582481751069
30
0
41
1
10
46.8894192769856
20
-1.86291238406449
30
0
41
1
10
46.9068418100695
20
-1.85920622092496
30
0
41
1
10
46.9159303004427
20
-1.8583674222636
30
0
41
1
10
46.9347904676325
20
-1.85859788918722
30
0
41
1
10
46.9446269161971
20
-1.85969606160361
30
0
41
1
10
46.9642890166223
20
-1.86382581129635
30
0
41
1
10
46.9741839733895
20
-1.86684452792915
30
0
41
1
10
46.9940718495281
20
-1.87502948870886
30
0
41
1
10
47.0041455439226
20
-1.88025874741089
30
0
41
1
10
47.018652150581
20
-1.88978501584964
30
0
41
1
10
47.0234079448816
20
-1.89324890640967
30
0
41
1
10
47.0327293998141
20
-1.90084175394583
30
0
41
1
10
47.0373252581427
20
-1.90500391995252
30
0
41
1
10
47.0460458393924
20
-1.91389376969366
30
0
41
1
10
47.0501898293961
20
-1.91863001006158
30
0
41
1
10
47.0579739346529
20
-1.92878258480783
30
0
41
1
10
47.0616348549929
20
-1.93423842044564
30
0
41
1
10
47.0648964215222
20
-1.93997138655888
30
0
0
SPLINE
5
1A3
100
AcDbEntity
8
1
62
256
6
ByLayer
370
18
48
1
60
0
100
AcDbSpline
70
4
71
3
72
8
73
4
40
0
40
0
40
0
40
0
40
1
40
1
40
1
40
1
41
1
10
47.0648964215221
20
-1.93997138655882
30
0
41
1
10
47.1005703762902
20
-2.00267670683169
30
0
41
1
10
47.1359588971059
20
-2.06518424315522
30
0
41
1
10
47.1711293382224
20
-2.12745632913624
30
0
0
SPLINE
5
1A4
100
AcDbEntity
8
1
62
256
6
ByLayer
370
18
48
1
60
0
100
AcDbSpline
70
4
71
3
72
13
73
9
40
0
40
0
40
0
40
0
40
0.499999999999977
40
0.499999999999977
40
0.624999999999983
40
0.624999999999983
40
0.749999999999989
40
1
40
1
40
1
40
1
41
1
10
47.1711293382228
20
-2.12745632913626
30
0
41
1
10
47.2469736649118
20
-2.13131681573566
30
0
41
1
10
47.3232174329076
20
-2.13123215618648
30
0
41
1
10
47.419537422447
20
-2.12571032546728
30
0
41
1
10
47.4388713557555
20
-2.12433176636367
30
0
41
1
10
47.4774835676363
20
-2.12103946164734
30
0
41
1
10
47.5353762828938
20
-2.1152978824037
30
0
41
1
10
47.5932147652636
20
-2.10717353142226
30
0
41
1
10
47.6317681135004
20
-2.10073635486651
30
0
0
SPLINE
5
1A5
100
AcDbEntity
8
1
62
256
6
ByLayer
370
18
48
1
60
0
100
AcDbSpline
70
4
71
3
72
8
73
4
40
0
40
0
40
0
40
0
40
1
40
1
40
1
40
1
41
1
10
47.6317681135006
20
-2.10073635486631
30
0
41
1
10
47.6522712543298
20
-2.06805973254572
30
0
41
1
10
47.6728629566153
20
-2.03483634746263
30
0
41
1
10
47.6935678655205
20
-2.00105184043699
30
0
0
SPLINE
5
1A6
100
AcDbEntity
8
1
62
256
6
ByLayer
370
18
48
1
60
0
100
AcDbSpline
70
4
71
3
72
26
73
22
40
0
40
0
40
0
40
0
40
0.125
40
0.125
40
0.25
40
0.25
40
0.375000000000001
40
0.375000000000001
40
0.500000000000001
40
0.500000000000001
40
0.625000000000001
40
0.625000000000001
40
0.750000000000001
40
0.750000000000001
40
0.812500000000001
40
0.812500000000001
40
0.875
40
0.875
40
0.9375
40
0.9375
40
1
40
1
40
1
40
1
41
1
10
47.6935678655205
20
-2.00105184043699
30
0
41
1
10
47.6995072237833
20
-1.99136050144699
30
0
41
1
10
47.7064100242385
20
-1.9830628003119
30
0
41
1
10
47.7216372535022
20
-1.96850643597031
30
0
41
1
10
47.7300450016699
20
-1.96224105394654
30
0
41
1
10
47.7474848975275
20
-1.95194845756356
30
0
41
1
10
47.7565806528325
20
-1.94784864114041
30
0
41
1
10
47.7754504662597
20
-1.94160615513667
30
0
41
1
10
47.785288013989
20
-1.93947362509474
30
0
41
1
10
47.8049467252882
20
-1.93738980272789
30
0
41
1
10
47.8148377954808
20
-1.93740006446634
30
0
41
1
10
47.8347142128521
20
-1.93976631171202
30
0
41
1
10
47.8447779646178
20
-1.94216504774124
30
0
41
1
10
47.8592702674347
20
-1.94780257271088
30
0
41
1
10
47.8640216166827
20
-1.95002356486154
30
0
41
1
10
47.873334716476
20
-1.9552498802316
30
0
41
1
10
47.8779264667342
20
-1.95828144162559
30
0
41
1
10
47.8866400699997
20
-1.9651103600979
30
0
41
1
10
47.8907812518826
20
-1.9689108030023
30
0
41
1
10
47.898561086441
20
-1.9774141837101
30
0
41
1
10
47.9022206892944
20
-1.98215351079165
30
0
41
1
10
47.9054821514285
20
-1.98732715265913
30
0
0
SPLINE
5
1A7
100
AcDbEntity
8
1
62
256
6
ByLayer
370
18
48
1
60
0
100
AcDbSpline
70
4
71
3
72
8
73
4
40
0
40
0
40
0
40
0
40
1
40
1
40
1
40
1
41
1
10
47.9054821514285
20
-1.98732715265916
30
0
41
1
10
47.9145797216307
20
-2.0017585849908
30
0
41
1
10
47.9236584823593
20
-2.01611314281652
30
0
41
1
10
47.932718762505
20
-2.03038762753408
30
0
0
SPLINE
5
1A8
100
AcDbEntity
8
1
62
256
6
ByLayer
370
18
48
1
60
0
100
AcDbSpline
70
4
71
3
72
12
73
8
40
0
40
0
40
0
40
0
40
0.25
40
0.25
40
0.5
40
0.5
40
1
40
1
40
1
40
1
41
1
10
47.932718762505
20
-2.03038762753408
30
0
41
1
10
47.9720898924781
20
-2.018625157418
30
0
41
1
10
48.0115075078867
20
-2.00586568972645
30
0
41
1
10
48.0904403351376
20
-1.97836244449621
30
0
41
1
10
48.1300954556871
20
-1.96360714062843
30
0
41
1
10
48.2496315474694
20
-1.91640189049929
30
0
41
1
10
48.3299512215083
20
-1.88102191059576
30
0
41
1
10
48.4110557608034
20
-1.84177196549965
30
0
0
SPLINE
5
1A9
100
AcDbEntity
8
1
62
256
6
ByLayer
370
18
48
1
60
0
100
AcDbSpline
70
4
71
3
72
16
73
12
40
0
40
0
40
0
40
0
40
0.249999999999989
40
0.249999999999989
40
0.499999999999978
40
0.499999999999978
40
0.749999999999967
40
0.749999999999967
40
0.874999999999983
40
0.874999999999983
40
1
40
1
40
1
40
1
41
1
10
48.7499999999993
20
-1.41928747587724
30
0
41
1
10
48.7196826412244
20
-1.45431351945368
30
0
41
1
10
48.6898575371406
20
-1.48987610867434
30
0
41
1
10
48.6307849832399
20
-1.56166585180466
30
0
41
1
10
48.6020069614843
20
-1.59735959464496
30
0
41
1
10
48.5456670734291
20
-1.66822110255376
30
0
41
1
10
48.5181036611255
20
-1.70338902514934
30
0
41
1
10
48.4774717825075
20
-1.75566149103693
30
0
41
1
10
48.4640480360675
20
-1.77300572772435
30
0
41
1
10
48.4374156773125
20
-1.80752011975233
30
0
41
1
10
48.4242247495978
20
-1.82468731141239
30
0
41
1
10
48.4110557608028
20
-1.84177196549283
30
0
0
SPLINE
5
1AA
100
AcDbEntity
8
1
62
256
6
ByLayer
370
18
48
1
60
0
100
AcDbSpline
70
4
71
3
72
30
73
26
40
0
40
0
40
0
40
0
40
0.234522532506823
40
0.234522532506823
40
0.362102110422353
40
0.362102110422353
40
0.425891899380119
40
0.425891899380119
40
0.457786793859001
40
0.457786793859001
40
0.489681688337884
40
0.489681688337884
40
0.553471477295649
40
0.553471477295649
40
0.617261266253413
40
0.617261266253413
40
0.744840844168943
40
0.744840844168943
40
0.808630633126707
40
0.808630633126707
40
0.84052552760559
40
0.84052552760559
40
0.872420422084472
40
0.872420422084472
40
1
40
1
40
1
40
1
41
1
10
48.75
20
-0.90653947587893
30
0
41
1
10
48.75
20
-0.9309560070906
30
0
41
1
10
48.7499999999999
20
-0.956490825645176
30
0
41
1
10
48.75
20
-0.997657819043752
30
0
41
1
10
48.75
20
-1.01249685732409
30
0
41
1
10
48.75
20
-1.03527545471252
30
0
41
1
10
48.7500000000001
20
-1.04295549137566
30
0
41
1
10
48.75
20
-1.05460724020665
30
0
41
1
10
48.75
20
-1.05849822931393
30
0
41
1
10
48.75
20
-1.06629693303603
30
0
41
1
10
48.75
20
-1.07025949319262
30
0
41
1
10
48.75
20
-1.08281991452009
30
0
41
1
10
48.75
20
-1.09205066354099
30
0
41
1
10
48.75
20
-1.1120939941448
30
0
41
1
10
48.7500000000001
20
-1.122887379421
30
0
41
1
10
48.7500000000001
20
-1.15751248766881
30
0
41
1
10
48.75
20
-1.18360070712956
30
0
41
1
10
48.7499999999999
20
-1.22727095814452
30
0
41
1
10
48.7499999999999
20
-1.24258576037755
30
0
41
1
10
48.75
20
-1.26672095668891
30
0
41
1
10
48.75
20
-1.27495709909718
30
0
41
1
10
48.75
20
-1.29168271148995
30
0
41
1
10
48.75
20
-1.30018886310614
30
0
41
1
10
48.75
20
-1.34342353242585
30
0
41
1
10
48.75
20
-1.38025022128249
30
0
41
1
10
48.75
20
-1.4192874758761
30
0
0
SPLINE
5
1AB
100
AcDbEntity
8
1
62
256
6
ByLayer
370
18
48
1
60
0
100
AcDbSpline
70
4
71
3
72
16
73
12
40
0
40
0
40
0
40
0
40
0.125
40
0.125
40
0.250000000000001
40
0.250000000000001
40
0.5
40
0.5
40
0.75
40
0.75
40
1
40
1
40
1
40
1
41
1
10
48.4249390668025
20
-0.799380021602104
30
0
41
1
10
48.4388400709237
20
-0.80115369120395
30
0
41
1
10
48.452743767844
20
-0.80283547201978
30
0
41
1
10
48.480414778656
20
-0.806407445454767
30
0
41
1
10
48.4941988772388
20
-0.808248694232447
30
0
41
1
10
48.5354063735501
20
-0.813882434481002
30
0
41
1
10
48.5626894032709
20
-0.817772944394818
30
0
41
1
10
48.616881226872
20
-0.825662627798067
30
0
41
1
10
48.6437853334301
20
-0.829674375826386
30
0
41
1
10
48.6972072681733
20
-0.837678179685014
30
0
41
1
10
48.7237263701687
20
-0.841669126490785
30
0
41
1
10
48.75
20
-0.845689782105381
30
0
0
SPLINE
5
1AC
100
AcDbEntity
8
1
62
256
6
ByLayer
370
18
48
1
60
0
100
AcDbSpline
70
4
71
3
72
16
73
12
40
0
40
0
40
0
40
0
40
0.249999999999998
40
0.249999999999998
40
0.499999999999996
40
0.499999999999996
40
0.624999999999997
40
0.624999999999997
40
0.749999999999998
40
0.749999999999998
40
1
40
1
40
1
40
1
41
1
10
48.4249390668025
20
-0.799380021602104
30
0
41
1
10
48.4167559650629
20
-0.79359692066879
30
0
41
1
10
48.4085825117913
20
-0.788311771494904
30
0
41
1
10
48.3922831524933
20
-0.778873305076559
30
0
41
1
10
48.3840786262774
20
-0.77468920265747
30
0
41
1
10
48.3722970071664
20
-0.769697815330886
30
0
41
1
10
48.3684474533975
20
-0.768241253544772
30
0
41
1
10
48.3609264377234
20
-0.765796306419418
30
0
41
1
10
48.3572345889486
20
-0.764803618435394
30
0
41
1
10
48.3466209569835
20
-0.762690459672001
30
0
41
1
10
48.3402746978816
20
-0.762423655272102
30
0
41
1
10
48.3348763854129
20
-0.763655924601721
30
0
0
SPLINE
5
1AD
100
AcDbEntity
8
1
62
256
6
ByLayer
370
18
48
1
60
0
100
AcDbSpline
70
4
71
3
72
8
73
4
40
0
40
0
40
0
40
0
40
1
40
1
40
1
40
1
41
1
10
48.3348763854124
20
-0.763655924600357
30
0
41
1
10
48.3324424069916
20
-0.764211527295515
30
0
41
1
10
48.3300095375358
20
-0.76475373934511
30
0
41
1
10
48.327577756331
20
-0.765282603981433
30
0
0
SPLINE
5
1AE
100
AcDbEntity
8
1
62
256
6
ByLayer
370
18
48
1
60
0
100
AcDbSpline
70
4
71
3
72
12
73
8
40
0
40
0
40
0
40
0
40
0.499999999999978
40
0.499999999999978
40
0.749999999999989
40
0.749999999999989
40
1
40
1
40
1
40
1
41
1
10
48.327577756331
20
-0.765282603981461
30
0
41
1
10
48.236348565538
20
-0.702998061186122
30
0
41
1
10
48.1460585546482
20
-0.637121392216415
30
0
41
1
10
48.0113044664103
20
-0.533625137233486
30
0
41
1
10
47.9664829150114
20
-0.498369787618032
30
0
41
1
10
47.8770493918432
20
-0.426287297500011
30
0
41
1
10
47.8324329239648
20
-0.389465159787562
30
0
41
1
10
47.787854487701
20
-0.351923903826957
30
0
0
SPLINE
5
1AF
100
AcDbEntity
8
1
62
256
6
ByLayer
370
18
48
1
60
0
100
AcDbSpline
70
4
71
3
72
8
73
4
40
0
40
0
40
0
40
0
40
1
40
1
40
1
40
1
41
1
10
47.7878544877009
20
-0.351923903826986
30
0
41
1
10
47.7607471734201
20
-0.309263111064411
30
0
41
1
10
47.7335232948019
20
-0.267807483283803
30
0
41
1
10
47.706147478425
20
-0.227588847221114
30
0
0
SPLINE
5
1B0
100
AcDbEntity
8
1
62
256
6
ByLayer
370
18
48
1
60
0
100
AcDbSpline
70
4
71
3
72
28
73
24
40
0
40
0
40
0
40
0
40
0.125
40
0.125
40
0.25
40
0.25
40
0.375
40
0.375
40
0.5
40
0.5
40
0.625
40
0.625
40
0.6875
40
0.6875
40
0.75
40
0.75
40
0.8125
40
0.8125
40
0.875
40
0.875
40
0.9375
40
0.9375
40
1
40
1
40
1
40
1
41
1
10
47.7061474784245
20
-0.227588847220233
30
0
41
1
10
47.7003517250473
20
-0.219074131436798
30
0
41
1
10
47.6936343561986
20
-0.210309648856253
30
0
41
1
10
47.6788000660643
20
-0.192427670576734
30
0
41
1
10
47.6706106314224
20
-0.183247474020874
30
0
41
1
10
47.6535424730976
20
-0.16517678518116
30
0
41
1
10
47.6446086434565
20
-0.156214125959252
30
0
41
1
10
47.6260009714525
20
-0.138403486362478
30
0
41
1
10
47.6162403420952
20
-0.129484337932297
30
0
41
1
10
47.5966127538172
20
-0.112307983964485
30
0
41
1
10
47.5867002397088
20
-0.103999525967225
30
0
41
1
10
47.5716995788794
20
-0.0919702567063894
30
0
41
1
10
47.5666771295473
20
-0.0880334766001454
30
0
41
1
10
47.5565876223465
20
-0.0803197723183757
30
0
41
1
10
47.5515326919456
20
-0.0765535665958907
30
0
41
1
10
47.5416373621026
20
-0.0693871352339386
30
0
41
1
10
47.5367673385879
20
-0.0659638205985118
30
0
41
1
10
47.5272119530181
20
-0.05948077714487
30
0
41
1
10
47.5224901796558
20
-0.056398886251003
30
0
41
1
10
47.5135158483128
20
-0.0508269014442533
30
0
41
1
10
47.5092534742959
20
-0.0483273271772475
30
0
41
1
10
47.5012564659472
20
-0.0439993979341295
30
0
41
1
10
47.4975063244632
20
-0.0421667722633572
30
0
41
1
10
47.4941913962144
20
-0.0408014447568235
30
0
0
SPLINE
5
1B1
100
AcDbEntity
8
1
62
256
6
ByLayer
370
18
48
1
60
0
100
AcDbSpline
70
4
71
3
72
8
73
4
40
0
40
0
40
0
40
0
40
1
40
1
40
1
40
1
41
1
10
47.4941913962145
20
-0.0408014447583298
30
0
41
1
10
47.4505828349069
20
-0.0228402812567481
30
0
41
1
10
47.4073661153723
20
-0.0006853150885888
30
0
41
1
10
47.3644189714301
20
0.0254815067543461
30
0
0
SPLINE
5
1B2
100
AcDbEntity
8
1
62
256
6
ByLayer
370
18
48
1
60
0
100
AcDbSpline
70
4
71
3
72
8
73
4
40
0
40
0
40
0
40
0
40
1
40
1
40
1
40
1
41
1
10
47.36441897143
20
0.0254815067543177
30
0
41
1
10
47.2557855104445
20
0.127045659225388
30
0
41
1
10
47.1484199858061
20
0.23045260470667
30
0
41
1
10
47.0417877575351
20
0.335156438081157
30
0
0
SPLINE
5
1B3
100
AcDbEntity
8
1
62
256
6
ByLayer
370
18
48
1
60
0
100
AcDbSpline
70
4
71
3
72
8
73
4
40
0
40
0
40
0
40
0
40
1
40
1
40
1
40
1
41
1
10
47.0417877575351
20
0.335156438081157
30
0
41
1
10
46.9836692634902
20
0.400216568079827
30
0
41
1
10
46.9248966727903
20
0.458414867549607
30
0
41
1
10
46.8654767450672
20
0.508987395792474
30
0
0
SPLINE
5
1B4
100
AcDbEntity
8
1
62
256
6
ByLayer
370
18
48
1
60
0
100
AcDbSpline
70
4
71
3
72
28
73
24
40
0
40
0
40
0
40
0
40
0.124999999999961
40
0.124999999999961
40
0.249999999999922
40
0.249999999999922
40
0.374999999999884
40
0.374999999999884
40
0.499999999999845
40
0.499999999999845
40
0.624999999999806
40
0.624999999999806
40
0.687499999999838
40
0.687499999999838
40
0.749999999999871
40
0.749999999999871
40
0.812499999999903
40
0.812499999999903
40
0.874999999999935
40
0.874999999999935
40
0.937499999999968
40
0.937499999999968
40
1
40
1
40
1
40
1
41
1
10
46.8654767450672
20
0.508987395792474
30
0
41
1
10
46.859683714063
20
0.513917866684892
30
0
41
1
10
46.8529703036055
20
0.51956016038443
30
0
41
1
10
46.8381455083071
20
0.531886826100333
30
0
41
1
10
46.8299616706876
20
0.538630392042478
30
0
41
1
10
46.8129030672382
20
0.552601399802199
30
0
41
1
10
46.8039732808158
20
0.559875912314197
30
0
41
1
10
46.7853729803209
20
0.575001865309474
30
0
41
1
10
46.7756149478232
20
0.582923183130418
30
0
41
1
10
46.7559870836772
20
0.598904800582005
30
0
41
1
10
46.7460720967138
20
0.607001390881237
30
0
41
1
10
46.7310659768824
20
0.619370917719806
30
0
41
1
10
46.7260414463139
20
0.623531890737439
30
0
41
1
10
46.7159480157498
20
0.631948803259348
30
0
41
1
10
46.7108902810763
20
0.636196105312365
30
0
41
1
10
46.7009906999408
20
0.644589261540688
30
0
41
1
10
46.6961189679032
20
0.648759871594791
30
0
41
1
10
46.6865611789728
20
0.657047555413556
30
0
41
1
10
46.6818385522621
20
0.661197424107883
30
0
41
1
10
46.672862854082
20
0.66922333719495
30
0
41
1
10
46.6686006640292
20
0.673106139656397
30
0
41
1
10
46.660605475746
20
0.680567555779163
30
0
41
1
10
46.6568564953197
20
0.684163306990968
30
0
41
1
10
46.6535425509311
20
0.687461221564746
30
0
0
SPLINE
5
1B5
100
AcDbEntity
8
1
62
256
6
ByLayer
370
18
48
1
60
0
100
AcDbSpline
70
4
71
3
72
12
73
8
40
0
40
0
40
0
40
0
40
0.500000000000022
40
0.500000000000022
40
0.750000000000011
40
0.750000000000011
40
1
40
1
40
1
40
1
41
1
10
46.6535425509312
20
0.687461221563467
30
0
41
1
10
46.6130424805541
20
0.727765389851612
30
0
41
1
10
46.5728846142349
20
0.771153450740513
30
0
41
1
10
46.5130055151703
20
0.840584988630752
30
0
41
1
10
46.4931132416542
20
0.86444700812774
30
0
41
1
10
46.453535632873
20
0.913444617163691
30
0
41
1
10
46.4338363227269
20
0.938596257300503
30
0
41
1
10
46.4142127782449
20
0.964382324957995
30
0
0
SPLINE
5
1B6
100
AcDbEntity
8
1
62
256
6
ByLayer
370
18
48
1
60
0
100
AcDbSpline
70
4
71
3
72
8
73
4
40
0
40
0
40
0
40
0
40
1
40
1
40
1
40
1
41
1
10
46.4142127782449
20
0.964382324958052
30
0
41
1
10
46.372454332623
20
1.00650610873873
30
0
41
1
10
46.330911224954
20
1.04835516620494
30
0
41
1
10
46.2895411006864
20
1.08989248040797
30
0
0
SPLINE
5
1B7
100
AcDbEntity
8
1
62
256
6
ByLayer
370
18
48
1
60
0
100
AcDbSpline
70
4
71
3
72
12
73
8
40
0
40
0
40
0
40
0
40
0.25
40
0.25
40
0.5
40
0.5
40
1
40
1
40
1
40
1
41
1
10
46.2895411006855
20
1.08989248040911
30
0
41
1
10
46.2678552503387
20
1.10156782971777
30
0
41
1
10
46.2460861052231
20
1.11215873983536
30
0
41
1
10
46.2023418019464
20
1.13113142555184
30
0
41
1
10
46.1803601727052
20
1.13951427905059
30
0
41
1
10
46.1141757285336
20
1.16122358159689
30
0
41
1
10
46.0696883732316
20
1.17111966884812
30
0
41
1
10
46.0248129412474
20
1.17624218674558
30
0
0
SPLINE
5
1B8
100
AcDbEntity
8
1
62
256
6
ByLayer
370
18
48
1
60
0
100
AcDbSpline
70
4
71
3
72
28
73
24
40
0
40
0
40
0
40
0
40
0.124999999999961
40
0.124999999999961
40
0.249999999999922
40
0.249999999999922
40
0.374999999999883
40
0.374999999999883
40
0.499999999999844
40
0.499999999999844
40
0.624999999999805
40
0.624999999999805
40
0.687499999999838
40
0.687499999999838
40
0.74999999999987
40
0.74999999999987
40
0.812499999999903
40
0.812499999999903
40
0.874999999999935
40
0.874999999999935
40
0.937499999999967
40
0.937499999999967
40
1
40
1
40
1
40
1
41
1
10
46.0248129412474
20
1.17624218674519
30
0
41
1
10
46.0190183549754
20
1.17690363713297
30
0
41
1
10
46.0123021046661
20
1.17864153886938
30
0
41
1
10
45.9974690550002
20
1.18370791643537
30
0
41
1
10
45.9892795173235
20
1.18708405154959
30
0
41
1
10
45.9722081563472
20
1.19503255593745
30
0
41
1
10
45.9632712661413
20
1.1996205476147
30
0
41
1
10
45.9446579626147
20
1.20999303451328
30
0
41
1
10
45.9348948723147
20
1.21583674754228
30
0
41
1
10
45.9152625187914
20
1.22845659680877
30
0
41
1
10
45.9053471710847
20
1.23525017239257
30
0
41
1
10
45.8903437434354
20
1.24630062445499
30
0
41
1
10
45.8853207161733
20
1.25012887957033
30
0
41
1
10
45.8752313994929
20
1.25812381746678
30
0
41
1
10
45.8701786296058
20
1.26228213934971
30
0
41
1
10
45.8602876327847
20
1.27077880076666
30
0
41
1
10
45.8554200707196
20
1.27513957859455
30
0
41
1
10
45.8458700252131
20
1.28412635408614
30
0
41
1
10
45.8411512524156
20
1.28879122557504
30
0
41
1
10
45.8321833059078
20
1.29820016882044
30
0
41
1
10
45.8279242172471
20
1.30294870676292
30
0
41
1
10
45.8199335700469
20
1.31254936423261
30
0
41
1
10
45.8161862230323
20
1.31742868002027
30
0
41
1
10
45.8128731711822
20
1.32221854932095
30
0
0
SPLINE
5
1B9
100
AcDbEntity
8
1
62
256
6
ByLayer
370
18
48
1
60
0
100
AcDbSpline
70
4
71
3
72
10
73
6
40
0
40
0
40
0
40
0
40
0.5
40
0.5
40
1
40
1
40
1
40
1
41
1
10
45.8128731711822
20
1.32221854931996
30
0
41
1
10
45.7672494509241
20
1.38817938148793
30
0
41
1
10
45.7220636913778
20
1.45675189141508
30
0
41
1
10
45.6322768670344
20
1.59871590841726
30
0
41
1
10
45.5878746100553
20
1.67179585825139
30
0
41
1
10
45.5438467141573
20
1.74674245288338
30
0
0
SPLINE
5
1BA
100
AcDbEntity
8
1
62
256
6
ByLayer
370
18
48
1
60
0
100
AcDbSpline
70
4
71
3
72
8
73
4
40
0
40
0
40
0
40
0
40
1
40
1
40
1
40
1
41
1
10
45.4653771875347
20
1.80530704564592
30
0
41
1
10
45.4915455754318
20
1.78613486901082
30
0
41
1
10
45.517698287206
20
1.76661064417564
30
0
41
1
10
45.5438467141573
20
1.7467424528833
30
0
0
SPLINE
5
1BB
100
AcDbEntity
8
1
62
256
6
ByLayer
370
18
48
1
60
0
100
AcDbSpline
70
4
71
3
72
12
73
8
40
0
40
0
40
0
40
0
40
0.25
40
0.25
40
0.5
40
0.5
40
1
40
1
40
1
40
1
41
1
10
45.4653771875347
20
1.80530704564592
30
0
41
1
10
45.4423687834278
20
1.80018048635384
30
0
41
1
10
45.4192694609801
20
1.79381972340619
30
0
41
1
10
45.3728401080749
20
1.77858771546886
30
0
41
1
10
45.3494979337207
20
1.76971222963303
30
0
41
1
10
45.2791742715684
20
1.7392710424283
30
0
41
1
10
45.2318701645809
20
1.71389503282216
30
0
41
1
10
45.1841457871588
20
1.68349587473625
30
0
0
SPLINE
5
1BC
100
AcDbEntity
8
1
62
256
6
ByLayer
370
18
48
1
60
0
100
AcDbSpline
70
4
71
3
72
28
73
24
40
0
40
0
40
0
40
0
40
0.125000000000039
40
0.125000000000039
40
0.250000000000077
40
0.250000000000077
40
0.375000000000116
40
0.375000000000116
40
0.500000000000155
40
0.500000000000155
40
0.625000000000194
40
0.625000000000194
40
0.687500000000161
40
0.687500000000161
40
0.750000000000129
40
0.750000000000129
40
0.812500000000097
40
0.812500000000097
40
0.875000000000065
40
0.875000000000065
40
0.937500000000032
40
0.937500000000032
40
1
40
1
40
1
40
1
41
1
10
45.1841457871589
20
1.68349587473625
30
0
41
1
10
45.1783479830944
20
1.67980282787363
30
0
41
1
10
45.1716274639368
20
1.67740739181045
30
0
41
1
10
45.1567855668349
20
1.67454335677653
30
0
41
1
10
45.1485913757158
20
1.67410423892397
30
0
41
1
10
45.1315129677568
20
1.6749741173131
30
0
41
1
10
45.1225733046791
20
1.67626510556235
30
0
41
1
10
45.1039569520264
20
1.68049842072429
30
0
41
1
10
45.0941940282666
20
1.68348120107569
30
0
41
1
10
45.0745648614927
20
1.69104089768595
30
0
41
1
10
45.0646520300614
20
1.69561353289933
30
0
41
1
10
45.0496533592188
20
1.70384548118179
30
0
41
1
10
45.0446320598674
20
1.70682050623836
30
0
41
1
10
45.0345462441766
20
1.71330435818294
30
0
41
1
10
45.0294960774672
20
1.71680776355413
30
0
41
1
10
45.0196090747395
20
1.72424895513126
30
0
41
1
10
45.0147431249938
20
1.72820412443934
30
0
41
1
10
45.0051955601053
20
1.73666084370851
30
0
41
1
10
45.0004777675147
20
1.74120201601861
30
0
41
1
10
44.9915117246388
20
1.75070490198999
30
0
41
1
10
44.9872530992781
20
1.75566796267168
30
0
41
1
10
44.9792625711962
20
1.76609076104941
30
0
41
1
10
44.9755150820084
20
1.77158394097552
30
0
41
1
10
44.9722017825419
20
1.77720821561712
30
0
0
SPLINE
5
1BD
100
AcDbEntity
8
1
62
256
6
ByLayer
370
18
48
1
60
0
100
AcDbSpline
70
4
71
3
72
10
73
6
40
0
40
0
40
0
40
0
40
0.5
40
0.5
40
1
40
1
40
1
40
1
41
1
10
44.972201782542
20
1.77720821561647
30
0
41
1
10
44.926576033359
20
1.85465721976627
30
0
41
1
10
44.8813858884125
20
1.93308638104634
30
0
41
1
10
44.7915915437313
20
2.09167445707197
30
0
41
1
10
44.7471866159063
20
2.17148220622534
30
0
41
1
10
44.7031582318422
20
2.25163415615643
30
0
0
SPLINE
5
1BE
100
AcDbEntity
8
1
62
256
6
ByLayer
370
18
48
1
60
0
100
AcDbSpline
70
4
71
3
72
8
73
4
40
0
40
0
40
0
40
0
40
1
40
1
40
1
40
1
41
1
10
44.6247327963847
20
2.28386787115087
30
0
41
1
10
44.6508928152412
20
2.27357578157773
30
0
41
1
10
44.6770275938016
20
2.26282852231375
30
0
41
1
10
44.7031582318422
20
2.25163415615628
30
0
0
SPLINE
5
1BF
100
AcDbEntity
8
1
62
256
6
ByLayer
370
18
48
1
60
0
100
AcDbSpline
70
4
71
3
72
12
73
8
40
0
40
0
40
0
40
0
40
0.25
40
0.25
40
0.5
40
0.5
40
1
40
1
40
1
40
1
41
1
10
44.6247327963847
20
2.28386787115087
30
0
41
1
10
44.6017202234125
20
2.26129677683403
30
0
41
1
10
44.5786105069986
20
2.23763755445668
30
0
41
1
10
44.5321623579586
20
2.18815880055709
30
0
41
1
10
44.5088123212109
20
2.16232661366581
30
0
41
1
10
44.4384820385811
20
2.08170101496583
30
0
41
1
10
44.391190301352
20
2.02373144929118
30
0
41
1
10
44.3434804949439
20
1.96172426916928
30
0
0
SPLINE
5
1C0
100
AcDbEntity
8
1
62
256
6
ByLayer
370
18
48
1
60
0
100
AcDbSpline
70
4
71
3
72
28
73
24
40
0
40
0
40
0
40
0
40
0.124999999999961
40
0.124999999999961
40
0.249999999999922
40
0.249999999999922
40
0.374999999999883
40
0.374999999999883
40
0.499999999999844
40
0.499999999999844
40
0.624999999999804
40
0.624999999999804
40
0.687499999999836
40
0.687499999999836
40
0.749999999999868
40
0.749999999999868
40
0.8124999999999
40
0.8124999999999
40
0.874999999999931
40
0.874999999999931
40
0.937499999999966
40
0.937499999999966
40
1
40
1
40
1
40
1
41
1
10
44.343480494944
20
1.96172426916914
30
0
41
1
10
44.33768157111
20
1.95418756043449
30
0
41
1
10
44.3309601075186
20
1.9479917934635
30
0
41
1
10
44.3161172472184
20
1.93759741474599
30
0
41
1
10
44.307923139552
20
1.93340608740073
30
0
41
1
10
44.2908458090474
20
1.92708132589587
30
0
41
1
10
44.2819070209321
20
1.9248989194252
30
0
41
1
10
44.263292708326
20
1.92241173005226
30
0
41
1
10
44.2535309321511
20
1.92212325186813
30
0
41
1
10
44.2339032740073
20
1.92358271156957
30
0
41
1
10
44.2239910589129
20
1.92530508656574
30
0
41
1
10
44.2089928430867
20
1.92958656410295
30
0
41
1
10
44.2039716233431
20
1.9312994247056
30
0
41
1
10
44.1938857851868
20
1.93538159981676
30
0
41
1
10
44.1888346638475
20
1.93775025399006
30
0
41
1
10
44.178945970825
20
1.94311695220321
30
0
41
1
10
44.1740791369289
20
1.94612518139979
30
0
41
1
10
44.1645298846446
20
1.95289484407292
30
0
41
1
10
44.1598112027336
20
1.9566913486729
30
0
41
1
10
44.1508429246949
20
1.96499051662636
30
0
41
1
10
44.1465833237684
20
1.96949042542966
30
0
41
1
10
44.1385911860162
20
1.97931202642181
30
0
41
1
10
44.1348429004228
20
1.98466927617557
30
0
41
1
10
44.1315289044209
20
1.9903606555882
30
0
0
SPLINE
5
1C1
100
AcDbEntity
8
1
62
256
6
ByLayer
370
18
48
1
60
0
100
AcDbSpline
70
4
71
3
72
10
73
6
40
0
40
0
40
0
40
0
40
0.5
40
0.5
40
1
40
1
40
1
40
1
41
1
10
44.1315289044209
20
1.99036065558806
30
0
41
1
10
44.0859002059482
20
2.06872231775023
30
0
41
1
10
44.0407067117211
20
2.14631718677327
30
0
41
1
10
43.950910042027
20
2.29990002169444
30
0
41
1
10
43.9065074059132
20
2.37554180939438
30
0
41
1
10
43.8624768383933
20
2.44996068316598
30
0
0
SPLINE
5
1C2
100
AcDbEntity
8
1
62
256
6
ByLayer
370
18
48
1
60
0
100
AcDbSpline
70
4
71
3
72
8
73
4
40
0
40
0
40
0
40
0
40
1
40
1
40
1
40
1
41
1
10
43.7840430452846
20
2.45150761871133
30
0
41
1
10
43.8102011819014
20
2.45148119620492
30
0
41
1
10
43.8363446547375
20
2.45096524228669
30
0
41
1
10
43.8624768383933
20
2.44996068316587
30
0
0
SPLINE
5
1C3
100
AcDbEntity
8
1
62
256
6
ByLayer
370
18
48
1
60
0
100
AcDbSpline
70
4
71
3
72
12
73
8
40
0
40
0
40
0
40
0
40
0.25
40
0.25
40
0.499999999999999
40
0.499999999999999
40
1
40
1
40
1
40
1
41
1
10
43.7840430452846
20
2.45150761871133
30
0
41
1
10
43.7610219565926
20
2.41456936497144
30
0
41
1
10
43.7379102403113
20
2.37687229726427
30
0
41
1
10
43.6914622729278
20
2.29995976934657
30
0
41
1
10
43.6681136143014
20
2.26072282483244
30
0
41
1
10
43.5977900378419
20
2.14093790721657
30
0
41
1
10
43.5505083324903
20
2.05825540837975
30
0
41
1
10
43.5028112153572
20
1.97307818392073
30
0
0
SPLINE
5
1C4
100
AcDbEntity
8
1
62
256
6
ByLayer
370
18
48
1
60
0
100
AcDbSpline
70
4
71
3
72
28
73
24
40
0
40
0
40
0
40
0
40
0.12500000000004
40
0.12500000000004
40
0.250000000000078
40
0.250000000000078
40
0.375000000000117
40
0.375000000000117
40
0.500000000000155
40
0.500000000000155
40
0.625000000000194
40
0.625000000000194
40
0.687500000000161
40
0.687500000000161
40
0.750000000000129
40
0.750000000000129
40
0.812500000000097
40
0.812500000000097
40
0.875000000000065
40
0.875000000000065
40
0.937500000000032
40
0.937500000000032
40
1
40
1
40
1
40
1
41
1
10
43.5028112153572
20
1.97307818392076
30
0
41
1
10
43.4970127875454
20
1.96272338646287
30
0
41
1
10
43.4902925841035
20
1.95356925788471
30
0
41
1
10
43.4754538711518
20
1.93705510920896
30
0
41
1
10
43.4672627845038
20
1.92967918742488
30
0
41
1
10
43.4501918032423
20
1.91701343896332
30
0
41
1
10
43.4412563715008
20
1.91165040436974
30
0
41
1
10
43.4226476966531
20
1.902772156727
30
0
41
1
10
43.412887944348
20
1.89924663143225
30
0
41
1
10
43.3932614200684
20
1.8943977407915
30
0
41
1
10
43.3833488960516
20
1.89303122688602
30
0
41
1
10
43.3683483534929
20
1.89277525503567
30
0
41
1
10
43.3633260523004
20
1.89299175693972
30
0
41
1
10
43.3532376091488
20
1.89411534293805
30
0
41
1
10
43.3481835018254
20
1.89502631350609
30
0
41
1
10
43.3382899483542
20
1.89758801691104
30
0
41
1
10
43.3334209011805
20
1.89924023039421
30
0
41
1
10
43.3238679372324
20
1.9034024750826
30
0
41
1
10
43.3191476014381
20
1.90593823698688
30
0
41
1
10
43.3101756731614
20
1.91190542453603
30
0
41
1
10
43.3059148678708
20
1.91533026887527
30
0
41
1
10
43.2979214689175
20
1.92321386445914
30
0
41
1
10
43.294172700836
20
1.92770561675201
30
0
41
1
10
43.2908582560067
20
1.93268865696717
30
0
0
SPLINE
5
1C5
100
AcDbEntity
8
1
62
256
6
ByLayer
370
18
48
1
60
0
100
AcDbSpline
70
4
71
3
72
12
73
8
40
0
40
0
40
0
40
0
40
0.500000000000022
40
0.500000000000022
40
0.750000000000011
40
0.750000000000011
40
1
40
1
40
1
40
1
41
1
10
43.5710859110732
20
-0.74927350497839
30
0
41
1
10
43.5315865935174
20
-0.757544079490174
30
0
41
1
10
43.4924138637732
20
-0.762282771898043
30
0
41
1
10
43.4340048619872
20
-0.764330114513001
30
0
41
1
10
43.4145898012734
20
-0.76416688192603
30
0
41
1
10
43.3759637536966
20
-0.762185875895369
30
0
41
1
10
43.3567387315653
20
-0.760369603141044
30
0
41
1
10
43.3375896618558
20
-0.757739425173014
30
0
0
SPLINE
5
1C6
100
AcDbEntity
8
1
62
256
6
ByLayer
370
13
48
1
60
0
100
AcDbSpline
70
4
71
3
72
10
73
6
40
0
40
0
40
0
40
0
40
0.131468798103202
40
0.607086800002253
40
1
40
1
40
1
40
1
41
1
10
43.4906648805203
20
0.500976481947504
30
0
41
1
10
43.4941891672525
20
0.446909094072282
30
0
41
1
10
43.5104633563532
20
0.194553026266618
30
0
41
1
10
43.5372703781388
20
-0.235000579580515
30
0
41
1
10
43.5605530831272
20
-0.594486658571981
30
0
41
1
10
43.5710859110731
20
-0.749273504968471
30
0
0
SPLINE
5
1C7
100
AcDbEntity
8
1
62
256
6
ByLayer
370
18
48
1
60
0
100
AcDbSpline
70
4
71
3
72
10
73
6
40
0
40
0
40
0
40
0
40
0.5
40
0.5
40
1
40
1
40
1
40
1
41
1
10
43.2545569858889
20
0.90153231597634
30
0
41
1
10
43.2932154662258
20
0.830758937222043
30
0
41
1
10
43.3322115699304
20
0.761686819398534
30
0
41
1
10
43.410898180761
20
0.627913106368823
30
0
41
1
10
43.4505992121646
20
0.563208499181172
30
0
41
1
10
43.4906648805203
20
0.500976481947504
30
0
0
SPLINE
5
1C8
100
AcDbEntity
8
1
62
256
6
ByLayer
370
18
48
1
60
0
100
AcDbSpline
70
4
71
3
72
22
73
18
40
0
40
0
40
0
40
0
40
0.249999999999999
40
0.249999999999999
40
0.312499999999999
40
0.312499999999999
40
0.374999999999999
40
0.374999999999999
40
0.500000000000001
40
0.500000000000001
40
0.750000000000002
40
0.750000000000002
40
0.812500000000002
40
0.812500000000002
40
0.875000000000002
40
0.875000000000002
40
1
40
1
40
1
40
1
41
1
10
43.074065083346
20
1.05859384857317
30
0
41
1
10
43.0822589096628
20
0.934040256056079
30
0
41
1
10
43.0903547925022
20
0.804616493241952
30
0
41
1
10
43.100563730931
20
0.636716655028039
30
0
41
1
10
43.1026115199748
20
0.602828590249061
30
0
41
1
10
43.1067279799715
20
0.534426524866547
30
0
41
1
10
43.1087977283355
20
0.499878485248814
30
0
41
1
10
43.114972150174
20
0.396327415518158
30
0
41
1
10
43.1190611981172
20
0.32708507402171
30
0
41
1
10
43.1312715489689
20
0.118750721604613
30
0
41
1
10
43.1393255588993
20
-0.020944667835721
30
0
41
1
10
43.1495713570124
20
-0.19657132028658
30
0
41
1
10
43.1516290601499
20
-0.231759866261029
30
0
41
1
10
43.1557563188713
20
-0.302189930463442
30
0
41
1
10
43.1578149800323
20
-0.337245628526404
30
0
41
1
10
43.1639776870757
20
-0.441939400790687
30
0
41
1
10
43.1680674405963
20
-0.511105113138115
30
0
41
1
10
43.1721550157844
20
-0.579641361215351
30
0
0
SPLINE
5
1C9
100
AcDbEntity
8
1
62
256
6
ByLayer
370
18
48
1
60
0
100
AcDbSpline
70
4
71
3
72
8
73
4
40
0
40
0
40
0
40
0
40
1
40
1
40
1
40
1
41
1
10
43.3375896618526
20
-0.75773942518083
30
0
41
1
10
43.2826736612611
20
-0.698720758871445
30
0
41
1
10
43.2275540844682
20
-0.639332899298154
30
0
41
1
10
43.1721550157762
20
-0.579641361215607
30
0
0
SPLINE
5
1CA
100
AcDbEntity
8
1
62
256
6
ByLayer
370
18
48
1
60
0
100
AcDbSpline
70
4
71
3
72
22
73
18
40
0
40
0
40
0
40
0
40
0.250000000000002
40
0.250000000000002
40
0.312500000000002
40
0.312500000000002
40
0.375000000000001
40
0.375000000000001
40
0.500000000000002
40
0.500000000000002
40
0.750000000000002
40
0.750000000000002
40
0.812500000000002
40
0.812500000000002
40
0.875000000000002
40
0.875000000000002
40
1
40
1
40
1
40
1
41
1
10
43.3375896618442
20
-0.757739425178357
30
0
41
1
10
43.3306963598916
20
-0.62376431224024
30
0
41
1
10
43.3238816373568
20
-0.486805558141271
30
0
41
1
10
43.3152450587386
20
-0.311849046720255
30
0
41
1
10
43.3135102267475
20
-0.27666849709459
30
0
41
1
10
43.3100264367064
20
-0.205922428465527
30
0
41
1
10
43.3082749267411
20
-0.170302666739417
30
0
41
1
10
43.3030506894203
20
-0.0639050691934813
30
0
41
1
10
43.2995936275225
20
0.0067241577651771
30
0
41
1
10
43.2892671635529
20
0.21772638089584
30
0
41
1
10
43.2824376993568
20
0.357220454762313
30
0
41
1
10
43.2737424340152
20
0.530080720924758
30
0
41
1
10
43.271997637685
20
0.56457699318878
30
0
41
1
10
43.2684960747892
20
0.633415002993956
30
0
41
1
10
43.2667465280095
20
0.667614441593372
30
0
41
1
10
43.2615121790817
20
0.769292686389548
30
0
41
1
10
43.2580366847428
20
0.835967665866605
30
0
41
1
10
43.2545569858889
20
0.901532315976453
30
0
0
SPLINE
5
1CB
100
AcDbEntity
8
1
62
256
6
ByLayer
370
18
48
1
60
0
100
AcDbSpline
70
4
71
3
72
8
73
4
40
0
40
0
40
0
40
0
40
1
40
1
40
1
40
1
41
1
10
43.0740650833328
20
1.05859384857175
30
0
41
1
10
43.1343759017418
20
1.00785269457597
30
0
41
1
10
43.1945336948673
20
0.95550953628856
30
0
41
1
10
43.2545569858888
20
0.901532315976368
30
0
0
SPLINE
5
1CC
100
AcDbEntity
8
1
62
256
6
ByLayer
370
18
48
1
60
0
100
AcDbSpline
70
4
71
3
72
94
73
90
40
0
40
0
40
0
40
0
40
0.0312499999999927
40
0.0312499999999927
40
0.0624999999999855
40
0.0624999999999855
40
0.124999999999971
40
0.124999999999971
40
0.187499999999957
40
0.187499999999957
40
0.203124999999955
40
0.203124999999955
40
0.218749999999953
40
0.218749999999953
40
0.249999999999949
40
0.249999999999949
40
0.281249999999946
40
0.281249999999946
40
0.296874999999944
40
0.296874999999944
40
0.312499999999942
40
0.312499999999942
40
0.32812499999994
40
0.32812499999994
40
0.343749999999938
40
0.343749999999938
40
0.374999999999935
40
0.374999999999935
40
0.406249999999931
40
0.406249999999931
40
0.421874999999927
40
0.421874999999927
40
0.437499999999924
40
0.437499999999924
40
0.468749999999912
40
0.468749999999912
40
0.484374999999905
40
0.484374999999905
40
0.499999999999898
40
0.499999999999898
40
0.531249999999886
40
0.531249999999886
40
0.539062499999885
40
0.539062499999885
40
0.546874999999884
40
0.546874999999884
40
0.562499999999883
40
0.562499999999883
40
0.566406249999883
40
0.566406249999883
40
0.570312499999883
40
0.570312499999883
40
0.578124999999885
40
0.578124999999885
40
0.593749999999887
40
0.593749999999887
40
0.597656249999888
40
0.597656249999888
40
0.601562499999888
40
0.601562499999888
40
0.60937499999989
40
0.60937499999989
40
0.624999999999893
40
0.624999999999893
40
0.640624999999896
40
0.640624999999896
40
0.656249999999898
40
0.656249999999898
40
0.671874999999901
40
0.671874999999901
40
0.687499999999904
40
0.687499999999904
40
0.718749999999912
40
0.718749999999912
40
0.734374999999915
40
0.734374999999915
40
0.749999999999919
40
0.749999999999919
40
0.781249999999929
40
0.781249999999929
40
0.812499999999939
40
0.812499999999939
40
0.874999999999962
40
0.874999999999962
40
0.906249999999972
40
0.906249999999972
40
0.937499999999983
40
0.937499999999983
40
1
40
1
40
1
40
1
41
1
10
28.0116315243057
20
0.403013636774489
30
0
41
1
10
27.9693558692846
20
0.437938914319744
30
0
41
1
10
27.9268638294599
20
0.472147255052676
30
0
41
1
10
27.8406954939667
20
0.538064558936213
30
0
41
1
10
27.7969504844991
20
0.569673160766683
30
0
41
1
10
27.6638451369439
20
0.660804774792751
30
0
41
1
10
27.5725254843838
20
0.716489799779424
30
0
41
1
10
27.3830658980337
20
0.816269739906005
30
0
41
1
10
27.2849391167484
20
0.860383250501428
30
0
41
1
10
27.1566953544169
20
0.907055634079541
30
0
41
1
10
27.130788873844
20
0.91595475551901
30
0
41
1
10
27.0788383950455
20
0.93272745876709
30
0
41
1
10
27.0527415478976
20
0.940620805500174
30
0
41
1
10
26.9740679271085
20
0.962791583462632
30
0
41
1
10
26.9211097336887
20
0.97556668604588
30
0
41
1
10
26.8140443824472
20
0.996803479593382
30
0
41
1
10
26.7599384786294
20
1.00527019120659
30
0
41
1
10
26.6777704351847
20
1.01430341443364
30
0
41
1
10
26.650213252334
20
1.01670431961773
30
0
41
1
10
26.5947179629559
20
1.02013408312246
30
0
41
1
10
26.5666899187361
20
1.0211584914174
30
0
41
1
10
26.5110222055339
20
1.0216360059255
30
0
41
1
10
26.4833279011143
20
1.02098771936454
30
0
41
1
10
26.4281532504911
20
1.01832804868297
30
0
41
1
10
26.4006597931301
20
1.01639967014782
30
0
41
1
10
26.318293480956
20
1.00987772434058
30
0
41
1
10
26.2636118173454
20
1.00405807745832
30
0
41
1
10
26.1547666034722
20
0.989025192392319
30
0
41
1
10
26.1006060005459
20
0.979794043279952
30
0
41
1
10
26.0198262935183
20
0.962840994270863
30
0
41
1
10
25.9929243352618
20
0.956657431161432
30
0
41
1
10
25.9395591323327
20
0.943190612838407
30
0
41
1
10
25.9131328127509
20
0.935919157008527
30
0
41
1
10
25.8346838909776
20
0.912330528761885
30
0
41
1
10
25.7834959576603
20
0.894233970508623
30
0
41
1
10
25.708656949758
20
0.862763924251226
30
0
41
1
10
25.6840355995673
20
0.851549815058263
30
0
41
1
10
25.6355294722921
20
0.827445787819244
30
0
41
1
10
25.6115601782928
20
0.814501138615441
30
0
41
1
10
25.5417135041543
20
0.773182411321784
30
0
41
1
10
25.4978541317183
20
0.742379122074482
30
0
41
1
10
25.447207155638
20
0.698616471934969
30
0
41
1
10
25.4372882793503
20
0.689598547912254
30
0
41
1
10
25.4178992877075
20
0.670990591060246
30
0
41
1
10
25.4084081701184
20
0.661377566106637
30
0
41
1
10
25.3808220064643
20
0.631789583654268
30
0
41
1
10
25.3636540221105
20
0.611122613618164
30
0
41
1
10
25.3438255674104
20
0.584002519952975
30
0
41
1
10
25.3399415634499
20
0.57851407819075
30
0
41
1
10
25.3323399789537
20
0.56740517029175
30
0
41
1
10
25.328608024411
20
0.561794629515163
30
0
41
1
10
25.3179267270094
20
0.54458087663744
30
0
41
1
10
25.3114058713541
20
0.532594302949178
30
0
41
1
10
25.2942908042726
20
0.495962189508617
30
0
41
1
10
25.2859767580564
20
0.470423076468393
30
0
41
1
10
25.2796193912286
20
0.43700513486894
30
0
41
1
10
25.2785481881311
20
0.430226624998397
30
0
41
1
10
25.2768318826066
20
0.416682141013837
30
0
41
1
10
25.2761829388577
20
0.409902965436658
30
0
41
1
10
25.2748348219203
20
0.389544530846763
30
0
41
1
10
25.2747482915292
20
0.375944438208109
30
0
41
1
10
25.2765705103614
20
0.335059140788957
30
0
41
1
10
25.2805209255707
20
0.307505619030394
30
0
41
1
10
25.2921961741919
20
0.253772281053131
30
0
41
1
10
25.2999116208592
20
0.227410415536184
30
0
41
1
10
25.3181404178765
20
0.175417481176964
30
0
41
1
10
25.3286683757458
20
0.149778021039566
30
0
41
1
10
25.351949233356
20
0.0991154395162255
30
0
41
1
10
25.3645494599457
20
0.0744114456060174
30
0
41
1
10
25.3911815686563
20
0.0259423504707001
30
0
41
1
10
25.4052207521938
20
0.0021819451725946
30
0
41
1
10
25.4490543399502
20
-0.0679703796872104
30
0
41
1
10
25.4805416083559
20
-0.113248431660082
30
0
41
1
10
25.5300778897025
20
-0.179637080027675
30
0
41
1
10
25.5470026810858
20
-0.201533476644926
30
0
41
1
10
25.5814224903138
20
-0.244763455012475
30
0
41
1
10
25.5988706555846
20
-0.266040001163589
30
0
41
1
10
25.6518002914304
20
-0.329000195187149
30
0
41
1
10
25.6878606876633
20
-0.369821606498647
30
0
41
1
10
25.7610555500429
20
-0.449688406036955
30
0
41
1
10
25.7981933596567
20
-0.488730015033838
30
0
41
1
10
25.9107697550571
20
-0.603677376748067
30
0
41
1
10
25.9873449430271
20
-0.677437996913454
30
0
41
1
10
26.1034461544489
20
-0.784828267919693
30
0
41
1
10
26.1423697888731
20
-0.820072275384689
30
0
41
1
10
26.2205527855727
20
-0.889510196691674
30
0
41
1
10
26.2596346480855
20
-0.923557616987239
30
0
41
1
10
26.3767386119716
20
-1.02379903188481
30
0
41
1
10
26.4546036687199
20
-1.0881133712295
30
0
41
1
10
26.5322029469331
20
-1.14988257636864
30
0
0
SPLINE
5
1CD
100
AcDbEntity
8
1
62
256
6
ByLayer
370
18
48
1
60
0
100
AcDbSpline
70
4
71
3
72
32
73
28
40
0
40
0
40
0
40
0
40
0.0421572762379887
40
0.0421572762379887
40
0.177266645283353
40
0.177266645283353
40
0.312376014328717
40
0.312376014328717
40
0.346153356590058
40
0.346153356590058
40
0.379930698851399
40
0.379930698851399
40
0.447485383374083
40
0.447485383374083
40
0.515040067896768
40
0.515040067896768
40
0.582594752419453
40
0.582594752419453
40
0.717704121464824
40
0.717704121464824
40
0.78525880598751
40
0.78525880598751
40
0.852813490510195
40
0.852813490510195
40
0.987922859555566
40
0.987922859555566
40
1
40
1
40
1
40
1
41
1
10
28.0116217737626
20
0.403022033140047
30
0
41
1
10
27.997970450326
20
0.414776985607347
30
0
41
1
10
27.9834588714842
20
0.425407039316383
30
0
41
1
10
27.9153674069979
20
0.46052235756909
30
0
41
1
10
27.8488502773125
20
0.468896030484842
30
0
41
1
10
27.6930009719195
20
0.440525873565036
30
0
41
1
10
27.6018854457927
20
0.403338360504705
30
0
41
1
10
27.4805462287844
20
0.322732375580841
30
0
41
1
10
27.4562708925605
20
0.305140735995224
30
0
41
1
10
27.4077042056444
20
0.266814668241295
30
0
41
1
10
27.383411305992
20
0.245776261557069
30
0
41
1
10
27.3105263404542
20
0.181431244917576
30
0
41
1
10
27.2621540395793
20
0.136023529496413
30
0
41
1
10
27.1679902952102
20
0.0419712039639535
30
0
41
1
10
27.1218891169178
20
-0.00690878470499
30
0
41
1
10
27.0316778419881
20
-0.108432544784506
30
0
41
1
10
26.9872635549195
20
-0.161465917257232
30
0
41
1
10
26.8596039610821
20
-0.322718187833658
30
0
41
1
10
26.7820417344543
20
-0.432904330563787
30
0
41
1
10
26.675037179522
20
-0.601506796338725
30
0
41
1
10
26.6438838824266
20
-0.657309907348179
30
0
41
1
10
26.5939168884646
20
-0.765455555407982
30
0
41
1
10
26.5741804255083
20
-0.818772148231517
30
0
41
1
10
26.5313666147394
20
-0.967909924304706
30
0
41
1
10
26.5232480575929
20
-1.05612899611987
30
0
41
1
10
26.5305614520292
20
-1.13698044749876
30
0
41
1
10
26.5313192653915
20
-1.1434821327075
30
0
41
1
10
26.5322023987377
20
-1.14987860595767
30
0
0
SPLINE
5
1CE
100
AcDbEntity
8
SK1
62
256
6
ByLayer
370
18
48
1
60
0
100
AcDbSpline
70
4
71
3
72
21
73
17
40
0
40
0
40
0
40
0
40
0.124983582012913
40
0.124983582012913
40
0.249967164025826
40
0.249967164025826
40
0.499934328051653
40
0.499934328051653
40
0.74990149207748
40
0.74990149207748
40
0.812393283083937
40
0.812393283083937
40
0.874885074090394
40
0.874885074090394
40
0.999868656103307
40
1
40
1
40
1
40
1
41
1
10
-20.35
20
1.92999999999998
30
0
41
1
10
-20.3802708643586
20
1.92999999999998
30
0
41
1
10
-20.4097347260609
20
1.92999999999998
30
0
41
1
10
-20.4667122476153
20
1.92999999999998
30
0
41
1
10
-20.4940865323199
20
1.92999999999998
30
0
41
1
10
-20.5721562730023
20
1.92999999999998
30
0
41
1
10
-20.6188871939893
20
1.92999999999998
30
0
41
1
10
-20.697684073107
20
1.92999999999998
30
0
41
1
10
-20.7297445655939
20
1.92999999999998
30
0
41
1
10
-20.7573954507966
20
1.92999999999998
30
0
41
1
10
-20.7622853281598
20
1.92999999999998
30
0
41
1
10
-20.7706695789109
20
1.92999999999998
30
0
41
1
10
-20.7741762974263
20
1.92999999999998
30
0
41
1
10
-20.7826069436089
20
1.92999999999998
30
0
41
1
10
-20.785438856091
20
1.92999999999998
30
0
41
1
10
-20.7854409990994
20
1.92999999999998
30
0
41
1
10
-20.7854391417077
20
1.92999999999998
30
0
0
SPLINE
5
1CF
100
AcDbEntity
8
SK1
62
256
6
ByLayer
370
18
48
1
60
0
100
AcDbSpline
70
4
71
3
72
21
73
17
40
0
40
0
40
0
40
0
40
0.0001313076595363
40
0.125114894202094
40
0.125114894202094
40
0.187606687473373
40
0.187606687473373
40
0.250098480744652
40
0.250098480744652
40
0.500065653829768
40
0.500065653829768
40
0.750032826914884
40
0.750032826914884
40
0.875016413457442
40
0.875016413457442
40
1
40
1
40
1
40
1
41
1
10
-20.785439142119
20
-1.93000000000006
30
0
41
1
10
-20.7854409990992
20
-1.93000000000006
30
0
41
1
10
-20.7854388556794
20
-1.93000000000006
30
0
41
1
10
-20.782606943609
20
-1.93000000000004
30
0
41
1
10
-20.7741762974263
20
-1.93000000000004
30
0
41
1
10
-20.7706695789109
20
-1.93000000000004
30
0
41
1
10
-20.7622853281599
20
-1.93000000000004
30
0
41
1
10
-20.7573954507967
20
-1.93000000000004
30
0
41
1
10
-20.729744565594
20
-1.93000000000004
30
0
41
1
10
-20.6976840731071
20
-1.93000000000004
30
0
41
1
10
-20.6188871939894
20
-1.93000000000004
30
0
41
1
10
-20.5721562730024
20
-1.93000000000004
30
0
41
1
10
-20.49408653232
20
-1.93000000000004
30
0
41
1
10
-20.4667122476154
20
-1.93000000000004
30
0
41
1
10
-20.409734726061
20
-1.93000000000004
30
0
41
1
10
-20.3802708643587
20
-1.93000000000004
30
0
41
1
10
-20.3499999999999
20
-1.93000000000004
30
0
0
SPLINE
5
1D0
100
AcDbEntity
8
SK1
62
256
6
ByLayer
370
18
48
1
60
0
100
AcDbSpline
70
4
71
3
72
33
73
29
40
0
40
0
40
0
40
0
40
0.0624999999999999
40
0.0624999999999999
40
0.125
40
0.125
40
0.25
40
0.25
40
0.375
40
0.375
40
0.40625
40
0.40625
40
0.4375
40
0.4375
40
0.5
40
0.5625
40
0.5625
40
0.59375
40
0.59375
40
0.625
40
0.625
40
0.75
40
0.75
40
0.875
40
0.875
40
0.9375
40
0.9375
40
1
40
1
40
1
40
1
41
1
10
-20.3499999999998
20
-1.36762801726232
30
0
41
1
10
-20.380253133639
20
-1.31530240566909
30
0
41
1
10
-20.4097073719887
20
-1.26236765115129
30
0
41
1
10
-20.4666823385369
20
-1.15502387628408
30
0
41
1
10
-20.494078419068
20
-1.10084223223134
30
0
41
1
10
-20.5721777761654
20
-0.936962298178855
30
0
41
1
10
-20.6189242378172
20
-0.825767749474551
30
0
41
1
10
-20.6977391300603
20
-0.598022437327273
30
0
41
1
10
-20.7298020669031
20
-0.481469669140182
30
0
41
1
10
-20.7574440821454
20
-0.331240402720681
30
0
41
1
10
-20.7623257063799
20
-0.301072845836785
30
0
41
1
10
-20.7706995662741
20
-0.240841792730208
30
0
41
1
10
-20.7742017214744
20
-0.210725466009222
30
0
41
1
10
-20.7826199776383
20
-0.120374045747837
30
0
41
1
10
-20.7882665299209
20
0.0001010323159676
30
0
41
1
10
-20.782606943609
20
0.120589321741619
30
0
41
1
10
-20.7741762974263
20
0.210960430152397
30
0
41
1
10
-20.7706695789109
20
0.241084946828437
30
0
41
1
10
-20.7622853281599
20
0.301335581993186
30
0
41
1
10
-20.7573954507967
20
0.331526597774825
30
0
41
1
10
-20.729744565594
20
0.48169410635424
30
0
41
1
10
-20.6976840731071
20
0.598200246736695
30
0
41
1
10
-20.6188871939894
20
0.825856054694469
30
0
41
1
10
-20.5721562730024
20
0.937007717144667
30
0
41
1
10
-20.49408653232
20
1.10082505888457
30
0
41
1
10
-20.4667122476154
20
1.15496580444818
30
0
41
1
10
-20.409734726061
20
1.26231783452897
30
0
41
1
10
-20.3802708643587
20
1.31527173873826
30
0
41
1
10
-20.35
20
1.36762801726198
30
0
0
SPLINE
5
1D1
100
AcDbEntity
8
1
62
256
6
ByLayer
370
18
48
1
60
0
100
AcDbSpline
70
4
71
2
72
6
73
3
40
0
40
0
40
0
40
1
40
1
40
1
41
1
10
43.7680482540643
20
2.43093606605635
30
0
41
1
10
43.7286173656383
20
2.36311252411605
30
0
41
1
10
43.6891792180519
20
2.29535268954837
30
0
0
SPLINE
5
1D2
100
AcDbEntity
8
1
62
256
6
ByLayer
370
18
48
1
60
0
100
AcDbSpline
70
4
71
2
72
6
73
3
40
0
40
0
40
0
40
1
40
1
40
1
41
1
10
43.5545339775025
20
2.06423668184382
30
0
41
1
10
43.5482181203801
20
2.0534060388874
30
0
41
1
10
43.5419020772011
20
2.04257702878905
30
0
0
SPLINE
5
1D3
100
AcDbEntity
8
1
62
256
6
ByLayer
370
18
48
1
60
0
100
AcDbSpline
70
4
71
2
72
6
73
3
40
0
40
0
40
0
40
1
40
1
40
1
41
1
10
47.6455873593375
20
-2.08954165508743
30
0
41
1
10
47.6759269914531
20
-2.03745267583579
30
0
41
1
10
47.7062757349609
20
-1.98541873495887
30
0
0
SPLINE
5
1D4
100
AcDbEntity
8
1
62
256
6
ByLayer
370
18
48
1
60
0
100
AcDbSpline
70
4
71
2
72
6
73
3
40
0
40
0
40
0
40
1
40
1
40
1
41
1
10
47.0846148045796
20
-1.99325841230294
30
0
41
1
10
47.1346523508043
20
-2.07939966016437
30
0
41
1
10
47.1846689746883
20
-2.16561052369841
30
0
0
SPLINE
5
1D5
100
AcDbEntity
8
1
62
256
6
ByLayer
370
18
48
1
60
0
100
AcDbSpline
70
4
71
2
72
6
73
3
40
0
40
0
40
0
40
1
40
1
40
1
41
1
10
46.728772617086
20
-2.30177873315679
30
0
41
1
10
46.8194783163415
20
-2.14555720669475
30
0
41
1
10
46.9102856061674
20
-1.98959713882388
30
0
0
SPLINE
5
1D6
100
AcDbEntity
8
1
62
256
6
ByLayer
370
18
48
1
60
0
100
AcDbSpline
70
4
71
1
72
4
73
2
40
0
40
0
40
1
40
1
41
1
10
45.5284096494293
20
2.31853689422147
30
0
41
1
10
45.4552263429599
20
2.44459812824812
30
0
0
SPLINE
5
1D7
100
AcDbEntity
8
1
62
256
6
ByLayer
370
18
48
1
60
0
100
AcDbSpline
70
4
71
2
72
6
73
3
40
0
40
0
40
0
40
1
40
1
40
1
41
1
10
42.754505995178
20
-2.31088560601378
30
0
41
1
10
42.84741961906
20
-2.15085751675238
30
0
41
1
10
42.940420295094
20
-1.99106210551332
30
0
0
SPLINE
5
1D8
100
AcDbEntity
8
1
62
256
6
ByLayer
370
18
48
1
60
0
100
AcDbSpline
70
4
71
3
72
11
73
7
40
0
40
0
40
0
40
0
40
0.247319484520673
40
0.498549725648811
40
0.754039223266602
40
1
40
1
40
1
40
1
41
1
10
44.3043841021681
20
1.99017351463172
30
0
41
1
10
44.3007665313158
20
1.98082157112827
30
0
41
1
10
44.285543160215
20
1.9653502806857
30
0
41
1
10
44.2358968693902
20
1.93900786166279
30
0
41
1
10
44.1667220582291
20
1.94984430553717
30
0
41
1
10
44.1389159452476
20
1.97768280642984
30
0
41
1
10
44.1271402069136
20
1.99661184270713
30
0
0
SPLINE
5
1D9
100
AcDbEntity
8
1
62
256
6
ByLayer
370
18
48
1
60
0
100
AcDbSpline
70
4
71
1
72
4
73
2
40
0
40
0
40
1
40
1
41
1
10
47.2208121362168
20
-2.20215789734343
30
0
41
1
10
47.6356300738531
20
-2.10476327461134
30
0
0
SPLINE
5
1DA
100
AcDbEntity
8
1
62
256
6
ByLayer
370
18
48
1
60
0
100
AcDbSpline
70
4
71
2
72
6
73
3
40
0
40
0
40
0
40
1
40
1
40
1
41
1
10
42.321805171956
20
-1.99326361433757
30
0
41
1
10
42.3959610302671
20
-2.12094433061034
30
0
41
1
10
42.470078101684
20
-2.24874667353561
30
0
0
SPLINE
5
1DB
100
AcDbEntity
8
1
62
256
6
ByLayer
370
18
48
1
60
0
100
AcDbSpline
70
4
71
3
72
10
73
6
40
0
40
0
40
0
40
0
40
0.274530072773027
40
0.537401801603842
40
1
40
1
40
1
40
1
41
1
10
46.9100125621915
20
-1.99006998054938
30
0
41
1
10
46.9198521555045
20
-1.97351421272293
30
0
41
1
10
46.944219298881
20
-1.94995317689748
30
0
41
1
10
47.0335007732615
20
-1.93924930785701
30
0
41
1
10
47.0657506807776
20
-1.96122207030476
30
0
41
1
10
47.0812624587653
20
-1.98761838805771
30
0
0
SPLINE
5
1DC
100
AcDbEntity
8
1
62
256
6
ByLayer
370
18
48
1
60
0
100
AcDbSpline
70
4
71
3
72
10
73
6
40
0
40
0
40
0
40
0
40
0.274608343504153
40
0.537520101182844
40
1
40
1
40
1
40
1
41
1
10
42.1471931566995
20
-1.99009735772214
30
0
41
1
10
42.1570326208248
20
-1.97354460485954
30
0
41
1
10
42.1814012924342
20
-1.94999082116595
30
0
41
1
10
42.2706756773887
20
-1.93929449602572
30
0
41
1
10
42.3029412033909
20
-1.96125613521537
30
0
41
1
10
42.3184692084285
20
-1.98763130190858
30
0
0
SPLINE
5
1DD
100
AcDbEntity
8
1
62
256
6
ByLayer
370
18
48
1
60
0
100
AcDbSpline
70
4
71
2
72
6
73
3
40
0
40
0
40
0
40
1
40
1
40
1
41
1
10
44.568025848868
20
2.44450627442544
30
0
41
1
10
44.4366697992301
20
2.21781952522343
30
0
41
1
10
44.3051590758885
20
1.9914696787711
30
0
0
SPLINE
5
1DE
100
AcDbEntity
8
1
62
256
6
ByLayer
370
18
48
1
60
0
100
AcDbSpline
70
4
71
2
72
6
73
3
40
0
40
0
40
0
40
1
40
1
40
1
41
1
10
42.0251502126116
20
-2.19989657600269
30
0
41
1
10
42.0862503170794
20
-2.09476627840522
30
0
41
1
10
42.1473931907614
20
-1.98975160901188
30
0
0
SPLINE
5
1DF
100
AcDbEntity
8
1
62
256
6
ByLayer
370
18
48
1
60
0
100
AcDbSpline
70
4
71
2
72
6
73
3
40
0
40
0
40
0
40
1
40
1
40
1
41
1
10
44.9247253237438
20
1.99137805014388
30
0
41
1
10
44.792962904186
20
2.21780113365645
30
0
41
1
10
44.6614057232745
20
2.44459850676191
30
0
0
SPLINE
5
1E0
100
AcDbEntity
8
1
62
256
6
ByLayer
370
18
48
1
60
0
100
AcDbSpline
70
4
71
3
72
11
73
7
40
0
40
0
40
0
40
0
40
0.239280645872419
40
0.491229206954671
40
0.748008294683595
40
1
40
1
40
1
40
1
41
1
10
40.3303936130405
20
1.97988754639161
30
0
41
1
10
40.3226393066145
20
1.97123586333566
30
0
41
1
10
40.3047336604162
20
1.95673251578873
30
0
41
1
10
40.2694322650659
20
1.94345002044196
30
0
41
1
10
40.2307402090365
20
1.94350822262365
30
0
41
1
10
40.2078190336804
20
1.95171639500518
30
0
41
1
10
40.1967946455407
20
1.95786036808161
30
0
0
SPLINE
5
1E1
100
AcDbEntity
8
1
62
256
6
ByLayer
370
18
48
1
60
0
100
AcDbSpline
70
4
71
3
72
11
73
7
40
0
40
0
40
0
40
0
40
0.243508142923593
40
0.499293625327092
40
0.755500139099477
40
1
40
1
40
1
40
1
41
1
10
45.1054953069889
20
1.99938748982976
30
0
41
1
10
45.0975750061221
20
1.98361771136518
30
0
41
1
10
45.075565830261
20
1.95885012538093
30
0
41
1
10
45.0151170605145
20
1.93680456813894
30
0
41
1
10
44.9547424508273
20
1.95496263956693
30
0
41
1
10
44.9327530478059
20
1.97682856669218
30
0
41
1
10
44.924858130401
20
1.99116110519296
30
0
0
SPLINE
5
1E2
100
AcDbEntity
8
1
62
256
6
ByLayer
370
18
48
1
60
0
100
AcDbSpline
70
4
71
2
72
6
73
3
40
0
40
0
40
0
40
1
40
1
40
1
41
1
10
41.5264277160054
20
-1.99075973238246
30
0
41
1
10
41.5706553412474
20
-2.06686356952983
30
0
41
1
10
41.6148641842113
20
-2.14301688251203
30
0
0
SPLINE
5
1E3
100
AcDbEntity
8
1
62
256
6
ByLayer
370
18
48
1
60
0
100
AcDbSpline
70
4
71
1
72
4
73
2
40
0
40
0
40
1
40
1
41
1
10
46.5223938704731
20
-2.36633172797184
30
0
41
1
10
46.7317534824801
20
-2.31717327165345
30
0
0
SPLINE
5
1E4
100
AcDbEntity
8
1
62
256
6
ByLayer
370
18
48
1
60
0
100
AcDbSpline
70
4
71
2
72
6
73
3
40
0
40
0
40
0
40
1
40
1
40
1
41
1
10
46.2900491858735
20
-1.99208586272439
30
0
41
1
10
46.3920904570113
20
-2.16768720644143
30
0
41
1
10
46.4938851319629
20
-2.34322765045792
30
0
0
SPLINE
5
1E5
100
AcDbEntity
8
1
62
256
6
ByLayer
370
18
48
1
60
0
100
AcDbSpline
70
4
71
2
72
6
73
3
40
0
40
0
40
0
40
1
40
1
40
1
41
1
10
46.2131793082834
20
-1.95034779345795
30
0
41
1
10
46.2669821148791
20
-1.94070832233515
30
0
41
1
10
46.2861149701271
20
-1.98492594431096
30
0
0
SPLINE
5
1E6
100
AcDbEntity
8
1
62
256
6
ByLayer
370
18
48
1
60
0
100
AcDbSpline
70
4
71
2
72
6
73
3
40
0
40
0
40
0
40
1
40
1
40
1
41
1
10
41.4564034072552
20
-1.95037872882364
30
0
41
1
10
41.5075050743447
20
-1.94643795495324
30
0
41
1
10
41.5229188828501
20
-1.98412635448634
30
0
0
LINE
5
83
100
AcDbEntity
8
SK4
62
256
6
ByLayer
370
18
48
0.05
60
0
100
AcDbLine
10
-26.35
20
0
30
0
11
53.65
21
0
31
0
39
0
210
0
220
0
230
1
0
LINE
5
85
100
AcDbEntity
8
80
62
256
6
ByLayer
370
18
48
1
60
0
100
AcDbLine
10
0
20
0
30
0
11
-5
21
0
31
0
39
0
210
0
220
0
230
1
0
LINE
5
86
100
AcDbEntity
8
4
62
256
6
ByLayer
370
18
48
0.05
60
0
100
AcDbLine
10
-5
20
0
30
0
11
53.65
21
0
31
0
39
0
210
0
220
0
230
1
0
LINE
5
88
100
AcDbEntity
8
81
62
256
6
ByLayer
370
18
48
1
60
0
100
AcDbLine
10
48.65
20
0
30
0
11
53.65
21
0
31
0
39
0
210
0
220
0
230
1
0
LINE
5
89
100
AcDbEntity
8
1
62
256
6
ByLayer
370
18
48
1
60
0
100
AcDbLine
10
0
20
2.464
30
0
11
0
21
-2.464
31
0
39
0
210
0
220
0
230
1
0
LINE
5
8A
100
AcDbEntity
8
1
62
256
6
ByLayer
370
18
48
1
60
0
100
AcDbLine
10
48.75
20
1.62
30
0
11
48.75
21
1.619468
31
0
39
0
210
0
220
0
230
1
0
LINE
5
8B
100
AcDbEntity
8
1
62
256
6
ByLayer
370
18
48
1
60
0
100
AcDbLine
10
43.862477
20
2.449961
30
0
11
43.857998
21
2.45151
31
0
39
0
210
0
220
0
230
1
0
LINE
5
8C
100
AcDbEntity
8
1
62
256
6
ByLayer
370
18
48
1
60
0
100
AcDbLine
10
42.940283
20
-1.991287
30
0
11
42.943362
21
-1.985674
31
0
39
0
210
0
220
0
230
1
0
LINE
5
8D
100
AcDbEntity
8
1
62
256
6
ByLayer
370
18
48
1
60
0
100
AcDbLine
10
44.126828
20
1.996965
30
0
11
44.131529
21
1.990361
31
0
39
0
210
0
220
0
230
1
0
LINE
5
8E
100
AcDbEntity
8
1
62
256
6
ByLayer
370
18
48
1
60
0
100
AcDbLine
10
47.084705
20
-1.993391
30
0
11
47.082403
21
-1.989696
31
0
39
0
210
0
220
0
230
1
0
LINE
5
8F
100
AcDbEntity
8
1
62
256
6
ByLayer
370
18
48
1
60
0
100
AcDbLine
10
42.319559
20
-1.989624
30
0
11
42.321906
21
-1.993412
31
0
39
0
210
0
220
0
230
1
0
LINE
5
90
100
AcDbEntity
8
1
62
256
6
ByLayer
370
13
48
1
60
0
100
AcDbLine
10
40.131924
20
1.9334
30
0
11
40.131924
21
1.759265
31
0
39
0
210
0
220
0
230
1
0
LINE
5
91
100
AcDbEntity
8
1
62
256
6
ByLayer
370
18
48
1
60
0
100
AcDbLine
10
40.15
20
1.944261
30
0
11
40.15
21
1.761432
31
0
39
0
210
0
220
0
230
1
0
LINE
5
92
100
AcDbEntity
8
1
62
256
6
ByLayer
370
18
48
1
60
0
100
AcDbLine
10
46.515426
20
-2.366404
30
0
11
46.521433
21
-2.366557
31
0
39
0
210
0
220
0
230
1
0
LINE
5
93
100
AcDbEntity
8
1
62
256
6
ByLayer
370
18
48
1
60
0
100
AcDbLine
10
41.523158
20
-1.984627
30
0
11
41.526461
21
-1.990815
31
0
39
0
210
0
220
0
230
1
0
LINE
5
94
100
AcDbEntity
8
1
62
256
6
ByLayer
370
18
48
1
60
0
100
AcDbLine
10
40.15
20
-0.713562
30
0
11
40.15
21
-1.593549
31
0
39
0
210
0
220
0
230
1
0
LINE
5
95
100
AcDbEntity
8
1
62
256
6
ByLayer
370
13
48
1
60
0
100
AcDbLine
10
39.822901
20
1.8477
30
0
11
39.822901
21
1.775651
31
0
39
0
210
0
220
0
230
1
0
LINE
5
96
100
AcDbEntity
8
1
62
256
6
ByLayer
370
13
48
1
60
0
100
AcDbLine
10
21.219991
20
-1.8477
30
0
11
21.219991
21
1.8477
31
0
39
0
210
0
220
0
230
1
0
LINE
5
97
100
AcDbEntity
8
1
62
256
6
ByLayer
370
13
48
1
60
0
100
AcDbLine
10
39.822901
20
-1.330313
30
0
11
39.822901
21
-0.439107
31
0
39
0
210
0
220
0
230
1
0
LINE
5
98
100
AcDbEntity
8
1
62
256
6
ByLayer
370
13
48
1
60
0
100
AcDbLine
10
40.131924
20
-0.697364
30
0
11
40.131924
21
-1.574087
31
0
39
0
210
0
220
0
230
1
0
LINE
5
99
100
AcDbEntity
8
1
62
256
6
ByLayer
370
18
48
1
60
0
100
AcDbLine
10
48.75
20
0.033243
30
0
11
48.75
21
-0.84569
31
0
39
0
210
0
220
0
230
1
0
LINE
5
9A
100
AcDbEntity
8
1
62
256
6
ByLayer
370
13
48
1
60
0
100
AcDbLine
10
21.081072
20
1.859854
30
0
11
21.081072
21
-1.859854
31
0
39
0
210
0
220
0
230
1
0
LINE
5
9B
100
AcDbEntity
8
1
62
256
6
ByLayer
370
18
48
1
60
0
100
AcDbLine
10
17.654789
20
2.464
30
0
11
17.654789
21
-2.464
31
0
39
0
210
0
220
0
230
1
0
LINE
5
9C
100
AcDbEntity
8
SK1
62
256
6
ByLayer
370
18
48
1
60
0
100
AcDbLine
10
-21.35
20
1.36544
30
0
11
-21.35
21
-1.36544
31
0
39
0
210
0
220
0
230
1
0
LINE
5
9E
100
AcDbEntity
8
SK1
62
256
6
ByLayer
370
18
48
1
60
0
100
AcDbLine
10
-15
20
1.367628
30
0
11
-15
21
-1.367628
31
0
39
0
210
0
220
0
230
1
0
LINE
5
9F
100
AcDbEntity
8
SK1
62
256
6
ByLayer
370
18
48
1
60
0
100
AcDbLine
10
-14.56456
20
2.36544
30
0
11
-15
21
1.93
31
0
39
0
210
0
220
0
230
1
0
LINE
5
A0
100
AcDbEntity
8
SK1
62
256
6
ByLayer
370
18
48
1
60
0
100
AcDbLine
10
-20.35
20
1.93
30
0
11
-15
21
1.93
31
0
39
0
210
0
220
0
230
1
0
LINE
5
A1
100
AcDbEntity
8
SK1
62
256
6
ByLayer
370
18
48
1
60
0
100
AcDbLine
10
-20.35
20
1.367628
30
0
11
-20.35
21
1.93
31
0
39
0
210
0
220
0
230
1
0
LINE
5
A2
100
AcDbEntity
8
SK1
62
256
6
ByLayer
370
18
48
1
60
0
100
AcDbLine
10
-15
20
1.367628
30
0
11
-20.35
21
1.367628
31
0
39
0
210
0
220
0
230
1
0
LINE
5
A3
100
AcDbEntity
8
SK1
62
256
6
ByLayer
370
18
48
1
60
0
100
AcDbLine
10
-20.35
20
-1.367628
30
0
11
-15
21
-1.367628
31
0
39
0
210
0
220
0
230
1
0
LINE
5
A4
100
AcDbEntity
8
SK1
62
256
6
ByLayer
370
18
48
1
60
0
100
AcDbLine
10
-20.35
20
-1.93
30
0
11
-20.35
21
-1.367628
31
0
39
0
210
0
220
0
230
1
0
LINE
5
A5
100
AcDbEntity
8
SK1
62
256
6
ByLayer
370
18
48
1
60
0
100
AcDbLine
10
-15
20
-1.93
30
0
11
-20.35
21
-1.93
31
0
39
0
210
0
220
0
230
1
0
LINE
5
A6
100
AcDbEntity
8
SK1
62
256
6
ByLayer
370
18
48
1
60
0
100
AcDbLine
10
-15
20
-1.93
30
0
11
-14.56456
21
-2.36544
31
0
39
0
210
0
220
0
230
1
0
LINE
5
A7
100
AcDbEntity
8
SK1
62
256
6
ByLayer
370
18
48
1
60
0
100
AcDbLine
10
-14.365
20
2.36544
30
0
11
-14.365
21
-2.36544
31
0
39
0
210
0
220
0
230
1
0
LINE
5
A8
100
AcDbEntity
8
SK1
62
256
6
ByLayer
370
18
48
1
60
0
100
AcDbLine
10
0
20
2.464
30
0
11
0
21
-2.464
31
0
39
0
210
0
220
0
230
1
0
LINE
5
A9
100
AcDbEntity
8
SK1
62
256
6
ByLayer
370
18
48
1
60
0
100
AcDbLine
10
-14.26644
20
-2.464
30
0
11
-14.26644
21
2.464
31
0
39
0
210
0
220
0
230
1
0
LINE
5
AA
100
AcDbEntity
8
1
62
256
6
ByLayer
370
18
48
1
60
0
100
AcDbLine
10
48.75
20
1.62
30
0
11
48.69398
21
1.67602
31
0
39
0
210
0
220
0
230
1
0
LINE
5
AB
100
AcDbEntity
8
1
62
256
6
ByLayer
370
18
48
1
60
0
100
AcDbLine
10
40.204618
20
1.951937
30
0
11
40.15
21
1.944261
31
0
39
0
210
0
220
0
230
1
0
LINE
5
AC
100
AcDbEntity
8
1
62
256
6
ByLayer
370
18
48
1
60
0
100
AcDbLine
10
40.489179
20
1.991929
30
0
11
40.316667
21
1.967684
31
0
39
0
210
0
220
0
230
1
0
LINE
5
AD
100
AcDbEntity
8
1
62
256
6
ByLayer
370
18
48
1
60
0
100
AcDbLine
10
17.654789
20
2.464
30
0
11
0
21
2.464
31
0
39
0
210
0
220
0
230
1
0
LINE
5
AE
100
AcDbEntity
8
1
62
256
6
ByLayer
370
18
48
1
60
0
100
AcDbLine
10
0
20
-2.464
30
0
11
17.654789
21
-2.464
31
0
39
0
210
0
220
0
230
1
0
LINE
5
AF
100
AcDbEntity
8
1
62
256
6
ByLayer
370
18
48
1
60
0
100
AcDbLine
10
43.857989
20
2.451509
30
0
11
43.783925
21
2.451509
31
0
39
0
210
0
220
0
230
1
0
LINE
5
B0
100
AcDbEntity
8
1
62
256
6
ByLayer
370
18
48
1
60
0
100
AcDbLine
10
42.488601
20
-2.27293
30
0
11
42.749091
21
-2.309539
31
0
39
0
210
0
220
0
230
1
0
LINE
5
B1
100
AcDbEntity
8
1
62
256
6
ByLayer
370
18
48
1
60
0
100
AcDbLine
10
40.15
20
1.944261
30
0
11
40.131924
21
1.9334
31
0
39
0
210
0
220
0
230
1
0
LINE
5
B2
100
AcDbEntity
8
1
62
256
6
ByLayer
370
18
48
1
60
0
100
AcDbLine
10
44.651785
20
2.451509
30
0
11
44.577714
21
2.451509
31
0
39
0
210
0
220
0
230
1
0
LINE
5
B3
100
AcDbEntity
8
1
62
256
6
ByLayer
370
18
48
1
60
0
100
AcDbLine
10
41.625886
20
-2.151683
30
0
11
42.014535
21
-2.206304
31
0
39
0
210
0
220
0
230
1
0
LINE
5
B4
100
AcDbEntity
8
1
62
256
6
ByLayer
370
18
48
1
60
0
100
AcDbLine
10
21.219991
20
-1.8477
30
0
11
25.901857
21
-1.8477
31
0
39
0
210
0
220
0
230
1
0
LINE
5
B5
100
AcDbEntity
8
1
62
256
6
ByLayer
370
18
48
1
60
0
100
AcDbLine
10
27.09529
20
-1.8477
30
0
11
28.575005
21
-1.8477
31
0
39
0
210
0
220
0
230
1
0
LINE
5
B6
100
AcDbEntity
8
1
62
256
6
ByLayer
370
18
48
1
60
0
100
AcDbLine
10
32.069921
20
-1.8477
30
0
11
33.331609
21
-1.8477
31
0
39
0
210
0
220
0
230
1
0
LINE
5
B7
100
AcDbEntity
8
1
62
256
6
ByLayer
370
18
48
1
60
0
100
AcDbLine
10
36.815565
20
-1.8477
30
0
11
38.087216
21
-1.8477
31
0
39
0
210
0
220
0
230
1
0
LINE
5
B8
100
AcDbEntity
8
1
62
256
6
ByLayer
370
18
48
1
60
0
100
AcDbLine
10
39.822901
20
1.8477
30
0
11
39.188585
21
1.8477
31
0
39
0
210
0
220
0
230
1
0
LINE
5
B9
100
AcDbEntity
8
1
62
256
6
ByLayer
370
18
48
1
60
0
100
AcDbLine
10
35.709316
20
1.8477
30
0
11
34.4427
21
1.8477
31
0
39
0
210
0
220
0
230
1
0
LINE
5
BA
100
AcDbEntity
8
1
62
256
6
ByLayer
370
18
48
1
60
0
100
AcDbLine
10
30.952611
20
1.8477
30
0
11
29.696593
21
1.8477
31
0
39
0
210
0
220
0
230
1
0
LINE
5
BB
100
AcDbEntity
8
1
62
256
6
ByLayer
370
18
48
1
60
0
100
AcDbLine
10
26.259764
20
1.8477
30
0
11
21.219991
21
1.8477
31
0
39
0
210
0
220
0
230
1
0
LINE
5
BC
100
AcDbEntity
8
1
62
256
6
ByLayer
370
18
48
1
60
0
100
AcDbLine
10
21.081072
20
1.859854
30
0
11
17.654789
21
2.464
31
0
39
0
210
0
220
0
230
1
0
LINE
5
BD
100
AcDbEntity
8
1
62
256
6
ByLayer
370
18
48
1
60
0
100
AcDbLine
10
17.654789
20
-2.464
30
0
11
21.081072
21
-1.859854
31
0
39
0
210
0
220
0
230
1
0
LINE
5
BE
100
AcDbEntity
8
SK1
62
256
6
ByLayer
370
18
48
1
60
0
100
AcDbLine
10
-21.35
20
-1.36544
30
0
11
-20.78544
21
-1.93
31
0
39
0
210
0
220
0
230
1
0
LINE
5
BF
100
AcDbEntity
8
SK1
62
256
6
ByLayer
370
18
48
1
60
0
100
AcDbLine
10
-20.78544
20
1.93
30
0
11
-21.35
21
1.36544
31
0
39
0
210
0
220
0
230
1
0
LINE
5
C0
100
AcDbEntity
8
SK1
62
256
6
ByLayer
370
18
48
1
60
0
100
AcDbLine
10
-14.365
20
2.36544
30
0
11
-14.56456
21
2.36544
31
0
39
0
210
0
220
0
230
1
0
LINE
5
C1
100
AcDbEntity
8
SK1
62
256
6
ByLayer
370
18
48
1
60
0
100
AcDbLine
10
-14.56456
20
-2.36544
30
0
11
-14.365
21
-2.36544
31
0
39
0
210
0
220
0
230
1
0
LINE
5
C2
100
AcDbEntity
8
SK1
62
256
6
ByLayer
370
18
48
1
60
0
100
AcDbLine
10
-14.365
20
-2.36544
30
0
11
-14.26644
21
-2.464
31
0
39
0
210
0
220
0
230
1
0
LINE
5
C3
100
AcDbEntity
8
SK1
62
256
6
ByLayer
370
18
48
1
60
0
100
AcDbLine
10
-14.26644
20
2.464
30
0
11
-14.365
21
2.36544
31
0
39
0
210
0
220
0
230
1
0
LINE
5
C4
100
AcDbEntity
8
SK1
62
256
6
ByLayer
370
18
48
1
60
0
100
AcDbLine
10
0
20
2.464
30
0
11
-14.26644
21
2.464
31
0
39
0
210
0
220
0
230
1
0
LINE
5
C5
100
AcDbEntity
8
SK1
62
256
6
ByLayer
370
18
48
1
60
0
100
AcDbLine
10
-14.26644
20
-2.464
30
0
11
0
21
-2.464
31
0
39
0
210
0
220
0
230
1
0
LINE
5
C6
100
AcDbEntity
8
SK2
62
256
6
ByLayer
370
13
48
1
60
0
100
AcDbLine
10
5.15
20
59.713423
30
0
11
5.15
21
-9.964
31
0
39
0
210
0
220
0
230
1
0
LINE
5
C8
100
AcDbEntity
8
SK2
62
256
6
ByLayer
370
13
48
1
60
0
100
AcDbLine
10
5.2375
20
2.464
30
0
11
7.15
21
2.464
31
0
39
0
210
0
220
0
230
1
0
LINE
5
C9
100
AcDbEntity
8
SK2
62
256
6
ByLayer
370
13
48
1
60
0
100
AcDbLine
10
5.2375
20
-2.464
30
0
11
7.15
21
-2.464
31
0
39
0
210
0
220
0
230
1
0
LINE
5
CA
100
AcDbEntity
8
1
62
256
6
ByLayer
370
18
48
1
60
1
100
AcDbLine
10
5.15
20
2.464
30
0
11
4.689216
21
5.963998
31
0
39
0
210
0
220
0
230
1
0
LINE
5
CB
100
AcDbEntity
8
1
62
256
6
ByLayer
370
18
48
1
60
1
100
AcDbLine
10
4.689216
20
5.963998
30
0
11
5.610784
21
5.964002
31
0
39
0
210
0
220
0
230
1
0
LINE
5
CC
100
AcDbEntity
8
1
62
256
6
ByLayer
370
18
48
1
60
1
100
AcDbLine
10
5.610784
20
5.964002
30
0
11
5.15
21
2.464
31
0
39
0
210
0
220
0
230
1
0
LINE
5
CD
100
AcDbEntity
8
1
62
256
6
ByLayer
370
18
48
1
60
1
100
AcDbLine
10
5.15
20
-2.464
30
0
11
5.610784
21
-5.963998
31
0
39
0
210
0
220
0
230
1
0
LINE
5
CE
100
AcDbEntity
8
1
62
256
6
ByLayer
370
18
48
1
60
1
100
AcDbLine
10
5.610784
20
-5.963998
30
0
11
4.689216
21
-5.964002
31
0
39
0
210
0
220
0
230
1
0
LINE
5
CF
100
AcDbEntity
8
1
62
256
6
ByLayer
370
18
48
1
60
1
100
AcDbLine
10
4.689216
20
-5.964002
30
0
11
5.15
21
-2.464
31
0
39
0
210
0
220
0
230
1
0
LINE
5
1EC
100
AcDbEntity
8
1
62
256
6
ByLayer
370
18
48
1
60
1
100
AcDbLine
10
5.15
20
2.464
30
0
11
4.689216
21
5.963998
31
0
39
0
210
0
220
0
230
1
0
LINE
5
1ED
100
AcDbEntity
8
1
62
256
6
ByLayer
370
18
48
1
60
1
100
AcDbLine
10
4.689216
20
5.963998
30
0
11
5.610784
21
5.964002
31
0
39
0
210
0
220
0
230
1
0
LINE
5
1EE
100
AcDbEntity
8
1
62
256
6
ByLayer
370
18
48
1
60
1
100
AcDbLine
10
5.610784
20
5.964002
30
0
11
5.15
21
2.464
31
0
39
0
210
0
220
0
230
1
0
LINE
5
1F0
100
AcDbEntity
8
1
62
256
6
ByLayer
370
18
48
1
60
1
100
AcDbLine
10
5.15
20
-2.464
30
0
11
5.610784
21
-5.963998
31
0
39
0
210
0
220
0
230
1
0
LINE
5
1F1
100
AcDbEntity
8
1
62
256
6
ByLayer
370
18
48
1
60
1
100
AcDbLine
10
5.610784
20
-5.963998
30
0
11
4.689216
21
-5.964002
31
0
39
0
210
0
220
0
230
1
0
LINE
5
1F2
100
AcDbEntity
8
1
62
256
6
ByLayer
370
18
48
1
60
1
100
AcDbLine
10
4.689216
20
-5.964002
30
0
11
5.15
21
-2.464
31
0
39
0
210
0
220
0
230
1
0
MTEXT
5
1E7
100
AcDbEntity
8
SK2
62
256
6
ByLayer
370
18
48
1
60
0
100
AcDbMText
10
3.808886
20
14.194438
30
0
210
0
220
0
230
1
1
%%c
40
3
41
0
44
1.084337
50
90
71
7
72
5
7
iso_b_vert
0
MTEXT
5
1EA
100
AcDbEntity
8
SK2
62
256
6
ByLayer
370
18
48
1
60
0
100
AcDbMText
10
3.960366
20
33.292127
30
0
210
0
220
0
230
1
1
\W0.8220;ASME-B94.9
40
3.5
41
0
44
1.084337
50
90
71
7
72
5
7
iso_b_vert
0
MTEXT
5
1EB
100
AcDbEntity
8
SK2
62
256
6
ByLayer
370
18
48
1
60
0
100
AcDbMText
10
3.808886
20
20.171
30
0
210
0
220
0
230
1
1
\W0.7694;4.928
40
3
41
0
44
1.084337
50
90
71
7
72
5
7
iso_b_vert
0
MTEXT
5
1F4
100
AcDbEntity
8
SK6
62
256
6
ByLayer
370
18
48
1
60
0
100
AcDbMText
10
-4.825756
20
-67.114886
30
0
210
0
220
0
230
1
1
\W0.7503;T300-PM100AF-10-32 P1PM
40
3
41
0
44
1.084337
50
0
71
7
72
5
7
iso_b_vert
0
HATCH
5
1EF
100
AcDbEntity
8
SK2
62
256
6
ByLayer
370
13
48
1
60
0
100
AcDbHatch
10
0
20
0
30
0
210
0
220
0
230
1
2
ANSI31
70
0
71
0
91
1
92
5
93
3
72
1
10
5.15000000000001
20
2.464
11
4.68921625844723
21
5.96399830744681
72
1
10
4.68921625844723
20
5.96399830744681
11
5.61078374155278
21
5.96400169255318
72
1
10
5.61078374155278
20
5.96400169255318
11
5.15000000000001
21
2.464
97
0
75
0
76
1
52
0
41
0.0062
77
0
78
1
53
45
43
0
44
0
45
-0.0139193969876572
46
0.0139193969876572
79
0
47
0
98
1
10
0
20
0
0
HATCH
5
1F3
100
AcDbEntity
8
SK2
62
256
6
ByLayer
370
13
48
1
60
0
100
AcDbHatch
10
0
20
0
30
0
210
0
220
0
230
1
2
ANSI31
70
0
71
0
91
1
92
5
93
3
72
1
10
5.15000000000001
20
-2.464
11
5.61078374155278
21
-5.96399830744681
72
1
10
5.61078374155278
20
-5.96399830744681
11
4.68921625844723
21
-5.96400169255318
72
1
10
4.68921625844723
20
-5.96400169255318
11
5.15000000000001
21
-2.464
97
0
75
0
76
1
52
0
41
0.0062
77
0
78
1
53
45
43
0
44
0
45
-0.0139193969876572
46
0.0139193969876572
79
0
47
0
98
1
10
0
20
0
0
DIMENSION
5
1F7
100
AcDbEntity
8
SK2
62
256
6
ByLayer
370
18
48
1
60
0
100
AcDbDimension
2
_U0
10
48.65
20
-51.043306
30
0
11
13.65
21
-51.043306
31
0
70
32
71
1
72
1
41
1
210
0
220
0
230
1
3
Standard
100
AcDbAlignedDimension
13
-21.35
23
0
33
0
14
48.65
24
0
34
0
50
0
100
AcDbRotatedDimension
1001
ACAD
1000
DSTYLE
1002
{
1070
   371
1070
    13
1070
   372
1070
    13
1070
     3
1000

1070
   170
1070
     0
1070
   144
1040
1.0
1070
   277
1070
     2
1070
   284
1070
     8
1070
   278
1070
    46
1070
   146
1040
1.166667
1070
   345
1005
16
1070
   347
1005
16
1070
   346
1005
16
1070
   344
1005
0
1070
   343
1005
0
1070
   172
1070
     1
1070
    76
1070
     0
1070
    75
1070
     0
1070
   282
1070
     0
1070
   281
1070
     0
1070
    71
1070
     0
1070
    74
1070
     0
1070
   279
1070
     0
1070
   173
1070
     1
1070
   340
1005
1E8
1070
   271
1070
     2
1070
   272
1070
     3
1070
    77
1070
     1
1070
    73
1070
     1
1070
   171
1070
     3
1070
   274
1070
     4
1070
   177
1070
     2
1070
   176
1070
     2
1070
   178
1070
     2
1070
    78
1070
     8
1070
    48
1040
-0.1
1070
    41
1040
3.5
1070
   147
1040
1.5
1070
    42
1040
1.5875
1070
    44
1040
2.0
1070
   140
1040
3.0
1002
}
1001
ACAD_DSTYLE_DIM_LINETYPE
1070
   380
1005
16
1001
ACAD_DSTYLE_DIM_EXT1_LINETYPE
1070
   381
1005
16
1001
ACAD_DSTYLE_DIM_EXT2_LINETYPE
1070
   382
1005
16
0
DIMENSION
5
210
100
AcDbEntity
8
SK2
62
256
6
ByLayer
370
18
48
1
60
0
100
AcDbDimension
2
_U1
10
21.15
20
-43.043306
30
0
11
34.9
21
-43.043306
31
0
70
32
71
1
72
1
41
1
210
0
220
0
230
1
3
Standard
100
AcDbAlignedDimension
13
48.65
23
0
33
0
14
21.15
24
0
34
0
50
0
100
AcDbRotatedDimension
1001
ACAD
1000
DSTYLE
1002
{
1070
   371
1070
    13
1070
   372
1070
    13
1070
     3
1000

1070
   170
1070
     0
1070
   144
1040
1.0
1070
   277
1070
     2
1070
   284
1070
     8
1070
   278
1070
    46
1070
   146
1040
1.166667
1070
   345
1005
16
1070
   347
1005
16
1070
   346
1005
16
1070
   344
1005
0
1070
   343
1005
0
1070
   172
1070
     1
1070
    76
1070
     0
1070
    75
1070
     0
1070
   282
1070
     0
1070
   281
1070
     0
1070
    71
1070
     0
1070
    74
1070
     0
1070
   279
1070
     0
1070
   173
1070
     1
1070
   340
1005
1E8
1070
   271
1070
     2
1070
   272
1070
     3
1070
    77
1070
     1
1070
    73
1070
     1
1070
   171
1070
     3
1070
   274
1070
     4
1070
   177
1070
     2
1070
   176
1070
     2
1070
   178
1070
     2
1070
    78
1070
     8
1070
    48
1040
-0.1
1070
    41
1040
3.5
1070
   147
1040
1.5
1070
    42
1040
1.5875
1070
    44
1040
2.0
1070
   140
1040
3.0
1002
}
1001
ACAD_DSTYLE_DIM_LINETYPE
1070
   380
1005
16
1001
ACAD_DSTYLE_DIM_EXT1_LINETYPE
1070
   381
1005
16
1001
ACAD_DSTYLE_DIM_EXT2_LINETYPE
1070
   382
1005
16
0
DIMENSION
5
228
100
AcDbEntity
8
2
62
256
6
ByLayer
370
18
48
1
60
0
100
AcDbDimension
2
_U2
10
25.275
20
-35.043306
30
0
11
36.9625
21
-35.043306
31
0
70
32
71
1
72
1
41
1
210
0
220
0
230
1
3
Standard
100
AcDbAlignedDimension
13
48.65
23
0
33
0
14
25.275
24
0
34
0
50
0
100
AcDbRotatedDimension
1001
ACAD
1000
DSTYLE
1002
{
1070
   371
1070
    13
1070
   372
1070
    13
1070
     3
1000

1070
   170
1070
     0
1070
   144
1040
1.0
1070
   277
1070
     2
1070
   284
1070
     8
1070
   278
1070
    46
1070
   146
1040
1.166667
1070
   345
1005
16
1070
   347
1005
16
1070
   346
1005
16
1070
   344
1005
0
1070
   343
1005
0
1070
   172
1070
     1
1070
    76
1070
     0
1070
    75
1070
     0
1070
   282
1070
     0
1070
   281
1070
     0
1070
    71
1070
     0
1070
    74
1070
     0
1070
   279
1070
     0
1070
   173
1070
     1
1070
   340
1005
1E8
1070
   271
1070
     2
1070
   272
1070
     3
1070
    77
1070
     1
1070
    73
1070
     1
1070
   171
1070
     3
1070
   274
1070
     4
1070
   177
1070
     2
1070
   176
1070
     2
1070
   178
1070
     2
1070
    78
1070
     8
1070
    48
1040
-0.1
1070
    41
1040
3.5
1070
   147
1040
1.5
1070
    42
1040
1.5875
1070
    44
1040
2.0
1070
   140
1040
3.0
1002
}
1001
ACAD_DSTYLE_DIM_LINETYPE
1070
   380
1005
16
1001
ACAD_DSTYLE_DIM_EXT1_LINETYPE
1070
   381
1005
16
1001
ACAD_DSTYLE_DIM_EXT2_LINETYPE
1070
   382
1005
16
0
DIMENSION
5
241
100
AcDbEntity
8
SK2
62
256
6
ByLayer
370
18
48
1
60
0
100
AcDbDimension
2
_U3
10
40.15
20
-27.043306
30
0
11
44.4
21
-27.043306
31
0
70
32
71
1
72
1
41
1
210
0
220
0
230
1
3
Standard
100
AcDbAlignedDimension
13
48.65
23
0
33
0
14
40.15
24
-1.8477
34
0
50
0
100
AcDbRotatedDimension
1001
ACAD
1000
DSTYLE
1002
{
1070
   371
1070
    13
1070
   372
1070
    13
1070
     3
1000

1070
   170
1070
     0
1070
   144
1040
1.0
1070
   277
1070
     2
1070
   284
1070
     8
1070
   278
1070
    46
1070
   146
1040
1.166667
1070
   345
1005
16
1070
   347
1005
16
1070
   346
1005
16
1070
   344
1005
0
1070
   343
1005
0
1070
   172
1070
     1
1070
    76
1070
     0
1070
    75
1070
     0
1070
   282
1070
     0
1070
   281
1070
     0
1070
    71
1070
     0
1070
    74
1070
     0
1070
   279
1070
     0
1070
   173
1070
     1
1070
   340
1005
1E8
1070
   271
1070
     2
1070
   272
1070
     3
1070
    77
1070
     1
1070
    73
1070
     1
1070
   171
1070
     3
1070
   274
1070
     4
1070
   177
1070
     2
1070
   176
1070
     2
1070
   178
1070
     2
1070
    78
1070
     8
1070
    48
1040
-0.1
1070
    41
1040
3.5
1070
   147
1040
1.5
1070
    42
1040
1.5875
1070
    44
1040
2.0
1070
   140
1040
3.0
1002
}
1001
ACAD_DSTYLE_DIM_LINETYPE
1070
   380
1005
16
1001
ACAD_DSTYLE_DIM_EXT1_LINETYPE
1070
   381
1005
16
1001
ACAD_DSTYLE_DIM_EXT2_LINETYPE
1070
   382
1005
16
0
DIMENSION
5
25A
100
AcDbEntity
8
SK2
62
256
6
ByLayer
370
18
48
1
60
0
100
AcDbDimension
2
_U4
10
46.47
20
5.403017
30
0
11
47.56
21
5.403017
31
0
70
32
71
1
72
1
41
1
210
0
220
0
230
1
3
Standard
100
AcDbAlignedDimension
13
48.65
23
0
33
0
14
46.47
24
0
34
0
50
0
100
AcDbRotatedDimension
1001
ACAD
1000
DSTYLE
1002
{
1070
   371
1070
    13
1070
   372
1070
    13
1070
     3
1000

1070
   170
1070
     0
1070
   144
1040
1.0
1070
   277
1070
     2
1070
   284
1070
     8
1070
   278
1070
    46
1070
   146
1040
1.166667
1070
   345
1005
16
1070
   347
1005
16
1070
   346
1005
16
1070
   344
1005
0
1070
   343
1005
0
1070
   172
1070
     1
1070
    76
1070
     0
1070
    75
1070
     0
1070
   282
1070
     0
1070
   281
1070
     0
1070
    71
1070
     0
1070
    74
1070
     0
1070
   279
1070
     0
1070
   173
1070
     1
1070
   340
1005
1E8
1070
   271
1070
     2
1070
   272
1070
     3
1070
    77
1070
     1
1070
    73
1070
     1
1070
   171
1070
     3
1070
   274
1070
     4
1070
   177
1070
     2
1070
   176
1070
     2
1070
   178
1070
     2
1070
    78
1070
     8
1070
    48
1040
-0.1
1070
    41
1040
3.5
1070
   147
1040
1.5
1070
    42
1040
1.5875
1070
    44
1040
2.0
1070
   140
1040
3.0
1002
}
1001
ACAD_DSTYLE_DIM_LINETYPE
1070
   380
1005
16
1001
ACAD_DSTYLE_DIM_EXT1_LINETYPE
1070
   381
1005
16
1001
ACAD_DSTYLE_DIM_EXT2_LINETYPE
1070
   382
1005
16
0
DIMENSION
5
274
100
AcDbEntity
8
2
62
256
6
ByLayer
370
18
48
1
60
0
100
AcDbDimension
2
_U5
10
65.15
20
2.451509
30
0
11
65.15
21
17.022937
31
0
70
32
71
1
72
1
41
1
210
0
220
0
230
1
3
Standard
100
AcDbAlignedDimension
13
48.65
23
-2.451509
33
0
14
48.65
24
2.451509
34
0
50
90
100
AcDbRotatedDimension
1001
ACAD
1000
DSTYLE
1002
{
1070
   371
1070
    13
1070
   372
1070
    13
1070
     3
1000

1070
   170
1070
     0
1070
   144
1040
1.0
1070
   277
1070
     2
1070
   284
1070
     8
1070
   278
1070
    46
1070
   146
1040
1.166667
1070
   345
1005
16
1070
   347
1005
16
1070
   346
1005
16
1070
   344
1005
0
1070
   343
1005
0
1070
   172
1070
     1
1070
    76
1070
     0
1070
    75
1070
     0
1070
   282
1070
     0
1070
   281
1070
     0
1070
    71
1070
     0
1070
    74
1070
     0
1070
   279
1070
     0
1070
   173
1070
     1
1070
   340
1005
1E8
1070
   271
1070
     2
1070
   272
1070
     3
1070
    77
1070
     1
1070
    73
1070
     0
1070
   171
1070
     3
1070
   274
1070
     4
1070
   177
1070
     2
1070
   176
1070
     2
1070
   178
1070
     2
1070
    78
1070
     8
1070
    48
1040
-0.1
1070
    41
1040
3.5
1070
   147
1040
1.5
1070
    42
1040
1.5875
1070
    44
1040
2.0
1070
   140
1040
3.0
1002
}
1001
ACAD_DSTYLE_DIM_LINETYPE
1070
   380
1005
16
1001
ACAD_DSTYLE_DIM_EXT1_LINETYPE
1070
   381
1005
16
1001
ACAD_DSTYLE_DIM_EXT2_LINETYPE
1070
   382
1005
16
0
DIMENSION
5
28F
100
AcDbEntity
8
SK2
62
256
6
ByLayer
370
18
48
1
60
0
100
AcDbDimension
2
_U6
10
-26.85
20
-1.93
30
0
11
-26.85
21
18.001429
31
0
70
32
71
1
72
1
41
1
210
0
220
0
230
1
3
Standard
100
AcDbAlignedDimension
13
-21.35
23
1.93
33
0
14
-21.35
24
-1.93
34
0
50
90
100
AcDbRotatedDimension
1001
ACAD
1000
DSTYLE
1002
{
1070
   371
1070
    13
1070
   372
1070
    13
1070
     3
1000

1070
   170
1070
     0
1070
   144
1040
1.0
1070
   277
1070
     2
1070
   284
1070
     8
1070
   278
1070
    46
1070
   146
1040
1.166667
1070
   345
1005
16
1070
   347
1005
16
1070
   346
1005
16
1070
   344
1005
0
1070
   343
1005
0
1070
   172
1070
     1
1070
    76
1070
     0
1070
    75
1070
     0
1070
   282
1070
     0
1070
   281
1070
     0
1070
    71
1070
     0
1070
    74
1070
     0
1070
   279
1070
     0
1070
   173
1070
     1
1070
   340
1005
1E8
1070
   271
1070
     2
1070
   272
1070
     3
1070
    77
1070
     1
1070
    73
1070
     0
1070
   171
1070
     3
1070
   274
1070
     4
1070
   177
1070
     2
1070
   176
1070
     2
1070
   178
1070
     2
1070
    78
1070
     8
1070
    48
1040
-0.1
1070
    41
1040
3.5
1070
   147
1040
1.5
1070
    42
1040
1.5875
1070
    44
1040
2.0
1070
   140
1040
3.0
1002
}
1001
ACAD_DSTYLE_DIM_LINETYPE
1070
   380
1005
16
1001
ACAD_DSTYLE_DIM_EXT1_LINETYPE
1070
   381
1005
16
1001
ACAD_DSTYLE_DIM_EXT2_LINETYPE
1070
   382
1005
16
0
ENDSEC
0
SECTION
2
OBJECTS
0
DICTIONARY
5
319
330
0
100
AcDbDictionary
280
0
281
1
3
ACAD_GROUP
350
31a
3
ACAD_MLINESTYLE
350
31b
0
DICTIONARY
5
31a
330
0
100
AcDbDictionary
280
0
281
1
0
DICTIONARY
5
31b
330
0
100
AcDbDictionary
280
0
281
1
3
Standard
350
18
0
MLINESTYLE
5
18
330
31b
100
AcDbMlineStyle
2
Standard
70
0
3

62
256
51
90
52
90
71
2
49
-0.5
62
256
6
ByLayer
49
0.5
62
256
6
ByLayer
0
RASTERVARIABLES
5
307
330

100
AcDbRasterVariables
90
0
70
1
71
1
72
1
0
ENDSEC
0
EOF
