0
SECTION
2
HEADER
9
$ACADVER
1
AC1015
9
$DWGCODEPAGE
3
ANSI_1252
9
$HANDSEED
5
30a
9
$ANGBASE
50
0
9
$ANGDIR
70
0
9
$ATTMODE
70
1
9
$AUNITS
70
0
9
$AUPREC
70
0
9
$CECOLOR
62
256
9
$CELTSCALE
40
1
9
$CELTYPE
6
ByLayer
9
$CELWEIGHT
370
18
9
$CLAYER
8
0
9
$CMLJUST
70
0
9
$CMLSCALE
40
1
9
$CMLSTYLE
2
Standard
9
$DIMSTYLE
2
Standard
9
$TEXTSIZE
40
0.2
9
$TEXTSTYLE
7
Standard
9
$LUNITS
70
2
9
$LUPREC
70
4
9
$EXTNAMES
290
1
9
$INSUNITS
70
4
9
$LTSCALE
40
1
9
$LWDISPLAY
290
1
9
$PDMODE
70
0
9
$PDSIZE
40
0
9
$PLINEGEN
70
0
0
ENDSEC
0
SECTION
2
CLASSES
0
CLASS
1
RASTERVARIABLES
2
AcDbRasterVariables
3
ISM
90
0
280
0
281
0
0
ENDSEC
0
SECTION
2
TABLES
0
TABLE
2
VPORT
5
300
100
AcDbSymbolTable
0
VPORT
5
1
100
AcDbSymbolTableRecord
100
AcDbViewportTableRecord
2
*Active
70
0
10
0
20
0
11
1
21
1
12
-1
22
1
13
0
23
0
14
0.5
24
0.5
15
10
25
10
16
0
26
0
36
1
17
0
27
0
37
0
0
ENDTAB
0
TABLE
2
LTYPE
5
301
100
AcDbSymbolTable
0
LTYPE
5
14
100
AcDbSymbolTableRecord
100
AcDbLinetypeTableRecord
70
0
2
ByBlock
3

72
65
73
0
40
0
0
LTYPE
5
15
100
AcDbSymbolTableRecord
100
AcDbLinetypeTableRecord
70
0
2
ByLayer
3

72
65
73
0
40
0
0
LTYPE
5
16
100
AcDbSymbolTableRecord
100
AcDbLinetypeTableRecord
70
0
2
Continuous
3
Solid line
72
65
73
0
40
0
0
LTYPE
5
6E
100
AcDbSymbolTableRecord
100
AcDbLinetypeTableRecord
70
0
2
CENTER
3
____ _ ____ _ ____ _ ____
72
65
73
4
40
47.5
49
22
74
0
49
-8.5
74
0
49
8.5
74
0
49
-8.5
74
0
0
LTYPE
5
6F
100
AcDbSymbolTableRecord
100
AcDbLinetypeTableRecord
70
0
2
DASHED
3
__ __ __ __ __ __ __ __ __
72
65
73
2
40
25.72
49
12.86
74
0
49
-12.86
74
0
0
ENDTAB
0
TABLE
2
LAYER
5
302
100
AcDbSymbolTable
0
LAYER
5
10
100
AcDbSymbolTableRecord
100
AcDbLayerTableRecord
2
0
70
0
62
7
6
Continuous
290
1
370
-3
390
0
0
LAYER
5
71
100
AcDbSymbolTableRecord
100
AcDbLayerTableRecord
2
81
70
0
62
-3
6
Continuous
290
1
370
-3
390
0
0
LAYER
5
73
100
AcDbSymbolTableRecord
100
AcDbLayerTableRecord
2
80
70
0
62
-6
6
Continuous
290
1
370
-3
390
0
0
LAYER
5
75
100
AcDbSymbolTableRecord
100
AcDbLayerTableRecord
2
1
70
0
62
4
6
Continuous
290
1
370
-3
390
0
0
LAYER
5
85
100
AcDbSymbolTableRecord
100
AcDbLayerTableRecord
2
4
70
0
62
-2
6
CENTER
290
1
370
-3
390
0
0
LAYER
5
1DF
100
AcDbSymbolTableRecord
100
AcDbLayerTableRecord
2
Defpoints
70
0
62
7
6
Continuous
290
0
370
-3
390
0
0
LAYER
5
21C
100
AcDbSymbolTableRecord
100
AcDbLayerTableRecord
2
2
70
0
62
7
6
Continuous
290
1
370
-3
390
0
0
LAYER
5
2ec
100
AcDbSymbolTableRecord
100
AcDbLayerTableRecord
2
SK4
70
0
62
2
6
CENTER
290
1
370
-3
390
0
0
LAYER
5
2ed
100
AcDbSymbolTableRecord
100
AcDbLayerTableRecord
2
SK1
70
0
62
4
6
Continuous
290
1
370
-3
390
0
0
LAYER
5
2ee
100
AcDbSymbolTableRecord
100
AcDbLayerTableRecord
2
SK2
70
0
62
7
6
Continuous
290
1
370
-3
390
0
0
LAYER
5
2ef
100
AcDbSymbolTableRecord
100
AcDbLayerTableRecord
2
SK6
70
0
62
5
6
Continuous
290
1
370
-3
390
0
0
ENDTAB
0
TABLE
2
STYLE
5
303
100
AcDbSymbolTable
0
STYLE
5
11
100
AcDbSymbolTableRecord
100
AcDbTextStyleTableRecord
2
Standard
3
txt
70
0
71
0
40
0
41
1
42
0
50
0
0
STYLE
5
1CD
100
AcDbSymbolTableRecord
100
AcDbTextStyleTableRecord
2
iso_b_vert
3
simplex.shx
70
0
71
0
40
0
41
1
42
0
50
0
0
STYLE
5
1CE
100
AcDbSymbolTableRecord
100
AcDbTextStyleTableRecord
2
DWGDirectTextStyle
3
simplex
70
0
71
0
40
0
41
1
42
0
50
0
0
ENDTAB
0
TABLE
2
DIMSTYLE
5
304
100
AcDbSymbolTable
100
AcDbDimStyleTable
0
DIMSTYLE
105
27
100
AcDbSymbolTableRecord
100
AcDbDimStyleTableRecord
2
Standard
70
0
3
<>
41
0.18
42
0.0625
44
0.18
140
0.18
147
0.09
73
0
74
0
77
1
271
2
275
0
278
52
280
0
340
11
0
ENDTAB
0
TABLE
2
VIEW
5
305
100
AcDbSymbolTable
0
ENDTAB
0
TABLE
2
UCS
5
306
100
AcDbSymbolTable
0
ENDTAB
0
TABLE
2
APPID
5
307
100
AcDbSymbolTable
0
APPID
5
12
100
AcDbSymbolTableRecord
100
AcDbRegAppTableRecord
2
ACAD
70
0
0
APPID
5
1DB
100
AcDbSymbolTableRecord
100
AcDbRegAppTableRecord
2
ACAD_DSTYLE_DIMBREAK
70
0
0
APPID
5
2AB
100
AcDbSymbolTableRecord
100
AcDbRegAppTableRecord
2
ACAD_DSTYLE_DIM_LINETYPE
70
0
0
APPID
5
2AC
100
AcDbSymbolTableRecord
100
AcDbRegAppTableRecord
2
ACAD_DSTYLE_DIM_EXT1_LINETYPE
70
0
0
APPID
5
2AD
100
AcDbSymbolTableRecord
100
AcDbRegAppTableRecord
2
ACAD_DSTYLE_DIM_EXT2_LINETYPE
70
0
0
APPID
5
2E8
100
AcDbSymbolTableRecord
100
AcDbRegAppTableRecord
2
ACAD_MLEADERVER
70
0
0
ENDTAB
0
TABLE
2
BLOCK_RECORD
5
308
100
AcDbSymbolTable
0
BLOCK_RECORD
5
1F
100
AcDbSymbolTableRecord
100
AcDbBlockTableRecord
2
*Model_Space
340
0
70
0
0
BLOCK_RECORD
5
1B
100
AcDbSymbolTableRecord
100
AcDbBlockTableRecord
2
*Paper_Space
340
0
70
0
0
BLOCK_RECORD
5
23
100
AcDbSymbolTableRecord
100
AcDbBlockTableRecord
2
*Paper_Space0
340
0
70
0
0
BLOCK_RECORD
5
1E0
100
AcDbSymbolTableRecord
100
AcDbBlockTableRecord
2
*D1
340
0
70
0
0
BLOCK_RECORD
5
1EC
100
AcDbSymbolTableRecord
100
AcDbBlockTableRecord
2
_U0
340
0
70
0
0
BLOCK_RECORD
5
1F8
100
AcDbSymbolTableRecord
100
AcDbBlockTableRecord
2
*D3
340
0
70
0
0
BLOCK_RECORD
5
204
100
AcDbSymbolTableRecord
100
AcDbBlockTableRecord
2
_U1
340
0
70
0
0
BLOCK_RECORD
5
210
100
AcDbSymbolTableRecord
100
AcDbBlockTableRecord
2
*D5
340
0
70
0
0
BLOCK_RECORD
5
21D
100
AcDbSymbolTableRecord
100
AcDbBlockTableRecord
2
_U2
340
0
70
0
0
BLOCK_RECORD
5
229
100
AcDbSymbolTableRecord
100
AcDbBlockTableRecord
2
*D7
340
0
70
0
0
BLOCK_RECORD
5
235
100
AcDbSymbolTableRecord
100
AcDbBlockTableRecord
2
_U3
340
0
70
0
0
BLOCK_RECORD
5
241
100
AcDbSymbolTableRecord
100
AcDbBlockTableRecord
2
*D9
340
0
70
0
0
BLOCK_RECORD
5
24E
100
AcDbSymbolTableRecord
100
AcDbBlockTableRecord
2
_U4
340
0
70
0
0
BLOCK_RECORD
5
25B
100
AcDbSymbolTableRecord
100
AcDbBlockTableRecord
2
*D11
340
0
70
0
0
BLOCK_RECORD
5
269
100
AcDbSymbolTableRecord
100
AcDbBlockTableRecord
2
_U5
340
0
70
0
0
BLOCK_RECORD
5
276
100
AcDbSymbolTableRecord
100
AcDbBlockTableRecord
2
*D13
340
0
70
0
0
BLOCK_RECORD
5
284
100
AcDbSymbolTableRecord
100
AcDbBlockTableRecord
2
_U6
340
0
70
0
0
ENDTAB
0
ENDSEC
0
SECTION
2
BLOCKS
0
BLOCK
5
20
100
AcDbEntity
8
0
100
AcDbBlockBegin
2
*Model_Space
70
0
10
0
20
0
30
0
3
*Model_Space
0
ENDBLK
5
21
100
AcDbEntity
8
0
100
AcDbBlockEnd
0
BLOCK
5
1C
100
AcDbEntity
8
0
100
AcDbBlockBegin
2
*Paper_Space
70
0
10
0
20
0
30
0
3
*Paper_Space
0
ENDBLK
5
1D
100
AcDbEntity
8
0
100
AcDbBlockEnd
0
BLOCK
5
24
100
AcDbEntity
8
0
100
AcDbBlockBegin
2
*Paper_Space0
70
0
10
0
20
0
30
0
3
*Paper_Space0
0
ENDBLK
5
25
100
AcDbEntity
8
0
100
AcDbBlockEnd
0
BLOCK
5
1E1
100
AcDbEntity
8
0
100
AcDbBlockBegin
2
*D1
70
1
10
0
20
0
30
0
3
*D1
0
LINE
5
1E3
100
AcDbEntity
8
0
62
256
6
ByLayer
370
-2
48
1
60
0
100
AcDbLine
10
-28.18
20
-1.5875
30
0
11
-28.18
21
-53.085835
31
0
39
0
210
0
220
0
230
1
0
LINE
5
1E4
100
AcDbEntity
8
0
62
256
6
ByLayer
370
-2
48
1
60
0
100
AcDbLine
10
81.82
20
-1.5875
30
0
11
81.82
21
-53.085835
31
0
39
0
210
0
220
0
230
1
0
LINE
5
1E5
100
AcDbEntity
8
0
62
256
6
ByLayer
370
-2
48
1
60
0
100
AcDbLine
10
-24.68
20
-51.085835
30
0
11
78.32
21
-51.085835
31
0
39
0
210
0
220
0
230
1
0
SOLID
5
1E6
100
AcDbEntity
8
0
62
256
6
ByLayer
370
-1
48
1
60
0
100
AcDbTrace
10
-24.68
20
-50.502501
30
0
11
-24.68
21
-51.669168
31
0
12
-28.18
22
-51.085835
32
0
13
-28.18
23
-51.085835
33
0
39
0
210
0
220
0
230
1
0
SOLID
5
1E7
100
AcDbEntity
8
0
62
256
6
ByLayer
370
-1
48
1
60
0
100
AcDbTrace
10
78.32
20
-51.669168
30
0
11
78.32
21
-50.502501
31
0
12
81.82
22
-51.085835
32
0
13
81.82
23
-51.085835
33
0
39
0
210
0
220
0
230
1
0
MTEXT
5
1E8
100
AcDbEntity
8
0
62
256
6
ByLayer
370
18
48
1
60
0
100
AcDbMText
10
26.82
20
-45.085835
30
0
210
0
220
0
230
1
1
\A1;110
40
3
41
0
44
1
50
0
71
5
72
5
7
iso_b_vert
0
POINT
5
1E9
100
AcDbEntity
8
Defpoints
62
0
6
ByLayer
370
-1
48
1
60
0
100
AcDbPoint
10
-28.18
20
0
30
0
39
0
210
0
220
0
230
1
50
360
0
POINT
5
1EA
100
AcDbEntity
8
Defpoints
62
0
6
ByLayer
370
-1
48
1
60
0
100
AcDbPoint
10
81.82
20
0
30
0
39
0
210
0
220
0
230
1
50
360
0
POINT
5
1EB
100
AcDbEntity
8
Defpoints
62
0
6
ByLayer
370
-1
48
1
60
0
100
AcDbPoint
10
81.82
20
-51.085835
30
0
39
0
210
0
220
0
230
1
50
360
0
ENDBLK
5
1E2
100
AcDbEntity
8
0
100
AcDbBlockEnd
0
BLOCK
5
1F3
100
AcDbEntity
8
0
100
AcDbBlockBegin
2
_U0
70
0
10
0
20
0
30
0
3
_U0
0
MTEXT
5
1ED
100
AcDbEntity
8
SK2
62
256
6
ByLayer
370
18
48
1
60
0
100
AcDbMText
10
23.087515
20
-50.20072
30
0
210
0
220
0
230
1
1
\W0.6261;110.0
40
3
41
0
44
1.084337
50
0
71
7
72
5
7
iso_b_vert
0
LINE
5
1EE
100
AcDbEntity
8
SK2
62
256
6
ByLayer
370
13
48
1
60
0
100
AcDbLine
10
-28.18
20
-1.5875
30
0
11
-28.18
21
-53.085835
31
0
39
0
210
0
220
0
230
1
0
LINE
5
1EF
100
AcDbEntity
8
SK2
62
256
6
ByLayer
370
13
48
1
60
0
100
AcDbLine
10
81.82
20
-1.5875
30
0
11
81.82
21
-53.085835
31
0
39
0
210
0
220
0
230
1
0
LINE
5
1F0
100
AcDbEntity
8
SK2
62
256
6
ByLayer
370
13
48
1
60
0
100
AcDbLine
10
-28.18
20
-51.085835
30
0
11
81.82
21
-51.085835
31
0
39
0
210
0
220
0
230
1
0
SOLID
5
1F1
100
AcDbEntity
8
SK2
62
256
6
ByLayer
370
18
48
1
60
0
100
AcDbTrace
10
-28.18
20
-51.085835
30
0
11
-24.680002
21
-50.625051
31
0
12
-24.679998
22
-51.546618
32
0
13
-24.679998
23
-51.546618
33
0
39
0
210
0
220
0
230
1
0
SOLID
5
1F2
100
AcDbEntity
8
SK2
62
256
6
ByLayer
370
18
48
1
60
0
100
AcDbTrace
10
81.82
20
-51.085835
30
0
11
78.320002
21
-51.546618
31
0
12
78.319998
22
-50.625051
32
0
13
78.319998
23
-50.625051
33
0
39
0
210
0
220
0
230
1
0
ENDBLK
5
1F4
100
AcDbEntity
8
0
100
AcDbBlockEnd
0
BLOCK
5
1F9
100
AcDbEntity
8
0
100
AcDbBlockBegin
2
*D3
70
1
10
0
20
0
30
0
3
*D3
0
LINE
5
1FB
100
AcDbEntity
8
0
62
256
6
ByLayer
370
-2
48
1
60
0
100
AcDbLine
10
81.82
20
-1.5875
30
0
11
81.82
21
-45.085835
31
0
39
0
210
0
220
0
230
1
0
LINE
5
1FC
100
AcDbEntity
8
0
62
256
6
ByLayer
370
-2
48
1
60
0
100
AcDbLine
10
26.82
20
-1.5875
30
0
11
26.82
21
-45.085835
31
0
39
0
210
0
220
0
230
1
0
LINE
5
1FD
100
AcDbEntity
8
0
62
256
6
ByLayer
370
-2
48
1
60
0
100
AcDbLine
10
78.32
20
-43.085835
30
0
11
30.32
21
-43.085835
31
0
39
0
210
0
220
0
230
1
0
SOLID
5
1FE
100
AcDbEntity
8
0
62
256
6
ByLayer
370
-1
48
1
60
0
100
AcDbTrace
10
78.32
20
-43.669168
30
0
11
78.32
21
-42.502501
31
0
12
81.82
22
-43.085835
32
0
13
81.82
23
-43.085835
33
0
39
0
210
0
220
0
230
1
0
SOLID
5
1FF
100
AcDbEntity
8
0
62
256
6
ByLayer
370
-1
48
1
60
0
100
AcDbTrace
10
30.32
20
-42.502501
30
0
11
30.32
21
-43.669168
31
0
12
26.82
22
-43.085835
32
0
13
26.82
23
-43.085835
33
0
39
0
210
0
220
0
230
1
0
MTEXT
5
200
100
AcDbEntity
8
0
62
256
6
ByLayer
370
18
48
1
60
0
100
AcDbMText
10
54.32
20
-37.085835
30
0
210
0
220
0
230
1
1
\A1;55
40
3
41
0
44
1
50
0
71
5
72
5
7
iso_b_vert
0
POINT
5
201
100
AcDbEntity
8
Defpoints
62
0
6
ByLayer
370
-1
48
1
60
0
100
AcDbPoint
10
81.82
20
0
30
0
39
0
210
0
220
0
230
1
50
360
0
POINT
5
202
100
AcDbEntity
8
Defpoints
62
0
6
ByLayer
370
-1
48
1
60
0
100
AcDbPoint
10
26.82
20
0
30
0
39
0
210
0
220
0
230
1
50
360
0
POINT
5
203
100
AcDbEntity
8
Defpoints
62
0
6
ByLayer
370
-1
48
1
60
0
100
AcDbPoint
10
26.82
20
-43.085835
30
0
39
0
210
0
220
0
230
1
50
360
0
ENDBLK
5
1FA
100
AcDbEntity
8
0
100
AcDbBlockEnd
0
BLOCK
5
20B
100
AcDbEntity
8
0
100
AcDbBlockBegin
2
_U1
70
0
10
0
20
0
30
0
3
_U1
0
MTEXT
5
205
100
AcDbEntity
8
SK2
62
256
6
ByLayer
370
18
48
1
60
0
100
AcDbMText
10
50.958544
20
-42.20072
30
0
210
0
220
0
230
1
1
\W0.7346;55.0
40
3
41
0
44
1.084337
50
0
71
7
72
5
7
iso_b_vert
0
LINE
5
206
100
AcDbEntity
8
SK2
62
256
6
ByLayer
370
13
48
1
60
0
100
AcDbLine
10
81.82
20
-1.5875
30
0
11
81.82
21
-45.085835
31
0
39
0
210
0
220
0
230
1
0
LINE
5
207
100
AcDbEntity
8
SK2
62
256
6
ByLayer
370
13
48
1
60
0
100
AcDbLine
10
26.82
20
-1.5875
30
0
11
26.82
21
-45.085835
31
0
39
0
210
0
220
0
230
1
0
LINE
5
208
100
AcDbEntity
8
SK2
62
256
6
ByLayer
370
13
48
1
60
0
100
AcDbLine
10
81.82
20
-43.085835
30
0
11
26.82
21
-43.085835
31
0
39
0
210
0
220
0
230
1
0
SOLID
5
209
100
AcDbEntity
8
SK2
62
256
6
ByLayer
370
18
48
1
60
0
100
AcDbTrace
10
81.82
20
-43.085835
30
0
11
78.320002
21
-43.546618
31
0
12
78.319998
22
-42.625051
32
0
13
78.319998
23
-42.625051
33
0
39
0
210
0
220
0
230
1
0
SOLID
5
20A
100
AcDbEntity
8
SK2
62
256
6
ByLayer
370
18
48
1
60
0
100
AcDbTrace
10
26.82
20
-43.085835
30
0
11
30.319998
21
-42.625051
31
0
12
30.320002
22
-43.546618
32
0
13
30.320002
23
-43.546618
33
0
39
0
210
0
220
0
230
1
0
ENDBLK
5
20C
100
AcDbEntity
8
0
100
AcDbBlockEnd
0
BLOCK
5
211
100
AcDbEntity
8
0
100
AcDbBlockBegin
2
*D5
70
1
10
0
20
0
30
0
3
*D5
0
LINE
5
213
100
AcDbEntity
8
0
62
256
6
ByLayer
370
-2
48
1
60
0
100
AcDbLine
10
81.82
20
-1.5875
30
0
11
81.82
21
-37.085835
31
0
39
0
210
0
220
0
230
1
0
LINE
5
214
100
AcDbEntity
8
0
62
256
6
ByLayer
370
-2
48
1
60
0
100
AcDbLine
10
35.07
20
-1.5875
30
0
11
35.07
21
-37.085835
31
0
39
0
210
0
220
0
230
1
0
LINE
5
215
100
AcDbEntity
8
0
62
256
6
ByLayer
370
-2
48
1
60
0
100
AcDbLine
10
78.32
20
-35.085835
30
0
11
38.57
21
-35.085835
31
0
39
0
210
0
220
0
230
1
0
SOLID
5
216
100
AcDbEntity
8
0
62
256
6
ByLayer
370
-1
48
1
60
0
100
AcDbTrace
10
78.32
20
-35.669168
30
0
11
78.32
21
-34.502501
31
0
12
81.82
22
-35.085835
32
0
13
81.82
23
-35.085835
33
0
39
0
210
0
220
0
230
1
0
SOLID
5
217
100
AcDbEntity
8
0
62
256
6
ByLayer
370
-1
48
1
60
0
100
AcDbTrace
10
38.57
20
-34.502501
30
0
11
38.57
21
-35.669168
31
0
12
35.07
22
-35.085835
32
0
13
35.07
23
-35.085835
33
0
39
0
210
0
220
0
230
1
0
MTEXT
5
218
100
AcDbEntity
8
0
62
256
6
ByLayer
370
18
48
1
60
0
100
AcDbMText
10
58.445
20
-29.085835
30
0
210
0
220
0
230
1
1
\A1;46.75
40
3
41
0
44
1
50
0
71
5
72
5
7
iso_b_vert
0
POINT
5
219
100
AcDbEntity
8
Defpoints
62
0
6
ByLayer
370
-1
48
1
60
0
100
AcDbPoint
10
81.82
20
0
30
0
39
0
210
0
220
0
230
1
50
360
0
POINT
5
21A
100
AcDbEntity
8
Defpoints
62
0
6
ByLayer
370
-1
48
1
60
0
100
AcDbPoint
10
35.07
20
0
30
0
39
0
210
0
220
0
230
1
50
360
0
POINT
5
21B
100
AcDbEntity
8
Defpoints
62
0
6
ByLayer
370
-1
48
1
60
0
100
AcDbPoint
10
35.07
20
-35.085835
30
0
39
0
210
0
220
0
230
1
50
360
0
ENDBLK
5
212
100
AcDbEntity
8
0
100
AcDbBlockEnd
0
BLOCK
5
224
100
AcDbEntity
8
0
100
AcDbBlockBegin
2
_U2
70
0
10
0
20
0
30
0
3
_U2
0
MTEXT
5
21E
100
AcDbEntity
8
2
62
256
6
ByLayer
370
18
48
1
60
0
100
AcDbMText
10
54.925601
20
-34.20072
30
0
210
0
220
0
230
1
1
\W0.7640;46.8
40
3
41
0
44
1.084337
50
0
71
7
72
5
7
iso_b_vert
0
LINE
5
21F
100
AcDbEntity
8
2
62
256
6
ByLayer
370
13
48
1
60
0
100
AcDbLine
10
81.82
20
-1.5875
30
0
11
81.82
21
-37.085835
31
0
39
0
210
0
220
0
230
1
0
LINE
5
220
100
AcDbEntity
8
2
62
256
6
ByLayer
370
13
48
1
60
0
100
AcDbLine
10
35.07
20
-1.5875
30
0
11
35.07
21
-37.085835
31
0
39
0
210
0
220
0
230
1
0
LINE
5
221
100
AcDbEntity
8
2
62
256
6
ByLayer
370
13
48
1
60
0
100
AcDbLine
10
81.82
20
-35.085835
30
0
11
35.07
21
-35.085835
31
0
39
0
210
0
220
0
230
1
0
SOLID
5
222
100
AcDbEntity
8
2
62
256
6
ByLayer
370
18
48
1
60
0
100
AcDbTrace
10
81.82
20
-35.085835
30
0
11
78.320002
21
-35.546618
31
0
12
78.319998
22
-34.625051
32
0
13
78.319998
23
-34.625051
33
0
39
0
210
0
220
0
230
1
0
SOLID
5
223
100
AcDbEntity
8
2
62
256
6
ByLayer
370
18
48
1
60
0
100
AcDbTrace
10
35.07
20
-35.085835
30
0
11
38.569998
21
-34.625051
31
0
12
38.570002
22
-35.546618
32
0
13
38.570002
23
-35.546618
33
0
39
0
210
0
220
0
230
1
0
ENDBLK
5
225
100
AcDbEntity
8
0
100
AcDbBlockEnd
0
BLOCK
5
22A
100
AcDbEntity
8
0
100
AcDbBlockBegin
2
*D7
70
1
10
0
20
0
30
0
3
*D7
0
LINE
5
22C
100
AcDbEntity
8
0
62
256
6
ByLayer
370
-2
48
1
60
0
100
AcDbLine
10
81.82
20
-1.5875
30
0
11
81.82
21
-29.085835
31
0
39
0
210
0
220
0
230
1
0
LINE
5
22D
100
AcDbEntity
8
0
62
256
6
ByLayer
370
-2
48
1
60
0
100
AcDbLine
10
63.82
20
-6.0985
30
0
11
63.82
21
-29.085835
31
0
39
0
210
0
220
0
230
1
0
LINE
5
22E
100
AcDbEntity
8
0
62
256
6
ByLayer
370
-2
48
1
60
0
100
AcDbLine
10
78.32
20
-27.085835
30
0
11
67.32
21
-27.085835
31
0
39
0
210
0
220
0
230
1
0
SOLID
5
22F
100
AcDbEntity
8
0
62
256
6
ByLayer
370
-1
48
1
60
0
100
AcDbTrace
10
78.32
20
-27.669168
30
0
11
78.32
21
-26.502501
31
0
12
81.82
22
-27.085835
32
0
13
81.82
23
-27.085835
33
0
39
0
210
0
220
0
230
1
0
SOLID
5
230
100
AcDbEntity
8
0
62
256
6
ByLayer
370
-1
48
1
60
0
100
AcDbTrace
10
67.32
20
-26.502501
30
0
11
67.32
21
-27.669168
31
0
12
63.82
22
-27.085835
32
0
13
63.82
23
-27.085835
33
0
39
0
210
0
220
0
230
1
0
MTEXT
5
231
100
AcDbEntity
8
0
62
256
6
ByLayer
370
18
48
1
60
0
100
AcDbMText
10
72.82
20
-21.085835
30
0
210
0
220
0
230
1
1
\A1;18
40
3
41
0
44
1
50
0
71
5
72
5
7
iso_b_vert
0
POINT
5
232
100
AcDbEntity
8
Defpoints
62
0
6
ByLayer
370
-1
48
1
60
0
100
AcDbPoint
10
81.82
20
0
30
0
39
0
210
0
220
0
230
1
50
360
0
POINT
5
233
100
AcDbEntity
8
Defpoints
62
0
6
ByLayer
370
-1
48
1
60
0
100
AcDbPoint
10
63.82
20
-4.511
30
0
39
0
210
0
220
0
230
1
50
360
0
POINT
5
234
100
AcDbEntity
8
Defpoints
62
0
6
ByLayer
370
-1
48
1
60
0
100
AcDbPoint
10
63.82
20
-27.085835
30
0
39
0
210
0
220
0
230
1
50
360
0
ENDBLK
5
22B
100
AcDbEntity
8
0
100
AcDbBlockEnd
0
BLOCK
5
23C
100
AcDbEntity
8
0
100
AcDbBlockBegin
2
_U3
70
0
10
0
20
0
30
0
3
_U3
0
MTEXT
5
236
100
AcDbEntity
8
SK2
62
256
6
ByLayer
370
18
48
1
60
0
100
AcDbMText
10
69.833486
20
-26.20072
30
0
210
0
220
0
230
1
1
\W0.6563;18.0
40
3
41
0
44
1.084337
50
0
71
7
72
5
7
iso_b_vert
0
LINE
5
237
100
AcDbEntity
8
SK2
62
256
6
ByLayer
370
13
48
1
60
0
100
AcDbLine
10
81.82
20
-1.5875
30
0
11
81.82
21
-29.085835
31
0
39
0
210
0
220
0
230
1
0
LINE
5
238
100
AcDbEntity
8
SK2
62
256
6
ByLayer
370
13
48
1
60
0
100
AcDbLine
10
63.82
20
-6.0985
30
0
11
63.82
21
-29.085835
31
0
39
0
210
0
220
0
230
1
0
LINE
5
239
100
AcDbEntity
8
SK2
62
256
6
ByLayer
370
13
48
1
60
0
100
AcDbLine
10
81.82
20
-27.085835
30
0
11
63.82
21
-27.085835
31
0
39
0
210
0
220
0
230
1
0
SOLID
5
23A
100
AcDbEntity
8
SK2
62
256
6
ByLayer
370
18
48
1
60
0
100
AcDbTrace
10
81.82
20
-27.085835
30
0
11
78.320002
21
-27.546618
31
0
12
78.319998
22
-26.625051
32
0
13
78.319998
23
-26.625051
33
0
39
0
210
0
220
0
230
1
0
SOLID
5
23B
100
AcDbEntity
8
SK2
62
256
6
ByLayer
370
18
48
1
60
0
100
AcDbTrace
10
63.82
20
-27.085835
30
0
11
67.319998
21
-26.625051
31
0
12
67.320002
22
-27.546618
32
0
13
67.320002
23
-27.546618
33
0
39
0
210
0
220
0
230
1
0
ENDBLK
5
23D
100
AcDbEntity
8
0
100
AcDbBlockEnd
0
BLOCK
5
242
100
AcDbEntity
8
0
100
AcDbBlockBegin
2
*D9
70
1
10
0
20
0
30
0
3
*D9
0
LINE
5
244
100
AcDbEntity
8
0
62
256
6
ByLayer
370
-2
48
1
60
0
100
AcDbLine
10
81.82
20
1.5875
30
0
11
81.82
21
15.338932
31
0
39
0
210
0
220
0
230
1
0
LINE
5
245
100
AcDbEntity
8
0
62
256
6
ByLayer
370
-2
48
1
60
0
100
AcDbLine
10
76.45
20
1.5875
30
0
11
76.45
21
15.338932
31
0
39
0
210
0
220
0
230
1
0
LINE
5
246
100
AcDbEntity
8
0
62
256
6
ByLayer
370
-2
48
1
60
0
100
AcDbLine
10
85.32
20
13.338932
30
0
11
88.82
21
13.338932
31
0
39
0
210
0
220
0
230
1
0
LINE
5
247
100
AcDbEntity
8
0
62
256
6
ByLayer
370
-2
48
1
60
0
100
AcDbLine
10
72.95
20
13.338932
30
0
11
69.45
21
13.338932
31
0
39
0
210
0
220
0
230
1
0
SOLID
5
248
100
AcDbEntity
8
0
62
256
6
ByLayer
370
-1
48
1
60
0
100
AcDbTrace
10
85.32
20
13.922266
30
0
11
85.32
21
12.755599
31
0
12
81.82
22
13.338932
32
0
13
81.82
23
13.338932
33
0
39
0
210
0
220
0
230
1
0
SOLID
5
249
100
AcDbEntity
8
0
62
256
6
ByLayer
370
-1
48
1
60
0
100
AcDbTrace
10
72.95
20
12.755599
30
0
11
72.95
21
13.922266
31
0
12
76.45
22
13.338932
32
0
13
76.45
23
13.338932
33
0
39
0
210
0
220
0
230
1
0
MTEXT
5
24A
100
AcDbEntity
8
0
62
256
6
ByLayer
370
18
48
1
60
0
100
AcDbMText
10
79.135
20
19.338932
30
0
210
0
220
0
230
1
1
\A1;5.37
40
3
41
0
44
1
50
0
71
5
72
5
7
iso_b_vert
0
POINT
5
24B
100
AcDbEntity
8
Defpoints
62
0
6
ByLayer
370
-1
48
1
60
0
100
AcDbPoint
10
81.82
20
0
30
0
39
0
210
0
220
0
230
1
50
360
0
POINT
5
24C
100
AcDbEntity
8
Defpoints
62
0
6
ByLayer
370
-1
48
1
60
0
100
AcDbPoint
10
76.45
20
0
30
0
39
0
210
0
220
0
230
1
50
360
0
POINT
5
24D
100
AcDbEntity
8
Defpoints
62
0
6
ByLayer
370
-1
48
1
60
0
100
AcDbPoint
10
76.45
20
13.338932
30
0
39
0
210
0
220
0
230
1
50
360
0
ENDBLK
5
243
100
AcDbEntity
8
0
100
AcDbBlockEnd
0
BLOCK
5
256
100
AcDbEntity
8
0
100
AcDbBlockBegin
2
_U4
70
0
10
0
20
0
30
0
3
_U4
0
MTEXT
5
24F
100
AcDbEntity
8
SK2
62
256
6
ByLayer
370
18
48
1
60
0
100
AcDbMText
10
75.773544
20
21.224047
30
0
210
0
220
0
230
1
1
\W0.7346;5.37
40
3
41
0
44
1.084337
50
0
71
7
72
5
7
iso_b_vert
0
MTEXT
5
250
100
AcDbEntity
8
SK2
62
256
6
ByLayer
370
18
48
1
60
0
100
AcDbMText
10
75.800044
20
14.121566
30
0
210
0
220
0
230
1
1
\W0.6474;'C'
40
3.5
41
0
44
1.084337
50
0
71
7
72
5
7
iso_b_vert
0
LINE
5
251
100
AcDbEntity
8
SK2
62
256
6
ByLayer
370
13
48
1
60
0
100
AcDbLine
10
81.82
20
1.5875
30
0
11
81.82
21
15.338932
31
0
39
0
210
0
220
0
230
1
0
LINE
5
252
100
AcDbEntity
8
SK2
62
256
6
ByLayer
370
13
48
1
60
0
100
AcDbLine
10
76.45
20
1.5875
30
0
11
76.45
21
15.338932
31
0
39
0
210
0
220
0
230
1
0
LINE
5
253
100
AcDbEntity
8
SK2
62
256
6
ByLayer
370
13
48
1
60
0
100
AcDbLine
10
89.32
20
13.338932
30
0
11
68.95
21
13.338932
31
0
39
0
210
0
220
0
230
1
0
SOLID
5
254
100
AcDbEntity
8
SK2
62
256
6
ByLayer
370
18
48
1
60
0
100
AcDbTrace
10
81.82
20
13.338932
30
0
11
85.319998
21
13.799716
31
0
12
85.320002
22
12.878149
32
0
13
85.320002
23
12.878149
33
0
39
0
210
0
220
0
230
1
0
SOLID
5
255
100
AcDbEntity
8
SK2
62
256
6
ByLayer
370
18
48
1
60
0
100
AcDbTrace
10
76.45
20
13.338932
30
0
11
72.950002
21
12.878149
31
0
12
72.949998
22
13.799716
32
0
13
72.949998
23
13.799716
33
0
39
0
210
0
220
0
230
1
0
ENDBLK
5
257
100
AcDbEntity
8
0
100
AcDbBlockEnd
0
BLOCK
5
25C
100
AcDbEntity
8
0
100
AcDbBlockBegin
2
*D11
70
1
10
0
20
0
30
0
3
*D11
0
LINE
5
25E
100
AcDbEntity
8
0
62
256
6
ByLayer
370
-2
48
1
60
0
100
AcDbLine
10
83.4075
20
-6.419466
30
0
11
100.32
21
-6.419466
31
0
39
0
210
0
220
0
230
1
0
LINE
5
25F
100
AcDbEntity
8
0
62
256
6
ByLayer
370
-2
48
1
60
0
100
AcDbLine
10
83.4075
20
6.419466
30
0
11
100.32
21
6.419466
31
0
39
0
210
0
220
0
230
1
0
LINE
5
260
100
AcDbEntity
8
0
62
256
6
ByLayer
370
-2
48
1
60
0
100
AcDbLine
10
98.32
20
6.419466
30
0
11
98.32
21
34.133752
31
0
39
0
210
0
220
0
230
1
0
LINE
5
261
100
AcDbEntity
8
0
62
256
6
ByLayer
370
-2
48
1
60
0
100
AcDbLine
10
98.32
20
-9.919466
30
0
11
98.32
21
-13.419466
31
0
39
0
210
0
220
0
230
1
0
LINE
5
262
100
AcDbEntity
8
0
62
256
6
ByLayer
370
-2
48
1
60
0
100
AcDbLine
10
98.32
20
9.919466
30
0
11
98.32
21
13.419466
31
0
39
0
210
0
220
0
230
1
0
SOLID
5
263
100
AcDbEntity
8
0
62
256
6
ByLayer
370
-1
48
1
60
0
100
AcDbTrace
10
98.903333
20
-9.919466
30
0
11
97.736667
21
-9.919466
31
0
12
98.32
22
-6.419466
32
0
13
98.32
23
-6.419466
33
0
39
0
210
0
220
0
230
1
0
SOLID
5
264
100
AcDbEntity
8
0
62
256
6
ByLayer
370
-1
48
1
60
0
100
AcDbTrace
10
97.736667
20
9.919466
30
0
11
98.903333
21
9.919466
31
0
12
98.32
22
6.419466
32
0
13
98.32
23
6.419466
33
0
39
0
210
0
220
0
230
1
0
MTEXT
5
265
100
AcDbEntity
8
0
62
256
6
ByLayer
370
18
48
1
60
0
100
AcDbMText
10
92.32
20
23.776609
30
0
210
0
220
0
230
1
1
\A1;12.84
40
3
41
0
44
1
50
90
71
5
72
5
7
iso_b_vert
0
POINT
5
266
100
AcDbEntity
8
Defpoints
62
0
6
ByLayer
370
-1
48
1
60
0
100
AcDbPoint
10
81.82
20
-6.419466
30
0
39
0
210
0
220
0
230
1
50
360
0
POINT
5
267
100
AcDbEntity
8
Defpoints
62
0
6
ByLayer
370
-1
48
1
60
0
100
AcDbPoint
10
81.82
20
6.419466
30
0
39
0
210
0
220
0
230
1
50
360
0
POINT
5
268
100
AcDbEntity
8
Defpoints
62
0
6
ByLayer
370
-1
48
1
60
0
100
AcDbPoint
10
98.32
20
6.419466
30
0
39
0
210
0
220
0
230
1
50
360
0
ENDBLK
5
25D
100
AcDbEntity
8
0
100
AcDbBlockEnd
0
BLOCK
5
271
100
AcDbEntity
8
0
100
AcDbBlockBegin
2
_U5
70
0
10
0
20
0
30
0
3
_U5
0
MTEXT
5
26A
100
AcDbEntity
8
2
62
256
6
ByLayer
370
18
48
1
60
0
100
AcDbMText
10
97.728886
20
2.109975
30
0
210
0
220
0
230
1
1
\W0.6920;UNC 1/2-13
40
3
41
0
44
1.084337
50
90
71
7
72
5
7
iso_b_vert
0
MTEXT
5
26B
100
AcDbEntity
8
2
62
256
6
ByLayer
370
18
48
1
60
0
100
AcDbMText
10
97.880366
20
26.519901
30
0
210
0
220
0
230
1
1
\W0.7601; 3BX
40
3.5
41
0
44
1.084337
50
90
71
7
72
5
7
iso_b_vert
0
LINE
5
26C
100
AcDbEntity
8
2
62
256
6
ByLayer
370
13
48
1
60
0
100
AcDbLine
10
83.4075
20
-6.419466
30
0
11
100.32
21
-6.419466
31
0
39
0
210
0
220
0
230
1
0
LINE
5
26D
100
AcDbEntity
8
2
62
256
6
ByLayer
370
13
48
1
60
0
100
AcDbLine
10
83.4075
20
6.419466
30
0
11
100.32
21
6.419466
31
0
39
0
210
0
220
0
230
1
0
LINE
5
26E
100
AcDbEntity
8
2
62
256
6
ByLayer
370
13
48
1
60
0
100
AcDbLine
10
98.32
20
-6.419466
30
0
11
98.32
21
36.419466
31
0
39
0
210
0
220
0
230
1
0
SOLID
5
26F
100
AcDbEntity
8
2
62
256
6
ByLayer
370
18
48
1
60
0
100
AcDbTrace
10
98.32
20
-6.419466
30
0
11
97.859216
21
-2.919468
31
0
12
98.780784
22
-2.919465
32
0
13
98.780784
23
-2.919465
33
0
39
0
210
0
220
0
230
1
0
SOLID
5
270
100
AcDbEntity
8
2
62
256
6
ByLayer
370
18
48
1
60
0
100
AcDbTrace
10
98.32
20
6.419466
30
0
11
98.780784
21
2.919468
31
0
12
97.859216
22
2.919465
32
0
13
97.859216
23
2.919465
33
0
39
0
210
0
220
0
230
1
0
ENDBLK
5
272
100
AcDbEntity
8
0
100
AcDbBlockEnd
0
BLOCK
5
277
100
AcDbEntity
8
0
100
AcDbBlockBegin
2
*D13
70
1
10
0
20
0
30
0
3
*D13
0
LINE
5
279
100
AcDbEntity
8
0
62
256
6
ByLayer
370
-2
48
1
60
0
100
AcDbLine
10
-29.7675
20
3.495
30
0
11
-35.68
21
3.495
31
0
39
0
210
0
220
0
230
1
0
LINE
5
27A
100
AcDbEntity
8
0
62
256
6
ByLayer
370
-2
48
1
60
0
100
AcDbLine
10
-29.7675
20
-3.495
30
0
11
-35.68
21
-3.495
31
0
39
0
210
0
220
0
230
1
0
LINE
5
27B
100
AcDbEntity
8
0
62
256
6
ByLayer
370
-2
48
1
60
0
100
AcDbLine
10
-33.68
20
3.495
30
0
11
-33.68
21
28.352143
31
0
39
0
210
0
220
0
230
1
0
LINE
5
27C
100
AcDbEntity
8
0
62
256
6
ByLayer
370
-2
48
1
60
0
100
AcDbLine
10
-33.68
20
6.995
30
0
11
-33.68
21
10.495
31
0
39
0
210
0
220
0
230
1
0
LINE
5
27D
100
AcDbEntity
8
0
62
256
6
ByLayer
370
-2
48
1
60
0
100
AcDbLine
10
-33.68
20
-6.995
30
0
11
-33.68
21
-10.495
31
0
39
0
210
0
220
0
230
1
0
SOLID
5
27E
100
AcDbEntity
8
0
62
256
6
ByLayer
370
-1
48
1
60
0
100
AcDbTrace
10
-34.263333
20
6.995
30
0
11
-33.096667
21
6.995
31
0
12
-33.68
22
3.495
32
0
13
-33.68
23
3.495
33
0
39
0
210
0
220
0
230
1
0
SOLID
5
27F
100
AcDbEntity
8
0
62
256
6
ByLayer
370
-1
48
1
60
0
100
AcDbTrace
10
-33.096667
20
-6.995
30
0
11
-34.263333
21
-6.995
31
0
12
-33.68
22
-3.495
32
0
13
-33.68
23
-3.495
33
0
39
0
210
0
220
0
230
1
0
MTEXT
5
280
100
AcDbEntity
8
0
62
256
6
ByLayer
370
18
48
1
60
0
100
AcDbMText
10
-39.68
20
19.423571
30
0
210
0
220
0
230
1
1
\A1;6.99
40
3
41
0
44
1
50
90
71
5
72
5
7
iso_b_vert
0
POINT
5
281
100
AcDbEntity
8
Defpoints
62
0
6
ByLayer
370
-1
48
1
60
0
100
AcDbPoint
10
-28.18
20
3.495
30
0
39
0
210
0
220
0
230
1
50
360
0
POINT
5
282
100
AcDbEntity
8
Defpoints
62
0
6
ByLayer
370
-1
48
1
60
0
100
AcDbPoint
10
-28.18
20
-3.495
30
0
39
0
210
0
220
0
230
1
50
360
0
POINT
5
283
100
AcDbEntity
8
Defpoints
62
0
6
ByLayer
370
-1
48
1
60
0
100
AcDbPoint
10
-33.68
20
-3.495
30
0
39
0
210
0
220
0
230
1
50
360
0
ENDBLK
5
278
100
AcDbEntity
8
0
100
AcDbBlockEnd
0
BLOCK
5
28B
100
AcDbEntity
8
0
100
AcDbBlockBegin
2
_U6
70
0
10
0
20
0
30
0
3
_U6
0
MTEXT
5
285
100
AcDbEntity
8
SK2
62
256
6
ByLayer
370
18
48
1
60
0
100
AcDbMText
10
-34.271114
20
11.135
30
0
210
0
220
0
230
1
1
\W0.7468;9.322
40
3
41
0
44
1.084337
50
90
71
7
72
5
7
iso_b_vert
0
LINE
5
286
100
AcDbEntity
8
SK2
62
256
6
ByLayer
370
13
48
1
60
0
100
AcDbLine
10
-29.7675
20
3.495
30
0
11
-35.68
21
3.495
31
0
39
0
210
0
220
0
230
1
0
LINE
5
287
100
AcDbEntity
8
SK2
62
256
6
ByLayer
370
13
48
1
60
0
100
AcDbLine
10
-29.7675
20
-3.495
30
0
11
-35.68
21
-3.495
31
0
39
0
210
0
220
0
230
1
0
LINE
5
288
100
AcDbEntity
8
SK2
62
256
6
ByLayer
370
13
48
1
60
0
100
AcDbLine
10
-33.68
20
-10.995
30
0
11
-33.68
21
20.282741
31
0
39
0
210
0
220
0
230
1
0
SOLID
5
289
100
AcDbEntity
8
SK2
62
256
6
ByLayer
370
18
48
1
60
0
100
AcDbTrace
10
-33.68
20
3.495
30
0
11
-34.140784
21
6.994998
31
0
12
-33.219216
22
6.995002
32
0
13
-33.219216
23
6.995002
33
0
39
0
210
0
220
0
230
1
0
SOLID
5
28A
100
AcDbEntity
8
SK2
62
256
6
ByLayer
370
18
48
1
60
0
100
AcDbTrace
10
-33.68
20
-3.495
30
0
11
-33.219216
21
-6.994998
31
0
12
-34.140784
22
-6.995002
32
0
13
-34.140784
23
-6.995002
33
0
39
0
210
0
220
0
230
1
0
ENDBLK
5
28C
100
AcDbEntity
8
0
100
AcDbBlockEnd
0
ENDSEC
0
SECTION
2
ENTITIES
0
ARC
5
C2
100
AcDbEntity
8
SK1
62
256
6
ByLayer
370
18
48
1
60
0
100
AcDbCircle
39
0
10
-20.495
20
0
30
0
40
4.47456000000013
210
0
220
0
230
1
100
AcDbArc
50
321.359785
51
38.640215
0
ARC
5
C3
100
AcDbEntity
8
1
62
256
6
ByLayer
370
18
48
1
60
0
100
AcDbCircle
39
0
10
62.494966
20
-5.611
30
0
40
1.1
210
0
220
0
230
1
100
AcDbArc
50
30
51
39.011085
0
ARC
5
C4
100
AcDbEntity
8
1
62
256
6
ByLayer
370
18
48
1
60
0
100
AcDbCircle
39
0
10
27.400948
20
-5.711
30
0
40
1.2
210
0
220
0
230
1
100
AcDbArc
50
90
51
118.955024
0
ARC
5
C5
100
AcDbEntity
8
1
62
256
6
ByLayer
370
18
48
1
60
0
100
AcDbCircle
39
0
10
27.400948
20
5.711
30
0
40
1.2
210
0
220
0
230
1
100
AcDbArc
50
241.044976
51
270
0
POINT
5
70
100
AcDbEntity
8
81
62
256
6
ByLayer
370
18
48
1
60
0
100
AcDbPoint
10
81.82
20
0
30
0
39
0
210
0
220
0
230
1
50
360
0
POINT
5
72
100
AcDbEntity
8
80
62
256
6
ByLayer
370
18
48
1
60
0
100
AcDbPoint
10
0
20
0
30
0
39
0
210
0
220
0
230
1
50
360
0
POINT
5
74
100
AcDbEntity
8
1
62
256
6
ByLayer
370
18
48
1
60
1
100
AcDbPoint
10
-28.18
20
0
30
0
39
0
210
0
220
0
230
1
50
360
0
POINT
5
76
100
AcDbEntity
8
1
62
256
6
ByLayer
370
18
48
1
60
1
100
AcDbPoint
10
81.82
20
0
30
0
39
0
210
0
220
0
230
1
50
360
0
POINT
5
77
100
AcDbEntity
8
1
62
256
6
ByLayer
370
18
48
1
60
1
100
AcDbPoint
10
81.82
20
0
30
0
39
0
210
0
220
0
230
1
50
360
0
POINT
5
78
100
AcDbEntity
8
1
62
256
6
ByLayer
370
18
48
1
60
1
100
AcDbPoint
10
26.82
20
0
30
0
39
0
210
0
220
0
230
1
50
360
0
POINT
5
79
100
AcDbEntity
8
1
62
256
6
ByLayer
370
18
48
1
60
1
100
AcDbPoint
10
81.82
20
0
30
0
39
0
210
0
220
0
230
1
50
360
0
POINT
5
7A
100
AcDbEntity
8
1
62
256
6
ByLayer
370
18
48
1
60
1
100
AcDbPoint
10
35.07
20
0
30
0
39
0
210
0
220
0
230
1
50
360
0
POINT
5
7B
100
AcDbEntity
8
1
62
256
6
ByLayer
370
18
48
1
60
1
100
AcDbPoint
10
81.82
20
0
30
0
39
0
210
0
220
0
230
1
50
360
0
POINT
5
7C
100
AcDbEntity
8
1
62
256
6
ByLayer
370
18
48
1
60
1
100
AcDbPoint
10
63.82
20
-4.511
30
0
39
0
210
0
220
0
230
1
50
360
0
POINT
5
7D
100
AcDbEntity
8
1
62
256
6
ByLayer
370
18
48
1
60
1
100
AcDbPoint
10
81.82
20
0
30
0
39
0
210
0
220
0
230
1
50
360
0
POINT
5
7E
100
AcDbEntity
8
1
62
256
6
ByLayer
370
18
48
1
60
1
100
AcDbPoint
10
76.45
20
0
30
0
39
0
210
0
220
0
230
1
50
360
0
POINT
5
7F
100
AcDbEntity
8
1
62
256
6
ByLayer
370
18
48
1
60
1
100
AcDbPoint
10
81.82
20
-6.419466
30
0
39
0
210
0
220
0
230
1
50
360
0
POINT
5
80
100
AcDbEntity
8
1
62
256
6
ByLayer
370
18
48
1
60
1
100
AcDbPoint
10
81.82
20
6.419466
30
0
39
0
210
0
220
0
230
1
50
360
0
POINT
5
81
100
AcDbEntity
8
1
62
256
6
ByLayer
370
18
48
1
60
1
100
AcDbPoint
10
-28.18
20
3.495
30
0
39
0
210
0
220
0
230
1
50
360
0
POINT
5
82
100
AcDbEntity
8
1
62
256
6
ByLayer
370
18
48
1
60
1
100
AcDbPoint
10
-28.18
20
-3.495
30
0
39
0
210
0
220
0
230
1
50
360
0
SPLINE
5
C6
100
AcDbEntity
8
1
62
256
6
ByLayer
370
18
48
1
60
0
100
AcDbSpline
70
4
71
3
72
8
73
4
40
0
40
0
40
0
40
0
40
1
40
1
40
1
40
1
41
1
10
67.221922146359
20
-6.16071381229489
30
0
41
1
10
67.2162841740913
20
-6.17045364056219
30
0
41
1
10
67.2106447791016
20
-6.17664231690344
30
0
41
1
10
67.205002525956
20
-6.17928003104223
30
0
0
SPLINE
5
C7
100
AcDbEntity
8
1
62
256
6
ByLayer
370
18
48
1
60
0
100
AcDbSpline
70
4
71
3
72
8
73
4
40
0
40
0
40
0
40
0
40
1
40
1
40
1
40
1
41
1
10
66.6584723494471
20
-6.09205286221464
30
0
41
1
10
66.6658157346341
20
-6.10169433942516
30
0
41
1
10
66.6731532447974
20
-6.10701537193765
30
0
41
1
10
66.6804874630793
20
-6.10804375413136
30
0
0
SPLINE
5
C8
100
AcDbEntity
8
1
62
256
6
ByLayer
370
18
48
1
60
0
100
AcDbSpline
70
4
71
3
72
8
73
4
40
0
40
0
40
0
40
0
40
1
40
1
40
1
40
1
41
1
10
79.2716723698773
20
-5.59849198874321
30
0
41
1
10
79.2677485826631
20
-5.60524723344705
30
0
41
1
10
79.2638379069354
20
-5.61055054289452
30
0
41
1
10
79.2599341067576
20
-5.61440619502974
30
0
0
SPLINE
5
C9
100
AcDbEntity
8
1
62
256
6
ByLayer
370
18
48
1
60
0
100
AcDbSpline
70
4
71
3
72
8
73
4
40
0
40
0
40
0
40
0
40
1
40
1
40
1
40
1
41
1
10
78.222495596338
20
-5.81405898999247
30
0
41
1
10
78.2267491171694
20
-5.82452402534918
30
0
41
1
10
78.2310073582069
20
-5.83343717921648
30
0
41
1
10
78.2352675837402
20
-5.84080156744199
30
0
0
SPLINE
5
CA
100
AcDbEntity
8
1
62
256
6
ByLayer
370
13
48
1
60
0
100
AcDbSpline
70
4
71
3
72
9
73
5
40
0
40
0
40
0
40
0
40
0.468539026755108
40
1
40
1
40
1
40
1
41
1
10
69.1319003709712
20
5.30481968435714
30
0
41
1
10
69.1356867299085
20
5.31059078017907
30
0
41
1
10
69.143767932832
20
5.32038706698495
30
0
41
1
10
69.1518491358304
20
5.32476828136487
30
0
41
1
10
69.156143979856
20
5.32557172946818
30
0
0
SPLINE
5
CB
100
AcDbEntity
8
1
62
256
6
ByLayer
370
13
48
1
60
0
100
AcDbSpline
70
4
71
3
72
8
73
4
40
0
40
0
40
0
40
0
40
1
40
1
40
1
40
1
41
1
10
66.1909963222889
20
-5.28672149356944
30
0
41
1
10
66.1931729144892
20
-5.29123688956423
30
0
41
1
10
66.1953495066891
20
-5.29536437158399
30
0
41
1
10
66.1975260988879
20
-5.29910257246499
30
0
0
SPLINE
5
CC
100
AcDbEntity
8
1
62
256
6
ByLayer
370
18
48
1
60
0
100
AcDbSpline
70
4
71
3
72
8
73
4
40
0
40
0
40
0
40
0
40
1
40
1
40
1
40
1
41
1
10
66.1975261717199
20
-5.29910269755047
30
0
41
1
10
66.2007620679508
20
-5.30466019336765
30
0
41
1
10
66.2039979641795
20
-5.30935729312114
30
0
41
1
10
66.2072338604039
20
-5.31318950446604
30
0
0
SPLINE
5
CD
100
AcDbEntity
8
1
62
256
6
ByLayer
370
18
48
1
60
0
100
AcDbSpline
70
4
71
3
72
9
73
5
40
0
40
0
40
0
40
0
40
0.37558681378779
40
1
40
1
40
1
40
1
41
1
10
69.7911514604234
20
6.41946999493763
30
0
41
1
10
69.7970454381973
20
6.41946662746128
30
0
41
1
10
69.8127059733717
20
6.4102605167985
30
0
41
1
10
69.8283036487463
20
6.37682158855321
30
0
41
1
10
69.8380826143302
20
6.34640545765663
30
0
0
SPLINE
5
CE
100
AcDbEntity
8
1
62
256
6
ByLayer
370
18
48
1
60
0
100
AcDbSpline
70
4
71
3
72
14
73
10
40
0
40
0
40
0
40
0
40
0.505270111786899
40
0.505270111786899
40
0.631587639733624
40
0.631587639733624
40
0.757905167680349
40
0.757905167680349
40
1
40
1
40
1
40
1
41
1
10
70.0480768533297
20
6.3066497530568
30
0
41
1
10
70.0383256213317
20
6.3442764152017
30
0
41
1
10
70.0285617410273
20
6.37266017831107
30
0
41
1
10
70.0162439012689
20
6.39630844837197
30
0
41
1
10
70.0137755891937
20
6.40044526569432
30
0
41
1
10
70.0088294945544
20
6.40752104070708
30
0
41
1
10
70.0063485026618
20
6.41046221669481
30
0
41
1
10
69.9991311625174
20
6.41724607269984
30
0
41
1
10
69.9944074376407
20
6.41945829890929
30
0
41
1
10
69.9896992989744
20
6.41946618668317
30
0
0
SPLINE
5
CF
100
AcDbEntity
8
1
62
256
6
ByLayer
370
13
48
1
60
0
100
AcDbSpline
70
4
71
3
72
8
73
4
40
0
40
0
40
0
40
0
40
1
40
1
40
1
40
1
41
1
10
77.9208459132998
20
-5.29898879203523
30
0
41
1
10
77.9134783543344
20
-5.28630913942339
30
0
41
1
10
77.9061107955224
20
-5.26915975690849
30
0
41
1
10
77.8987432367718
20
-5.24760039150627
30
0
0
SPLINE
5
D0
100
AcDbEntity
8
1
62
256
6
ByLayer
370
13
48
1
60
0
100
AcDbSpline
70
4
71
3
72
9
73
5
40
0
40
0
40
0
40
0
40
0.563140807665519
40
1
40
1
40
1
40
1
41
1
10
65.6713444884368
20
-5.20657471989838
30
0
41
1
10
65.6893634033898
20
-5.27146131385695
30
0
41
1
10
65.7213605875895
20
-5.34017599370307
30
0
41
1
10
65.7533578672091
20
-5.32394979351682
30
0
41
1
10
65.7673361726261
20
-5.30083569416013
30
0
0
SPLINE
5
D1
100
AcDbEntity
8
1
62
256
6
ByLayer
370
18
48
1
60
0
100
AcDbSpline
70
4
71
3
72
9
73
5
40
0
40
0
40
0
40
0
40
0.976525628773049
40
1
40
1
40
1
40
1
41
1
10
70.6476702643784
20
5.3076379773178
30
0
41
1
10
70.6506665231269
20
5.30341278240812
30
0
41
1
10
70.65373480779
20
5.2983276369431
30
0
41
1
10
70.6568030922512
20
5.29246557581152
30
0
41
1
10
70.6568751182996
20
5.29232753956589
30
0
0
SPLINE
5
D2
100
AcDbEntity
8
1
62
256
6
ByLayer
370
13
48
1
60
0
100
AcDbSpline
70
4
71
3
72
8
73
4
40
0
40
0
40
0
40
0
40
1
40
1
40
1
40
1
41
1
10
70.6568751182994
20
5.29232753956629
30
0
41
1
10
70.672141918668
20
5.26306907191761
30
0
41
1
10
70.6874087140978
20
5.21457934087698
30
0
41
1
10
70.7026755163893
20
5.14752364995218
30
0
0
SPLINE
5
D3
100
AcDbEntity
8
1
62
256
6
ByLayer
370
13
48
1
60
0
100
AcDbSpline
70
4
71
3
72
9
73
5
40
0
40
0
40
0
40
0
40
0.470675785104584
40
1
40
1
40
1
40
1
41
1
10
77.4903872468989
20
-5.30144888370847
30
0
41
1
10
77.4729031875346
20
-5.33001208167133
30
0
41
1
10
77.435756529143
20
-5.33730389463832
30
0
41
1
10
77.3986099029703
20
-5.23042529185204
30
0
41
1
10
77.3789472498496
20
-5.14298107095311
30
0
0
SPLINE
5
D4
100
AcDbEntity
8
1
62
256
6
ByLayer
370
18
48
1
60
0
100
AcDbSpline
70
4
71
3
72
18
73
14
40
0
40
0
40
0
40
0
40
0.083728868998204
40
0.083728868998204
40
0.389152579332137
40
0.389152579332137
40
0.541864434499102
40
0.541864434499102
40
0.618220362082586
40
0.618220362082586
40
0.694576289666069
40
0.694576289666069
40
1
40
1
40
1
40
1
41
1
10
65.389767219243
20
-5.92664429456593
30
0
41
1
10
65.3874132104601
20
-5.92631073609707
30
0
41
1
10
65.3850587824967
20
-5.92537999669645
30
0
41
1
10
65.3741081664622
20
-5.9182839298694
30
0
41
1
10
65.3654834333849
20
-5.90478299558686
30
0
41
1
10
65.3524948508137
20
-5.87244061666567
30
0
41
1
10
65.348156448161
20
-5.85964158886154
30
0
41
1
10
65.3416300681029
20
-5.8373620638169
30
0
41
1
10
65.3394498745787
20
-5.82941570964257
30
0
41
1
10
65.3350888819862
20
-5.81251183259516
30
0
41
1
10
65.3329114740495
20
-5.80356824601611
30
0
41
1
10
65.3220357947424
20
-5.75640738381998
30
0
41
1
10
65.313372328629
20
-5.7108764376112
30
0
41
1
10
65.3046790525398
20
-5.65761511499292
30
0
0
SPLINE
5
D5
100
AcDbEntity
8
1
62
256
6
ByLayer
370
18
48
1
60
0
100
AcDbSpline
70
4
71
3
72
20
73
16
40
0
40
0
40
0
40
0
40
0.19967569783225
40
0.3993513956645
40
0.3993513956645
40
0.59902709349675
40
0.59902709349675
40
0.648946017954812
40
0.648946017954812
40
0.698864942412874
40
0.798702791328998
40
0.798702791328998
40
0.998378489161247
40
0.998378489161247
40
1
40
1
40
1
40
1
41
1
10
64.4017774036169
20
-5.21227453366777
30
0
41
1
10
64.4119418742872
20
-5.28910992275777
30
0
41
1
10
64.43220813337
20
-5.42805157995207
30
0
41
1
10
64.4523791050714
20
-5.53800239785764
30
0
41
1
10
64.4725961931357
20
-5.63334943653075
30
0
41
1
10
64.4827331735482
20
-5.67372282241149
30
0
41
1
10
64.4955270531193
20
-5.71477283853872
30
0
41
1
10
64.4980868122038
20
-5.72249594497251
30
0
41
1
10
64.5031926957147
20
-5.73692843689491
30
0
41
1
10
64.5108382609625
20
-5.7570793249281
30
0
41
1
10
64.5184453895402
20
-5.77278145042945
30
0
41
1
10
64.5336187467874
20
-5.79833848725306
30
0
41
1
10
64.5436774575904
20
-5.80759135876454
30
0
41
1
10
64.5538169434517
20
-5.80915650223074
30
0
41
1
10
64.5538986209411
20
-5.80916860226486
30
0
41
1
10
64.5539802992689
20
-5.80918019456712
30
0
0
SPLINE
5
D6
100
AcDbEntity
8
1
62
256
6
ByLayer
370
18
48
1
60
0
100
AcDbSpline
70
4
71
3
72
19
73
15
40
0
40
0
40
0
40
0
40
0.0643311604940432
40
0.0643311604940432
40
0.298248370370532
40
0.298248370370532
40
0.532165580247021
40
0.532165580247021
40
0.649124185185265
40
0.649124185185265
40
0.707603487654388
40
0.707603487654388
40
0.766082790123511
40
1
40
1
40
1
40
1
41
1
10
76.9632526716242
20
-6.19373520638953
30
0
41
1
10
76.9607214762697
20
-6.19437222889272
30
0
41
1
10
76.9581971086295
20
-6.19433097939719
30
0
41
1
10
76.9465170159042
20
-6.1910309176196
30
0
41
1
10
76.9374116869737
20
-6.17957763491094
30
0
41
1
10
76.9190056644749
20
-6.13941133771772
30
0
41
1
10
76.9096787615952
20
-6.11077269536131
30
0
41
1
10
76.8955970267877
20
-6.05451868304692
30
0
41
1
10
76.8908910818343
20
-6.03354085746551
30
0
41
1
10
76.883819348118
20
-5.99864059005944
30
0
41
1
10
76.8814580126514
20
-5.98642425796538
30
0
41
1
10
76.8767474085949
20
-5.96092884611642
30
0
41
1
10
76.8649896048378
20
-5.89449406326065
30
0
41
1
10
76.8533399135136
20
-5.81461346028306
30
0
41
1
10
76.8440666584785
20
-5.74212290234684
30
0
0
SPLINE
5
D7
100
AcDbEntity
8
1
62
256
6
ByLayer
370
18
48
1
60
0
100
AcDbSpline
70
4
71
3
72
16
73
12
40
0
40
0
40
0
40
0
40
0.250712600780176
40
0.250712600780176
40
0.501425201560353
40
0.501425201560353
40
0.62678150195044
40
0.62678150195044
40
0.752137802340528
40
0.752137802340528
40
1
40
1
40
1
40
1
41
1
10
76.4108056750951
20
-5.63541330696415
30
0
41
1
10
76.4208382913741
20
-5.72291324356746
30
0
41
1
10
76.4308826355728
20
-5.80201377348916
30
0
41
1
10
76.4508688018164
20
-5.94323681472602
30
0
41
1
10
76.4608107168083
20
-6.00536020526394
30
0
41
1
10
76.4757452722429
20
-6.08552482655733
30
0
41
1
10
76.4807330999639
20
-6.11008608092604
30
0
41
1
10
76.4907408761068
20
-6.15474512056127
30
0
41
1
10
76.4957235074065
20
-6.17468801637568
30
0
41
1
10
76.5105322426128
20
-6.22716145650276
30
0
41
1
10
76.520358136958
20
-6.25300922066387
30
0
41
1
10
76.530223137257
20
-6.27005869676267
30
0
0
SPLINE
5
D8
100
AcDbEntity
8
1
62
256
6
ByLayer
370
18
48
1
60
0
100
AcDbSpline
70
4
71
3
72
24
73
20
40
0
40
0
40
0
40
0
40
0.128160819686959
40
0.273467349739133
40
0.273467349739133
40
0.346120614765219
40
0.346120614765219
40
0.418773879791306
40
0.418773879791306
40
0.56408040984348
40
0.709386939895654
40
0.709386939895654
40
0.854693469947827
40
0.854693469947827
40
0.927346734973914
40
0.927346734973914
40
0.963673367486957
40
0.963673367486957
40
1
40
1
40
1
40
1
41
1
10
63.6917977025623
20
-5.48397338905068
30
0
41
1
10
63.6880616627824
20
-5.47748674761741
30
0
41
1
10
63.6800835584765
20
-5.45351424373564
30
0
41
1
10
63.6720662753064
20
-5.40785397088572
30
0
41
1
10
63.6656277842949
20
-5.36201962914751
30
0
41
1
10
63.6634733221361
20
-5.34516546284038
30
0
41
1
10
63.6591397424936
20
-5.30823126779703
30
0
41
1
10
63.6569749925033
20
-5.28827272812049
30
0
41
1
10
63.6504931155693
20
-5.22406119751906
30
0
41
1
10
63.6418795215333
20
-5.12685403471247
30
0
41
1
10
63.6332865196352
20
-5.00691395167746
30
0
41
1
10
63.6246604257909
20
-4.87555439118873
30
0
41
1
10
63.6203259621451
20
-4.80415775578967
30
0
41
1
10
63.6137700360378
20
-4.68828269402764
30
0
41
1
10
63.611576616536
20
-4.64819384619588
30
0
41
1
10
63.6082729079365
20
-4.58582282014478
30
0
41
1
10
63.6071689718456
20
-4.56465070506405
30
0
41
1
10
63.6049622009847
20
-4.52167132353577
30
0
41
1
10
63.6038586729802
20
-4.49985123849237
30
0
41
1
10
63.6027547664343
20
-4.47770046228726
30
0
0
SPLINE
5
D9
100
AcDbEntity
8
1
62
256
6
ByLayer
370
13
48
1
60
0
100
AcDbSpline
70
4
71
3
72
11
73
7
40
0
40
0
40
0
40
0
40
0.202699996493354
40
0.595537544526975
40
0.988375092560597
40
1
40
1
40
1
40
1
41
1
10
63.6052696263166
20
-4.47601879242751
30
0
41
1
10
63.6185220913248
20
-4.59901389426699
30
0
41
1
10
63.6574581278157
20
-4.92464872717898
30
0
41
1
10
63.7220777271256
20
-5.27643049726606
30
0
41
1
10
63.7742051606231
20
-5.34219843656925
30
0
41
1
10
63.8006488342239
20
-5.31756991540388
30
0
41
1
10
63.8014088682744
20
-5.31681420664313
30
0
0
SPLINE
5
DA
100
AcDbEntity
8
1
62
256
6
ByLayer
370
18
48
1
60
0
100
AcDbSpline
70
4
71
3
72
8
73
4
40
0
40
0
40
0
40
0
40
1
40
1
40
1
40
1
41
1
10
63.8014086634596
20
-5.31681441029119
30
0
41
1
10
63.8059619143606
20
-5.31228712305202
30
0
41
1
10
63.8105151635146
20
-5.30604266112076
30
0
41
1
10
63.8150684113045
20
-5.29809413034332
30
0
0
SPLINE
5
DB
100
AcDbEntity
8
1
62
256
6
ByLayer
370
13
48
1
60
0
100
AcDbSpline
70
4
71
3
72
10
73
6
40
0
40
0
40
0
40
0
40
0.0849228142191717
40
0.736732963846411
40
1
40
1
40
1
40
1
41
1
10
64.1249119561568
20
-4.7189251466481
30
0
41
1
10
64.128258216585
20
-4.74550048638591
30
0
41
1
10
64.1572881114643
20
-4.96892674305144
30
0
41
1
10
64.1966916633428
20
-5.1866503004388
30
0
41
1
10
64.232748954189
20
-5.28013260184991
30
0
41
1
10
64.2431226103432
20
-5.29820418606306
30
0
0
SPLINE
5
DC
100
AcDbEntity
8
1
62
256
6
ByLayer
370
13
48
1
60
0
100
AcDbSpline
70
4
71
3
72
10
73
6
40
0
40
0
40
0
40
0
40
0.105329335857762
40
0.684044588707562
40
1
40
1
40
1
40
1
41
1
10
75.8326643473529
20
-4.58873832938977
30
0
41
1
10
75.8373389088865
20
-4.62938357258366
30
0
41
1
10
75.8676971036888
20
-4.8832411697469
30
0
41
1
10
75.9120775342805
20
-5.1555214218738
30
0
41
1
10
75.95178340987
20
-5.2719443678441
30
0
41
1
10
75.9658056492888
20
-5.29694425402965
30
0
0
SPLINE
5
DD
100
AcDbEntity
8
1
62
256
6
ByLayer
370
18
48
1
60
0
100
AcDbSpline
70
4
71
3
72
8
73
4
40
0
40
0
40
0
40
0
40
1
40
1
40
1
40
1
41
1
10
75.965805630005
20
-5.29694421964916
30
0
41
1
10
75.967708990101
20
-5.30033767289663
30
0
41
1
10
75.9696123501971
20
-5.3034342038483
30
0
41
1
10
75.9715157102912
20
-5.30623317742922
30
0
0
SPLINE
5
DE
100
AcDbEntity
8
1
62
256
6
ByLayer
370
13
48
1
60
0
100
AcDbSpline
70
4
71
3
72
9
73
5
40
0
40
0
40
0
40
0
40
0.454884822323741
40
1
40
1
40
1
40
1
41
1
10
71.083300452399
20
5.30083556727288
30
0
41
1
10
71.1043946118509
20
5.33579196315179
30
0
41
1
10
71.1507671412029
20
5.33216427348029
30
0
41
1
10
71.197139673325
20
5.15100057356818
30
0
41
1
10
71.2224180438083
20
5.00242780087285
30
0
0
SPLINE
5
DF
100
AcDbEntity
8
1
62
256
6
ByLayer
370
18
48
1
60
0
100
AcDbSpline
70
4
71
3
72
23
73
19
40
0
40
0
40
0
40
0
40
0.0295317591592951
40
0.0295317591592951
40
0.0757445325326619
40
0.0757445325326619
40
0.260595626026129
40
0.260595626026129
40
0.445446719519596
40
0.630297813013063
40
0.630297813013063
40
0.722723359759797
40
0.722723359759797
40
0.768936133133164
40
0.768936133133164
40
0.815148906506531
40
0.815148906506531
40
1
40
1
40
1
40
1
41
1
10
71.7450811209166
20
6.41946620166348
30
0
41
1
10
71.7466539652332
20
6.41946402725293
30
0
41
1
10
71.748228057053
20
6.41921521646245
30
0
41
1
10
71.7522691873748
20
6.41794053104854
30
0
41
1
10
71.7547402624841
20
6.41655353827147
30
0
41
1
10
71.7670989507459
20
6.40656226180187
30
0
41
1
10
71.7769083956665
20
6.38890299301761
30
0
41
1
10
71.7965085299613
20
6.33489753409543
30
0
41
1
10
71.8160513428384
20
6.262201112523
30
0
41
1
10
71.8355632172959
20
6.15237964216772
30
0
41
1
10
71.8502928666709
20
6.05581337886272
30
0
41
1
10
71.8552212563984
20
6.02125405142601
30
0
41
1
10
71.8626529363374
20
5.96578670293195
30
0
41
1
10
71.8651318019072
20
5.94672369842186
30
0
41
1
10
71.8700762846998
20
5.90758388366552
30
0
41
1
10
71.872544372363
20
5.88748875372212
30
0
41
1
10
71.8848647305089
20
5.78441263643688
30
0
41
1
10
71.8946529882525
20
5.69364796514847
30
0
41
1
10
71.904412559422
20
5.59476161076586
30
0
0
SPLINE
5
E0
100
AcDbEntity
8
1
62
256
6
ByLayer
370
18
48
1
60
0
100
AcDbSpline
70
4
71
3
72
25
73
21
40
0
40
0
40
0
40
0
40
0.0430560561666918
40
0.0430560561666918
40
0.0861121123333836
40
0.172224224666766
40
0.172224224666766
40
0.344448449333532
40
0.344448449333532
40
0.516672674000297
40
0.516672674000297
40
0.602784786333679
40
0.602784786333679
40
0.64584084250037
40
0.64584084250037
40
0.688896898667061
40
0.688896898667061
40
0.861121123333826
40
0.861121123333826
40
1
40
1
40
1
40
1
41
1
10
72.1144003165658
20
5.47537091950758
30
0
41
1
10
72.1119376918977
20
5.50193767765305
30
0
41
1
10
72.1094684568846
20
5.52805012798467
30
0
41
1
10
72.1045226341966
20
5.57926033963756
30
0
41
1
10
72.0971131193949
20
5.65434071983526
30
0
41
1
10
72.0897339719734
20
5.7242775616624
30
0
41
1
10
72.0750147601103
20
5.85740925084534
30
0
41
1
10
72.0652570896916
20
5.93718917543703
30
0
41
1
10
72.0457702455631
20
6.07904265544846
30
0
41
1
10
72.0360397844166
20
6.14111609250946
30
0
41
1
10
72.0213347477358
20
6.22077203162868
30
0
41
1
10
72.0164169010155
20
6.24507800919429
30
0
41
1
10
72.0090163183093
20
6.2781116196237
30
0
41
1
10
72.0065454390058
20
6.28855167789683
30
0
41
1
10
72.0015950981412
20
6.30827695594749
30
0
41
1
10
71.9991187129852
20
6.317548338226
30
0
41
1
10
71.986777422104
20
6.36078579116858
30
0
41
1
10
71.9769921918874
20
6.38560025514653
30
0
41
1
10
71.9593668703468
20
6.41327358630096
30
0
41
1
10
71.9515070998528
20
6.41945228691651
30
0
41
1
10
71.9436330126597
20
6.41946769186458
30
0
0
SPLINE
5
E1
100
AcDbEntity
8
1
62
256
6
ByLayer
370
13
48
1
60
0
100
AcDbSpline
70
4
71
3
72
10
73
6
40
0
40
0
40
0
40
0
40
0.309759160316054
40
0.797830698430079
40
1
40
1
40
1
40
1
41
1
10
72.6110814330207
20
5.29168542043149
30
0
41
1
10
72.6273817959537
20
5.26015075346331
30
0
41
1
10
72.6693658086903
20
5.12287297310792
30
0
41
1
10
72.7219884731476
20
4.77401930070013
30
0
41
1
10
72.7583108694336
20
4.43807242170035
30
0
41
1
10
72.7689495812078
20
4.3320861701645
30
0
0
SPLINE
5
E2
100
AcDbEntity
8
1
62
256
6
ByLayer
370
13
48
1
60
0
100
AcDbSpline
70
4
71
3
72
11
73
7
40
0
40
0
40
0
40
0
40
0.214813361948273
40
0.591925425630788
40
0.969037489313302
40
1
40
1
40
1
40
1
41
1
10
75.3128738421699
20
-4.3237670785457
30
0
41
1
10
75.327503934078
20
-4.47004194281766
30
0
41
1
10
75.3678176446936
20
-4.83364855524567
30
0
41
1
10
75.4338151235265
20
-5.23323048910399
30
0
41
1
10
75.487291102197
20
-5.33515207284046
30
0
41
1
10
75.5150834966604
20
-5.32398972819215
30
0
41
1
10
75.5171922347213
20
-5.32277461027513
30
0
0
SPLINE
5
E3
100
AcDbEntity
8
1
62
256
6
ByLayer
370
18
48
1
60
0
100
AcDbSpline
70
4
71
3
72
8
73
4
40
0
40
0
40
0
40
0
40
1
40
1
40
1
40
1
41
1
10
41.2337490193528
20
3.33542518826425
30
0
41
1
10
41.1939024569133
20
3.31534452301668
30
0
41
1
10
41.1538925379319
20
3.29526374906715
30
0
41
1
10
41.1137082647546
20
3.27520992168851
30
0
0
SPLINE
5
E4
100
AcDbEntity
8
1
62
256
6
ByLayer
370
18
48
1
60
0
100
AcDbSpline
70
4
71
3
72
10
73
6
40
0
40
0
40
0
40
0
40
0.160192631647643
40
0.160192631647643
40
1
40
1
40
1
40
1
41
1
10
36.9726001863921
20
4.51100479518317
30
0
41
1
10
37.0045456362679
20
4.51099379577147
30
0
41
1
10
37.0365457454238
20
4.51060019364758
30
0
41
1
10
37.2366087888393
20
4.50577565067701
30
0
41
1
10
37.4059692131533
20
4.49127764781593
30
0
41
1
10
37.5764613646325
20
4.46615069794251
30
0
0
SPLINE
5
E5
100
AcDbEntity
8
1
62
256
6
ByLayer
370
18
48
1
60
0
100
AcDbSpline
70
4
71
3
72
28
73
24
40
0
40
0
40
0
40
0
40
0.124999999999999
40
0.124999999999999
40
0.156249999999999
40
0.156249999999999
40
0.187499999999999
40
0.249999999999999
40
0.249999999999999
40
0.374999999999998
40
0.374999999999998
40
0.499999999999998
40
0.499999999999998
40
0.562499999999998
40
0.562499999999998
40
0.593749999999998
40
0.593749999999998
40
0.624999999999998
40
0.624999999999998
40
0.749999999999999
40
0.874999999999999
40
0.874999999999999
40
1
40
1
40
1
40
1
41
1
10
74.8694746333248
20
-6.41864103117737
30
0
41
1
10
74.8596716422174
20
-6.41540080835793
30
0
41
1
10
74.8498322486039
20
-6.40263091101161
30
0
41
1
10
74.8374589802008
20
-6.37435198039162
30
0
41
1
10
74.8349838848993
20
-6.36808554077703
30
0
41
1
10
74.8300495007955
20
-6.35438642323714
30
0
41
1
10
74.8226633686027
20
-6.33206970533112
30
0
41
1
10
74.8153143410384
20
-6.30450446062315
30
0
41
1
10
74.8006336219221
20
-6.2424774547768
30
0
41
1
10
74.790854918826
20
-6.19194603308813
30
0
41
1
10
74.7712928325717
20
-6.07268498413669
30
0
41
1
10
74.761515313647
20
-6.0039555961919
30
0
41
1
10
74.7467921688723
20
-5.88696782456
30
0
41
1
10
74.7418741894925
20
-5.84565246497078
30
0
41
1
10
74.7344665493301
20
-5.78013312283812
30
0
41
1
10
74.7319900852714
20
-5.75768142232675
30
0
41
1
10
74.7270494629307
20
-5.71182596675817
30
0
41
1
10
74.724582166379
20
-5.68839788011758
30
0
41
1
10
74.7122580993924
20
-5.56878146254519
30
0
41
1
10
74.6926340320558
20
-5.36158354207444
30
0
41
1
10
74.6731526407646
20
-5.12351291776508
30
0
41
1
10
74.6536200189126
20
-4.86996740929615
30
0
41
1
10
74.6438111214366
20
-4.73545888407162
30
0
41
1
10
74.633916505437
20
-4.59298349346591
30
0
0
SPLINE
5
E6
100
AcDbEntity
8
1
62
256
6
ByLayer
370
13
48
1
60
0
100
AcDbSpline
70
4
71
3
72
10
73
6
40
0
40
0
40
0
40
0
40
0.364160500479208
40
0.729700011014928
40
1
40
1
40
1
40
1
41
1
10
73.7666043218323
20
-3.33946412556071
30
0
41
1
10
73.7921910651326
20
-3.68082043330415
30
0
41
1
10
73.8434614408763
20
-4.29651508742981
30
0
41
1
10
73.9137237010085
20
-4.90153740268917
30
0
41
1
10
73.9583992291355
20
-5.13347676511779
30
0
41
1
10
73.9773911200855
20
-5.20298685318841
30
0
0
SPLINE
5
E7
100
AcDbEntity
8
1
62
256
6
ByLayer
370
18
48
1
60
0
100
AcDbSpline
70
4
71
3
72
29
73
25
40
0
40
0
40
0
40
0
40
0.125000000000001
40
0.125000000000001
40
0.250000000000001
40
0.250000000000001
40
0.281250000000001
40
0.281250000000001
40
0.312500000000001
40
0.375000000000002
40
0.375000000000002
40
0.500000000000002
40
0.500000000000002
40
0.625000000000002
40
0.625000000000002
40
0.687500000000002
40
0.687500000000002
40
0.718750000000002
40
0.718750000000002
40
0.750000000000002
40
0.750000000000002
40
0.875000000000001
40
0.875000000000001
40
1
40
1
40
1
40
1
41
1
10
74.4239890713982
20
-4.42590887460554
30
0
41
1
10
74.433773347372
20
-4.57209350578398
30
0
41
1
10
74.4435267631216
20
-4.71149260831703
30
0
41
1
10
74.4630731416283
20
-4.97666862141446
30
0
41
1
10
74.4728746115555
20
-5.10244628345444
30
0
41
1
10
74.4852520358047
20
-5.25088931799806
30
0
41
1
10
74.4877360922978
20
-5.28017519912976
30
0
41
1
10
74.4926925675508
20
-5.33760033941496
30
0
41
1
10
74.500113132816
20
-5.42206075069069
30
0
41
1
10
74.5074926555622
20
-5.50154568686611
30
0
41
1
10
74.5222091866714
20
-5.6539866514195
30
0
41
1
10
74.531960616012
20
-5.74692307606182
30
0
41
1
10
74.551480291453
20
-5.91561180123659
30
0
41
1
10
74.561266821343
20
-5.99136393129322
30
0
41
1
10
74.5760144692432
20
-6.0919075051365
30
0
41
1
10
74.5809403799969
20
-6.12323767608547
30
0
41
1
10
74.5883497199038
20
-6.16689757888875
30
0
41
1
10
74.5908250209454
20
-6.18090581496534
30
0
41
1
10
74.5957749261898
20
-6.20774758658712
30
0
41
1
10
74.5982440598449
20
-6.22055248580193
30
0
41
1
10
74.6105655847589
20
-6.28153090294256
30
0
41
1
10
74.6203431262799
20
-6.32058735800649
30
0
41
1
10
74.6399127703138
20
-6.37976336806366
30
0
41
1
10
74.6496951551225
20
-6.399881962119
30
0
41
1
10
74.6594818195477
20
-6.41053156279622
30
0
0
SPLINE
5
E8
100
AcDbEntity
8
1
62
256
6
ByLayer
370
18
48
1
60
0
100
AcDbSpline
70
4
71
3
72
28
73
24
40
0
40
0
40
0
40
0
40
0.249999999999991
40
0.249999999999991
40
0.499999999999981
40
0.499999999999981
40
0.624999999999978
40
0.624999999999978
40
0.749999999999975
40
0.749999999999975
40
0.812499999999976
40
0.812499999999976
40
0.874999999999976
40
0.874999999999976
40
0.906249999999977
40
0.906249999999977
40
0.937499999999978
40
0.937499999999978
40
0.968749999999979
40
0.968749999999979
40
0.984374999999989
40
0.984374999999989
40
1
40
1
40
1
40
1
41
1
10
63.5435262539588
20
2.38542464005343
30
0
41
1
10
63.5453840054202
20
2.43634029094971
30
0
41
1
10
63.5474434542495
20
2.48702955023694
30
0
41
1
10
63.5521744000622
20
2.58809141063421
30
0
41
1
10
63.554834603533
20
2.63845657394904
30
0
41
1
10
63.5596356428359
20
2.71399684922326
30
0
41
1
10
63.5613730731647
20
2.73917698619272
30
0
41
1
10
63.565270656865
20
2.78963474364434
30
0
41
1
10
63.567422362345
20
2.81490683648258
30
0
41
1
10
63.5712223323359
20
2.85305549128864
30
0
41
1
10
63.5725857926783
20
2.86581271602967
30
0
41
1
10
63.575616642483
20
2.89148140452173
30
0
41
1
10
63.5772772684114
20
2.90438845531133
30
0
41
1
10
63.5801906510052
20
2.92399187595092
30
0
41
1
10
63.5812331964823
20
2.93056748445926
30
0
41
1
10
63.583548584405
20
2.94385807818264
30
0
41
1
10
63.5848151917462
20
2.9505690005237
30
0
41
1
10
63.5877951324245
20
2.96427140751703
30
0
41
1
10
63.5895032178657
20
2.97134274026936
30
0
41
1
10
63.5928029639947
20
2.98170915834507
30
0
41
1
10
63.5940221077867
20
2.98511957012437
30
0
41
1
10
63.596970778031
20
2.99156429128016
30
0
41
1
10
63.5986993954709
20
2.99449408583368
30
0
41
1
10
63.6005405584441
20
2.99630784641346
30
0
0
SPLINE
5
E9
100
AcDbEntity
8
1
62
256
6
ByLayer
370
13
48
1
60
0
100
AcDbSpline
70
4
71
3
72
10
73
6
40
0
40
0
40
0
40
0
40
0.341932283054711
40
0.707275481101417
40
1
40
1
40
1
40
1
41
1
10
73.0777928775689
20
5.32291875712096
30
0
41
1
10
73.1018307232405
20
5.30910123812092
30
0
41
1
10
73.1515522030654
20
5.18151480826774
30
0
41
1
10
73.2218522271538
20
4.72107546431792
30
0
41
1
10
73.2681144010624
20
4.26322699425404
30
0
41
1
10
73.2886929407572
20
4.03307197991492
30
0
0
SPLINE
5
EA
100
AcDbEntity
8
1
62
256
6
ByLayer
370
18
48
1
60
0
100
AcDbSpline
70
4
71
3
72
33
73
29
40
0
40
0
40
0
40
0
40
0.0624999999999995
40
0.0624999999999995
40
0.0937499999999993
40
0.0937499999999993
40
0.124999999999999
40
0.124999999999999
40
0.249999999999999
40
0.249999999999999
40
0.374999999999999
40
0.374999999999999
40
0.499999999999999
40
0.499999999999999
40
0.531249999999999
40
0.531249999999999
40
0.562499999999999
40
0.624999999999999
40
0.624999999999999
40
0.749999999999999
40
0.749999999999999
40
0.875
40
0.875
40
0.9375
40
0.9375
40
0.96875
40
0.96875
40
1
40
1
40
1
40
1
41
1
10
73.7352198623813
20
6.37587460647086
30
0
41
1
10
73.7401356085155
20
6.36407738662882
30
0
41
1
10
73.7450611332381
20
6.34986316470983
30
0
41
1
10
73.7524730099389
20
6.32484375309005
30
0
41
1
10
73.7549464654426
20
6.31588925742446
30
0
41
1
10
73.7598769016478
20
6.29684436078043
30
0
41
1
10
73.7623371463462
20
6.28674332422051
30
0
41
1
10
73.7746197486161
20
6.23337408013333
30
0
41
1
10
73.7843979151626
20
6.18153343490422
30
0
41
1
10
73.8039528724803
20
6.05997705713912
30
0
41
1
10
73.8137128536065
20
5.99026034219349
30
0
41
1
10
73.833253956125
20
5.83288154911367
30
0
41
1
10
73.843034748828
20
5.74522079517084
30
0
41
1
10
73.8553737529568
20
5.62408193435758
30
0
41
1
10
73.8578507124231
20
5.59924303137711
30
0
41
1
10
73.862795220818
20
5.54863819746421
30
0
41
1
10
73.8702023968082
20
5.47129150891703
30
0
41
1
10
73.8775786987833
20
5.3896745169294
30
0
41
1
10
73.8922933365954
20
5.22083636661344
30
0
41
1
10
73.9020494485984
20
5.10081751725912
30
0
41
1
10
73.9215452972384
20
4.84603011586691
30
0
41
1
10
73.9312901406703
20
4.71126181415809
30
0
41
1
10
73.9460192057264
20
4.49788061577809
30
0
41
1
10
73.9509439663463
20
4.42487890050413
30
0
41
1
10
73.9583547950654
20
4.31251371135792
30
0
41
1
10
73.9608314903079
20
4.27454373070751
30
0
41
1
10
73.9657825005658
20
4.19781169175994
30
0
41
1
10
73.9682523502387
20
4.1591197568402
30
0
41
1
10
73.9707171553254
20
4.12010549366209
30
0
0
SPLINE
5
EB
100
AcDbEntity
8
1
62
256
6
ByLayer
370
13
48
1
60
0
100
AcDbSpline
70
4
71
3
72
11
73
7
40
0
40
0
40
0
40
0
40
0.185006266002622
40
0.550287191020205
40
0.915568116037788
40
1
40
1
40
1
40
1
41
1
10
74.6242815083422
20
5.08180623298114
30
0
41
1
10
74.6372896745614
20
5.01515765918947
30
0
41
1
10
74.6759814877333
20
4.77734773379512
30
0
41
1
10
74.7403568993392
20
4.19362586115628
30
0
41
1
10
74.7976609147592
20
3.48355756634041
30
0
41
1
10
74.8292811205132
20
3.04174272114668
30
0
41
1
10
74.8352176924788
20
2.95717657428827
30
0
0
SPLINE
5
EC
100
AcDbEntity
8
1
62
256
6
ByLayer
370
18
48
1
60
0
100
AcDbSpline
70
4
71
3
72
28
73
24
40
0
40
0
40
0
40
0
40
0.124999999999999
40
0.249999999999998
40
0.249999999999998
40
0.312499999999998
40
0.312499999999998
40
0.343749999999998
40
0.343749999999998
40
0.374999999999998
40
0.374999999999998
40
0.499999999999998
40
0.499999999999998
40
0.624999999999998
40
0.624999999999998
40
0.749999999999998
40
0.749999999999998
40
0.781249999999998
40
0.781249999999998
40
0.812499999999999
40
0.874999999999999
40
0.874999999999999
40
1
40
1
40
1
40
1
41
1
10
74.180701125706
20
3.93650955794527
30
0
41
1
10
74.1708920314992
20
4.09631098512691
30
0
41
1
10
74.151325947419
20
4.40300482976858
30
0
41
1
10
74.1318056306809
20
4.68411791760178
30
0
41
1
10
74.1170862298955
20
4.88518795452654
30
0
41
1
10
74.1121653549738
20
4.9505811086278
30
0
41
1
10
74.1047449701705
20
5.04617821221873
30
0
41
1
10
74.102262664704
20
5.07766202700958
30
0
41
1
10
74.0973107785661
20
5.13948436020505
30
0
41
1
10
74.0948389739112
20
5.16985264264324
30
0
41
1
10
74.0825003386636
20
5.31900787109728
30
0
41
1
10
74.0726984844353
20
5.42975492877571
30
0
41
1
10
74.0531632660229
20
5.63450905464853
30
0
41
1
10
74.0434299150434
20
5.72851521862876
30
0
41
1
10
74.02386523161
20
5.89974424162807
30
0
41
1
10
74.0140304975459
20
5.97696833132966
30
0
41
1
10
74.0016677534852
20
6.06269967461949
30
0
41
1
10
73.999188634762
20
6.07932310469451
30
0
41
1
10
73.9942357849294
20
6.11138544453306
30
0
41
1
10
73.9868237889484
20
6.15764606311714
30
0
41
1
10
73.9794572037028
20
6.19847139172524
30
0
41
1
10
73.9647597559253
20
6.2729943834365
30
0
41
1
10
73.9550014955324
20
6.3131883238363
30
0
41
1
10
73.9452213400888
20
6.34401519578805
30
0
0
SPLINE
5
ED
100
AcDbEntity
8
1
62
256
6
ByLayer
370
18
48
1
60
0
100
AcDbSpline
70
4
71
3
72
10
73
6
40
0
40
0
40
0
40
0
40
0.426225462332839
40
0.931340966322262
40
1
40
1
40
1
40
1
41
1
10
81.82
20
-0.0117990474324756
30
0
41
1
10
81.82
20
-0.407818048891215
30
0
41
1
10
81.8200000000001
20
-1.27757952511144
30
0
41
1
10
81.82
20
-2.14666088470915
30
0
41
1
10
81.8199999999999
20
-2.59522286020709
30
0
41
1
10
81.8199999999999
20
-2.64814775718594
30
0
0
SPLINE
5
EE
100
AcDbEntity
8
1
62
256
6
ByLayer
370
18
48
1
60
0
100
AcDbSpline
70
4
71
3
72
8
73
4
40
0
40
0
40
0
40
0
40
1
40
1
40
1
40
1
41
1
10
63.6005405584683
20
2.99630784636199
30
0
41
1
10
63.6736931818071
20
3.06837172443946
30
0
41
1
10
63.7468463639172
20
3.1402932030108
30
0
41
1
10
63.8199999999999
20
3.21207235282833
30
0
0
SPLINE
5
EF
100
AcDbEntity
8
1
62
256
6
ByLayer
370
13
48
1
60
0
100
AcDbSpline
70
4
71
3
72
8
73
4
40
0
40
0
40
0
40
0
40
1
40
1
40
1
40
1
41
1
10
63.6005405584683
20
2.99630784636213
30
0
41
1
10
63.6157078672224
20
2.78154552339834
30
0
41
1
10
63.6308751754448
20
2.55605113145148
30
0
41
1
10
63.646042484133
20
2.3222872979683
30
0
0
SPLINE
5
F0
100
AcDbEntity
8
1
62
256
6
ByLayer
370
18
48
1
60
0
100
AcDbSpline
70
4
71
3
72
9
73
5
40
0
40
0
40
0
40
0
40
0.554610924925397
40
1
40
1
40
1
40
1
41
1
10
81.2200000195365
20
-0.71019144995492
30
0
41
1
10
81.2200000062902
20
-0.474669337345688
30
0
41
1
10
81.2199999843396
20
-0.0467008497772667
30
0
41
1
10
81.2199999671609
20
0.379368121802912
30
0
41
1
10
81.2199999607224
20
0.567638222278191
30
0
0
SPLINE
5
F1
100
AcDbEntity
8
1
62
256
6
ByLayer
370
18
48
1
60
0
100
AcDbSpline
70
4
71
3
72
19
73
15
40
0
40
0
40
0
40
0
40
0.25
40
0.25
40
0.375
40
0.375
40
0.5
40
0.5
40
0.625
40
0.625
40
0.75
40
0.875
40
0.875
40
1
40
1
40
1
40
1
41
1
10
81.220000019537
20
-0.71019144995455
30
0
41
1
10
81.2240900696456
20
-0.877420650216322
30
0
41
1
10
81.2280522309053
20
-1.04306472945751
30
0
41
1
10
81.2337166435991
20
-1.28917128847277
30
0
41
1
10
81.2355505035509
20
-1.37076471489277
30
0
41
1
10
81.2390876123024
20
-1.53258464579383
30
0
41
1
10
81.240796105012
20
-1.61288072710701
30
0
41
1
10
81.2441120243597
20
-1.77224662140213
30
0
41
1
10
81.2457205403092
20
-1.85137047345358
30
0
41
1
10
81.248849086314
20
-2.00813020289706
30
0
41
1
10
81.2518912691356
20
-2.16321649479886
30
0
41
1
10
81.2547048849478
20
-2.31499160787462
30
0
41
1
10
81.2573628442068
20
-2.46511800014542
30
0
41
1
10
81.258613042425
20
-2.53930026404885
30
0
41
1
10
81.2597546841856
20
-2.61246791283247
30
0
0
SPLINE
5
F2
100
AcDbEntity
8
1
62
256
6
ByLayer
370
18
48
1
60
0
100
AcDbSpline
70
4
71
3
72
14
73
10
40
0
40
0
40
0
40
0
40
0.124999999999999
40
0.124999999999999
40
0.249999999999998
40
0.249999999999998
40
0.499999999999998
40
0.499999999999998
40
1
40
1
40
1
40
1
41
1
10
81.1272921402505
20
0.656968836065374
30
0
41
1
10
81.1312518125453
20
0.600193026176385
30
0
41
1
10
81.1352160906111
20
0.543286726314705
30
0
41
1
10
81.1431491504606
20
0.429211506479589
30
0
41
1
10
81.1471177374229
20
0.372045049621818
30
0
41
1
10
81.1589809118742
20
0.200772897208509
30
0
41
1
10
81.1668570430053
20
0.0866876426422039
30
0
41
1
10
81.190003765118
20
-0.255308032707319
30
0
41
1
10
81.2048841014259
20
-0.48295415103604
30
0
41
1
10
81.2200000195404
20
-0.710191449783679
30
0
0
SPLINE
5
F3
100
AcDbEntity
8
1
62
256
6
ByLayer
370
13
48
1
60
0
100
AcDbSpline
70
4
71
3
72
11
73
7
40
0
40
0
40
0
40
0
40
0.235307331258308
40
0.602060331341958
40
0.968813331425609
40
1
40
1
40
1
40
1
41
1
10
64.982507702005
20
4.02304611666116
30
0
41
1
10
64.9989862548093
20
3.83810942122562
30
0
41
1
10
65.04114847797
20
3.32164866708365
30
0
41
1
10
65.1089940235376
20
2.33796857635056
30
0
41
1
10
65.1625453033819
20
1.46233462425164
30
0
41
1
10
65.1904129373117
20
0.993735919102846
30
0
41
1
10
65.1925969333257
20
0.95694059527159
30
0
0
SPLINE
5
F4
100
AcDbEntity
8
1
62
256
6
ByLayer
370
18
48
1
60
0
100
AcDbSpline
70
4
71
3
72
10
73
6
40
0
40
0
40
0
40
0
40
0.5
40
0.5
40
1
40
1
40
1
40
1
41
1
10
63.82
20
3.21207235282805
30
0
41
1
10
63.8317932454117
20
3.0488047233392
30
0
41
1
10
63.8434913648763
20
2.88109749365171
30
0
41
1
10
63.8667537986838
20
2.53713037357178
30
0
41
1
10
63.878318229806
20
2.36086946422154
30
0
41
1
10
63.8899094828226
20
2.18036125544322
30
0
0
SPLINE
5
F5
100
AcDbEntity
8
1
62
256
6
ByLayer
370
18
48
1
60
0
100
AcDbSpline
70
4
71
3
72
27
73
23
40
0
40
0
40
0
40
0
40
0.125
40
0.25
40
0.25
40
0.374999999999999
40
0.374999999999999
40
0.40625
40
0.40625
40
0.4375
40
0.5
40
0.5
40
0.625
40
0.625
40
0.75
40
0.75
40
0.8125
40
0.84375
40
0.84375
40
0.875
40
0.875
40
1
40
1
40
1
40
1
41
1
10
64.8766869371324
20
1.23884683970388
30
0
41
1
10
64.8681404122195
20
1.40851806498694
30
0
41
1
10
64.8510988506828
20
1.7429277859822
30
0
41
1
10
64.8341188097885
20
2.06762058284883
30
0
41
1
10
64.8170836912739
20
2.38740773898391
30
0
41
1
10
64.8085306383838
20
2.54484818393485
30
0
41
1
10
64.7977345778802
20
2.73847698365898
30
0
41
1
10
64.7955730180212
20
2.77700349803413
30
0
41
1
10
64.7912620019549
20
2.85335910513317
30
0
41
1
10
64.7848062563794
20
2.96697758559225
30
0
41
1
10
64.7783811499845
20
3.07787864058818
30
0
41
1
10
64.7655616182566
20
3.29610801807488
30
0
41
1
10
64.7570581362855
20
3.43683782514975
30
0
41
1
10
64.7400350395274
20
3.70887282661712
30
0
41
1
10
64.7315022979965
20
3.84017646432613
30
0
41
1
10
64.7186360216585
20
4.02996400390813
30
0
41
1
10
64.7121886371945
20
4.12306347536986
30
0
41
1
10
64.705715076849
20
4.21342851366455
30
0
41
1
10
64.7013924800353
20
4.27305752880096
30
0
41
1
10
64.6992271377789
20
4.30257245281936
30
0
41
1
10
64.6884255134628
20
4.44799111999575
30
0
41
1
10
64.6798312844022
20
4.55793626884093
30
0
41
1
10
64.6712255822725
20
4.66156901200986
30
0
0
SPLINE
5
F6
100
AcDbEntity
8
1
62
256
6
ByLayer
370
13
48
1
60
0
100
AcDbSpline
70
4
71
3
72
11
73
7
40
0
40
0
40
0
40
0
40
0.140358667292708
40
0.50568829572504
40
0.871017924157372
40
1
40
1
40
1
40
1
41
1
10
73.2467870274913
20
-2.94787639132909
30
0
41
1
10
73.2566546127127
20
-3.08862991096044
30
0
41
1
10
73.2922058310679
20
-3.57972848918271
30
0
41
1
10
73.3534406073717
20
-4.31167146917815
30
0
41
1
10
73.4138757501898
20
-4.82754162421475
30
0
41
1
10
73.448627172532
20
-5.03156164774686
30
0
41
1
10
73.4576949536262
20
-5.07833250264588
30
0
0
SPLINE
5
F7
100
AcDbEntity
8
1
62
256
6
ByLayer
370
18
48
1
60
0
100
AcDbSpline
70
4
71
3
72
28
73
24
40
0
40
0
40
0
40
0
40
0.0625000000000013
40
0.0625000000000013
40
0.0937500000000015
40
0.0937500000000015
40
0.125000000000002
40
0.125000000000002
40
0.250000000000002
40
0.250000000000002
40
0.375000000000002
40
0.375000000000002
40
0.500000000000002
40
0.500000000000002
40
0.562500000000002
40
0.562500000000002
40
0.625000000000002
40
0.625000000000002
40
0.750000000000001
40
0.750000000000001
40
0.875000000000001
40
0.875000000000001
40
1
40
1
40
1
40
1
41
1
10
81.0949571924467
20
-2.53090232265902
30
0
41
1
10
81.0910139378927
20
-2.4661373298805
30
0
41
1
10
81.0870817151169
20
-2.40062525070647
30
0
41
1
10
81.0811736468149
20
-2.30124204144434
30
0
41
1
10
81.0792020780276
20
-2.26791808002366
30
0
41
1
10
81.0752626829318
20
-2.20109067576192
30
0
41
1
10
81.0732934995686
20
-2.16756451810275
30
0
41
1
10
81.0634396416651
20
-1.99937768549896
30
0
41
1
10
81.0555009941398
20
-1.86305675946693
30
0
41
1
10
81.0395548935205
20
-1.58692493843137
30
0
41
1
10
81.0315652251303
20
-1.44711115419301
30
0
41
1
10
81.0157186149831
20
-1.16392536706491
30
0
41
1
10
81.007837040031
20
-1.0205608703657
30
0
41
1
10
80.9958429469419
20
-0.802838903005352
30
0
41
1
10
80.9918092925061
20
-0.729663563578441
30
0
41
1
10
80.9837670264047
20
-0.583542211608403
30
0
41
1
10
80.9797543661175
20
-0.510522406642565
30
0
41
1
10
80.9677747553554
20
-0.291582577691315
30
0
41
1
10
80.95986344355
20
-0.145781960765788
30
0
41
1
10
80.944425804736
20
0.145512059203583
30
0
41
1
10
80.9368855815554
20
0.291004765131532
30
0
41
1
10
80.9217374946224
20
0.581664191006922
30
0
41
1
10
80.9141595632896
20
0.726832324237421
30
0
41
1
10
80.9064857462802
20
0.871831377575916
30
0
0
SPLINE
5
F8
100
AcDbEntity
8
1
62
256
6
ByLayer
370
18
48
1
60
0
100
AcDbSpline
70
4
71
3
72
29
73
25
40
0
40
0
40
0
40
0
40
0.124999999999999
40
0.124999999999999
40
0.249999999999997
40
0.374999999999996
40
0.374999999999996
40
0.437499999999995
40
0.437499999999995
40
0.468749999999995
40
0.468749999999995
40
0.499999999999995
40
0.499999999999995
40
0.624999999999996
40
0.624999999999996
40
0.749999999999997
40
0.749999999999997
40
0.874999999999998
40
0.874999999999998
40
0.906249999999999
40
0.906249999999999
40
0.937499999999999
40
0.937499999999999
40
1
40
1
40
1
40
1
41
1
10
79.4305894598806
20
2.3605546982144
30
0
41
1
10
79.4399732842946
20
2.21160536005598
30
0
41
1
10
79.4492560586488
20
2.06050280763836
30
0
41
1
10
79.467777018968
20
1.75414543704267
30
0
41
1
10
79.4862470153508
20
1.44364319448371
30
0
41
1
10
79.5048412970297
20
1.12495967700633
30
0
41
1
10
79.5189181007096
20
0.882824149846215
30
0
41
1
10
79.5236334401427
20
0.801590811350593
30
0
41
1
10
79.530740334669
20
0.678942358972535
30
0
41
1
10
79.5331139630361
20
0.637941774149738
30
0
41
1
10
79.5378483034548
20
0.55608046906022
30
0
41
1
10
79.5402119189643
20
0.515169660974038
30
0
41
1
10
79.5520110989198
20
0.310714045376329
30
0
41
1
10
79.5613895770117
20
0.14746374588205
30
0
41
1
10
79.58000028903
20
-0.178416333328784
30
0
41
1
10
79.5892437916604
20
-0.341045738992591
30
0
41
1
10
79.6077898381861
20
-0.665679718504066
30
0
41
1
10
79.6170820300135
20
-0.827685024970179
30
0
41
1
10
79.6287662170266
20
-1.02979160028627
30
0
41
1
10
79.6311064686177
20
-1.07019286234038
30
0
41
1
10
79.6357948019331
20
-1.15095481168828
30
0
41
1
10
79.6381446955834
20
-1.19134652985758
30
0
41
1
10
79.6451920136799
20
-1.31219360479744
30
0
41
1
10
79.6498858479631
20
-1.39230200759747
30
0
41
1
10
79.6545786099473
20
-1.47195247355768
30
0
0
SPLINE
5
F9
100
AcDbEntity
8
1
62
256
6
ByLayer
370
13
48
1
60
0
100
AcDbSpline
70
4
71
3
72
11
73
7
40
0
40
0
40
0
40
0
40
0.245422127848882
40
0.569486616316852
40
0.893551104784823
40
1
40
1
40
1
40
1
41
1
10
79.4875078557324
20
-1.18805544925121
30
0
41
1
10
79.4702070362258
20
-0.899214158167609
30
0
41
1
10
79.430061572629
20
-0.216167256955401
30
0
41
1
10
79.3670714554726
20
0.867735207646803
30
0
41
1
10
79.3138781458912
20
1.75049071182889
30
0
41
1
10
79.2835294790503
20
2.22559741160976
30
0
41
1
10
79.2760254566199
20
2.34103074736999
30
0
0
SPLINE
5
FA
100
AcDbEntity
8
1
62
256
6
ByLayer
370
18
48
1
60
0
100
AcDbSpline
70
4
71
3
72
28
73
24
40
0
40
0
40
0
40
0
40
0.124999999999999
40
0.124999999999999
40
0.249999999999997
40
0.249999999999997
40
0.281249999999997
40
0.281249999999997
40
0.312499999999997
40
0.374999999999997
40
0.374999999999997
40
0.499999999999997
40
0.624999999999998
40
0.624999999999998
40
0.687499999999998
40
0.687499999999998
40
0.718749999999998
40
0.718749999999998
40
0.749999999999998
40
0.749999999999998
40
0.874999999999999
40
0.874999999999999
40
1
40
1
40
1
40
1
41
1
10
72.8031737480997
20
-5.96748837310821
30
0
41
1
10
72.7934004792889
20
-5.89309139696311
30
0
41
1
10
72.7836178406338
20
-5.81000932364228
30
0
41
1
10
72.7640287172342
20
-5.62644627814188
30
0
41
1
10
72.7542238744813
20
-5.52596639451195
30
0
41
1
10
72.7418934702401
20
-5.38917940652087
30
0
41
1
10
72.7394214718603
20
-5.36123908902786
30
0
41
1
10
72.7344754575363
20
-5.3043232215179
30
0
41
1
10
72.7270717350398
20
-5.21759800609908
30
0
41
1
10
72.7196933599077
20
-5.12686658845831
30
0
41
1
10
72.7049565528064
20
-4.94015248066788
30
0
41
1
10
72.6853812435808
20
-4.67721945263969
30
0
41
1
10
72.6658826036273
20
-4.38670030085706
30
0
41
1
10
72.6511845984605
20
-4.15833178675544
30
0
41
1
10
72.6462710236035
20
-4.08045962267201
30
0
41
1
10
72.6388645620205
20
-3.96098351537808
30
0
41
1
10
72.6363902893014
20
-3.92071328534161
30
0
41
1
10
72.6314310047739
20
-3.83927322884591
30
0
41
1
10
72.6289506810635
20
-3.79817963006027
30
0
41
1
10
72.6165838481654
20
-3.59149566938234
30
0
41
1
10
72.6067677078015
20
-3.42164958613262
30
0
41
1
10
72.5872157335638
20
-3.07321806574163
30
0
41
1
10
72.5774796986699
20
-2.89463199863673
30
0
41
1
10
72.5677004934941
20
-2.71168751169748
30
0
0
SPLINE
5
FB
100
AcDbEntity
8
1
62
256
6
ByLayer
370
13
48
1
60
0
100
AcDbSpline
70
4
71
3
72
10
73
6
40
0
40
0
40
0
40
0
40
0.296585294202502
40
0.6624571414443
40
1
40
1
40
1
40
1
41
1
10
71.7005306781134
20
-1.66019770836087
30
0
41
1
10
71.7213505050197
20
-1.99899120392683
30
0
41
1
10
71.7678539703402
20
-2.73079722183289
30
0
41
1
10
71.8380524132732
20
-3.70124452018104
30
0
41
1
10
71.8874310271338
20
-4.24362062626466
30
0
41
1
10
71.9111260106127
20
-4.46488229265094
30
0
0
SPLINE
5
FC
100
AcDbEntity
8
1
62
256
6
ByLayer
370
18
48
1
60
0
100
AcDbSpline
70
4
71
3
72
30
73
26
40
0
40
0
40
0
40
0
40
0.0625000000000002
40
0.0625000000000002
40
0.0937500000000003
40
0.0937500000000003
40
0.125
40
0.125
40
0.250000000000001
40
0.250000000000001
40
0.375000000000001
40
0.375000000000001
40
0.500000000000001
40
0.500000000000001
40
0.562500000000001
40
0.562500000000001
40
0.593750000000001
40
0.593750000000001
40
0.625000000000001
40
0.625000000000001
40
0.750000000000001
40
0.750000000000001
40
0.875
40
0.875
40
1
40
1
40
1
40
1
41
1
10
72.3577828518722
20
-2.49712129824363
30
0
41
1
10
72.362675226967
20
-2.59019683037676
30
0
41
1
10
72.3675725593975
20
-2.6825124986226
30
0
41
1
10
72.3749377525058
20
-2.8198293879511
30
0
41
1
10
72.3773960682433
20
-2.86540883003232
30
0
41
1
10
72.382321810813
20
-2.95617813933478
30
0
41
1
10
72.3847908406078
20
-3.00139715580383
30
0
41
1
10
72.3971490911086
20
-3.22619172265561
30
0
41
1
10
72.4069855499956
20
-3.39997144616979
30
0
41
1
10
72.4265765672818
20
-3.73582397100731
30
0
41
1
10
72.4363268985998
20
-3.89789581876707
30
0
41
1
10
72.4558253936461
20
-4.21040838706361
30
0
41
1
10
72.4655766332064
20
-4.36084928612024
30
0
41
1
10
72.4803314881212
20
-4.57760940819023
30
0
41
1
10
72.4852679984475
20
-4.64837690727484
30
0
41
1
10
72.4927002385237
20
-4.75225400583932
30
0
41
1
10
72.4951787273674
20
-4.78644969229543
30
0
41
1
10
72.500120052251
20
-4.85373415712715
30
0
41
1
10
72.5025856098851
20
-4.88686109449762
30
0
41
1
10
72.5148904733763
20
-5.04994448030473
30
0
41
1
10
72.524657434031
20
-5.1722645696623
30
0
41
1
10
72.5441618161586
20
-5.40096653763936
30
0
41
1
10
72.5539162265188
20
-5.50734734602125
30
0
41
1
10
72.5735000484349
20
-5.70409578441092
30
0
41
1
10
72.5833154690678
20
-5.79446505011461
30
0
41
1
10
72.5931884052036
20
-5.87657284195285
30
0
0
SPLINE
5
FD
100
AcDbEntity
8
1
62
256
6
ByLayer
370
13
48
1
60
0
100
AcDbSpline
70
4
71
3
72
11
73
7
40
0
40
0
40
0
40
0
40
0.0443016308069699
40
0.40933251264548
40
0.774363394483991
40
1
40
1
40
1
40
1
41
1
10
75.143878689558
20
4.91730791071205
30
0
41
1
10
75.1469957597806
20
4.89680734570021
30
0
41
1
10
75.1757964646036
20
4.70053038150755
30
0
41
1
10
75.230280806478
20
4.21049699663391
30
0
41
1
10
75.2975239039298
20
3.38122112466007
30
0
41
1
10
75.3390833681558
20
2.78179332970768
30
0
41
1
10
75.3549591976863
20
2.54289591796396
30
0
0
SPLINE
5
FE
100
AcDbEntity
8
1
62
256
6
ByLayer
370
18
48
1
60
0
100
AcDbSpline
70
4
71
3
72
30
73
26
40
0
40
0
40
0
40
0
40
0.125000000000001
40
0.125000000000001
40
0.187500000000001
40
0.187500000000001
40
0.218750000000001
40
0.218750000000001
40
0.250000000000002
40
0.250000000000002
40
0.375000000000002
40
0.375000000000002
40
0.500000000000002
40
0.500000000000002
40
0.625000000000003
40
0.625000000000003
40
0.656250000000002
40
0.656250000000002
40
0.687500000000002
40
0.687500000000002
40
0.750000000000002
40
0.750000000000002
40
0.875000000000001
40
0.875000000000001
40
1
40
1
40
1
40
1
41
1
10
75.8014069384917
20
5.70071485134392
30
0
41
1
10
75.811193118517
20
5.60794515082458
30
0
41
1
10
75.8209737546605
20
5.50673061298835
30
0
41
1
10
75.83568929966
20
5.34205885825696
30
0
41
1
10
75.8406027078148
20
5.28502309798955
30
0
41
1
10
75.8479993127765
20
5.19619554361554
30
0
41
1
10
75.8504697908785
20
5.16603459556452
30
0
41
1
10
75.8554207966177
20
5.10463246848366
30
0
41
1
10
75.8578922255037
20
5.07350439297289
30
0
41
1
10
75.870237416831
20
4.9157531264452
30
0
41
1
10
75.8800721422685
20
4.78281196282205
30
0
41
1
10
75.8996635372176
20
4.50381696433146
30
0
41
1
10
75.9094202267684
20
4.35776223804299
30
0
41
1
10
75.9289601620605
20
4.05255104370758
30
0
41
1
10
75.9387544268272
20
3.89339572153545
30
0
41
1
10
75.9511069970814
20
3.68605036091779
30
0
41
1
10
75.9535820726029
20
3.64416027830111
30
0
41
1
10
75.9585415855352
20
3.55952888469574
30
0
41
1
10
75.9610237726162
20
3.51682496667937
30
0
41
1
10
75.9684458456918
20
3.38811534720679
30
0
41
1
10
75.9733733822334
20
3.30130268540395
30
0
41
1
10
75.9881089228178
20
3.0379007838711
30
0
41
1
10
75.9978671105825
20
2.85835400684286
30
0
41
1
10
76.0173967266701
20
2.49149946064318
30
0
41
1
10
76.0271851671885
20
2.30419239715798
30
0
41
1
10
76.0370078748678
20
2.11296351855685
30
0
0
SPLINE
5
FF
100
AcDbEntity
8
1
62
256
6
ByLayer
370
13
48
1
60
0
100
AcDbSpline
70
4
71
3
72
11
73
7
40
0
40
0
40
0
40
0
40
0.0560215936643674
40
0.380620753358285
40
0.705219913052202
40
1
40
1
40
1
40
1
41
1
10
76.9014918616711
20
1.20025010169411
30
0
41
1
10
76.8975491772772
20
1.26603868418397
30
0
41
1
10
76.8707618582878
20
1.71104340190914
30
0
41
1
10
76.8211296779098
20
2.50653851734623
30
0
41
1
10
76.754694180086
20
3.45390193678466
30
0
41
1
10
76.7111036667435
20
3.97330941674167
30
0
41
1
10
76.6903577196599
20
4.19246221842357
30
0
0
SPLINE
5
100
100
AcDbEntity
8
1
62
256
6
ByLayer
370
18
48
1
60
0
100
AcDbSpline
70
4
71
3
72
28
73
24
40
0
40
0
40
0
40
0
40
0.125
40
0.125
40
0.249999999999999
40
0.249999999999999
40
0.312499999999999
40
0.312499999999999
40
0.374999999999999
40
0.374999999999999
40
0.499999999999999
40
0.499999999999999
40
0.624999999999998
40
0.624999999999998
40
0.749999999999998
40
0.749999999999998
40
0.781249999999998
40
0.781249999999998
40
0.812499999999998
40
0.812499999999998
40
0.874999999999999
40
0.874999999999999
40
1
40
1
40
1
40
1
41
1
10
76.2655504549059
20
1.86616443838909
30
0
41
1
10
76.2560436830194
20
2.0573349402861
30
0
41
1
10
76.2465412905862
20
2.24496578031724
30
0
41
1
10
76.2276672857517
20
2.61312004684029
30
0
41
1
10
76.21830760696
20
2.79363612857176
30
0
41
1
10
76.2042562879851
20
3.05899309648046
30
0
41
1
10
76.1995698367262
20
3.1465416863384
30
0
41
1
10
76.1901792971937
20
3.31980684223379
30
0
41
1
10
76.1854660394031
20
3.40568296494357
30
0
41
1
10
76.1714004059114
20
3.65797711907447
30
0
41
1
10
76.1620786313691
20
3.81982576521855
30
0
41
1
10
76.1432180371877
20
4.13139543743333
30
0
41
1
10
76.1337078539779
20
4.28106662545127
30
0
41
1
10
76.1147495989836
20
4.56790489558773
30
0
41
1
10
76.1053074835193
20
4.7050742891455
30
0
41
1
10
76.0935378498841
20
4.8684652309208
30
0
41
1
10
76.0911847648516
20
4.90073960427085
30
0
41
1
10
76.0864765016206
20
4.96447329776251
30
0
41
1
10
76.0841217821182
20
4.99592524085085
30
0
41
1
10
76.0770753690048
20
5.08867579854444
30
0
41
1
10
76.072390050742
20
5.14850009809911
30
0
41
1
10
76.0583251254074
20
5.32204004233165
30
0
41
1
10
76.0489505331809
20
5.42982421984647
30
0
41
1
10
76.0393515298861
20
5.52992398736112
30
0
0
SPLINE
5
101
100
AcDbEntity
8
1
62
256
6
ByLayer
370
18
48
1
60
0
100
AcDbSpline
70
4
71
3
72
32
73
28
40
0
40
0
40
0
40
0
40
0.125
40
0.125
40
0.25
40
0.25
40
0.375000000000001
40
0.375000000000001
40
0.40625
40
0.40625
40
0.4375
40
0.4375
40
0.5
40
0.5
40
0.625
40
0.625
40
0.75
40
0.75
40
0.812500000000001
40
0.812500000000001
40
0.843750000000001
40
0.843750000000001
40
0.875000000000001
40
0.875000000000001
40
0.9375
40
0.9375
40
1
40
1
40
1
40
1
41
1
10
76.1345700793271
20
2.00919445711773
30
0
41
1
10
76.1232019195163
20
2.20491615980407
30
0
41
1
10
76.1119967523489
20
2.39618014596576
30
0
41
1
10
76.0886976397381
20
2.76997334381662
30
0
41
1
10
76.0766326399458
20
2.95250413071014
30
0
41
1
10
76.0518587157419
20
3.30885208416024
30
0
41
1
10
76.0391482218375
20
3.48267005957993
30
0
41
1
10
76.0235013987042
20
3.69438074537655
30
0
41
1
10
76.0203862533354
20
3.73644425141424
30
0
41
1
10
76.0142094090882
20
3.82000881157214
30
0
41
1
10
76.0111556555948
20
3.86140319815459
30
0
41
1
10
76.0021595139263
20
3.98415305485449
30
0
41
1
10
75.9963761557195
20
4.06419621461512
30
0
41
1
10
75.9792392770869
20
4.299028692702
30
0
41
1
10
75.9680557562621
20
4.44853055114797
30
0
41
1
10
75.94490180997
20
4.73358279495918
30
0
41
1
10
75.9329179094156
20
4.86913332369122
30
0
41
1
10
75.9142594121413
20
5.0618686586019
30
0
41
1
10
75.9079374192304
20
5.12434620343384
30
0
41
1
10
75.8983988721825
20
5.21537077583693
30
0
41
1
10
75.895210872278
20
5.24526349395833
30
0
41
1
10
75.8888438639453
20
5.30414226307784
30
0
41
1
10
75.8856672886023
20
5.33310534534508
30
0
41
1
10
75.8762341749453
20
5.41831539932844
30
0
41
1
10
75.8700608359674
20
5.472982799525
30
0
41
1
10
75.858268820952
20
5.5780591012103
30
0
41
1
10
75.8527171944208
20
5.62846963648576
30
0
41
1
10
75.8472648946365
20
5.67673572201608
30
0
0
SPLINE
5
102
100
AcDbEntity
8
1
62
256
6
ByLayer
370
13
48
1
60
0
100
AcDbSpline
70
4
71
3
72
11
73
7
40
0
40
0
40
0
40
0
40
0.104462514260979
40
0.428774864130705
40
0.753087214000431
40
1
40
1
40
1
40
1
41
1
10
78.9677568617823
20
-0.711646252736386
30
0
41
1
10
78.9603985097112
20
-0.586751626603672
30
0
41
1
10
78.9301955451814
20
-0.0716670812917357
30
0
41
1
10
78.8771477874897
20
0.84131853421232
30
0
41
1
10
78.8140657569645
20
1.88953395492257
30
0
41
1
10
78.7738285779155
20
2.5086745755284
30
0
41
1
10
78.7564360229024
20
2.76333879402037
30
0
0
SPLINE
5
103
100
AcDbEntity
8
1
62
256
6
ByLayer
370
18
48
1
60
0
100
AcDbSpline
70
4
71
3
72
29
73
25
40
0
40
0
40
0
40
0
40
0.125
40
0.125
40
0.25
40
0.25
40
0.375
40
0.375
40
0.40625
40
0.40625
40
0.4375
40
0.4375
40
0.5
40
0.5
40
0.625000000000001
40
0.625000000000001
40
0.750000000000001
40
0.750000000000001
40
0.875000000000001
40
0.875000000000001
40
0.906250000000001
40
0.906250000000001
40
0.937500000000001
40
1
40
1
40
1
40
1
41
1
10
78.6699832082464
20
-0.6029392422613
30
0
41
1
10
78.6609671848138
20
-0.429484117866025
30
0
41
1
10
78.6519806720709
20
-0.256262547964184
30
0
41
1
10
78.6341312172017
20
0.0897211041740889
30
0
41
1
10
78.6253013470772
20
0.262483635013183
30
0
41
1
10
78.6076304583187
20
0.607546290879441
30
0
41
1
10
78.598784383617
20
0.779846391143138
30
0
41
1
10
78.5875730588528
20
0.994921100887183
30
0
41
1
10
78.585323651794
20
1.03792100928857
30
0
41
1
10
78.5808101197087
20
1.12389045766355
30
0
41
1
10
78.5785457928765
20
1.16686330264554
30
0
41
1
10
78.571764467162
20
1.29508838550649
30
0
41
1
10
78.5672477173871
20
1.37986506994287
30
0
41
1
10
78.5537069249527
20
1.63210843518846
30
0
41
1
10
78.5446922013411
20
1.79749391652365
30
0
41
1
10
78.5266765924618
20
2.12275182988503
30
0
41
1
10
78.517670369584
20
2.28261967563429
30
0
41
1
10
78.4997267356364
20
2.59672946388287
30
0
41
1
10
78.4907915779325
20
2.7509747484595
30
0
41
1
10
78.4795939423122
20
2.94017213951642
30
0
41
1
10
78.4773515768471
20
2.97784598820564
30
0
41
1
10
78.4728749082535
20
3.05256868489045
30
0
41
1
10
78.466166898053
20
3.16380975015994
30
0
41
1
10
78.4594563401884
20
3.27253923130502
30
0
41
1
10
78.4549639844114
20
3.34392048491301
30
0
0
SPLINE
5
104
100
AcDbEntity
8
1
62
256
6
ByLayer
370
18
48
1
60
0
100
AcDbSpline
70
4
71
3
72
27
73
23
40
0
40
0
40
0
40
0
40
0.124999999999999
40
0.124999999999999
40
0.249999999999998
40
0.249999999999998
40
0.374999999999997
40
0.374999999999997
40
0.406249999999997
40
0.406249999999997
40
0.437499999999997
40
0.499999999999997
40
0.499999999999997
40
0.624999999999998
40
0.624999999999998
40
0.749999999999999
40
0.749999999999999
40
0.812499999999999
40
0.812499999999999
40
0.874999999999999
40
0.874999999999999
40
1
40
1
40
1
40
1
41
1
10
77.6185996180034
20
4.16028630555707
30
0
41
1
10
77.6282983197719
20
4.02795617847636
30
0
41
1
10
77.6379248356127
20
3.89042449964913
30
0
41
1
10
77.6572820967665
20
3.60531707474675
30
0
41
1
10
77.6670305969995
20
3.45777538335446
30
0
41
1
10
77.6866026506267
20
3.15251673351113
30
0
41
1
10
77.6964183929525
20
2.99479242358282
30
0
41
1
10
77.7087510036116
20
2.79098972732027
30
0
41
1
10
77.7112193619549
20
2.74992107839586
30
0
41
1
10
77.7161365252443
20
2.6675466758474
30
0
41
1
10
77.7234924544788
20
2.54347499923665
30
0
41
1
10
77.7307887104584
20
2.41788827093956
30
0
41
1
10
77.745314507566
20
2.16472648378434
30
0
41
1
10
77.7549080177957
20
1.9933052999377
30
0
41
1
10
77.7741374158402
20
1.64529630633527
30
0
41
1
10
77.78378561202
20
1.46870821279842
30
0
41
1
10
77.7983861043388
20
1.19991809228392
30
0
41
1
10
77.8032724080724
20
1.10966876069585
30
0
41
1
10
77.8130902553654
20
0.927842700150592
30
0
41
1
10
77.818029099766
20
0.836129437739089
30
0
41
1
10
77.8328212118279
20
0.560853359195164
30
0
41
1
10
77.8426788900289
20
0.376686270890502
30
0
41
1
10
77.852542862103
20
0.191863391230498
30
0
0
SPLINE
5
105
100
AcDbEntity
8
1
62
256
6
ByLayer
370
13
48
1
60
0
100
AcDbSpline
70
4
71
3
72
11
73
7
40
0
40
0
40
0
40
0
40
0.197103062994172
40
0.521475496035576
40
0.84584792907698
40
1
40
1
40
1
40
1
41
1
10
77.4212315797936
20
0.724237707520587
30
0
41
1
10
77.4073501605812
20
0.959769921267082
30
0
41
1
10
77.3706240952738
20
1.57720521439381
30
0
41
1
10
77.3110533902482
20
2.5302333764582
30
0
41
1
10
77.2545075953485
20
3.33390144756672
30
0
41
1
10
77.2208064505359
20
3.75139487096982
30
0
41
1
10
77.2099499507094
20
3.87880938496105
30
0
0
SPLINE
5
106
100
AcDbEntity
8
1
62
256
6
ByLayer
370
13
48
1
60
0
100
AcDbSpline
70
4
71
3
72
11
73
7
40
0
40
0
40
0
40
0
40
0.0931025944340516
40
0.460021219102944
40
0.826939843771836
40
1
40
1
40
1
40
1
41
1
10
65.5023159612778
20
3.68886837965348
30
0
41
1
10
65.508832973435
20
3.60837062285526
30
0
41
1
10
65.5410336215093
20
3.19863581783102
30
0
41
1
10
65.5989179036151
20
2.36214933288255
30
0
41
1
10
65.6623990601213
20
1.32586724934086
30
0
41
1
10
65.7001965918021
20
0.684505052275739
30
0
41
1
10
65.7123104878633
20
0.477868164023704
30
0
0
SPLINE
5
107
100
AcDbEntity
8
1
62
256
6
ByLayer
370
18
48
1
60
0
100
AcDbSpline
70
4
71
3
72
101
73
97
40
0
40
0
40
0
40
0
40
0.062500000000022
40
0.062500000000022
40
0.125000000000044
40
0.125000000000044
40
0.156250000000055
40
0.156250000000055
40
0.171875000000059
40
0.171875000000059
40
0.187500000000063
40
0.187500000000063
40
0.218750000000074
40
0.218750000000074
40
0.250000000000085
40
0.250000000000085
40
0.265625000000089
40
0.265625000000089
40
0.281250000000092
40
0.296875000000096
40
0.296875000000096
40
0.3125000000001
40
0.3125000000001
40
0.328125000000104
40
0.328125000000104
40
0.343750000000108
40
0.343750000000108
40
0.375000000000115
40
0.375000000000115
40
0.406250000000123
40
0.406250000000123
40
0.43750000000013
40
0.43750000000013
40
0.453125000000134
40
0.453125000000134
40
0.460937500000136
40
0.460937500000136
40
0.468750000000138
40
0.468750000000138
40
0.500000000000136
40
0.500000000000136
40
0.507812500000136
40
0.507812500000136
40
0.515625000000136
40
0.515625000000136
40
0.531250000000134
40
0.531250000000134
40
0.546875000000132
40
0.546875000000132
40
0.55468750000013
40
0.55468750000013
40
0.562500000000127
40
0.562500000000127
40
0.593750000000115
40
0.593750000000115
40
0.601562500000112
40
0.601562500000112
40
0.60546875000011
40
0.60546875000011
40
0.609375000000108
40
0.625000000000102
40
0.625000000000102
40
0.632812500000098
40
0.632812500000098
40
0.640625000000095
40
0.640625000000095
40
0.644531250000094
40
0.644531250000094
40
0.648437500000092
40
0.656250000000089
40
0.656250000000089
40
0.671875000000084
40
0.671875000000084
40
0.687500000000079
40
0.687500000000079
40
0.695312500000077
40
0.695312500000077
40
0.703125000000076
40
0.703125000000076
40
0.718750000000072
40
0.718750000000072
40
0.750000000000064
40
0.750000000000064
40
0.781250000000057
40
0.781250000000057
40
0.796875000000053
40
0.796875000000053
40
0.81250000000005
40
0.81250000000005
40
0.843750000000042
40
0.843750000000042
40
0.875000000000035
40
0.875000000000035
40
0.937500000000017
40
0.937500000000017
40
1
40
1
40
1
40
1
41
1
10
41.2337490193528
20
0.962505050877496
30
0
41
1
10
41.0369765291143
20
1.1063999567524
30
0
41
1
10
40.8362203668739
20
1.2409826468533
30
0
41
1
10
40.4240918896035
20
1.48852926028493
30
0
41
1
10
40.2127221187589
20
1.60149619326819
30
0
41
1
10
39.8853198280822
20
1.75198796629041
30
0
41
1
10
39.7744640693148
20
1.79899910797181
30
0
41
1
10
39.6053283513683
20
1.86450148501604
30
0
41
1
10
39.5484704391024
20
1.88549335812783
30
0
41
1
10
39.4337120223235
20
1.92568247578717
30
0
41
1
10
39.3757426180815
20
1.94489695409735
30
0
41
1
10
39.2015531214238
20
1.99926145465858
30
0
41
1
10
39.0846526602473
20
2.03130698173737
30
0
41
1
10
38.8491232503472
20
2.08639068377937
30
0
41
1
10
38.7304999236815
20
2.10945772831133
30
0
41
1
10
38.5510892172266
20
2.13658736972326
30
0
41
1
10
38.491017881832
20
2.14427620339828
30
0
41
1
10
38.3703946246702
20
2.15724249888908
30
0
41
1
10
38.2492996645421
20
2.16784176678664
30
0
41
1
10
38.1274716526026
20
2.17478052261913
30
0
41
1
10
38.0054000974635
20
2.18050673247919
30
0
41
1
10
37.9442063514623
20
2.18258362798196
30
0
41
1
10
37.8214779337362
20
2.18504490875816
30
0
41
1
10
37.7598783490912
20
2.1854292183128
30
0
41
1
10
37.63722050143
20
2.18441763389089
30
0
41
1
10
37.5760617002369
20
2.18302943341166
30
0
41
1
10
37.3931210234051
20
2.17608147583326
30
0
41
1
10
37.2718704634553
20
2.1677638907791
30
0
41
1
10
37.0309399018521
20
2.1428954613784
30
0
41
1
10
36.9112656251083
20
2.12631645770799
30
0
41
1
10
36.6737551897064
20
2.08335395263771
30
0
41
1
10
36.5559169718914
20
2.05698478700438
30
0
41
1
10
36.3808562435426
20
2.00815650217527
30
0
41
1
10
36.322785463969
20
1.99033298343215
30
0
41
1
10
36.2361649844293
20
1.96090048442437
30
0
41
1
10
36.2073472892375
20
1.95062898603223
30
0
41
1
10
36.1499979681834
20
1.92913834178691
30
0
41
1
10
36.1215773148638
20
1.91796212304629
30
0
41
1
10
35.9807972546102
20
1.859817098967
30
0
41
1
10
35.8723720634699
20
1.80613358940377
30
0
41
1
10
35.7435401342361
20
1.72717448969414
30
0
41
1
10
35.7181121146233
20
1.71078308401206
30
0
41
1
10
35.6679892125613
20
1.67668931812005
30
0
41
1
10
35.643365456658
20
1.65903039915219
30
0
41
1
10
35.5714151348649
20
1.6044999377084
30
0
41
1
10
35.525792749703
20
1.56593751737933
30
0
41
1
10
35.4396865035404
20
1.48387765134515
30
0
41
1
10
35.399246868879
20
1.4403415238036
30
0
41
1
10
35.3428582482475
20
1.3708518068324
30
0
41
1
10
35.3247764776268
20
1.34698839648678
30
0
41
1
10
35.2901378344071
20
1.29775266791336
30
0
41
1
10
35.2735174128956
20
1.27226348952559
30
0
41
1
10
35.1958151673664
20
1.14291909324942
30
0
41
1
10
35.1491194387305
20
1.03289361222073
30
0
41
1
10
35.109922970421
20
0.886851889299948
30
0
41
1
10
35.1030460291904
20
0.857216458239975
30
0
41
1
10
35.0941792151873
20
0.812112858446
30
0
41
1
10
35.0914619488514
20
0.796945859432213
30
0
41
1
10
35.0865462165914
20
0.766626307169133
30
0
41
1
10
35.0755297638362
20
0.690750334447387
30
0
41
1
10
35.0706448095518
20
0.614493625827237
30
0
41
1
10
35.06998904186
20
0.522632714402363
30
0
41
1
10
35.0705416107135
20
0.491955604005312
30
0
41
1
10
35.0744201579373
20
0.430461777848677
30
0
41
1
10
35.0776088299163
20
0.399647902157312
30
0
41
1
10
35.0840972370447
20
0.353329715150096
30
0
41
1
10
35.0865421024059
20
0.337900292928623
30
0
41
1
10
35.0919243103834
20
0.307261513018659
30
0
41
1
10
35.1007496128724
20
0.261542357872287
30
0
41
1
10
35.1116573494142
20
0.216484450624506
30
0
41
1
10
35.1358831160597
20
0.127132559751601
30
0
41
1
10
35.15523595483
20
0.0685795495844843
30
0
41
1
10
35.198936169577
20
-0.0469498727976827
30
0
41
1
10
35.2232792553317
20
-0.103927702471935
30
0
41
1
10
35.2628310906013
20
-0.188439808441188
30
0
41
1
10
35.2764950553548
20
-0.216386269150974
30
0
41
1
10
35.3045483949481
20
-0.271625825602143
30
0
41
1
10
35.3189571593211
20
-0.298960307148206
30
0
41
1
10
35.3631997151771
20
-0.380198514762242
30
0
41
1
10
35.3940444663986
20
-0.433340707951118
30
0
41
1
10
35.4898320083971
20
-0.590272193174144
30
0
41
1
10
35.5579997865584
20
-0.691586877831099
30
0
41
1
10
35.7003402398075
20
-0.889425716355277
30
0
41
1
10
35.774530046196
20
-0.985937479588472
30
0
41
1
10
35.8891940865457
20
-1.12789048218724
30
0
41
1
10
35.9278391985065
20
-1.17455399335151
30
0
41
1
10
36.0057328680154
20
-1.26658592818151
30
0
41
1
10
36.0450014074988
20
-1.31197639803582
30
0
41
1
10
36.163609617603
20
-1.4464652719989
30
0
41
1
10
36.2437431968026
20
-1.53389149739232
30
0
41
1
10
36.4055396640023
20
-1.70498497674123
30
0
41
1
10
36.4872051746669
20
-1.78864884975249
30
0
41
1
10
36.7338989385148
20
-2.03468382476251
30
0
41
1
10
36.9005799528485
20
-2.19215454057166
30
0
41
1
10
37.2366087888393
20
-2.49581644724424
30
0
41
1
10
37.4059692131533
20
-2.64198753235257
30
0
41
1
10
37.5764613646325
20
-2.78258804896188
30
0
0
SPLINE
5
108
100
AcDbEntity
8
1
62
256
6
ByLayer
370
18
48
1
60
0
100
AcDbSpline
70
4
71
3
72
29
73
25
40
0
40
0
40
0
40
0
40
0.124999999999998
40
0.124999999999998
40
0.249999999999996
40
0.249999999999996
40
0.312499999999994
40
0.343749999999994
40
0.343749999999994
40
0.374999999999993
40
0.374999999999993
40
0.499999999999994
40
0.499999999999994
40
0.624999999999995
40
0.624999999999995
40
0.749999999999996
40
0.749999999999996
40
0.781249999999997
40
0.781249999999997
40
0.812499999999997
40
0.812499999999997
40
0.874999999999998
40
0.874999999999998
40
1
40
1
40
1
40
1
41
1
10
65.9063367073886
20
3.94048305076424
30
0
41
1
10
65.9166918306322
20
3.80295508579977
30
0
41
1
10
65.9270281644734
20
3.66040116118637
30
0
41
1
10
65.9476757594329
20
3.36535649421324
30
0
41
1
10
65.9579852387519
20
3.21286551864381
30
0
41
1
10
65.973496132493
20
2.97658164175226
30
0
41
1
10
65.9812643007093
20
2.85655006014329
30
0
41
1
10
65.9890743225083
20
2.73363989657943
30
0
41
1
10
65.9942935716475
20
2.65105325015949
30
0
41
1
10
65.9969053646575
20
2.60950547967289
30
0
41
1
10
66.0099342205499
20
2.40116856869812
30
0
41
1
10
66.0202959138252
20
2.23194992998782
30
0
41
1
10
66.0409242712945
20
1.88855985506547
30
0
41
1
10
66.0511909897248
20
1.7143880644021
30
0
41
1
10
66.0717441455317
20
1.36111770792797
30
0
41
1
10
66.0820442338706
20
1.18202063875441
30
0
41
1
10
66.095008997207
20
0.955009927873931
30
0
41
1
10
66.0976056647641
20
0.909450426535273
30
0
41
1
10
66.1028067893029
20
0.818013741647405
30
0
41
1
10
66.1054129884481
20
0.772105795549976
30
0
41
1
10
66.113232714216
20
0.634106236652656
30
0
41
1
10
66.1184286132708
20
0.542067522179224
30
0
41
1
10
66.1339794710593
20
0.265836602434689
30
0
41
1
10
66.1442949454234
20
0.0815296978694846
30
0
41
1
10
66.154630300484
20
-0.10292518148114
30
0
0
SPLINE
5
109
100
AcDbEntity
8
1
62
256
6
ByLayer
370
18
48
1
60
0
100
AcDbSpline
70
4
71
3
72
30
73
26
40
0
40
0
40
0
40
0
40
0.125
40
0.125
40
0.250000000000001
40
0.250000000000001
40
0.312500000000001
40
0.312500000000001
40
0.343750000000001
40
0.343750000000001
40
0.375000000000001
40
0.375000000000001
40
0.500000000000001
40
0.500000000000001
40
0.625
40
0.625
40
0.75
40
0.75
40
0.78125
40
0.78125
40
0.8125
40
0.8125
40
0.875
40
0.875
40
1
40
1
40
1
40
1
41
1
10
66.7824954724232
20
-0.794120302288945
30
0
41
1
10
66.7737321799127
20
-0.609224498798682
30
0
41
1
10
66.7650095678922
20
-0.423986776430667
30
0
41
1
10
66.7475732694397
20
-0.0528375114405719
30
0
41
1
10
66.7388577718677
20
0.133073950140869
30
0
41
1
10
66.7256868366598
20
0.412449541813288
30
0
41
1
10
66.721282376573
20
0.505659692568258
30
0
41
1
10
66.7146539533448
20
0.645604502443774
30
0
41
1
10
66.7124408175746
20
0.692274377114217
30
0
41
1
10
66.708006649245
20
0.785657787620494
30
0
41
1
10
66.7057925395576
20
0.832225454819849
30
0
41
1
10
66.6947479394114
20
1.06417141438388
30
0
41
1
10
66.6859841589969
20
1.24716920116276
30
0
41
1
10
66.668498910191
20
1.6081793542416
30
0
41
1
10
66.6597661250669
20
1.78619042344002
30
0
41
1
10
66.6422368977481
20
2.13723114838678
30
0
41
1
10
66.6334548347336
20
2.31026226092837
30
0
41
1
10
66.6224281859568
20
2.52336685907369
30
0
41
1
10
66.6202201969944
20
2.5658282250713
30
0
41
1
10
66.6157973721736
20
2.65042863527512
30
0
41
1
10
66.6135806851035
20
2.69260265781941
30
0
41
1
10
66.6069305926297
20
2.81838845956051
30
0
41
1
10
66.6025086203831
20
2.90105183747673
30
0
41
1
10
66.5892495912577
20
3.14549781451854
30
0
41
1
10
66.5804069060837
20
3.30374223227307
30
0
41
1
10
66.5715505796128
20
3.45728261990274
30
0
0
SPLINE
5
10A
100
AcDbEntity
8
1
62
256
6
ByLayer
370
13
48
1
60
0
100
AcDbSpline
70
4
71
3
72
10
73
6
40
0
40
0
40
0
40
0
40
0.30308665526641
40
0.669495431731053
40
1
40
1
40
1
40
1
41
1
10
67.0485825994804
20
2.53243779671115
30
0
41
1
10
67.0698276045761
20
2.21233124998904
30
0
41
1
10
67.1167561129828
20
1.46600545509253
30
0
41
1
10
67.186851697956
20
0.273049263133032
30
0
41
1
10
67.235702247844
20
-0.566831563923131
30
0
41
1
10
67.2588691467142
20
-0.95713309077118
30
0
0
SPLINE
5
10B
100
AcDbEntity
8
1
62
256
6
ByLayer
370
13
48
1
60
0
100
AcDbSpline
70
4
71
3
72
11
73
7
40
0
40
0
40
0
40
0
40
0.228877248308043
40
0.595111055323144
40
0.961344862338245
40
1
40
1
40
1
40
1
41
1
10
69.6344629293349
20
0.232651235843036
30
0
41
1
10
69.6505138755265
20
-0.0419891375645989
30
0
41
1
10
69.692248454141
20
-0.758516240826822
30
0
41
1
10
69.7596666780686
20
-1.8900795644247
30
0
41
1
10
69.8137447945103
20
-2.71666509440371
30
0
41
1
10
69.8421392760538
20
-3.11252478126318
30
0
41
1
10
69.84485012456
20
-3.14995827334815
30
0
0
SPLINE
5
10C
100
AcDbEntity
8
1
62
256
6
ByLayer
370
13
48
1
60
0
100
AcDbSpline
70
4
71
3
72
11
73
7
40
0
40
0
40
0
40
0
40
0.0725827779963269
40
0.438281613233252
40
0.803980448470178
40
1
40
1
40
1
40
1
41
1
10
71.1807225586407
20
-1.19282087454852
30
0
41
1
10
71.1858201668696
20
-1.27790821324382
30
0
41
1
10
71.2166014113796
20
-1.78878996559402
30
0
41
1
10
71.2730663129044
20
-2.68675850083591
30
0
41
1
10
71.3382002788625
20
-3.58381331560201
30
0
41
1
10
71.3776507246649
20
-4.03714959912224
30
0
41
1
10
71.391417515155
20
-4.18308217294995
30
0
0
SPLINE
5
10D
100
AcDbEntity
8
1
62
256
6
ByLayer
370
18
48
1
60
0
100
AcDbSpline
70
4
71
3
72
29
73
25
40
0
40
0
40
0
40
0
40
0.125000000000001
40
0.125000000000001
40
0.250000000000001
40
0.375000000000002
40
0.375000000000002
40
0.406250000000002
40
0.406250000000002
40
0.437500000000002
40
0.437500000000002
40
0.500000000000002
40
0.500000000000002
40
0.625000000000001
40
0.625000000000001
40
0.750000000000001
40
0.750000000000001
40
0.812500000000001
40
0.812500000000001
40
0.843750000000001
40
0.843750000000001
40
0.875000000000001
40
0.875000000000001
40
1
40
1
40
1
40
1
41
1
10
70.7368462843184
20
-4.74510019874177
30
0
41
1
10
70.7269872137393
20
-4.60783708609512
30
0
41
1
10
70.7171915664162
20
-4.46441335743859
30
0
41
1
10
70.6976150029681
20
-4.16561008496851
30
0
41
1
10
70.6780904251867
20
-3.85484795137964
30
0
41
1
10
70.6585722377323
20
-3.52024023760203
30
0
41
1
10
70.6462803464281
20
-3.30348306921781
30
0
41
1
10
70.6438169953467
20
-3.25974944590226
30
0
41
1
10
70.6388771697573
20
-3.17151006256736
30
0
41
1
10
70.6363978524245
20
-3.12694812115865
30
0
41
1
10
70.6289765429472
20
-2.99272789637001
30
0
41
1
10
70.6240448305403
20
-2.90242143701471
30
0
41
1
10
70.6092946646365
20
-2.62907059621102
30
0
41
1
10
70.5995241026279
20
-2.44359996329712
30
0
41
1
10
70.5800237132161
20
-2.06630497031603
30
0
41
1
10
70.5702909537337
20
-1.87448058929854
30
0
41
1
10
70.5555975822026
20
-1.58194335830919
30
0
41
1
10
70.5506870040823
20
-1.48362939479691
30
0
41
1
10
70.5433015522505
20
-1.3349387264999
30
0
41
1
10
70.540836421017
20
-1.28517179728016
30
0
41
1
10
70.5358988445541
20
-1.18522722462964
30
0
41
1
10
70.533424108316
20
-1.13500293990018
30
0
41
1
10
70.5210554709377
20
-0.883374689394941
30
0
41
1
10
70.5112572518276
20
-0.682024202328734
30
0
41
1
10
70.5014896993513
20
-0.480630468887284
30
0
0
SPLINE
5
10E
100
AcDbEntity
8
1
62
256
6
ByLayer
370
18
48
1
60
0
100
AcDbSpline
70
4
71
3
72
28
73
24
40
0
40
0
40
0
40
0
40
0.125
40
0.125
40
0.25
40
0.374999999999999
40
0.374999999999999
40
0.406249999999999
40
0.406249999999999
40
0.4375
40
0.4375
40
0.5
40
0.5
40
0.625
40
0.75
40
0.75
40
0.8125
40
0.8125
40
0.84375
40
0.84375
40
0.875
40
0.875
40
1
40
1
40
1
40
1
41
1
10
70.2915594824188
20
-0.246277070311578
30
0
41
1
10
70.3014149023043
20
-0.449846727830334
30
0
41
1
10
70.3111969525072
20
-0.651581878009523
30
0
41
1
10
70.3307636942676
20
-1.05148239519883
30
0
41
1
10
70.350295159702
20
-1.44781432133604
30
0
41
1
10
70.3698220933924
20
-1.83702442750897
30
0
41
1
10
70.3821093025744
20
-2.07799658215851
30
0
41
1
10
70.3845711485402
20
-2.12607654758975
30
0
41
1
10
70.3895068301883
20
-2.22200501939054
30
0
41
1
10
70.3919836517143
20
-2.26990476227417
30
0
41
1
10
70.3993972330589
20
-2.4125404249975
30
0
41
1
10
70.4043254145811
20
-2.50639568521612
30
0
41
1
10
70.4190677920369
20
-2.78432610604222
30
0
41
1
10
70.4386058837835
20
-3.14522217832541
30
0
41
1
10
70.4580578879877
20
-3.48709527936282
30
0
41
1
10
70.4727429186107
20
-3.73629733436675
30
0
41
1
10
70.4776537971703
20
-3.8181622755294
30
0
41
1
10
70.4850424796519
20
-3.93912973821554
30
0
41
1
10
70.4875091509035
20
-3.97914709976328
30
0
41
1
10
70.4924504246596
20
-4.05856550843029
30
0
41
1
10
70.4949278151612
20
-4.09801041045168
30
0
41
1
10
70.5073028990662
20
-4.29314551574333
30
0
41
1
10
70.5171085050974
20
-4.44176480519613
30
0
41
1
10
70.5268762845886
20
-4.58313865651709
30
0
0
SPLINE
5
10F
100
AcDbEntity
8
1
62
256
6
ByLayer
370
18
48
1
60
0
100
AcDbSpline
70
4
71
3
72
34
73
30
40
0
40
0
40
0
40
0
40
0.125000000000042
40
0.125000000000042
40
0.187500000000048
40
0.187500000000048
40
0.250000000000053
40
0.250000000000053
40
0.375000000000065
40
0.375000000000065
40
0.437500000000071
40
0.437500000000071
40
0.500000000000077
40
0.500000000000077
40
0.625000000000089
40
0.625000000000089
40
0.687500000000075
40
0.687500000000075
40
0.750000000000061
40
0.750000000000061
40
0.812500000000047
40
0.812500000000047
40
0.84375000000004
40
0.84375000000004
40
0.875000000000032
40
0.875000000000032
40
0.937500000000016
40
0.937500000000016
40
1
40
1
40
1
40
1
41
1
10
67.7785809936422
20
-1.42828730288022
30
0
41
1
10
67.7642639666935
20
-1.40373702256289
30
0
41
1
10
67.7476830267081
20
-1.37902602252342
30
0
41
1
10
67.7202745363714
20
-1.34181990037422
30
0
41
1
10
67.7106877721556
20
-1.32937181865842
30
0
41
1
10
67.6907730188912
20
-1.30451938843345
30
0
41
1
10
67.6805485224308
20
-1.29224216727047
30
0
41
1
10
67.6491522574487
20
-1.25581157383945
30
0
41
1
10
67.6272655144969
20
-1.23205546944345
30
0
41
1
10
67.5931234064013
20
-1.19713085791994
30
0
41
1
10
67.5815219052468
20
-1.18560862122746
30
0
41
1
10
67.5578727419066
20
-1.16280023045718
30
0
41
1
10
67.5459156533113
20
-1.15160324549771
30
0
41
1
10
67.5099602803068
20
-1.11889664504523
30
0
41
1
10
67.4857574043258
20
-1.09814118976024
30
0
41
1
10
67.4491480961497
20
-1.06868950212771
30
0
41
1
10
67.4368937775971
20
-1.05915507680302
30
0
41
1
10
67.4122835264116
20
-1.0407161186445
30
0
41
1
10
67.3999163785088
20
-1.03180891970888
30
0
41
1
10
67.3756925301571
20
-1.01514328459103
30
0
41
1
10
67.3637635398052
20
-1.00732855524879
30
0
41
1
10
67.3461973466682
20
-0.996496650905243
30
0
41
1
10
67.3403967998699
20
-0.993034971385725
30
0
41
1
10
67.3289186738778
20
-0.98643929155881
30
0
41
1
10
67.323234095698
20
-0.983302770217506
30
0
41
1
10
67.3066537807581
20
-0.974577714706754
30
0
41
1
10
67.296140759523
20
-0.969615042944355
30
0
41
1
10
67.2763918310082
20
-0.961704267856788
30
0
41
1
10
67.2671024561201
20
-0.958750052257358
30
0
41
1
10
67.2588691467141
20
-0.957133090770128
30
0
0
SPLINE
5
110
100
AcDbEntity
8
1
62
256
6
ByLayer
370
18
48
1
60
0
100
AcDbSpline
70
4
71
3
72
12
73
8
40
0
40
0
40
0
40
0
40
0.49999999999999
40
0.49999999999999
40
0.749999999999995
40
0.749999999999995
40
1
40
1
40
1
40
1
41
1
10
67.2588691467139
20
-0.95713309077118
30
0
41
1
10
67.1784234162513
20
-0.941334140245147
30
0
41
1
10
67.098576029457
20
-0.919639434767248
30
0
41
1
10
66.9794851661066
20
-0.878744623173645
30
0
41
1
10
66.939886809894
20
-0.863708475244152
30
0
41
1
10
66.8609551263887
20
-0.830916585868266
30
0
41
1
10
66.8216528361035
20
-0.813175199092797
30
0
41
1
10
66.7824954724323
20
-0.794120302287865
30
0
0
SPLINE
5
111
100
AcDbEntity
8
1
62
256
6
ByLayer
370
18
48
1
60
0
100
AcDbSpline
70
4
71
3
72
8
73
4
40
0
40
0
40
0
40
0
40
1
40
1
40
1
40
1
41
1
10
66.7824954724278
20
-0.794120302288718
30
0
41
1
10
66.5728098209258
20
-0.561327906942182
30
0
41
1
10
66.3637823301946
20
-0.330712896697975
30
0
41
1
10
66.1546303004841
20
-0.10292518148114
30
0
0
SPLINE
5
112
100
AcDbEntity
8
1
62
256
6
ByLayer
370
18
48
1
60
0
100
AcDbSpline
70
4
71
3
72
12
73
8
40
0
40
0
40
0
40
0
40
0.250000000000001
40
0.250000000000001
40
0.500000000000001
40
0.500000000000001
40
1
40
1
40
1
40
1
41
1
10
66.154630300484
20
-0.102925181481169
30
0
41
1
10
66.1181816467584
20
-0.0505312243551543
30
0
41
1
10
66.0816139368013
20
0.0009343814195688
30
0
41
1
10
66.0083067558068
20
0.101845226208127
30
0
41
1
10
65.9715554989701
20
0.151307575825143
30
0
41
1
10
65.8609610110411
20
0.296668784512633
30
0
41
1
10
65.7868561061348
20
0.389430194067444
30
0
41
1
10
65.7123104878633
20
0.477868164023761
30
0
0
SPLINE
5
113
100
AcDbEntity
8
1
62
256
6
ByLayer
370
18
48
1
60
0
100
AcDbSpline
70
4
71
3
72
34
73
30
40
0
40
0
40
0
40
0
40
0.124999999999941
40
0.124999999999941
40
0.187499999999897
40
0.187499999999897
40
0.249999999999853
40
0.249999999999853
40
0.374999999999799
40
0.374999999999799
40
0.437499999999791
40
0.437499999999791
40
0.499999999999783
40
0.499999999999783
40
0.624999999999806
40
0.624999999999806
40
0.687499999999838
40
0.687499999999838
40
0.749999999999869
40
0.749999999999869
40
0.812499999999901
40
0.812499999999901
40
0.843749999999917
40
0.843749999999917
40
0.874999999999934
40
0.874999999999934
40
0.937499999999967
40
0.937499999999967
40
1
40
1
40
1
40
1
41
1
10
65.7123104878633
20
0.477868164023732
30
0
41
1
10
65.6979903830284
20
0.494856969409341
30
0
41
1
10
65.6814055068633
20
0.513219140336616
30
0
41
1
10
65.6539912903513
20
0.542235870467266
30
0
41
1
10
65.6444025858706
20
0.552178780188086
30
0
41
1
10
65.6244841830565
20
0.572465545641734
30
0
41
1
10
65.6142580329684
20
0.582704731873946
30
0
41
1
10
65.5828573886717
20
0.613688526732176
30
0
41
1
10
65.5609685617673
20
0.634694796975026
30
0
41
1
10
65.5268244374377
20
0.6667493856975
30
0
41
1
10
65.5152224117726
20
0.677526329544349
30
0
41
1
10
65.4915724217402
20
0.69928296163647
30
0
41
1
10
65.4796158186549
20
0.710178130160756
30
0
41
1
10
65.4436612562445
20
0.742667510786816
30
0
41
1
10
65.4194593622194
20
0.764177548828258
30
0
41
1
10
65.3828508898976
20
0.796287883005704
30
0
41
1
10
65.370596695414
20
0.806965355398944
30
0
41
1
10
65.3459863761004
20
0.828278359633714
30
0
41
1
10
65.3336202255018
20
0.838921732340054
30
0
41
1
10
65.3093989980287
20
0.859651522862123
30
0
41
1
10
65.2974717192207
20
0.869800847013295
30
0
41
1
10
65.2799092052405
20
0.884662188855032
30
0
41
1
10
65.2741100088657
20
0.889555236560113
30
0
41
1
10
65.2626345604662
20
0.899208455817217
30
0
41
1
10
65.2569513743427
20
0.903974300403689
30
0
41
1
10
65.2403747761676
20
0.917829259140973
30
0
41
1
10
65.2298636756557
20
0.92655319801176
30
0
41
1
10
65.2101179314805
20
0.942793804224806
30
0
41
1
10
65.2008297268543
20
0.950353358453583
30
0
41
1
10
65.1925969333256
20
0.956940595273238
30
0
0
SPLINE
5
114
100
AcDbEntity
8
1
62
256
6
ByLayer
370
18
48
1
60
0
100
AcDbSpline
70
4
71
3
72
8
73
4
40
0
40
0
40
0
40
0
40
1
40
1
40
1
40
1
41
1
10
65.1925969333257
20
0.95694059527159
30
0
41
1
10
65.0863597342467
20
1.04194328445021
30
0
41
1
10
64.9811659886478
20
1.1361282600169
30
0
41
1
10
64.8766869371329
20
1.23884683970857
30
0
0
SPLINE
5
115
100
AcDbEntity
8
1
62
256
6
ByLayer
370
18
48
1
60
0
100
AcDbSpline
70
4
71
3
72
13
73
9
40
0
40
0
40
0
40
0
40
0.500000000000039
40
0.500000000000039
40
0.625000000000034
40
0.625000000000034
40
0.750000000000029
40
1
40
1
40
1
40
1
41
1
10
64.8766869371351
20
1.23884683970638
30
0
41
1
10
64.7141900926146
20
1.40165472616735
30
0
41
1
10
64.5507231507887
20
1.5620026371719
30
0
41
1
10
64.3446944921636
20
1.7588911743461
30
0
41
1
10
64.303415313229
20
1.79807958520306
30
0
41
1
10
64.2208599200596
20
1.8759135575263
30
0
41
1
10
64.0969644288463
20
1.9919141860066
30
0
41
1
10
63.9728265351892
20
2.10561978897084
30
0
41
1
10
63.8899094828147
20
2.18036125544231
30
0
0
SPLINE
5
116
100
AcDbEntity
8
1
62
256
6
ByLayer
370
18
48
1
60
0
100
AcDbSpline
70
4
71
3
72
10
73
6
40
0
40
0
40
0
40
0
40
0.5
40
0.5
40
1
40
1
40
1
40
1
41
1
10
63.889909482819
20
2.18036125543745
30
0
41
1
10
63.8495071818801
20
2.20699665731377
30
0
41
1
10
63.8089730168824
20
2.23216958546755
30
0
41
1
10
63.7276939473675
20
2.27949226879781
30
0
41
1
10
63.6869367663257
20
2.30164878277111
30
0
41
1
10
63.6460424841329
20
2.32228729796833
30
0
0
SPLINE
5
117
100
AcDbEntity
8
1
62
256
6
ByLayer
370
18
48
1
60
0
100
AcDbSpline
70
4
71
3
72
12
73
8
40
0
40
0
40
0
40
0
40
0.499999999999999
40
0.499999999999999
40
0.749999999999999
40
0.749999999999999
40
1
40
1
40
1
40
1
41
1
10
63.6460424841327
20
2.32228729796901
30
0
41
1
10
63.6324092647987
20
2.32916770738871
30
0
41
1
10
63.6167191561094
20
2.33823700443142
30
0
41
1
10
63.5908606887305
20
2.35424147469757
30
0
41
1
10
63.5818449431933
20
2.35998722816396
30
0
41
1
10
63.5630716569621
20
2.37224637808205
30
0
41
1
10
63.5534009535332
20
2.37870360638405
30
0
41
1
10
63.5435262539663
20
2.38542464005411
30
0
0
SPLINE
5
118
100
AcDbEntity
8
1
62
256
6
ByLayer
370
18
48
1
60
0
100
AcDbSpline
70
4
71
3
72
10
73
6
40
0
40
0
40
0
40
0
40
0.5
40
0.5
40
1
40
1
40
1
40
1
41
1
10
63.5435262539678
20
2.38542464005241
30
0
41
1
10
63.5275806962336
20
2.39211212964281
30
0
41
1
10
63.5116137918818
20
2.39852396478139
30
0
41
1
10
63.4796589254883
20
2.41087024371754
30
0
41
1
10
63.4637097336604
20
2.41692614050805
30
0
41
1
10
63.4475940618914
20
2.42225183713518
30
0
0
SPLINE
5
119
100
AcDbEntity
8
1
62
256
6
ByLayer
370
18
48
1
60
0
100
AcDbSpline
70
4
71
3
72
22
73
18
40
0
40
0
40
0
40
0
40
0.124999999999989
40
0.124999999999989
40
0.249999999999979
40
0.249999999999979
40
0.374999999999969
40
0.374999999999969
40
0.437499999999963
40
0.437499999999963
40
0.499999999999958
40
0.499999999999958
40
0.749999999999979
40
0.749999999999979
40
0.874999999999989
40
0.874999999999989
40
1
40
1
40
1
40
1
41
1
10
63.4475940618914
20
2.42225183713518
30
0
41
1
10
63.4224455573934
20
2.43056258629304
30
0
41
1
10
63.3947248170778
20
2.43972477636044
30
0
41
1
10
63.3346267271899
20
2.45988170046948
30
0
41
1
10
63.30224820692
20
2.47088250936579
30
0
41
1
10
63.2331734644324
20
2.49502055675146
30
0
41
1
10
63.1964711626295
20
2.50815066800683
30
0
41
1
10
63.1383901600422
20
2.5298020657365
30
0
41
1
10
63.1185524445848
20
2.53733829524791
30
0
41
1
10
63.0782993225789
20
2.55297130949384
30
0
41
1
10
63.0578397950323
20
2.56108416388696
30
0
41
1
10
62.9540181952303
20
2.60323211377121
30
0
41
1
10
62.8661309075905
20
2.64201365489163
30
0
41
1
10
62.7292208231475
20
2.70987349625736
30
0
41
1
10
62.6826458179586
20
2.73416206090891
30
0
41
1
10
62.589175179458
20
2.78570638141613
30
0
41
1
10
62.5421551880944
20
2.81301815233655
30
0
41
1
10
62.4949661177285
20
2.84199468057597
30
0
0
SPLINE
5
11A
100
AcDbEntity
8
1
62
256
6
ByLayer
370
18
48
1
60
0
100
AcDbSpline
70
4
71
3
72
52
73
48
40
0
40
0
40
0
40
0
40
0.0707388701830173
40
0.0707388701830173
40
0.141477740366035
40
0.141477740366035
40
0.176847175457543
40
0.176847175457543
40
0.212216610549052
40
0.212216610549052
40
0.282955480732067
40
0.282955480732067
40
0.318324915823574
40
0.318324915823574
40
0.336009633369328
40
0.336009633369328
40
0.353694350915081
40
0.353694350915081
40
0.389063786006586
40
0.389063786006586
40
0.424433221098091
40
0.424433221098091
40
0.495172091281103
40
0.495172091281103
40
0.565910961464115
40
0.565910961464115
40
0.601280396555619
40
0.601280396555619
40
0.636649831647124
40
0.636649831647124
40
0.654334549192876
40
0.654334549192876
40
0.672019266738628
40
0.672019266738628
40
0.70738870183013
40
0.70738870183013
40
0.778127572013134
40
0.778127572013134
40
0.813497007104635
40
0.813497007104635
40
0.848866442196136
40
0.848866442196136
40
0.919605312379139
40
0.919605312379139
40
0.990344182562143
40
0.990344182562143
40
1
40
1
40
1
40
1
41
1
10
62.4949661177285
20
2.84199468057597
30
0
41
1
10
62.2714478265103
20
2.97924646424727
30
0
41
1
10
62.0494615886486
20
3.10927501490991
30
0
41
1
10
61.6067967417262
20
3.35365757021159
30
0
41
1
10
61.3861859812875
20
3.46807302290992
30
0
41
1
10
61.0550743295111
20
3.62721709041375
30
0
41
1
10
60.9446751783338
20
3.67819330426838
30
0
41
1
10
60.7239851317232
20
3.77612962178395
30
0
41
1
10
60.6136797995177
20
3.82307612638951
30
0
41
1
10
60.2826543610594
20
3.95764134504131
30
0
41
1
10
60.061807184133
20
4.03896900529548
30
0
41
1
10
59.7290708892971
20
4.14738088528202
30
0
41
1
10
59.6179137516345
20
4.18125519359745
30
0
41
1
10
59.450651058712
20
4.22855016145721
30
0
41
1
10
59.3947556474577
20
4.24374298197404
30
0
41
1
10
59.2830404298892
20
4.27286430643204
30
0
41
1
10
59.2272511604229
20
4.28678554396001
30
0
41
1
10
59.0600244671826
20
4.3266284039434
30
0
41
1
10
58.9486357002758
20
4.35060157841255
30
0
41
1
10
58.7265361105612
20
4.39363522498513
30
0
41
1
10
58.615791808144
20
4.41267604634933
30
0
41
1
10
58.2841864430792
20
4.46231391493035
30
0
41
1
10
58.0639506151941
20
4.48541811714367
30
0
41
1
10
57.6234231039212
20
4.51143584579302
30
0
41
1
10
57.4031566726435
20
4.51435664823225
30
0
41
1
10
57.0716086089883
20
4.50355483513894
30
0
41
1
10
56.9608681483594
20
4.49742785271889
30
0
41
1
10
56.7388779624147
20
4.4801096110929
30
0
41
1
10
56.6277630213449
20
4.46889862467529
30
0
41
1
10
56.4607176546104
20
4.44821381577358
30
0
41
1
10
56.4049770340437
20
4.44067370172266
30
0
41
1
10
56.2933547319608
20
4.42429506733225
30
0
41
1
10
56.2374239671366
20
4.41544735933539
30
0
41
1
10
56.0700023162221
20
4.38705480834668
30
0
41
1
10
55.9587420201078
20
4.36564489445772
30
0
41
1
10
55.625733572942
20
4.29416113174779
30
0
41
1
10
55.4047662305661
20
4.23682570616262
30
0
41
1
10
55.0736310375538
20
4.13714029409084
30
0
41
1
10
54.9632873484022
20
4.10164195353246
30
0
41
1
10
54.7425336149196
20
4.02622025247027
30
0
41
1
10
54.6321844005018
20
3.98626468107509
30
0
41
1
10
54.301243791693
20
3.85962922630767
30
0
41
1
10
54.0807182338433
20
3.76619629774203
30
0
41
1
10
53.638396827808
20
3.56198279326901
30
0
41
1
10
53.4165883040394
20
3.45120797102419
30
0
41
1
10
53.1628070297272
20
3.31598722040576
30
0
41
1
10
53.1322964299768
20
3.29959196320715
30
0
41
1
10
53.1017911555991
20
3.28306592723405
30
0
0
SPLINE
5
11B
100
AcDbEntity
8
1
62
256
6
ByLayer
370
18
48
1
60
0
100
AcDbSpline
70
4
71
3
72
86
73
82
40
0
40
0
40
0
40
0
40
0.0067822773000722
40
0.0067822773000722
40
0.0351599265200746
40
0.0351599265200746
40
0.0635375757400769
40
0.0635375757400769
40
0.0919152249600793
40
0.0919152249600793
40
0.120292874180082
40
0.120292874180082
40
0.134481698790083
40
0.134481698790083
40
0.148670523400084
40
0.148670523400084
40
0.177048172620084
40
0.177048172620084
40
0.191236997230085
40
0.191236997230085
40
0.205425821840085
40
0.205425821840085
40
0.262181120280086
40
0.262181120280086
40
0.290558769500087
40
0.290558769500087
40
0.304747594110088
40
0.304747594110088
40
0.318936418720089
40
0.318936418720089
40
0.375691717160091
40
0.375691717160091
40
0.404069366380092
40
0.404069366380092
40
0.418258190990092
40
0.418258190990092
40
0.432447015600092
40
0.432447015600092
40
0.46082466482009
40
0.46082466482009
40
0.489202314040089
40
0.489202314040089
40
0.545957612480084
40
0.545957612480084
40
0.574335261700082
40
0.574335261700082
40
0.588524086310081
40
0.588524086310081
40
0.602712910920079
40
0.602712910920079
40
0.631090560140079
40
0.631090560140079
40
0.645279384750077
40
0.645279384750077
40
0.652373797055077
40
0.652373797055077
40
0.659468209360076
40
0.659468209360076
40
0.716223507800062
40
0.716223507800062
40
0.744601157020055
40
0.744601157020055
40
0.758789981630052
40
0.758789981630052
40
0.772978806240048
40
0.772978806240048
40
0.829734104680036
40
0.829734104680036
40
0.858111753900029
40
0.858111753900029
40
0.872300578510027
40
0.872300578510027
40
0.886489403120025
40
0.886489403120025
40
0.914867052340019
40
0.914867052340019
40
0.943244701560013
40
0.943244701560013
40
0.971622350780006
40
0.971622350780006
40
1
40
1
40
1
40
1
41
1
10
48.7760265894216
20
4.51100017234978
30
0
41
1
10
48.8069998990165
20
4.51099704058743
30
0
41
1
10
48.837971789506
20
4.51079429111491
30
0
41
1
10
48.9984940428857
20
4.50871731249663
30
0
41
1
10
49.127966681091
20
4.50357688379793
30
0
41
1
10
49.3867669281749
20
4.48651079747873
30
0
41
1
10
49.516095727016
20
4.47458376534746
30
0
41
1
10
49.774725070381
20
4.4440228409901
30
0
41
1
10
49.9040307340532
20
4.42539229896641
30
0
41
1
10
50.1625684105767
20
4.38140006268452
30
0
41
1
10
50.2917844245594
20
4.35603298918059
30
0
41
1
10
50.4855436966386
20
4.31283786650005
30
0
41
1
10
50.5501167511261
20
4.29758030578753
30
0
41
1
10
50.6792575356977
20
4.26533138513852
30
0
41
1
10
50.7438260205747
20
4.24833819776794
30
0
41
1
10
50.9379915138359
20
4.19494115503568
30
0
41
1
10
51.0680190514747
20
4.15612077850426
30
0
41
1
10
51.2638292764543
20
4.09299826642828
30
0
41
1
10
51.3292509488462
20
4.0711390100694
30
0
41
1
10
51.4603056754678
20
4.02581214360904
30
0
41
1
10
51.5257386500634
20
4.00241356589891
30
0
41
1
10
51.8524544760942
20
3.88180054912655
30
0
41
1
10
52.1124060243526
20
3.77377973682999
30
0
41
1
10
52.5003240533943
20
3.5948049558659
30
0
41
1
10
52.6293028010747
20
3.53231958666927
30
0
41
1
10
52.8223213784877
20
3.43434580525209
30
0
41
1
10
52.8865859385749
20
3.4009776225297
30
0
41
1
10
53.0153701964699
20
3.33316910759527
30
0
41
1
10
53.0798317323028
20
3.29868127086633
30
0
41
1
10
53.4024027642586
20
3.12327574620824
30
0
41
1
10
53.66137538248
20
2.9735595084752
30
0
41
1
10
54.051399590775
20
2.73503076696377
30
0
41
1
10
54.1816629056111
20
2.65318219912155
30
0
41
1
10
54.3774611585617
20
2.52683795943514
30
0
41
1
10
54.442795682787
20
2.48412875457154
30
0
41
1
10
54.5736062446894
20
2.39750544642681
30
0
41
1
10
54.6389523454696
20
2.35367349658677
30
0
41
1
10
54.8343827788145
20
2.22095446651204
30
0
41
1
10
54.9639750757715
20
2.1306300749996
30
0
41
1
10
55.2231842948241
20
1.94795678615804
30
0
41
1
10
55.3527135604051
20
1.85551201749175
30
0
41
1
10
55.7410394168416
20
1.57488052341537
30
0
41
1
10
55.9996004730496
20
1.38343727593073
30
0
41
1
10
56.3872781803694
20
1.09017879358606
30
0
41
1
10
56.5164702169509
20
0.991399610848703
30
0
41
1
10
56.7102380775661
20
0.841708924791362
30
0
41
1
10
56.7748366993245
20
0.791574378542919
30
0
41
1
10
56.9040103446129
20
0.690770423633779
30
0
41
1
10
56.9685185965564
20
0.64001447253699
30
0
41
1
10
57.1625412138409
20
0.487621429695679
30
0
41
1
10
57.2924090523349
20
0.385677926537824
30
0
41
1
10
57.4879518505487
20
0.232188229994222
30
0
41
1
10
57.5532628590994
20
0.180937606765212
30
0
41
1
10
57.6514350040951
20
0.103942539832644
30
0
41
1
10
57.6842125189818
20
0.0782424502446304
30
0
41
1
10
57.7497147180175
20
0.0269004120697218
30
0
41
1
10
57.7824426338757
20
0.0012559700868735
30
0
41
1
10
58.0767921941381
20
-0.229298849892501
30
0
41
1
10
58.3370763086419
20
-0.432412986362522
30
0
41
1
10
58.7253272184777
20
-0.734638752563058
30
0
41
1
10
58.8543748834267
20
-0.834978467796191
30
0
41
1
10
59.0473471068806
20
-0.984925688138446
30
0
41
1
10
59.1116027188353
20
-1.03477376345336
30
0
41
1
10
59.2403627662934
20
-1.13371974519924
30
0
41
1
10
59.3048104111029
20
-1.18288945955174
30
0
41
1
10
59.6273200962325
20
-1.42731435842813
30
0
41
1
10
59.8861523951182
20
-1.61836488745527
30
0
41
1
10
60.2758837423072
20
-1.89790111814514
30
0
41
1
10
60.4060361575153
20
-1.98991044922252
30
0
41
1
10
60.6016369462024
20
-2.12613252355615
30
0
41
1
10
60.6668995817207
20
-2.17124063415972
30
0
41
1
10
60.7975476627255
20
-2.26085354687282
30
0
41
1
10
60.8629722730619
20
-2.30538824346593
30
0
41
1
10
61.0587940379069
20
-2.43755345910793
30
0
41
1
10
61.188854038774
20
-2.52395599374543
30
0
41
1
10
61.4493835280412
20
-2.69190209695955
30
0
41
1
10
61.5797597940516
20
-2.77355562748872
30
0
41
1
10
61.8407233720447
20
-2.93229369001474
30
0
41
1
10
61.9713237364265
20
-3.00936405030012
30
0
41
1
10
62.2328852921423
20
-3.15879878157088
30
0
41
1
10
62.363846069748
20
-3.23116511436533
30
0
41
1
10
62.4949661177285
20
-3.3011768956072
30
0
0
SPLINE
5
11C
100
AcDbEntity
8
1
62
256
6
ByLayer
370
18
48
1
60
0
100
AcDbSpline
70
4
71
3
72
24
73
20
40
0
40
0
40
0
40
0
40
0.124999999999998
40
0.124999999999998
40
0.249999999999996
40
0.249999999999996
40
0.374999999999994
40
0.374999999999994
40
0.499999999999992
40
0.499999999999992
40
0.62499999999999
40
0.62499999999999
40
0.749999999999988
40
0.749999999999988
40
0.812499999999987
40
0.812499999999987
40
0.874999999999986
40
0.874999999999986
40
1
40
1
40
1
40
1
41
1
10
62.4949661177285
20
-3.30117689560717
30
0
41
1
10
62.5404499773921
20
-3.32546308282144
30
0
41
1
10
62.5855457769717
20
-3.35138945323621
30
0
41
1
10
62.6748231124932
20
-3.4065427342274
30
0
41
1
10
62.7190052515231
20
-3.43576857521475
30
0
41
1
10
62.8063514194562
20
-3.49761858522874
30
0
41
1
10
62.8495159136921
20
-3.53024099609297
30
0
41
1
10
62.9347407249181
20
-3.59910105854405
30
0
41
1
10
62.9768009544855
20
-3.6353355958683
30
0
41
1
10
63.0597380780798
20
-3.71182717786471
30
0
41
1
10
63.1000408923215
20
-3.75155735403453
30
0
41
1
10
63.1780676448694
20
-3.83403947956137
30
0
41
1
10
63.2158139785583
20
-3.87681237493675
30
0
41
1
10
63.2703846293976
20
-3.94355856154883
30
0
41
1
10
63.2882329443293
20
-3.9662400065441
30
0
41
1
10
63.3232008467608
20
-4.01255025227849
30
0
41
1
10
63.3401458798929
20
-4.03594945220129
30
0
41
1
10
63.3892676042204
20
-4.10688551590991
30
0
41
1
10
63.4197515587808
20
-4.15516301506875
30
0
41
1
10
63.4475940618914
20
-4.20451870032758
30
0
0
SPLINE
5
11D
100
AcDbEntity
8
1
62
256
6
ByLayer
370
18
48
1
60
0
100
AcDbSpline
70
4
71
3
72
12
73
8
40
0
40
0
40
0
40
0
40
0.249999999999985
40
0.249999999999985
40
0.499999999999969
40
0.499999999999969
40
1
40
1
40
1
40
1
41
1
10
63.4475940618914
20
-4.20451870032755
30
0
41
1
10
63.4604717496158
20
-4.22734664434034
30
0
41
1
10
63.4733758552781
20
-4.25013312500667
30
0
41
1
10
63.4992535740507
20
-4.29558597334449
30
0
41
1
10
63.5122286701326
20
-4.31824894848276
30
0
41
1
10
63.5510954595348
20
-4.38638731087119
30
0
41
1
10
63.5769570087768
20
-4.43195511154735
30
0
41
1
10
63.6027547664317
20
-4.47770046227635
30
0
0
SPLINE
5
11E
100
AcDbEntity
8
1
62
256
6
ByLayer
370
18
48
1
60
0
100
AcDbSpline
70
4
71
3
72
8
73
4
40
0
40
0
40
0
40
0
40
1
40
1
40
1
40
1
41
1
10
63.6027547664437
20
-4.47770046227385
30
0
41
1
10
63.6035929922385
20
-4.47714051518881
30
0
41
1
10
63.6044312788166
20
-4.47657995854135
30
0
41
1
10
63.6052696263166
20
-4.47601879242757
30
0
0
SPLINE
5
11F
100
AcDbEntity
8
1
62
256
6
ByLayer
370
18
48
1
60
0
100
AcDbSpline
70
4
71
3
72
34
73
30
40
0
40
0
40
0
40
0
40
0.125000000000017
40
0.125000000000017
40
0.187500000000009
40
0.187500000000009
40
0.250000000000002
40
0.250000000000002
40
0.375000000000023
40
0.375000000000023
40
0.437500000000015
40
0.437500000000015
40
0.500000000000006
40
0.500000000000006
40
0.624999999999988
40
0.624999999999988
40
0.68749999999998
40
0.68749999999998
40
0.749999999999971
40
0.749999999999971
40
0.812499999999962
40
0.812499999999962
40
0.843749999999958
40
0.843749999999958
40
0.874999999999953
40
0.874999999999953
40
0.937499999999977
40
0.937499999999977
40
1
40
1
40
1
40
1
41
1
10
63.6052696263166
20
-4.47601879242751
30
0
41
1
10
63.6198411238131
20
-4.46626504398597
30
0
41
1
10
63.6367406469561
20
-4.46014333105961
30
0
41
1
10
63.6646503491151
20
-4.45486483933598
30
0
41
1
10
63.674400525649
20
-4.45377546612553
30
0
41
1
10
63.6946849989063
20
-4.45284906459159
30
0
41
1
10
63.7050847646483
20
-4.45301677109035
30
0
41
1
10
63.736973119941
20
-4.45522680795199
30
0
41
1
10
63.7591433355283
20
-4.45895389226612
30
0
41
1
10
63.7936222413471
20
-4.46773161598313
30
0
41
1
10
63.8053212428458
20
-4.47119485727856
30
0
41
1
10
63.8291309234485
20
-4.47923501215573
30
0
41
1
10
63.8410995112432
20
-4.4837646697386
30
0
41
1
10
63.8771078819524
20
-4.49885866445902
30
0
41
1
10
63.9012788334483
20
-4.51091318636043
30
0
41
1
10
63.9377269777999
20
-4.53238016113281
30
0
41
1
10
63.9499086240582
20
-4.54010535843236
30
0
41
1
10
63.9743310983797
20
-4.55685744969497
30
0
41
1
10
63.9864724436643
20
-4.56582161138061
30
0
41
1
10
64.0102886168725
20
-4.58483331528524
30
0
41
1
10
64.0220075440704
20
-4.59490908533866
30
0
41
1
10
64.0392505602302
20
-4.61101432281728
30
0
41
1
10
64.0449420954199
20
-4.61654873488459
30
0
41
1
10
64.0562002288174
20
-4.62798460576408
30
0
41
1
10
64.0617662040311
20
-4.63388804905688
30
0
41
1
10
64.0780038072125
20
-4.65192741482679
30
0
41
1
10
64.0883026464571
20
-4.66447124789107
30
0
41
1
10
64.1076615791949
20
-4.69077657489331
30
0
41
1
10
64.1167801693075
20
-4.70464334558076
30
0
41
1
10
64.1249119561568
20
-4.7189251466483
30
0
0
SPLINE
5
120
100
AcDbEntity
8
1
62
256
6
ByLayer
370
18
48
1
60
0
100
AcDbSpline
70
4
71
3
72
10
73
6
40
0
40
0
40
0
40
0
40
0.5
40
0.5
40
1
40
1
40
1
40
1
41
1
10
64.1249119561568
20
-4.7189251466481
30
0
41
1
10
64.1714053252811
20
-4.80058112965599
30
0
41
1
10
64.2177069263367
20
-4.88254149727916
30
0
41
1
10
64.3099871392171
20
-5.04702447156544
30
0
41
1
10
64.3559824773077
20
-5.12957672995847
30
0
41
1
10
64.4017774036169
20
-5.21227453366777
30
0
0
SPLINE
5
121
100
AcDbEntity
8
1
62
256
6
ByLayer
370
18
48
1
60
0
100
AcDbSpline
70
4
71
3
72
14
73
10
40
0
40
0
40
0
40
0
40
0.25
40
0.25
40
0.5
40
0.5
40
0.75
40
0.75
40
1
40
1
40
1
40
1
41
1
10
64.4017774036169
20
-5.21227453366777
30
0
41
1
10
64.4779092244307
20
-5.25440602704046
30
0
41
1
10
64.5539497096221
20
-5.29537005948305
30
0
41
1
10
64.7054123002541
20
-5.3747006102605
30
0
41
1
10
64.7808913306466
20
-5.4131001272807
30
0
41
1
10
64.9313642404121
20
-5.48735330900641
30
0
41
1
10
65.0063616422687
20
-5.52320627481436
30
0
41
1
10
65.1558793886329
20
-5.59234447220629
30
0
41
1
10
65.2303747092221
20
-5.62563369093908
30
0
41
1
10
65.3046790525396
20
-5.65761511499298
30
0
0
SPLINE
5
122
100
AcDbEntity
8
1
62
256
6
ByLayer
370
18
48
1
60
0
100
AcDbSpline
70
4
71
3
72
10
73
6
40
0
40
0
40
0
40
0
40
0.5
40
0.5
40
1
40
1
40
1
40
1
41
1
10
65.3046790525397
20
-5.65761511499323
30
0
41
1
10
65.3651264274582
20
-5.58798315642559
30
0
41
1
10
65.4258739408878
20
-5.51559655500256
30
0
41
1
10
65.5481220574316
20
-5.36514958899184
30
0
41
1
10
65.6095527661297
20
-5.2871978942743
30
0
41
1
10
65.6713444884367
20
-5.20657471989796
30
0
0
SPLINE
5
123
100
AcDbEntity
8
1
62
256
6
ByLayer
370
18
48
1
60
0
100
AcDbSpline
70
4
71
3
72
34
73
30
40
0
40
0
40
0
40
0
40
0.125000000000029
40
0.125000000000029
40
0.187500000000028
40
0.187500000000028
40
0.250000000000027
40
0.250000000000027
40
0.375000000000027
40
0.375000000000027
40
0.437500000000008
40
0.437500000000008
40
0.499999999999989
40
0.499999999999989
40
0.624999999999989
40
0.624999999999989
40
0.68750000000001
40
0.68750000000001
40
0.75000000000003
40
0.75000000000003
40
0.812500000000051
40
0.812500000000051
40
0.843750000000042
40
0.843750000000042
40
0.875000000000034
40
0.875000000000034
40
0.937500000000017
40
0.937500000000017
40
1
40
1
40
1
40
1
41
1
10
65.6713444884377
20
-5.20657471989819
30
0
41
1
10
65.6859268025664
20
-5.18754834531407
30
0
41
1
10
65.7028400383973
20
-5.17222704986213
30
0
41
1
10
65.730771536363
20
-5.15323749006652
30
0
41
1
10
65.7405302721194
20
-5.14758847377178
30
0
41
1
10
65.7608277777701
20
-5.13758799058701
30
0
41
1
10
65.7712337302525
20
-5.13329988586042
30
0
41
1
10
65.8031395674546
20
-5.1223590750993
30
0
41
1
10
65.8253200004288
20
-5.11760538562339
30
0
41
1
10
65.8598118817735
20
-5.11404362530186
30
0
41
1
10
65.8715148176209
20
-5.11345797984862
30
0
41
1
10
65.8953315463147
20
-5.11352823840286
30
0
41
1
10
65.9072978242286
20
-5.11418429044656
30
0
41
1
10
65.9433063421147
20
-5.11800397481053
30
0
41
1
10
65.967476214178
20
-5.12298914447018
30
0
41
1
10
66.0039204249914
20
-5.13456771442156
30
0
41
1
10
66.0161003692673
20
-5.13911717665127
30
0
41
1
10
66.040518488011
20
-5.14978572750937
30
0
41
1
10
66.0526486925655
20
-5.15586380174031
30
0
41
1
10
66.0764496829503
20
-5.16952405352296
30
0
41
1
10
66.0881611167407
20
-5.1771216464854
30
0
41
1
10
66.1053930918157
20
-5.18984831300634
30
0
41
1
10
66.1110809802937
20
-5.19431324071891
30
0
41
1
10
66.1223319025889
20
-5.20373486346824
30
0
41
1
10
66.1278932175133
20
-5.20869322958299
30
0
41
1
10
66.1441178404387
20
-5.22414382974875
30
0
41
1
10
66.1544089918388
20
-5.2352724642306
30
0
41
1
10
66.1737547795029
20
-5.2594761965243
30
0
41
1
10
66.1828677837325
20
-5.27265504736209
30
0
41
1
10
66.1909963222889
20
-5.2867214935695
30
0
0
SPLINE
5
124
100
AcDbEntity
8
1
62
256
6
ByLayer
370
18
48
1
60
0
100
AcDbSpline
70
4
71
3
72
10
73
6
40
0
40
0
40
0
40
0
40
0.5
40
0.5
40
1
40
1
40
1
40
1
41
1
10
66.1909963222889
20
-5.28672149356944
30
0
41
1
10
66.2699281967913
20
-5.42331320178837
30
0
41
1
10
66.3483233397104
20
-5.55884417842876
30
0
41
1
10
66.5042042359121
20
-5.8275529280225
30
0
41
1
10
66.5815862752398
20
-5.96055269016401
30
0
41
1
10
66.6584723494471
20
-6.09205286221467
30
0
0
SPLINE
5
125
100
AcDbEntity
8
1
62
256
6
ByLayer
370
18
48
1
60
0
100
AcDbSpline
70
4
71
3
72
8
73
4
40
0
40
0
40
0
40
0
40
1
40
1
40
1
40
1
41
1
10
66.658472349447
20
-6.09205286221464
30
0
41
1
10
66.8423775665783
20
-6.13026022501205
30
0
41
1
10
67.0245136738933
20
-6.15933952391356
30
0
41
1
10
67.2050025259603
20
-6.17928003104294
30
0
0
SPLINE
5
126
100
AcDbEntity
8
1
62
256
6
ByLayer
370
18
48
1
60
0
100
AcDbSpline
70
4
71
3
72
14
73
10
40
0
40
0
40
0
40
0
40
0.25
40
0.25
40
0.5
40
0.5
40
0.75
40
0.75
40
1
40
1
40
1
40
1
41
1
10
67.2050025259579
20
-6.17928003103853
30
0
41
1
10
67.2486816687777
20
-6.10721509234702
30
0
41
1
10
67.2925225877261
20
-6.03412322741349
30
0
41
1
10
67.3805730765984
20
-5.88588499496223
30
0
41
1
10
67.4247360392545
20
-5.81081588818378
30
0
41
1
10
67.5134523226938
20
-5.65866725331202
30
0
41
1
10
67.5580133798839
20
-5.58157542257658
30
0
41
1
10
67.6474525881065
20
-5.4256114938901
30
0
41
1
10
67.6923411522166
20
-5.34672122522164
30
0
41
1
10
67.7374219483455
20
-5.26693862527699
30
0
0
SPLINE
5
127
100
AcDbEntity
8
1
62
256
6
ByLayer
370
18
48
1
60
0
100
AcDbSpline
70
4
71
3
72
34
73
30
40
0
40
0
40
0
40
0
40
0.125000000000002
40
0.125000000000002
40
0.187500000000019
40
0.187500000000019
40
0.250000000000036
40
0.250000000000036
40
0.375000000000071
40
0.375000000000071
40
0.437500000000068
40
0.437500000000068
40
0.500000000000066
40
0.500000000000066
40
0.625000000000063
40
0.625000000000063
40
0.687500000000041
40
0.687500000000041
40
0.750000000000019
40
0.750000000000019
40
0.812499999999998
40
0.812499999999998
40
0.843749999999987
40
0.843749999999987
40
0.874999999999976
40
0.874999999999976
40
0.937499999999988
40
0.937499999999988
40
1
40
1
40
1
40
1
41
1
10
67.7374219483455
20
-5.26693862527702
30
0
41
1
10
67.7520148038887
20
-5.24111264047141
30
0
41
1
10
67.7689412375647
20
-5.21858250400464
30
0
41
1
10
67.7968934748151
20
-5.18834865307122
30
0
41
1
10
67.8066593496894
20
-5.17887370795017
30
0
41
1
10
67.8269711811259
20
-5.16109767622891
30
0
41
1
10
67.8373838821942
20
-5.1529108646684
30
0
41
1
10
67.8693085152447
20
-5.13024140463563
30
0
41
1
10
67.8914995631356
20
-5.11762608295589
30
0
41
1
10
67.9260039401262
20
-5.10219073122857
30
0
41
1
10
67.9377104692155
20
-5.09763347996559
30
0
41
1
10
67.9615331098529
20
-5.0897272936119
30
0
41
1
10
67.973498788204
20
-5.08642870323388
30
0
41
1
10
68.0095081961047
20
-5.07848623480638
30
0
41
1
10
68.0336764213186
20
-5.07575996776052
30
0
41
1
10
68.0701144264507
20
-5.07595300076511
30
0
41
1
10
68.0822916740205
20
-5.07673784272694
30
0
41
1
10
68.1067029755449
20
-5.07994048256961
30
0
41
1
10
68.118823366601
20
-5.08234942056456
30
0
41
1
10
68.1426092712815
20
-5.08889115438578
30
0
41
1
10
68.1543129884776
20
-5.09302659021787
30
0
41
1
10
68.1715331282033
20
-5.10072439156824
30
0
41
1
10
68.1772170282199
20
-5.10354055148036
30
0
41
1
10
68.1884598916185
20
-5.1097248586828
30
0
41
1
10
68.1940167543098
20
-5.11309506445866
30
0
41
1
10
68.2102286165663
20
-5.12395159588451
30
0
41
1
10
68.220511771849
20
-5.13221900742897
30
0
41
1
10
68.2398430198034
20
-5.15117201804279
30
0
41
1
10
68.2489494804094
20
-5.16194626827078
30
0
41
1
10
68.2570743026039
20
-5.17396354458953
30
0
0
SPLINE
5
128
100
AcDbEntity
8
1
62
256
6
ByLayer
370
18
48
1
60
0
100
AcDbSpline
70
4
71
3
72
14
73
10
40
0
40
0
40
0
40
0
40
0.25
40
0.25
40
0.5
40
0.5
40
0.75
40
0.75
40
1
40
1
40
1
40
1
41
1
10
68.2570743026039
20
-5.17396354458961
30
0
41
1
10
68.3128485343982
20
-5.25645819356726
30
0
41
1
10
68.3683423419166
20
-5.33749044610644
30
0
41
1
10
68.4788731259667
20
-5.49670307249659
30
0
41
1
10
68.5339112146584
20
-5.57488637527987
30
0
41
1
10
68.6434029208695
20
-5.72809629005985
30
0
41
1
10
68.6979082921247
20
-5.80319519032344
30
0
41
1
10
68.8063448947921
20
-5.95013287334859
30
0
41
1
10
68.8602638937085
20
-6.02195666325187
30
0
41
1
10
68.9139278625186
20
-6.09213790085488
30
0
0
SPLINE
5
129
100
AcDbEntity
8
1
62
256
6
ByLayer
370
18
48
1
60
0
100
AcDbSpline
70
4
71
3
72
8
73
4
40
0
40
0
40
0
40
0
40
1
40
1
40
1
40
1
41
1
10
69.1238791802217
20
-6.01385827021397
30
0
41
1
10
69.0538737049815
20
-6.04135158681436
30
0
41
1
10
68.9838910855157
20
-6.06744067837039
30
0
41
1
10
68.9139278625186
20
-6.09213790085482
30
0
0
SPLINE
5
12A
100
AcDbEntity
8
1
62
256
6
ByLayer
370
18
48
1
60
0
100
AcDbSpline
70
4
71
3
72
14
73
10
40
0
40
0
40
0
40
0
40
0.25
40
0.25
40
0.5
40
0.5
40
0.75
40
0.75
40
1
40
1
40
1
40
1
41
1
10
69.1238791802217
20
-6.01385827021394
30
0
41
1
10
69.17944779734
20
-5.9028992214221
30
0
41
1
10
69.2352379658379
20
-5.79116887387065
30
0
41
1
10
69.3473570805196
20
-5.56619595124047
30
0
41
1
10
69.4037073028958
20
-5.45290009798356
30
0
41
1
10
69.5169196326977
20
-5.22512825029534
30
0
41
1
10
69.5738183120612
20
-5.11061314783993
30
0
41
1
10
69.6882318780379
20
-4.88059158146288
30
0
41
1
10
69.7457071059694
20
-4.76515514103176
30
0
41
1
10
69.8034982513126
20
-4.64931766547133
30
0
0
SPLINE
5
12B
100
AcDbEntity
8
1
62
256
6
ByLayer
370
18
48
1
60
0
100
AcDbSpline
70
4
71
3
72
32
73
28
40
0
40
0
40
0
40
0
40
0.124999999999975
40
0.124999999999975
40
0.187499999999963
40
0.187499999999963
40
0.249999999999951
40
0.249999999999951
40
0.374999999999927
40
0.374999999999927
40
0.499999999999903
40
0.499999999999903
40
0.624999999999879
40
0.624999999999879
40
0.687499999999887
40
0.687499999999887
40
0.749999999999895
40
0.749999999999895
40
0.812499999999903
40
0.812499999999903
40
0.843749999999907
40
0.843749999999907
40
0.874999999999912
40
0.874999999999912
40
0.937499999999956
40
0.937499999999956
40
1
40
1
40
1
40
1
41
1
10
69.8034982513128
20
-4.64931766547073
30
0
41
1
10
69.8181029746533
20
-4.62004372959399
30
0
41
1
10
69.8350441800638
20
-4.59322534951659
30
0
41
1
10
69.8630196906531
20
-4.55566366412833
30
0
41
1
10
69.872794540526
20
-4.54358848739724
30
0
41
1
10
69.8931203638297
20
-4.52033986640285
30
0
41
1
10
69.9035396928279
20
-4.50931451243341
30
0
41
1
10
69.9354830422216
20
-4.47785079890903
30
0
41
1
10
69.9576850227624
20
-4.45900507947388
30
0
41
1
10
70.0037088103188
20
-4.42525132644488
30
0
41
1
10
70.027703361399
20
-4.41028702219089
30
0
41
1
10
70.0757155361804
20
-4.3853796746462
30
0
41
1
10
70.099881651491
20
-4.37529045797368
30
0
41
1
10
70.1363133758975
20
-4.36406411403541
30
0
41
1
10
70.1484880057404
20
-4.36097941705918
30
0
41
1
10
70.1728928979991
20
-4.35629424349958
30
0
41
1
10
70.1850018259352
20
-4.35472210459497
30
0
41
1
10
70.2087717174892
20
-4.35329351449874
30
0
41
1
10
70.2204675145895
20
-4.35342829100054
30
0
41
1
10
70.2376759403654
20
-4.3550950420159
30
0
41
1
10
70.2433559636583
20
-4.35589582224884
30
0
41
1
10
70.2545911404183
20
-4.35803783038881
30
0
41
1
10
70.2601433161658
20
-4.3593813724226
30
0
41
1
10
70.2763421478473
20
-4.36423097833381
30
0
41
1
10
70.2866175351476
20
-4.36856104771186
30
0
41
1
10
70.3059353620735
20
-4.37979636042354
30
0
41
1
10
70.3150360828401
20
-4.38676357038477
30
0
41
1
10
70.3231576533746
20
-4.39516572910645
30
0
0
SPLINE
5
12C
100
AcDbEntity
8
1
62
256
6
ByLayer
370
18
48
1
60
0
100
AcDbSpline
70
4
71
3
72
10
73
6
40
0
40
0
40
0
40
0
40
0.947699743125582
40
0.947699743125582
40
1
40
1
40
1
40
1
41
1
10
70.3231576533745
20
-4.39516572910688
30
0
41
1
10
70.3789491462004
20
-4.45288473506199
30
0
41
1
10
70.4344586698683
20
-4.50841754853849
30
0
41
1
10
70.4927886339126
20
-4.56477858102073
30
0
41
1
10
70.4958386165868
20
-4.56771984080731
30
0
41
1
10
70.4988878984587
20
-4.57065464865184
30
0
0
SPLINE
5
12D
100
AcDbEntity
8
1
62
256
6
ByLayer
370
18
48
1
60
0
100
AcDbSpline
70
4
71
3
72
12
73
8
40
0
40
0
40
0
40
0
40
0.266929216659175
40
0.266929216659175
40
0.633464608329587
40
0.633464608329587
40
1
40
1
40
1
40
1
41
1
10
70.5347529773875
20
-4.60490613617711
30
0
41
1
10
70.5749168558314
20
-4.64296296988741
30
0
41
1
10
70.6149509256293
20
-4.67988585082915
30
0
41
1
10
70.7095879287567
20
-4.76473537611821
30
0
41
1
10
70.7641040175984
20
-4.8116726685478
30
0
41
1
10
70.872563019988
20
-4.90110997349998
30
0
41
1
10
70.92649190159
20
-4.94360028583429
30
0
41
1
10
70.9801637993242
20
-4.9838750594395
30
0
0
SPLINE
5
12E
100
AcDbEntity
8
1
62
256
6
ByLayer
370
18
48
1
60
0
100
AcDbSpline
70
4
71
3
72
8
73
4
40
0
40
0
40
0
40
0
40
1
40
1
40
1
40
1
41
1
10
71.1901167831416
20
-4.83223058215685
30
0
41
1
10
71.1201100997801
20
-4.88395986947185
30
0
41
1
10
71.0501278754446
20
-4.93450546422048
30
0
41
1
10
70.9801637993242
20
-4.98387505943958
30
0
0
SPLINE
5
12F
100
AcDbEntity
8
1
62
256
6
ByLayer
370
18
48
1
60
0
100
AcDbSpline
70
4
71
3
72
10
73
6
40
0
40
0
40
0
40
0
40
0.516829008558374
40
0.516829008558374
40
1
40
1
40
1
40
1
41
1
10
71.1901167831413
20
-4.83223058214384
30
0
41
1
10
71.2456719662291
20
-4.71422775428519
30
0
41
1
10
71.3014468543964
20
-4.59646584801982
30
0
41
1
10
71.4098870285036
20
-4.36912605794384
30
0
41
1
10
71.4625405155608
20
-4.25946226753496
30
0
41
1
10
71.5154160094369
20
-4.15019142735756
30
0
0
SPLINE
5
130
100
AcDbEntity
8
1
62
256
6
ByLayer
370
18
48
1
60
0
100
AcDbSpline
70
4
71
3
72
12
73
8
40
0
40
0
40
0
40
0
40
0.500000000000001
40
0.500000000000001
40
0.75
40
0.75
40
1
40
1
40
1
40
1
41
1
10
75.5239672248326
20
-5.31760511916983
30
0
41
1
10
75.4128801884453
20
-5.50680011297928
30
0
41
1
10
75.3029242710439
20
-5.69334840272134
30
0
41
1
10
75.1391302478853
20
-5.96920829162033
30
0
41
1
10
75.0848192557908
20
-6.06033566947613
30
0
41
1
10
74.9767653836954
20
-6.24079663625886
30
0
41
1
10
74.9230078553575
20
-6.33015501902821
30
0
41
1
10
74.8694746333248
20
-6.41864103117734
30
0
0
SPLINE
5
131
100
AcDbEntity
8
1
62
256
6
ByLayer
370
18
48
1
60
0
100
AcDbSpline
70
4
71
3
72
8
73
4
40
0
40
0
40
0
40
0
40
1
40
1
40
1
40
1
41
1
10
74.6594818195476
20
-6.41053156279622
30
0
41
1
10
74.729467488363
20
-6.41467650806959
30
0
41
1
10
74.7994563403415
20
-6.41738049019776
30
0
41
1
10
74.8694746333248
20
-6.41864103117737
30
0
0
SPLINE
5
132
100
AcDbEntity
8
1
62
256
6
ByLayer
370
18
48
1
60
0
100
AcDbSpline
70
4
71
3
72
14
73
10
40
0
40
0
40
0
40
0
40
0.0310082082136214
40
0.0310082082136214
40
0.354005472142414
40
0.354005472142414
40
0.677002736071207
40
0.677002736071207
40
1
40
1
40
1
40
1
41
1
10
74.5074388762448
20
-6.15121549128736
30
0
41
1
10
74.502035722817
20
-6.14188922716323
30
0
41
1
10
74.4966301970501
20
-6.13254736138737
30
0
41
1
10
74.4348903697951
20
-6.02571770369136
30
0
41
1
10
74.3782674616174
20
-5.92650067943219
30
0
41
1
10
74.2645677669602
20
-5.72496818093379
30
0
41
1
10
74.2074694755335
20
-5.62261316448371
30
0
41
1
10
74.0927856471932
20
-5.41494169529315
30
0
41
1
10
74.0352258114822
20
-5.30967557003339
30
0
41
1
10
73.9773911200855
20
-5.20298685318843
30
0
0
SPLINE
5
133
100
AcDbEntity
8
1
62
256
6
ByLayer
370
18
48
1
60
0
100
AcDbSpline
70
4
71
3
72
34
73
30
40
0
40
0
40
0
40
0
40
0.125000000000032
40
0.125000000000032
40
0.187500000000033
40
0.187500000000033
40
0.250000000000034
40
0.250000000000034
40
0.37500000000007
40
0.37500000000007
40
0.43750000000007
40
0.43750000000007
40
0.50000000000007
40
0.50000000000007
40
0.62500000000011
40
0.62500000000011
40
0.68750000000011
40
0.68750000000011
40
0.750000000000109
40
0.750000000000109
40
0.812500000000109
40
0.812500000000109
40
0.84375000000009
40
0.84375000000009
40
0.875000000000072
40
0.875000000000072
40
0.937500000000036
40
0.937500000000036
40
1
40
1
40
1
40
1
41
1
10
73.9773911200855
20
-5.20298685318832
30
0
41
1
10
73.9630858560516
20
-5.17659767003474
30
0
41
1
10
73.9465192204181
20
-5.15317609200659
30
0
41
1
10
73.9191317355084
20
-5.12132055755629
30
0
41
1
10
73.9095520479794
20
-5.11124700372056
30
0
41
1
10
73.8896508963319
20
-5.09222095862359
30
0
41
1
10
73.8794326681125
20
-5.08336349137554
30
0
41
1
10
73.8480535643305
20
-5.05857749430433
30
0
41
1
10
73.8261769939101
20
-5.04441340846174
30
0
41
1
10
73.7920476975349
20
-5.02651565155114
30
0
41
1
10
73.7804499289109
20
-5.02111382533377
30
0
41
1
10
73.7568060547601
20
-5.01147851977103
30
0
41
1
10
73.7448490081152
20
-5.00728526958105
30
0
41
1
10
73.7088920807591
20
-4.99669649255281
30
0
41
1
10
73.6846826954159
20
-4.99220796102045
30
0
41
1
10
73.6480549033484
20
-4.98981839548941
30
0
41
1
10
73.6357932746065
20
-4.98975250907705
30
0
41
1
10
73.6111684861337
20
-4.99128658820439
30
0
41
1
10
73.5987918127512
20
-4.99290135634354
30
0
41
1
10
73.5745529226892
20
-4.99795998294448
30
0
41
1
10
73.5626184277551
20
-5.00140219594704
30
0
41
1
10
73.5450465485374
20
-5.00814968182186
30
0
41
1
10
73.5392444687843
20
-5.01066410482184
30
0
41
1
10
73.5277636072334
20
-5.01627983017016
30
0
41
1
10
73.5220771176708
20
-5.01938874522929
30
0
41
1
10
73.5054911325799
20
-5.02953167632788
30
0
41
1
10
73.4949749171816
20
-5.03741026475481
30
0
41
1
10
73.4752207408111
20
-5.05580309798077
30
0
41
1
10
73.4659291916712
20
-5.06640772219237
30
0
41
1
10
73.4576949536261
20
-5.07833250264531
30
0
0
SPLINE
5
134
100
AcDbEntity
8
1
62
256
6
ByLayer
370
18
48
1
60
0
100
AcDbSpline
70
4
71
3
72
12
73
8
40
0
40
0
40
0
40
0
40
0.499999999999993
40
0.499999999999993
40
0.749999999999996
40
0.749999999999996
40
1
40
1
40
1
40
1
41
1
10
73.4576949536262
20
-5.07833250264588
30
0
41
1
10
73.3465921762373
20
-5.23923096353988
30
0
41
1
10
73.2366277834148
20
-5.3937571927176
30
0
41
1
10
73.072827896324
20
-5.61641783805638
30
0
41
1
10
73.018516475261
20
-5.68897703645129
30
0
41
1
10
72.9104630583032
20
-5.83072200000464
30
0
41
1
10
72.8567063590056
20
-5.89992776494745
30
0
41
1
10
72.8031737480997
20
-5.96748837310818
30
0
0
SPLINE
5
135
100
AcDbEntity
8
1
62
256
6
ByLayer
370
18
48
1
60
0
100
AcDbSpline
70
4
71
3
72
8
73
4
40
0
40
0
40
0
40
0
40
1
40
1
40
1
40
1
41
1
10
72.5931884052036
20
-5.87657284195288
30
0
41
1
10
72.6631721685903
20
-5.90820204389664
30
0
41
1
10
72.7331584630655
20
-5.93851078924826
30
0
41
1
10
72.8031737480997
20
-5.96748837310818
30
0
0
SPLINE
5
136
100
AcDbEntity
8
1
62
256
6
ByLayer
370
18
48
1
60
0
100
AcDbSpline
70
4
71
3
72
14
73
10
40
0
40
0
40
0
40
0
40
0.25
40
0.25
40
0.5
40
0.5
40
0.75
40
0.75
40
1
40
1
40
1
40
1
41
1
10
72.5931884052036
20
-5.87657284195288
30
0
41
1
10
72.5373372673441
20
-5.76148803667243
30
0
41
1
10
72.481274356437
20
-5.64567354264557
30
0
41
1
10
72.3686213244127
20
-5.41260981977157
30
0
41
1
10
72.3120024960326
20
-5.29530085619353
30
0
41
1
10
72.1983063431199
20
-5.05963849886771
30
0
41
1
10
72.141206940451
20
-4.94123943815487
30
0
41
1
10
72.0265193195862
20
-4.70359798739872
30
0
41
1
10
71.9689582297849
20
-4.58441249157823
30
0
41
1
10
71.9111260106127
20
-4.46488229265094
30
0
0
SPLINE
5
137
100
AcDbEntity
8
1
62
256
6
ByLayer
370
18
48
1
60
0
100
AcDbSpline
70
4
71
3
72
34
73
30
40
0
40
0
40
0
40
0
40
0.125000000000038
40
0.125000000000038
40
0.187500000000043
40
0.187500000000043
40
0.250000000000048
40
0.250000000000048
40
0.375000000000057
40
0.375000000000057
40
0.437500000000045
40
0.437500000000045
40
0.500000000000032
40
0.500000000000032
40
0.625000000000005
40
0.625000000000005
40
0.687499999999993
40
0.687499999999993
40
0.74999999999998
40
0.74999999999998
40
0.812499999999967
40
0.812499999999967
40
0.843749999999961
40
0.843749999999961
40
0.874999999999955
40
0.874999999999955
40
0.937499999999977
40
0.937499999999977
40
1
40
1
40
1
40
1
41
1
10
71.9111260106127
20
-4.46488229265094
30
0
41
1
10
71.8968152378738
20
-4.43530415200936
30
0
41
1
10
71.8802419587948
20
-4.40788602116925
30
0
41
1
10
71.8528446905365
20
-4.36915804285186
30
0
41
1
10
71.8432616585234
20
-4.35663852210993
30
0
41
1
10
71.8233544354025
20
-4.33245698679218
30
0
41
1
10
71.8131334187022
20
-4.32091671906016
30
0
41
1
10
71.7817467554594
20
-4.28779375553938
30
0
41
1
10
71.7598653786468
20
-4.26769077278811
30
0
41
1
10
71.7257309399889
20
-4.24032582645791
30
0
41
1
10
71.7141318124671
20
-4.23167407360691
30
0
41
1
10
71.6904864414257
20
-4.21533941082947
30
0
41
1
10
71.6785296378029
20
-4.20772195041343
30
0
41
1
10
71.6425748849912
20
-4.18671352396581
30
0
41
1
10
71.6183700750842
20
-4.17505108974865
30
0
41
1
10
71.5817540181577
20
-4.16147784859436
30
0
41
1
10
71.5694967853011
20
-4.15761301548764
30
0
41
1
10
71.5448800670207
20
-4.15138165618384
30
0
41
1
10
71.5325075992325
20
-4.14902446648705
30
0
41
1
10
71.5082745583531
20
-4.14613890673448
30
0
41
1
10
71.4963416483065
20
-4.14558692898623
30
0
41
1
10
71.4787709045803
20
-4.14630080666046
30
0
41
1
10
71.4729690065725
20
-4.14679692460396
30
0
41
1
10
71.4614882163781
20
-4.14835977300837
30
0
41
1
10
71.4558019678653
20
-4.14943097291101
30
0
41
1
10
71.4392164940541
20
-4.15352993348932
30
0
41
1
10
71.4287000549332
20
-4.15744101915661
30
0
41
1
10
71.4089447237597
20
-4.16804408485356
30
0
41
1
10
71.3996524444034
20
-4.17480125351244
30
0
41
1
10
71.391417515155
20
-4.1830821729491
30
0
0
SPLINE
5
138
100
AcDbEntity
8
1
62
256
6
ByLayer
370
18
48
1
60
0
100
AcDbSpline
70
4
71
3
72
12
73
8
40
0
40
0
40
0
40
0
40
0.499999999999999
40
0.499999999999999
40
0.75
40
0.75
40
1
40
1
40
1
40
1
41
1
10
71.391417515155
20
-4.18308217294995
30
0
41
1
10
71.2803026306896
20
-4.29481760852181
30
0
41
1
10
71.1703257240519
20
-4.3973029175765
30
0
41
1
10
71.0065119673663
20
-4.53790769026168
30
0
41
1
10
70.952196710845
20
-4.58249442724116
30
0
41
1
10
70.8441378264017
20
-4.66714738740501
30
0
41
1
10
70.7903794659636
20
-4.70722637347603
30
0
41
1
10
70.7368462843184
20
-4.74510019874177
30
0
0
SPLINE
5
139
100
AcDbEntity
8
1
62
256
6
ByLayer
370
18
48
1
60
0
100
AcDbSpline
70
4
71
3
72
8
73
4
40
0
40
0
40
0
40
0
40
1
40
1
40
1
40
1
41
1
10
70.5268762845886
20
-4.58313865651706
30
0
41
1
10
70.5968543297489
20
-4.63816134766122
30
0
41
1
10
70.6668355723522
20
-4.69215430605428
30
0
41
1
10
70.7368462843184
20
-4.74510019874177
30
0
0
SPLINE
5
13A
100
AcDbEntity
8
1
62
256
6
ByLayer
370
18
48
1
60
0
100
AcDbSpline
70
4
71
3
72
14
73
10
40
0
40
0
40
0
40
0
40
0.249999999999999
40
0.249999999999999
40
0.499999999999999
40
0.499999999999999
40
0.749999999999999
40
0.749999999999999
40
1
40
1
40
1
40
1
41
1
10
70.5268762845887
20
-4.58313865651709
30
0
41
1
10
70.4710270183138
20
-4.4619613068362
30
0
41
1
10
70.4149675367671
20
-4.34110540302953
30
0
41
1
10
70.3023232518964
20
-4.10009061407297
30
0
41
1
10
70.2457098025654
20
-3.97987150651534
30
0
41
1
10
70.1320236439068
20
-3.74056978421586
30
0
41
1
10
70.0749289323255
20
-3.62144036082179
30
0
41
1
10
69.960246586478
20
-3.38456084043474
30
0
41
1
10
69.9026853821908
20
-3.26686871455863
30
0
41
1
10
69.84485012456
20
-3.14995827334815
30
0
0
SPLINE
5
13B
100
AcDbEntity
8
1
62
256
6
ByLayer
370
18
48
1
60
0
100
AcDbSpline
70
4
71
3
72
34
73
30
40
0
40
0
40
0
40
0
40
0.124999999999979
40
0.124999999999979
40
0.187499999999968
40
0.187499999999968
40
0.249999999999957
40
0.249999999999957
40
0.374999999999935
40
0.374999999999935
40
0.437499999999943
40
0.437499999999943
40
0.499999999999952
40
0.499999999999952
40
0.624999999999967
40
0.624999999999967
40
0.687499999999973
40
0.687499999999973
40
0.749999999999979
40
0.749999999999979
40
0.812499999999986
40
0.812499999999986
40
0.843749999999989
40
0.843749999999989
40
0.874999999999992
40
0.874999999999992
40
0.937499999999996
40
0.937499999999996
40
1
40
1
40
1
40
1
41
1
10
69.84485012456
20
-3.14995827334815
30
0
41
1
10
69.8305369978555
20
-3.12102516184021
30
0
41
1
10
69.8139607599051
20
-3.09316220542613
30
0
41
1
10
69.7865589531081
20
-3.05257727354967
30
0
41
1
10
69.7769744344899
20
-3.03923306349438
30
0
41
1
10
69.7570638571214
20
-3.01302649675645
30
0
41
1
10
69.7468412309072
20
-3.00029729144251
30
0
41
1
10
69.7154499287239
20
-2.96312507692579
30
0
41
1
10
69.693565512356
20
-2.93968580824045
30
0
41
1
10
69.6594261758854
20
-2.90639769374903
30
0
41
1
10
69.6478254600179
20
-2.89561666809783
30
0
41
1
10
69.624177356406
20
-2.87469883056861
30
0
41
1
10
69.6122196518943
20
-2.86464428577995
30
0
41
1
10
69.5762629772602
20
-2.83593966480191
30
0
41
1
10
69.5520583726475
20
-2.81861669471939
30
0
41
1
10
69.5154455723049
20
-2.7956260046505
30
0
41
1
10
69.5031899482543
20
-2.78846604053115
30
0
41
1
10
69.4785770311896
20
-2.7752834070522
30
0
41
1
10
69.4662071276253
20
-2.76926394969365
30
0
41
1
10
69.4419783969706
20
-2.75881726619511
30
0
41
1
10
69.4300474703193
20
-2.75434700245088
30
0
41
1
10
69.4124797500153
20
-2.74894050862989
30
0
41
1
10
69.4066788617714
20
-2.74735583649067
30
0
41
1
10
69.3952001261994
20
-2.7446666236859
30
0
41
1
10
69.3895149566597
20
-2.74356302922681
30
0
41
1
10
69.3729327297897
20
-2.74109162495532
30
0
41
1
10
69.3624184941551
20
-2.74053078768651
30
0
41
1
10
69.3426676521253
20
-2.74197186830219
30
0
41
1
10
69.3333775192601
20
-2.74400540121457
30
0
41
1
10
69.3251439331874
20
-2.74756810517647
30
0
0
SPLINE
5
13C
100
AcDbEntity
8
1
62
256
6
ByLayer
370
18
48
1
60
0
100
AcDbSpline
70
4
71
3
72
8
73
4
40
0
40
0
40
0
40
0
40
1
40
1
40
1
40
1
41
1
10
63.8150684113045
20
-5.29809413034332
30
0
41
1
10
63.778594366727
20
-5.36084231849165
30
0
41
1
10
63.7422409430309
20
-5.42336060378022
30
0
41
1
10
63.7059946351528
20
-5.48564934391354
30
0
0
SPLINE
5
13D
100
AcDbEntity
8
1
62
256
6
ByLayer
370
18
48
1
60
0
100
AcDbSpline
70
4
71
3
72
20
73
16
40
0
40
0
40
0
40
0
40
0.119799291392685
40
0.119799291392685
40
0.266499409493893
40
0.266499409493893
40
0.339849468544497
40
0.339849468544497
40
0.413199527595101
40
0.413199527595101
40
0.706599763797563
40
0.706599763797563
40
0.853299881898782
40
0.853299881898782
40
1
40
1
40
1
40
1
41
1
10
63.3479112921151
20
-4.91638705056644
30
0
41
1
10
63.3226794478894
20
-4.88541967098766
30
0
41
1
10
63.2959149888502
20
-4.85578375785067
30
0
41
1
10
63.2331734644324
20
-4.79282333291425
30
0
41
1
10
63.1964711626295
20
-4.76016338375575
30
0
41
1
10
63.1383901600422
20
-4.71429869327767
30
0
41
1
10
63.1185524445848
20
-4.69955864929611
30
0
41
1
10
63.078299322579
20
-4.67140221663237
30
0
41
1
10
63.0578397950324
20
-4.6579502738519
30
0
41
1
10
62.9540181952304
20
-4.5937743248893
30
0
41
1
10
62.8661309075905
20
-4.55224916178614
30
0
41
1
10
62.7292208231475
20
-4.50445533210922
30
0
41
1
10
62.6826458179586
20
-4.49094507725636
30
0
41
1
10
62.589175179458
20
-4.46909462217977
30
0
41
1
10
62.5421551880944
20
-4.46069990050088
30
0
41
1
10
62.4949661177285
20
-4.45482997025999
30
0
0
SPLINE
5
13E
100
AcDbEntity
8
1
62
256
6
ByLayer
370
18
48
1
60
0
100
AcDbSpline
70
4
71
3
72
109
73
105
40
0
40
0
40
0
40
0
40
0.0312500000000077
40
0.0312500000000077
40
0.0625000000000154
40
0.0625000000000154
40
0.0781250000000193
40
0.0781250000000193
40
0.0937500000000231
40
0.0937500000000231
40
0.125000000000032
40
0.125000000000032
40
0.140625000000036
40
0.140625000000036
40
0.148437500000037
40
0.148437500000037
40
0.156250000000039
40
0.156250000000039
40
0.17187500000004
40
0.17187500000004
40
0.187500000000041
40
0.187500000000041
40
0.218750000000044
40
0.218750000000044
40
0.250000000000047
40
0.250000000000047
40
0.265625000000048
40
0.265625000000048
40
0.281250000000049
40
0.281250000000049
40
0.289062500000049
40
0.289062500000049
40
0.296875000000049
40
0.296875000000049
40
0.312500000000048
40
0.312500000000048
40
0.343750000000047
40
0.343750000000047
40
0.359375000000045
40
0.359375000000045
40
0.375000000000043
40
0.375000000000043
40
0.40625000000004
40
0.40625000000004
40
0.437500000000037
40
0.437500000000037
40
0.445312500000037
40
0.445312500000037
40
0.453125000000038
40
0.453125000000038
40
0.468750000000038
40
0.468750000000038
40
0.500000000000037
40
0.500000000000037
40
0.531250000000036
40
0.531250000000036
40
0.546875000000035
40
0.546875000000035
40
0.562500000000034
40
0.562500000000034
40
0.578125000000033
40
0.578125000000033
40
0.585937500000032
40
0.585937500000032
40
0.593750000000031
40
0.593750000000031
40
0.625000000000028
40
0.625000000000028
40
0.656250000000024
40
0.656250000000024
40
0.687500000000021
40
0.687500000000021
40
0.718750000000018
40
0.718750000000018
40
0.734375000000017
40
0.734375000000017
40
0.750000000000015
40
0.750000000000015
40
0.765625000000013
40
0.765625000000013
40
0.781250000000012
40
0.781250000000012
40
0.812500000000007
40
0.812500000000007
40
0.843750000000003
40
0.843750000000003
40
0.859375000000001
40
0.859375000000001
40
0.875
40
0.875
40
0.8828125
40
0.8828125
40
0.890624999999999
40
0.906249999999999
40
0.906249999999999
40
0.937499999999998
40
0.937499999999998
40
0.945312499999998
40
0.945312499999998
40
0.953124999999998
40
0.953124999999998
40
0.968749999999999
40
0.968749999999999
40
1
40
1
40
1
40
1
41
1
10
62.4949661177285
20
-4.45482997025999
30
0
41
1
10
62.2714478265103
20
-4.42702614266096
30
0
41
1
10
62.0494615886486
20
-4.38909493655763
30
0
41
1
10
61.6067967417262
20
-4.29399861766817
30
0
41
1
10
61.3861859812875
20
-4.23680967413154
30
0
41
1
10
61.0550743295111
20
-4.13739490371853
30
0
41
1
10
60.9446751783338
20
-4.10198829337082
30
0
41
1
10
60.7239851317233
20
-4.02655537137304
30
0
41
1
10
60.6136797995177
20
-3.98653354665203
30
0
41
1
10
60.2826543610594
20
-3.85962959901889
30
0
41
1
10
60.061807184133
20
-3.76591431156075
30
0
41
1
10
59.7290708892971
20
-3.61221145923091
30
0
41
1
10
59.6179137516345
20
-3.5587902372632
30
0
41
1
10
59.450651058712
20
-3.47545890652748
30
0
41
1
10
59.3947556474577
20
-3.44712054411048
30
0
41
1
10
59.2830404298893
20
-3.3895378509564
30
0
41
1
10
59.2272511604228
20
-3.36031160025362
30
0
41
1
10
59.0600244671826
20
-3.27139785349954
30
0
41
1
10
58.9486357002758
20
-3.21056284336248
30
0
41
1
10
58.7265361105612
20
-3.08538118572042
30
0
41
1
10
58.615791808144
20
-3.02106079581782
30
0
41
1
10
58.2841864430793
20
-2.8232009580193
30
0
41
1
10
58.0639506151941
20
-2.68476078265175
30
0
41
1
10
57.6234231039212
20
-2.39661308936064
30
0
41
1
10
57.4031566726435
20
-2.24688153248746
30
0
41
1
10
57.0716086089882
20
-2.01504350830314
30
0
41
1
10
56.9608681483594
20
-1.93659649077773
30
0
41
1
10
56.7388779624146
20
-1.77742788690944
30
0
41
1
10
56.6277630213449
20
-1.69654513018861
30
0
41
1
10
56.4607176546104
20
-1.57346570590278
30
0
41
1
10
56.4049770340437
20
-1.5321427212829
30
0
41
1
10
56.2933547319608
20
-1.44892527131449
30
0
41
1
10
56.2374239671366
20
-1.40699337366365
30
0
41
1
10
56.0700023162221
20
-1.28084313652158
30
0
41
1
10
55.9587420201078
20
-1.1961691432717
30
0
41
1
10
55.6257335729419
20
-0.94079789448628
30
0
41
1
10
55.4047662305661
20
-0.768740519619683
30
0
41
1
10
55.0736310375538
20
-0.509534606475285
30
0
41
1
10
54.9632873484022
20
-0.422968940362949
30
0
41
1
10
54.7425336149196
20
-0.249685858622797
30
0
41
1
10
54.6321844005017
20
-0.162890768178073
30
0
41
1
10
54.301243791693
20
0.0979870541947037
30
0
41
1
10
54.0807182338433
20
0.272510055291974
30
0
41
1
10
53.6383968278081
20
0.620889445547476
30
0
41
1
10
53.4165883040394
20
0.794729699837092
30
0
41
1
10
53.137462264283
20
1.01024425132451
30
0
41
1
10
53.0815358961027
20
1.05326395724569
30
0
41
1
10
52.9699168256148
20
1.13873025984941
30
0
41
1
10
52.914168183682
20
1.18122206628411
30
0
41
1
10
52.7470367514777
20
1.30789833126863
30
0
41
1
10
52.6357956079113
20
1.39132113029959
30
0
41
1
10
52.303020639854
20
1.6390624153002
30
0
41
1
10
52.0822326015826
20
1.80059319482027
30
0
41
1
10
51.6413819533157
20
2.1147891782629
30
0
41
1
10
51.4213037747466
20
2.26743402610489
30
0
41
1
10
51.0905148392607
20
2.48838249106572
30
0
41
1
10
50.98014368197
20
2.56069993913815
30
0
41
1
10
50.7589610137054
20
2.70242701241563
30
0
41
1
10
50.6480790638551
20
2.77176507915263
30
0
41
1
10
50.4259050771146
20
2.90755561793048
30
0
41
1
10
50.3146697658632
20
2.97406357636578
30
0
41
1
10
50.1474657277303
20
3.07157875309446
30
0
41
1
10
50.0916721847161
20
3.10370898244577
30
0
41
1
10
49.9799439483994
20
3.16719002021117
30
0
41
1
10
49.9240856894186
20
3.19849601756826
30
0
41
1
10
49.6454278313163
20
3.35241696095699
30
0
41
1
10
49.4238359677838
20
3.46754395524729
30
0
41
1
10
48.981732785089
20
3.68088587737816
30
0
41
1
10
48.7612755057767
20
3.77913430854844
30
0
41
1
10
48.3195882823122
20
3.95773955338612
30
0
41
1
10
48.0991005633154
20
4.03859980811339
30
0
41
1
10
47.6575497526882
20
4.18239130747685
30
0
41
1
10
47.4364545872846
20
4.24529690521834
30
0
41
1
10
47.1030358855898
20
4.32527063233567
30
0
41
1
10
46.9915896982279
20
4.3495386474024
30
0
41
1
10
46.768004379574
20
4.39314446585624
30
0
41
1
10
46.6565137401372
20
4.4123547102071
30
0
41
1
10
46.4339153685357
20
4.44563918332682
30
0
41
1
10
46.3228153113811
20
4.45972031090008
30
0
41
1
10
46.1011906036944
20
4.48285390864072
30
0
41
1
10
45.9906469310943
20
4.49189765341333
30
0
41
1
10
45.6594554182442
20
4.51143945035571
30
0
41
1
10
45.4392052276512
20
4.51435075080084
30
0
41
1
10
44.9985444469008
20
4.49998638816666
30
0
41
1
10
44.7781575948827
20
4.48269370498116
30
0
41
1
10
44.4460804805547
20
4.44172026263578
30
0
41
1
10
44.3350756278766
20
4.42557978468972
30
0
41
1
10
44.1128248350197
20
4.38819304876452
30
0
41
1
10
44.0015317426107
20
4.36695236558205
30
0
41
1
10
43.8341759303441
20
4.33124623255773
30
0
41
1
10
43.7782729994312
20
4.31869013853446
30
0
41
1
10
43.6665662831435
20
4.29235070329807
30
0
41
1
10
43.4992834100298
20
4.25103543100607
30
0
41
1
10
43.3327220402023
20
4.2043830342775
30
0
41
1
10
43.0002661314972
20
4.10418378823172
30
0
41
1
10
42.7795297417808
20
4.02818124023287
30
0
41
1
10
42.5036935808564
20
3.92248418683712
30
0
41
1
10
42.4485323465674
20
3.90080900593193
30
0
41
1
10
42.3381416631666
20
3.85644549776993
30
0
41
1
10
42.2829337282761
20
3.83374382125624
30
0
41
1
10
42.117365831631
20
3.7640180745347
30
0
41
1
10
42.0070180784162
20
3.71540220407499
30
0
41
1
10
41.6759095910574
20
3.56324312644196
30
0
41
1
10
41.4551271475121
20
3.45335482635895
30
0
41
1
10
41.2336387537846
20
3.33536607479363
30
0
0
SPLINE
5
13F
100
AcDbEntity
8
1
62
256
6
ByLayer
370
18
48
1
60
0
100
AcDbSpline
70
4
71
3
72
8
73
4
40
0
40
0
40
0
40
0
40
1
40
1
40
1
40
1
41
1
10
41.2337330303701
20
3.33539105866396
30
0
41
1
10
41.2178728396447
20
3.30153680574736
30
0
41
1
10
41.2015200231112
20
3.26791626222041
30
0
41
1
10
41.1847174413318
20
3.23463395044678
30
0
0
SPLINE
5
140
100
AcDbEntity
8
1
62
256
6
ByLayer
370
18
48
1
60
0
100
AcDbSpline
70
4
71
3
72
138
73
134
40
0
40
0
40
0
40
0
40
0.0180812206831619
40
0.0180812206831619
40
0.0271218310247429
40
0.0271218310247429
40
0.0361624413663238
40
0.0361624413663238
40
0.0542436620494857
40
0.0542436620494857
40
0.0632842723910661
40
0.0632842723910661
40
0.0723248827326465
40
0.0723248827326465
40
0.108487324098968
40
0.108487324098968
40
0.117527934440548
40
0.117527934440548
40
0.126568544782129
40
0.126568544782129
40
0.135609155123709
40
0.135609155123709
40
0.14464976546529
40
0.14464976546529
40
0.180812206831608
40
0.180812206831608
40
0.198893427514767
40
0.198893427514767
40
0.207934037856346
40
0.207934037856346
40
0.216974648197924
40
0.216974648197924
40
0.226015258539503
40
0.226015258539503
40
0.235055868881082
40
0.235055868881082
40
0.253137089564239
40
0.253137089564239
40
0.289299530930553
40
0.289299530930553
40
0.307380751613711
40
0.307380751613711
40
0.31642136195529
40
0.31642136195529
40
0.32546197229687
40
0.32546197229687
40
0.34354319298003
40
0.34354319298003
40
0.35258380332161
40
0.35258380332161
40
0.361624413663191
40
0.361624413663191
40
0.379705634346351
40
0.379705634346351
40
0.397786855029511
40
0.397786855029511
40
0.415868075712671
40
0.415868075712671
40
0.433949296395832
40
0.433949296395832
40
0.470111737762153
40
0.470111737762153
40
0.488192958445314
40
0.488192958445314
40
0.492713263616103
40
0.492713263616103
40
0.497233568786893
40
0.497233568786893
40
0.506274179128472
40
0.506274179128472
40
0.515314789470051
40
0.515314789470051
40
0.52435539981163
40
0.52435539981163
40
0.542436620494789
40
0.542436620494789
40
0.560517841177947
40
0.560517841177947
40
0.578599061861105
40
0.578599061861105
40
0.596680282544264
40
0.596680282544264
40
0.605720892885842
40
0.605720892885842
40
0.614761503227421
40
0.614761503227421
40
0.632842723910579
40
0.632842723910579
40
0.641883334252158
40
0.641883334252158
40
0.650923944593738
40
0.650923944593738
40
0.687086385960054
40
0.687086385960054
40
0.705167606643212
40
0.705167606643212
40
0.714208216984791
40
0.714208216984791
40
0.72324882732637
40
0.72324882732637
40
0.759411268692683
40
0.759411268692683
40
0.77749248937584
40
0.77749248937584
40
0.786533099717419
40
0.786533099717419
40
0.795573710058998
40
0.795573710058998
40
0.813654930742155
40
0.813654930742155
40
0.831736151425312
40
0.831736151425312
40
0.867898592791625
40
0.867898592791625
40
0.885979813474782
40
0.885979813474782
40
0.89502042381636
40
0.89502042381636
40
0.904061034157937
40
0.904061034157937
40
0.922142254841093
40
0.922142254841093
40
0.931182865182671
40
0.931182865182671
40
0.93570317035346
40
0.93570317035346
40
0.940223475524249
40
0.940223475524249
40
0.976385916890567
40
0.976385916890567
40
0.994467137573725
40
0.994467137573725
40
1
40
1
40
1
40
1
41
1
10
37.5764690392341
20
4.46614994832919
30
0
41
1
10
37.7072650440265
20
4.45172781278177
30
0
41
1
10
37.8378042619027
20
4.43384323173132
30
0
41
1
10
38.0332042959333
20
4.40176601530223
30
0
41
1
10
38.0982709981035
20
4.39019812507513
30
0
41
1
10
38.2282672097725
20
4.3652922934609
30
0
41
1
10
38.2931980714691
20
4.35195125210689
30
0
41
1
10
38.488523664895
20
4.30951620866836
30
0
41
1
10
38.6191383314637
20
4.27792018777271
30
0
41
1
10
38.8155225508202
20
4.22555510347451
30
0
41
1
10
38.8810684533312
20
4.20727144316169
30
0
41
1
10
39.0118732102099
20
4.16919383990628
30
0
41
1
10
39.0771898980442
20
4.14938470820741
30
0
41
1
10
39.4033591006694
20
4.0465348559606
30
0
41
1
10
39.6629919466306
20
3.95214289238189
30
0
41
1
10
39.9859344118958
20
3.81918731502094
30
0
41
1
10
40.0504397772274
20
3.79184262573418
30
0
41
1
10
40.1793103125742
20
3.73565693172512
30
0
41
1
10
40.243662424954
20
3.70680583257081
30
0
41
1
10
40.3723637641079
20
3.64770151377761
30
0
41
1
10
40.4367432711428
20
3.61747112243171
30
0
41
1
10
40.5656862385689
20
3.55576257773598
30
0
41
1
10
40.6302320578059
20
3.52427149043271
30
0
41
1
10
40.9532813521049
20
3.36361400243274
30
0
41
1
10
41.2126159418293
20
3.22477655528886
30
0
41
1
10
41.603133379557
20
3.0009815500845
30
0
41
1
10
41.733541606308
20
2.92376842220159
30
0
41
1
10
41.9295542311592
20
2.80395555760259
30
0
41
1
10
41.9950015761112
20
2.76333397895678
30
0
41
1
10
42.1254676832828
20
2.68117800265409
30
0
41
1
10
42.1905597020708
20
2.63960153062854
30
0
41
1
10
42.3204853241878
20
2.55547971987553
30
0
41
1
10
42.3852973747321
20
2.51291075000552
30
0
41
1
10
42.5147832629888
20
2.4269370550515
30
0
41
1
10
42.5795519822294
20
2.38363695159148
30
0
41
1
10
42.7738087055035
20
2.25267547271128
30
0
41
1
10
42.9032344180147
20
2.16393856135761
30
0
41
1
10
43.2913467407929
20
1.89359693785582
30
0
41
1
10
43.5498713123684
20
1.70787883963521
30
0
41
1
10
43.9376202597375
20
1.42142467029342
30
0
41
1
10
44.0668509472871
20
1.32460790028858
30
0
41
1
10
44.2607424725361
20
1.177442741215
30
0
41
1
10
44.3253752912568
20
1.1280578028699
30
0
41
1
10
44.4545869068075
20
1.02854407855261
30
0
41
1
10
44.5192091746908
20
0.978469148727697
30
0
41
1
10
44.713581544301
20
0.827866890704399
30
0
41
1
10
44.8437195371489
20
0.726816175491052
30
0
41
1
10
45.039758328165
20
0.574256612793363
30
0
41
1
10
45.1053200238308
20
0.523181299633762
30
0
41
1
10
45.2362112575162
20
0.421097189935182
30
0
41
1
10
45.3015610998956
20
0.370068633603694
30
0
41
1
10
45.4973366792166
20
0.217036619111468
30
0
41
1
10
45.6274969074882
20
0.115097700260776
30
0
41
1
10
45.8872257029204
20
-0.0884710415242012
30
0
41
1
10
46.0168321829416
20
-0.190051885303092
30
0
41
1
10
46.2754154953304
20
-0.392958075498484
30
0
41
1
10
46.404326168923
20
-0.494367760621373
30
0
41
1
10
46.6617573989259
20
-0.696611550430248
30
0
41
1
10
46.7905831193862
20
-0.797055900196881
30
0
41
1
10
47.1777900060347
20
-1.0958666728896
30
0
41
1
10
47.4367721804576
20
-1.29187980717771
30
0
41
1
10
47.8270941895708
20
-1.58036115009366
30
0
41
1
10
47.9574837190403
20
-1.67562976952226
30
0
41
1
10
48.120808011908
20
-1.793603924238
30
0
41
1
10
48.1534902062477
20
-1.81714255785587
30
0
41
1
10
48.2188896011019
20
-1.86410645953546
30
0
41
1
10
48.2516232299012
20
-1.88754340264074
30
0
41
1
10
48.3496641157645
20
-1.95753158389212
30
0
41
1
10
48.4148595727724
20
-2.00379773691759
30
0
41
1
10
48.5449292750539
20
-2.09553517998086
30
0
41
1
10
48.6097678234284
20
-2.1410470789869
30
0
41
1
10
48.7393456266062
20
-2.23102052939092
30
0
41
1
10
48.804157280159
20
-2.27540102856986
30
0
41
1
10
48.9984940428857
20
-2.40694343740069
30
0
41
1
10
49.127966681091
20
-2.49245473909099
30
0
41
1
10
49.3867669281749
20
-2.65917543419496
30
0
41
1
10
49.516095727016
20
-2.74038257567895
30
0
41
1
10
49.774725070381
20
-2.89841432689815
30
0
41
1
10
49.9040307340533
20
-2.97523534613552
30
0
41
1
10
50.1625684105767
20
-3.12453025910082
30
0
41
1
10
50.2917844245594
20
-3.19701872524345
30
0
41
1
10
50.4855436966386
20
-3.30243856223208
30
0
41
1
10
50.5501167511261
20
-3.33702811938318
30
0
41
1
10
50.6792575356977
20
-3.40507205837409
30
0
41
1
10
50.7438260205747
20
-3.43852438284011
30
0
41
1
10
50.937991513836
20
-3.53676931545908
30
0
41
1
10
51.0680190514747
20
-3.59948392332601
30
0
41
1
10
51.2638292764543
20
-3.68946537885154
30
0
41
1
10
51.3292509488461
20
-3.71877809937004
30
0
41
1
10
51.4603056754678
20
-3.77598526452485
30
0
41
1
10
51.5257386500634
20
-3.80379347155576
30
0
41
1
10
51.8524544760942
20
-3.93889418635328
30
0
41
1
10
52.1124060243526
20
-4.03441084149569
30
0
41
1
10
52.5003240533943
20
-4.15910529021915
30
0
41
1
10
52.6293028010749
20
-4.19755788876677
30
0
41
1
10
52.8223213784877
20
-4.25050010539164
30
0
41
1
10
52.8865859385749
20
-4.26735476999511
30
0
41
1
10
53.0153701964699
20
-4.299316066301
30
0
41
1
10
53.0798317323028
20
-4.31444924254296
30
0
41
1
10
53.4024027642585
20
-4.3859413153865
30
0
41
1
10
53.66137538248
20
-4.42979742335601
30
0
41
1
10
54.0513995907751
20
-4.47545833159319
30
0
41
1
10
54.1816629056111
20
-4.48731630356937
30
0
41
1
10
54.3774611585616
20
-4.49994905380262
30
0
41
1
10
54.442795682787
20
-4.50330008477584
30
0
41
1
10
54.5736062446895
20
-4.50825507516007
30
0
41
1
10
54.6389523454696
20
-4.50985276881326
30
0
41
1
10
54.8343827788145
20
-4.51199434346373
30
0
41
1
10
54.9639750757714
20
-4.50987833166116
30
0
41
1
10
55.2231842948241
20
-4.49871993598666
30
0
41
1
10
55.3527135604051
20
-4.48969248404143
30
0
41
1
10
55.7410394168416
20
-4.45249573332876
30
0
41
1
10
55.9996004730496
20
-4.41424731015391
30
0
41
1
10
56.3872781803694
20
-4.33694568961437
30
0
41
1
10
56.5164702169509
20
-4.30784600020112
30
0
41
1
10
56.7102380775661
20
-4.2591390404794
30
0
41
1
10
56.7748366993245
20
-4.24206544010153
30
0
41
1
10
56.904010344613
20
-4.20620456096512
30
0
41
1
10
56.9685185965565
20
-4.18738305855632
30
0
41
1
10
57.1625412138409
20
-4.12857394243534
30
0
41
1
10
57.2924090523349
20
-4.08618768754292
30
0
41
1
10
57.4879518505487
20
-4.01780889870517
30
0
41
1
10
57.5532628590994
20
-3.99421887857278
30
0
41
1
10
57.6514350040951
20
-3.95763794021542
30
0
41
1
10
57.6842125189818
20
-3.94523741096296
30
0
41
1
10
57.7497147180175
20
-3.92008460714337
30
0
41
1
10
57.7824426338758
20
-3.90733142426751
30
0
41
1
10
58.0767921941382
20
-3.79097571927198
30
0
41
1
10
58.337076308642
20
-3.67643594382898
30
0
41
1
10
58.7253272184778
20
-3.48817478287592
30
0
41
1
10
58.8543748834268
20
-3.42266442005624
30
0
41
1
10
59.0223894292845
20
-3.33343394602656
30
0
41
1
10
59.0617301838607
20
-3.31227267212702
30
0
41
1
10
59.1010895071649
20
-3.29089700017701
30
0
0
SPLINE
5
141
100
AcDbEntity
8
1
62
256
6
ByLayer
370
18
48
1
60
0
100
AcDbSpline
70
4
71
3
72
20
73
16
40
0
40
0
40
0
40
0
40
0.087633720313958
40
0.087633720313958
40
0.270106976251147
40
0.270106976251147
40
0.452580232188335
40
0.452580232188335
40
0.543816860156982
40
0.543816860156982
40
0.635053488125628
40
0.635053488125628
40
0.817526744062814
40
0.817526744062814
40
1
40
1
40
1
40
1
41
1
10
72.8981411332919
20
5.19396396268559
30
0
41
1
10
72.903986087477
20
5.1954328384823
30
0
41
1
10
72.9098375375446
20
5.19707799471453
30
0
41
1
10
72.9278920637145
20
5.20272501152502
30
0
41
1
10
72.939956075767
20
5.20730355919164
30
0
41
1
10
72.9636732245563
20
5.21809005424916
30
0
41
1
10
72.9753436489483
20
5.22430133613835
30
0
41
1
10
72.9925161197382
20
5.23503511969139
30
0
41
1
10
72.998184510793
20
5.23885025310372
30
0
41
1
10
73.0093972647578
20
5.24700421202257
30
0
41
1
10
73.0149315564362
20
5.25133855241356
30
0
41
1
10
73.0310832841653
20
5.26499854734564
30
0
41
1
10
73.0413315948284
20
5.27502930670042
30
0
41
1
10
73.0606048491773
20
5.2972645761881
30
0
41
1
10
73.0696868309543
20
5.30956624872201
30
0
41
1
10
73.0777928775689
20
5.32291875712096
30
0
0
SPLINE
5
142
100
AcDbEntity
8
1
62
256
6
ByLayer
370
18
48
1
60
0
100
AcDbSpline
70
4
71
3
72
14
73
10
40
0
40
0
40
0
40
0
40
0.25
40
0.25
40
0.5
40
0.5
40
0.75
40
0.75
40
1
40
1
40
1
40
1
41
1
10
73.0777928775689
20
5.32291875712096
30
0
41
1
10
73.1336744664527
20
5.4149684849836
30
0
41
1
10
73.1892638210416
20
5.50601796562609
30
0
41
1
10
73.2999626569503
20
5.68613390582618
30
0
41
1
10
73.3550663299715
20
5.77519167771226
30
0
41
1
10
73.4646548002247
20
5.9509299554571
30
0
41
1
10
73.5191955939054
20
6.03769997325782
30
0
41
1
10
73.6276515372524
20
6.20868311571047
30
0
41
1
10
73.6815514541866
20
6.29286370863539
30
0
41
1
10
73.7352198623813
20
6.37587460647086
30
0
0
SPLINE
5
143
100
AcDbEntity
8
1
62
256
6
ByLayer
370
18
48
1
60
0
100
AcDbSpline
70
4
71
3
72
8
73
4
40
0
40
0
40
0
40
0
40
1
40
1
40
1
40
1
41
1
10
73.9452213400888
20
6.34401519578805
30
0
41
1
10
73.8750123368366
20
6.35608986012286
30
0
41
1
10
73.8050073376272
20
6.36670579761588
30
0
41
1
10
73.7352198623813
20
6.37587460647086
30
0
0
SPLINE
5
144
100
AcDbEntity
8
1
62
256
6
ByLayer
370
18
48
1
60
0
100
AcDbSpline
70
4
71
3
72
14
73
10
40
0
40
0
40
0
40
0
40
0.25
40
0.25
40
0.5
40
0.5
40
0.75
40
0.75
40
1
40
1
40
1
40
1
41
1
10
73.9452213400888
20
6.34401519578802
30
0
41
1
10
74.0006587592981
20
6.24386057804483
30
0
41
1
10
74.056349468114
20
6.14236657276277
30
0
41
1
10
74.1683360973608
20
5.93672244939512
30
0
41
1
10
74.2246624913327
20
5.83251641656057
30
0
41
1
10
74.337865683816
20
5.62178287529309
30
0
41
1
10
74.3947545115338
20
5.51523353021491
30
0
41
1
10
74.5091118738856
20
5.30000644413155
30
0
41
1
10
74.5665462894324
20
5.19139248794045
30
0
41
1
10
74.6242815083423
20
5.08180623298063
30
0
0
SPLINE
5
145
100
AcDbEntity
8
1
62
256
6
ByLayer
370
18
48
1
60
0
100
AcDbSpline
70
4
71
3
72
34
73
30
40
0
40
0
40
0
40
0
40
0.125000000000042
40
0.125000000000042
40
0.187500000000063
40
0.187500000000063
40
0.250000000000084
40
0.250000000000084
40
0.375000000000126
40
0.375000000000126
40
0.437500000000129
40
0.437500000000129
40
0.500000000000132
40
0.500000000000132
40
0.625000000000099
40
0.625000000000099
40
0.687500000000082
40
0.687500000000082
40
0.750000000000066
40
0.750000000000066
40
0.812500000000049
40
0.812500000000049
40
0.875000000000033
40
0.875000000000033
40
0.937500000000017
40
0.937500000000017
40
0.968750000000008
40
0.968750000000008
40
1
40
1
40
1
40
1
41
1
10
74.6242815083422
20
5.08180623298117
30
0
41
1
10
74.6388905683723
20
5.0540770200777
30
0
41
1
10
74.6559018955323
20
5.02923660357945
30
0
41
1
10
74.6841045555954
20
4.9951637748178
30
0
41
1
10
74.6939889650506
20
4.98433739911556
30
0
41
1
10
74.7142209337618
20
4.96407522254745
30
0
41
1
10
74.7246128859282
20
4.95458211296796
30
0
41
1
10
74.7565361756698
20
4.92784489521077
30
0
41
1
10
74.778806784087
20
4.91232118878446
30
0
41
1
10
74.8135713140027
20
4.89231357533575
30
0
41
1
10
74.8253778359878
20
4.88620979676082
30
0
41
1
10
74.8490412250082
20
4.87530465954802
30
0
41
1
10
74.8609466660727
20
4.87047399944893
30
0
41
1
10
74.8968655281623
20
4.85785114791724
30
0
41
1
10
74.9210785938111
20
4.85189515932024
30
0
41
1
10
74.9577731253147
20
4.84717079289871
30
0
41
1
10
74.9700345479601
20
4.84631811309865
30
0
41
1
10
74.9942035935157
20
4.84619480906426
30
0
41
1
10
75.0061656013161
20
4.84691490657585
30
0
41
1
10
75.0298054099445
20
4.85009010465171
30
0
41
1
10
75.0414836505225
20
4.85254264999395
30
0
41
1
10
75.0644947548634
20
4.85949212506577
30
0
41
1
10
75.0756987350258
20
4.86396046466811
30
0
41
1
10
75.0971032216795
20
4.87504419669767
30
0
41
1
10
75.107350907135
20
4.8816679404124
30
0
41
1
10
75.1218903221707
20
4.89358113302771
30
0
41
1
10
75.1265982124918
20
4.89788997491942
30
0
41
1
10
75.1355607127191
20
4.90711094066393
30
0
41
1
10
75.1398335905323
20
4.91203649383388
30
0
41
1
10
75.143878689558
20
4.91730791071205
30
0
0
SPLINE
5
146
100
AcDbEntity
8
1
62
256
6
ByLayer
370
18
48
1
60
0
100
AcDbSpline
70
4
71
3
72
14
73
10
40
0
40
0
40
0
40
0
40
0.25
40
0.25
40
0.5
40
0.5
40
0.75
40
0.75
40
1
40
1
40
1
40
1
41
1
10
75.143878689558
20
4.91730791071205
30
0
41
1
10
75.1997671442682
20
4.99013958716452
30
0
41
1
10
75.2553623930302
20
5.0611098256735
30
0
41
1
10
75.3660731253916
20
5.19940970735075
30
0
41
1
10
75.4211865477582
20
5.26673915646379
30
0
41
1
10
75.5307934987939
20
5.39746396139807
30
0
41
1
10
75.5853409277229
20
5.46091741001223
30
0
41
1
10
75.6938155193089
20
5.5837814614504
30
0
41
1
10
75.7477348462204
20
5.64319460342964
30
0
41
1
10
75.8014069384917
20
5.70071485134389
30
0
0
SPLINE
5
147
100
AcDbEntity
8
1
62
256
6
ByLayer
370
18
48
1
60
0
100
AcDbSpline
70
4
71
3
72
8
73
4
40
0
40
0
40
0
40
0
40
1
40
1
40
1
40
1
41
1
10
75.8472648946365
20
5.67673572201605
30
0
41
1
10
75.831972799781
20
5.68479054859435
30
0
41
1
10
75.816686986146
20
5.69278366031989
30
0
41
1
10
75.8014069384918
20
5.70071485134389
30
0
0
SPLINE
5
148
100
AcDbEntity
8
1
62
256
6
ByLayer
370
18
48
1
60
0
100
AcDbSpline
70
4
71
3
72
8
73
4
40
0
40
0
40
0
40
0
40
1
40
1
40
1
40
1
41
1
10
75.8472648946365
20
5.67673572201602
30
0
41
1
10
75.9110477798008
20
5.62880491225511
30
0
41
1
10
75.9750691883355
20
5.57985655319206
30
0
41
1
10
76.0393515298859
20
5.52992398736112
30
0
0
SPLINE
5
149
100
AcDbEntity
8
1
62
256
6
ByLayer
370
18
48
1
60
0
100
AcDbSpline
70
4
71
3
72
12
73
8
40
0
40
0
40
0
40
0
40
0.25
40
0.25
40
0.5
40
0.5
40
1
40
1
40
1
40
1
41
1
10
76.039351529886
20
5.52992398736129
30
0
41
1
10
76.0925567760419
20
5.41918833396613
30
0
41
1
10
76.1459928830932
20
5.30818289601393
30
0
41
1
10
76.2534169493248
20
5.08567122846537
30
0
41
1
10
76.3074250077128
20
4.9741229273304
30
0
41
1
10
76.4702857058633
20
4.63905912878511
30
0
41
1
10
76.5797197040627
20
4.41567903780145
30
0
41
1
10
76.6903577196599
20
4.19246221842357
30
0
0
SPLINE
5
14A
100
AcDbEntity
8
1
62
256
6
ByLayer
370
18
48
1
60
0
100
AcDbSpline
70
4
71
3
72
36
73
32
40
0
40
0
40
0
40
0
40
0.124999999999969
40
0.124999999999969
40
0.187499999999938
40
0.187499999999938
40
0.249999999999908
40
0.249999999999908
40
0.374999999999881
40
0.374999999999881
40
0.437499999999867
40
0.437499999999867
40
0.499999999999852
40
0.499999999999852
40
0.624999999999864
40
0.624999999999864
40
0.687499999999869
40
0.687499999999869
40
0.749999999999874
40
0.749999999999874
40
0.812499999999879
40
0.812499999999879
40
0.843749999999899
40
0.843749999999899
40
0.87499999999992
40
0.87499999999992
40
0.937499999999961
40
0.937499999999961
40
0.96874999999998
40
0.96874999999998
40
1
40
1
40
1
40
1
41
1
10
76.6903577196599
20
4.19246221842357
30
0
41
1
10
76.7049776690678
20
4.16296585961169
30
0
41
1
10
76.7219991348764
20
4.13534943213693
30
0
41
1
10
76.7502109926852
20
4.09601188886197
30
0
41
1
10
76.7601047871715
20
4.08322616484654
30
0
41
1
10
76.7803583178505
20
4.05877298021591
30
0
41
1
10
76.790759395136
20
4.04704355420432
30
0
41
1
10
76.8227046183558
20
4.01320844329641
30
0
41
1
10
76.8449826586472
20
3.99243958216479
30
0
41
1
10
76.8797452111575
20
3.96380571851211
30
0
41
1
10
76.8915612706436
20
3.95469067317438
30
0
41
1
10
76.9152377103172
20
3.93760705138701
30
0
41
1
10
76.9271473363217
20
3.92959629535227
30
0
41
1
10
76.9630713191337
20
3.9071502524753
30
0
41
1
10
76.9872780007651
20
3.89427371145905
30
0
41
1
10
77.0239453583585
20
3.87848918551802
30
0
41
1
10
77.0362130022166
20
3.87383699473475
30
0
41
1
10
77.0603815286844
20
3.86601200881572
30
0
41
1
10
77.0723399547431
20
3.86281212854146
30
0
41
1
10
77.095965634115
20
3.85798653391382
30
0
41
1
10
77.1076333281179
20
3.85635855425784
30
0
41
1
10
77.1248702006431
20
3.85530194728909
30
0
41
1
10
77.1305679505785
20
3.85518428127668
30
0
41
1
10
77.1417096104492
20
3.85545370877716
30
0
41
1
10
77.1471726602102
20
3.85583911845308
30
0
41
1
10
77.1632150519562
20
3.85779910003805
30
0
41
1
10
77.1734516315799
20
3.86016767113338
30
0
41
1
10
77.1879698961369
20
3.86565598927601
30
0
41
1
10
77.1926756895458
20
3.86781720441661
30
0
41
1
10
77.2016355335622
20
3.8727968780845
30
0
41
1
10
77.2059067299725
20
3.8756201296529
30
0
41
1
10
77.2099499507095
20
3.87880938496019
30
0
0
SPLINE
5
14B
100
AcDbEntity
8
1
62
256
6
ByLayer
370
18
48
1
60
0
100
AcDbSpline
70
4
71
3
72
10
73
6
40
0
40
0
40
0
40
0
40
0.5
40
0.5
40
1
40
1
40
1
40
1
41
1
10
77.2099499507094
20
3.87880938496105
30
0
41
1
10
77.278883810607
20
3.93318377924541
30
0
41
1
10
77.3473679195228
20
3.98377643387704
30
0
41
1
10
77.4836343102119
20
4.07764040814303
30
0
41
1
10
77.5513233326202
20
4.12084403367061
30
0
41
1
10
77.6185996180034
20
4.16028630555724
30
0
0
SPLINE
5
14C
100
AcDbEntity
8
1
62
256
6
ByLayer
370
18
48
1
60
0
100
AcDbSpline
70
4
71
3
72
12
73
8
40
0
40
0
40
0
40
0
40
0.250000000000001
40
0.250000000000001
40
0.5
40
0.5
40
1
40
1
40
1
40
1
41
1
10
77.6185996180033
20
4.16028630555724
30
0
41
1
10
77.6876315181991
20
4.09476040700372
30
0
41
1
10
77.7566955568644
20
4.02851698307117
30
0
41
1
10
77.8950727836319
20
3.8947169309788
30
0
41
1
10
77.9644503809353
20
3.82719651497348
30
0
41
1
10
78.1733778661974
20
3.62295373395185
30
0
41
1
10
78.3136129004955
20
3.48450506084109
30
0
41
1
10
78.4549639844121
20
3.34392048491296
30
0
0
SPLINE
5
14D
100
AcDbEntity
8
1
62
256
6
ByLayer
370
18
48
1
60
0
100
AcDbSpline
70
4
71
3
72
8
73
4
40
0
40
0
40
0
40
0
40
1
40
1
40
1
40
1
41
1
10
78.4549639844115
20
3.34392048491301
30
0
41
1
10
78.5546198696092
20
3.14705329706547
30
0
41
1
10
78.655020088959
20
2.95348643411822
30
0
41
1
10
78.7564360229024
20
2.7633387940204
30
0
0
SPLINE
5
14E
100
AcDbEntity
8
1
62
256
6
ByLayer
370
18
48
1
60
0
100
AcDbSpline
70
4
71
3
72
36
73
32
40
0
40
0
40
0
40
0
40
0.125000000000034
40
0.125000000000034
40
0.18750000000005
40
0.18750000000005
40
0.250000000000066
40
0.250000000000066
40
0.375000000000062
40
0.375000000000062
40
0.43750000000006
40
0.43750000000006
40
0.500000000000057
40
0.500000000000057
40
0.625000000000012
40
0.625000000000012
40
0.68750000000001
40
0.68750000000001
40
0.750000000000008
40
0.750000000000008
40
0.812500000000006
40
0.812500000000006
40
0.843750000000005
40
0.843750000000005
40
0.875000000000004
40
0.875000000000004
40
0.937500000000002
40
0.937500000000002
40
0.968750000000001
40
0.968750000000001
40
1
40
1
40
1
40
1
41
1
10
78.7564360229026
20
2.76333879402037
30
0
41
1
10
78.7710667077934
20
2.73590730375221
30
0
41
1
10
78.7881002801225
20
2.70909202603974
30
0
41
1
10
78.8163284182138
20
2.66957890130362
30
0
41
1
10
78.8262305806656
20
2.65649064204021
30
0
41
1
10
78.8465024279252
20
2.63101284267296
30
0
41
1
10
78.8569116653998
20
2.61856420659564
30
0
41
1
10
78.8888780459017
20
2.58200414393212
30
0
41
1
10
78.9111657903247
20
2.55866972546957
30
0
41
1
10
78.9459349189404
20
2.52510173621394
30
0
41
1
10
78.9577562014375
20
2.51415287349846
30
0
41
1
10
78.9814404773929
20
2.49309430947093
30
0
41
1
10
78.9933526128636
20
2.48293578675848
30
0
41
1
10
79.0292797156564
20
2.4535574653703
30
0
41
1
10
79.0534826351585
20
2.43541622796761
30
0
41
1
10
79.0901344581748
20
2.41060384610225
30
0
41
1
10
79.1024004023247
20
2.40274989850985
30
0
41
1
10
79.1265613414297
20
2.38822701059379
30
0
41
1
10
79.138514387831
20
2.38151707908278
30
0
41
1
10
79.1621260290048
20
2.3693094035084
30
0
41
1
10
79.173785065123
20
2.36380994217052
30
0
41
1
10
79.1910063006705
20
2.35662321942692
30
0
41
1
10
79.1967015089343
20
2.35440742086891
30
0
41
1
10
79.2078369790127
20
2.3504214626667
30
0
41
1
10
79.2132965243124
20
2.34864284804831
30
0
41
1
10
79.2293272639277
20
2.3439934734898
30
0
41
1
10
79.2395545333098
20
2.34180086345694
30
0
41
1
10
79.2540571494071
20
2.34016207752887
30
0
41
1
10
79.2587597096144
20
2.33989478736967
30
0
41
1
10
79.2677152127281
20
2.33998425089558
30
0
41
1
10
79.2719842645259
20
2.34033788833585
30
0
41
1
10
79.2760254566208
20
2.34103074735685
30
0
0
SPLINE
5
14F
100
AcDbEntity
8
1
62
256
6
ByLayer
370
18
48
1
60
0
100
AcDbSpline
70
4
71
3
72
8
73
4
40
0
40
0
40
0
40
0
40
1
40
1
40
1
40
1
41
1
10
79.2760254566207
20
2.34103074735736
30
0
41
1
10
79.3277880817047
20
2.34990540634351
30
0
41
1
10
79.3792951945512
20
2.35639053249704
30
0
41
1
10
79.4305894598806
20
2.36055469821437
30
0
0
SPLINE
5
150
100
AcDbEntity
8
1
62
256
6
ByLayer
370
18
48
1
60
0
100
AcDbSpline
70
4
71
3
72
14
73
10
40
0
40
0
40
0
40
0
40
0.250000000000003
40
0.250000000000003
40
0.375000000000005
40
0.375000000000005
40
0.500000000000007
40
0.500000000000007
40
1
40
1
40
1
40
1
41
1
10
79.4305894598808
20
2.36055469821434
30
0
41
1
10
79.5522820129448
20
2.23666170663344
30
0
41
1
10
79.6739879230748
20
2.11241797482103
30
0
41
1
10
79.8566381742307
20
1.92560885282273
30
0
41
1
10
79.9175363823874
20
1.86326475806427
30
0
41
1
10
80.039599600999
20
1.73865475865938
30
0
41
1
10
80.1007841468738
20
1.67640742668732
30
0
41
1
10
80.4075239989322
20
1.36551830160474
30
0
41
1
10
80.6553528148313
20
1.11775622271458
30
0
41
1
10
80.90648574628
20
0.871831377576086
30
0
0
SPLINE
5
151
100
AcDbEntity
8
1
62
256
6
ByLayer
370
18
48
1
60
0
100
AcDbSpline
70
4
71
3
72
14
73
10
40
0
40
0
40
0
40
0
40
0.25
40
0.25
40
0.5
40
0.5
40
0.75
40
0.75
40
1
40
1
40
1
40
1
41
1
10
80.90648574628
20
0.871831377576058
30
0
41
1
10
80.9228569351257
20
0.853250129603225
30
0
41
1
10
80.9399119263146
20
0.834780679095275
30
0
41
1
10
80.9752102176905
20
0.798014828912898
30
0
41
1
10
80.9934550001689
20
0.779718590661446
30
0
41
1
10
81.0310860611444
20
0.743254163406476
30
0
41
1
10
81.0501188696218
20
0.725429569907647
30
0
41
1
10
81.0884743662391
20
0.690601339010868
30
0
41
1
10
81.1078107442671
20
0.673583923509142
30
0
41
1
10
81.1272921402507
20
0.656968836065175
30
0
0
SPLINE
5
152
100
AcDbEntity
8
1
62
256
6
ByLayer
370
18
48
1
60
0
100
AcDbSpline
70
4
71
3
72
8
73
4
40
0
40
0
40
0
40
0
40
1
40
1
40
1
40
1
41
1
10
81.1272921402507
20
0.656968836065175
30
0
41
1
10
81.1581347586431
20
0.627154205644985
30
0
41
1
10
81.1890342473347
20
0.597374324874437
30
0
41
1
10
81.2199999607224
20
0.567638222278788
30
0
0
SPLINE
5
153
100
AcDbEntity
8
1
62
256
6
ByLayer
370
18
48
1
60
0
100
AcDbSpline
70
4
71
3
72
14
73
10
40
0
40
0
40
0
40
0
40
0.25
40
0.25
40
0.5
40
0.5
40
0.75
40
0.75
40
1
40
1
40
1
40
1
41
1
10
81.2199999607224
20
0.567638222278816
30
0
41
1
10
81.2675492629149
20
0.511812531681898
30
0
41
1
10
81.3156611528972
20
0.45774470135305
30
0
41
1
10
81.4131233462509
20
0.353153654794369
30
0
41
1
10
81.4625168025095
20
0.302602458297713
30
0
41
1
10
81.5624879885339
20
0.205542960157828
30
0
41
1
10
81.6131108686526
20
0.158980869827616
30
0
41
1
10
81.7156098949626
20
0.0702102773812499
30
0
41
1
10
81.76744950038
20
0.0280306671515689
30
0
41
1
10
81.82
20
-0.0117990474324756
30
0
0
SPLINE
5
154
100
AcDbEntity
8
1
62
256
6
ByLayer
370
18
48
1
60
0
100
AcDbSpline
70
4
71
3
72
65
73
61
40
0
40
0
40
0
40
0
40
0.0156250000000007
40
0.0156250000000007
40
0.0312500000000013
40
0.0312500000000013
40
0.0625000000000022
40
0.0625000000000022
40
0.125000000000004
40
0.125000000000004
40
0.156250000000005
40
0.156250000000005
40
0.171875000000005
40
0.171875000000005
40
0.187500000000005
40
0.187500000000005
40
0.218750000000006
40
0.218750000000006
40
0.226562500000006
40
0.226562500000006
40
0.234375000000006
40
0.234375000000006
40
0.250000000000006
40
0.250000000000006
40
0.375000000000006
40
0.375000000000006
40
0.406250000000006
40
0.406250000000006
40
0.437500000000006
40
0.500000000000006
40
0.500000000000006
40
0.625000000000006
40
0.625000000000006
40
0.656250000000006
40
0.656250000000006
40
0.687500000000006
40
0.687500000000006
40
0.750000000000005
40
0.750000000000005
40
0.757812500000005
40
0.757812500000005
40
0.765625000000005
40
0.765625000000005
40
0.781250000000005
40
0.781250000000005
40
0.812500000000005
40
0.812500000000005
40
0.828125000000004
40
0.828125000000004
40
0.843750000000004
40
0.843750000000004
40
0.875000000000003
40
0.875000000000003
40
0.937500000000002
40
0.937500000000002
40
0.953125000000001
40
0.953125000000001
40
0.968750000000001
40
0.968750000000001
40
1
40
1
40
1
40
1
41
1
10
81.82
20
-0.011799047432504
30
0
41
1
10
81.82
20
-0.0101941695859296
30
0
41
1
10
81.82
20
-0.0078649547749592
30
0
41
1
10
81.82
20
-0.0018041292142073
30
0
41
1
10
81.82
20
0.0019279671823824
30
0
41
1
10
81.82
20
0.0151743999806797
30
0
41
1
10
81.82
20
0.0267324726367235
30
0
41
1
10
81.82
20
0.0693991407958663
30
0
41
1
10
81.82
20
0.108519590736449
30
0
41
1
10
81.82
20
0.183260615834826
30
0
41
1
10
81.82
20
0.210874831375492
30
0
41
1
10
81.82
20
0.256503882173888
30
0
41
1
10
81.82
20
0.272440677404575
30
0
41
1
10
81.82
20
0.305399299849967
30
0
41
1
10
81.82
20
0.322454001477922
30
0
41
1
10
81.82
20
0.37531269714745
30
0
41
1
10
81.82
20
0.412815243548977
30
0
41
1
10
81.82
20
0.462487591975872
30
0
41
1
10
81.82
20
0.472570150747202
30
0
41
1
10
81.82
20
0.492812298743019
30
0
41
1
10
81.82
20
0.502960249470192
30
0
41
1
10
81.82
20
0.533519393388673
30
0
41
1
10
81.82
20
0.554057508251674
30
0
41
1
10
81.82
20
0.740367856699834
30
0
41
1
10
81.82
20
0.916195479841292
30
0
41
1
10
81.82
20
1.14888563881658
30
0
41
1
10
81.82
20
1.1961072705723
30
0
41
1
10
81.82
20
1.29162603722014
30
0
41
1
10
81.82
20
1.43650980324793
30
0
41
1
10
81.82
20
1.58619495189603
30
0
41
1
10
81.82
20
1.8919118799102
30
0
41
1
10
81.82
20
2.10417928454962
30
0
41
1
10
81.82
20
2.38011948750309
30
0
41
1
10
81.82
20
2.43583731689458
30
0
41
1
10
81.82
20
2.54833697541793
30
0
41
1
10
81.82
20
2.60515989543663
30
0
41
1
10
81.82
20
2.77691103510227
30
0
41
1
10
81.82
20
2.89306817669953
30
0
41
1
10
81.82
20
3.02551946542741
30
0
41
1
10
81.82
20
3.04024812080132
30
0
41
1
10
81.82
20
3.06987266979783
30
0
41
1
10
81.82
20
3.08478441858412
30
0
41
1
10
81.82
20
3.12982788593976
30
0
41
1
10
81.82
20
3.16024722141501
30
0
41
1
10
81.8199999999999
20
3.25266316096702
30
0
41
1
10
81.82
20
3.31581528015999
30
0
41
1
10
81.82
20
3.41291464948489
30
0
41
1
10
81.82
20
3.44572041420722
30
0
41
1
10
81.82
20
3.51196281340495
30
0
41
1
10
81.82
20
3.54523849569125
30
0
41
1
10
81.82
20
3.64551585151907
30
0
41
1
10
81.82
20
3.71296613803969
30
0
41
1
10
81.82
20
3.91707472486087
30
0
41
1
10
81.82
20
4.05549392930379
30
0
41
1
10
81.82
20
4.23150925933919
30
0
41
1
10
81.82
20
4.26693714661951
30
0
41
1
10
81.82
20
4.33744395494105
30
0
41
1
10
81.82
20
4.3725824337092
30
0
41
1
10
81.82
20
4.4776617249739
30
0
41
1
10
81.82
20
4.54726782992955
30
0
41
1
10
81.82
20
4.61643534213607
30
0
0
SPLINE
5
155
100
AcDbEntity
8
1
62
256
6
ByLayer
370
18
48
1
60
0
100
AcDbSpline
70
4
71
3
72
14
73
10
40
0
40
0
40
0
40
0
40
0.499999999999986
40
0.499999999999986
40
0.74999999999998
40
0.74999999999998
40
0.87499999999999
40
0.87499999999999
40
1
40
1
40
1
40
1
41
1
10
81.8199999999999
20
4.61643534213721
30
0
41
1
10
81.7217865226207
20
4.71917168902235
30
0
41
1
10
81.6226446647633
20
4.82108366411109
30
0
41
1
10
81.4725994561549
20
4.97312510029747
30
0
41
1
10
81.4223620775011
20
5.02366799789155
30
0
41
1
10
81.3466659177153
20
5.09934456369837
30
0
41
1
10
81.321377834952
20
5.12454650720318
30
0
41
1
10
81.2706935633246
20
5.17490940068367
30
0
41
1
10
81.2452972180978
20
5.20007204228313
30
0
41
1
10
81.2200000997858
20
5.22505350830838
30
0
0
SPLINE
5
156
100
AcDbEntity
8
1
62
256
6
ByLayer
370
18
48
1
60
0
100
AcDbSpline
70
4
71
3
72
8
73
4
40
0
40
0
40
0
40
0
40
1
40
1
40
1
40
1
41
1
10
81.2200000997858
20
5.22505350830838
30
0
41
1
10
81.0973592799804
20
5.25377398051037
30
0
41
1
10
80.9756934961368
20
5.27910387115281
30
0
41
1
10
80.8548043615715
20
5.30107767137338
30
0
0
SPLINE
5
157
100
AcDbEntity
8
1
62
256
6
ByLayer
370
18
48
1
60
0
100
AcDbSpline
70
4
71
3
72
36
73
32
40
0
40
0
40
0
40
0
40
0.124999999999979
40
0.124999999999979
40
0.187499999999968
40
0.187499999999968
40
0.249999999999957
40
0.249999999999957
40
0.374999999999971
40
0.374999999999971
40
0.437499999999998
40
0.437499999999998
40
0.500000000000024
40
0.500000000000024
40
0.625000000000118
40
0.625000000000118
40
0.687500000000144
40
0.687500000000144
40
0.718750000000157
40
0.718750000000157
40
0.75000000000017
40
0.75000000000017
40
0.812500000000156
40
0.812500000000156
40
0.843750000000129
40
0.843750000000129
40
0.875000000000102
40
0.875000000000102
40
0.937500000000051
40
0.937500000000051
40
1
40
1
40
1
40
1
41
1
10
80.8548043615716
20
5.30107767137338
30
0
41
1
10
80.8399135052921
20
5.27925859949599
30
0
41
1
10
80.8230600165171
20
5.26020570120266
30
0
41
1
10
80.7954447184945
20
5.23487957864228
30
0
41
1
10
80.7858038614655
20
5.22696682484937
30
0
41
1
10
80.7660899671772
20
5.2124231067485
30
0
41
1
10
80.7559922927416
20
5.20576331304994
30
0
41
1
10
80.7250368914588
20
5.18748523128315
30
0
41
1
10
80.7035242996843
20
5.17754754455467
30
0
41
1
10
80.6700139033707
20
5.16592216701744
30
0
41
1
10
80.6586015812348
20
5.16259177349815
30
0
41
1
10
80.6355024476956
20
5.15712311913873
30
0
41
1
10
80.6238924714012
20
5.15499927732066
30
0
41
1
10
80.5888979865817
20
5.1504729198825
30
0
41
1
10
80.5653508264043
20
5.14988467029926
30
0
41
1
10
80.5297355523809
20
5.15317793766192
30
0
41
1
10
80.5178142017269
20
5.15497816601484
30
0
41
1
10
80.4998579673
20
5.15888909740585
30
0
41
1
10
80.4938489194972
20
5.16039963687712
30
0
41
1
10
80.4819424004017
20
5.16382090596113
30
0
41
1
10
80.4760304000482
20
5.16573400335335
30
0
41
1
10
80.4584272833746
20
5.17211310434692
30
0
41
1
10
80.4468680538289
20
5.17721370433017
30
0
41
1
10
80.4298444036228
20
5.18634155152995
30
0
41
1
10
80.4242226026361
20
5.18963145354627
30
0
41
1
10
80.4130966352184
20
5.19675918532161
30
0
41
1
10
80.4076018725935
20
5.20059401324255
30
0
41
1
10
80.3915656289656
20
5.21281422353505
30
0
41
1
10
80.3813876227508
20
5.22195740342804
30
0
41
1
10
80.3622435892658
20
5.24259633874649
30
0
41
1
10
80.3532303750659
20
5.25418158321622
30
0
41
1
10
80.345221381629
20
5.26687635718494
30
0
0
SPLINE
5
158
100
AcDbEntity
8
1
62
256
6
ByLayer
370
18
48
1
60
0
100
AcDbSpline
70
4
71
3
72
8
73
4
40
0
40
0
40
0
40
0
40
1
40
1
40
1
40
1
41
1
10
80.3452213816292
20
5.26687635718523
30
0
41
1
10
80.3209813692173
20
5.30529834878692
30
0
41
1
10
80.2967932349741
20
5.34349737095351
30
0
41
1
10
80.2726538560977
20
5.38147290260451
30
0
0
SPLINE
5
159
100
AcDbEntity
8
1
62
256
6
ByLayer
370
18
48
1
60
0
100
AcDbSpline
70
4
71
3
72
12
73
8
40
0
40
0
40
0
40
0
40
0.250000000000005
40
0.250000000000005
40
0.500000000000009
40
0.500000000000009
40
1
40
1
40
1
40
1
41
1
10
80.2726538560976
20
5.38147290260451
30
0
41
1
10
80.1697745588524
20
5.39109228002854
30
0
41
1
10
80.0673126393303
20
5.39819008995866
30
0
41
1
10
79.8630016877373
20
5.40734007719573
30
0
41
1
10
79.761183201162
20
5.40937942672747
30
0
41
1
10
79.4567637690711
20
5.40763522438141
30
0
41
1
10
79.2551069711555
20
5.39602805176011
30
0
41
1
10
79.0540408209472
20
5.37384465904211
30
0
0
SPLINE
5
15A
100
AcDbEntity
8
1
62
256
6
ByLayer
370
18
48
1
60
0
100
AcDbSpline
70
4
71
3
72
8
73
4
40
0
40
0
40
0
40
0
40
1
40
1
40
1
40
1
41
1
10
79.0540408209471
20
5.37384465904225
30
0
41
1
10
78.9694738800146
20
5.20615748503195
30
0
41
1
10
78.8844291657847
20
5.03646899768728
30
0
41
1
10
78.7987261432537
20
4.86482152218085
30
0
0
SPLINE
5
15B
100
AcDbEntity
8
1
62
256
6
ByLayer
370
18
48
1
60
0
100
AcDbSpline
70
4
71
3
72
34
73
30
40
0
40
0
40
0
40
0
40
0.125000000000006
40
0.125000000000006
40
0.187499999999992
40
0.187499999999992
40
0.249999999999979
40
0.249999999999979
40
0.37499999999995
40
0.37499999999995
40
0.437499999999937
40
0.437499999999937
40
0.499999999999924
40
0.499999999999924
40
0.624999999999897
40
0.624999999999897
40
0.687499999999883
40
0.687499999999883
40
0.74999999999987
40
0.74999999999987
40
0.812499999999857
40
0.812499999999857
40
0.843749999999869
40
0.843749999999869
40
0.874999999999881
40
0.874999999999881
40
0.937499999999941
40
0.937499999999941
40
1
40
1
40
1
40
1
41
1
10
78.7987261432538
20
4.8648215221813
30
0
41
1
10
78.784411360223
20
4.8361516305356
30
0
41
1
10
78.7678332629017
20
4.81003738331125
30
0
41
1
10
78.7404291107961
20
4.77369577789847
30
0
41
1
10
78.7308431451257
20
4.76204646496728
30
0
41
1
10
78.7109337692416
20
4.73974028239479
30
0
41
1
10
78.7007121040621
20
4.72919338911481
30
0
41
1
10
78.669326735218
20
4.69920248267178
30
0
41
1
10
78.6474507905937
20
4.68138770587149
30
0
41
1
10
78.6133275403777
20
4.65774419953271
30
0
41
1
10
78.6017325161551
20
4.6503817315847
30
0
41
1
10
78.5780954622128
20
4.63672859558048
30
0
41
1
10
78.5661413717026
20
4.63049257349743
30
0
41
1
10
78.5301954300389
20
4.61372222885598
30
0
41
1
10
78.5059959751758
20
4.60502101624922
30
0
41
1
10
78.4693853911466
20
4.59613593160901
30
0
41
1
10
78.4571294705663
20
4.59387537236907
30
0
41
1
10
78.4325150168332
20
4.59094967952768
30
0
41
1
10
78.4201398474219
20
4.59029607694944
30
0
41
1
10
78.3958994110372
20
4.59084871089991
30
0
41
1
10
78.3839624240808
20
4.59204032388365
30
0
41
1
10
78.3663843731074
20
4.59541503458459
30
0
41
1
10
78.3605798223382
20
4.59680573157308
30
0
41
1
10
78.3490929294229
20
4.60017562224593
30
0
41
1
10
78.3434027938143
20
4.60216086672216
30
0
41
1
10
78.3268041287414
20
4.60898966150987
30
0
41
1
10
78.3162772209541
20
4.61471726003049
30
0
41
1
10
78.2964989542882
20
4.62894972084152
30
0
41
1
10
78.2871946273935
20
4.63753209498046
30
0
41
1
10
78.2789506286926
20
4.64758062184822
30
0
0
SPLINE
5
15C
100
AcDbEntity
8
1
62
256
6
ByLayer
370
18
48
1
60
0
100
AcDbSpline
70
4
71
3
72
10
73
6
40
0
40
0
40
0
40
0
40
0.5
40
0.5
40
1
40
1
40
1
40
1
41
1
10
78.2789506286927
20
4.64758062184927
30
0
41
1
10
78.2097873699375
20
4.73188302036701
30
0
41
1
10
78.1410495940694
20
4.81310409204642
30
0
41
1
10
78.0042533612051
20
4.96956337620247
30
0
41
1
10
77.9361356672266
20
5.04485549764203
30
0
41
1
10
77.868486577848
20
5.11695631688033
30
0
0
SPLINE
5
15D
100
AcDbEntity
8
1
62
256
6
ByLayer
370
18
48
1
60
0
100
AcDbSpline
70
4
71
3
72
8
73
4
40
0
40
0
40
0
40
0
40
1
40
1
40
1
40
1
41
1
10
77.8684865778478
20
5.11695631688039
30
0
41
1
10
77.660902277702
20
5.04949638757083
30
0
41
1
10
77.4554219306149
20
4.97076341791561
30
0
41
1
10
77.2514188126131
20
4.88109531384063
30
0
0
SPLINE
5
15E
100
AcDbEntity
8
1
62
256
6
ByLayer
370
18
48
1
60
0
100
AcDbSpline
70
4
71
3
72
10
73
6
40
0
40
0
40
0
40
0
40
0.626897865008522
40
0.626897865008522
40
1
40
1
40
1
40
1
41
1
10
77.2514188126131
20
4.88109531384055
30
0
41
1
10
77.1660467300355
20
4.69805944971102
30
0
41
1
10
77.0800153279072
20
4.5146180659946
30
0
41
1
10
76.9420870490663
20
4.22285826659328
30
0
41
1
10
76.8904484980263
20
4.11414814934318
30
0
41
1
10
76.8385929915606
20
4.00560363724051
30
0
0
SPLINE
5
15F
100
AcDbEntity
8
1
62
256
6
ByLayer
370
18
48
1
60
0
100
AcDbSpline
70
4
71
3
72
12
73
8
40
0
40
0
40
0
40
0
40
0.499999999999991
40
0.499999999999991
40
0.749999999999995
40
0.749999999999995
40
1
40
1
40
1
40
1
41
1
10
68.6364050631584
20
5.29811380922519
30
0
41
1
10
68.5375825929006
20
5.45788007391218
30
0
41
1
10
68.4396451129297
20
5.61425119343499
30
0
41
1
10
68.2936870977157
20
5.84382750739965
30
0
41
1
10
68.2451964840727
20
5.91951310055265
30
0
41
1
10
68.1487323286477
20
6.06881726780077
30
0
41
1
10
68.1007256079603
20
6.14248831770672
30
0
41
1
10
68.0529126758107
20
6.21518382919666
30
0
0
SPLINE
5
160
100
AcDbEntity
8
1
62
256
6
ByLayer
370
18
48
1
60
0
100
AcDbSpline
70
4
71
3
72
8
73
4
40
0
40
0
40
0
40
0
40
1
40
1
40
1
40
1
41
1
10
68.0529126758077
20
6.21518382921491
30
0
41
1
10
67.9237359011992
20
6.17323312303191
30
0
41
1
10
67.7942200114565
20
6.12635278043823
30
0
41
1
10
67.6641618451553
20
6.07457291281796
30
0
0
SPLINE
5
161
100
AcDbEntity
8
1
62
256
6
ByLayer
370
18
48
1
60
0
100
AcDbSpline
70
4
71
3
72
14
73
10
40
0
40
0
40
0
40
0
40
0.25
40
0.25
40
0.5
40
0.5
40
0.75
40
0.75
40
1
40
1
40
1
40
1
41
1
10
67.6641618451598
20
6.07457291281298
30
0
41
1
10
67.6170449121387
20
5.98512112408173
30
0
41
1
10
67.5697541034452
20
5.89475810164561
30
0
41
1
10
67.4747517282093
20
5.71220535099707
30
0
41
1
10
67.4270604123502
20
5.62005385025964
30
0
41
1
10
67.3313389863268
20
5.43422800427678
30
0
41
1
10
67.2832727644428
20
5.34048620100339
30
0
41
1
10
67.1868302765823
20
5.15166469656566
30
0
41
1
10
67.1384450037968
20
5.05657051432612
30
0
41
1
10
67.0898680382733
20
4.96080330534417
30
0
0
SPLINE
5
162
100
AcDbEntity
8
1
62
256
6
ByLayer
370
18
48
1
60
0
100
AcDbSpline
70
4
71
3
72
34
73
30
40
0
40
0
40
0
40
0
40
0.12500000000003
40
0.12500000000003
40
0.187500000000045
40
0.187500000000045
40
0.25000000000006
40
0.25000000000006
40
0.37500000000009
40
0.37500000000009
40
0.437500000000087
40
0.437500000000087
40
0.500000000000085
40
0.500000000000085
40
0.62500000000008
40
0.62500000000008
40
0.687500000000078
40
0.687500000000078
40
0.750000000000077
40
0.750000000000077
40
0.812500000000075
40
0.812500000000075
40
0.843750000000074
40
0.843750000000074
40
0.875000000000072
40
0.875000000000072
40
0.937500000000036
40
0.937500000000036
40
1
40
1
40
1
40
1
41
1
10
67.0898680382733
20
4.96080330534417
30
0
41
1
10
67.0755373139123
20
4.93255095446227
30
0
41
1
10
67.0589372654279
20
4.90696890933458
30
0
41
1
10
67.0314965512274
20
4.87154818443778
30
0
41
1
10
67.0218982327651
20
4.86022807435856
30
0
41
1
10
67.0019605145816
20
4.83861436281259
30
0
41
1
10
66.9917248154928
20
4.82842943171315
30
0
41
1
10
66.9602966429678
20
4.79956694363523
30
0
41
1
10
66.9383908887075
20
4.78256089822202
30
0
41
1
10
66.9042269967831
20
4.76021099328108
30
0
41
1
10
66.8926193308323
20
4.75329323049669
30
0
41
1
10
66.868960667221
20
4.74055679369098
30
0
41
1
10
66.8570039749338
20
4.73479244340541
30
0
41
1
10
66.8210487782786
20
4.71944954183431
30
0
41
1
10
66.7968510679636
20
4.71172678398506
30
0
41
1
10
66.7602569720309
20
4.70435119215657
30
0
41
1
10
66.7480089427673
20
4.70260073168845
30
0
41
1
10
66.7234135889281
20
4.70071228458795
30
0
41
1
10
66.7110608149887
20
4.70058706559072
30
0
41
1
10
66.6868639517913
20
4.70218760503752
30
0
41
1
10
66.6749480328085
20
4.70390238130432
30
0
41
1
10
66.6574004228484
20
4.70806135302277
30
0
41
1
10
66.6516058386832
20
4.70971337485977
30
0
41
1
10
66.6401387522654
20
4.71360532749625
30
0
41
1
10
66.6344605180175
20
4.71585087030877
30
0
41
1
10
66.6178970159715
20
4.72344557642418
30
0
41
1
10
66.6073917661877
20
4.72966878439118
30
0
41
1
10
66.5876522795471
20
4.74485650274622
30
0
41
1
10
66.5783651559845
20
4.75390085677412
30
0
41
1
10
66.5701325667164
20
4.76437829971593
30
0
0
SPLINE
5
163
100
AcDbEntity
8
1
62
256
6
ByLayer
370
18
48
1
60
0
100
AcDbSpline
70
4
71
3
72
12
73
8
40
0
40
0
40
0
40
0
40
0.500000000000012
40
0.500000000000012
40
0.750000000000006
40
0.750000000000006
40
1
40
1
40
1
40
1
41
1
10
66.5701325667166
20
4.76437829971675
30
0
41
1
10
66.4988394247398
20
4.85511157971922
30
0
41
1
10
66.4280079661134
20
4.94269183896276
30
0
41
1
10
66.322306981585
20
5.06949574260523
30
0
41
1
10
66.2871647206315
20
5.111000047836
30
0
41
1
10
66.2170406102112
20
5.19249264883464
30
0
41
1
10
66.182073041191
20
5.23246360710874
30
0
41
1
10
66.1472399475282
20
5.27160901717193
30
0
0
SPLINE
5
164
100
AcDbEntity
8
1
62
256
6
ByLayer
370
18
48
1
60
0
100
AcDbSpline
70
4
71
3
72
8
73
4
40
0
40
0
40
0
40
0
40
1
40
1
40
1
40
1
41
1
10
66.1472399475238
20
5.27160901718938
30
0
41
1
10
65.8987712983019
20
5.10978649102839
30
0
41
1
10
65.6500988661616
20
4.93418218328696
30
0
41
1
10
65.399770505689
20
4.7457864954628
30
0
0
SPLINE
5
165
100
AcDbEntity
8
1
62
256
6
ByLayer
370
18
48
1
60
0
100
AcDbSpline
70
4
71
3
72
10
73
6
40
0
40
0
40
0
40
0
40
0.5
40
0.5
40
1
40
1
40
1
40
1
41
1
10
65.3997705056888
20
4.74578649546285
30
0
41
1
10
65.3376767144476
20
4.61400942566931
30
0
41
1
10
65.2752931310887
20
4.48214644093628
30
0
41
1
10
65.149870506928
20
4.21847145975406
30
0
41
1
10
65.0868955040803
20
4.08678968140114
30
0
41
1
10
65.023594875472
20
3.95529326627076
30
0
0
SPLINE
5
166
100
AcDbEntity
8
1
62
256
6
ByLayer
370
18
48
1
60
0
100
AcDbSpline
70
4
71
3
72
57
73
53
40
0
40
0
40
0
40
0
40
0.023183080774147
40
0.023183080774147
40
0.055743644748345
40
0.055743644748345
40
0.0883042087225433
40
0.0883042087225433
40
0.120864772696741
40
0.120864772696741
40
0.13714505468384
40
0.13714505468384
40
0.153425336670939
40
0.153425336670939
40
0.218546464619328
40
0.218546464619328
40
0.283667592567717
40
0.283667592567717
40
0.348788720516105
40
0.348788720516105
40
0.413909848464494
40
0.413909848464494
40
0.446470412438688
40
0.446470412438688
40
0.479030976412883
40
0.479030976412883
40
0.511591540387077
40
0.511591540387077
40
0.544152104361272
40
0.544152104361272
40
0.609273232309663
40
0.609273232309663
40
0.674394360258054
40
0.674394360258054
40
0.706954924232249
40
0.706954924232249
40
0.739515488206443
40
0.739515488206443
40
0.75579577019354
40
0.75579577019354
40
0.772076052180637
40
0.804636616154832
40
0.804636616154832
40
0.86975774410322
40
0.86975774410322
40
0.886038026090318
40
0.886038026090318
40
0.902318308077415
40
0.902318308077415
40
0.934878872051609
40
0.934878872051609
40
1
40
1
40
1
40
1
41
1
10
51.4361647424408
20
-4.5109991406062
30
0
41
1
10
51.357735273523
20
-4.51100057026608
30
0
41
1
10
51.2792849203627
20
-4.50972124905846
30
0
41
1
10
51.0905148392607
20
-4.50356346626791
30
0
41
1
10
50.98014368197
20
-4.49743898878907
30
0
41
1
10
50.7589610137055
20
-4.48014560410277
30
0
41
1
10
50.6480790638551
20
-4.46899072507469
30
0
41
1
10
50.4259050771147
20
-4.44161273922415
30
0
41
1
10
50.3146697658631
20
-4.42537386977045
30
0
41
1
10
50.1474657277303
20
-4.39714303112416
30
0
41
1
10
50.0916721847162
20
-4.38708737407941
30
0
41
1
10
49.9799439483994
20
-4.36567752464808
30
0
41
1
10
49.9240856894187
20
-4.35433712136873
30
0
41
1
10
49.6454278313164
20
-4.29463199955143
30
0
41
1
10
49.4238359677837
20
-4.23714430802286
30
0
41
1
10
48.981732785089
20
-4.10386472971169
30
0
41
1
10
48.7612755057768
20
-4.0280370910761
30
0
41
1
10
48.3195882823122
20
-3.85947313275028
30
0
41
1
10
48.0991005633154
20
-3.76628906787988
30
0
41
1
10
47.6575497526882
20
-3.56272195640597
30
0
41
1
10
47.4364545872847
20
-3.45235436488846
30
0
41
1
10
47.1030358855897
20
-3.27468874276286
30
0
41
1
10
46.9915896982279
20
-3.21343402944407
30
0
41
1
10
46.768004379574
20
-3.08702182806468
30
0
41
1
10
46.6565137401372
20
-3.0222355808001
30
0
41
1
10
46.4339153685357
20
-2.88977220091991
30
0
41
1
10
46.3228153113811
20
-2.8220898509006
30
0
41
1
10
46.1011906036944
20
-2.68367188205048
30
0
41
1
10
45.9906469310943
20
-2.6129532133827
30
0
41
1
10
45.6594554182442
20
-2.39666574288859
30
0
41
1
10
45.4392052276517
20
-2.24701327792698
30
0
41
1
10
44.9985444469013
20
-1.93819650727735
30
0
41
1
10
44.7781575948827
20
-1.77899765235591
30
0
41
1
10
44.4460804805547
20
-1.53464597053304
30
0
41
1
10
44.3350756278766
20
-1.45235093748505
30
0
41
1
10
44.1128248350197
20
-1.28557792130354
30
0
41
1
10
44.0015317426107
20
-1.20115501264968
30
0
41
1
10
43.8341759303441
20
-1.07313741012294
30
0
41
1
10
43.7782729994312
20
-1.03019117689686
30
0
41
1
10
43.6665662831435
20
-0.944053903090889
30
0
41
1
10
43.4992834100298
20
-0.814582175118233
30
0
41
1
10
43.3327220402022
20
-0.684453689987038
30
0
41
1
10
43.0002661314971
20
-0.423698020626091
30
0
41
1
10
42.7795297417808
20
-0.249181025996705
30
0
41
1
10
42.5036935808564
20
-0.0315139090022569
30
0
41
1
10
42.4485323465674
20
0.0119978478381597
30
0
41
1
10
42.3381416631666
20
0.0988754860456709
30
0
41
1
10
42.2829337282761
20
0.142268999191515
30
0
41
1
10
42.117365831631
20
0.272433792784653
30
0
41
1
10
42.0070180784162
20
0.359133301464055
30
0
41
1
10
41.6759095910573
20
0.618797414941895
30
0
41
1
10
41.4551271475121
20
0.791383134235019
30
0
41
1
10
41.2336387537846
20
0.962590828636394
30
0
0
SPLINE
5
167
100
AcDbEntity
8
1
62
256
6
ByLayer
370
18
48
1
60
0
100
AcDbSpline
70
4
71
3
72
40
73
36
40
0
40
0
40
0
40
0
40
0.0509195012721461
40
0.0509195012721461
40
0.157270890406658
40
0.157270890406658
40
0.210446584973913
40
0.210446584973913
40
0.263622279541168
40
0.263622279541168
40
0.316797974108423
40
0.316797974108423
40
0.369973668675678
40
0.369973668675678
40
0.423149363242933
40
0.423149363242933
40
0.476325057810188
40
0.476325057810188
40
0.529500752377443
40
0.529500752377443
40
0.582676446944698
40
0.582676446944698
40
0.635852141511953
40
0.635852141511953
40
0.689027836079208
40
0.689027836079208
40
0.795379225213717
40
0.795379225213717
40
0.848554919780972
40
0.848554919780972
40
0.901730614348227
40
0.901730614348227
40
0.954906308915482
40
0.954906308915482
40
1
40
1
40
1
40
1
41
1
10
41.2337330303701
20
0.962512719855454
30
0
41
1
10
41.1852471944968
20
0.985767721377329
30
0
41
1
10
41.132157413663
20
1.00384013212698
30
0
41
1
10
40.9577457052016
20
1.0411300963811
30
0
41
1
10
40.8240019550573
20
1.04134072198303
30
0
41
1
10
40.5975306561061
20
0.996446984880407
30
0
41
1
10
40.5191542794237
20
0.974167021315537
30
0
41
1
10
40.3559807761922
20
0.913331567302464
30
0
41
1
10
40.2705145862891
20
0.874418444120124
30
0
41
1
10
40.0948903553712
20
0.778631108533915
30
0
41
1
10
40.0061828733485
20
0.721813064479704
30
0
41
1
10
39.8281015693197
20
0.601535373960758
30
0
41
1
10
39.7386149443455
20
0.536951387843516
30
0
41
1
10
39.5586818292236
20
0.398216163140177
30
0
41
1
10
39.4682887904584
20
0.324029481606686
30
0
41
1
10
39.2908844829154
20
0.169137241436118
30
0
41
1
10
39.2033316995546
20
0.0880274588184022
30
0
41
1
10
39.0306162162883
20
-0.0818105896509849
30
0
41
1
10
38.9449964396748
20
-0.171045280954445
30
0
41
1
10
38.7784228191076
20
-0.355265821024631
30
0
41
1
10
38.6982413696724
20
-0.449335375221779
30
0
41
1
10
38.5438334683761
20
-0.641231706367734
30
0
41
1
10
38.4696037376301
20
-0.73905641454985
30
0
41
1
10
38.3270217528353
20
-0.938414142948517
30
0
41
1
10
38.258390704031
20
-1.04050498605383
30
0
41
1
10
38.0656467611655
20
-1.3450932676613
30
0
41
1
10
37.9520760032436
20
-1.54767669770277
30
0
41
1
10
37.801243371116
20
-1.85092994507909
30
0
41
1
10
37.758599990651
20
-1.9500581535516
30
0
41
1
10
37.6880908673
20
-2.14091665437368
30
0
41
1
10
37.6598553933762
20
-2.23336813201442
30
0
41
1
10
37.6156790447916
20
-2.41305523529323
30
0
41
1
10
37.5999106525221
20
-2.500064578658
30
0
41
1
10
37.5815672936743
20
-2.65184280688541
30
0
41
1
10
37.5771960983146
20
-2.71854089419943
30
0
41
1
10
37.576461365091
20
-2.78258800899573
30
0
0
SPLINE
5
168
100
AcDbEntity
8
1
62
256
6
ByLayer
370
18
48
1
60
0
100
AcDbSpline
70
4
71
3
72
66
73
62
40
0
40
0
40
0
40
0
40
0.0408279928768252
40
0.0408279928768252
40
0.0612419893152379
40
0.0612419893152379
40
0.0816559857536504
40
0.0816559857536504
40
0.122483978630476
40
0.122483978630476
40
0.142897975068887
40
0.142897975068887
40
0.163311971507298
40
0.163311971507298
40
0.244967957260943
40
0.244967957260943
40
0.265381953699356
40
0.265381953699356
40
0.285795950137769
40
0.285795950137769
40
0.306209946576181
40
0.306209946576181
40
0.326623943014594
40
0.326623943014594
40
0.408279928768244
40
0.408279928768244
40
0.449107921645068
40
0.449107921645068
40
0.469521918083481
40
0.469521918083481
40
0.489935914521895
40
0.489935914521895
40
0.510349910960308
40
0.510349910960308
40
0.530763907398721
40
0.530763907398721
40
0.571591900275548
40
0.571591900275548
40
0.653247886029201
40
0.653247886029201
40
0.694075878906028
40
0.694075878906028
40
0.714489875344442
40
0.714489875344442
40
0.734903871782857
40
0.734903871782857
40
0.775731864659686
40
0.775731864659686
40
0.796145861098101
40
0.796145861098101
40
0.816559857536515
40
0.816559857536515
40
0.857387850413342
40
0.857387850413342
40
0.898215843290168
40
0.898215843290168
40
0.939043836166995
40
0.939043836166995
40
0.979871829043821
40
0.979871829043821
40
1
40
1
40
1
40
1
41
1
10
37.5764690392341
20
-2.78259224348341
30
0
41
1
10
37.7072650440265
20
-2.86329208887784
30
0
41
1
10
37.8378042619027
20
-2.94187234200393
30
0
41
1
10
38.0332042959333
20
-3.05655058293917
30
0
41
1
10
38.0982709981035
20
-3.09424265846872
30
0
41
1
10
38.2282672097725
20
-3.16854993699198
30
0
41
1
10
38.2931980714691
20
-3.20516145346468
30
0
41
1
10
38.488523664895
20
-3.31271460478578
30
0
41
1
10
38.6191383314637
20
-3.38166611151578
30
0
41
1
10
38.8155225508202
20
-3.48111080322147
30
0
41
1
10
38.8810684533312
20
-3.51358651028326
30
0
41
1
10
39.0118732102099
20
-3.5769702036396
30
0
41
1
10
39.0771898980441
20
-3.60790836265656
30
0
41
1
10
39.4033591006694
20
-3.75886479984126
30
0
41
1
10
39.6629919466306
20
-3.86771760578301
30
0
41
1
10
39.9859344118959
20
-3.98904987485807
30
0
41
1
10
40.0504397772274
20
-4.01257806938074
30
0
41
1
10
40.1793103125741
20
-4.05813418995371
30
0
41
1
10
40.243662424954
20
-4.08016873261445
30
0
41
1
10
40.3723637641079
20
-4.12265443725076
30
0
41
1
10
40.4367432711428
20
-4.14308959843788
30
0
41
1
10
40.5656862385689
20
-4.18229309436109
30
0
41
1
10
40.6302320578059
20
-4.20107116512352
30
0
41
1
10
40.953281352105
20
-4.29089392214217
30
0
41
1
10
41.2126159418294
20
-4.34984128414638
30
0
41
1
10
41.603133379557
20
-4.41857611883438
30
0
41
1
10
41.7335416063081
20
-4.43820168546713
30
0
41
1
10
41.9295542311592
20
-4.46256612057414
30
0
41
1
10
41.9950015761113
20
-4.46984123223947
30
0
41
1
10
42.1254676832828
20
-4.48260977650642
30
0
41
1
10
42.1905597020708
20
-4.48811318482962
30
0
41
1
10
42.3204853241879
20
-4.49736224757987
30
0
41
1
10
42.3852973747321
20
-4.50110939296684
30
0
41
1
10
42.5147832629889
20
-4.50684102733862
30
0
41
1
10
42.5795519822294
20
-4.50882048235871
30
0
41
1
10
42.7738087055036
20
-4.51215407191395
30
0
41
1
10
42.9032344180147
20
-4.51090361962616
30
0
41
1
10
43.2913467407929
20
-4.49693210344776
30
0
41
1
10
43.5498713123684
20
-4.4740281407438
30
0
41
1
10
43.9376202597375
20
-4.41937981537373
30
0
41
1
10
44.0668509472871
20
-4.39776866730045
30
0
41
1
10
44.2607424725362
20
-4.3601946982252
30
0
41
1
10
44.3253752912569
20
-4.34680886864427
30
0
41
1
10
44.4545869068075
20
-4.31826768781977
30
0
41
1
10
44.5192091746908
20
-4.303125370516
30
0
41
1
10
44.7135815443009
20
-4.25524997792181
30
0
41
1
10
44.8437195371489
20
-4.22003283887364
30
0
41
1
10
45.039758328165
20
-4.16223995200502
30
0
41
1
10
45.1053200238309
20
-4.14212248916962
30
0
41
1
10
45.2362112575162
20
-4.10038461052363
30
0
41
1
10
45.3015610998956
20
-4.07875863077319
30
0
41
1
10
45.4973366792166
20
-4.01163982868047
30
0
41
1
10
45.6274969074882
20
-3.96391228059133
30
0
41
1
10
45.8872257029205
20
-3.86264821405845
30
0
41
1
10
46.0168321829417
20
-3.80913886937969
30
0
41
1
10
46.2754154953304
20
-3.69630667841969
30
0
41
1
10
46.4043261689231
20
-3.63693073977163
30
0
41
1
10
46.6617573989259
20
-3.51248368483687
30
0
41
1
10
46.7905831193862
20
-3.4476537799458
30
0
41
1
10
46.9832829866156
20
-3.34717971125497
30
0
41
1
10
47.0469651900072
20
-3.31339808264713
30
0
41
1
10
47.1107045068943
20
-3.27901651951947
30
0
0
SPLINE
5
169
100
AcDbEntity
8
1
62
256
6
ByLayer
370
18
48
1
60
0
100
AcDbSpline
70
4
71
3
72
16
73
12
40
0
40
0
40
0
40
0
40
0.0813045085149632
40
0.0813045085149632
40
0.310978381386222
40
0.310978381386222
40
0.54065225425748
40
0.54065225425748
40
0.770326127128739
40
0.770326127128739
40
1
40
1
40
1
40
1
41
1
10
60.7894670235929
20
4.51099967644228
30
0
41
1
10
60.8357428352111
20
4.51100196611918
30
0
41
1
10
60.8820322823201
20
4.51056191814843
30
0
41
1
10
61.0587940379068
20
4.50717762884327
30
0
41
1
10
61.1888540387741
20
4.50111660955162
30
0
41
1
10
61.4493835280412
20
4.48203645407838
30
0
41
1
10
61.5797597940516
20
4.46902644699472
30
0
41
1
10
61.8407233720447
20
4.43615611062916
30
0
41
1
10
61.9713237364266
20
4.41629643891048
30
0
41
1
10
62.2328852921423
20
4.3697748454521
30
0
41
1
10
62.363846069748
20
4.34311529416829
30
0
41
1
10
62.4949661177285
20
4.3130147994483
30
0
0
SPLINE
5
16A
100
AcDbEntity
8
1
62
256
6
ByLayer
370
18
48
1
60
0
100
AcDbSpline
70
4
71
3
72
24
73
20
40
0
40
0
40
0
40
0
40
0.125
40
0.125
40
0.249999999999999
40
0.249999999999999
40
0.374999999999999
40
0.374999999999999
40
0.499999999999999
40
0.499999999999999
40
0.624999999999999
40
0.624999999999999
40
0.749999999999998
40
0.749999999999998
40
0.812499999999999
40
0.812499999999999
40
0.874999999999999
40
0.874999999999999
40
1
40
1
40
1
40
1
41
1
10
62.4949661177285
20
4.3130147994483
30
0
41
1
10
62.5404499773921
20
4.30257332464157
30
0
41
1
10
62.5855457769717
20
4.29446533900875
30
0
41
1
10
62.6748231124932
20
4.28268654088541
30
0
41
1
10
62.7190052515231
20
4.27901488513498
30
0
41
1
10
62.8063514194561
20
4.27609143216662
30
0
41
1
10
62.8495159136921
20
4.27683722928177
30
0
41
1
10
62.9347407249181
20
4.28298993601135
30
0
41
1
10
62.9768009544855
20
4.28839081736658
30
0
41
1
10
63.0597380780797
20
4.30446644740775
30
0
41
1
10
63.1000408923215
20
4.31503440238106
30
0
41
1
10
63.1780676448694
20
4.34182359484498
30
0
41
1
10
63.2158139785583
20
4.35803158755837
30
0
41
1
10
63.2703846293976
20
4.38753903670781
30
0
41
1
10
63.2882329443293
20
4.39824794310803
30
0
41
1
10
63.3232008467608
20
4.42167413557584
30
0
41
1
10
63.3401458798929
20
4.43427593376791
30
0
41
1
10
63.3892676042203
20
4.47499328744402
30
0
41
1
10
63.4197515587808
20
4.50597849702527
30
0
41
1
10
63.4475940618914
20
4.54189203234097
30
0
0
SPLINE
5
16B
100
AcDbEntity
8
1
62
256
6
ByLayer
370
18
48
1
60
0
100
AcDbSpline
70
4
71
3
72
14
73
10
40
0
40
0
40
0
40
0
40
0.124999999999991
40
0.124999999999991
40
0.249999999999982
40
0.249999999999982
40
0.499999999999988
40
0.499999999999988
40
1
40
1
40
1
40
1
41
1
10
63.4475940618914
20
4.54189203234094
30
0
41
1
10
63.463123675654
20
4.56192339698114
30
0
41
1
10
63.4786933967146
20
4.58207321509815
30
0
41
1
10
63.509931735659
20
4.62270972318171
30
0
41
1
10
63.5255746318892
20
4.64308569353989
30
0
41
1
10
63.5724083943528
20
4.70365517454414
30
0
41
1
10
63.6035479549398
20
4.74347895427584
30
0
41
1
10
63.6967051321539
20
4.86111848589454
30
0
41
1
10
63.758479195863
20
4.93718088121293
30
0
41
1
10
63.8200000000001
20
5.01094223719477
30
0
0
SPLINE
5
16C
100
AcDbEntity
8
1
62
256
6
ByLayer
370
18
48
1
60
0
100
AcDbSpline
70
4
71
3
72
12
73
8
40
0
40
0
40
0
40
0
40
0.5
40
0.5
40
0.75
40
0.75
40
1
40
1
40
1
40
1
41
1
10
63.82
20
5.01094223719468
30
0
41
1
10
63.9625879230663
20
4.96242165452915
30
0
41
1
10
64.1048823331636
20
4.90899357364418
30
0
41
1
10
64.3177544446628
20
4.82161117311281
30
0
41
1
10
64.3886273918782
20
4.7912711688397
30
0
41
1
10
64.5302251676286
20
4.72815777381686
30
0
41
1
10
64.6008438783047
20
4.69543124594
30
0
41
1
10
64.6712255822725
20
4.66156901200984
30
0
0
SPLINE
5
16D
100
AcDbEntity
8
1
62
256
6
ByLayer
370
18
48
1
60
0
100
AcDbSpline
70
4
71
3
72
10
73
6
40
0
40
0
40
0
40
0
40
0.5
40
0.5
40
1
40
1
40
1
40
1
41
1
10
64.6712255822725
20
4.66156901200984
30
0
41
1
10
64.7226659905483
20
4.55499084401794
30
0
41
1
10
64.7743404420632
20
4.44839200354281
30
0
41
1
10
64.8781059180604
20
4.23547770710726
30
0
41
1
10
64.930188992827
20
4.12917573451222
30
0
41
1
10
64.982507702005
20
4.02304611666113
30
0
0
SPLINE
5
16E
100
AcDbEntity
8
1
62
256
6
ByLayer
370
18
48
1
60
0
100
AcDbSpline
70
4
71
3
72
34
73
30
40
0
40
0
40
0
40
0
40
0.124999999999957
40
0.124999999999957
40
0.187499999999936
40
0.187499999999936
40
0.249999999999914
40
0.249999999999914
40
0.374999999999871
40
0.374999999999871
40
0.437499999999868
40
0.437499999999868
40
0.499999999999866
40
0.499999999999866
40
0.6249999999999
40
0.6249999999999
40
0.687499999999917
40
0.687499999999917
40
0.749999999999934
40
0.749999999999934
40
0.812499999999951
40
0.812499999999951
40
0.84374999999996
40
0.84374999999996
40
0.874999999999968
40
0.874999999999968
40
0.937499999999984
40
0.937499999999984
40
1
40
1
40
1
40
1
41
1
10
64.982507702005
20
4.02304611666116
30
0
41
1
10
64.9971160468017
20
3.9934127775542
30
0
41
1
10
65.0140652215223
20
3.96559979564222
30
0
41
1
10
65.0420576374494
20
3.92587024330757
30
0
41
1
10
65.0518479022215
20
3.91294413909
30
0
41
1
10
65.0721657408065
20
3.88782918568972
30
0
41
1
10
65.0825820078613
20
3.87577408565903
30
0
41
1
10
65.1145177402391
20
3.84095994678529
30
0
41
1
10
65.1367167264995
20
3.81953597138721
30
0
41
1
10
65.171228336992
20
3.78986008819854
30
0
41
1
10
65.1829448457677
20
3.78037628388199
30
0
41
1
10
65.2067507826938
20
3.76227873786857
30
0
41
1
10
65.2187014822069
20
3.75376968351105
30
0
41
1
10
65.2546773554286
20
3.72983451165484
30
0
41
1
10
65.2788249282872
20
3.71597490006874
30
0
41
1
10
65.3152424221417
20
3.69864056448847
30
0
41
1
10
65.3274146516198
20
3.69344384259728
30
0
41
1
10
65.3518221440356
20
3.68436326649587
30
0
41
1
10
65.3639210861919
20
3.68053375947233
30
0
41
1
10
65.3876976404602
20
3.67448672942095
30
0
41
1
10
65.3994030056713
20
3.67225708351543
30
0
41
1
10
65.4166361814332
20
3.67028610814631
30
0
41
1
10
65.4223261748757
20
3.66985906377784
30
0
41
1
10
65.4335847154205
20
3.66951239906865
30
0
41
1
10
65.4391427982335
20
3.66959542133176
30
0
41
1
10
65.4553674850037
20
3.67066576241197
30
0
41
1
10
65.4656669300703
20
3.672462015413
30
0
41
1
10
65.4850422555577
20
3.67860596971957
30
0
41
1
10
65.4941745101893
20
3.68299829513987
30
0
41
1
10
65.5023159612778
20
3.68886837965297
30
0
0
SPLINE
5
16F
100
AcDbEntity
8
1
62
256
6
ByLayer
370
18
48
1
60
0
100
AcDbSpline
70
4
71
3
72
10
73
6
40
0
40
0
40
0
40
0
40
0.5
40
0.5
40
1
40
1
40
1
40
1
41
1
10
65.5023159612778
20
3.68886837965348
30
0
41
1
10
65.5704044011235
20
3.73796096670111
30
0
41
1
10
65.6380809614236
20
3.78340433544454
30
0
41
1
10
65.772794818884
20
3.86727090884557
30
0
41
1
10
65.8397521704333
20
3.90564510837578
30
0
41
1
10
65.9063367073842
20
3.94048305075253
30
0
0
SPLINE
5
170
100
AcDbEntity
8
1
62
256
6
ByLayer
370
18
48
1
60
0
100
AcDbSpline
70
4
71
3
72
12
73
8
40
0
40
0
40
0
40
0
40
0.5
40
0.5
40
0.75
40
0.75
40
1
40
1
40
1
40
1
41
1
10
65.906336707378
20
3.94048305076288
30
0
41
1
10
66.0172088598924
20
3.86522944916686
30
0
41
1
10
66.1280499199989
20
3.78734089324507
30
0
41
1
10
66.2943341092744
20
3.66654987965953
30
0
41
1
10
66.3497659899236
20
3.62562627964837
30
0
41
1
10
66.4606460868148
20
3.54245186698111
30
0
41
1
10
66.5161179027319
20
3.50018247635347
30
0
41
1
10
66.5715505796128
20
3.45728261990271
30
0
0
SPLINE
5
171
100
AcDbEntity
8
1
62
256
6
ByLayer
370
18
48
1
60
0
100
AcDbSpline
70
4
71
3
72
14
73
10
40
0
40
0
40
0
40
0
40
0.25
40
0.25
40
0.5
40
0.5
40
0.75
40
0.75
40
1
40
1
40
1
40
1
41
1
10
66.5715505796128
20
3.45728261990271
30
0
41
1
10
66.6107675094222
20
3.37819325512967
30
0
41
1
10
66.6501431144082
20
3.29949712438659
30
0
41
1
10
66.729138725918
20
3.14313005923103
30
0
41
1
10
66.7687565810977
20
3.06546115151519
30
0
41
1
10
66.8482708848295
20
2.91118126762407
30
0
41
1
10
66.8881683834711
20
2.83457097565844
30
0
41
1
10
66.9681844360166
20
2.68259830331189
30
0
41
1
10
67.0083144570057
20
2.60721393857401
30
0
41
1
10
67.0485825994804
20
2.53243779671115
30
0
0
SPLINE
5
172
100
AcDbEntity
8
1
62
256
6
ByLayer
370
18
48
1
60
0
100
AcDbSpline
70
4
71
3
72
34
73
30
40
0
40
0
40
0
40
0
40
0.124999999999981
40
0.124999999999981
40
0.187499999999971
40
0.187499999999971
40
0.24999999999996
40
0.24999999999996
40
0.37499999999994
40
0.37499999999994
40
0.43749999999993
40
0.43749999999993
40
0.49999999999992
40
0.49999999999992
40
0.624999999999938
40
0.624999999999938
40
0.687499999999966
40
0.687499999999966
40
0.749999999999994
40
0.749999999999994
40
0.812500000000023
40
0.812500000000023
40
0.843750000000018
40
0.843750000000018
40
0.875000000000014
40
0.875000000000014
40
0.937500000000007
40
0.937500000000007
40
1
40
1
40
1
40
1
41
1
10
67.0485825994804
20
2.53243779671115
30
0
41
1
10
67.0632020182365
20
2.50529018910683
30
0
41
1
10
67.080165708509
20
2.47868325526062
30
0
41
1
10
67.108182048221
20
2.43938737630239
30
0
41
1
10
67.1179819183137
20
2.42636743216934
30
0
41
1
10
67.1383140717145
20
2.40063337740594
30
0
41
1
10
67.1487372995539
20
2.38805421941413
30
0
41
1
10
67.180693381262
20
2.35108687044311
30
0
41
1
10
67.2029053175809
20
2.32746030571207
30
0
41
1
10
67.2374353612443
20
2.29339327287838
30
0
41
1
10
67.2491611499123
20
2.28225817170255
30
0
41
1
10
67.2729712353743
20
2.26049566370588
30
0
41
1
10
67.2849237147985
20
2.24998783679254
30
0
41
1
10
67.3209021261868
20
2.2195551812722
30
0
41
1
10
67.3450469491508
20
2.20070341885037
30
0
41
1
10
67.3814482947821
20
2.17474715529156
30
0
41
1
10
67.3936142725572
20
2.16648687052415
30
0
41
1
10
67.4180146690067
20
2.15085426150526
30
0
41
1
10
67.4300995131956
20
2.1435786034389
30
0
41
1
10
67.4538602072541
20
2.13028250725574
30
0
41
1
10
67.4655581294619
20
2.12424679780528
30
0
41
1
10
67.4827799438872
20
2.11624765813221
30
0
41
1
10
67.4884661331459
20
2.11375782071764
30
0
41
1
10
67.4997170981934
20
2.10916727200018
30
0
41
1
10
67.5052691845365
20
2.10707323995808
30
0
41
1
10
67.5214783725812
20
2.10151642257065
30
0
41
1
10
67.5317686832185
20
2.09873954696278
30
0
41
1
10
67.551128695131
20
2.09537157720808
30
0
41
1
10
67.5602544509968
20
2.09478837826805
30
0
41
1
10
67.5683916347538
20
2.09558422580835
30
0
0
SPLINE
5
173
100
AcDbEntity
8
1
62
256
6
ByLayer
370
18
48
1
60
0
100
AcDbSpline
70
4
71
3
72
34
73
30
40
0
40
0
40
0
40
0
40
0.125000000000012
40
0.125000000000012
40
0.187500000000017
40
0.187500000000017
40
0.250000000000022
40
0.250000000000022
40
0.375000000000033
40
0.375000000000033
40
0.437500000000057
40
0.437500000000057
40
0.500000000000081
40
0.500000000000081
40
0.625000000000089
40
0.625000000000089
40
0.687500000000093
40
0.687500000000093
40
0.750000000000098
40
0.750000000000098
40
0.812500000000102
40
0.812500000000102
40
0.843750000000086
40
0.843750000000086
40
0.875000000000069
40
0.875000000000069
40
0.937500000000035
40
0.937500000000035
40
1
40
1
40
1
40
1
41
1
10
69.1146466924515
20
0.715968825055938
30
0
41
1
10
69.1292793509933
20
0.694830147742152
30
0
41
1
10
69.1462604570939
20
0.672873778769201
30
0
41
1
10
69.1743052465042
20
0.6390914805568
30
0
41
1
10
69.1841161679339
20
0.627659700549714
30
0
41
1
10
69.2044657146278
20
0.604627543732761
30
0
41
1
10
69.214897266357
20
0.593146575170749
30
0
41
1
10
69.2468768157858
20
0.558790353989167
30
0
41
1
10
69.2691022900491
20
0.536001862276322
30
0
41
1
10
69.3036487428108
20
0.501921952609621
30
0
41
1
10
69.3153824286613
20
0.490565153581031
30
0
41
1
10
69.3391937631391
20
0.467931745333431
30
0
41
1
10
69.3511463555982
20
0.456773425290606
30
0
41
1
10
69.3871236871176
20
0.423747407379892
30
0
41
1
10
69.4112649289924
20
0.402320067944345
30
0
41
1
10
69.4476656331268
20
0.371086005314965
30
0
41
1
10
69.4598312720674
20
0.360827593811052
30
0
41
1
10
69.4842245936657
20
0.340646553038283
30
0
41
1
10
69.4962917695619
20
0.33085740371871
30
0
41
1
10
69.520030632304
20
0.312010776671997
30
0
41
1
10
69.5317182919689
20
0.302939221990925
30
0
41
1
10
69.5489254344281
20
0.289932392954995
30
0
41
1
10
69.5546068550165
20
0.285697330328645
30
0
41
1
10
69.5658485076306
20
0.277448121747625
30
0
41
1
10
69.5713942647204
20
0.273445154968954
30
0
41
1
10
69.5875869226215
20
0.261971531101949
30
0
41
1
10
69.5978675537658
20
0.254975931695412
30
0
41
1
10
69.617211155443
20
0.242523103326363
30
0
41
1
10
69.6263300012308
20
0.237036161189366
30
0
41
1
10
69.6344629293349
20
0.232651235842354
30
0
0
SPLINE
5
174
100
AcDbEntity
8
1
62
256
6
ByLayer
370
18
48
1
60
0
100
AcDbSpline
70
4
71
3
72
14
73
10
40
0
40
0
40
0
40
0
40
0.25
40
0.25
40
0.5
40
0.5
40
0.75
40
0.75
40
1
40
1
40
1
40
1
41
1
10
69.6344629293349
20
0.232651235843065
30
0
41
1
10
69.6902480269435
20
0.202574308399676
30
0
41
1
10
69.7457513695263
20
0.16987752563864
30
0
41
1
10
69.8563057930065
20
0.0995117220111865
30
0
41
1
10
69.9113529368334
20
0.0618493125279826
30
0
41
1
10
70.0208762886309
20
-0.0182087948069807
30
0
41
1
10
70.0754028778877
20
-0.0606423084891219
30
0
41
1
10
70.1838938793856
20
-0.150075288715641
30
0
41
1
10
70.2378493230445
20
-0.197063765215688
30
0
41
1
10
70.2915594824188
20
-0.246277070311606
30
0
0
SPLINE
5
175
100
AcDbEntity
8
1
62
256
6
ByLayer
370
18
48
1
60
0
100
AcDbSpline
70
4
71
3
72
8
73
4
40
0
40
0
40
0
40
0
40
1
40
1
40
1
40
1
41
1
10
70.5014896993513
20
-0.480630468887313
30
0
41
1
10
70.4314642295059
20
-0.402580365743233
30
0
41
1
10
70.361489803738
20
-0.324460492115264
30
0
41
1
10
70.2915594824188
20
-0.246277070311578
30
0
0
SPLINE
5
176
100
AcDbEntity
8
1
62
256
6
ByLayer
370
18
48
1
60
0
100
AcDbSpline
70
4
71
3
72
14
73
10
40
0
40
0
40
0
40
0
40
0.25
40
0.25
40
0.5
40
0.5
40
0.75
40
0.75
40
1
40
1
40
1
40
1
41
1
10
70.5014896993513
20
-0.480630468887313
30
0
41
1
10
70.5570067451436
20
-0.550083138957461
30
0
41
1
10
70.6127607863811
20
-0.617089716949039
30
0
41
1
10
70.7248440838422
20
-0.74615416255682
30
0
41
1
10
70.7812018865107
20
-0.80824131131871
30
0
41
1
10
70.8944352589601
20
-0.927211923316378
30
0
41
1
10
70.9513227024904
20
-0.984109576719135
30
0
41
1
10
71.0656413835229
20
-1.09253112826079
30
0
41
1
10
71.1230404557778
20
-1.14403233242999
30
0
41
1
10
71.1807225586407
20
-1.19282087454817
30
0
0
SPLINE
5
177
100
AcDbEntity
8
1
62
256
6
ByLayer
370
18
48
1
60
0
100
AcDbSpline
70
4
71
3
72
32
73
28
40
0
40
0
40
0
40
0
40
0.125000000000042
40
0.125000000000042
40
0.187500000000047
40
0.187500000000047
40
0.250000000000053
40
0.250000000000053
40
0.375000000000063
40
0.375000000000063
40
0.437500000000069
40
0.437500000000069
40
0.500000000000075
40
0.500000000000075
40
0.625000000000086
40
0.625000000000086
40
0.687500000000072
40
0.687500000000072
40
0.750000000000057
40
0.750000000000057
40
0.812500000000043
40
0.812500000000043
40
0.875000000000029
40
0.875000000000029
40
0.937500000000014
40
0.937500000000014
40
1
40
1
40
1
40
1
41
1
10
71.180722558641
20
-1.1928208745484
30
0
41
1
10
71.1953655869605
20
-1.20520620671294
30
0
41
1
10
71.2123604555755
20
-1.21967026738426
30
0
41
1
10
71.240428220441
20
-1.24357340649723
30
0
41
1
10
71.2502480124628
20
-1.25194018501276
30
0
41
1
10
71.2706123195829
20
-1.26930024450542
30
0
41
1
10
71.2810509533981
20
-1.27820336303941
30
0
41
1
10
71.3130507405498
20
-1.3055223165841
30
0
41
1
10
71.3352883549792
20
-1.3245389886018
30
0
41
1
10
71.3698508077484
20
-1.35424510910306
30
0
41
1
10
71.381592160123
20
-1.36436152162781
30
0
41
1
10
71.4054062054703
20
-1.38495357299865
30
0
41
1
10
71.4173599078651
20
-1.39532623428531
30
0
41
1
10
71.453340568729
20
-1.42669293419607
30
0
41
1
10
71.4774856960001
20
-1.44793106835144
30
0
41
1
10
71.5138867822038
20
-1.48042290226115
30
0
41
1
10
71.5260514822303
20
-1.49136012838682
30
0
41
1
10
71.5504398440385
20
-1.51348928826411
30
0
41
1
10
71.5624908900422
20
-1.52452493305154
30
0
41
1
10
71.5862080701314
20
-1.54648803146651
30
0
41
1
10
71.5978843240673
20
-1.55742428302318
30
0
41
1
10
71.6208054512884
20
-1.57920209189245
30
0
41
1
10
71.6321298718188
20
-1.59012273934332
30
0
41
1
10
71.65369630692
20
-1.61132369259707
30
0
41
1
10
71.6639664125909
20
-1.62162754145064
30
0
41
1
10
71.683291914267
20
-1.64153914227171
30
0
41
1
10
71.6924029873989
20
-1.65121001928034
30
0
41
1
10
71.7005306781135
20
-1.66019770836152
30
0
0
SPLINE
5
178
100
AcDbEntity
8
1
62
256
6
ByLayer
370
18
48
1
60
0
100
AcDbSpline
70
4
71
3
72
14
73
10
40
0
40
0
40
0
40
0
40
0.25
40
0.25
40
0.5
40
0.5
40
0.75
40
0.75
40
1
40
1
40
1
40
1
41
1
10
71.7005306781134
20
-1.66019770836087
30
0
41
1
10
71.7563351295589
20
-1.72190687970496
30
0
41
1
10
71.8118565338914
20
-1.78578462582624
30
0
41
1
10
71.9224386683619
20
-1.91768062684318
30
0
41
1
10
71.9775033990149
20
-1.98569726423628
30
0
41
1
10
72.0870534141085
20
-2.12549832826534
30
0
41
1
10
72.1415885898458
20
-2.19734629542347
30
0
41
1
10
72.2501013594241
20
-2.34461085006527
30
0
41
1
10
72.3040655727419
20
-2.42000748775155
30
0
41
1
10
72.3577828518722
20
-2.49712129824374
30
0
0
SPLINE
5
179
100
AcDbEntity
8
1
62
256
6
ByLayer
370
18
48
1
60
0
100
AcDbSpline
70
4
71
3
72
8
73
4
40
0
40
0
40
0
40
0
40
1
40
1
40
1
40
1
41
1
10
72.5677004935034
20
-2.71168751169512
30
0
41
1
10
72.4976774013425
20
-2.64073551214514
30
0
41
1
10
72.427708491598
20
-2.56921028782816
30
0
41
1
10
72.3577828518721
20
-2.49712129824368
30
0
0
SPLINE
5
17A
100
AcDbEntity
8
1
62
256
6
ByLayer
370
18
48
1
60
0
100
AcDbSpline
70
4
71
3
72
14
73
10
40
0
40
0
40
0
40
0
40
0.25
40
0.25
40
0.5
40
0.5
40
0.75
40
0.75
40
1
40
1
40
1
40
1
41
1
10
72.5677004935027
20
-2.7116875116902
30
0
41
1
10
72.6232065914775
20
-2.74285452453333
30
0
41
1
10
72.678947918344
20
-2.7711994765009
30
0
41
1
10
72.7910041608281
20
-2.82219909939204
30
0
41
1
10
72.8473477380168
20
-2.84486282305914
30
0
41
1
10
72.960554490384
20
-2.88436510558938
30
0
41
1
10
73.0174293816909
20
-2.90120834176324
30
0
41
1
10
73.1317261098258
20
-2.92897362540057
30
0
41
1
10
73.1891149277343
20
-2.93989807835683
30
0
41
1
10
73.2467870274912
20
-2.94787639132875
30
0
0
SPLINE
5
17B
100
AcDbEntity
8
1
62
256
6
ByLayer
370
18
48
1
60
0
100
AcDbSpline
70
4
71
3
72
32
73
28
40
0
40
0
40
0
40
0
40
0.12500000000002
40
0.12500000000002
40
0.187500000000031
40
0.187500000000031
40
0.250000000000042
40
0.250000000000042
40
0.375000000000068
40
0.375000000000068
40
0.437500000000062
40
0.437500000000062
40
0.500000000000055
40
0.500000000000055
40
0.625000000000042
40
0.625000000000042
40
0.687500000000035
40
0.687500000000035
40
0.750000000000028
40
0.750000000000028
40
0.812500000000021
40
0.812500000000021
40
0.875000000000014
40
0.875000000000014
40
0.937500000000007
40
0.937500000000007
40
1
40
1
40
1
40
1
41
1
10
73.2467870274915
20
-2.94787639132878
30
0
41
1
10
73.2614439911464
20
-2.94990402416596
30
0
41
1
10
73.2784574826834
20
-2.95501023068454
30
0
41
1
10
73.3065568123689
20
-2.96595748239036
30
0
41
1
10
73.3163884856125
20
-2.9701828039743
30
0
41
1
10
73.3367743544912
20
-2.9796417188079
30
0
41
1
10
73.3472235636502
20
-2.98482489355706
30
0
41
1
10
73.3792542064889
20
-3.00160473527023
30
0
41
1
10
73.4015112333907
20
-3.01441535220525
30
0
41
1
10
73.4361002598228
20
-3.0359495242364
30
0
41
1
10
73.4478530251212
20
-3.04353219018935
30
0
41
1
10
73.4716755179082
20
-3.05945419859032
30
0
41
1
10
73.4836328333583
20
-3.0677175765363
30
0
41
1
10
73.5196216621578
20
-3.0934251488402
30
0
41
1
10
73.5437687201989
20
-3.11177148262868
30
0
41
1
10
73.5801642724122
20
-3.1413861238641
30
0
41
1
10
73.5923254473342
20
-3.15161024497391
30
0
41
1
10
73.6167015182496
20
-3.17287039080819
30
0
41
1
10
73.6287295249032
20
-3.18374348342758
30
0
41
1
10
73.6524157174656
20
-3.20601786880067
30
0
41
1
10
73.6640762518106
20
-3.21742016749926
30
0
41
1
10
73.6869670304019
20
-3.2408461770589
30
0
41
1
10
73.6982761043436
20
-3.2529611490221
30
0
41
1
10
73.7198130389252
20
-3.27734144522904
30
0
41
1
10
73.7300711422385
20
-3.28962760886847
30
0
41
1
10
73.7493774933372
20
-3.31443143177154
30
0
41
1
10
73.7584811817778
20
-3.32703716958065
30
0
41
1
10
73.7666043218324
20
-3.33946412556122
30
0
0
SPLINE
5
17C
100
AcDbEntity
8
1
62
256
6
ByLayer
370
18
48
1
60
0
100
AcDbSpline
70
4
71
3
72
14
73
10
40
0
40
0
40
0
40
0
40
0.25
40
0.25
40
0.5
40
0.5
40
0.75
40
0.75
40
1
40
1
40
1
40
1
41
1
10
73.7666043218323
20
-3.33946412556071
30
0
41
1
10
73.8224196270263
20
-3.42485159100158
30
0
41
1
10
73.8779524450087
20
-3.51166912990431
30
0
41
1
10
73.9885544333114
20
-3.68803179266783
30
0
41
1
10
74.0436336498676
20
-3.7775875258618
30
0
41
1
10
74.1532083762179
20
-3.95899938031374
30
0
41
1
10
74.2077521950264
20
-4.05093346758122
30
0
41
1
10
74.3162878383687
20
-4.23690713580493
30
0
41
1
10
74.3702625012759
20
-4.33091590580972
30
0
41
1
10
74.4239890713982
20
-4.42590887460557
30
0
0
SPLINE
5
17D
100
AcDbEntity
8
1
62
256
6
ByLayer
370
18
48
1
60
0
100
AcDbSpline
70
4
71
3
72
8
73
4
40
0
40
0
40
0
40
0
40
1
40
1
40
1
40
1
41
1
10
74.633916505437
20
-4.59298349346591
30
0
41
1
10
74.5638900069878
20
-4.53828951188135
30
0
41
1
10
74.4939175355419
20
-4.48259552379227
30
0
41
1
10
74.4239890713982
20
-4.42590887460554
30
0
0
SPLINE
5
17E
100
AcDbEntity
8
1
62
256
6
ByLayer
370
18
48
1
60
0
100
AcDbSpline
70
4
71
3
72
14
73
10
40
0
40
0
40
0
40
0
40
0.25
40
0.25
40
0.5
40
0.5
40
0.75
40
0.75
40
1
40
1
40
1
40
1
41
1
10
74.633916505437
20
-4.59298349346591
30
0
41
1
10
74.6894153560081
20
-4.58190356313148
30
0
41
1
10
74.7451516870392
20
-4.56800000778915
30
0
41
1
10
74.857194230003
20
-4.53450983260009
30
0
41
1
10
74.9135281288946
20
-4.51491050838018
30
0
41
1
10
75.0267099476056
20
-4.47003504055502
30
0
41
1
10
75.08356975745
20
-4.44475460292327
30
0
41
1
10
75.197837384821
20
-4.38849300700824
30
0
41
1
10
75.2552123712907
20
-4.35753519342524
30
0
41
1
10
75.3128738421699
20
-4.32376707854567
30
0
0
SPLINE
5
17F
100
AcDbEntity
8
1
62
256
6
ByLayer
370
18
48
1
60
0
100
AcDbSpline
70
4
71
3
72
32
73
28
40
0
40
0
40
0
40
0
40
0.125000000000005
40
0.125000000000005
40
0.187499999999992
40
0.187499999999992
40
0.249999999999979
40
0.249999999999979
40
0.374999999999951
40
0.374999999999951
40
0.437499999999956
40
0.437499999999956
40
0.499999999999961
40
0.499999999999961
40
0.624999999999972
40
0.624999999999972
40
0.687499999999977
40
0.687499999999977
40
0.749999999999981
40
0.749999999999981
40
0.812499999999986
40
0.812499999999986
40
0.874999999999991
40
0.874999999999991
40
0.937499999999995
40
0.937499999999995
40
1
40
1
40
1
40
1
41
1
10
75.3128738421699
20
-4.3237670785457
30
0
41
1
10
75.3275366761566
20
-4.31518012689543
30
0
41
1
10
75.344557655201
20
-4.3102731027339
30
0
41
1
10
75.3726691036105
20
-4.30685382849236
30
0
41
1
10
75.3825038736151
20
-4.30639196267475
30
0
41
1
10
75.4029015099576
20
-4.30672974168141
30
0
41
1
10
75.4133562544814
20
-4.3075244563874
30
0
41
1
10
75.4454024189677
20
-4.31160034120779
30
0
41
1
10
75.4676683648076
20
-4.31655137043421
30
0
41
1
10
75.5022684020059
20
-4.32713162892779
30
0
41
1
10
75.5140246187226
20
-4.33119810826074
30
0
41
1
10
75.5378524157326
20
-4.34039776037633
30
0
41
1
10
75.5498117802798
20
-4.3454860657379
30
0
41
1
10
75.5858047594967
20
-4.36221588148109
30
0
41
1
10
75.609951186157
20
-4.37529858013679
30
0
41
1
10
75.6463453739123
20
-4.39819665186937
30
0
41
1
10
75.6585067516679
20
-4.40638056720002
30
0
41
1
10
75.6828816644146
20
-4.42400536787011
30
0
41
1
10
75.6949050248885
20
-4.433309249904
30
0
41
1
10
75.7185830529961
20
-4.45299652285726
30
0
41
1
10
75.7302381702666
20
-4.46337864592951
30
0
41
1
10
75.753113819245
20
-4.48539507685956
30
0
41
1
10
75.7644131141818
20
-4.49712177569711
30
0
41
1
10
75.7859290207953
20
-4.52150058532752
30
0
41
1
10
75.7961750545369
20
-4.53416449386998
30
0
41
1
10
75.8154568075041
20
-4.56061375417556
30
0
41
1
10
75.8245485228603
20
-4.5745012013293
30
0
41
1
10
75.8326643473529
20
-4.58873832939008
30
0
0
SPLINE
5
180
100
AcDbEntity
8
1
62
256
6
ByLayer
370
18
48
1
60
0
100
AcDbSpline
70
4
71
3
72
12
73
8
40
0
40
0
40
0
40
0
40
0.25
40
0.25
40
0.5
40
0.5
40
1
40
1
40
1
40
1
41
1
10
75.8326643473529
20
-4.58873832938977
30
0
41
1
10
75.8816413847428
20
-4.67465595291503
30
0
41
1
10
75.9303970074898
20
-4.76098289343719
30
0
41
1
10
76.0275415378402
20
-4.93439106050809
30
0
41
1
10
76.0759485718109
20
-5.02150392761214
30
0
41
1
10
76.2204991178606
20
-5.28351231469992
30
0
41
1
10
76.316086300072
20
-5.45929389695559
30
0
41
1
10
76.4108056750951
20
-5.63541330696418
30
0
0
SPLINE
5
181
100
AcDbEntity
8
1
62
256
6
ByLayer
370
18
48
1
60
0
100
AcDbSpline
70
4
71
3
72
12
73
8
40
0
40
0
40
0
40
0
40
0.24999999999999
40
0.24999999999999
40
0.49999999999998
40
0.49999999999998
40
1
40
1
40
1
40
1
41
1
10
76.4108056750951
20
-5.63541330696418
30
0
41
1
10
76.4467197008454
20
-5.64597725084468
30
0
41
1
10
76.4827220014615
20
-5.65613759115931
30
0
41
1
10
76.5549094035246
20
-5.67564294007312
30
0
41
1
10
76.5910858111157
20
-5.68498464315067
30
0
41
1
10
76.6995125766607
20
-5.7116865599846
30
0
41
1
10
76.771787068452
20
-5.72775831530234
30
0
41
1
10
76.8440666584785
20
-5.74212290234684
30
0
0
SPLINE
5
182
100
AcDbEntity
8
1
62
256
6
ByLayer
370
18
48
1
60
0
100
AcDbSpline
70
4
71
3
72
12
73
8
40
0
40
0
40
0
40
0
40
0.249999999999997
40
0.249999999999997
40
0.499999999999994
40
0.499999999999994
40
1
40
1
40
1
40
1
41
1
10
76.8440666584785
20
-5.74212290234681
30
0
41
1
10
76.887961883965
20
-5.69814169528135
30
0
41
1
10
76.9320235698931
20
-5.65264872940946
30
0
41
1
10
77.0205285965629
20
-5.55862701217541
30
0
41
1
10
77.0649833308874
20
-5.51008454649917
30
0
41
1
10
77.19871416641
20
-5.36019128738272
30
0
41
1
10
77.2884503467739
20
-5.25446097964266
30
0
41
1
10
77.3789472498497
20
-5.14298107095348
30
0
0
SPLINE
5
183
100
AcDbEntity
8
1
62
256
6
ByLayer
370
18
48
1
60
0
100
AcDbSpline
70
4
71
3
72
32
73
28
40
0
40
0
40
0
40
0
40
0.124999999999992
40
0.124999999999992
40
0.187499999999972
40
0.187499999999972
40
0.249999999999953
40
0.249999999999953
40
0.374999999999916
40
0.374999999999916
40
0.437499999999896
40
0.437499999999896
40
0.499999999999877
40
0.499999999999877
40
0.624999999999878
40
0.624999999999878
40
0.687499999999898
40
0.687499999999898
40
0.749999999999918
40
0.749999999999918
40
0.812499999999939
40
0.812499999999939
40
0.874999999999959
40
0.874999999999959
40
0.93749999999998
40
0.93749999999998
40
1
40
1
40
1
40
1
41
1
10
77.3789472498497
20
-5.14298107095311
30
0
41
1
10
77.3936223360379
20
-5.12490335544399
30
0
41
1
10
77.4106593074101
20
-5.11063559433509
30
0
41
1
10
77.4387967707192
20
-5.09332366320615
30
0
41
1
10
77.4486420065634
20
-5.08824571501242
30
0
41
1
10
77.4690544679404
20
-5.07944302800905
30
0
41
1
10
77.4795163182664
20
-5.07575923278503
30
0
41
1
10
77.5115827060503
20
-5.06664363278756
30
0
41
1
10
77.5338606704081
20
-5.06312304275767
30
0
41
1
10
77.5684760794265
20
-5.06142552218881
30
0
41
1
10
77.5802398433723
20
-5.06146516847855
30
0
41
1
10
77.6040687258642
20
-5.06278336473969
30
0
41
1
10
77.6160283232274
20
-5.06405366764835
30
0
41
1
10
77.6520215305087
20
-5.06968679975907
30
0
41
1
10
77.6761681326496
20
-5.07584222088113
30
0
41
1
10
77.712560221121
20
-5.08910809977544
30
0
41
1
10
77.7247270021676
20
-5.09421198897917
30
0
41
1
10
77.7490845090971
20
-5.10594939869912
30
0
41
1
10
77.7610990242778
20
-5.11249776870167
30
0
41
1
10
77.7847588080041
20
-5.12708016705625
30
0
41
1
10
77.7964044954577
20
-5.13511245359695
30
0
41
1
10
77.8192608274229
20
-5.15289405207469
30
0
41
1
10
77.8305495435527
20
-5.16272445453237
30
0
41
1
10
77.8520433104672
20
-5.18395478584094
30
0
41
1
10
77.862279684461
20
-5.19535907842487
30
0
41
1
10
77.8815455859111
20
-5.22003175150186
30
0
41
1
10
77.8906310073799
20
-5.23340218422808
30
0
41
1
10
77.8987432367718
20
-5.24760039150638
30
0
0
SPLINE
5
184
100
AcDbEntity
8
1
62
256
6
ByLayer
370
18
48
1
60
0
100
AcDbSpline
70
4
71
3
72
10
73
6
40
0
40
0
40
0
40
0
40
0.5
40
0.5
40
1
40
1
40
1
40
1
41
1
10
77.8987432367718
20
-5.24760039150627
30
0
41
1
10
77.9531947387709
20
-5.34290264131289
30
0
41
1
10
78.0073760324181
20
-5.43777645260087
30
0
41
1
10
78.1152842152485
20
-5.62663976962637
30
0
41
1
10
78.1690287701831
20
-5.72065894803032
30
0
41
1
10
78.222495596338
20
-5.8140589899925
30
0
0
SPLINE
5
185
100
AcDbEntity
8
1
62
256
6
ByLayer
370
18
48
1
60
0
100
AcDbSpline
70
4
71
3
72
14
73
10
40
0
40
0
40
0
40
0
40
0.526281119589909
40
0.526281119589909
40
0.789421679384864
40
0.789421679384864
40
0.920991959282331
40
0.920991959282331
40
1
40
1
40
1
40
1
41
1
10
78.222495596338
20
-5.81405898999247
30
0
41
1
10
78.3922408076649
20
-5.79850029226694
30
0
41
1
10
78.5634889512855
20
-5.774151074434
30
0
41
1
10
78.8230510268025
20
-5.72422416568239
30
0
41
1
10
78.9100227844738
20
-5.70534633478547
30
0
41
1
10
79.0412143519418
20
-5.67364017215021
30
0
41
1
10
79.0849799121222
20
-5.66252708195063
30
0
41
1
10
79.1549878248361
20
-5.64390366683153
30
0
41
1
10
79.181252869653
20
-5.63672596716799
30
0
41
1
10
79.2075168579149
20
-5.62935930892931
30
0
0
SPLINE
5
186
100
AcDbEntity
8
1
62
256
6
ByLayer
370
18
48
1
60
0
100
AcDbSpline
70
4
71
3
72
8
73
4
40
0
40
0
40
0
40
0
40
1
40
1
40
1
40
1
41
1
10
79.2599341067576
20
-5.61440619502974
30
0
41
1
10
79.3213065633789
20
-5.51147404914525
30
0
41
1
10
79.3829824065784
20
-5.40673156263654
30
0
41
1
10
79.445018144461
20
-5.30020851816988
30
0
0
SPLINE
5
187
100
AcDbEntity
8
1
62
256
6
ByLayer
370
18
48
1
60
0
100
AcDbSpline
70
4
71
3
72
32
73
28
40
0
40
0
40
0
40
0
40
0.125000000000011
40
0.125000000000011
40
0.187500000000017
40
0.187500000000017
40
0.250000000000022
40
0.250000000000022
40
0.374999999999998
40
0.374999999999998
40
0.437499999999986
40
0.437499999999986
40
0.499999999999975
40
0.499999999999975
40
0.624999999999951
40
0.624999999999951
40
0.68749999999996
40
0.68749999999996
40
0.749999999999968
40
0.749999999999968
40
0.812499999999976
40
0.812499999999976
40
0.874999999999984
40
0.874999999999984
40
0.937499999999992
40
0.937499999999992
40
1
40
1
40
1
40
1
41
1
10
79.4450181444641
20
-5.30020851816892
30
0
41
1
10
79.4597048702729
20
-5.27498959114737
30
0
41
1
10
79.4767576244266
20
-5.25321506100391
30
0
41
1
10
79.5049220433545
20
-5.22426066591623
30
0
41
1
10
79.5147767873949
20
-5.21522680433151
30
0
41
1
10
79.5352095670663
20
-5.19842829222426
30
0
41
1
10
79.5456813084171
20
-5.19074595498842
30
0
41
1
10
79.5777762879135
20
-5.16962942403543
30
0
41
1
10
79.6000718743461
20
-5.15810162073274
30
0
41
1
10
79.6347105496467
20
-5.14436076856606
30
0
41
1
10
79.6464834925011
20
-5.14037204937364
30
0
41
1
10
79.6703205559431
20
-5.13365342659165
30
0
41
1
10
79.6822834651739
20
-5.13094909929384
30
0
41
1
10
79.7182835844691
20
-5.12477986087049
30
0
41
1
10
79.7424307465135
20
-5.12322736841847
30
0
41
1
10
79.7788153594653
20
-5.12516264854773
30
0
41
1
10
79.7909840661346
20
-5.12652749970439
30
0
41
1
10
79.8153175925679
20
-5.13087292258089
30
0
41
1
10
79.8273194135344
20
-5.13382331914025
30
0
41
1
10
79.850953405306
20
-5.14141911240472
30
0
41
1
10
79.8625860230561
20
-5.14606254816513
30
0
41
1
10
79.8854165100983
20
-5.15730463463177
30
0
41
1
10
79.8966916788507
20
-5.16396290502337
30
0
41
1
10
79.9181575778152
20
-5.17928599389006
30
0
41
1
10
79.9283809539038
20
-5.18794601283633
30
0
41
1
10
79.9476233642788
20
-5.20762358304091
30
0
41
1
10
79.9566983333129
20
-5.21872973198239
30
0
41
1
10
79.9648039847524
20
-5.23103174883431
30
0
0
SPLINE
5
188
100
AcDbEntity
8
1
62
256
6
ByLayer
370
18
48
1
60
0
100
AcDbSpline
70
4
71
3
72
8
73
4
40
0
40
0
40
0
40
0
40
1
40
1
40
1
40
1
41
1
10
79.9648039847524
20
-5.23103174883443
30
0
41
1
10
79.9881196663169
20
-5.26641815912623
30
0
41
1
10
80.0113845698775
20
-5.30156259378992
30
0
41
1
10
80.0346040978727
20
-5.33647288031491
30
0
0
SPLINE
5
189
100
AcDbEntity
8
1
62
256
6
ByLayer
370
18
48
1
60
0
100
AcDbSpline
70
4
71
3
72
12
73
8
40
0
40
0
40
0
40
0
40
0.499999999999991
40
0.499999999999991
40
0.749999999999995
40
0.749999999999995
40
1
40
1
40
1
40
1
41
1
10
80.0346040978727
20
-5.33647288031491
30
0
41
1
10
80.2286504837712
20
-5.25403238589661
30
0
41
1
10
80.424240389611
20
-5.16200727976138
30
0
41
1
10
80.7203627885179
20
-5.0102997697214
30
0
41
1
10
80.8195325273859
20
-4.9574459505792
30
0
41
1
10
81.0189311285979
20
-4.84722697484384
30
0
41
1
10
81.119132554426
20
-4.78985738288759
30
0
41
1
10
81.2199999607223
20
-4.73025479509124
30
0
0
SPLINE
5
18A
100
AcDbEntity
8
1
62
256
6
ByLayer
370
18
48
1
60
0
100
AcDbSpline
70
4
71
3
72
14
73
10
40
0
40
0
40
0
40
0
40
0.25
40
0.25
40
0.5
40
0.5
40
0.75
40
0.75
40
1
40
1
40
1
40
1
41
1
10
81.2199999607224
20
-4.73025479509121
30
0
41
1
10
81.2675492629149
20
-4.6670997098592
30
0
41
1
10
81.3156611528971
20
-4.60349927434231
30
0
41
1
10
81.4131233462507
20
-4.47550172997498
30
0
41
1
10
81.4625168025092
20
-4.41105343891607
30
0
41
1
10
81.5624879885339
20
-4.28180287004625
30
0
41
1
10
81.6131108686524
20
-4.21693841095876
30
0
41
1
10
81.7156098949626
20
-4.08714096855664
30
0
41
1
10
81.76744950038
20
-4.02225348265779
30
0
41
1
10
81.82
20
-3.95745120955195
30
0
0
SPLINE
5
18B
100
AcDbEntity
8
1
62
256
6
ByLayer
370
18
48
1
60
0
100
AcDbSpline
70
4
71
3
72
61
73
57
40
0
40
0
40
0
40
0
40
0.0627764883680538
40
0.0627764883680538
40
0.125552976736107
40
0.125552976736107
40
0.141247098828121
40
0.141247098828121
40
0.156941220920134
40
0.156941220920134
40
0.188329465104161
40
0.188329465104161
40
0.219717709288189
40
0.219717709288189
40
0.227564770334195
40
0.227564770334195
40
0.235411831380202
40
0.251105953472216
40
0.251105953472216
40
0.313882441840271
40
0.313882441840271
40
0.345270686024298
40
0.345270686024298
40
0.376658930208326
40
0.376658930208326
40
0.502211906944436
40
0.502211906944436
40
0.627764883680546
40
0.627764883680546
40
0.690541372048601
40
0.690541372048601
40
0.721929616232628
40
0.721929616232628
40
0.753317860416656
40
0.753317860416656
40
0.761164921462663
40
0.761164921462663
40
0.76901198250867
40
0.76901198250867
40
0.784706104600684
40
0.784706104600684
40
0.816094348784711
40
0.816094348784711
40
0.847482592968739
40
0.847482592968739
40
0.863176715060753
40
0.863176715060753
40
0.878870837152767
40
0.878870837152767
40
0.941647325520822
40
0.941647325520822
40
0.97303556970485
40
0.97303556970485
40
0.988729691796864
40
0.988729691796864
40
1
40
1
40
1
40
1
41
1
10
81.82
20
-3.95745120955192
30
0
41
1
10
81.82
20
-3.83764117800251
30
0
41
1
10
81.82
20
-3.72572289838553
30
0
41
1
10
81.82
20
-3.51701666963942
30
0
41
1
10
81.82
20
-3.42025950712397
30
0
41
1
10
81.82
20
-3.30903650657379
30
0
41
1
10
81.82
20
-3.28723868742395
30
0
41
1
10
81.82
20
-3.2448591673116
30
0
41
1
10
81.8200000000001
20
-3.22432902864151
30
0
41
1
10
81.82
20
-3.16466814197966
30
0
41
1
10
81.82
20
-3.12746291088942
30
0
41
1
10
81.82
20
-3.05805013092251
30
0
41
1
10
81.82
20
-3.02585427121107
30
0
41
1
10
81.82
20
-2.98874529180648
30
0
41
1
10
81.8200000000001
20
-2.98147597599674
30
0
41
1
10
81.8200000000001
20
-2.96698808542271
30
0
41
1
10
81.82
20
-2.94534583518475
30
0
41
1
10
81.82
20
-2.92412488551133
30
0
41
1
10
81.8199999999999
20
-2.85430634089062
30
0
41
1
10
81.82
20
-2.80134913412547
30
0
41
1
10
81.82
20
-2.72627603213277
30
0
41
1
10
81.82
20
-2.70201247971454
30
0
41
1
10
81.82
20
-2.65512771885764
30
0
41
1
10
81.82
20
-2.63248541092528
30
0
41
1
10
81.82
20
-2.5232304828597
30
0
41
1
10
81.82
20
-2.44845948238859
30
0
41
1
10
81.82
20
-2.32375952472995
30
0
41
1
10
81.82
20
-2.27382909827045
30
0
41
1
10
81.82
20
-2.2176525349318
30
0
41
1
10
81.8200000000001
20
-2.20204057195468
30
0
41
1
10
81.82
20
-2.18335655333945
30
0
41
1
10
81.82
20
-2.1779166093103
30
0
41
1
10
81.82
20
-2.16864810477981
30
0
41
1
10
81.8200000000001
20
-2.16483985304762
30
0
41
1
10
81.82
20
-2.16103375440596
30
0
41
1
10
81.82
20
-2.16030363602616
30
0
41
1
10
81.82
20
-2.15922837188395
30
0
41
1
10
81.82
20
-2.15890040566148
30
0
41
1
10
81.82
20
-2.15850837324135
30
0
41
1
10
81.82
20
-2.15902129753664
30
0
41
1
10
81.82
20
-2.16283582303251
30
0
41
1
10
81.82
20
-2.16840500033396
30
0
41
1
10
81.8200000000001
20
-2.18558469575982
30
0
41
1
10
81.82
20
-2.19721489900527
30
0
41
1
10
81.82
20
-2.21930752026009
30
0
41
1
10
81.82
20
-2.22744357721538
30
0
41
1
10
81.82
20
-2.24528146618241
30
0
41
1
10
81.82
20
-2.25500590531391
30
0
41
1
10
81.82
20
-2.30708481744378
30
0
41
1
10
81.82
20
-2.36004826693576
30
0
41
1
10
81.82
20
-2.45567022965227
30
0
41
1
10
81.82
20
-2.49027413400594
30
0
41
1
10
81.82
20
-2.54635959481808
30
0
41
1
10
81.82
20
-2.56574876099685
30
0
41
1
10
81.82
20
-2.60026967919646
30
0
41
1
10
81.82
20
-2.61509321677781
30
0
41
1
10
81.82
20
-2.63021276651551
30
0
0
SPLINE
5
18C
100
AcDbEntity
8
1
62
256
6
ByLayer
370
18
48
1
60
0
100
AcDbSpline
70
4
71
3
72
14
73
10
40
0
40
0
40
0
40
0
40
0.500000000000017
40
0.500000000000017
40
0.75000000000001
40
0.75000000000001
40
0.875000000000005
40
0.875000000000005
40
1
40
1
40
1
40
1
41
1
10
81.8199999999999
20
-2.64814775720876
30
0
41
1
10
81.7282086053538
20
-2.64222352137094
30
0
41
1
10
81.6356057655872
20
-2.63603127221495
30
0
41
1
10
81.495535638453
20
-2.62688336994441
30
0
41
1
10
81.4486518039024
20
-2.6238583436068
30
0
41
1
10
81.3780293278677
20
-2.6194747399652
30
0
41
1
10
81.3544390189731
20
-2.61803889438136
30
0
41
1
10
81.3071621980706
20
-2.61522722436109
30
0
41
1
10
81.2834571802404
20
-2.61391167062001
30
0
41
1
10
81.2597546841856
20
-2.61246791283244
30
0
0
SPLINE
5
18D
100
AcDbEntity
8
1
62
256
6
ByLayer
370
18
48
1
60
0
100
AcDbSpline
70
4
71
3
72
18
73
14
40
0
40
0
40
0
40
0
40
0.249999999999934
40
0.249999999999934
40
0.3749999999999
40
0.3749999999999
40
0.499999999999866
40
0.499999999999866
40
0.749999999999937
40
0.749999999999937
40
0.874999999999968
40
0.874999999999968
40
1
40
1
40
1
40
1
41
1
10
81.2597546841856
20
-2.61246791283244
30
0
41
1
10
81.2458809475998
20
-2.60261723717181
30
0
41
1
10
81.2319377415065
20
-2.593361417051
30
0
41
1
10
81.2109215582146
20
-2.58046848535884
30
0
41
1
10
81.2038992108705
20
-2.57633667185507
30
0
41
1
10
81.1898204943779
20
-2.56843185218915
30
0
41
1
10
81.1827466802392
20
-2.56465105688162
30
0
41
1
10
81.1617529321585
20
-2.55403694703023
30
0
41
1
10
81.1479849265963
20
-2.54787904311732
30
0
41
1
10
81.1277446512272
20
-2.54022324565787
30
0
41
1
10
81.1210668353908
20
-2.53793627721365
30
0
41
1
10
81.1078664666041
20
-2.53395143078166
30
0
41
1
10
81.1013170324266
20
-2.53224901200622
30
0
41
1
10
81.0949571924467
20
-2.53090232265899
30
0
0
SPLINE
5
18E
100
AcDbEntity
8
1
62
256
6
ByLayer
370
18
48
1
60
0
100
AcDbSpline
70
4
71
3
72
12
73
8
40
0
40
0
40
0
40
0
40
0.5
40
0.5
40
0.75
40
0.75
40
1
40
1
40
1
40
1
41
1
10
81.0949571924468
20
-2.53090232265905
30
0
41
1
10
80.8492857956429
20
-2.37373249707233
30
0
41
1
10
80.6072190371431
20
-2.2061446965968
30
0
41
1
10
80.2476836749094
20
-1.94090985319946
30
0
41
1
10
80.1284432004292
20
-1.85017533627828
30
0
41
1
10
79.8908333003886
20
-1.66437181647865
30
0
41
1
10
79.7724710289009
20
-1.56929679964151
30
0
41
1
10
79.6545786099473
20
-1.47195247355768
30
0
0
SPLINE
5
18F
100
AcDbEntity
8
1
62
256
6
ByLayer
370
18
48
1
60
0
100
AcDbSpline
70
4
71
3
72
8
73
4
40
0
40
0
40
0
40
0
40
1
40
1
40
1
40
1
41
1
10
79.6545786099472
20
-1.47195247355771
30
0
41
1
10
79.5991387390912
20
-1.37561039683499
30
0
41
1
10
79.5434640330136
20
-1.28096822568921
30
0
41
1
10
79.4875078557324
20
-1.18805544925255
30
0
0
SPLINE
5
190
100
AcDbEntity
8
1
62
256
6
ByLayer
370
18
48
1
60
0
100
AcDbSpline
70
4
71
3
72
34
73
30
40
0
40
0
40
0
40
0
40
0.124999999999958
40
0.124999999999958
40
0.187499999999937
40
0.187499999999937
40
0.249999999999916
40
0.249999999999916
40
0.374999999999874
40
0.374999999999874
40
0.437499999999871
40
0.437499999999871
40
0.499999999999869
40
0.499999999999869
40
0.624999999999903
40
0.624999999999903
40
0.68749999999992
40
0.68749999999992
40
0.749999999999937
40
0.749999999999937
40
0.812499999999954
40
0.812499999999954
40
0.843749999999962
40
0.843749999999962
40
0.87499999999997
40
0.87499999999997
40
0.937499999999985
40
0.937499999999985
40
1
40
1
40
1
40
1
41
1
10
79.4875078557325
20
-1.18805544925391
30
0
41
1
10
79.4731908225774
20
-1.16428264408
30
0
41
1
10
79.4566078202328
20
-1.14019470975404
30
0
41
1
10
79.4291931224283
20
-1.10375048810883
30
0
41
1
10
79.4196032677016
20
-1.09152660095114
30
0
41
1
10
79.3996845682657
20
-1.06706682434583
30
0
41
1
10
79.3894582921406
20
-1.05495443023261
30
0
41
1
10
79.3580594801284
20
-1.01893009792627
30
0
41
1
10
79.3361752265371
20
-0.995327874385765
30
0
41
1
10
79.3020407193653
20
-0.960470264266149
30
0
41
1
10
79.2904420496484
20
-0.948943109118602
30
0
41
1
10
79.2667984229242
20
-0.926068964884138
30
0
41
1
10
79.2548437673352
20
-0.914810893428438
30
0
41
1
10
79.2188951339636
20
-0.881837214451906
30
0
41
1
10
79.1946962313225
20
-0.860792630235608
30
0
41
1
10
79.1580896417917
20
-0.830720987659163
30
0
41
1
10
79.1458355464
20
-0.820948747241516
30
0
41
1
10
79.1212253475155
20
-0.801961407488392
30
0
41
1
10
79.1088569136133
20
-0.792741450894994
30
0
41
1
10
79.0846304708502
20
-0.775378634367513
30
0
41
1
10
79.0727005336541
20
-0.767177960057325
30
0
41
1
10
79.0551330395211
20
-0.755702439691248
30
0
41
1
10
79.0493320044511
20
-0.752015520110405
30
0
41
1
10
79.0378521153133
20
-0.744947050012257
30
0
41
1
10
79.0321663421254
20
-0.741562664940062
30
0
41
1
10
79.015580424233
20
-0.732071559307599
30
0
41
1
10
79.0050610632047
20
-0.726564799892799
30
0
41
1
10
78.9852955872606
20
-0.717490544640867
30
0
41
1
10
78.9759968070921
20
-0.713913026604331
30
0
41
1
10
78.9677568617822
20
-0.711646252734425
30
0
0
SPLINE
5
191
100
AcDbEntity
8
1
62
256
6
ByLayer
370
18
48
1
60
0
100
AcDbSpline
70
4
71
3
72
8
73
4
40
0
40
0
40
0
40
0
40
1
40
1
40
1
40
1
41
1
10
78.9677568617823
20
-0.711646252736244
30
0
41
1
10
78.8676925143876
20
-0.684118976831286
30
0
41
1
10
78.7685209719332
20
-0.647724031125961
30
0
41
1
10
78.6699832082464
20
-0.602939242261357
30
0
0
SPLINE
5
192
100
AcDbEntity
8
1
62
256
6
ByLayer
370
18
48
1
60
0
100
AcDbSpline
70
4
71
3
72
12
73
8
40
0
40
0
40
0
40
0
40
0.25
40
0.25
40
0.5
40
0.5
40
1
40
1
40
1
40
1
41
1
10
78.6699832082464
20
-0.6029392422613
30
0
41
1
10
78.6012403164731
20
-0.538653200014835
30
0
41
1
10
78.5325170083113
20
-0.473690303292784
30
0
41
1
10
78.3950676200583
20
-0.342445851726552
30
0
41
1
10
78.3266413156327
20
-0.276450387802271
30
0
41
1
10
78.1221694001194
20
-0.0774282944842923
30
0
41
1
10
77.9869377467137
20
0.0566417776735477
30
0
41
1
10
77.8525428621028
20
0.191863391230527
30
0
0
SPLINE
5
193
100
AcDbEntity
8
1
62
256
6
ByLayer
370
18
48
1
60
0
100
AcDbSpline
70
4
71
3
72
11
73
7
40
0
40
0
40
0
40
0
40
0.25
40
0.25
40
0.5
40
1
40
1
40
1
40
1
41
1
10
77.852542862103
20
0.19186339123047
30
0
41
1
10
77.8169835117534
20
0.240231828842553
30
0
41
1
10
77.7812988720619
20
0.28767067987917
30
0
41
1
10
77.7097960456648
20
0.380486502542709
30
0
41
1
10
77.6022977866177
20
0.516673784287093
30
0
41
1
10
77.4939445412008
20
0.643688000069972
30
0
41
1
10
77.4212315797936
20
0.724237707520587
30
0
0
SPLINE
5
194
100
AcDbEntity
8
1
62
256
6
ByLayer
370
18
48
1
60
0
100
AcDbSpline
70
4
71
3
72
34
73
30
40
0
40
0
40
0
40
0
40
0.124999999999984
40
0.124999999999984
40
0.187499999999962
40
0.187499999999962
40
0.24999999999994
40
0.24999999999994
40
0.37499999999993
40
0.37499999999993
40
0.437499999999926
40
0.437499999999926
40
0.499999999999921
40
0.499999999999921
40
0.624999999999951
40
0.624999999999951
40
0.687499999999966
40
0.687499999999966
40
0.749999999999981
40
0.749999999999981
40
0.812499999999995
40
0.812499999999995
40
0.843749999999984
40
0.843749999999984
40
0.874999999999973
40
0.874999999999973
40
0.937499999999987
40
0.937499999999987
40
1
40
1
40
1
40
1
41
1
10
77.4212315797922
20
0.724237707524111
30
0
41
1
10
77.4069130841123
20
0.740099400072978
30
0
41
1
10
77.390328041148
20
0.757471525296381
30
0
41
1
10
77.3629096399962
20
0.785158338546523
30
0
41
1
10
77.3533186344003
20
0.794684270785353
30
0
41
1
10
77.3333964194156
20
0.814189399488129
30
0
41
1
10
77.3231679410397
20
0.824068735007472
30
0
41
1
10
77.2917617524171
20
0.854060809007137
30
0
41
1
10
77.2698714352915
20
0.874522190483958
30
0
41
1
10
77.2357289392473
20
0.905923533707465
30
0
41
1
10
77.2241280098906
20
0.916510262148336
30
0
41
1
10
77.2004806937542
20
0.937942623229759
30
0
41
1
10
77.1885257329987
20
0.948704998751509
30
0
41
1
10
77.1525752272815
20
0.980888696917475
30
0
41
1
10
77.1283753538655
20
1.00231473788884
30
0
41
1
10
77.0917701266782
20
1.0345031123006
30
0
41
1
10
77.0795171750434
20
1.04524106510834
30
0
41
1
10
77.0549105983228
20
1.06675466691669
30
0
41
1
10
77.0425465479812
20
1.07753921072032
30
0
41
1
10
77.0183285476075
20
1.09863668504315
30
0
41
1
10
77.0064026780746
20
1.1090127290316
30
0
41
1
10
76.9888406050071
20
1.12428636414617
30
0
41
1
10
76.9830412568367
20
1.12932890126825
30
0
41
1
10
76.9715644413955
20
1.1393069866059
30
0
41
1
10
76.9658805813696
20
1.14424813523894
30
0
41
1
10
76.9493004730101
20
1.15866258955759
30
0
41
1
10
76.9387846730651
20
1.1678065048977
30
0
41
1
10
76.9190255545209
20
1.18499448713382
30
0
41
1
10
76.9097296915102
20
1.19308467338746
30
0
41
1
10
76.9014918616708
20
1.2002501016988
30
0
0
SPLINE
5
195
100
AcDbEntity
8
1
62
256
6
ByLayer
370
18
48
1
60
0
100
AcDbSpline
70
4
71
3
72
10
73
6
40
0
40
0
40
0
40
0
40
0.5
40
0.5
40
1
40
1
40
1
40
1
41
1
10
76.9014918616709
20
1.20025010169695
30
0
41
1
10
76.7936427877083
20
1.29405937222009
30
0
41
1
10
76.6868331740302
20
1.39693454258696
30
0
41
1
10
76.4746386453934
20
1.61965356946277
30
0
41
1
10
76.3696579322559
20
1.73911288971829
30
0
41
1
10
76.2655504549058
20
1.86616443838912
30
0
0
SPLINE
5
196
100
AcDbEntity
8
1
62
256
6
ByLayer
370
18
48
1
60
0
100
AcDbSpline
70
4
71
3
72
8
73
4
40
0
40
0
40
0
40
0
40
1
40
1
40
1
40
1
41
1
10
76.265550454906
20
1.86616443838909
30
0
41
1
10
76.2218747034846
20
1.91378546977538
30
0
41
1
10
76.1782167306993
20
1.96146407479296
30
0
41
1
10
76.1345700793271
20
2.00919445711773
30
0
0
SPLINE
5
197
100
AcDbEntity
8
1
62
256
6
ByLayer
370
18
48
1
60
0
100
AcDbSpline
70
4
71
3
72
8
73
4
40
0
40
0
40
0
40
0
40
1
40
1
40
1
40
1
41
1
10
76.0370078748678
20
2.11296351855683
30
0
41
1
10
76.0695365786792
20
2.07846605898271
30
0
41
1
10
76.1020564157409
20
2.04387557175323
30
0
41
1
10
76.1345700793272
20
2.00919445711776
30
0
0
SPLINE
5
198
100
AcDbEntity
8
1
62
256
6
ByLayer
370
18
48
1
60
0
100
AcDbSpline
70
4
71
3
72
14
73
10
40
0
40
0
40
0
40
0
40
0.25
40
0.25
40
0.5
40
0.5
40
0.75
40
0.75
40
1
40
1
40
1
40
1
41
1
10
76.0370078748678
20
2.11296351855683
30
0
41
1
10
75.9811785975626
20
2.16035243500321
30
0
41
1
10
75.9251350199469
20
2.20495341889043
30
0
41
1
10
75.812509342678
20
2.28846016551324
30
0
41
1
10
75.7558973344902
20
2.3273812642949
30
0
41
1
10
75.6422013689324
20
2.39926150945706
30
0
41
1
10
75.5850943482253
20
2.4322380370123
30
0
41
1
10
75.4703831614373
20
2.49213609721602
30
0
41
1
10
75.4128058096734
20
2.51904183442465
30
0
41
1
10
75.3549591976863
20
2.54289591796396
30
0
0
SPLINE
5
199
100
AcDbEntity
8
1
62
256
6
ByLayer
370
18
48
1
60
0
100
AcDbSpline
70
4
71
3
72
34
73
30
40
0
40
0
40
0
40
0
40
0.125000000000029
40
0.125000000000029
40
0.187500000000042
40
0.187500000000042
40
0.250000000000055
40
0.250000000000055
40
0.375000000000081
40
0.375000000000081
40
0.437500000000095
40
0.437500000000095
40
0.50000000000011
40
0.50000000000011
40
0.6250000000001
40
0.6250000000001
40
0.687500000000095
40
0.687500000000095
40
0.75000000000009
40
0.75000000000009
40
0.812500000000086
40
0.812500000000086
40
0.843750000000083
40
0.843750000000083
40
0.875000000000081
40
0.875000000000081
40
0.937500000000041
40
0.937500000000041
40
1
40
1
40
1
40
1
41
1
10
75.3549591976863
20
2.54289591796393
30
0
41
1
10
75.3406387976277
20
2.54880119067701
30
0
41
1
10
75.3240517267977
20
2.55721921243474
30
0
41
1
10
75.2966306106936
20
2.57258211342705
30
0
41
1
10
75.2870387710715
20
2.57818313006132
30
0
41
1
10
75.2671148441142
20
2.59022155635989
30
0
41
1
10
75.2568855141314
20
2.59659600242489
30
0
41
1
10
75.2254757753721
20
2.6166942854799
30
0
41
1
10
75.2035822811811
20
2.6313807816544
30
0
41
1
10
75.1694355115096
20
2.65528338519067
30
0
41
1
10
75.1578332240034
20
2.66356652978848
30
0
41
1
10
75.1341836447429
20
2.68079720951738
30
0
41
1
10
75.1222282285709
20
2.68967881808533
30
0
41
1
10
75.0862765847213
20
2.71692989086267
30
0
41
1
10
75.062076757902
20
2.73598009836059
30
0
41
1
10
75.0254734405768
20
2.76614098335304
30
0
41
1
10
75.0132213898721
20
2.77646151471333
30
0
41
1
10
74.9886169452749
20
2.79772863433442
30
0
41
1
10
74.9762548716206
20
2.80868824920862
30
0
41
1
10
74.9520404840036
20
2.8308008093808
30
0
41
1
10
74.9401162698355
20
2.84201403298499
30
0
41
1
10
74.9225560883696
20
2.85911533458722
30
0
41
1
10
74.9167572609947
20
2.86486284964616
30
0
41
1
10
74.9052815623903
20
2.87646334590082
30
0
41
1
10
74.8995983996182
20
2.88232404099861
30
0
41
1
10
74.8830204026161
20
2.89980222999793
30
0
41
1
10
74.8725059911003
20
2.91140283072701
30
0
41
1
10
74.8527495281447
20
2.93448362753588
30
0
41
1
10
74.8434548627121
20
2.94604016468102
30
0
41
1
10
74.8352176924787
20
2.95717657428989
30
0
0
SPLINE
5
19A
100
AcDbEntity
8
1
62
256
6
ByLayer
370
18
48
1
60
0
100
AcDbSpline
70
4
71
3
72
12
73
8
40
0
40
0
40
0
40
0
40
0.500000000000007
40
0.500000000000007
40
0.750000000000004
40
0.750000000000004
40
1
40
1
40
1
40
1
41
1
10
74.8352176924788
20
2.95717657428827
30
0
41
1
10
74.724148409449
20
3.10733894749842
30
0
41
1
10
74.6141922945181
20
3.26454254983864
30
0
41
1
10
74.4503910894508
20
3.51011217977188
30
0
41
1
10
74.3960750957202
20
3.5934643204757
30
0
41
1
10
74.2880079197803
20
3.76291556393127
30
0
41
1
10
74.2342422254314
20
3.84903643698135
30
0
41
1
10
74.1807011257182
20
3.93650955793154
30
0
0
SPLINE
5
19B
100
AcDbEntity
8
1
62
256
6
ByLayer
370
18
48
1
60
0
100
AcDbSpline
70
4
71
3
72
8
73
4
40
0
40
0
40
0
40
0
40
1
40
1
40
1
40
1
41
1
10
73.9707171553253
20
4.12010549366212
30
0
41
1
10
74.0407439431886
20
4.05979126935361
30
0
41
1
10
74.1107296630251
20
3.9985856990445
30
0
41
1
10
74.1807011257162
20
3.93650955794271
30
0
0
SPLINE
5
19C
100
AcDbEntity
8
1
62
256
6
ByLayer
370
18
48
1
60
0
100
AcDbSpline
70
4
71
3
72
14
73
10
40
0
40
0
40
0
40
0
40
0.25
40
0.25
40
0.5
40
0.5
40
0.75
40
0.75
40
1
40
1
40
1
40
1
41
1
10
73.9707171553254
20
4.12010549366207
30
0
41
1
10
73.9148976637509
20
4.12490543044711
30
0
41
1
10
73.858863803941
20
4.1267641724537
30
0
41
1
10
73.7462533087535
20
4.12448550893737
30
0
41
1
10
73.6896466050287
20
4.12034170825032
30
0
41
1
10
73.5759442187512
20
4.10590339332688
30
0
41
1
10
73.518830214356
20
4.09562253398948
30
0
41
1
10
73.4041144518596
20
4.06893761967012
30
0
41
1
10
73.3465374801582
20
4.05253418693891
30
0
41
1
10
73.2886929407572
20
4.03307197991492
30
0
0
SPLINE
5
19D
100
AcDbEntity
8
1
62
256
6
ByLayer
370
18
48
1
60
0
100
AcDbSpline
70
4
71
3
72
34
73
30
40
0
40
0
40
0
40
0
40
0.124999999999954
40
0.124999999999954
40
0.187499999999932
40
0.187499999999932
40
0.24999999999991
40
0.24999999999991
40
0.374999999999865
40
0.374999999999865
40
0.437499999999861
40
0.437499999999861
40
0.499999999999857
40
0.499999999999857
40
0.624999999999849
40
0.624999999999849
40
0.687499999999844
40
0.687499999999844
40
0.74999999999984
40
0.74999999999984
40
0.812499999999836
40
0.812499999999836
40
0.843749999999851
40
0.843749999999851
40
0.874999999999867
40
0.874999999999867
40
0.937499999999933
40
0.937499999999933
40
1
40
1
40
1
40
1
41
1
10
73.2886929407571
20
4.03307197991495
30
0
41
1
10
73.2743692418577
20
4.02825266946289
30
0
41
1
10
73.2577780249583
20
4.02662498154169
30
0
41
1
10
73.2303505591896
20
4.02767431998785
30
0
41
1
10
73.2207565779018
20
4.02862542722329
30
0
41
1
10
73.200828342129
20
4.03163943443082
30
0
41
1
10
73.190597077741
20
4.03368476819409
30
0
41
1
10
73.15918130804
20
4.04129199166238
30
0
41
1
10
73.1372832383348
20
4.04830665175294
30
0
41
1
10
73.1031309112034
20
4.06162443311638
30
0
41
1
10
73.0915269832542
20
4.06653474124019
30
0
41
1
10
73.0678748257345
20
4.07733960401373
30
0
41
1
10
73.0559191559538
20
4.08319407763889
30
0
41
1
10
73.0199670541805
20
4.10199517986894
30
0
41
1
10
72.9957685014587
20
4.11621098592289
30
0
41
1
10
72.9591691335056
20
4.14045049026964
30
0
41
1
10
72.9469187269686
20
4.1490209940616
30
0
41
1
10
72.9223179642109
20
4.1672951853582
30
0
41
1
10
72.9099590604535
20
4.17701409898771
30
0
41
1
10
72.885750375005
20
4.19728487279002
30
0
41
1
10
72.8738286247149
20
4.20788635791101
30
0
41
1
10
72.8562717294172
20
4.22460609507601
30
0
41
1
10
72.8504739795007
20
4.23031622745523
30
0
41
1
10
72.8390003993826
20
4.24204056647139
30
0
41
1
10
72.8333184978364
20
4.24806349578716
30
0
41
1
10
72.8167441356004
20
4.26634652071215
30
0
41
1
10
72.8062318645245
20
4.27890411744599
30
0
41
1
10
72.7864790666311
20
4.30489274094938
30
0
41
1
10
72.7771859142982
20
4.31842037134786
30
0
41
1
10
72.7689495812078
20
4.33208617016456
30
0
0
SPLINE
5
19E
100
AcDbEntity
8
1
62
256
6
ByLayer
370
18
48
1
60
0
100
AcDbSpline
70
4
71
3
72
12
73
8
40
0
40
0
40
0
40
0
40
0.499999999999999
40
0.499999999999999
40
0.75
40
0.75
40
1
40
1
40
1
40
1
41
1
10
72.7689495812079
20
4.33208617016334
30
0
41
1
10
72.6578696181369
20
4.51639105575157
30
0
41
1
10
72.5479036832125
20
4.70424772136394
30
0
41
1
10
72.3840935078012
20
4.99082738275149
30
0
41
1
10
72.3297753994867
20
5.08699281116316
30
0
41
1
10
72.2217062532958
20
5.28037256574984
30
0
41
1
10
72.1679407483105
20
5.37761228911552
30
0
41
1
10
72.114400316577
20
5.4753709194926
30
0
0
SPLINE
5
19F
100
AcDbEntity
8
1
62
256
6
ByLayer
370
18
48
1
60
0
100
AcDbSpline
70
4
71
3
72
8
73
4
40
0
40
0
40
0
40
0
40
1
40
1
40
1
40
1
41
1
10
71.904412559422
20
5.59476161076586
30
0
41
1
10
71.9744403275411
20
5.55619593189789
30
0
41
1
10
72.0444273789481
20
5.51639401182126
30
0
41
1
10
72.1144003165752
20
5.47537091950832
30
0
0
SPLINE
5
1A0
100
AcDbEntity
8
1
62
256
6
ByLayer
370
18
48
1
60
0
100
AcDbSpline
70
4
71
3
72
14
73
10
40
0
40
0
40
0
40
0
40
0.25
40
0.25
40
0.5
40
0.5
40
0.75
40
0.75
40
1
40
1
40
1
40
1
41
1
10
71.904412559422
20
5.59476161076589
30
0
41
1
10
71.8485951417795
20
5.55636168357108
30
0
41
1
10
71.7925638187549
20
5.51524493661279
30
0
41
1
10
71.6799606431844
20
5.42750157864313
30
0
41
1
10
71.6233594200868
20
5.38084853563092
30
0
41
1
10
71.5096730057246
20
5.28206578933987
30
0
41
1
10
71.4525642793771
20
5.22991495907186
30
0
41
1
10
71.3378462206542
20
5.1201920958695
30
0
41
1
10
71.2802648762279
20
5.0626486479899
30
0
41
1
10
71.2224180438083
20
5.00242780087285
30
0
0
SPLINE
5
1A1
100
AcDbEntity
8
1
62
256
6
ByLayer
370
18
48
1
60
0
100
AcDbSpline
70
4
71
3
72
34
73
30
40
0
40
0
40
0
40
0
40
0.125000000000034
40
0.125000000000034
40
0.187500000000036
40
0.187500000000036
40
0.250000000000038
40
0.250000000000038
40
0.375000000000009
40
0.375000000000009
40
0.437500000000013
40
0.437500000000013
40
0.500000000000017
40
0.500000000000017
40
0.625000000000024
40
0.625000000000024
40
0.687500000000027
40
0.687500000000027
40
0.75000000000003
40
0.75000000000003
40
0.812500000000033
40
0.812500000000033
40
0.843750000000015
40
0.843750000000015
40
0.874999999999998
40
0.874999999999998
40
0.937499999999999
40
0.937499999999999
40
1
40
1
40
1
40
1
41
1
10
71.2224180438083
20
5.00242780087282
30
0
41
1
10
71.2080919659262
20
4.98751378553536
30
0
41
1
10
71.1914979349992
20
4.97605700524122
30
0
41
1
10
71.1640664519724
20
4.96266518731184
30
0
41
1
10
71.1544712051563
20
4.95884592435047
30
0
41
1
10
71.1345402167857
20
4.95245019568475
30
0
41
1
10
71.1243076779641
20
4.94990385620818
30
0
41
1
10
71.092888361668
20
4.94404245789772
30
0
41
1
10
71.0709875918753
20
4.94248227927994
30
0
41
1
10
71.0368310740151
20
4.94349737659891
30
0
41
1
10
71.0252257905906
20
4.94440108190133
30
0
41
1
10
71.0015712772017
20
4.9473848167429
30
0
41
1
10
70.9896148416145
20
4.94945624422039
30
0
41
1
10
70.953661016532
20
4.95737806065651
30
0
41
1
10
70.9294624741086
20
4.96492117283844
30
0
41
1
10
70.8928650324706
20
4.98010291764902
30
0
41
1
10
70.8806155754913
20
4.98581417193572
30
0
41
1
10
70.8560171243964
20
4.9987299693353
30
0
41
1
10
70.8436600792945
20
5.0059506746949
30
0
41
1
10
70.8194548877382
20
5.02175658168051
30
0
41
1
10
70.8075347707411
20
5.03037450913553
30
0
41
1
10
70.7899807161128
20
5.0445488321464
30
0
41
1
10
70.7841839595684
20
5.04948247105969
30
0
41
1
10
70.7727124641321
20
5.05981279621207
30
0
41
1
10
70.7670316288348
20
5.06521833163487
30
0
41
1
10
70.7504604541273
20
5.08193919243016
30
0
41
1
10
70.7399503602952
20
5.09382736434767
30
0
41
1
10
70.7202018584395
20
5.11935594437841
30
0
41
1
10
70.7109106649177
20
5.13310083686198
30
0
41
1
10
70.7026755163892
20
5.14752364995269
30
0
0
SPLINE
5
1A2
100
AcDbEntity
8
1
62
256
6
ByLayer
370
18
48
1
60
0
100
AcDbSpline
70
4
71
3
72
12
73
8
40
0
40
0
40
0
40
0
40
0.500000000000008
40
0.500000000000008
40
0.750000000000004
40
0.750000000000004
40
1
40
1
40
1
40
1
41
1
10
70.7026755163892
20
5.14752364995226
30
0
41
1
10
70.591583284845
20
5.34208753496745
30
0
41
1
10
70.4816079443948
20
5.53626271089061
30
0
41
1
10
70.3177860164302
20
5.82672821353106
30
0
41
1
10
70.2634643251878
20
5.92324937441305
30
0
41
1
10
70.1553884553453
20
6.11550694719591
30
0
41
1
10
70.1016198325188
20
6.21126903298207
30
0
41
1
10
70.0480768533413
20
6.30664975303714
30
0
0
SPLINE
5
1A3
100
AcDbEntity
8
1
62
256
6
ByLayer
370
18
48
1
60
0
100
AcDbSpline
70
4
71
3
72
8
73
4
40
0
40
0
40
0
40
0
40
1
40
1
40
1
40
1
41
1
10
69.8380826143302
20
6.34640545765663
30
0
41
1
10
69.9081133126329
20
6.3345728552323
30
0
41
1
10
69.9781023655514
20
6.32131843641687
30
0
41
1
10
70.0480768533394
20
6.30664975305666
30
0
0
SPLINE
5
1A4
100
AcDbEntity
8
1
62
256
6
ByLayer
370
18
48
1
60
0
100
AcDbSpline
70
4
71
3
72
14
73
10
40
0
40
0
40
0
40
0
40
0.25
40
0.25
40
0.5
40
0.5
40
0.75
40
0.75
40
1
40
1
40
1
40
1
41
1
10
69.8380826143302
20
6.34640545765666
30
0
41
1
10
69.7822712105147
20
6.26980693422087
30
0
41
1
10
69.7262470355262
20
6.19106369736664
30
0
41
1
10
69.6136571164618
20
6.02924813111781
30
0
41
1
10
69.55706210783
20
5.94613131194473
30
0
41
1
10
69.4433884620124
20
5.775776818108
30
0
41
1
10
69.3862846577002
20
5.6885009245579
30
0
41
1
10
69.2715733810797
20
5.50995838231853
30
0
41
1
10
69.2139932809066
20
5.41873533329033
30
0
41
1
10
69.156143979856
20
5.32557172946815
30
0
0
SPLINE
5
1A5
100
AcDbEntity
8
1
62
256
6
ByLayer
370
18
48
1
60
0
100
AcDbSpline
70
4
71
3
72
34
73
30
40
0
40
0
40
0
40
0
40
0.124999999999995
40
0.124999999999995
40
0.187499999999992
40
0.187499999999992
40
0.24999999999999
40
0.24999999999999
40
0.375000000000019
40
0.375000000000019
40
0.437500000000033
40
0.437500000000033
40
0.500000000000047
40
0.500000000000047
40
0.625000000000076
40
0.625000000000076
40
0.68750000000007
40
0.68750000000007
40
0.750000000000065
40
0.750000000000065
40
0.812500000000059
40
0.812500000000059
40
0.843750000000038
40
0.843750000000038
40
0.875000000000017
40
0.875000000000017
40
0.937500000000008
40
0.937500000000008
40
1
40
1
40
1
40
1
41
1
10
69.156143979856
20
5.32557172946815
30
0
41
1
10
69.1418149519115
20
5.30249549763246
30
0
41
1
10
69.1252171615352
20
5.28269585806871
30
0
41
1
10
69.0977800113554
20
5.25660332188528
30
0
41
1
10
69.0881829056747
20
5.2485107903567
30
0
41
1
10
69.0682479179125
20
5.2335390178086
30
0
41
1
10
69.0580135343769
20
5.22673390571444
30
0
41
1
10
69.0265891959929
20
5.20817336205812
30
0
41
1
10
69.004685760321
20
5.19824943033177
30
0
41
1
10
68.9705255638625
20
5.18684472742481
30
0
41
1
10
68.958919197342
20
5.18362968663396
30
0
41
1
10
68.9352630619583
20
5.1784156047695
30
0
41
1
10
68.9233065074185
20
5.17644069537982
30
0
41
1
10
68.8873525214775
20
5.17247134796719
30
0
41
1
10
68.8631549606065
20
5.17237341852544
30
0
41
1
10
68.8265603312686
20
5.17654301785379
30
0
41
1
10
68.8143120238322
20
5.17865913365884
30
0
41
1
10
68.7897160857349
20
5.18455134515537
30
0
41
1
10
68.7773611160061
20
5.18834264916549
30
0
41
1
10
68.7531599430764
20
5.19764450262221
30
0
41
1
10
68.7412419073482
20
5.20316661761737
30
0
41
1
10
68.723691155075
20
5.21296509702503
30
0
41
1
10
68.7178955288279
20
5.21648497824188
30
0
41
1
10
68.7064263636898
20
5.22408662367493
30
0
41
1
10
68.7007467841602
20
5.22817615236588
30
0
41
1
10
68.6841793302334
20
5.24117325668419
30
0
41
1
10
68.6736716822429
20
5.25085448381185
30
0
41
1
10
68.6539278968562
20
5.27261965065904
30
0
41
1
10
68.6446388597442
20
5.28480223219918
30
0
41
1
10
68.6364050631583
20
5.29811380922501
30
0
0
SPLINE
5
1A6
100
AcDbEntity
8
1
62
256
6
ByLayer
370
18
48
1
60
0
100
AcDbSpline
70
4
71
3
72
12
73
8
40
0
40
0
40
0
40
0
40
0.5
40
0.5
40
0.75
40
0.75
40
1
40
1
40
1
40
1
41
1
10
69.3251439331875
20
-2.74756810517812
30
0
41
1
10
69.217057418011
20
-2.79433755076951
30
0
41
1
10
69.1100492300612
20
-2.83074627546239
30
0
41
1
10
68.9506417375266
20
-2.87075543630624
30
0
41
1
10
68.8977585047483
20
-2.88162725824572
30
0
41
1
10
68.7925612762552
20
-2.89854825762339
30
0
41
1
10
68.740223255262
20
-2.90460350943266
30
0
41
1
10
68.6881035234022
20
-2.90830703042718
30
0
0
SPLINE
5
1A7
100
AcDbEntity
8
1
62
256
6
ByLayer
370
13
48
1
60
0
100
AcDbSpline
70
4
71
3
72
11
73
7
40
0
40
0
40
0
40
0
40
0.0047238557819042
40
0.370766046694892
40
0.736808237607879
40
1
40
1
40
1
40
1
41
1
10
69.1146466924515
20
0.715968825055938
30
0
41
1
10
69.1149781447958
20
0.710343749944826
30
0
41
1
10
69.1409931808041
20
0.268746765132647
30
0
41
1
10
69.1926919004546
20
-0.623452892582833
30
0
41
1
10
69.2625262437171
20
-1.79413829256669
30
0
41
1
10
69.3066768877867
20
-2.47662427042991
30
0
41
1
10
69.3251439331875
20
-2.74756810517809
30
0
0
SPLINE
5
1A8
100
AcDbEntity
8
1
62
256
6
ByLayer
370
18
48
1
60
0
100
AcDbSpline
70
4
71
3
72
14
73
10
40
0
40
0
40
0
40
0
40
0.25
40
0.25
40
0.5
40
0.5
40
0.75
40
0.75
40
1
40
1
40
1
40
1
41
1
10
68.472168242478
20
1.74731412676042
30
0
41
1
10
68.5247284499594
20
1.65470867387106
30
0
41
1
10
68.5775105792557
20
1.56367235812544
30
0
41
1
10
68.6836029024078
20
1.38479222467385
30
0
41
1
10
68.736935755024
20
1.29691249917937
30
0
41
1
10
68.8440353556273
20
1.12470942109425
30
0
41
1
10
68.8978356022874
20
1.04033552050677
30
0
41
1
10
69.005900666995
20
0.875320867536374
30
0
41
1
10
69.0601483932701
20
0.794698329831277
30
0
41
1
10
69.1146466924515
20
0.715968825055967
30
0
0
SPLINE
5
1A9
100
AcDbEntity
8
1
62
256
6
ByLayer
370
18
48
1
60
0
100
AcDbSpline
70
4
71
3
72
12
73
8
40
0
40
0
40
0
40
0
40
0.250000000000001
40
0.250000000000001
40
0.500000000000001
40
0.500000000000001
40
1
40
1
40
1
40
1
41
1
10
67.5683916347537
20
2.09558422580923
30
0
41
1
10
67.618799894259
20
2.1005143454349
30
0
41
1
10
67.6689798685074
20
2.10323104600715
30
0
41
1
10
67.7689626279144
20
2.10440983954132
30
0
41
1
10
67.8187789646786
20
2.10287441814182
30
0
41
1
10
67.9675165384605
20
2.09201106594463
30
0
41
1
10
68.0658623792186
20
2.0764023856263
30
0
41
1
10
68.1632951778859
20
2.05276880565035
30
0
0
SPLINE
5
1AA
100
AcDbEntity
8
1
62
256
6
ByLayer
370
13
48
1
60
0
100
AcDbSpline
70
4
71
3
72
11
73
7
40
0
40
0
40
0
40
0
40
0.161044079189343
40
0.527622594685047
40
0.894201110180751
40
1
40
1
40
1
40
1
41
1
10
67.5683916347538
20
2.09558422580923
30
0
41
1
10
67.5796748854488
20
1.91793244185141
30
0
41
1
10
67.6166417699379
20
1.32237612423444
30
0
41
1
10
67.6792922818454
20
0.256995273162602
30
0
41
1
10
67.738072157705
20
-0.754536251041031
30
0
41
1
10
67.7711683932839
20
-1.30599234093211
30
0
41
1
10
67.7785809936423
20
-1.42828730288022
30
0
0
SPLINE
5
1AB
100
AcDbEntity
8
1
62
256
6
ByLayer
370
18
48
1
60
0
100
AcDbSpline
70
4
71
3
72
14
73
10
40
0
40
0
40
0
40
0
40
0.25
40
0.25
40
0.5
40
0.5
40
0.75
40
0.75
40
1
40
1
40
1
40
1
41
1
10
68.4188510293772
20
-2.61441038049935
30
0
41
1
10
68.3663745345392
20
-2.51039418121036
30
0
41
1
10
68.3137035832868
20
-2.40755675448835
30
0
41
1
10
68.2078831620936
20
-2.20430388827407
30
0
41
1
10
68.1547153620597
20
-2.10385539320083
30
0
41
1
10
68.0479967928488
20
-1.90581525032013
30
0
41
1
10
67.9944066885396
20
-1.80814997392028
30
0
41
1
10
67.8868120164941
20
-1.6158769622663
30
0
41
1
10
67.8328174493547
20
-1.52128986520896
30
0
41
1
10
67.7785809936423
20
-1.42828730288042
30
0
0
SPLINE
5
1AC
100
AcDbEntity
8
1
62
256
6
ByLayer
370
18
48
1
60
0
100
AcDbSpline
70
4
71
3
72
25
73
21
40
0
40
0
40
0
40
0
40
0.125
40
0.125
40
0.250000000000001
40
0.250000000000001
40
0.281250000000001
40
0.281250000000001
40
0.312500000000001
40
0.312500000000001
40
0.375000000000001
40
0.375000000000001
40
0.500000000000001
40
0.625
40
0.625
40
0.75
40
0.75
40
0.875
40
0.875
40
1
40
1
40
1
40
1
41
1
10
68.1632951778912
20
2.05276880566254
30
0
41
1
10
68.1739205989851
20
1.86545766136683
30
0
41
1
10
68.1845393219929
20
1.67558409576151
30
0
41
1
10
68.2058063966342
20
1.2907364448869
30
0
41
1
10
68.2164440999153
20
1.09576159180583
30
0
41
1
10
68.2297959309111
20
0.848785475180904
30
0
41
1
10
68.2324693108406
20
0.799227051085808
30
0
41
1
10
68.2378244803906
20
0.699780751944957
30
0
41
1
10
68.2405096917072
20
0.649829102254984
30
0
41
1
10
68.2485553444546
20
0.499975814705749
30
0
41
1
10
68.2538982051123
20
0.400217701460633
30
0
41
1
10
68.2699039368581
20
0.101368869399835
30
0
41
1
10
68.2911671251834
20
-0.295964233742325
30
0
41
1
10
68.3123027338559
20
-0.691075024838597
30
0
41
1
10
68.3334920389575
20
-1.08506111514683
30
0
41
1
10
68.3441268854358
20
-1.28149131234596
30
0
41
1
10
68.365602636642
20
-1.6731813877004
30
0
41
1
10
68.3762844311933
20
-1.86589743661511
30
0
41
1
10
68.3975768276775
20
-2.24491017471229
30
0
41
1
10
68.4081899630218
20
-2.43125377819214
30
0
41
1
10
68.4188510293818
20
-2.61441038049821
30
0
0
SPLINE
5
1AD
100
AcDbEntity
8
1
62
256
6
ByLayer
370
18
48
1
60
0
100
AcDbSpline
70
4
71
3
72
8
73
4
40
0
40
0
40
0
40
0
40
1
40
1
40
1
40
1
41
1
10
68.6881035233975
20
-2.90830703043645
30
0
41
1
10
68.5983866546422
20
-2.81094635566936
30
0
41
1
10
68.5086561346133
20
-2.71296222210387
30
0
41
1
10
68.418851029372
20
-2.61441038049818
30
0
0
SPLINE
5
1AE
100
AcDbEntity
8
1
62
256
6
ByLayer
370
18
48
1
60
0
100
AcDbSpline
70
4
71
3
72
27
73
23
40
0
40
0
40
0
40
0
40
0.125
40
0.125
40
0.25
40
0.25
40
0.3125
40
0.3125
40
0.375
40
0.375
40
0.5
40
0.5
40
0.625
40
0.625
40
0.75
40
0.75
40
0.78125
40
0.78125
40
0.8125
40
0.875
40
0.875
40
1
40
1
40
1
40
1
41
1
10
68.6881035233901
20
-2.90830703043585
30
0
41
1
10
68.6791670613204
20
-2.73078975794638
30
0
41
1
10
68.6702696734062
20
-2.54963818194489
30
0
41
1
10
68.6524096720976
20
-2.18009841694945
30
0
41
1
10
68.6434373843835
20
-1.99171041781412
30
0
41
1
10
68.6299128897506
20
-1.70358336560665
30
0
41
1
10
68.625391132673
20
-1.60656812724341
30
0
41
1
10
68.6163254127286
20
-1.41084054819763
30
0
41
1
10
68.6118134306174
20
-1.3128200827573
30
0
41
1
10
68.5983188972772
20
-1.01829889298242
30
0
41
1
10
68.5893747431017
20
-0.821339476095545
30
0
41
1
10
68.5714566651673
20
-0.426226594681197
30
0
41
1
10
68.562498929947
20
-0.228072513457619
30
0
41
1
10
68.5445556133328
20
0.16943644740897
30
0
41
1
10
68.5355703565633
20
0.368791239497597
30
0
41
1
10
68.5242449399452
20
0.618756825615577
30
0
41
1
10
68.5219743534763
20
0.668800877843239
30
0
41
1
10
68.5174404777044
20
0.768526417234028
30
0
41
1
10
68.5106419693589
20
0.917734529194803
30
0
41
1
10
68.5038478512575
20
1.06580927747012
30
0
41
1
10
68.4902673052233
20
1.36045789330987
30
0
41
1
10
68.4812268405899
20
1.55489268123983
30
0
41
1
10
68.4721682424781
20
1.74731412676042
30
0
0
SPLINE
5
1AF
100
AcDbEntity
8
1
62
256
6
ByLayer
370
18
48
1
60
0
100
AcDbSpline
70
4
71
3
72
8
73
4
40
0
40
0
40
0
40
0
40
1
40
1
40
1
40
1
41
1
10
68.1632951778791
20
2.05276880566146
30
0
41
1
10
68.2663069117114
20
1.95245721209926
30
0
41
1
10
68.3692547716344
20
1.85063652465112
30
0
41
1
10
68.4721682424781
20
1.74731412676042
30
0
0
SPLINE
5
1B0
100
AcDbEntity
8
SK1
62
256
6
ByLayer
370
18
48
1
60
0
100
AcDbSpline
70
4
71
3
72
25
73
21
40
0
40
0
40
0
40
0
40
0.125011760539084
40
0.125011760539084
40
0.187517640808627
40
0.187517640808627
40
0.250023521078169
40
0.250023521078169
40
0.375035281617254
40
0.375035281617254
40
0.500047042156339
40
0.625058802695423
40
0.625058802695423
40
0.687564682964966
40
0.687564682964966
40
0.750070563234508
40
0.750070563234508
40
0.875082323773592
40
0.875082323773592
40
1
40
1
40
1
40
1
41
1
10
-26.7800000000001
20
3.49499999999998
30
0
41
1
10
-26.8461325038066
20
3.49499999999998
30
0
41
1
10
-26.9107161308256
20
3.49499999999998
30
0
41
1
10
-27.0047352913317
20
3.49499999999998
30
0
41
1
10
-27.0356253065222
20
3.49499999999998
30
0
41
1
10
-27.0961876157174
20
3.49499999999998
30
0
41
1
10
-27.1258524642689
20
3.49499999999998
30
0
41
1
10
-27.2128189283611
20
3.49499999999998
30
0
41
1
10
-27.2680995040984
20
3.49499999999998
30
0
41
1
10
-27.3721538610289
20
3.49499999999998
30
0
41
1
10
-27.4697030033843
20
3.49499999999998
30
0
41
1
10
-27.5515432030615
20
3.49499999999998
30
0
41
1
10
-27.6058239035108
20
3.49499999999998
30
0
41
1
10
-27.6227321255518
20
3.49499999999998
30
0
41
1
10
-27.6539517789931
20
3.49499999999998
30
0
41
1
10
-27.6682736149905
20
3.49499999999998
30
0
41
1
10
-27.7069162929609
20
3.49499999999998
30
0
41
1
10
-27.7265707541406
20
3.49499999999998
30
0
41
1
10
-27.7528895341718
20
3.49499999999998
30
0
41
1
10
-27.7595615472417
20
3.49499999999998
30
0
41
1
10
-27.7595597734868
20
3.49499999999998
30
0
0
SPLINE
5
1B1
100
AcDbEntity
8
SK1
62
256
6
ByLayer
370
18
48
1
60
0
100
AcDbSpline
70
4
71
3
72
25
73
21
40
0
40
0
40
0
40
0
40
0.124912440077115
40
0.124912440077115
40
0.249924948637528
40
0.249924948637528
40
0.312431202917734
40
0.312431202917734
40
0.37493745719794
40
0.37493745719794
40
0.499949965758352
40
0.624962474318764
40
0.624962474318764
40
0.749974982879176
40
0.749974982879176
40
0.812481237159382
40
0.812481237159382
40
0.874987491439588
40
0.874987491439588
40
1
40
1
40
1
40
1
41
1
10
-27.7595604540534
20
-3.49500000000003
30
0
41
1
10
-27.7595594539534
20
-3.49500000000003
30
0
41
1
10
-27.7528889040727
20
-3.49500000000003
30
0
41
1
10
-27.7265707541405
20
-3.49500000000003
30
0
41
1
10
-27.7069162929609
20
-3.49500000000003
30
0
41
1
10
-27.6682736149904
20
-3.49500000000003
30
0
41
1
10
-27.6539517789931
20
-3.49500000000003
30
0
41
1
10
-27.6227321255518
20
-3.49500000000003
30
0
41
1
10
-27.6058239035108
20
-3.49500000000003
30
0
41
1
10
-27.5515432030615
20
-3.49500000000003
30
0
41
1
10
-27.4697030033843
20
-3.49500000000003
30
0
41
1
10
-27.3721538610289
20
-3.49500000000003
30
0
41
1
10
-27.2680995040984
20
-3.49500000000003
30
0
41
1
10
-27.2128189283611
20
-3.49500000000003
30
0
41
1
10
-27.1258524642689
20
-3.49500000000003
30
0
41
1
10
-27.0961876157174
20
-3.49500000000003
30
0
41
1
10
-27.0356253065222
20
-3.49500000000003
30
0
41
1
10
-27.0047352913317
20
-3.49500000000003
30
0
41
1
10
-26.9107161308256
20
-3.49500000000003
30
0
41
1
10
-26.8461325038066
20
-3.49500000000003
30
0
41
1
10
-26.7800000000001
20
-3.49500000000003
30
0
0
SPLINE
5
1B2
100
AcDbEntity
8
SK1
62
256
6
ByLayer
370
18
48
1
60
0
100
AcDbSpline
70
4
71
3
72
45
73
41
40
0
40
0
40
0
40
0
40
0.0625
40
0.0625
40
0.125
40
0.125
40
0.15625
40
0.15625
40
0.1875
40
0.1875
40
0.25
40
0.25
40
0.375
40
0.375
40
0.40625
40
0.40625
40
0.421875
40
0.421875
40
0.4375
40
0.4375
40
0.5
40
0.5
40
0.5625
40
0.5625
40
0.625
40
0.625
40
0.65625
40
0.65625
40
0.6875
40
0.6875
40
0.75
40
0.8125
40
0.8125
40
0.875
40
0.875
40
0.90625
40
0.90625
40
0.9375
40
0.9375
40
1
40
1
40
1
40
1
41
1
10
-26.7800000000001
20
-2.7940404781607
30
0
41
1
10
-26.8457681640087
20
-2.68871501911789
30
0
41
1
10
-26.9099831676993
20
-2.58226046044192
30
0
41
1
10
-27.0346072499699
20
-2.36658455295483
30
0
41
1
10
-27.0950185450509
20
-2.25736481547162
30
0
41
1
10
-27.1821004193531
20
-2.09096532364245
30
0
41
1
10
-27.210536677869
20
-2.03506916366908
30
0
41
1
10
-27.2660871196636
20
-1.9223157358135
30
0
41
1
10
-27.2931265139423
20
-1.86560669091099
30
0
41
1
10
-27.3716475494041
20
-1.69476144098309
30
0
41
1
10
-27.4206114438143
20
-1.57976189736769
30
0
41
1
10
-27.5553865230224
20
-1.23081432245399
30
0
41
1
10
-27.6291668215694
20
-0.992945283520129
30
0
41
1
10
-27.6932897766313
20
-0.686450075547782
30
0
41
1
10
-27.7047028224752
20
-0.624690994745208
30
0
41
1
10
-27.71953961254
20
-0.53130838905588
30
0
41
1
10
-27.7241105424864
20
-0.500010964572539
30
0
41
1
10
-27.7324321267716
20
-0.437404101498061
30
0
41
1
10
-27.7361813784008
20
-0.406115762583965
30
0
41
1
10
-27.7528561464768
20
-0.249750036765022
30
0
41
1
10
-27.759549382399
20
-0.124901209280836
30
0
41
1
10
-27.7595705922846
20
0.12430629500858
30
0
41
1
10
-27.7528994417055
20
0.248665003919882
30
0
41
1
10
-27.7265707541406
20
0.496906165748868
30
0
41
1
10
-27.7069162929609
20
0.62078873146703
30
0
41
1
10
-27.6682736149905
20
0.806276614791983
30
0
41
1
10
-27.6539517789931
20
0.867644756430877
30
0
41
1
10
-27.6227321255518
20
0.989242928606501
30
0
41
1
10
-27.6058239035108
20
1.04952352630681
30
0
41
1
10
-27.5515432030615
20
1.22894528771579
30
0
41
1
10
-27.4697030033843
20
1.46439427079503
30
0
41
1
10
-27.3721538610289
20
1.69357019956598
30
0
41
1
10
-27.2680995040984
20
1.92014840007778
30
0
41
1
10
-27.2128189283611
20
2.03213832073948
30
0
41
1
10
-27.1258524642689
20
2.1985076715159
30
0
41
1
10
-27.0961876157174
20
2.25369416374207
30
0
41
1
10
-27.0356253065222
20
2.36357492903272
30
0
41
1
10
-27.0047352913317
20
2.41825299271559
30
0
41
1
10
-26.9107161308256
20
2.58104716912413
30
0
41
1
10
-26.8461325038066
20
2.68813154142691
30
0
41
1
10
-26.78
20
2.79404047816058
30
0
0
SPLINE
5
1B3
100
AcDbEntity
8
1
62
256
6
ByLayer
370
18
48
1
60
0
100
AcDbSpline
70
4
71
2
72
6
73
3
40
0
40
0
40
0
40
1
40
1
40
1
41
1
10
67.229504139298
20
-6.14766127071317
30
0
41
1
10
67.3639980295371
20
-5.91568504231668
30
0
41
1
10
67.4987372713398
20
-5.68383882819671
30
0
0
SPLINE
5
1B4
100
AcDbEntity
8
1
62
256
6
ByLayer
370
18
48
1
60
0
100
AcDbSpline
70
4
71
1
72
4
73
2
40
0
40
0
40
1
40
1
41
1
10
66.197443214688
20
-5.29896003435667
30
0
41
1
10
66.4216734022988
20
-5.68529750741573
30
0
0
SPLINE
5
1B5
100
AcDbEntity
8
1
62
256
6
ByLayer
370
18
48
1
60
0
100
AcDbSpline
70
4
71
1
72
4
73
2
40
0
40
0
40
1
40
1
41
1
10
74.5058277526058
20
-6.14850716773591
30
0
41
1
10
74.6536798982354
20
-6.40359813490099
30
0
0
SPLINE
5
1B6
100
AcDbEntity
8
1
62
256
6
ByLayer
370
18
48
1
60
0
100
AcDbSpline
70
4
71
3
72
8
73
4
40
0
40
0
40
0
40
0
40
1
40
1
40
1
40
1
41
1
10
81.7162504535039
20
0.0638170318235893
30
0
41
1
10
81.7320365996192
20
0.0506373669696814
30
0
41
1
10
81.7478267722717
20
0.0374088643517041
30
0
41
1
10
81.7636210650652
20
0.0241321382475803
30
0
0
SPLINE
5
1B7
100
AcDbEntity
8
1
62
256
6
ByLayer
370
18
48
1
60
0
100
AcDbSpline
70
4
71
1
72
4
73
2
40
0
40
0
40
1
40
1
41
1
10
81.7636210650651
20
0.0241321382475803
30
0
41
1
10
81.7797300798985
20
0.0111012401225707
30
0
0
SPLINE
5
1B8
100
AcDbEntity
8
1
62
256
6
ByLayer
370
18
48
1
60
0
100
AcDbSpline
70
4
71
1
72
4
73
2
40
0
40
0
40
1
40
1
41
1
10
81.82
20
4.62003990945146
30
0
41
1
10
81.2200001041573
20
5.21947542248517
30
0
0
SPLINE
5
1B9
100
AcDbEntity
8
1
62
256
6
ByLayer
370
18
48
1
60
0
100
AcDbSpline
70
4
71
2
72
6
73
3
40
0
40
0
40
0
40
1
40
1
40
1
41
1
10
79.263630361031
20
-5.61233585381189
30
0
41
1
10
79.3546873080939
20
-5.45558045269794
30
0
41
1
10
79.4458139948327
20
-5.29885713561762
30
0
0
SPLINE
5
1BA
100
AcDbEntity
8
1
62
256
6
ByLayer
370
18
48
1
60
0
100
AcDbSpline
70
4
71
1
72
4
73
2
40
0
40
0
40
1
40
1
41
1
10
78.2821529656923
20
-5.86090591687946
30
0
41
1
10
78.9799136058505
20
-5.68631822977895
30
0
0
SPLINE
5
1BB
100
AcDbEntity
8
1
62
256
6
ByLayer
370
18
48
1
60
0
100
AcDbSpline
70
4
71
1
72
4
73
2
40
0
40
0
40
1
40
1
41
1
10
79.1500800691995
20
-5.64374063576125
30
0
41
1
10
79.2078336585298
20
-5.62929002762627
30
0
0
SPLINE
5
1BC
100
AcDbEntity
8
1
62
256
6
ByLayer
370
18
48
1
60
0
100
AcDbSpline
70
4
71
2
72
6
73
3
40
0
40
0
40
0
40
1
40
1
40
1
41
1
10
77.9208286482749
20
-5.29895907054964
30
0
41
1
10
78.0819851623369
20
-5.57647691265964
30
0
41
1
10
78.2429836434625
20
-5.85410724360878
30
0
0
SPLINE
5
1BD
100
AcDbEntity
8
1
62
256
6
ByLayer
370
18
48
1
60
0
100
AcDbSpline
70
4
71
2
72
6
73
3
40
0
40
0
40
0
40
1
40
1
40
1
41
1
10
69.7713164614058
20
6.40754071243603
30
0
41
1
10
69.4517673738205
20
5.85590633661161
30
0
41
1
10
69.1318425542374
20
5.30473146939792
30
0
0
SPLINE
5
1BE
100
AcDbEntity
8
1
62
256
6
ByLayer
370
18
48
1
60
0
100
AcDbSpline
70
4
71
3
72
14
73
10
40
0
40
0
40
0
40
0
40
0.262555690306391
40
0.458529708114019
40
0.590076570004005
40
0.636652291556028
40
0.722785941495101
40
0.845751452891736
40
1
40
1
40
1
40
1
41
1
10
65.7685012020986
20
-5.2988721339193
30
0
41
1
10
65.7759457402877
20
-5.27876142816223
30
0
41
1
10
65.8081901126344
20
-5.24600515308694
30
0
41
1
10
65.8813601082011
20
-5.19855884221087
30
0
41
1
10
65.9595944455873
20
-5.18212599968138
30
0
41
1
10
66.0256985364352
20
-5.18599517831379
30
0
41
1
10
66.0844470315634
20
-5.20054821995819
30
0
41
1
10
66.1574476754046
20
-5.24364684933249
30
0
41
1
10
66.1927648667494
20
-5.28554811330548
30
0
41
1
10
66.2070363294787
20
-5.31295449803972
30
0
0
SPLINE
5
1BF
100
AcDbEntity
8
1
62
256
6
ByLayer
370
18
48
1
60
0
100
AcDbSpline
70
4
71
2
72
6
73
3
40
0
40
0
40
0
40
1
40
1
40
1
41
1
10
70.6476398518521
20
5.30768083831828
30
0
41
1
10
70.328266323402
20
5.85757204608169
30
0
41
1
10
70.0091190193296
20
6.40815329159807
30
0
0
SPLINE
5
1C0
100
AcDbEntity
8
1
62
256
6
ByLayer
370
18
48
1
60
0
100
AcDbSpline
70
4
71
3
72
13
73
9
40
0
40
0
40
0
40
0
40
0.27490772979628
40
0.467331042210093
40
0.535428087495653
40
0.640095680934454
40
0.796988576665219
40
1
40
1
40
1
40
1
41
1
10
77.4919134543868
20
-5.29889173591539
30
0
41
1
10
77.5055709870323
20
-5.26968580563988
30
0
41
1
10
77.5471490290931
20
-5.22960622148454
30
0
41
1
10
77.631134879307
20
-5.19116877954192
30
0
41
1
10
77.7014707308124
20
-5.18233994381796
30
0
41
1
10
77.7724505717229
20
-5.18713394811741
30
0
41
1
10
77.8638462583481
20
-5.22722543761196
30
0
41
1
10
77.9065768594541
20
-5.27185785336295
30
0
41
1
10
77.9235703852661
20
-5.30347378675606
30
0
0
SPLINE
5
1C1
100
AcDbEntity
8
1
62
256
6
ByLayer
370
18
48
1
60
0
100
AcDbSpline
70
4
71
2
72
6
73
3
40
0
40
0
40
0
40
1
40
1
40
1
41
1
10
65.4241925437
20
-5.89154964816885
30
0
41
1
10
65.5956876389194
20
-5.59608035052796
30
0
41
1
10
65.7673258325376
20
-5.30085278929189
30
0
0
SPLINE
5
1C2
100
AcDbEntity
8
1
62
256
6
ByLayer
370
18
48
1
60
0
100
AcDbSpline
70
4
71
3
72
15
73
11
40
0
40
0
40
0
40
0
40
0.187433099346262
40
0.329704500649279
40
0.424493737412158
40
0.453679521995784
40
0.513160382908735
40
0.584425413057267
40
0.759791426190703
40
1
40
1
40
1
40
1
41
1
10
71.0820954593641
20
5.29879888370715
30
0
41
1
10
71.0704594206551
20
5.27598222056011
30
0
41
1
10
71.0383185775902
20
5.24092070053055
30
0
41
1
10
70.9693362666931
20
5.20046980852973
30
0
41
1
10
70.9153664744472
20
5.18738889718321
30
0
41
1
10
70.87494223189
20
5.18348539056899
30
0
41
1
10
70.826255864362
20
5.18549624090033
30
0
41
1
10
70.7625478117961
20
5.2021857925086
30
0
41
1
10
70.6938042259592
20
5.24460867703692
30
0
41
1
10
70.6632872926056
20
5.27433542883753
30
0
41
1
10
70.6569110695515
20
5.29225860428045
30
0
0
SPLINE
5
1C3
100
AcDbEntity
8
1
62
256
6
ByLayer
370
18
48
1
60
0
100
AcDbSpline
70
4
71
2
72
6
73
3
40
0
40
0
40
0
40
1
40
1
40
1
41
1
10
76.9789644741119
20
-6.18217714132791
30
0
41
1
10
77.2345370594889
20
-5.74158542744311
30
0
41
1
10
77.4903402216903
20
-5.30152564682126
30
0
0
SPLINE
5
1C4
100
AcDbEntity
8
1
62
256
6
ByLayer
370
18
48
1
60
0
100
AcDbSpline
70
4
71
2
72
6
73
3
40
0
40
0
40
0
40
1
40
1
40
1
41
1
10
64.2431298359415
20
-5.29821677209853
30
0
41
1
10
64.3780237101229
20
-5.53048571798342
30
0
41
1
10
64.512838787202
20
-5.76290883107572
30
0
0
SPLINE
5
1C5
100
AcDbEntity
8
1
62
256
6
ByLayer
370
18
48
1
60
0
100
AcDbSpline
70
4
71
1
72
4
73
2
40
0
40
0
40
1
40
1
41
1
10
76.567956565127
20
-6.29270720763074
30
0
41
1
10
76.9683140908218
20
-6.19246636804883
30
0
0
SPLINE
5
1C6
100
AcDbEntity
8
1
62
256
6
ByLayer
370
18
48
1
60
0
100
AcDbSpline
70
4
71
2
72
6
73
3
40
0
40
0
40
0
40
1
40
1
40
1
41
1
10
75.9657322068994
20
-5.29681316814603
30
0
41
1
10
76.2515142521602
20
-5.7889920069052
30
0
41
1
10
76.5366223939692
20
-6.28110260311567
30
0
0
SPLINE
5
1C7
100
AcDbEntity
8
1
62
256
6
ByLayer
370
18
48
1
60
0
100
AcDbSpline
70
4
71
3
72
15
73
11
40
0
40
0
40
0
40
0
40
0.153661735575281
40
0.276594714247375
40
0.362769140856256
40
0.426871841857707
40
0.478106337955121
40
0.540390131395453
40
0.736244054996708
40
1
40
1
40
1
40
1
41
1
10
63.8021086905903
20
-5.31610484718308
30
0
41
1
10
63.8166020148832
20
-5.28811260549128
30
0
41
1
10
63.8522202401307
20
-5.24523240796273
30
0
41
1
10
63.9255494384278
20
-5.20140567617079
30
0
41
1
10
63.9883131531182
20
-5.18528930749039
30
0
41
1
10
64.0402458981152
20
-5.18327290367145
30
0
41
1
10
64.0798133688778
20
-5.18826655350404
30
0
41
1
10
64.1373728453074
20
-5.20341385351622
30
0
41
1
10
64.2041000513457
20
-5.24576438588142
30
0
41
1
10
64.2360646861408
20
-5.27855010177674
30
0
41
1
10
64.2435333178535
20
-5.2989150550552
30
0
0
SPLINE
5
1C8
100
AcDbEntity
8
1
62
256
6
ByLayer
370
18
48
1
60
0
100
AcDbSpline
70
4
71
3
72
11
73
7
40
0
40
0
40
0
40
0
40
0.205918536827715
40
0.450340180539505
40
0.720616996571561
40
1
40
1
40
1
40
1
41
1
10
75.5175420448268
20
-5.32256966220535
30
0
41
1
10
75.5368925054201
20
-5.2867477620789
30
0
41
1
10
75.589853454363
20
-5.22443798990261
30
0
41
1
10
75.7306318321056
20
-5.16678444625896
30
0
41
1
10
75.889061242174
20
-5.20652133952439
30
0
41
1
10
75.9487225160305
20
-5.26396940752721
30
0
41
1
10
75.9705949864044
20
-5.30485600614705
30
0
0
SPLINE
5
1C9
100
AcDbEntity
8
1
62
256
6
ByLayer
370
18
48
1
60
0
100
AcDbSpline
70
4
71
2
72
6
73
3
40
0
40
0
40
0
40
1
40
1
40
1
41
1
10
71.7196637346316
20
6.39777960415628
30
0
41
1
10
71.4002247432437
20
5.84642170196562
30
0
41
1
10
71.0804465712566
20
5.29588289203562
30
0
0
SPLINE
5
1CA
100
AcDbEntity
8
1
62
256
6
ByLayer
370
18
48
1
60
0
100
AcDbSpline
70
4
71
2
72
6
73
3
40
0
40
0
40
0
40
1
40
1
40
1
41
1
10
72.6075331962914
20
5.29820589512639
30
0
41
1
10
72.284813948157
20
5.85331421826726
30
0
41
1
10
71.962519009269
20
6.40889983209738
30
0
0
SPLINE
5
1CB
100
AcDbEntity
8
1
62
256
6
ByLayer
370
18
48
1
60
0
100
AcDbSpline
70
4
71
3
72
10
73
6
40
0
40
0
40
0
40
0
40
0.28690667745132
40
0.668121720911308
40
1
40
1
40
1
40
1
41
1
10
72.8978631231571
20
5.19847795574421
30
0
41
1
10
72.8775885159532
20
5.18686828326361
30
0
41
1
10
72.8255199450926
20
5.17351811924408
30
0
41
1
10
72.7008227157305
20
5.19144522969384
30
0
41
1
10
72.6388302508819
20
5.2535929625555
30
0
41
1
10
72.6110937577897
20
5.29166157279735
30
0
0
LINE
5
83
100
AcDbEntity
8
80
62
256
6
ByLayer
370
18
48
1
60
0
100
AcDbLine
10
0
20
0
30
0
11
-5
21
0
31
0
39
0
210
0
220
0
230
1
0
LINE
5
84
100
AcDbEntity
8
4
62
256
6
ByLayer
370
18
48
0.05
60
0
100
AcDbLine
10
-5
20
0
30
0
11
86.82
21
0
31
0
39
0
210
0
220
0
230
1
0
LINE
5
86
100
AcDbEntity
8
81
62
256
6
ByLayer
370
18
48
1
60
0
100
AcDbLine
10
81.82
20
0
30
0
11
86.82
21
0
31
0
39
0
210
0
220
0
230
1
0
LINE
5
87
100
AcDbEntity
8
SK4
62
256
6
ByLayer
370
18
48
0.05
60
0
100
AcDbLine
10
-33.18
20
0
30
0
11
86.82
21
0
31
0
39
0
210
0
220
0
230
1
0
LINE
5
89
100
AcDbEntity
8
1
62
256
6
ByLayer
370
18
48
1
60
0
100
AcDbLine
10
0
20
4.661
30
0
11
0
21
-4.661
31
0
39
0
210
0
220
0
230
1
0
LINE
5
8A
100
AcDbEntity
8
1
62
256
6
ByLayer
370
18
48
1
60
0
100
AcDbLine
10
81.22
20
5.225054
30
0
11
81.22
21
5.219496
31
0
39
0
210
0
220
0
230
1
0
LINE
5
8B
100
AcDbEntity
8
1
62
256
6
ByLayer
370
18
48
1
60
0
100
AcDbLine
10
64.243122
20
-5.298204
30
0
11
64.245061
21
-5.301478
31
0
39
0
210
0
220
0
230
1
0
LINE
5
8C
100
AcDbEntity
8
1
62
256
6
ByLayer
370
18
48
1
60
0
100
AcDbLine
10
71.080509
20
5.295996
30
0
11
71.083301
21
5.300836
31
0
39
0
210
0
220
0
230
1
0
LINE
5
8D
100
AcDbEntity
8
1
62
256
6
ByLayer
370
13
48
1
60
0
100
AcDbLine
10
63.447594
20
-5.061
30
0
11
63.447594
21
-4.204519
31
0
39
0
210
0
220
0
230
1
0
LINE
5
8E
100
AcDbEntity
8
1
62
256
6
ByLayer
370
18
48
1
60
0
100
AcDbLine
10
72.607462
20
5.298329
30
0
11
72.611081
21
5.291685
31
0
39
0
210
0
220
0
230
1
0
LINE
5
8F
100
AcDbEntity
8
1
62
256
6
ByLayer
370
18
48
1
60
0
100
AcDbLine
10
75.517192
20
-5.322774
30
0
11
75.523967
21
-5.317605
31
0
39
0
210
0
220
0
230
1
0
LINE
5
90
100
AcDbEntity
8
1
62
256
6
ByLayer
370
13
48
1
60
0
100
AcDbLine
10
62.494966
20
-4.45483
30
0
11
62.494966
21
-3.301177
31
0
39
0
210
0
220
0
230
1
0
LINE
5
91
100
AcDbEntity
8
1
62
256
6
ByLayer
370
13
48
1
60
0
100
AcDbLine
10
62.494966
20
2.841995
30
0
11
62.494966
21
4.313015
31
0
39
0
210
0
220
0
230
1
0
LINE
5
92
100
AcDbEntity
8
1
62
256
6
ByLayer
370
13
48
1
60
0
100
AcDbLine
10
27.400948
20
-4.511
30
0
11
27.400948
21
4.511
31
0
39
0
210
0
220
0
230
1
0
LINE
5
93
100
AcDbEntity
8
1
62
256
6
ByLayer
370
18
48
1
60
0
100
AcDbLine
10
26.82
20
4.661
30
0
11
26.82
21
-4.661
31
0
39
0
210
0
220
0
230
1
0
LINE
5
94
100
AcDbEntity
8
1
62
256
6
ByLayer
370
13
48
1
60
0
100
AcDbLine
10
63.447594
20
4.541892
30
0
11
63.447594
21
2.422252
31
0
39
0
210
0
220
0
230
1
0
LINE
5
95
100
AcDbEntity
8
1
62
256
6
ByLayer
370
18
48
1
60
0
100
AcDbLine
10
63.82
20
5.010942
30
0
11
63.82
21
3.212072
31
0
39
0
210
0
220
0
230
1
0
LINE
5
96
100
AcDbEntity
8
SK1
62
256
6
ByLayer
370
18
48
1
60
0
100
AcDbLine
10
-28.18
20
3.07456
30
0
11
-28.18
21
-3.07456
31
0
39
0
210
0
220
0
230
1
0
LINE
5
98
100
AcDbEntity
8
SK1
62
256
6
ByLayer
370
18
48
1
60
0
100
AcDbLine
10
-16.02044
20
4.47456
30
0
11
-17
21
3.495
31
0
39
0
210
0
220
0
230
1
0
LINE
5
99
100
AcDbEntity
8
SK1
62
256
6
ByLayer
370
18
48
1
60
0
100
AcDbLine
10
-26.78
20
3.495
30
0
11
-17
21
3.495
31
0
39
0
210
0
220
0
230
1
0
LINE
5
9A
100
AcDbEntity
8
SK1
62
256
6
ByLayer
370
18
48
1
60
0
100
AcDbLine
10
-26.78
20
2.79404
30
0
11
-26.78
21
3.495
31
0
39
0
210
0
220
0
230
1
0
LINE
5
9B
100
AcDbEntity
8
SK1
62
256
6
ByLayer
370
18
48
1
60
0
100
AcDbLine
10
-17
20
2.79404
30
0
11
-26.78
21
2.79404
31
0
39
0
210
0
220
0
230
1
0
LINE
5
9C
100
AcDbEntity
8
SK1
62
256
6
ByLayer
370
18
48
1
60
0
100
AcDbLine
10
-26.78
20
-2.79404
30
0
11
-17
21
-2.79404
31
0
39
0
210
0
220
0
230
1
0
LINE
5
9D
100
AcDbEntity
8
SK1
62
256
6
ByLayer
370
18
48
1
60
0
100
AcDbLine
10
-26.78
20
-3.495
30
0
11
-26.78
21
-2.79404
31
0
39
0
210
0
220
0
230
1
0
LINE
5
9E
100
AcDbEntity
8
SK1
62
256
6
ByLayer
370
18
48
1
60
0
100
AcDbLine
10
-17
20
-3.495
30
0
11
-26.78
21
-3.495
31
0
39
0
210
0
220
0
230
1
0
LINE
5
9F
100
AcDbEntity
8
SK1
62
256
6
ByLayer
370
18
48
1
60
0
100
AcDbLine
10
-17
20
-3.495
30
0
11
-16.02044
21
-4.47456
31
0
39
0
210
0
220
0
230
1
0
LINE
5
A0
100
AcDbEntity
8
SK1
62
256
6
ByLayer
370
18
48
1
60
0
100
AcDbLine
10
-17
20
2.79404
30
0
11
-17
21
-2.79404
31
0
39
0
210
0
220
0
230
1
0
LINE
5
A1
100
AcDbEntity
8
SK1
62
256
6
ByLayer
370
18
48
1
60
0
100
AcDbLine
10
-14.764
20
4.47456
30
0
11
-14.764
21
-4.47456
31
0
39
0
210
0
220
0
230
1
0
LINE
5
A2
100
AcDbEntity
8
SK1
62
256
6
ByLayer
370
18
48
1
60
0
100
AcDbLine
10
0
20
4.661
30
0
11
0
21
-4.661
31
0
39
0
210
0
220
0
230
1
0
LINE
5
A3
100
AcDbEntity
8
SK1
62
256
6
ByLayer
370
18
48
1
60
0
100
AcDbLine
10
-14.57756
20
-4.661
30
0
11
-14.57756
21
4.661
31
0
39
0
210
0
220
0
230
1
0
LINE
5
A4
100
AcDbEntity
8
1
62
256
6
ByLayer
370
18
48
1
60
0
100
AcDbLine
10
66.678898
20
-6.107818
30
0
11
67.036999
21
-6.158146
31
0
39
0
210
0
220
0
230
1
0
LINE
5
A5
100
AcDbEntity
8
1
62
256
6
ByLayer
370
18
48
1
60
0
100
AcDbLine
10
26.82
20
4.661
30
0
11
0
21
4.661
31
0
39
0
210
0
220
0
230
1
0
LINE
5
A6
100
AcDbEntity
8
1
62
256
6
ByLayer
370
18
48
1
60
0
100
AcDbLine
10
0
20
-4.661
30
0
11
26.82
21
-4.661
31
0
39
0
210
0
220
0
230
1
0
LINE
5
A7
100
AcDbEntity
8
1
62
256
6
ByLayer
370
18
48
1
60
0
100
AcDbLine
10
69.989705
20
6.419466
30
0
11
69.791151
21
6.419466
31
0
39
0
210
0
220
0
230
1
0
LINE
5
A8
100
AcDbEntity
8
1
62
256
6
ByLayer
370
18
48
1
60
0
100
AcDbLine
10
64.553328
20
-5.809089
30
0
11
65.389292
21
-5.926576
31
0
39
0
210
0
220
0
230
1
0
LINE
5
A9
100
AcDbEntity
8
1
62
256
6
ByLayer
370
18
48
1
60
0
100
AcDbLine
10
63.447594
20
-5.061
30
0
11
63.686252
21
-5.474368
31
0
39
0
210
0
220
0
230
1
0
LINE
5
AA
100
AcDbEntity
8
1
62
256
6
ByLayer
370
18
48
1
60
0
100
AcDbLine
10
71.943613
20
6.419466
30
0
11
71.745052
21
6.419466
31
0
39
0
210
0
220
0
230
1
0
LINE
5
AB
100
AcDbEntity
8
1
62
256
6
ByLayer
370
18
48
1
60
0
100
AcDbLine
10
27.400948
20
-4.511
30
0
11
42.769061
21
-4.511
31
0
39
0
210
0
220
0
230
1
0
LINE
5
AC
100
AcDbEntity
8
1
62
256
6
ByLayer
370
18
48
1
60
0
100
AcDbLine
10
51.435989
20
-4.511
30
0
11
54.782871
21
-4.511
31
0
39
0
210
0
220
0
230
1
0
LINE
5
AD
100
AcDbEntity
8
1
62
256
6
ByLayer
370
18
48
1
60
0
100
AcDbLine
10
60.78973
20
4.511
30
0
11
57.417475
21
4.511
31
0
39
0
210
0
220
0
230
1
0
LINE
5
AE
100
AcDbEntity
8
1
62
256
6
ByLayer
370
18
48
1
60
0
100
AcDbLine
10
48.775932
20
4.511
30
0
11
45.453899
21
4.511
31
0
39
0
210
0
220
0
230
1
0
LINE
5
AF
100
AcDbEntity
8
1
62
256
6
ByLayer
370
18
48
1
60
0
100
AcDbLine
10
36.974878
20
4.511
30
0
11
27.400948
21
4.511
31
0
39
0
210
0
220
0
230
1
0
LINE
5
B0
100
AcDbEntity
8
SK1
62
256
6
ByLayer
370
18
48
1
60
0
100
AcDbLine
10
-28.18
20
-3.07456
30
0
11
-27.75956
21
-3.495
31
0
39
0
210
0
220
0
230
1
0
LINE
5
B1
100
AcDbEntity
8
SK1
62
256
6
ByLayer
370
18
48
1
60
0
100
AcDbLine
10
-27.75956
20
3.495
30
0
11
-28.18
21
3.07456
31
0
39
0
210
0
220
0
230
1
0
LINE
5
B2
100
AcDbEntity
8
SK1
62
256
6
ByLayer
370
18
48
1
60
0
100
AcDbLine
10
-14.764
20
4.47456
30
0
11
-16.02044
21
4.47456
31
0
39
0
210
0
220
0
230
1
0
LINE
5
B3
100
AcDbEntity
8
SK1
62
256
6
ByLayer
370
18
48
1
60
0
100
AcDbLine
10
-16.02044
20
-4.47456
30
0
11
-14.764
21
-4.47456
31
0
39
0
210
0
220
0
230
1
0
LINE
5
B4
100
AcDbEntity
8
SK1
62
256
6
ByLayer
370
18
48
1
60
0
100
AcDbLine
10
-14.764
20
-4.47456
30
0
11
-14.57756
21
-4.661
31
0
39
0
210
0
220
0
230
1
0
LINE
5
B5
100
AcDbEntity
8
SK1
62
256
6
ByLayer
370
18
48
1
60
0
100
AcDbLine
10
-14.57756
20
4.661
30
0
11
-14.764
21
4.47456
31
0
39
0
210
0
220
0
230
1
0
LINE
5
B6
100
AcDbEntity
8
SK1
62
256
6
ByLayer
370
18
48
1
60
0
100
AcDbLine
10
0
20
4.661
30
0
11
-14.57756
21
4.661
31
0
39
0
210
0
220
0
230
1
0
LINE
5
B7
100
AcDbEntity
8
SK1
62
256
6
ByLayer
370
18
48
1
60
0
100
AcDbLine
10
-14.57756
20
-4.661
30
0
11
0
21
-4.661
31
0
39
0
210
0
220
0
230
1
0
LINE
5
B8
100
AcDbEntity
8
SK2
62
256
6
ByLayer
370
13
48
1
60
0
100
AcDbLine
10
10.32
20
-4.661
30
0
11
10.32
21
57.200537
31
0
39
0
210
0
220
0
230
1
0
LINE
5
BA
100
AcDbEntity
8
SK2
62
256
6
ByLayer
370
13
48
1
60
0
100
AcDbLine
10
10.4075
20
4.661
30
0
11
12.32
21
4.661
31
0
39
0
210
0
220
0
230
1
0
LINE
5
BB
100
AcDbEntity
8
SK2
62
256
6
ByLayer
370
13
48
1
60
0
100
AcDbLine
10
10.4075
20
-4.661
30
0
11
12.32
21
-4.661
31
0
39
0
210
0
220
0
230
1
0
LINE
5
BC
100
AcDbEntity
8
1
62
256
6
ByLayer
370
18
48
1
60
1
100
AcDbLine
10
10.32
20
4.661
30
0
11
10.780784
21
1.161002
31
0
39
0
210
0
220
0
230
1
0
LINE
5
BD
100
AcDbEntity
8
1
62
256
6
ByLayer
370
18
48
1
60
1
100
AcDbLine
10
10.780784
20
1.161002
30
0
11
9.859216
21
1.160998
31
0
39
0
210
0
220
0
230
1
0
LINE
5
BE
100
AcDbEntity
8
1
62
256
6
ByLayer
370
18
48
1
60
1
100
AcDbLine
10
9.859216
20
1.160998
30
0
11
10.32
21
4.661
31
0
39
0
210
0
220
0
230
1
0
LINE
5
BF
100
AcDbEntity
8
1
62
256
6
ByLayer
370
18
48
1
60
1
100
AcDbLine
10
10.32
20
-4.661
30
0
11
9.859216
21
-1.161002
31
0
39
0
210
0
220
0
230
1
0
LINE
5
C0
100
AcDbEntity
8
1
62
256
6
ByLayer
370
18
48
1
60
1
100
AcDbLine
10
9.859216
20
-1.161002
30
0
11
10.780784
21
-1.160998
31
0
39
0
210
0
220
0
230
1
0
LINE
5
C1
100
AcDbEntity
8
1
62
256
6
ByLayer
370
18
48
1
60
1
100
AcDbLine
10
10.780784
20
-1.160998
30
0
11
10.32
21
-4.661
31
0
39
0
210
0
220
0
230
1
0
LINE
5
1D1
100
AcDbEntity
8
1
62
256
6
ByLayer
370
18
48
1
60
1
100
AcDbLine
10
10.32
20
4.661
30
0
11
10.780784
21
1.161002
31
0
39
0
210
0
220
0
230
1
0
LINE
5
1D2
100
AcDbEntity
8
1
62
256
6
ByLayer
370
18
48
1
60
1
100
AcDbLine
10
10.780784
20
1.161002
30
0
11
9.859216
21
1.160998
31
0
39
0
210
0
220
0
230
1
0
LINE
5
1D3
100
AcDbEntity
8
1
62
256
6
ByLayer
370
18
48
1
60
1
100
AcDbLine
10
9.859216
20
1.160998
30
0
11
10.32
21
4.661
31
0
39
0
210
0
220
0
230
1
0
LINE
5
1D5
100
AcDbEntity
8
1
62
256
6
ByLayer
370
18
48
1
60
1
100
AcDbLine
10
10.32
20
-4.661
30
0
11
9.859216
21
-1.161002
31
0
39
0
210
0
220
0
230
1
0
LINE
5
1D6
100
AcDbEntity
8
1
62
256
6
ByLayer
370
18
48
1
60
1
100
AcDbLine
10
9.859216
20
-1.161002
30
0
11
10.780784
21
-1.160998
31
0
39
0
210
0
220
0
230
1
0
LINE
5
1D7
100
AcDbEntity
8
1
62
256
6
ByLayer
370
18
48
1
60
1
100
AcDbLine
10
10.780784
20
-1.160998
30
0
11
10.32
21
-4.661
31
0
39
0
210
0
220
0
230
1
0
MTEXT
5
1CC
100
AcDbEntity
8
SK2
62
256
6
ByLayer
370
18
48
1
60
0
100
AcDbMText
10
8.978886
20
11.997438
30
0
210
0
220
0
230
1
1
%%c
40
3
41
0
44
1.084337
50
90
71
7
72
5
7
iso_b_vert
0
MTEXT
5
1CF
100
AcDbEntity
8
SK2
62
256
6
ByLayer
370
18
48
1
60
0
100
AcDbMText
10
9.130366
20
30.779241
30
0
210
0
220
0
230
1
1
\W0.8220;ASME-B94.9
40
3.5
41
0
44
1.084337
50
90
71
7
72
5
7
iso_b_vert
0
MTEXT
5
1D0
100
AcDbEntity
8
SK2
62
256
6
ByLayer
370
18
48
1
60
0
100
AcDbMText
10
8.978886
20
17.974
30
0
210
0
220
0
230
1
1
\W0.7468;9.322
40
3
41
0
44
1.084337
50
90
71
7
72
5
7
iso_b_vert
0
MTEXT
5
1D9
100
AcDbEntity
8
SK6
62
256
6
ByLayer
370
18
48
1
60
0
100
AcDbMText
10
12.567138
20
-67.114886
30
0
210
0
220
0
230
1
1
\W0.7513;T300-PM101AE-1/2 P1PM
40
3
41
0
44
1.084337
50
0
71
7
72
5
7
iso_b_vert
0
HATCH
5
1D4
100
AcDbEntity
8
SK2
62
256
6
ByLayer
370
13
48
1
60
0
100
AcDbHatch
10
0
20
0
30
0
210
0
220
0
230
1
2
ANSI31
70
0
71
0
91
1
92
5
93
3
72
1
10
10.32
20
4.66100000000003
11
10.7807837415528
21
1.16100169255321
72
1
10
10.7807837415528
20
1.16100169255321
11
9.85921625844722
21
1.16099830744685
72
1
10
9.85921625844722
20
1.16099830744685
11
10.32
21
4.66100000000003
97
0
75
0
76
1
52
0
41
0.0062
77
0
78
1
53
45
43
0
44
0
45
-0.0139193969876572
46
0.0139193969876572
79
0
47
0
98
1
10
0
20
0
0
HATCH
5
1D8
100
AcDbEntity
8
SK2
62
256
6
ByLayer
370
13
48
1
60
0
100
AcDbHatch
10
0
20
0
30
0
210
0
220
0
230
1
2
ANSI31
70
0
71
0
91
1
92
5
93
3
72
1
10
10.32
20
-4.66099999999997
11
9.85921625844722
21
-1.16100169255316
72
1
10
9.85921625844722
20
-1.16100169255316
11
10.7807837415528
21
-1.16099830744679
72
1
10
10.7807837415528
20
-1.16099830744679
11
10.32
21
-4.66099999999997
97
0
75
0
76
1
52
0
41
0.0062
77
0
78
1
53
45
43
0
44
0
45
-0.0139193969876572
46
0.0139193969876572
79
0
47
0
98
1
10
0
20
0
0
DIMENSION
5
1DC
100
AcDbEntity
8
SK2
62
256
6
ByLayer
370
18
48
1
60
0
100
AcDbDimension
2
_U0
10
81.82
20
-51.085835
30
0
11
26.82
21
-51.085835
31
0
70
32
71
1
72
1
41
1
210
0
220
0
230
1
3
Standard
100
AcDbAlignedDimension
13
-28.18
23
0
33
0
14
81.82
24
0
34
0
50
0
100
AcDbRotatedDimension
1001
ACAD
1000
DSTYLE
1002
{
1070
   371
1070
    13
1070
   372
1070
    13
1070
     3
1000

1070
   170
1070
     0
1070
   144
1040
1.0
1070
   277
1070
     2
1070
   284
1070
     8
1070
   278
1070
    46
1070
   146
1040
1.166667
1070
   345
1005
16
1070
   347
1005
16
1070
   346
1005
16
1070
   344
1005
0
1070
   343
1005
0
1070
   172
1070
     1
1070
    76
1070
     0
1070
    75
1070
     0
1070
   282
1070
     0
1070
   281
1070
     0
1070
    71
1070
     0
1070
    74
1070
     0
1070
   279
1070
     0
1070
   173
1070
     1
1070
   340
1005
1CD
1070
   271
1070
     2
1070
   272
1070
     3
1070
    77
1070
     1
1070
    73
1070
     1
1070
   171
1070
     3
1070
   274
1070
     4
1070
   177
1070
     2
1070
   176
1070
     2
1070
   178
1070
     2
1070
    78
1070
     8
1070
    48
1040
-0.1
1070
    41
1040
3.5
1070
   147
1040
1.5
1070
    42
1040
1.5875
1070
    44
1040
2.0
1070
   140
1040
3.0
1002
}
1001
ACAD_DSTYLE_DIM_LINETYPE
1070
   380
1005
16
1001
ACAD_DSTYLE_DIM_EXT1_LINETYPE
1070
   381
1005
16
1001
ACAD_DSTYLE_DIM_EXT2_LINETYPE
1070
   382
1005
16
0
DIMENSION
5
1F5
100
AcDbEntity
8
SK2
62
256
6
ByLayer
370
18
48
1
60
0
100
AcDbDimension
2
_U1
10
26.82
20
-43.085835
30
0
11
54.32
21
-43.085835
31
0
70
32
71
1
72
1
41
1
210
0
220
0
230
1
3
Standard
100
AcDbAlignedDimension
13
81.82
23
0
33
0
14
26.82
24
0
34
0
50
0
100
AcDbRotatedDimension
1001
ACAD
1000
DSTYLE
1002
{
1070
   371
1070
    13
1070
   372
1070
    13
1070
     3
1000

1070
   170
1070
     0
1070
   144
1040
1.0
1070
   277
1070
     2
1070
   284
1070
     8
1070
   278
1070
    46
1070
   146
1040
1.166667
1070
   345
1005
16
1070
   347
1005
16
1070
   346
1005
16
1070
   344
1005
0
1070
   343
1005
0
1070
   172
1070
     1
1070
    76
1070
     0
1070
    75
1070
     0
1070
   282
1070
     0
1070
   281
1070
     0
1070
    71
1070
     0
1070
    74
1070
     0
1070
   279
1070
     0
1070
   173
1070
     1
1070
   340
1005
1CD
1070
   271
1070
     2
1070
   272
1070
     3
1070
    77
1070
     1
1070
    73
1070
     1
1070
   171
1070
     3
1070
   274
1070
     4
1070
   177
1070
     2
1070
   176
1070
     2
1070
   178
1070
     2
1070
    78
1070
     8
1070
    48
1040
-0.1
1070
    41
1040
3.5
1070
   147
1040
1.5
1070
    42
1040
1.5875
1070
    44
1040
2.0
1070
   140
1040
3.0
1002
}
1001
ACAD_DSTYLE_DIM_LINETYPE
1070
   380
1005
16
1001
ACAD_DSTYLE_DIM_EXT1_LINETYPE
1070
   381
1005
16
1001
ACAD_DSTYLE_DIM_EXT2_LINETYPE
1070
   382
1005
16
0
DIMENSION
5
20D
100
AcDbEntity
8
2
62
256
6
ByLayer
370
18
48
1
60
0
100
AcDbDimension
2
_U2
10
35.07
20
-35.085835
30
0
11
58.445
21
-35.085835
31
0
70
32
71
1
72
1
41
1
210
0
220
0
230
1
3
Standard
100
AcDbAlignedDimension
13
81.82
23
0
33
0
14
35.07
24
0
34
0
50
0
100
AcDbRotatedDimension
1001
ACAD
1000
DSTYLE
1002
{
1070
   371
1070
    13
1070
   372
1070
    13
1070
     3
1000

1070
   170
1070
     0
1070
   144
1040
1.0
1070
   277
1070
     2
1070
   284
1070
     8
1070
   278
1070
    46
1070
   146
1040
1.166667
1070
   345
1005
16
1070
   347
1005
16
1070
   346
1005
16
1070
   344
1005
0
1070
   343
1005
0
1070
   172
1070
     1
1070
    76
1070
     0
1070
    75
1070
     0
1070
   282
1070
     0
1070
   281
1070
     0
1070
    71
1070
     0
1070
    74
1070
     0
1070
   279
1070
     0
1070
   173
1070
     1
1070
   340
1005
1CD
1070
   271
1070
     2
1070
   272
1070
     3
1070
    77
1070
     1
1070
    73
1070
     1
1070
   171
1070
     3
1070
   274
1070
     4
1070
   177
1070
     2
1070
   176
1070
     2
1070
   178
1070
     2
1070
    78
1070
     8
1070
    48
1040
-0.1
1070
    41
1040
3.5
1070
   147
1040
1.5
1070
    42
1040
1.5875
1070
    44
1040
2.0
1070
   140
1040
3.0
1002
}
1001
ACAD_DSTYLE_DIM_LINETYPE
1070
   380
1005
16
1001
ACAD_DSTYLE_DIM_EXT1_LINETYPE
1070
   381
1005
16
1001
ACAD_DSTYLE_DIM_EXT2_LINETYPE
1070
   382
1005
16
0
DIMENSION
5
226
100
AcDbEntity
8
SK2
62
256
6
ByLayer
370
18
48
1
60
0
100
AcDbDimension
2
_U3
10
63.82
20
-27.085835
30
0
11
72.82
21
-27.085835
31
0
70
32
71
1
72
1
41
1
210
0
220
0
230
1
3
Standard
100
AcDbAlignedDimension
13
81.82
23
0
33
0
14
63.82
24
-4.511
34
0
50
0
100
AcDbRotatedDimension
1001
ACAD
1000
DSTYLE
1002
{
1070
   371
1070
    13
1070
   372
1070
    13
1070
     3
1000

1070
   170
1070
     0
1070
   144
1040
1.0
1070
   277
1070
     2
1070
   284
1070
     8
1070
   278
1070
    46
1070
   146
1040
1.166667
1070
   345
1005
16
1070
   347
1005
16
1070
   346
1005
16
1070
   344
1005
0
1070
   343
1005
0
1070
   172
1070
     1
1070
    76
1070
     0
1070
    75
1070
     0
1070
   282
1070
     0
1070
   281
1070
     0
1070
    71
1070
     0
1070
    74
1070
     0
1070
   279
1070
     0
1070
   173
1070
     1
1070
   340
1005
1CD
1070
   271
1070
     2
1070
   272
1070
     3
1070
    77
1070
     1
1070
    73
1070
     1
1070
   171
1070
     3
1070
   274
1070
     4
1070
   177
1070
     2
1070
   176
1070
     2
1070
   178
1070
     2
1070
    78
1070
     8
1070
    48
1040
-0.1
1070
    41
1040
3.5
1070
   147
1040
1.5
1070
    42
1040
1.5875
1070
    44
1040
2.0
1070
   140
1040
3.0
1002
}
1001
ACAD_DSTYLE_DIM_LINETYPE
1070
   380
1005
16
1001
ACAD_DSTYLE_DIM_EXT1_LINETYPE
1070
   381
1005
16
1001
ACAD_DSTYLE_DIM_EXT2_LINETYPE
1070
   382
1005
16
0
DIMENSION
5
23E
100
AcDbEntity
8
SK2
62
256
6
ByLayer
370
18
48
1
60
0
100
AcDbDimension
2
_U4
10
76.45
20
13.338932
30
0
11
79.135
21
13.338932
31
0
70
32
71
1
72
1
41
1
210
0
220
0
230
1
3
Standard
100
AcDbAlignedDimension
13
81.82
23
0
33
0
14
76.45
24
0
34
0
50
0
100
AcDbRotatedDimension
1001
ACAD
1000
DSTYLE
1002
{
1070
   371
1070
    13
1070
   372
1070
    13
1070
     3
1000

1070
   170
1070
     0
1070
   144
1040
1.0
1070
   277
1070
     2
1070
   284
1070
     8
1070
   278
1070
    46
1070
   146
1040
1.166667
1070
   345
1005
16
1070
   347
1005
16
1070
   346
1005
16
1070
   344
1005
0
1070
   343
1005
0
1070
   172
1070
     1
1070
    76
1070
     0
1070
    75
1070
     0
1070
   282
1070
     0
1070
   281
1070
     0
1070
    71
1070
     0
1070
    74
1070
     0
1070
   279
1070
     0
1070
   173
1070
     1
1070
   340
1005
1CD
1070
   271
1070
     2
1070
   272
1070
     3
1070
    77
1070
     1
1070
    73
1070
     1
1070
   171
1070
     3
1070
   274
1070
     4
1070
   177
1070
     2
1070
   176
1070
     2
1070
   178
1070
     2
1070
    78
1070
     8
1070
    48
1040
-0.1
1070
    41
1040
3.5
1070
   147
1040
1.5
1070
    42
1040
1.5875
1070
    44
1040
2.0
1070
   140
1040
3.0
1002
}
1001
ACAD_DSTYLE_DIM_LINETYPE
1070
   380
1005
16
1001
ACAD_DSTYLE_DIM_EXT1_LINETYPE
1070
   381
1005
16
1001
ACAD_DSTYLE_DIM_EXT2_LINETYPE
1070
   382
1005
16
0
DIMENSION
5
258
100
AcDbEntity
8
2
62
256
6
ByLayer
370
18
48
1
60
0
100
AcDbDimension
2
_U5
10
98.32
20
6.419466
30
0
11
98.32
21
23.776609
31
0
70
32
71
1
72
1
41
1
210
0
220
0
230
1
3
Standard
100
AcDbAlignedDimension
13
81.82
23
-6.419466
33
0
14
81.82
24
6.419466
34
0
50
90
100
AcDbRotatedDimension
1001
ACAD
1000
DSTYLE
1002
{
1070
   371
1070
    13
1070
   372
1070
    13
1070
     3
1000

1070
   170
1070
     0
1070
   144
1040
1.0
1070
   277
1070
     2
1070
   284
1070
     8
1070
   278
1070
    46
1070
   146
1040
1.166667
1070
   345
1005
16
1070
   347
1005
16
1070
   346
1005
16
1070
   344
1005
0
1070
   343
1005
0
1070
   172
1070
     1
1070
    76
1070
     0
1070
    75
1070
     0
1070
   282
1070
     0
1070
   281
1070
     0
1070
    71
1070
     0
1070
    74
1070
     0
1070
   279
1070
     0
1070
   173
1070
     1
1070
   340
1005
1CD
1070
   271
1070
     2
1070
   272
1070
     3
1070
    77
1070
     1
1070
    73
1070
     0
1070
   171
1070
     3
1070
   274
1070
     4
1070
   177
1070
     2
1070
   176
1070
     2
1070
   178
1070
     2
1070
    78
1070
     8
1070
    48
1040
-0.1
1070
    41
1040
3.5
1070
   147
1040
1.5
1070
    42
1040
1.5875
1070
    44
1040
2.0
1070
   140
1040
3.0
1002
}
1001
ACAD_DSTYLE_DIM_LINETYPE
1070
   380
1005
16
1001
ACAD_DSTYLE_DIM_EXT1_LINETYPE
1070
   381
1005
16
1001
ACAD_DSTYLE_DIM_EXT2_LINETYPE
1070
   382
1005
16
0
DIMENSION
5
273
100
AcDbEntity
8
SK2
62
256
6
ByLayer
370
18
48
1
60
0
100
AcDbDimension
2
_U6
10
-33.68
20
-3.495
30
0
11
-33.68
21
19.423571
31
0
70
32
71
1
72
1
41
1
210
0
220
0
230
1
3
Standard
100
AcDbAlignedDimension
13
-28.18
23
3.495
33
0
14
-28.18
24
-3.495
34
0
50
90
100
AcDbRotatedDimension
1001
ACAD
1000
DSTYLE
1002
{
1070
   371
1070
    13
1070
   372
1070
    13
1070
     3
1000

1070
   170
1070
     0
1070
   144
1040
1.0
1070
   277
1070
     2
1070
   284
1070
     8
1070
   278
1070
    46
1070
   146
1040
1.166667
1070
   345
1005
16
1070
   347
1005
16
1070
   346
1005
16
1070
   344
1005
0
1070
   343
1005
0
1070
   172
1070
     1
1070
    76
1070
     0
1070
    75
1070
     0
1070
   282
1070
     0
1070
   281
1070
     0
1070
    71
1070
     0
1070
    74
1070
     0
1070
   279
1070
     0
1070
   173
1070
     1
1070
   340
1005
1CD
1070
   271
1070
     2
1070
   272
1070
     3
1070
    77
1070
     1
1070
    73
1070
     0
1070
   171
1070
     3
1070
   274
1070
     4
1070
   177
1070
     2
1070
   176
1070
     2
1070
   178
1070
     2
1070
    78
1070
     8
1070
    48
1040
-0.1
1070
    41
1040
3.5
1070
   147
1040
1.5
1070
    42
1040
1.5875
1070
    44
1040
2.0
1070
   140
1040
3.0
1002
}
1001
ACAD_DSTYLE_DIM_LINETYPE
1070
   380
1005
16
1001
ACAD_DSTYLE_DIM_EXT1_LINETYPE
1070
   381
1005
16
1001
ACAD_DSTYLE_DIM_EXT2_LINETYPE
1070
   382
1005
16
0
ENDSEC
0
SECTION
2
OBJECTS
0
DICTIONARY
5
2fd
330
0
100
AcDbDictionary
280
0
281
1
3
ACAD_GROUP
350
2fe
3
ACAD_MLINESTYLE
350
2ff
0
DICTIONARY
5
2fe
330
0
100
AcDbDictionary
280
0
281
1
0
DICTIONARY
5
2ff
330
0
100
AcDbDictionary
280
0
281
1
3
Standard
350
18
0
MLINESTYLE
5
18
330
2ff
100
AcDbMlineStyle
2
Standard
70
0
3

62
256
51
90
52
90
71
2
49
-0.5
62
256
6
ByLayer
49
0.5
62
256
6
ByLayer
0
RASTERVARIABLES
5
2eb
330

100
AcDbRasterVariables
90
0
70
1
71
1
72
1
0
ENDSEC
0
EOF
