0
SECTION
2
HEADER
9
$ACADVER
1
AC1015
9
$DWGCODEPAGE
3
ANSI_1252
9
$HANDSEED
5
313
9
$ANGBASE
50
0
9
$ANGDIR
70
0
9
$ATTMODE
70
1
9
$AUNITS
70
0
9
$AUPREC
70
0
9
$CECOLOR
62
256
9
$CELTSCALE
40
1
9
$CELTYPE
6
ByLayer
9
$CELWEIGHT
370
18
9
$CLAYER
8
0
9
$CMLJUST
70
0
9
$CMLSCALE
40
1
9
$CMLSTYLE
2
Standard
9
$DIMSTYLE
2
Standard
9
$TEXTSIZE
40
0.2
9
$TEXTSTYLE
7
Standard
9
$LUNITS
70
2
9
$LUPREC
70
4
9
$EXTNAMES
290
1
9
$INSUNITS
70
4
9
$LTSCALE
40
1
9
$LWDISPLAY
290
1
9
$PDMODE
70
0
9
$PDSIZE
40
0
9
$PLINEGEN
70
0
0
ENDSEC
0
SECTION
2
CLASSES
0
CLASS
1
RASTERVARIABLES
2
AcDbRasterVariables
3
ISM
90
0
280
0
281
0
0
ENDSEC
0
SECTION
2
TABLES
0
TABLE
2
VPORT
5
309
100
AcDbSymbolTable
0
VPORT
5
1
100
AcDbSymbolTableRecord
100
AcDbViewportTableRecord
2
*Active
70
0
10
0
20
0
11
1
21
1
12
-1
22
1
13
0
23
0
14
0.5
24
0.5
15
10
25
10
16
0
26
0
36
1
17
0
27
0
37
0
0
ENDTAB
0
TABLE
2
LTYPE
5
30a
100
AcDbSymbolTable
0
LTYPE
5
14
100
AcDbSymbolTableRecord
100
AcDbLinetypeTableRecord
70
0
2
ByBlock
3

72
65
73
0
40
0
0
LTYPE
5
15
100
AcDbSymbolTableRecord
100
AcDbLinetypeTableRecord
70
0
2
ByLayer
3

72
65
73
0
40
0
0
LTYPE
5
16
100
AcDbSymbolTableRecord
100
AcDbLinetypeTableRecord
70
0
2
Continuous
3
Solid line
72
65
73
0
40
0
0
LTYPE
5
6E
100
AcDbSymbolTableRecord
100
AcDbLinetypeTableRecord
70
0
2
CENTER
3
____ _ ____ _ ____ _ ____
72
65
73
4
40
47.5
49
22
74
0
49
-8.5
74
0
49
8.5
74
0
49
-8.5
74
0
0
LTYPE
5
6F
100
AcDbSymbolTableRecord
100
AcDbLinetypeTableRecord
70
0
2
DASHED
3
__ __ __ __ __ __ __ __ __
72
65
73
2
40
25.72
49
12.86
74
0
49
-12.86
74
0
0
ENDTAB
0
TABLE
2
LAYER
5
30b
100
AcDbSymbolTable
0
LAYER
5
10
100
AcDbSymbolTableRecord
100
AcDbLayerTableRecord
2
0
70
0
62
7
6
Continuous
290
1
370
-3
390
0
0
LAYER
5
71
100
AcDbSymbolTableRecord
100
AcDbLayerTableRecord
2
81
70
0
62
-3
6
Continuous
290
1
370
-3
390
0
0
LAYER
5
73
100
AcDbSymbolTableRecord
100
AcDbLayerTableRecord
2
80
70
0
62
-6
6
Continuous
290
1
370
-3
390
0
0
LAYER
5
75
100
AcDbSymbolTableRecord
100
AcDbLayerTableRecord
2
1
70
0
62
4
6
Continuous
290
1
370
-3
390
0
0
LAYER
5
84
100
AcDbSymbolTableRecord
100
AcDbLayerTableRecord
2
4
70
0
62
-2
6
CENTER
290
1
370
-3
390
0
0
LAYER
5
1E7
100
AcDbSymbolTableRecord
100
AcDbLayerTableRecord
2
Defpoints
70
0
62
7
6
Continuous
290
0
370
-3
390
0
0
LAYER
5
224
100
AcDbSymbolTableRecord
100
AcDbLayerTableRecord
2
2
70
0
62
7
6
Continuous
290
1
370
-3
390
0
0
LAYER
5
2f5
100
AcDbSymbolTableRecord
100
AcDbLayerTableRecord
2
SK4
70
0
62
2
6
CENTER
290
1
370
-3
390
0
0
LAYER
5
2f6
100
AcDbSymbolTableRecord
100
AcDbLayerTableRecord
2
SK1
70
0
62
4
6
Continuous
290
1
370
-3
390
0
0
LAYER
5
2f7
100
AcDbSymbolTableRecord
100
AcDbLayerTableRecord
2
SK2
70
0
62
7
6
Continuous
290
1
370
-3
390
0
0
LAYER
5
2f8
100
AcDbSymbolTableRecord
100
AcDbLayerTableRecord
2
SK6
70
0
62
5
6
Continuous
290
1
370
-3
390
0
0
ENDTAB
0
TABLE
2
STYLE
5
30c
100
AcDbSymbolTable
0
STYLE
5
11
100
AcDbSymbolTableRecord
100
AcDbTextStyleTableRecord
2
Standard
3
txt
70
0
71
0
40
0
41
1
42
0
50
0
0
STYLE
5
1D5
100
AcDbSymbolTableRecord
100
AcDbTextStyleTableRecord
2
iso_b_vert
3
simplex.shx
70
0
71
0
40
0
41
1
42
0
50
0
0
STYLE
5
1D6
100
AcDbSymbolTableRecord
100
AcDbTextStyleTableRecord
2
DWGDirectTextStyle
3
simplex
70
0
71
0
40
0
41
1
42
0
50
0
0
ENDTAB
0
TABLE
2
DIMSTYLE
5
30d
100
AcDbSymbolTable
100
AcDbDimStyleTable
0
DIMSTYLE
105
27
100
AcDbSymbolTableRecord
100
AcDbDimStyleTableRecord
2
Standard
70
0
3
<>
41
0.18
42
0.0625
44
0.18
140
0.18
147
0.09
73
0
74
0
77
1
271
2
275
0
278
52
280
0
340
11
0
ENDTAB
0
TABLE
2
VIEW
5
30e
100
AcDbSymbolTable
0
ENDTAB
0
TABLE
2
UCS
5
30f
100
AcDbSymbolTable
0
ENDTAB
0
TABLE
2
APPID
5
310
100
AcDbSymbolTable
0
APPID
5
12
100
AcDbSymbolTableRecord
100
AcDbRegAppTableRecord
2
ACAD
70
0
0
APPID
5
1E3
100
AcDbSymbolTableRecord
100
AcDbRegAppTableRecord
2
ACAD_DSTYLE_DIMBREAK
70
0
0
APPID
5
2B4
100
AcDbSymbolTableRecord
100
AcDbRegAppTableRecord
2
ACAD_DSTYLE_DIM_LINETYPE
70
0
0
APPID
5
2B5
100
AcDbSymbolTableRecord
100
AcDbRegAppTableRecord
2
ACAD_DSTYLE_DIM_EXT1_LINETYPE
70
0
0
APPID
5
2B6
100
AcDbSymbolTableRecord
100
AcDbRegAppTableRecord
2
ACAD_DSTYLE_DIM_EXT2_LINETYPE
70
0
0
APPID
5
2F1
100
AcDbSymbolTableRecord
100
AcDbRegAppTableRecord
2
ACAD_MLEADERVER
70
0
0
ENDTAB
0
TABLE
2
BLOCK_RECORD
5
311
100
AcDbSymbolTable
0
BLOCK_RECORD
5
1F
100
AcDbSymbolTableRecord
100
AcDbBlockTableRecord
2
*Model_Space
340
0
70
0
0
BLOCK_RECORD
5
1B
100
AcDbSymbolTableRecord
100
AcDbBlockTableRecord
2
*Paper_Space
340
0
70
0
0
BLOCK_RECORD
5
23
100
AcDbSymbolTableRecord
100
AcDbBlockTableRecord
2
*Paper_Space0
340
0
70
0
0
BLOCK_RECORD
5
1E8
100
AcDbSymbolTableRecord
100
AcDbBlockTableRecord
2
*D1
340
0
70
0
0
BLOCK_RECORD
5
1F4
100
AcDbSymbolTableRecord
100
AcDbBlockTableRecord
2
_U0
340
0
70
0
0
BLOCK_RECORD
5
200
100
AcDbSymbolTableRecord
100
AcDbBlockTableRecord
2
*D3
340
0
70
0
0
BLOCK_RECORD
5
20C
100
AcDbSymbolTableRecord
100
AcDbBlockTableRecord
2
_U1
340
0
70
0
0
BLOCK_RECORD
5
218
100
AcDbSymbolTableRecord
100
AcDbBlockTableRecord
2
*D5
340
0
70
0
0
BLOCK_RECORD
5
225
100
AcDbSymbolTableRecord
100
AcDbBlockTableRecord
2
_U2
340
0
70
0
0
BLOCK_RECORD
5
231
100
AcDbSymbolTableRecord
100
AcDbBlockTableRecord
2
*D7
340
0
70
0
0
BLOCK_RECORD
5
23E
100
AcDbSymbolTableRecord
100
AcDbBlockTableRecord
2
_U3
340
0
70
0
0
BLOCK_RECORD
5
24A
100
AcDbSymbolTableRecord
100
AcDbBlockTableRecord
2
*D9
340
0
70
0
0
BLOCK_RECORD
5
257
100
AcDbSymbolTableRecord
100
AcDbBlockTableRecord
2
_U4
340
0
70
0
0
BLOCK_RECORD
5
264
100
AcDbSymbolTableRecord
100
AcDbBlockTableRecord
2
*D11
340
0
70
0
0
BLOCK_RECORD
5
272
100
AcDbSymbolTableRecord
100
AcDbBlockTableRecord
2
_U5
340
0
70
0
0
BLOCK_RECORD
5
27F
100
AcDbSymbolTableRecord
100
AcDbBlockTableRecord
2
*D13
340
0
70
0
0
BLOCK_RECORD
5
28D
100
AcDbSymbolTableRecord
100
AcDbBlockTableRecord
2
_U6
340
0
70
0
0
ENDTAB
0
ENDSEC
0
SECTION
2
BLOCKS
0
BLOCK
5
20
100
AcDbEntity
8
0
100
AcDbBlockBegin
2
*Model_Space
70
0
10
0
20
0
30
0
3
*Model_Space
0
ENDBLK
5
21
100
AcDbEntity
8
0
100
AcDbBlockEnd
0
BLOCK
5
1C
100
AcDbEntity
8
0
100
AcDbBlockBegin
2
*Paper_Space
70
0
10
0
20
0
30
0
3
*Paper_Space
0
ENDBLK
5
1D
100
AcDbEntity
8
0
100
AcDbBlockEnd
0
BLOCK
5
24
100
AcDbEntity
8
0
100
AcDbBlockBegin
2
*Paper_Space0
70
0
10
0
20
0
30
0
3
*Paper_Space0
0
ENDBLK
5
25
100
AcDbEntity
8
0
100
AcDbBlockEnd
0
BLOCK
5
1E9
100
AcDbEntity
8
0
100
AcDbBlockBegin
2
*D1
70
1
10
0
20
0
30
0
3
*D1
0
LINE
5
1EB
100
AcDbEntity
8
0
62
256
6
ByLayer
370
-2
48
1
60
0
100
AcDbLine
10
-28
20
-1.5875
30
0
11
-28
21
-52.324569
31
0
39
0
210
0
220
0
230
1
0
LINE
5
1EC
100
AcDbEntity
8
0
62
256
6
ByLayer
370
-2
48
1
60
0
100
AcDbLine
10
72
20
-1.5875
30
0
11
72
21
-52.324569
31
0
39
0
210
0
220
0
230
1
0
LINE
5
1ED
100
AcDbEntity
8
0
62
256
6
ByLayer
370
-2
48
1
60
0
100
AcDbLine
10
-24.5
20
-50.324569
30
0
11
68.5
21
-50.324569
31
0
39
0
210
0
220
0
230
1
0
SOLID
5
1EE
100
AcDbEntity
8
0
62
256
6
ByLayer
370
-1
48
1
60
0
100
AcDbTrace
10
-24.5
20
-49.741236
30
0
11
-24.5
21
-50.907902
31
0
12
-28
22
-50.324569
32
0
13
-28
23
-50.324569
33
0
39
0
210
0
220
0
230
1
0
SOLID
5
1EF
100
AcDbEntity
8
0
62
256
6
ByLayer
370
-1
48
1
60
0
100
AcDbTrace
10
68.5
20
-50.907902
30
0
11
68.5
21
-49.741236
31
0
12
72
22
-50.324569
32
0
13
72
23
-50.324569
33
0
39
0
210
0
220
0
230
1
0
MTEXT
5
1F0
100
AcDbEntity
8
0
62
256
6
ByLayer
370
18
48
1
60
0
100
AcDbMText
10
22
20
-44.324569
30
0
210
0
220
0
230
1
1
\A1;100
40
3
41
0
44
1
50
0
71
5
72
5
7
iso_b_vert
0
POINT
5
1F1
100
AcDbEntity
8
Defpoints
62
0
6
ByLayer
370
-1
48
1
60
0
100
AcDbPoint
10
-28
20
0
30
0
39
0
210
0
220
0
230
1
50
360
0
POINT
5
1F2
100
AcDbEntity
8
Defpoints
62
0
6
ByLayer
370
-1
48
1
60
0
100
AcDbPoint
10
72
20
0
30
0
39
0
210
0
220
0
230
1
50
360
0
POINT
5
1F3
100
AcDbEntity
8
Defpoints
62
0
6
ByLayer
370
-1
48
1
60
0
100
AcDbPoint
10
72
20
-50.324569
30
0
39
0
210
0
220
0
230
1
50
360
0
ENDBLK
5
1EA
100
AcDbEntity
8
0
100
AcDbBlockEnd
0
BLOCK
5
1FB
100
AcDbEntity
8
0
100
AcDbBlockBegin
2
_U0
70
0
10
0
20
0
30
0
3
_U0
0
MTEXT
5
1F5
100
AcDbEntity
8
SK2
62
256
6
ByLayer
370
18
48
1
60
0
100
AcDbMText
10
17.892572
20
-49.439455
30
0
210
0
220
0
230
1
1
\W0.6864;100.0
40
3
41
0
44
1.084337
50
0
71
7
72
5
7
iso_b_vert
0
LINE
5
1F6
100
AcDbEntity
8
SK2
62
256
6
ByLayer
370
13
48
1
60
0
100
AcDbLine
10
-28
20
-1.5875
30
0
11
-28
21
-52.324569
31
0
39
0
210
0
220
0
230
1
0
LINE
5
1F7
100
AcDbEntity
8
SK2
62
256
6
ByLayer
370
13
48
1
60
0
100
AcDbLine
10
72
20
-1.5875
30
0
11
72
21
-52.324569
31
0
39
0
210
0
220
0
230
1
0
LINE
5
1F8
100
AcDbEntity
8
SK2
62
256
6
ByLayer
370
13
48
1
60
0
100
AcDbLine
10
-28
20
-50.324569
30
0
11
72
21
-50.324569
31
0
39
0
210
0
220
0
230
1
0
SOLID
5
1F9
100
AcDbEntity
8
SK2
62
256
6
ByLayer
370
18
48
1
60
0
100
AcDbTrace
10
-28
20
-50.324569
30
0
11
-24.500002
21
-49.863785
31
0
12
-24.499998
22
-50.785353
32
0
13
-24.499998
23
-50.785353
33
0
39
0
210
0
220
0
230
1
0
SOLID
5
1FA
100
AcDbEntity
8
SK2
62
256
6
ByLayer
370
18
48
1
60
0
100
AcDbTrace
10
72
20
-50.324569
30
0
11
68.500002
21
-50.785353
31
0
12
68.499998
22
-49.863785
32
0
13
68.499998
23
-49.863785
33
0
39
0
210
0
220
0
230
1
0
ENDBLK
5
1FC
100
AcDbEntity
8
0
100
AcDbBlockEnd
0
BLOCK
5
201
100
AcDbEntity
8
0
100
AcDbBlockBegin
2
*D3
70
1
10
0
20
0
30
0
3
*D3
0
LINE
5
203
100
AcDbEntity
8
0
62
256
6
ByLayer
370
-2
48
1
60
0
100
AcDbLine
10
72
20
-1.5875
30
0
11
72
21
-44.324569
31
0
39
0
210
0
220
0
230
1
0
LINE
5
204
100
AcDbEntity
8
0
62
256
6
ByLayer
370
-2
48
1
60
0
100
AcDbLine
10
33
20
-1.5875
30
0
11
33
21
-44.324569
31
0
39
0
210
0
220
0
230
1
0
LINE
5
205
100
AcDbEntity
8
0
62
256
6
ByLayer
370
-2
48
1
60
0
100
AcDbLine
10
68.5
20
-42.324569
30
0
11
36.5
21
-42.324569
31
0
39
0
210
0
220
0
230
1
0
SOLID
5
206
100
AcDbEntity
8
0
62
256
6
ByLayer
370
-1
48
1
60
0
100
AcDbTrace
10
68.5
20
-42.907902
30
0
11
68.5
21
-41.741236
31
0
12
72
22
-42.324569
32
0
13
72
23
-42.324569
33
0
39
0
210
0
220
0
230
1
0
SOLID
5
207
100
AcDbEntity
8
0
62
256
6
ByLayer
370
-1
48
1
60
0
100
AcDbTrace
10
36.5
20
-41.741236
30
0
11
36.5
21
-42.907902
31
0
12
33
22
-42.324569
32
0
13
33
23
-42.324569
33
0
39
0
210
0
220
0
230
1
0
MTEXT
5
208
100
AcDbEntity
8
0
62
256
6
ByLayer
370
18
48
1
60
0
100
AcDbMText
10
52.5
20
-36.324569
30
0
210
0
220
0
230
1
1
\A1;39
40
3
41
0
44
1
50
0
71
5
72
5
7
iso_b_vert
0
POINT
5
209
100
AcDbEntity
8
Defpoints
62
0
6
ByLayer
370
-1
48
1
60
0
100
AcDbPoint
10
72
20
0
30
0
39
0
210
0
220
0
230
1
50
360
0
POINT
5
20A
100
AcDbEntity
8
Defpoints
62
0
6
ByLayer
370
-1
48
1
60
0
100
AcDbPoint
10
33
20
0
30
0
39
0
210
0
220
0
230
1
50
360
0
POINT
5
20B
100
AcDbEntity
8
Defpoints
62
0
6
ByLayer
370
-1
48
1
60
0
100
AcDbPoint
10
33
20
-42.324569
30
0
39
0
210
0
220
0
230
1
50
360
0
ENDBLK
5
202
100
AcDbEntity
8
0
100
AcDbBlockEnd
0
BLOCK
5
213
100
AcDbEntity
8
0
100
AcDbBlockBegin
2
_U1
70
0
10
0
20
0
30
0
3
_U1
0
MTEXT
5
20D
100
AcDbEntity
8
SK2
62
256
6
ByLayer
370
18
48
1
60
0
100
AcDbMText
10
49.138544
20
-41.439455
30
0
210
0
220
0
230
1
1
\W0.7346;39.0
40
3
41
0
44
1.084337
50
0
71
7
72
5
7
iso_b_vert
0
LINE
5
20E
100
AcDbEntity
8
SK2
62
256
6
ByLayer
370
13
48
1
60
0
100
AcDbLine
10
72
20
-1.5875
30
0
11
72
21
-44.324569
31
0
39
0
210
0
220
0
230
1
0
LINE
5
20F
100
AcDbEntity
8
SK2
62
256
6
ByLayer
370
13
48
1
60
0
100
AcDbLine
10
33
20
-1.5875
30
0
11
33
21
-44.324569
31
0
39
0
210
0
220
0
230
1
0
LINE
5
210
100
AcDbEntity
8
SK2
62
256
6
ByLayer
370
13
48
1
60
0
100
AcDbLine
10
72
20
-42.324569
30
0
11
33
21
-42.324569
31
0
39
0
210
0
220
0
230
1
0
SOLID
5
211
100
AcDbEntity
8
SK2
62
256
6
ByLayer
370
18
48
1
60
0
100
AcDbTrace
10
72
20
-42.324569
30
0
11
68.500002
21
-42.785353
31
0
12
68.499998
22
-41.863785
32
0
13
68.499998
23
-41.863785
33
0
39
0
210
0
220
0
230
1
0
SOLID
5
212
100
AcDbEntity
8
SK2
62
256
6
ByLayer
370
18
48
1
60
0
100
AcDbTrace
10
33
20
-42.324569
30
0
11
36.499998
21
-41.863785
31
0
12
36.500002
22
-42.785353
32
0
13
36.500002
23
-42.785353
33
0
39
0
210
0
220
0
230
1
0
ENDBLK
5
214
100
AcDbEntity
8
0
100
AcDbBlockEnd
0
BLOCK
5
219
100
AcDbEntity
8
0
100
AcDbBlockBegin
2
*D5
70
1
10
0
20
0
30
0
3
*D5
0
LINE
5
21B
100
AcDbEntity
8
0
62
256
6
ByLayer
370
-2
48
1
60
0
100
AcDbLine
10
72
20
-1.5875
30
0
11
72
21
-36.324569
31
0
39
0
210
0
220
0
230
1
0
LINE
5
21C
100
AcDbEntity
8
0
62
256
6
ByLayer
370
-2
48
1
60
0
100
AcDbLine
10
38.85
20
-1.5875
30
0
11
38.85
21
-36.324569
31
0
39
0
210
0
220
0
230
1
0
LINE
5
21D
100
AcDbEntity
8
0
62
256
6
ByLayer
370
-2
48
1
60
0
100
AcDbLine
10
68.5
20
-34.324569
30
0
11
42.35
21
-34.324569
31
0
39
0
210
0
220
0
230
1
0
SOLID
5
21E
100
AcDbEntity
8
0
62
256
6
ByLayer
370
-1
48
1
60
0
100
AcDbTrace
10
68.5
20
-34.907902
30
0
11
68.5
21
-33.741236
31
0
12
72
22
-34.324569
32
0
13
72
23
-34.324569
33
0
39
0
210
0
220
0
230
1
0
SOLID
5
21F
100
AcDbEntity
8
0
62
256
6
ByLayer
370
-1
48
1
60
0
100
AcDbTrace
10
42.35
20
-33.741236
30
0
11
42.35
21
-34.907902
31
0
12
38.85
22
-34.324569
32
0
13
38.85
23
-34.324569
33
0
39
0
210
0
220
0
230
1
0
MTEXT
5
220
100
AcDbEntity
8
0
62
256
6
ByLayer
370
18
48
1
60
0
100
AcDbMText
10
55.425
20
-28.324569
30
0
210
0
220
0
230
1
1
\A1;33.15
40
3
41
0
44
1
50
0
71
5
72
5
7
iso_b_vert
0
POINT
5
221
100
AcDbEntity
8
Defpoints
62
0
6
ByLayer
370
-1
48
1
60
0
100
AcDbPoint
10
72
20
0
30
0
39
0
210
0
220
0
230
1
50
360
0
POINT
5
222
100
AcDbEntity
8
Defpoints
62
0
6
ByLayer
370
-1
48
1
60
0
100
AcDbPoint
10
38.85
20
0
30
0
39
0
210
0
220
0
230
1
50
360
0
POINT
5
223
100
AcDbEntity
8
Defpoints
62
0
6
ByLayer
370
-1
48
1
60
0
100
AcDbPoint
10
38.85
20
-34.324569
30
0
39
0
210
0
220
0
230
1
50
360
0
ENDBLK
5
21A
100
AcDbEntity
8
0
100
AcDbBlockEnd
0
BLOCK
5
22C
100
AcDbEntity
8
0
100
AcDbBlockBegin
2
_U2
70
0
10
0
20
0
30
0
3
_U2
0
MTEXT
5
226
100
AcDbEntity
8
2
62
256
6
ByLayer
370
18
48
1
60
0
100
AcDbMText
10
52.063544
20
-33.439455
30
0
210
0
220
0
230
1
1
\W0.7346;33.2
40
3
41
0
44
1.084337
50
0
71
7
72
5
7
iso_b_vert
0
LINE
5
227
100
AcDbEntity
8
2
62
256
6
ByLayer
370
13
48
1
60
0
100
AcDbLine
10
72
20
-1.5875
30
0
11
72
21
-36.324569
31
0
39
0
210
0
220
0
230
1
0
LINE
5
228
100
AcDbEntity
8
2
62
256
6
ByLayer
370
13
48
1
60
0
100
AcDbLine
10
38.85
20
-1.5875
30
0
11
38.85
21
-36.324569
31
0
39
0
210
0
220
0
230
1
0
LINE
5
229
100
AcDbEntity
8
2
62
256
6
ByLayer
370
13
48
1
60
0
100
AcDbLine
10
72
20
-34.324569
30
0
11
38.85
21
-34.324569
31
0
39
0
210
0
220
0
230
1
0
SOLID
5
22A
100
AcDbEntity
8
2
62
256
6
ByLayer
370
18
48
1
60
0
100
AcDbTrace
10
72
20
-34.324569
30
0
11
68.500002
21
-34.785353
31
0
12
68.499998
22
-33.863785
32
0
13
68.499998
23
-33.863785
33
0
39
0
210
0
220
0
230
1
0
SOLID
5
22B
100
AcDbEntity
8
2
62
256
6
ByLayer
370
18
48
1
60
0
100
AcDbTrace
10
38.85
20
-34.324569
30
0
11
42.349998
21
-33.863785
31
0
12
42.350002
22
-34.785353
32
0
13
42.350002
23
-34.785353
33
0
39
0
210
0
220
0
230
1
0
ENDBLK
5
22D
100
AcDbEntity
8
0
100
AcDbBlockEnd
0
BLOCK
5
232
100
AcDbEntity
8
0
100
AcDbBlockBegin
2
*D7
70
1
10
0
20
0
30
0
3
*D7
0
LINE
5
234
100
AcDbEntity
8
0
62
256
6
ByLayer
370
-2
48
1
60
0
100
AcDbLine
10
72
20
-1.5875
30
0
11
72
21
-28.324569
31
0
39
0
210
0
220
0
230
1
0
LINE
5
235
100
AcDbEntity
8
0
62
256
6
ByLayer
370
-2
48
1
60
0
100
AcDbLine
10
57
20
-5.5281
30
0
11
57
21
-28.324569
31
0
39
0
210
0
220
0
230
1
0
LINE
5
236
100
AcDbEntity
8
0
62
256
6
ByLayer
370
-2
48
1
60
0
100
AcDbLine
10
75.5
20
-26.324569
30
0
11
79
21
-26.324569
31
0
39
0
210
0
220
0
230
1
0
LINE
5
237
100
AcDbEntity
8
0
62
256
6
ByLayer
370
-2
48
1
60
0
100
AcDbLine
10
53.5
20
-26.324569
30
0
11
50
21
-26.324569
31
0
39
0
210
0
220
0
230
1
0
SOLID
5
238
100
AcDbEntity
8
0
62
256
6
ByLayer
370
-1
48
1
60
0
100
AcDbTrace
10
75.5
20
-25.741236
30
0
11
75.5
21
-26.907902
31
0
12
72
22
-26.324569
32
0
13
72
23
-26.324569
33
0
39
0
210
0
220
0
230
1
0
SOLID
5
239
100
AcDbEntity
8
0
62
256
6
ByLayer
370
-1
48
1
60
0
100
AcDbTrace
10
53.5
20
-26.907902
30
0
11
53.5
21
-25.741236
31
0
12
57
22
-26.324569
32
0
13
57
23
-26.324569
33
0
39
0
210
0
220
0
230
1
0
MTEXT
5
23A
100
AcDbEntity
8
0
62
256
6
ByLayer
370
18
48
1
60
0
100
AcDbMText
10
64.5
20
-20.324569
30
0
210
0
220
0
230
1
1
\A1;15
40
3
41
0
44
1
50
0
71
5
72
5
7
iso_b_vert
0
POINT
5
23B
100
AcDbEntity
8
Defpoints
62
0
6
ByLayer
370
-1
48
1
60
0
100
AcDbPoint
10
72
20
0
30
0
39
0
210
0
220
0
230
1
50
360
0
POINT
5
23C
100
AcDbEntity
8
Defpoints
62
0
6
ByLayer
370
-1
48
1
60
0
100
AcDbPoint
10
57
20
-3.9406
30
0
39
0
210
0
220
0
230
1
50
360
0
POINT
5
23D
100
AcDbEntity
8
Defpoints
62
0
6
ByLayer
370
-1
48
1
60
0
100
AcDbPoint
10
57
20
-26.324569
30
0
39
0
210
0
220
0
230
1
50
360
0
ENDBLK
5
233
100
AcDbEntity
8
0
100
AcDbBlockEnd
0
BLOCK
5
245
100
AcDbEntity
8
0
100
AcDbBlockBegin
2
_U3
70
0
10
0
20
0
30
0
3
_U3
0
MTEXT
5
23F
100
AcDbEntity
8
SK2
62
256
6
ByLayer
370
18
48
1
60
0
100
AcDbMText
10
61.513486
20
-25.439455
30
0
210
0
220
0
230
1
1
\W0.6562;15.0
40
3
41
0
44
1.084337
50
0
71
7
72
5
7
iso_b_vert
0
LINE
5
240
100
AcDbEntity
8
SK2
62
256
6
ByLayer
370
13
48
1
60
0
100
AcDbLine
10
72
20
-1.5875
30
0
11
72
21
-28.324569
31
0
39
0
210
0
220
0
230
1
0
LINE
5
241
100
AcDbEntity
8
SK2
62
256
6
ByLayer
370
13
48
1
60
0
100
AcDbLine
10
57
20
-5.5281
30
0
11
57
21
-28.324569
31
0
39
0
210
0
220
0
230
1
0
LINE
5
242
100
AcDbEntity
8
SK2
62
256
6
ByLayer
370
13
48
1
60
0
100
AcDbLine
10
72
20
-26.324569
30
0
11
57
21
-26.324569
31
0
39
0
210
0
220
0
230
1
0
SOLID
5
243
100
AcDbEntity
8
SK2
62
256
6
ByLayer
370
18
48
1
60
0
100
AcDbTrace
10
72
20
-26.324569
30
0
11
68.500002
21
-26.785353
31
0
12
68.499998
22
-25.863785
32
0
13
68.499998
23
-25.863785
33
0
39
0
210
0
220
0
230
1
0
SOLID
5
244
100
AcDbEntity
8
SK2
62
256
6
ByLayer
370
18
48
1
60
0
100
AcDbTrace
10
57
20
-26.324569
30
0
11
60.499998
21
-25.863785
31
0
12
60.500002
22
-26.785353
32
0
13
60.500002
23
-26.785353
33
0
39
0
210
0
220
0
230
1
0
ENDBLK
5
246
100
AcDbEntity
8
0
100
AcDbBlockEnd
0
BLOCK
5
24B
100
AcDbEntity
8
0
100
AcDbBlockBegin
2
*D9
70
1
10
0
20
0
30
0
3
*D9
0
LINE
5
24D
100
AcDbEntity
8
0
62
256
6
ByLayer
370
-2
48
1
60
0
100
AcDbLine
10
72
20
1.5875
30
0
11
72
21
12.651374
31
0
39
0
210
0
220
0
230
1
0
LINE
5
24E
100
AcDbEntity
8
0
62
256
6
ByLayer
370
-2
48
1
60
0
100
AcDbLine
10
67.87
20
1.5875
30
0
11
67.87
21
12.651374
31
0
39
0
210
0
220
0
230
1
0
LINE
5
24F
100
AcDbEntity
8
0
62
256
6
ByLayer
370
-2
48
1
60
0
100
AcDbLine
10
75.5
20
10.651374
30
0
11
79
21
10.651374
31
0
39
0
210
0
220
0
230
1
0
LINE
5
250
100
AcDbEntity
8
0
62
256
6
ByLayer
370
-2
48
1
60
0
100
AcDbLine
10
64.37
20
10.651374
30
0
11
60.87
21
10.651374
31
0
39
0
210
0
220
0
230
1
0
SOLID
5
251
100
AcDbEntity
8
0
62
256
6
ByLayer
370
-1
48
1
60
0
100
AcDbTrace
10
75.5
20
11.234707
30
0
11
75.5
21
10.06804
31
0
12
72
22
10.651374
32
0
13
72
23
10.651374
33
0
39
0
210
0
220
0
230
1
0
SOLID
5
252
100
AcDbEntity
8
0
62
256
6
ByLayer
370
-1
48
1
60
0
100
AcDbTrace
10
64.37
20
10.06804
30
0
11
64.37
21
11.234707
31
0
12
67.87
22
10.651374
32
0
13
67.87
23
10.651374
33
0
39
0
210
0
220
0
230
1
0
MTEXT
5
253
100
AcDbEntity
8
0
62
256
6
ByLayer
370
18
48
1
60
0
100
AcDbMText
10
69.935
20
16.651374
30
0
210
0
220
0
230
1
1
\A1;4.13
40
3
41
0
44
1
50
0
71
5
72
5
7
iso_b_vert
0
POINT
5
254
100
AcDbEntity
8
Defpoints
62
0
6
ByLayer
370
-1
48
1
60
0
100
AcDbPoint
10
72
20
0
30
0
39
0
210
0
220
0
230
1
50
360
0
POINT
5
255
100
AcDbEntity
8
Defpoints
62
0
6
ByLayer
370
-1
48
1
60
0
100
AcDbPoint
10
67.87
20
0
30
0
39
0
210
0
220
0
230
1
50
360
0
POINT
5
256
100
AcDbEntity
8
Defpoints
62
0
6
ByLayer
370
-1
48
1
60
0
100
AcDbPoint
10
67.87
20
10.651374
30
0
39
0
210
0
220
0
230
1
50
360
0
ENDBLK
5
24C
100
AcDbEntity
8
0
100
AcDbBlockEnd
0
BLOCK
5
25F
100
AcDbEntity
8
0
100
AcDbBlockBegin
2
_U4
70
0
10
0
20
0
30
0
3
_U4
0
MTEXT
5
258
100
AcDbEntity
8
SK2
62
256
6
ByLayer
370
18
48
1
60
0
100
AcDbMText
10
66.790544
20
18.536488
30
0
210
0
220
0
230
1
1
\W0.6856;4.13
40
3
41
0
44
1.084337
50
0
71
7
72
5
7
iso_b_vert
0
MTEXT
5
259
100
AcDbEntity
8
SK2
62
256
6
ByLayer
370
18
48
1
60
0
100
AcDbMText
10
66.817044
20
11.434007
30
0
210
0
220
0
230
1
1
\W0.6474;'C'
40
3.5
41
0
44
1.084337
50
0
71
7
72
5
7
iso_b_vert
0
LINE
5
25A
100
AcDbEntity
8
SK2
62
256
6
ByLayer
370
13
48
1
60
0
100
AcDbLine
10
72
20
1.5875
30
0
11
72
21
12.651374
31
0
39
0
210
0
220
0
230
1
0
LINE
5
25B
100
AcDbEntity
8
SK2
62
256
6
ByLayer
370
13
48
1
60
0
100
AcDbLine
10
67.87
20
1.5875
30
0
11
67.87
21
12.651374
31
0
39
0
210
0
220
0
230
1
0
LINE
5
25C
100
AcDbEntity
8
SK2
62
256
6
ByLayer
370
13
48
1
60
0
100
AcDbLine
10
79.5
20
10.651374
30
0
11
60.37
21
10.651374
31
0
39
0
210
0
220
0
230
1
0
SOLID
5
25D
100
AcDbEntity
8
SK2
62
256
6
ByLayer
370
18
48
1
60
0
100
AcDbTrace
10
72
20
10.651374
30
0
11
75.499998
21
11.112157
31
0
12
75.500002
22
10.19059
32
0
13
75.500002
23
10.19059
33
0
39
0
210
0
220
0
230
1
0
SOLID
5
25E
100
AcDbEntity
8
SK2
62
256
6
ByLayer
370
18
48
1
60
0
100
AcDbTrace
10
67.87
20
10.651374
30
0
11
64.370002
21
10.19059
31
0
12
64.369998
22
11.112157
32
0
13
64.369998
23
11.112157
33
0
39
0
210
0
220
0
230
1
0
ENDBLK
5
260
100
AcDbEntity
8
0
100
AcDbBlockEnd
0
BLOCK
5
265
100
AcDbEntity
8
0
100
AcDbBlockBegin
2
*D11
70
1
10
0
20
0
30
0
3
*D11
0
LINE
5
267
100
AcDbEntity
8
0
62
256
6
ByLayer
370
-2
48
1
60
0
100
AcDbLine
10
73.5875
20
-5.075687
30
0
11
90.5
21
-5.075687
31
0
39
0
210
0
220
0
230
1
0
LINE
5
268
100
AcDbEntity
8
0
62
256
6
ByLayer
370
-2
48
1
60
0
100
AcDbLine
10
73.5875
20
5.075687
30
0
11
90.5
21
5.075687
31
0
39
0
210
0
220
0
230
1
0
LINE
5
269
100
AcDbEntity
8
0
62
256
6
ByLayer
370
-2
48
1
60
0
100
AcDbLine
10
88.5
20
5.075687
30
0
11
88.5
21
35.709497
31
0
39
0
210
0
220
0
230
1
0
LINE
5
26A
100
AcDbEntity
8
0
62
256
6
ByLayer
370
-2
48
1
60
0
100
AcDbLine
10
88.5
20
-8.575687
30
0
11
88.5
21
-12.075687
31
0
39
0
210
0
220
0
230
1
0
LINE
5
26B
100
AcDbEntity
8
0
62
256
6
ByLayer
370
-2
48
1
60
0
100
AcDbLine
10
88.5
20
8.575687
30
0
11
88.5
21
12.075687
31
0
39
0
210
0
220
0
230
1
0
SOLID
5
26C
100
AcDbEntity
8
0
62
256
6
ByLayer
370
-1
48
1
60
0
100
AcDbTrace
10
89.083333
20
-8.575687
30
0
11
87.916667
21
-8.575687
31
0
12
88.5
22
-5.075687
32
0
13
88.5
23
-5.075687
33
0
39
0
210
0
220
0
230
1
0
SOLID
5
26D
100
AcDbEntity
8
0
62
256
6
ByLayer
370
-1
48
1
60
0
100
AcDbTrace
10
87.916667
20
8.575687
30
0
11
89.083333
21
8.575687
31
0
12
88.5
22
5.075687
32
0
13
88.5
23
5.075687
33
0
39
0
210
0
220
0
230
1
0
MTEXT
5
26E
100
AcDbEntity
8
0
62
256
6
ByLayer
370
18
48
1
60
0
100
AcDbMText
10
82.5
20
25.423783
30
0
210
0
220
0
230
1
1
\A1;10.15
40
3
41
0
44
1
50
90
71
5
72
5
7
iso_b_vert
0
POINT
5
26F
100
AcDbEntity
8
Defpoints
62
0
6
ByLayer
370
-1
48
1
60
0
100
AcDbPoint
10
72
20
-5.075687
30
0
39
0
210
0
220
0
230
1
50
360
0
POINT
5
270
100
AcDbEntity
8
Defpoints
62
0
6
ByLayer
370
-1
48
1
60
0
100
AcDbPoint
10
72
20
5.075687
30
0
39
0
210
0
220
0
230
1
50
360
0
POINT
5
271
100
AcDbEntity
8
Defpoints
62
0
6
ByLayer
370
-1
48
1
60
0
100
AcDbPoint
10
88.5
20
5.075687
30
0
39
0
210
0
220
0
230
1
50
360
0
ENDBLK
5
266
100
AcDbEntity
8
0
100
AcDbBlockEnd
0
BLOCK
5
27A
100
AcDbEntity
8
0
100
AcDbBlockBegin
2
_U5
70
0
10
0
20
0
30
0
3
_U5
0
MTEXT
5
273
100
AcDbEntity
8
2
62
256
6
ByLayer
370
18
48
1
60
0
100
AcDbMText
10
87.908886
20
15.906879
30
0
210
0
220
0
230
1
1
\W0.6563;M10
40
3
41
0
44
1.084337
50
90
71
7
72
5
7
iso_b_vert
0
MTEXT
5
274
100
AcDbEntity
8
2
62
256
6
ByLayer
370
18
48
1
60
0
100
AcDbMText
10
88.060366
20
25.176121
30
0
210
0
220
0
230
1
1
\W0.7506; 6HX
40
3.5
41
0
44
1.084337
50
90
71
7
72
5
7
iso_b_vert
0
LINE
5
275
100
AcDbEntity
8
2
62
256
6
ByLayer
370
13
48
1
60
0
100
AcDbLine
10
73.5875
20
-5.075687
30
0
11
90.5
21
-5.075687
31
0
39
0
210
0
220
0
230
1
0
LINE
5
276
100
AcDbEntity
8
2
62
256
6
ByLayer
370
13
48
1
60
0
100
AcDbLine
10
73.5875
20
5.075687
30
0
11
90.5
21
5.075687
31
0
39
0
210
0
220
0
230
1
0
LINE
5
277
100
AcDbEntity
8
2
62
256
6
ByLayer
370
13
48
1
60
0
100
AcDbLine
10
88.5
20
-5.075687
30
0
11
88.5
21
35.075687
31
0
39
0
210
0
220
0
230
1
0
SOLID
5
278
100
AcDbEntity
8
2
62
256
6
ByLayer
370
18
48
1
60
0
100
AcDbTrace
10
88.5
20
-5.075687
30
0
11
88.039216
21
-1.575689
31
0
12
88.960784
22
-1.575685
32
0
13
88.960784
23
-1.575685
33
0
39
0
210
0
220
0
230
1
0
SOLID
5
279
100
AcDbEntity
8
2
62
256
6
ByLayer
370
18
48
1
60
0
100
AcDbTrace
10
88.5
20
5.075687
30
0
11
88.960784
21
1.575689
31
0
12
88.039216
22
1.575685
32
0
13
88.039216
23
1.575685
33
0
39
0
210
0
220
0
230
1
0
ENDBLK
5
27B
100
AcDbEntity
8
0
100
AcDbBlockEnd
0
BLOCK
5
280
100
AcDbEntity
8
0
100
AcDbBlockBegin
2
*D13
70
1
10
0
20
0
30
0
3
*D13
0
LINE
5
282
100
AcDbEntity
8
0
62
256
6
ByLayer
370
-2
48
1
60
0
100
AcDbLine
10
-29.5875
20
4
30
0
11
-35.5
21
4
31
0
39
0
210
0
220
0
230
1
0
LINE
5
283
100
AcDbEntity
8
0
62
256
6
ByLayer
370
-2
48
1
60
0
100
AcDbLine
10
-29.5875
20
-4
30
0
11
-35.5
21
-4
31
0
39
0
210
0
220
0
230
1
0
LINE
5
284
100
AcDbEntity
8
0
62
256
6
ByLayer
370
-2
48
1
60
0
100
AcDbLine
10
-33.5
20
4
30
0
11
-33.5
21
27.665626
31
0
39
0
210
0
220
0
230
1
0
LINE
5
285
100
AcDbEntity
8
0
62
256
6
ByLayer
370
-2
48
1
60
0
100
AcDbLine
10
-33.5
20
7.5
30
0
11
-33.5
21
11
31
0
39
0
210
0
220
0
230
1
0
LINE
5
286
100
AcDbEntity
8
0
62
256
6
ByLayer
370
-2
48
1
60
0
100
AcDbLine
10
-33.5
20
-7.5
30
0
11
-33.5
21
-11
31
0
39
0
210
0
220
0
230
1
0
SOLID
5
287
100
AcDbEntity
8
0
62
256
6
ByLayer
370
-1
48
1
60
0
100
AcDbTrace
10
-34.083333
20
7.5
30
0
11
-32.916667
21
7.5
31
0
12
-33.5
22
4
32
0
13
-33.5
23
4
33
0
39
0
210
0
220
0
230
1
0
SOLID
5
288
100
AcDbEntity
8
0
62
256
6
ByLayer
370
-1
48
1
60
0
100
AcDbTrace
10
-32.916667
20
-7.5
30
0
11
-34.083333
21
-7.5
31
0
12
-33.5
22
-4
32
0
13
-33.5
23
-4
33
0
39
0
210
0
220
0
230
1
0
MTEXT
5
289
100
AcDbEntity
8
0
62
256
6
ByLayer
370
18
48
1
60
0
100
AcDbMText
10
-39.5
20
22.165626
30
0
210
0
220
0
230
1
1
\A1;8
40
3
41
0
44
1
50
90
71
5
72
5
7
iso_b_vert
0
POINT
5
28A
100
AcDbEntity
8
Defpoints
62
0
6
ByLayer
370
-1
48
1
60
0
100
AcDbPoint
10
-28
20
4
30
0
39
0
210
0
220
0
230
1
50
360
0
POINT
5
28B
100
AcDbEntity
8
Defpoints
62
0
6
ByLayer
370
-1
48
1
60
0
100
AcDbPoint
10
-28
20
-4
30
0
39
0
210
0
220
0
230
1
50
360
0
POINT
5
28C
100
AcDbEntity
8
Defpoints
62
0
6
ByLayer
370
-1
48
1
60
0
100
AcDbPoint
10
-33.5
20
-4
30
0
39
0
210
0
220
0
230
1
50
360
0
ENDBLK
5
281
100
AcDbEntity
8
0
100
AcDbBlockEnd
0
BLOCK
5
294
100
AcDbEntity
8
0
100
AcDbBlockBegin
2
_U6
70
0
10
0
20
0
30
0
3
_U6
0
MTEXT
5
28E
100
AcDbEntity
8
SK2
62
256
6
ByLayer
370
18
48
1
60
0
100
AcDbMText
10
-34.091114
20
11.135
30
0
210
0
220
0
230
1
1
\W0.7231;10.00 x 8.00
40
3
41
0
44
1.084337
50
90
71
7
72
5
7
iso_b_vert
0
LINE
5
28F
100
AcDbEntity
8
SK2
62
256
6
ByLayer
370
13
48
1
60
0
100
AcDbLine
10
-29.5875
20
4
30
0
11
-35.5
21
4
31
0
39
0
210
0
220
0
230
1
0
LINE
5
290
100
AcDbEntity
8
SK2
62
256
6
ByLayer
370
13
48
1
60
0
100
AcDbLine
10
-29.5875
20
-4
30
0
11
-35.5
21
-4
31
0
39
0
210
0
220
0
230
1
0
LINE
5
291
100
AcDbEntity
8
SK2
62
256
6
ByLayer
370
13
48
1
60
0
100
AcDbLine
10
-33.5
20
-4
30
0
11
-33.5
21
33.331253
31
0
39
0
210
0
220
0
230
1
0
SOLID
5
292
100
AcDbEntity
8
SK2
62
256
6
ByLayer
370
18
48
1
60
0
100
AcDbTrace
10
-33.5
20
4
30
0
11
-33.039216
21
0.500002
31
0
12
-33.960784
22
0.499998
32
0
13
-33.960784
23
0.499998
33
0
39
0
210
0
220
0
230
1
0
SOLID
5
293
100
AcDbEntity
8
SK2
62
256
6
ByLayer
370
18
48
1
60
0
100
AcDbTrace
10
-33.5
20
-4
30
0
11
-33.960784
21
-0.500002
31
0
12
-33.039216
22
-0.499998
32
0
13
-33.039216
23
-0.499998
33
0
39
0
210
0
220
0
230
1
0
ENDBLK
5
295
100
AcDbEntity
8
0
100
AcDbBlockEnd
0
ENDSEC
0
SECTION
2
ENTITIES
0
ARC
5
C7
100
AcDbEntity
8
SK1
62
256
6
ByLayer
370
18
48
1
60
0
100
AcDbCircle
39
0
10
-21
20
0
30
0
40
4.79999999999972
210
0
220
0
230
1
100
AcDbArc
50
326.44269
51
33.55731
0
ARC
5
C8
100
AcDbEntity
8
1
62
256
6
ByLayer
370
18
48
1
60
0
100
AcDbCircle
39
0
10
33.096238
20
-5.0406
30
0
40
1.1
210
0
220
0
230
1
100
AcDbArc
50
90
51
100
0
ARC
5
C9
100
AcDbEntity
8
1
62
256
6
ByLayer
370
18
48
1
60
0
100
AcDbCircle
39
0
10
33.096238
20
5.0406
30
0
40
1.1
210
0
220
0
230
1
100
AcDbArc
50
260
51
270
0
POINT
5
70
100
AcDbEntity
8
81
62
256
6
ByLayer
370
18
48
1
60
0
100
AcDbPoint
10
72
20
0
30
0
39
0
210
0
220
0
230
1
50
360
0
POINT
5
72
100
AcDbEntity
8
80
62
256
6
ByLayer
370
18
48
1
60
0
100
AcDbPoint
10
0
20
0
30
0
39
0
210
0
220
0
230
1
50
360
0
POINT
5
74
100
AcDbEntity
8
1
62
256
6
ByLayer
370
18
48
1
60
1
100
AcDbPoint
10
-28
20
0
30
0
39
0
210
0
220
0
230
1
50
360
0
POINT
5
76
100
AcDbEntity
8
1
62
256
6
ByLayer
370
18
48
1
60
1
100
AcDbPoint
10
72
20
0
30
0
39
0
210
0
220
0
230
1
50
360
0
POINT
5
77
100
AcDbEntity
8
1
62
256
6
ByLayer
370
18
48
1
60
1
100
AcDbPoint
10
72
20
0
30
0
39
0
210
0
220
0
230
1
50
360
0
POINT
5
78
100
AcDbEntity
8
1
62
256
6
ByLayer
370
18
48
1
60
1
100
AcDbPoint
10
33
20
0
30
0
39
0
210
0
220
0
230
1
50
360
0
POINT
5
79
100
AcDbEntity
8
1
62
256
6
ByLayer
370
18
48
1
60
1
100
AcDbPoint
10
72
20
0
30
0
39
0
210
0
220
0
230
1
50
360
0
POINT
5
7A
100
AcDbEntity
8
1
62
256
6
ByLayer
370
18
48
1
60
1
100
AcDbPoint
10
38.85
20
0
30
0
39
0
210
0
220
0
230
1
50
360
0
POINT
5
7B
100
AcDbEntity
8
1
62
256
6
ByLayer
370
18
48
1
60
1
100
AcDbPoint
10
72
20
0
30
0
39
0
210
0
220
0
230
1
50
360
0
POINT
5
7C
100
AcDbEntity
8
1
62
256
6
ByLayer
370
18
48
1
60
1
100
AcDbPoint
10
57
20
-3.9406
30
0
39
0
210
0
220
0
230
1
50
360
0
POINT
5
7D
100
AcDbEntity
8
1
62
256
6
ByLayer
370
18
48
1
60
1
100
AcDbPoint
10
72
20
0
30
0
39
0
210
0
220
0
230
1
50
360
0
POINT
5
7E
100
AcDbEntity
8
1
62
256
6
ByLayer
370
18
48
1
60
1
100
AcDbPoint
10
67.87
20
0
30
0
39
0
210
0
220
0
230
1
50
360
0
POINT
5
7F
100
AcDbEntity
8
1
62
256
6
ByLayer
370
18
48
1
60
1
100
AcDbPoint
10
72
20
-5.075687
30
0
39
0
210
0
220
0
230
1
50
360
0
POINT
5
80
100
AcDbEntity
8
1
62
256
6
ByLayer
370
18
48
1
60
1
100
AcDbPoint
10
72
20
5.075687
30
0
39
0
210
0
220
0
230
1
50
360
0
POINT
5
81
100
AcDbEntity
8
1
62
256
6
ByLayer
370
18
48
1
60
1
100
AcDbPoint
10
-28
20
4
30
0
39
0
210
0
220
0
230
1
50
360
0
POINT
5
82
100
AcDbEntity
8
1
62
256
6
ByLayer
370
18
48
1
60
1
100
AcDbPoint
10
-28
20
-4
30
0
39
0
210
0
220
0
230
1
50
360
0
SPLINE
5
CA
100
AcDbEntity
8
1
62
256
6
ByLayer
370
18
48
1
60
0
100
AcDbSpline
70
4
71
3
72
8
73
4
40
0
40
0
40
0
40
0
40
1
40
1
40
1
40
1
41
1
10
71.2276066885941
20
4.17024717370725
30
0
41
1
10
71.2338879210785
20
4.18650175670771
30
0
41
1
10
71.2401949547085
20
4.19882748389691
30
0
41
1
10
71.2465502705309
20
4.20711720535144
30
0
0
SPLINE
5
CB
100
AcDbEntity
8
1
62
256
6
ByLayer
370
18
48
1
60
0
100
AcDbSpline
70
4
71
3
72
8
73
4
40
0
40
0
40
0
40
0
40
1
40
1
40
1
40
1
41
1
10
69.2327501336373
20
-4.61396818108625
30
0
41
1
10
69.2345366470124
20
-4.61777150144806
30
0
41
1
10
69.236322353618
20
-4.62121713036106
30
0
41
1
10
69.2381072452033
20
-4.62430499799081
30
0
0
SPLINE
5
CC
100
AcDbEntity
8
1
62
256
6
ByLayer
370
13
48
1
60
0
100
AcDbSpline
70
4
71
3
72
9
73
5
40
0
40
0
40
0
40
0
40
0.863463842047613
40
1
40
1
40
1
40
1
41
1
10
59.6144238474975
20
-4.19550843227685
30
0
41
1
10
59.6286513537425
20
-4.22593058272119
30
0
41
1
10
59.6451286040128
20
-4.2353369058402
30
0
41
1
10
59.6616058311958
20
-4.21440306606013
30
0
41
1
10
59.6638555681683
20
-4.21098231669924
30
0
0
SPLINE
5
CD
100
AcDbEntity
8
1
62
256
6
ByLayer
370
18
48
1
60
0
100
AcDbSpline
70
4
71
3
72
8
73
4
40
0
40
0
40
0
40
0
40
1
40
1
40
1
40
1
41
1
10
62.2422727520083
20
4.20009847041317
30
0
41
1
10
62.2440256540668
20
4.20356624567535
30
0
41
1
10
62.245778556143
20
4.2066939543906
30
0
41
1
10
62.2475314582334
20
4.20948145052512
30
0
0
SPLINE
5
CE
100
AcDbEntity
8
1
62
256
6
ByLayer
370
13
48
1
60
0
100
AcDbSpline
70
4
71
3
72
8
73
4
40
0
40
0
40
0
40
0
40
1
40
1
40
1
40
1
41
1
10
62.2475314582342
20
4.20948145052631
30
0
41
1
10
62.2579882444356
20
4.22611001824495
30
0
41
1
10
62.2684450311432
20
4.23063172629321
30
0
41
1
10
62.2789018176087
20
4.22301557371264
30
0
0
SPLINE
5
CF
100
AcDbEntity
8
1
62
256
6
ByLayer
370
13
48
1
60
0
100
AcDbSpline
70
4
71
3
72
8
73
4
40
0
40
0
40
0
40
0
40
1
40
1
40
1
40
1
41
1
10
68.9957750157345
20
-4.20657773806585
30
0
41
1
10
68.9916438178859
20
-4.19946175660445
30
0
41
1
10
68.9875126200152
20
-4.19045985053304
30
0
41
1
10
68.9833814221203
20
-4.17958131870441
30
0
0
SPLINE
5
D0
100
AcDbEntity
8
1
62
256
6
ByLayer
370
18
48
1
60
0
100
AcDbSpline
70
4
71
3
72
14
73
10
40
0
40
0
40
0
40
0
40
0.0328142940366701
40
0.0328142940366701
40
0.274610720527504
40
0.274610720527504
40
0.516407147018337
40
0.516407147018337
40
1
40
1
40
1
40
1
41
1
10
62.7233739943104
20
5.01328230600561
30
0
41
1
10
62.7239138912642
20
5.01335709640009
30
0
41
1
10
62.7244539587115
20
5.01339944444484
30
0
41
1
10
62.7289750827079
20
5.01348183440163
30
0
41
1
10
62.7329701679861
20
5.01177597532427
30
0
41
1
10
62.7409295749398
20
5.00483260942991
30
0
41
1
10
62.7449016438691
20
4.99959917743203
30
0
41
1
10
62.7568218830689
20
4.97865558472682
30
0
41
1
10
62.7647836401405
20
4.9577145308312
30
0
41
1
10
62.7727568520841
20
4.92976305577145
30
0
0
SPLINE
5
D1
100
AcDbEntity
8
1
62
256
6
ByLayer
370
18
48
1
60
0
100
AcDbSpline
70
4
71
3
72
14
73
10
40
0
40
0
40
0
40
0
40
0.384801035819458
40
0.384801035819458
40
0.769602071638916
40
0.769602071638916
40
0.962002589548644
40
0.962002589548644
40
1
40
1
40
1
40
1
41
1
10
62.9744212524855
20
4.9088003742215
30
0
41
1
10
62.9677525350305
20
4.94350168042456
30
0
41
1
10
62.9611158129673
20
4.97139392960182
30
0
41
1
10
62.9478333393023
20
5.0136283142175
30
0
41
1
10
62.9411830738755
20
5.02797017487651
30
0
41
1
10
62.9311165862181
20
5.03911604829301
30
0
41
1
10
62.9277487376255
20
5.04110128245861
30
0
41
1
10
62.9237013064572
20
5.04136741402502
30
0
41
1
10
62.9230332270504
20
5.04134226422647
30
0
41
1
10
62.9223651427808
20
5.04124825420908
30
0
0
SPLINE
5
D2
100
AcDbEntity
8
1
62
256
6
ByLayer
370
18
48
1
60
0
100
AcDbSpline
70
4
71
3
72
14
73
10
40
0
40
0
40
0
40
0
40
0.0351659387182081
40
0.0351659387182081
40
0.517582969359105
40
0.517582969359105
40
0.758791484679553
40
0.758791484679553
40
1
40
1
40
1
40
1
41
1
10
59.4541051489682
20
-4.5538165001623
30
0
41
1
10
59.4536444731312
20
-4.55375227368225
30
0
41
1
10
59.45318369989
20
-4.55365843875302
30
0
41
1
10
59.4464004473117
20
-4.55184137616189
30
0
41
1
10
59.4400624170027
20
-4.54457443337657
30
0
41
1
10
59.4305061318515
20
-4.52507232873927
30
0
41
1
10
59.4273095484098
20
-4.51712266154732
30
0
41
1
10
59.4209389738236
20
-4.49845072070073
30
0
41
1
10
59.417759161642
20
-4.48771933421705
30
0
41
1
10
59.4145791593428
20
-4.47560061524555
30
0
0
SPLINE
5
D3
100
AcDbEntity
8
1
62
256
6
ByLayer
370
18
48
1
60
0
100
AcDbSpline
70
4
71
3
72
19
73
15
40
0
40
0
40
0
40
0
40
0.233563574736209
40
0.467127149472418
40
0.467127149472418
40
0.700690724208627
40
0.700690724208627
40
0.759081617892679
40
0.759081617892679
40
0.817472511576731
40
0.817472511576731
40
0.934254298944836
40
0.934254298944836
40
1
40
1
40
1
40
1
41
1
10
58.5473002401179
20
-4.13475758505305
30
0
41
1
10
58.554722615419
20
-4.18080422832981
30
0
41
1
10
58.5694725459132
20
-4.26237793526104
30
0
41
1
10
58.5841267855171
20
-4.32333532586179
30
0
41
1
10
58.5988261740231
20
-4.37397696820736
30
0
41
1
10
58.6062096063855
20
-4.39414183515754
30
0
41
1
10
58.6154903505104
20
-4.41275060170216
30
0
41
1
10
58.6173489235098
20
-4.41614188756844
30
0
41
1
10
58.6210712023787
20
-4.42225732202812
30
0
41
1
10
58.6229370503729
20
-4.4249837927216
30
0
41
1
10
58.6285198436718
20
-4.43212452769504
30
0
41
1
10
58.6322257068488
20
-4.43551021549209
30
0
41
1
10
58.637997973994
20
-4.43869173757292
30
0
41
1
10
58.640072974654
20
-4.43941034855595
30
0
41
1
10
58.6421447830868
20
-4.43970398769881
30
0
0
SPLINE
5
D4
100
AcDbEntity
8
1
62
256
6
ByLayer
370
13
48
1
60
0
100
AcDbSpline
70
4
71
3
72
8
73
4
40
0
40
0
40
0
40
0
40
1
40
1
40
1
40
1
41
1
10
63.4158972987725
20
4.20773609215274
30
0
41
1
10
63.4325179896334
20
4.17996013426247
30
0
41
1
10
63.4491386878223
20
4.12148269576556
30
0
41
1
10
63.4657593927819
20
4.03364068877482
30
0
0
SPLINE
5
D5
100
AcDbEntity
8
1
62
256
6
ByLayer
370
13
48
1
60
0
100
AcDbSpline
70
4
71
3
72
10
73
6
40
0
40
0
40
0
40
0
40
0.223788009381047
40
0.87603270033769
40
1
40
1
40
1
40
1
41
1
10
68.6647773002055
20
-4.20951769514087
30
0
41
1
10
68.6589677345916
20
-4.21874159811625
30
0
41
1
10
68.6362257992186
20
-4.24023195136306
30
0
41
1
10
68.6102654308444
20
-4.19885526094049
30
0
41
1
10
68.5901146516991
20
-4.12226449636444
30
0
41
1
10
68.5868964100562
20
-4.10891183429135
30
0
0
SPLINE
5
D6
100
AcDbEntity
8
1
62
256
6
ByLayer
370
13
48
1
60
0
100
AcDbSpline
70
4
71
3
72
9
73
5
40
0
40
0
40
0
40
0
40
0.726397869772673
40
1
40
1
40
1
40
1
41
1
10
58.4276841979211
20
-3.92091313594585
30
0
41
1
10
58.4446023728578
20
-4.03271349071488
30
0
41
1
10
58.4678928795337
20
-4.14596469954955
30
0
41
1
10
58.4911833843605
20
-4.19938177196977
30
0
41
1
10
58.4975557160747
20
-4.20950521059038
30
0
0
SPLINE
5
D7
100
AcDbEntity
8
1
62
256
6
ByLayer
370
13
48
1
60
0
100
AcDbSpline
70
4
71
3
72
10
73
6
40
0
40
0
40
0
40
0
40
0.0595281670758806
40
0.537228468603286
40
1
40
1
40
1
40
1
41
1
10
58.0310797270909
20
-3.76769133662972
30
0
41
1
10
58.0337680041588
20
-3.78926487925975
30
0
41
1
10
58.0580291000133
20
-3.9774780336391
30
0
41
1
10
58.1031886961228
20
-4.21666171415148
30
0
41
1
10
58.1456604133923
20
-4.24252704682311
30
0
41
1
10
58.1665590809669
20
-4.20664405661165
30
0
0
SPLINE
5
D8
100
AcDbEntity
8
1
62
256
6
ByLayer
370
18
48
1
60
0
100
AcDbSpline
70
4
71
3
72
20
73
16
40
0
40
0
40
0
40
0
40
0.0219176681352517
40
0.0219176681352517
40
0.266438251101438
40
0.266438251101438
40
0.510958834067625
40
0.510958834067625
40
0.633219125550719
40
0.633219125550719
40
0.694349271292266
40
0.694349271292266
40
0.755479417033813
40
0.755479417033813
40
1
40
1
40
1
40
1
41
1
10
68.2590600732777
20
-4.89737869525871
30
0
41
1
10
68.2584560646651
20
-4.89753251084411
30
0
41
1
10
68.2578524132626
20
-4.89763297042518
30
0
41
1
10
68.2505178222095
20
-4.89820783286339
30
0
41
1
10
68.243834080486
20
-4.8921210667109
30
0
41
1
10
68.2304189236688
20
-4.86706668614116
30
0
41
1
10
68.2236629378611
20
-4.8481415596469
30
0
41
1
10
68.2133819271622
20
-4.81005810940221
30
0
41
1
10
68.2099355711135
20
-4.79573340824177
30
0
41
1
10
68.2047486028848
20
-4.77173414916425
30
0
41
1
10
68.2030169212944
20
-4.76331555210373
30
0
41
1
10
68.1995501093317
20
-4.74562845221135
30
0
41
1
10
68.1978136887026
20
-4.73635219726944
30
0
41
1
10
68.1891550899027
20
-4.68798390622598
30
0
41
1
10
68.1822946838444
20
-4.64285426374698
30
0
41
1
10
68.17548035925
20
-4.59129280947187
30
0
0
SPLINE
5
D9
100
AcDbEntity
8
1
62
256
6
ByLayer
370
18
48
1
60
0
100
AcDbSpline
70
4
71
3
72
18
73
14
40
0
40
0
40
0
40
0
40
0.264602508269486
40
0.264602508269486
40
0.529205016538973
40
0.529205016538973
40
0.661506270673716
40
0.661506270673716
40
0.727656897741088
40
0.727656897741088
40
0.793807524808459
40
0.793807524808459
40
1
40
1
40
1
40
1
41
1
10
67.84504307065
20
-4.52086743714105
30
0
41
1
10
67.8526130820654
20
-4.58376002008561
30
0
41
1
10
67.860163753065
20
-4.64026498182844
30
0
41
1
10
67.8751697761149
20
-4.74044518862874
30
0
41
1
10
67.8826255340321
20
-4.78412135942875
30
0
41
1
10
67.8938268427897
20
-4.83986234587442
30
0
41
1
10
67.8975646165502
20
-4.85681212629734
30
0
41
1
10
67.9031992567482
20
-4.87975794689692
30
0
41
1
10
67.9050820534805
20
-4.8869903364577
30
0
41
1
10
67.9088408944759
20
-4.90055810899537
30
0
41
1
10
67.9107192523571
20
-4.90690379382889
30
0
41
1
10
67.9184533976829
20
-4.93125266631662
30
0
41
1
10
67.9243239663072
20
-4.94552826164988
30
0
41
1
10
67.9301947857414
20
-4.95568556798008
30
0
0
SPLINE
5
DA
100
AcDbEntity
8
1
62
256
6
ByLayer
370
13
48
1
60
0
100
AcDbSpline
70
4
71
3
72
10
73
6
40
0
40
0
40
0
40
0
40
0.0998732278224873
40
0.775496060774674
40
1
40
1
40
1
40
1
41
1
10
67.4000210373272
20
-3.71215479786011
30
0
41
1
10
67.4032100170026
20
-3.73915736030602
30
0
41
1
10
67.4279718199671
20
-3.94110051212044
30
0
41
1
10
67.4599020979483
20
-4.12216836860213
30
0
41
1
10
67.4886433949946
20
-4.19430527985099
30
0
41
1
10
67.4958118679153
20
-4.20661927014382
30
0
0
SPLINE
5
DB
100
AcDbEntity
8
1
62
256
6
ByLayer
370
13
48
1
60
0
100
AcDbSpline
70
4
71
3
72
10
73
6
40
0
40
0
40
0
40
0
40
0.321859191869134
40
0.891545515163106
40
1
40
1
40
1
40
1
41
1
10
63.7487891017971
20
4.21140270624409
30
0
41
1
10
63.7609772335556
20
4.22967553064552
30
0
41
1
10
63.7947381901337
20
4.23481534016651
30
0
41
1
10
63.832606084106
20
4.09782032280009
30
0
41
1
10
63.8582858526138
20
3.93531844078675
30
0
41
1
10
63.8623927963076
20
3.90759397593027
30
0
0
SPLINE
5
DC
100
AcDbEntity
8
1
62
256
6
ByLayer
370
18
48
1
60
0
100
AcDbSpline
70
4
71
3
72
23
73
19
40
0
40
0
40
0
40
0
40
0.151951292161164
40
0.151951292161164
40
0.236756162945046
40
0.236756162945046
40
0.279158598336988
40
0.279158598336988
40
0.321561033728929
40
0.491170775296697
40
0.660780516864465
40
0.830390258432233
40
0.830390258432233
40
0.915195129216118
40
0.915195129216118
40
0.957597564608059
40
0.957597564608059
40
1
40
1
40
1
40
1
41
1
10
58.0668412157353
20
-4.35884930520169
30
0
41
1
10
58.061371067573
20
-4.35808855413802
30
0
41
1
10
58.0558960523983
20
-4.35332532290815
30
0
41
1
10
58.0473331480665
20
-4.3395529474308
30
0
41
1
10
58.0442592066406
20
-4.33334848177404
30
0
41
1
10
58.0396311228109
20
-4.32209959426567
30
0
41
1
10
58.0380858201792
20
-4.3180258519142
30
0
41
1
10
58.0350027588059
20
-4.30926959706864
30
0
41
1
10
58.0273053937877
20
-4.285833848788
30
0
41
1
10
58.0134966863251
20
-4.22990504525731
30
0
41
1
10
57.9951860129147
20
-4.12668006162986
30
0
41
1
10
57.9829755809048
20
-4.03879511938877
30
0
41
1
10
57.9737608701468
20
-3.96559135310997
30
0
41
1
10
57.9706789132297
20
-3.93997337990498
30
0
41
1
10
57.9660335121732
20
-3.89968885898352
30
0
41
1
10
57.9644802650716
20
-3.88593890498959
30
0
41
1
10
57.9613772016559
20
-3.85790735704183
30
0
41
1
10
57.9598266050438
20
-3.84361948890231
30
0
41
1
10
57.9582769337168
20
-3.8290608304338
30
0
0
SPLINE
5
DD
100
AcDbEntity
8
1
62
256
6
ByLayer
370
18
48
1
60
0
100
AcDbSpline
70
4
71
3
72
44
73
40
40
0
40
0
40
0
40
0
40
0.125000000000001
40
0.125000000000001
40
0.250000000000002
40
0.250000000000002
40
0.312500000000006
40
0.312500000000006
40
0.343750000000007
40
0.343750000000007
40
0.359375000000015
40
0.359375000000015
40
0.375000000000023
40
0.375000000000023
40
0.382812500000027
40
0.382812500000027
40
0.390625000000031
40
0.390625000000031
40
0.398437500000034
40
0.398437500000034
40
0.406250000000038
40
0.406250000000038
40
0.414062500000042
40
0.414062500000042
40
0.421875000000046
40
0.421875000000046
40
0.437500000000052
40
0.437500000000052
40
0.468750000000043
40
0.468750000000043
40
0.500000000000034
40
0.500000000000034
40
0.562500000000031
40
0.562500000000031
40
0.625000000000027
40
0.625000000000027
40
0.750000000000021
40
0.750000000000021
40
1
40
1
40
1
40
1
41
1
10
56.8626784846119
20
-4.09964058011025
30
0
41
1
10
56.8641026330397
20
-4.0973086196698
30
0
41
1
10
56.8657328034566
20
-4.09481663383903
30
0
41
1
10
56.8697383895523
20
-4.08971609173068
30
0
41
1
10
56.8720668950843
20
-4.08708102103489
30
0
41
1
10
56.8769100336481
20
-4.08353780423909
30
0
41
1
10
56.8787422892649
20
-4.08241972839852
30
0
41
1
10
56.8822926709769
20
-4.08114491177994
30
0
41
1
10
56.8836112551884
20
-4.080785920349
30
0
41
1
10
56.8860037714849
20
-4.08049165367501
30
0
41
1
10
56.8868710489885
20
-4.0804347394766
30
0
41
1
10
56.888849107686
20
-4.08047140331129
30
0
41
1
10
56.8899504777942
20
-4.08055882223275
30
0
41
1
10
56.8919810362015
20
-4.08094350378397
30
0
41
1
10
56.8927194798857
20
-4.08111434219535
30
0
41
1
10
56.8944091065779
20
-4.08161124485378
30
0
41
1
10
56.8953727425072
20
-4.08193854482568
30
0
41
1
10
56.8977023902735
20
-4.08292421437775
30
0
41
1
10
56.8991485762806
20
-4.08363221463779
30
0
41
1
10
56.9021616172579
20
-4.08539880714687
30
0
41
1
10
56.903640177649
20
-4.08640292559133
30
0
41
1
10
56.9061039492759
20
-4.0882162215477
30
0
41
1
10
56.9071643188623
20
-4.08906878076289
30
0
41
1
10
56.9090687600842
20
-4.09066812486481
30
0
41
1
10
56.9099152604544
20
-4.09141864645963
30
0
41
1
10
56.9122867798395
20
-4.09359076444753
30
0
41
1
10
56.9136497651693
20
-4.09493852358963
30
0
41
1
10
56.917393725419
20
-4.09878392695794
30
0
41
1
10
56.9194468918147
20
-4.10110044178668
30
0
41
1
10
56.9232359246693
20
-4.1055358414246
30
0
41
1
10
56.9249487963218
20
-4.10764269511512
30
0
41
1
10
56.929786041569
20
-4.11375729690999
30
0
41
1
10
56.93261294842
20
-4.11756169646256
30
0
41
1
10
56.9378750214398
20
-4.12481199161078
30
0
41
1
10
56.9403027830654
20
-4.12825819284458
30
0
41
1
10
56.9472209179658
20
-4.1381955586605
30
0
41
1
10
56.9513525432249
20
-4.1442890407026
30
0
41
1
10
56.9630328704064
20
-4.16137510664598
30
0
41
1
10
56.9698700017283
20
-4.17117841612944
30
0
41
1
10
56.9762765436521
20
-4.17965350281898
30
0
0
SPLINE
5
DE
100
AcDbEntity
8
1
62
256
6
ByLayer
370
18
48
1
60
0
100
AcDbSpline
70
4
71
3
72
24
73
20
40
0
40
0
40
0
40
0
40
0.0803448225611783
40
0.0803448225611783
40
0.122147330626579
40
0.122147330626579
40
0.16394983869198
40
0.16394983869198
40
0.331159870953585
40
0.498369903215189
40
0.498369903215189
40
0.665579935476794
40
0.665579935476794
40
0.707382443542195
40
0.707382443542195
40
0.749184951607596
40
0.832789967738397
40
0.832789967738397
40
1
40
1
40
1
40
1
41
1
10
64.2593987471664
20
5.07568686316193
30
0
41
1
10
64.2629136197773
20
5.07568530578857
30
0
41
1
10
64.2664375914038
20
5.07402670165811
30
0
41
1
10
64.2718206073733
20
5.06893735021975
30
0
41
1
10
64.273663438055
20
5.0667412343517
30
0
41
1
10
64.2773432711909
20
5.06145887224463
30
0
41
1
10
64.2791815610147
20
5.05837129855919
30
0
41
1
10
64.2883636348099
20
5.04072264195489
30
0
41
1
10
64.3029894548877
20
4.99836494456213
30
0
41
1
10
64.3175098723973
20
4.92837714790011
30
0
41
1
10
64.3320604769029
20
4.84452902891243
30
0
41
1
10
64.3393582231562
20
4.79567583063752
30
0
41
1
10
64.3485731958012
20
4.72569697107264
30
0
41
1
10
64.3504219300203
20
4.71123943460529
30
0
41
1
10
64.3541182047215
20
4.68149265031616
30
0
41
1
10
64.3596522605376
20
4.63569689465004
30
0
41
1
10
64.3651556458404
20
4.58641417632884
30
0
41
1
10
64.3761284753026
20
4.48327556069191
30
0
41
1
10
64.383396433867
20
4.4084283017246
30
0
41
1
10
64.3906602296983
20
4.32757650537616
30
0
0
SPLINE
5
DF
100
AcDbEntity
8
1
62
256
6
ByLayer
370
18
48
1
60
0
100
AcDbSpline
70
4
71
3
72
26
73
22
40
0
40
0
40
0
40
0
40
0.039370843572182
40
0.039370843572182
40
0.078741687144364
40
0.078741687144364
40
0.157483374288727
40
0.157483374288727
40
0.314966748577456
40
0.472450122866184
40
0.472450122866184
40
0.629933497154911
40
0.629933497154911
40
0.669304340727094
40
0.669304340727094
40
0.708675184299276
40
0.78741687144364
40
0.78741687144364
40
0.944900245732369
40
0.944900245732369
40
1
40
1
40
1
40
1
41
1
10
64.5417182900393
20
4.23672151875448
30
0
41
1
10
64.5398870696005
20
4.25817822541981
30
0
41
1
10
64.5380516029373
20
4.27929203816859
30
0
41
1
10
64.5343713080429
20
4.32082720792107
30
0
41
1
10
64.532524595723
20
4.34127096584444
30
0
41
1
10
64.5269867133171
20
4.40138712027758
30
0
41
1
10
64.5233067499478
20
4.43975356196756
30
0
41
1
10
64.5123020055804
20
4.54981959981356
30
0
41
1
10
64.4977268659439
20
4.68317327544963
30
0
41
1
10
64.4832380156344
20
4.79024808378924
30
0
41
1
10
64.4686709006295
20
4.88411038700528
30
0
41
1
10
64.4613424110397
20
4.92443652540643
30
0
41
1
10
64.4521281900127
20
4.96633038398971
30
0
41
1
10
64.4502806318859
20
4.97428938928127
30
0
41
1
10
64.4465972665727
20
4.98927404426155
30
0
41
1
10
64.4410845241291
20
5.01037722951784
30
0
41
1
10
64.4356049944848
20
5.02740323599662
30
0
41
1
10
64.4246747624836
20
5.05610218519107
30
0
41
1
10
64.4174282927843
20
5.06810839192491
30
0
41
1
10
64.4076137507866
20
5.07480727255339
30
0
41
1
10
64.40506675527
20
5.07568134871542
30
0
41
1
10
64.4025168430521
20
5.07568914582168
30
0
0
SPLINE
5
E0
100
AcDbEntity
8
1
62
256
6
ByLayer
370
18
48
1
60
0
100
AcDbSpline
70
4
71
3
72
8
73
4
40
0
40
0
40
0
40
0
40
1
40
1
40
1
40
1
41
1
10
64.9136702928114
20
4.21124110973733
30
0
41
1
10
64.9173935805079
20
4.20562830903532
30
0
41
1
10
64.9211168692882
20
4.19847918573697
30
0
41
1
10
64.9248401585038
20
4.18980532007654
30
0
0
SPLINE
5
E1
100
AcDbEntity
8
1
62
256
6
ByLayer
370
13
48
1
60
0
100
AcDbSpline
70
4
71
3
72
10
73
6
40
0
40
0
40
0
40
0
40
0.314959522798995
40
0.835203857776553
40
1
40
1
40
1
40
1
41
1
10
64.9248401585038
20
4.18980532007652
30
0
41
1
10
64.9379005148338
20
4.15937959440149
30
0
41
1
10
64.9725337412483
20
4.02894748653691
30
0
41
1
10
65.0140003448263
20
3.71903164154475
30
0
41
1
10
65.0424066875549
20
3.43056385267789
30
0
41
1
10
65.049240236287
20
3.35705002436643
30
0
0
SPLINE
5
E2
100
AcDbEntity
8
1
62
256
6
ByLayer
370
13
48
1
60
0
100
AcDbSpline
70
4
71
3
72
10
73
6
40
0
40
0
40
0
40
0
40
0.210192687600794
40
0.642322281806293
40
1
40
1
40
1
40
1
41
1
10
67.0035324894621
20
-3.52207018347394
30
0
41
1
10
67.0140257621087
20
-3.62475813452264
30
0
41
1
10
67.0460918864698
20
-3.90746197541228
30
0
41
1
10
67.0960139394447
20
-4.18664644753864
30
0
41
1
10
67.1354427367345
20
-4.23599181620182
30
0
41
1
10
67.153298771472
20
-4.22287720445007
30
0
0
SPLINE
5
E3
100
AcDbEntity
8
1
62
256
6
ByLayer
370
18
48
1
60
0
100
AcDbSpline
70
4
71
3
72
8
73
4
40
0
40
0
40
0
40
0
40
1
40
1
40
1
40
1
41
1
10
67.1532987750927
20
-4.22287720179077
30
0
41
1
10
67.1557283379974
20
-4.22109277505007
30
0
41
1
10
67.1581579014779
20
-4.21865183520018
30
0
41
1
10
67.160587465615
20
-4.21555347729591
30
0
0
SPLINE
5
E4
100
AcDbEntity
8
1
62
256
6
ByLayer
370
18
48
1
60
0
100
AcDbSpline
70
4
71
3
72
27
73
23
40
0
40
0
40
0
40
0
40
0.125000000000001
40
0.125000000000001
40
0.156250000000001
40
0.156250000000001
40
0.187500000000001
40
0.250000000000001
40
0.250000000000001
40
0.375000000000001
40
0.500000000000001
40
0.500000000000001
40
0.562500000000001
40
0.593750000000001
40
0.593750000000001
40
0.625000000000002
40
0.625000000000002
40
0.750000000000001
40
0.750000000000001
40
0.875000000000001
40
0.875000000000001
40
1
40
1
40
1
40
1
41
1
10
66.6530272886181
20
-5.07567211550139
30
0
41
1
10
66.6457287149333
20
-5.07604560631461
30
0
41
1
10
66.6384217219164
20
-5.06934043440722
30
0
41
1
10
66.6292352168061
20
-5.05183506535917
30
0
41
1
10
66.6273931208008
20
-5.04787132366385
30
0
41
1
10
66.623719213175
20
-5.03906464793255
30
0
41
1
10
66.61821883938
20
-5.02452898538604
30
0
41
1
10
66.6127404568483
20
-5.00605923427676
30
0
41
1
10
66.6017849468086
20
-4.96395519922126
30
0
41
1
10
66.5871938211661
20
-4.89406570137757
30
0
41
1
10
66.5726461115225
20
-4.79699691984376
30
0
41
1
10
66.5617034237515
20
-4.71386690085916
30
0
41
1
10
66.5562232791583
20
-4.66971579097535
30
0
41
1
10
66.5507130567968
20
-4.62162213532784
30
0
41
1
10
66.5470304373593
20
-4.58867373058715
30
0
41
1
10
66.5451860959702
20
-4.57177036733091
30
0
41
1
10
66.5359844201327
20
-4.48547608254316
30
0
41
1
10
66.5286583693634
20
-4.41045205936825
30
0
41
1
10
66.5140730904489
20
-4.24877006902145
30
0
41
1
10
66.5068138226305
20
-4.16211125097576
30
0
41
1
10
66.4922898421318
20
-3.9772025597016
30
0
41
1
10
66.4850235371793
20
-3.87895313130679
30
0
41
1
10
66.477687269179
20
-3.7747848117009
30
0
0
SPLINE
5
E5
100
AcDbEntity
8
1
62
256
6
ByLayer
370
13
48
1
60
0
100
AcDbSpline
70
4
71
3
72
10
73
6
40
0
40
0
40
0
40
0
40
0.252857571706769
40
0.664870009166557
40
1
40
1
40
1
40
1
41
1
10
65.8166260308649
20
-2.79623715111998
30
0
41
1
10
65.8298655634106
20
-2.9719973710485
30
0
41
1
10
65.8646779210515
20
-3.40031807677568
30
0
41
1
10
65.9170375585595
20
-3.88605856016162
30
0
41
1
10
65.9561576733651
20
-4.09195186630967
30
0
41
1
10
65.9737049614029
20
-4.15064754099913
30
0
0
SPLINE
5
E6
100
AcDbEntity
8
1
62
256
6
ByLayer
370
18
48
1
60
0
100
AcDbSpline
70
4
71
3
72
27
73
23
40
0
40
0
40
0
40
0
40
0.125
40
0.125
40
0.1875
40
0.21875
40
0.21875
40
0.25
40
0.25
40
0.375
40
0.375
40
0.5
40
0.5
40
0.625
40
0.625
40
0.6875
40
0.6875
40
0.75
40
0.75
40
0.875
40
0.875
40
1
40
1
40
1
40
1
41
1
10
66.3265957998617
20
-3.65892536031021
30
0
41
1
10
66.3338579401257
20
-3.76615209188969
30
0
41
1
10
66.3411126760331
20
-3.86828699730231
30
0
41
1
10
66.3520804041296
20
-4.01375366202703
30
0
41
1
10
66.3575828473326
20
-4.08455017446411
30
0
41
1
10
66.3631111596337
20
-4.15239527442424
30
0
41
1
10
66.3668027768148
20
-4.19696221504319
30
0
41
1
10
66.3686522709226
20
-4.21892094101023
30
0
41
1
10
66.3778678136361
20
-4.3264843735644
30
0
41
1
10
66.3851735518939
20
-4.40587847734182
30
0
41
1
10
66.3997283602
20
-4.5517454554199
30
0
41
1
10
66.4069800219181
20
-4.61821728587546
30
0
41
1
10
66.4215566256372
20
-4.73829481757835
30
0
41
1
10
66.4288692143239
20
-4.79190125765064
30
0
41
1
10
66.4398782945811
20
-4.86246168883548
30
0
41
1
10
66.4435552343784
20
-4.88433770044526
30
0
41
1
10
66.4509312119542
20
-4.92473482246623
30
0
41
1
10
66.4546060986141
20
-4.9431211901744
30
0
41
1
10
66.4655881113931
20
-4.9928358663831
30
0
41
1
10
66.4728642455778
20
-5.01878319552517
30
0
41
1
10
66.4874423717861
20
-5.05659458180159
30
0
41
1
10
66.4947304479965
20
-5.06845825359827
30
0
41
1
10
66.5020228237686
20
-5.07325503941308
30
0
0
SPLINE
5
E7
100
AcDbEntity
8
1
62
256
6
ByLayer
370
18
48
1
60
0
100
AcDbSpline
70
4
71
3
72
23
73
19
40
0
40
0
40
0
40
0
40
0.249999999999998
40
0.249999999999998
40
0.374999999999997
40
0.374999999999997
40
0.437499999999996
40
0.437499999999996
40
0.468749999999996
40
0.468749999999996
40
0.499999999999996
40
0.624999999999997
40
0.749999999999998
40
0.874999999999999
40
0.874999999999999
40
0.937499999999999
40
0.937499999999999
40
1
40
1
40
1
40
1
41
1
10
57.6183857510321
20
1.90850478958117
30
0
41
1
10
57.6062493744979
20
2.11959140962836
30
0
41
1
10
57.5941806068904
20
2.31959975456553
30
0
41
1
10
57.5760846324152
20
2.60340463058725
30
0
41
1
10
57.570052923921
20
2.69529104581642
30
0
41
1
10
57.560961818481
20
2.82897051033768
30
0
41
1
10
57.5579239023833
20
2.87283773263999
30
0
41
1
10
57.5533474452933
20
2.93758138098167
30
0
41
1
10
57.5518169076368
20
2.9590099525814
30
0
41
1
10
57.5487568968156
20
3.00138662033152
30
0
41
1
10
57.5411145347805
20
3.10606401794112
30
0
41
1
10
57.5274374602863
20
3.28324876509447
30
0
41
1
10
57.5093335603884
20
3.49611977073107
30
0
41
1
10
57.4972585958935
20
3.62251142825821
30
0
41
1
10
57.4881384744099
20
3.71138505914718
30
0
41
1
10
57.4850878930428
20
3.74002169425492
30
0
41
1
10
57.4789661497556
20
3.79528840482064
30
0
41
1
10
57.4758897258204
20
3.82196014512218
30
0
41
1
10
57.4728214411348
20
3.84745054714617
30
0
0
SPLINE
5
E8
100
AcDbEntity
8
1
62
256
6
ByLayer
370
18
48
1
60
0
100
AcDbSpline
70
4
71
3
72
114
73
110
40
0
40
0
40
0
40
0
40
0.015624999999997
40
0.015624999999997
40
0.031249999999994
40
0.031249999999994
40
0.062499999999988
40
0.062499999999988
40
0.093749999999982
40
0.093749999999982
40
0.124999999999976
40
0.124999999999976
40
0.15624999999997
40
0.15624999999997
40
0.171874999999969
40
0.171874999999969
40
0.187499999999967
40
0.187499999999967
40
0.249999999999959
40
0.249999999999959
40
0.281249999999956
40
0.281249999999956
40
0.289062499999956
40
0.289062499999956
40
0.296874999999955
40
0.296874999999955
40
0.312499999999958
40
0.312499999999958
40
0.343749999999959
40
0.343749999999959
40
0.37499999999996
40
0.37499999999996
40
0.406249999999962
40
0.406249999999962
40
0.41406249999996
40
0.41406249999996
40
0.421874999999958
40
0.421874999999958
40
0.437499999999959
40
0.437499999999959
40
0.468749999999964
40
0.468749999999964
40
0.476562499999966
40
0.476562499999966
40
0.484374999999968
40
0.484374999999968
40
0.499999999999972
40
0.499999999999972
40
0.515624999999977
40
0.515624999999977
40
0.531249999999981
40
0.531249999999981
40
0.535156249999982
40
0.535156249999982
40
0.539062499999983
40
0.539062499999983
40
0.546874999999985
40
0.546874999999985
40
0.562499999999991
40
0.562499999999991
40
0.570312499999995
40
0.570312499999995
40
0.574218749999995
40
0.574218749999995
40
0.578124999999996
40
0.578124999999996
40
0.593750000000001
40
0.593750000000001
40
0.601562500000003
40
0.601562500000003
40
0.605468750000004
40
0.605468750000004
40
0.609375000000005
40
0.609375000000005
40
0.617187500000006
40
0.617187500000006
40
0.625000000000007
40
0.625000000000007
40
0.64062500000001
40
0.64062500000001
40
0.64843750000001
40
0.64843750000001
40
0.656250000000011
40
0.656250000000011
40
0.671875000000013
40
0.671875000000013
40
0.687500000000014
40
0.687500000000014
40
0.695312500000014
40
0.695312500000014
40
0.703125000000014
40
0.703125000000014
40
0.718750000000013
40
0.718750000000013
40
0.750000000000012
40
0.750000000000012
40
0.781250000000012
40
0.781250000000012
40
0.812500000000011
40
0.812500000000011
40
0.82812500000001
40
0.82812500000001
40
0.84375000000001
40
0.84375000000001
40
0.875000000000009
40
0.875000000000009
40
0.937500000000004
40
0.937500000000004
40
1
40
1
40
1
40
1
41
1
10
44.3491508514836
20
3.81560820448425
30
0
41
1
10
44.3070960779644
20
3.82487008700409
30
0
41
1
10
44.2648579210876
20
3.8335409692082
30
0
41
1
10
44.1797689972774
20
3.84968557680026
30
0
41
1
10
44.1368900345322
20
3.85715262728746
30
0
41
1
10
44.0074214062348
20
3.8779078501716
30
0
41
1
10
43.9199438613074
20
3.88952758138277
30
0
41
1
10
43.7422032561523
20
3.90882048360174
30
0
41
1
10
43.6519366786755
20
3.91649360403821
30
0
41
1
10
43.4682025367841
20
3.92845138019021
30
0
41
1
10
43.3747118112658
20
3.93273168225883
30
0
41
1
10
43.183939509404
20
3.938508832948
30
0
41
1
10
43.0866568197546
20
3.94000702828342
30
0
41
1
10
42.9375418918471
20
3.94067723536696
30
0
41
1
10
42.887248820229
20
3.94063722402692
30
0
41
1
10
42.7862578715457
20
3.94012562593761
30
0
41
1
10
42.7354849562991
20
3.9396546321137
30
0
41
1
10
42.480113955558
20
3.93647904471004
30
0
41
1
10
42.2709680093101
20
3.93134876225301
30
0
41
1
10
41.9479849536415
20
3.92450233654134
30
0
41
1
10
41.8388452222965
20
3.92233314931201
30
0
41
1
10
41.6999274580332
20
3.92029985186201
30
0
41
1
10
41.6720216752699
20
3.91992621763845
30
0
41
1
10
41.6160104539206
20
3.91923640890525
30
0
41
1
10
41.5879040404981
20
3.91892025930792
30
0
41
1
10
41.5037269135543
20
3.9180417181538
30
0
41
1
10
41.4476458051945
20
3.91753381351273
30
0
41
1
10
41.27953290495
20
3.91632063890003
30
0
41
1
10
41.1676293179026
20
3.91592568090286
30
0
41
1
10
40.9442167285185
20
3.91615607446297
30
0
41
1
10
40.8326941157909
20
3.91674794976953
30
0
41
1
10
40.6100582696579
20
3.91888110210684
30
0
41
1
10
40.498944724941
20
3.92042556060227
30
0
41
1
10
40.3603528929413
20
3.92284212796031
30
0
41
1
10
40.3326496257385
20
3.92334918036906
30
0
41
1
10
40.2772748417658
20
3.92440542651059
30
0
41
1
10
40.2495677725468
20
3.92495537211022
30
0
41
1
10
40.1668144445967
20
3.92665178430332
30
0
41
1
10
40.1121510098275
20
3.92784804950398
30
0
41
1
10
39.9497849527984
20
3.93150912842606
30
0
41
1
10
39.8436782942281
20
3.93406936043022
30
0
41
1
10
39.7144677555455
20
3.93677636408282
30
0
41
1
10
39.6887978320092
20
3.93729110877212
30
0
41
1
10
39.6378291152788
20
3.93824217408817
30
0
41
1
10
39.6126335778199
20
3.93867643023248
30
0
41
1
10
39.5382059440764
20
3.9398106473588
30
0
41
1
10
39.4900144949243
20
3.94034647702318
30
0
41
1
10
39.3969089316312
20
3.94071514100543
30
0
41
1
10
39.3519769568992
20
3.94054810305235
30
0
41
1
10
39.2657175098558
20
3.93915762301216
30
0
41
1
10
39.2243864047318
20
3.93793664924627
30
0
41
1
10
39.1753473944359
20
3.93544819777909
30
0
41
1
10
39.1656715935522
20
3.93490195127984
30
0
41
1
10
39.1465968233411
20
3.93370268676571
30
0
41
1
10
39.1372012322755
20
3.9330495200343
30
0
41
1
10
39.1096793128134
20
3.93093376268263
30
0
41
1
10
39.0921376930168
20
3.92931040075379
30
0
41
1
10
39.042019150657
20
3.92371965864496
30
0
41
1
10
39.0119875907782
20
3.91903166749404
30
0
41
1
10
38.9721873313799
20
3.91019378223925
30
0
41
1
10
38.9597968899789
20
3.90694622290619
30
0
41
1
10
38.9425704515006
20
3.90156925894388
30
0
41
1
10
38.9370479381629
20
3.89968938734384
30
0
41
1
10
38.9265499364821
20
3.89578579444643
30
0
41
1
10
38.9215632657066
20
3.89375905350502
30
0
41
1
10
38.8979145848643
20
3.88324284560562
30
0
41
1
10
38.8830902061596
20
3.87360643056243
30
0
41
1
10
38.866604518192
20
3.85716475509247
30
0
41
1
10
38.8621014762177
20
3.85135132281692
30
0
41
1
10
38.8566538804493
20
3.8421196320171
30
0
41
1
10
38.85505275302
20
3.83895738460737
30
0
41
1
10
38.8523802351584
20
3.83245383421016
30
0
41
1
10
38.851307365817
20
3.82910279822195
30
0
41
1
10
38.8490442705852
20
3.81885472853494
30
0
41
1
10
38.8488389227496
20
3.81176598773726
30
0
41
1
10
38.8512223944305
20
3.79710395653328
30
0
41
1
10
38.8536849206448
20
3.78952666471858
30
0
41
1
10
38.8643791565747
20
3.76606706932523
30
0
41
1
10
38.8758948643261
20
3.74945773761112
30
0
41
1
10
38.8982752530067
20
3.7231190457849
30
0
41
1
10
38.9066095934023
20
3.7140885038404
30
0
41
1
10
38.9245616966293
20
3.69579389018915
30
0
41
1
10
38.9341983055154
20
3.68650067298273
30
0
41
1
10
38.9648402781045
20
3.65819307944974
30
0
41
1
10
38.9875649182658
20
3.6387512170017
30
0
41
1
10
39.036512626081
20
3.59874217729649
30
0
41
1
10
39.0627448668427
20
3.57817531792767
30
0
41
1
10
39.1042179155195
20
3.54649587775131
30
0
41
1
10
39.1183987255024
20
3.53579787555037
30
0
41
1
10
39.1474101032725
20
3.51412776016102
30
0
41
1
10
39.1622593131535
20
3.50314215060891
30
0
41
1
10
39.2074903227361
20
3.46993237823591
30
0
41
1
10
39.238573691841
20
3.44741886804005
30
0
41
1
10
39.3340699086718
20
3.37875241984952
30
0
41
1
10
39.4007152729493
20
3.33147962595751
30
0
41
1
10
39.538143528411
20
3.23392191131268
30
0
41
1
10
39.6089409131582
20
3.18363648691829
30
0
41
1
10
39.7535647989525
20
3.0799819234197
30
0
41
1
10
39.8273979988638
20
3.02661256112398
30
0
41
1
10
39.9398642116384
20
2.94416374303751
30
0
41
1
10
39.977678815531
20
2.91625346100074
30
0
41
1
10
40.0536200299743
20
2.85976201724969
30
0
41
1
10
40.0917237526431
20
2.83119839207634
30
0
41
1
10
40.2063513815087
20
2.74453555646181
30
0
41
1
10
40.2831881277878
20
2.68546453862993
30
0
41
1
10
40.5144502267566
20
2.50421313405906
30
0
41
1
10
40.6696000585073
20
2.37800143692883
30
0
41
1
10
40.9803113463683
20
2.11396734011751
30
0
41
1
10
41.1358748766102
20
1.9761354449825
30
0
41
1
10
41.2913980417984
20
1.832048813434
30
0
0
SPLINE
5
E9
100
AcDbEntity
8
1
62
256
6
ByLayer
370
13
48
1
60
0
100
AcDbSpline
70
4
71
3
72
11
73
7
40
0
40
0
40
0
40
0
40
0.116293283799707
40
0.52994562954774
40
0.943597975295774
40
1
40
1
40
1
40
1
41
1
10
57.5032018589765
20
3.78694352126925
30
0
41
1
10
57.5092667933131
20
3.73927614336586
30
0
41
1
10
57.5369045561296
20
3.50537498323632
30
0
41
1
10
57.5861152313363
20
2.95806435564452
30
0
41
1
10
57.6322023061169
20
2.29162928165044
30
0
41
1
10
57.6567166438453
20
1.90536613957948
30
0
41
1
10
57.6596581302966
20
1.85859408857786
30
0
0
SPLINE
5
EA
100
AcDbEntity
8
1
62
256
6
ByLayer
370
13
48
1
60
0
100
AcDbSpline
70
4
71
3
72
10
73
6
40
0
40
0
40
0
40
0
40
0.316444638645183
40
0.728816154403843
40
1
40
1
40
1
40
1
41
1
10
65.2889333442204
20
4.21196722345081
30
0
41
1
10
65.3054878446371
20
4.18752602699158
30
0
41
1
10
65.3436151662535
20
4.06129094374674
30
0
41
1
10
65.3959292192021
20
3.67425086093385
30
0
41
1
10
65.431688767292
20
3.28863795563274
30
0
41
1
10
65.4458754922917
20
3.11916895766848
30
0
0
SPLINE
5
EB
100
AcDbEntity
8
1
62
256
6
ByLayer
370
18
48
1
60
0
100
AcDbSpline
70
4
71
3
72
31
73
27
40
0
40
0
40
0
40
0
40
0.03125
40
0.03125
40
0.0624999999999999
40
0.125
40
0.125
40
0.25
40
0.25
40
0.375000000000001
40
0.375000000000001
40
0.437500000000001
40
0.468750000000001
40
0.468750000000001
40
0.500000000000001
40
0.500000000000001
40
0.625000000000001
40
0.625000000000001
40
0.750000000000001
40
0.875
40
0.875
40
0.9375
40
0.9375
40
0.96875
40
0.96875
40
1
40
1
40
1
40
1
41
1
10
65.7987035210244
20
5.00705859916431
30
0
41
1
10
65.800541988309
20
5.00064931415275
30
0
41
1
10
65.8023851886804
20
4.99377319610537
30
0
41
1
10
65.8060647588502
20
4.97914868081162
30
0
41
1
10
65.8115715673304
20
4.9559168522056
30
0
41
1
10
65.8170478531891
20
4.92884298328727
30
0
41
1
10
65.8279840897387
20
4.86965473895125
30
0
41
1
10
65.8352662083374
20
4.8234858262214
30
0
41
1
10
65.8498385314364
20
4.71790207090086
30
0
41
1
10
65.857121057567
20
4.65848706881425
30
0
41
1
10
65.8680692267426
20
4.55930942536199
30
0
41
1
10
65.8735502051275
20
4.507202934845
30
0
41
1
10
65.8790546998731
20
4.45126062954137
30
0
41
1
10
65.8827316120082
20
4.41310405539525
30
0
41
1
10
65.8845748681613
20
4.39358109069491
30
0
41
1
10
65.8937672598332
20
4.29430918238106
30
0
41
1
10
65.9010924804862
20
4.20924193508608
30
0
41
1
10
65.915699242195
20
4.02814623479068
30
0
41
1
10
65.9302505844881
20
3.83608700883946
30
0
41
1
10
65.9447781076921
20
3.6222120780362
30
0
41
1
10
65.9557518702012
20
3.45346064982655
30
0
41
1
10
65.9594251079488
20
3.39581720839112
30
0
41
1
10
65.9649638575283
20
3.30722098186163
30
0
41
1
10
65.9668109675687
20
3.27739039718224
30
0
41
1
10
65.9704960538793
20
3.21730745995532
30
0
41
1
10
65.9723356570044
20
3.18702913204896
30
0
41
1
10
65.9741723502135
20
3.15651619681333
30
0
0
SPLINE
5
EC
100
AcDbEntity
8
1
62
256
6
ByLayer
370
13
48
1
60
0
100
AcDbSpline
70
4
71
3
72
10
73
6
40
0
40
0
40
0
40
0
40
0.264412540744553
40
0.676733414617087
40
1
40
1
40
1
40
1
41
1
10
66.4757619013873
20
3.9772032616917
30
0
41
1
10
66.4895960880917
20
3.89430136102024
30
0
41
1
10
66.5250030841791
20
3.63096736520473
30
0
41
1
10
66.5773235032085
20
3.06181286607918
30
0
41
1
10
66.615809805027
20
2.52647208563414
30
0
41
1
10
66.6327232688393
20
2.27410053277805
30
0
0
SPLINE
5
ED
100
AcDbEntity
8
1
62
256
6
ByLayer
370
18
48
1
60
0
100
AcDbSpline
70
4
71
3
72
27
73
23
40
0
40
0
40
0
40
0
40
0.125000000000001
40
0.125000000000001
40
0.250000000000003
40
0.250000000000003
40
0.312500000000003
40
0.343750000000004
40
0.343750000000004
40
0.375000000000004
40
0.375000000000004
40
0.500000000000004
40
0.500000000000004
40
0.625000000000003
40
0.625000000000003
40
0.750000000000003
40
0.750000000000003
40
0.812500000000002
40
0.812500000000002
40
0.875000000000001
40
0.875000000000001
40
1
40
1
40
1
40
1
41
1
10
66.1251839258006
20
3.02224495256718
30
0
41
1
10
66.1178738917889
20
3.14706143151435
30
0
41
1
10
66.1106084396098
20
3.26713447485866
30
0
41
1
10
66.0960738248496
20
3.49790049846001
30
0
41
1
10
66.0887924195852
20
3.60859309776595
30
0
41
1
10
66.0778045823244
20
3.76749974078803
30
0
41
1
10
66.0722980896112
20
3.84516735703445
30
0
41
1
10
66.0667706841006
20
3.92011214334349
30
0
41
1
10
66.0630803027219
20
3.96946336806803
30
0
41
1
10
66.0612345328169
20
3.99380383726995
30
0
41
1
10
66.0520365757819
20
4.11336531786006
30
0
41
1
10
66.044745920489
20
4.20262830727935
30
0
41
1
10
66.0301945715943
20
4.36874320522827
30
0
41
1
10
66.0229197551877
20
4.44559393436444
30
0
41
1
10
66.0083240228562
20
4.58692476971106
30
0
41
1
10
66.0010148327207
20
4.65140561595339
30
0
41
1
10
65.9900113383337
20
4.73864581568992
30
0
41
1
10
65.9863338992184
20
4.76616017390677
30
0
41
1
10
65.9789637260952
20
4.81788703759591
30
0
41
1
10
65.9752949918911
20
4.84193305936407
30
0
41
1
10
65.9643146230356
20
4.90872662719158
30
0
41
1
10
65.9570164008892
20
4.94614071180601
30
0
41
1
10
65.9497216376479
20
4.9765846609256
30
0
0
SPLINE
5
EE
100
AcDbEntity
8
1
62
256
6
ByLayer
370
18
48
1
60
0
100
AcDbSpline
70
4
71
3
72
10
73
6
40
0
40
0
40
0
40
0
40
0.432840381184935
40
0.953838612852828
40
1
40
1
40
1
40
1
41
1
10
72.0000000000001
20
-0.0242331333451489
30
0
41
1
10
72.0000000000001
20
-0.339114782248657
30
0
41
1
10
71.9999999999999
20
-1.03619886749453
30
0
41
1
10
72
20
-1.71675999308979
30
0
41
1
10
72
20
-2.0656375324649
30
0
41
1
10
72
20
-2.09377947724903
30
0
0
SPLINE
5
EF
100
AcDbEntity
8
1
62
256
6
ByLayer
370
13
48
1
60
0
100
AcDbSpline
70
4
71
3
72
10
73
6
40
0
40
0
40
0
40
0
40
0.389255579673245
40
0.803045472918129
40
1
40
1
40
1
40
1
41
1
10
57.8998097320031
20
3.60827389220756
30
0
41
1
10
57.9201034667069
20
3.42113949982226
30
0
41
1
10
57.9619700268225
20
2.95403289530395
30
0
41
1
10
58.0141047593148
20
2.20272026441873
30
0
41
1
10
58.0459457515023
20
1.68973061384784
30
0
41
1
10
58.0562139216532
20
1.52009368828567
30
0
0
SPLINE
5
F0
100
AcDbEntity
8
1
62
256
6
ByLayer
370
18
48
1
60
0
100
AcDbSpline
70
4
71
3
72
10
73
6
40
0
40
0
40
0
40
0
40
0.5
40
0.5
40
1
40
1
40
1
40
1
41
1
10
71.6000000582665
20
-1.56190726544324
30
0
41
1
10
71.6024982062051
20
-1.64890799566231
30
0
41
1
10
71.6049519022523
20
-1.73453692459199
30
0
41
1
10
71.6097679265443
20
-1.90305811725904
30
0
41
1
10
71.6121340480581
20
-1.98601197250835
30
0
41
1
10
71.6144349639273
20
-2.0673045382384
30
0
0
SPLINE
5
F1
100
AcDbEntity
8
1
62
256
6
ByLayer
370
18
48
1
60
0
100
AcDbSpline
70
4
71
3
72
20
73
16
40
0
40
0
40
0
40
0
40
0.0624999999999993
40
0.0624999999999993
40
0.124999999999999
40
0.124999999999999
40
0.249999999999999
40
0.249999999999999
40
0.499999999999998
40
0.499999999999998
40
0.624999999999999
40
0.624999999999999
40
0.75
40
0.75
40
1
40
1
40
1
40
1
41
1
10
71.4587407340659
20
0.501644892132134
30
0
41
1
10
71.4618283862659
20
0.457912519328005
30
0
41
1
10
71.4649237554658
20
0.41408594649485
30
0
41
1
10
71.4711108199216
20
0.326242668230719
30
0
41
1
10
71.4742016243432
20
0.282237911910642
30
0
41
1
10
71.4833991113237
20
0.150558636105188
30
0
41
1
10
71.4894433045812
20
0.0630123496192709
30
0
41
1
10
71.507158477888
20
-0.198929317695786
30
0
41
1
10
71.5185565048712
20
-0.372620746083982
30
0
41
1
10
71.5359078287212
20
-0.63171200498951
30
0
41
1
10
71.5417057067701
20
-0.717836277833754
30
0
41
1
10
71.5533305444244
20
-0.889599265928609
30
0
41
1
10
71.559161110909
20
-0.975291376535381
30
0
41
1
10
71.5766493912948
20
-1.23128666774397
30
0
41
1
10
71.5882462938308
20
-1.3983765758573
30
0
41
1
10
71.6000000582762
20
-1.56190726552887
30
0
0
SPLINE
5
F2
100
AcDbEntity
8
1
62
256
6
ByLayer
370
18
48
1
60
0
100
AcDbSpline
70
4
71
3
72
10
73
6
40
0
40
0
40
0
40
0
40
0.265531775565966
40
0.812953148514669
40
1
40
1
40
1
40
1
41
1
10
71.6000000582665
20
-1.56190726544116
30
0
41
1
10
71.6000000495704
20
-1.39998739217938
30
0
41
1
10
71.6000000090629
20
-0.891808821394932
30
0
41
1
10
71.5999999539353
20
-0.235262393686782
30
0
41
1
10
71.5999999328106
20
0.243766181706178
30
0
41
1
10
71.5999999285112
20
0.365079776229436
30
0
0
SPLINE
5
F3
100
AcDbEntity
8
1
62
256
6
ByLayer
370
13
48
1
60
0
100
AcDbSpline
70
4
71
3
72
10
73
6
40
0
40
0
40
0
40
0
40
0.392650809601188
40
0.804913450594191
40
1
40
1
40
1
40
1
41
1
10
65.4201291919089
20
-2.50965066927938
30
0
41
1
10
65.4406757703638
20
-2.80232245896826
30
0
41
1
10
65.4827951346354
20
-3.34489642875244
30
0
41
1
10
65.5351229474867
20
-3.82659623815641
30
0
41
1
10
65.5669042449397
20
-4.01532952573683
30
0
41
1
10
65.5771127112956
20
-4.06483821502647
30
0
0
SPLINE
5
F4
100
AcDbEntity
8
1
62
256
6
ByLayer
370
18
48
1
60
0
100
AcDbSpline
70
4
71
3
72
28
73
24
40
0
40
0
40
0
40
0
40
0.125
40
0.125
40
0.25
40
0.25
40
0.281249999999999
40
0.281249999999999
40
0.312499999999999
40
0.312499999999999
40
0.374999999999999
40
0.374999999999999
40
0.499999999999999
40
0.499999999999999
40
0.624999999999998
40
0.749999999999998
40
0.749999999999998
40
0.781249999999998
40
0.781249999999998
40
0.812499999999998
40
0.874999999999998
40
0.874999999999998
40
1
40
1
40
1
40
1
41
1
10
65.0695372190278
20
-4.77250968161425
30
0
41
1
10
65.0622645837882
20
-4.71978521162862
30
0
41
1
10
65.0550024141667
20
-4.66054699737913
30
0
41
1
10
65.0404226954343
20
-4.52908536723271
30
0
41
1
10
65.0331193430815
20
-4.45686221975277
30
0
41
1
10
65.0239575863606
20
-4.35828697365616
30
0
41
1
10
65.0221234242022
20
-4.3381562730342
30
0
41
1
10
65.0184503358244
20
-4.29705560719685
30
0
41
1
10
65.0166097609375
20
-4.27606642619636
30
0
41
1
10
65.0110899689435
20
-4.21195714344339
30
0
41
1
10
65.0074267817392
20
-4.16786145683275
30
0
41
1
10
64.9964647370968
20
-4.03158631236946
30
0
41
1
10
64.9891830168779
20
-3.93542737994892
30
0
41
1
10
64.9746037775096
20
-3.73270665974627
30
0
41
1
10
64.9600366849075
20
-3.51958159535593
30
0
41
1
10
64.9454473637838
20
-3.28554675530785
30
0
41
1
10
64.9362619246585
20
-3.13254248871019
30
0
41
1
10
64.9344190754812
20
-3.10156648712521
30
0
41
1
10
64.9307409582809
20
-3.03922146119371
30
0
41
1
10
64.9252311665622
20
-2.94505497377716
30
0
41
1
10
64.9197345256172
20
-2.84896310469145
30
0
41
1
10
64.9087626353989
20
-2.65425189068648
30
0
41
1
10
64.9014786737457
20
-2.52107957375574
30
0
41
1
10
64.8942094664342
20
-2.3845833718068
30
0
0
SPLINE
5
F5
100
AcDbEntity
8
1
62
256
6
ByLayer
370
13
48
1
60
0
100
AcDbSpline
70
4
71
3
72
11
73
7
40
0
40
0
40
0
40
0
40
0.0327500390443283
40
0.445045146702801
40
0.857340254361274
40
1
40
1
40
1
40
1
41
1
10
64.2332419930935
20
-1.54277971448369
30
0
41
1
10
64.2349555977559
20
-1.57102519922847
30
0
41
1
10
64.2582420259326
20
-1.95323033795228
30
0
41
1
10
64.3031012718465
20
-2.64449955432937
30
0
41
1
10
64.3537114210846
20
-3.27337413713721
30
0
41
1
10
64.3827487378101
20
-3.55810477233848
30
0
41
1
10
64.3902132299112
20
-3.62599380613801
30
0
0
SPLINE
5
F6
100
AcDbEntity
8
1
62
256
6
ByLayer
370
18
48
1
60
0
100
AcDbSpline
70
4
71
3
72
30
73
26
40
0
40
0
40
0
40
0
40
0.0625000000000005
40
0.0625000000000005
40
0.125000000000001
40
0.125000000000001
40
0.250000000000001
40
0.250000000000001
40
0.375
40
0.375
40
0.5
40
0.5
40
0.53125
40
0.53125
40
0.5625
40
0.625
40
0.625
40
0.750000000000001
40
0.750000000000001
40
0.875000000000001
40
0.875000000000001
40
0.937500000000001
40
0.968750000000001
40
0.968750000000001
40
1
40
1
40
1
40
1
41
1
10
64.7431422314848
20
-2.23325563419877
30
0
41
1
10
64.7468107938305
20
-2.30314447414949
30
0
41
1
10
64.7504886784525
20
-2.37244196857503
30
0
41
1
10
64.7578663854099
20
-2.50983010092122
30
0
41
1
10
64.7615401468799
20
-2.57743445281503
30
0
41
1
10
64.7725152961747
20
-2.77679936895123
30
0
41
1
10
64.7797743944465
20
-2.90522766396842
30
0
41
1
10
64.7942928232191
20
-3.15330697122465
30
0
41
1
10
64.8015662736346
20
-3.27295716554713
30
0
41
1
10
64.8161519457118
20
-3.5034462192456
30
0
41
1
10
64.8234592143558
20
-3.61428584825376
30
0
41
1
10
64.8326411011726
20
-3.74716615017772
30
0
41
1
10
64.8344822063696
20
-3.77348849910092
30
0
41
1
10
64.8381602100128
20
-3.82540624948839
30
0
41
1
10
64.8436654572144
20
-3.90211711747966
30
0
41
1
10
64.8491429364003
20
-3.97536957494171
30
0
41
1
10
64.8600856351249
20
-4.1173371767438
30
0
41
1
10
64.8673750118132
20
-4.20594158777013
30
0
41
1
10
64.8819409445413
20
-4.37123015115816
30
0
41
1
10
64.8892141540413
20
-4.4479143140768
30
0
41
1
10
64.9001462799345
20
-4.5538943641331
30
0
41
1
10
64.9056187692917
20
-4.60461932185601
30
0
41
1
10
64.9111158625667
20
-4.6518935611526
30
0
41
1
10
64.9147883132648
20
-4.68263454232067
30
0
41
1
10
64.9166301821616
20
-4.69763100273391
30
0
41
1
10
64.9184680373298
20
-4.71216522682485
30
0
0
SPLINE
5
F7
100
AcDbEntity
8
1
62
256
6
ByLayer
370
13
48
1
60
0
100
AcDbSpline
70
4
71
3
72
11
73
7
40
0
40
0
40
0
40
0
40
0.0384829922813713
40
0.361549486521955
40
0.684615980762539
40
1
40
1
40
1
40
1
41
1
10
70.1963156149574
20
-0.91810424383138
30
0
41
1
10
70.1942986545492
20
-0.883248279798721
30
0
41
1
10
70.1753492185464
20
-0.55485069714868
30
0
41
1
10
70.1394673069335
20
0.0815970104358144
30
0
41
1
10
70.0890725269354
20
0.971800145836056
30
0
41
1
10
70.0556102284662
20
1.53416101143395
30
0
41
1
10
70.0390804035412
20
1.79897934547642
30
0
0
SPLINE
5
F8
100
AcDbEntity
8
1
62
256
6
ByLayer
370
18
48
1
60
0
100
AcDbSpline
70
4
71
3
72
25
73
21
40
0
40
0
40
0
40
0
40
0.125
40
0.125
40
0.249999999999999
40
0.249999999999999
40
0.374999999999999
40
0.374999999999999
40
0.437499999999998
40
0.437499999999998
40
0.468749999999998
40
0.468749999999998
40
0.499999999999998
40
0.749999999999999
40
0.749999999999999
40
0.874999999999999
40
0.874999999999999
40
0.9375
40
0.9375
40
1
40
1
40
1
40
1
41
1
10
70.1584455172429
20
1.81021601720516
30
0
41
1
10
70.1655032172766
20
1.69494698781881
30
0
41
1
10
70.172486747743
20
1.5781511486245
30
0
41
1
10
70.1864033777233
20
1.34162122582524
30
0
41
1
10
70.1933391564689
20
1.22188832914759
30
0
41
1
10
70.207276716359
20
0.979523895644576
30
0
41
1
10
70.2142847621588
20
0.856892315542638
30
0
41
1
10
70.224873670923
20
0.670736325028969
30
0
41
1
10
70.2284156727443
20
0.60831556853347
30
0
41
1
10
70.2337485176331
20
0.514120699104041
30
0
41
1
10
70.2355314291455
20
0.482593204688101
30
0
41
1
10
70.2390939589131
20
0.419527685775364
30
0
41
1
10
70.2551027747325
20
0.135913260821667
30
0
41
1
10
70.2708211413685
20
-0.146097682410868
30
0
41
1
10
70.2917058480033
20
-0.52025609042812
30
0
41
1
10
70.2986686439636
20
-0.644665469483868
30
0
41
1
10
70.3091803901208
20
-0.830803519020151
30
0
41
1
10
70.3126963440334
20
-0.892769992563132
30
0
41
1
10
70.319754892625
20
-1.01654070479935
30
0
41
1
10
70.323296764536
20
-1.07834260668943
30
0
41
1
10
70.326829223383
20
-1.13970586189751
30
0
0
SPLINE
5
F9
100
AcDbEntity
8
1
62
256
6
ByLayer
370
18
48
1
60
0
100
AcDbSpline
70
4
71
3
72
27
73
23
40
0
40
0
40
0
40
0
40
0.0624999999999999
40
0.0624999999999999
40
0.125
40
0.125
40
0.249999999999999
40
0.249999999999999
40
0.374999999999998
40
0.374999999999998
40
0.499999999999997
40
0.499999999999997
40
0.562499999999996
40
0.562499999999996
40
0.593749999999997
40
0.593749999999997
40
0.624999999999997
40
0.749999999999998
40
0.749999999999998
40
0.874999999999999
40
0.874999999999999
40
1
40
1
40
1
40
1
41
1
10
71.4246226281566
20
-1.95485366566805
30
0
41
1
10
71.4217663862906
20
-1.90456518927178
30
0
41
1
10
71.4189050742781
20
-1.85365050062228
30
0
41
1
10
71.413190677413
20
-1.75107417783229
30
0
41
1
10
71.4103403245844
20
-1.69946331068823
30
0
41
1
10
71.4017968960184
20
-1.54368123773764
30
0
41
1
10
71.3961108034204
20
-1.43856277452468
30
0
41
1
10
71.3847061161632
20
-1.22584122347459
30
0
41
1
10
71.3789746611911
20
-1.11823851197977
30
0
41
1
10
71.3675709062899
20
-0.900511081973832
30
0
41
1
10
71.3618849683827
20
-0.790392169293767
30
0
41
1
10
71.3533095367247
20
-0.623308232213446
30
0
41
1
10
71.3504435421546
20
-0.567295402688615
30
0
41
1
10
71.3461267989028
20
-0.482790396803125
30
0
41
1
10
71.3446853282358
20
-0.454548555722852
30
0
41
1
10
71.3418082220836
20
-0.398147651018462
30
0
41
1
10
71.3346219371808
20
-0.257200827337528
30
0
41
1
10
71.3274655124955
20
-0.116528703881698
30
0
41
1
10
71.3163384063505
20
0.108207606420251
30
0
41
1
10
71.3109453342599
20
0.220406450555998
30
0
41
1
10
71.3002239539136
20
0.444458175999188
30
0
41
1
10
71.2948798164055
20
0.556310443877805
30
0
41
1
10
71.2894385262983
20
0.667981967274216
30
0
0
SPLINE
5
FA
100
AcDbEntity
8
1
62
256
6
ByLayer
370
18
48
1
60
0
100
AcDbSpline
70
4
71
3
72
23
73
19
40
0
40
0
40
0
40
0
40
0.124999999999999
40
0.249999999999999
40
0.374999999999998
40
0.374999999999998
40
0.437499999999998
40
0.437499999999998
40
0.499999999999999
40
0.499999999999999
40
0.624999999999999
40
0.749999999999999
40
0.749999999999999
40
0.874999999999999
40
0.874999999999999
40
0.9375
40
0.9375
40
1
40
1
40
1
40
1
41
1
10
57.9709004099287
20
3.68567140175435
30
0
41
1
10
57.9782387429478
20
3.62162977169277
30
0
41
1
10
57.9928448722664
20
3.48541766452559
30
0
41
1
10
58.0145897313179
20
3.25724013877502
30
0
41
1
10
58.029101026519
20
3.089241618665
30
0
41
1
10
58.040068269734
20
2.95717538637103
30
0
41
1
10
58.0437368896168
20
2.91214058905649
30
0
41
1
10
58.0510995390199
20
2.82000764455728
30
0
41
1
10
58.054773012317
20
2.77316534622048
30
0
41
1
10
58.0657474401356
20
2.63068175954896
30
0
41
1
10
58.0802775315851
20
2.43520810701548
30
0
41
1
10
58.0947098226493
20
2.22899298920402
30
0
41
1
10
58.1091886541433
20
2.01742239475223
30
0
41
1
10
58.1164581210078
20
1.90896056054845
30
0
41
1
10
58.1274077024017
20
1.7421706494072
30
0
41
1
10
58.1310652410135
20
1.68589026128058
30
0
41
1
10
58.1383995651111
20
1.57193722177397
30
0
41
1
10
58.1420618991762
20
1.51448830790218
30
0
41
1
10
58.1457132260509
20
1.45672024098599
30
0
0
SPLINE
5
FB
100
AcDbEntity
8
1
62
256
6
ByLayer
370
18
48
1
60
0
100
AcDbSpline
70
4
71
3
72
29
73
25
40
0
40
0
40
0
40
0
40
0.125
40
0.125
40
0.249999999999999
40
0.249999999999999
40
0.374999999999999
40
0.374999999999999
40
0.406249999999999
40
0.406249999999999
40
0.437499999999999
40
0.437499999999999
40
0.499999999999999
40
0.499999999999999
40
0.624999999999999
40
0.624999999999999
40
0.75
40
0.875
40
0.875
40
0.90625
40
0.90625
40
0.9375
40
0.9375
40
1
40
1
40
1
40
1
41
1
10
59.0793560569574
20
0.567431435119829
30
0
41
1
10
59.0730987657545
20
0.693861300980871
30
0
41
1
10
59.0668815672859
20
0.818945542263947
30
0
41
1
10
59.0544624657867
20
1.06646778251408
30
0
41
1
10
59.0482556735107
20
1.18890530314769
30
0
41
1
10
59.0357780373004
20
1.43112052923448
30
0
41
1
10
59.0295170759686
20
1.55089918550504
30
0
41
1
10
59.0216543808416
20
1.69891982026127
30
0
41
1
10
59.0200799091641
20
1.72843865452805
30
0
41
1
10
59.0169264351012
20
1.78730404750655
30
0
41
1
10
59.0153461991964
20
1.81667314715591
30
0
41
1
10
59.0106195563972
20
1.90411110522587
30
0
41
1
10
59.0074808233687
20
1.96163232025748
30
0
41
1
10
58.9980887323605
20
2.13192238920891
30
0
41
1
10
58.9918593254353
20
2.24242171485272
30
0
41
1
10
58.9793769904814
20
2.45746627131604
30
0
41
1
10
58.966885804874
20
2.66655824725567
30
0
41
1
10
58.9543666654979
20
2.86370732265556
30
0
41
1
10
58.9465023973353
20
2.98309620669934
30
0
41
1
10
58.9449274335014
20
3.00678215765407
30
0
41
1
10
58.9417720262911
20
3.05376651622879
30
0
41
1
10
58.9401911788609
20
3.07707028191638
30
0
41
1
10
58.9354562923138
20
3.14613315126374
30
0
41
1
10
58.9323040748386
20
3.1911329404268
30
0
41
1
10
58.9291497225425
20
3.23509786378256
30
0
0
SPLINE
5
FC
100
AcDbEntity
8
1
62
256
6
ByLayer
370
13
48
1
60
0
100
AcDbSpline
70
4
71
3
72
10
73
6
40
0
40
0
40
0
40
0
40
0.337048089617983
40
0.750435996101633
40
1
40
1
40
1
40
1
41
1
10
59.0865915989546
20
2.9159653305845
30
0
41
1
10
59.104180573214
20
2.69051220326293
30
0
41
1
10
59.1433422906167
20
2.13562288450828
30
0
41
1
10
59.1955280016871
20
1.2786282594721
30
0
41
1
10
59.2301243566025
20
0.674763145433985
30
0
41
1
10
59.2431479293724
20
0.445462357103736
30
0
0
SPLINE
5
FD
100
AcDbEntity
8
1
62
256
6
ByLayer
370
13
48
1
60
0
100
AcDbSpline
70
4
71
3
72
11
73
7
40
0
40
0
40
0
40
0
40
0.12428169125684
40
0.536446679850425
40
0.948611668444009
40
1
40
1
40
1
40
1
41
1
10
66.8723253843289
20
3.83718415736749
30
0
41
1
10
66.8788303214687
20
3.78891380224488
30
0
41
1
10
66.9069080846363
20
3.56214927339886
30
0
41
1
10
66.9565586658096
20
3.02533153179846
30
0
41
1
10
67.002393992762
20
2.3732080815173
30
0
41
1
10
67.0266564961694
20
1.99563186443549
30
0
41
1
10
67.0293461750426
20
1.95340205780687
30
0
0
SPLINE
5
FE
100
AcDbEntity
8
1
62
256
6
ByLayer
370
18
48
1
60
0
100
AcDbSpline
70
4
71
3
72
25
73
21
40
0
40
0
40
0
40
0
40
0.124999999999999
40
0.124999999999999
40
0.187499999999999
40
0.187499999999999
40
0.249999999999998
40
0.249999999999998
40
0.374999999999997
40
0.374999999999997
40
0.499999999999996
40
0.624999999999994
40
0.624999999999994
40
0.656249999999994
40
0.656249999999994
40
0.687499999999994
40
0.749999999999995
40
0.749999999999995
40
0.874999999999997
40
1
40
1
40
1
40
1
41
1
10
67.382146441294
20
4.41914054891612
30
0
41
1
10
67.3894310811089
20
4.34297045464271
30
0
41
1
10
67.3967459804313
20
4.26053986957999
30
0
41
1
10
67.4077610875175
20
4.12730429677285
30
0
41
1
10
67.4114404774953
20
4.08129164835825
30
0
41
1
10
67.418821353426
20
3.98599949950346
30
0
41
1
10
67.4224953722418
20
3.93707436827339
30
0
41
1
10
67.4334783038389
20
3.78663218275363
30
0
41
1
10
67.4407502793391
20
3.68141468882254
30
0
41
1
10
67.4553275758473
20
3.46134636950509
30
0
41
1
10
67.4699216577105
20
3.2316429350054
30
0
41
1
10
67.4845443471843
20
2.98259695396263
30
0
41
1
10
67.493736275819
20
2.82072041209713
30
0
41
1
10
67.4955798337578
20
2.78799117838017
30
0
41
1
10
67.4992617986867
20
2.72212923778477
30
0
41
1
10
67.5047738813975
20
2.62278367060577
30
0
41
1
10
67.510265206098
20
2.52179902802732
30
0
41
1
10
67.5212416548626
20
2.31768024534682
30
0
41
1
10
67.5358411270559
20
2.03979803150912
30
0
41
1
10
67.5503800697957
20
1.75061683833661
30
0
41
1
10
67.5576727067191
20
1.60316872923099
30
0
0
SPLINE
5
FF
100
AcDbEntity
8
1
62
256
6
ByLayer
370
18
48
1
60
0
100
AcDbSpline
70
4
71
3
72
28
73
24
40
0
40
0
40
0
40
0
40
0.125
40
0.125
40
0.249999999999999
40
0.249999999999999
40
0.374999999999999
40
0.374999999999999
40
0.406249999999999
40
0.406249999999999
40
0.437499999999999
40
0.437499999999999
40
0.499999999999999
40
0.499999999999999
40
0.624999999999999
40
0.624999999999999
40
0.749999999999999
40
0.749999999999999
40
0.812499999999999
40
0.812499999999999
40
0.874999999999999
40
0.874999999999999
40
1
40
1
40
1
40
1
41
1
10
67.6143795527381
20
1.54273748376636
30
0
41
1
10
67.6052629498122
20
1.69401989313971
30
0
41
1
10
67.5963128969412
20
1.84202824616421
30
0
41
1
10
67.5778270173019
20
2.13162156209737
30
0
41
1
10
67.5682843374996
20
2.27320614593063
30
0
41
1
10
67.5486569090681
20
2.54996512450131
30
0
41
1
10
67.5385712086484
20
2.68514004418546
30
0
41
1
10
67.5260315287328
20
2.85002396770241
30
0
41
1
10
67.5235284713855
20
2.88279614623133
30
0
41
1
10
67.518548481901
20
2.94792776983144
30
0
41
1
10
67.5160704102793
20
2.98030234457261
30
0
41
1
10
67.5087422115453
20
3.07629720243281
30
0
41
1
10
67.5040126489218
20
3.13895853342874
30
0
41
1
10
67.4901598734426
20
3.32300217535521
30
0
41
1
10
67.4812613414193
20
3.44044671059117
30
0
41
1
10
67.4629747116044
20
3.66495931236773
30
0
41
1
10
67.4535925343785
20
3.77202801486985
30
0
41
1
10
67.4389345992493
20
3.92477737357362
30
0
41
1
10
67.4339587622055
20
3.97438315810672
30
0
41
1
10
67.4238875883992
20
4.07093911328863
30
0
41
1
10
67.4187893627254
20
4.1179137637458
30
0
41
1
10
67.4035292852276
20
4.25462445245179
30
0
41
1
10
67.3934785450956
20
4.33942201545707
30
0
41
1
10
67.3844060404169
20
4.41789871156485
30
0
0
SPLINE
5
100
100
AcDbEntity
8
1
62
256
6
ByLayer
370
18
48
1
60
0
100
AcDbSpline
70
4
71
3
72
26
73
22
40
0
40
0
40
0
40
0
40
0.125
40
0.125
40
0.250000000000001
40
0.250000000000001
40
0.312500000000001
40
0.343750000000001
40
0.343750000000001
40
0.375000000000001
40
0.375000000000001
40
0.5
40
0.5
40
0.749999999999998
40
0.749999999999998
40
0.812499999999998
40
0.812499999999998
40
0.843749999999998
40
0.843749999999998
40
0.874999999999998
40
1
40
1
40
1
40
1
41
1
10
67.7243510389688
20
1.42279596535394
30
0
41
1
10
67.7173996676008
20
1.5697306870756
30
0
41
1
10
67.7104327394775
20
1.71408402680711
30
0
41
1
10
67.696544448668
20
1.99761992365191
30
0
41
1
10
67.6896456632612
20
2.13679387456176
30
0
41
1
10
67.6793406355853
20
2.34160441369332
30
0
41
1
10
67.6741963812232
20
2.44302157979678
30
0
41
1
10
67.6690403172348
20
2.54293833101434
30
0
41
1
10
67.6655963231617
20
2.60921347377513
30
0
41
1
10
67.6638698209858
20
2.64220729445461
30
0
41
1
10
67.6552611655577
20
2.80550337269941
30
0
41
1
10
67.6484249284032
20
2.93141011871904
30
0
41
1
10
67.6277608995595
20
3.29564080707843
30
0
41
1
10
67.6137694582121
20
3.52055558609746
30
0
41
1
10
67.5964340727851
20
3.77813480465525
30
0
41
1
10
67.5929728160644
20
3.82846821245576
30
0
41
1
10
67.5877815539093
20
3.90216157208499
30
0
41
1
10
67.5860516807701
20
3.92641608858313
30
0
41
1
10
67.5826020077723
20
3.97414110775284
30
0
41
1
10
67.5739960505071
20
4.09160660372038
30
0
41
1
10
67.5654218306754
20
4.19991263709815
30
0
41
1
10
67.5584459465528
20
4.28083753763343
30
0
0
SPLINE
5
101
100
AcDbEntity
8
1
62
256
6
ByLayer
370
13
48
1
60
0
100
AcDbSpline
70
4
71
3
72
11
73
7
40
0
40
0
40
0
40
0
40
0.165827671602026
40
0.489140429988099
40
0.812453188374173
40
1
40
1
40
1
40
1
41
1
10
68.2162258414411
20
0.915699192521288
30
0
41
1
10
68.2075411448233
20
1.0658029424271
30
0
41
1
10
68.1819239231981
20
1.50319195351119
30
0
41
1
10
68.1393740475036
20
2.19049342403639
30
0
41
1
10
68.0956870819201
20
2.81131930507686
30
0
41
1
10
68.0689323360023
20
3.13680962694963
30
0
41
1
10
68.0591101282514
20
3.24806958051508
30
0
0
SPLINE
5
102
100
AcDbEntity
8
1
62
256
6
ByLayer
370
13
48
1
60
0
100
AcDbSpline
70
4
71
3
72
11
73
7
40
0
40
0
40
0
40
0
40
0.221392149014596
40
0.544447194263932
40
0.867502239513268
40
1
40
1
40
1
40
1
41
1
10
69.7997037826235
20
-0.553360664612484
30
0
41
1
10
69.7880998119669
20
-0.349692879698523
30
0
41
1
10
69.7595633737667
20
0.156000394629132
30
0
41
1
10
69.714094651824
20
0.959712726790542
30
0
41
1
10
69.6732846881285
20
1.6461005055545
30
0
41
1
10
69.6494074776659
20
2.0206373211557
30
0
41
1
10
69.6424627866221
20
2.12687991995256
30
0
0
SPLINE
5
103
100
AcDbEntity
8
1
62
256
6
ByLayer
370
13
48
1
60
0
100
AcDbSpline
70
4
71
3
72
10
73
6
40
0
40
0
40
0
40
0
40
0.196529854681662
40
0.609953007454582
40
1
40
1
40
1
40
1
41
1
10
59.4831689252625
20
2.63743572999837
30
0
41
1
10
59.4934240456846
20
2.49556526573659
30
0
41
1
10
59.5252519913641
20
2.03266587161545
30
0
41
1
10
59.5774329668374
20
1.17732211635379
30
0
41
1
10
59.6193588274764
20
0.436908710330215
30
0
41
1
10
59.6397118601676
20
0.0766395964502351
30
0
0
SPLINE
5
104
100
AcDbEntity
8
1
62
256
6
ByLayer
370
13
48
1
60
0
100
AcDbSpline
70
4
71
3
72
11
73
7
40
0
40
0
40
0
40
0
40
0.144474870376163
40
0.557515189798972
40
0.970555509221781
40
1
40
1
40
1
40
1
41
1
10
60.6699644186262
20
1.69300804383494
30
0
41
1
10
60.6775102550393
20
1.57060760723277
30
0
41
1
10
60.7066289364402
20
1.08851118979425
30
0
41
1
10
60.7573203573774
20
0.197693705500683
30
0
41
1
10
60.8020040808973
20
-0.597436840207564
30
0
41
1
10
60.8251147605519
20
-0.995402655131784
30
0
41
1
10
60.8266526257459
20
-1.02182107905796
30
0
0
SPLINE
5
105
100
AcDbEntity
8
1
62
256
6
ByLayer
370
18
48
1
60
0
100
AcDbSpline
70
4
71
3
72
23
73
19
40
0
40
0
40
0
40
0
40
0.124999999999999
40
0.124999999999999
40
0.249999999999998
40
0.374999999999997
40
0.374999999999997
40
0.406249999999997
40
0.406249999999997
40
0.437499999999997
40
0.499999999999997
40
0.499999999999997
40
0.624999999999998
40
0.624999999999998
40
0.749999999999998
40
0.874999999999999
40
0.874999999999999
40
1
40
1
40
1
40
1
41
1
10
59.7000220737122
20
2.74335339513743
30
0
41
1
10
59.7075833002901
20
2.63681006817197
30
0
41
1
10
59.7150983185144
20
2.52722582102385
30
0
41
1
10
59.7301484865442
20
2.30208462422783
30
0
41
1
10
59.7452303752084
20
2.07097160933799
30
0
41
1
10
59.7603594020102
20
1.82783346811547
30
0
41
1
10
59.7698609875476
20
1.67200457133748
30
0
41
1
10
59.7717657646855
20
1.6406115942701
30
0
41
1
10
59.7755644564939
20
1.57771955407966
30
0
41
1
10
59.781250722675
20
1.48314986798633
30
0
41
1
10
59.7869087778958
20
1.38789298969903
30
0
41
1
10
59.798210224274
20
1.19647854810208
30
0
41
1
10
59.8057336414119
20
1.06767041089435
30
0
41
1
10
59.820764029857
20
0.80768815324285
30
0
41
1
10
59.8357733194359
20
0.545339298139339
30
0
41
1
10
59.8508290553968
20
0.278219379615621
30
0
41
1
10
59.8660111645282
20
0.0086436293103986
30
0
41
1
10
59.8735901309763
20
-0.125799805030198
30
0
41
1
10
59.8811632348696
20
-0.259861973262076
30
0
0
SPLINE
5
106
100
AcDbEntity
8
1
62
256
6
ByLayer
370
18
48
1
60
0
100
AcDbSpline
70
4
71
3
72
26
73
22
40
0
40
0
40
0
40
0
40
0.124999999999999
40
0.249999999999997
40
0.249999999999997
40
0.374999999999996
40
0.374999999999996
40
0.406249999999995
40
0.406249999999995
40
0.437499999999995
40
0.499999999999995
40
0.499999999999995
40
0.624999999999995
40
0.749999999999996
40
0.749999999999996
40
0.812499999999996
40
0.843749999999997
40
0.843749999999997
40
0.874999999999997
40
0.874999999999997
40
1
40
1
40
1
40
1
41
1
10
60.5401701910017
20
-0.965222253142656
30
0
41
1
10
60.5337433508309
20
-0.83108606022185
30
0
41
1
10
60.5209242757345
20
-0.561598518539824
30
0
41
1
10
60.5081526790655
20
-0.289715853445955
30
0
41
1
10
60.4953459669682
20
-0.0166275085752261
30
0
41
1
10
60.4889239819876
20
0.120519374939676
30
0
41
1
10
60.4808092256164
20
0.292728332345177
30
0
41
1
10
60.4791831532344
20
0.327190115682015
30
0
41
1
10
60.4759393241608
20
0.395851028095251
30
0
41
1
10
60.471080141332
20
0.498572880319586
30
0
41
1
10
60.4662410299016
20
0.600494265548576
30
0
41
1
10
60.4565862845113
20
0.803284773534045
30
0
41
1
10
60.4437788987265
20
1.07087026589656
30
0
41
1
10
60.430994963937
20
1.33290716498939
30
0
41
1
10
60.4213391960348
20
1.52732437096242
30
0
41
1
10
60.4164946757221
20
1.6240046439062
30
0
41
1
10
60.4116266951235
20
1.71988108342353
30
0
41
1
10
60.4083759517534
20
1.78361827417831
30
0
41
1
10
60.4067463714085
20
1.81542602924622
30
0
41
1
10
60.3986039596658
20
1.97362408177827
30
0
41
1
10
60.3921229418058
20
2.09724192162409
30
0
41
1
10
60.3856494849679
20
2.21795208561088
30
0
0
SPLINE
5
107
100
AcDbEntity
8
1
62
256
6
ByLayer
370
18
48
1
60
0
100
AcDbSpline
70
4
71
3
72
28
73
24
40
0
40
0
40
0
40
0
40
0.249999999999998
40
0.249999999999998
40
0.374999999999996
40
0.374999999999996
40
0.406249999999996
40
0.406249999999996
40
0.437499999999996
40
0.437499999999996
40
0.499999999999997
40
0.499999999999997
40
0.624999999999997
40
0.624999999999997
40
0.749999999999998
40
0.749999999999998
40
0.874999999999999
40
0.874999999999999
40
0.906249999999999
40
0.906249999999999
40
0.937499999999999
40
0.937499999999999
40
1
40
1
40
1
40
1
41
1
10
69.5680205475151
20
-0.468308180039827
30
0
41
1
10
69.5547710652524
20
-0.201726496306776
30
0
41
1
10
69.5417486200004
20
0.0640708493879458
30
0
41
1
10
69.5222940641216
20
0.461597576941443
30
0
41
1
10
69.5158053263554
20
0.593911363722754
30
0
41
1
10
69.5076164413
20
0.75905302152583
30
0
41
1
10
69.505974745639
20
0.792068794497283
30
0
41
1
10
69.502681600736
20
0.858074933819069
30
0
41
1
10
69.5010284390012
20
0.891099339817941
30
0
41
1
10
69.4960638899105
20
0.989885367676976
30
0
41
1
10
69.492753977926
20
1.05520825992707
30
0
41
1
10
69.4828152053592
20
1.24960126471177
30
0
41
1
10
69.4761821176766
20
1.37709940884827
30
0
41
1
10
69.4629391409726
20
1.62794682853496
30
0
41
1
10
69.4563328098627
20
1.75129405448655
30
0
41
1
10
69.4431659630317
20
1.99376900468937
30
0
41
1
10
69.436592693251
20
2.11289943424467
30
0
41
1
10
69.428368352126
20
2.25911573965473
30
0
41
1
10
69.4267229313942
20
2.28822401414138
30
0
41
1
10
69.4234294066688
20
2.34616842373592
30
0
41
1
10
69.4217811981646
20
2.37500600426549
30
0
41
1
10
69.4168458625995
20
2.46082189028672
30
0
41
1
10
69.4135627734864
20
2.51720065201175
30
0
41
1
10
69.41027528683
20
2.57275622083443
30
0
0
SPLINE
5
108
100
AcDbEntity
8
1
62
256
6
ByLayer
370
18
48
1
60
0
100
AcDbSpline
70
4
71
3
72
25
73
21
40
0
40
0
40
0
40
0
40
0.125000000000001
40
0.125000000000001
40
0.250000000000002
40
0.250000000000002
40
0.375000000000004
40
0.375000000000004
40
0.406250000000004
40
0.406250000000004
40
0.437500000000004
40
0.500000000000003
40
0.500000000000003
40
0.625000000000002
40
0.625000000000002
40
0.750000000000002
40
0.750000000000002
40
0.875000000000001
40
0.875000000000001
40
1
40
1
40
1
40
1
41
1
10
68.7702986411799
20
3.20223787240965
30
0
41
1
10
68.7775971166589
20
3.09825807656097
30
0
41
1
10
68.7848533067873
20
2.99054892583447
30
0
41
1
10
68.7994531388684
20
2.76795735200034
30
0
41
1
10
68.8067915640245
20
2.65306955942202
30
0
41
1
10
68.8215143526665
20
2.41595374951214
30
0
41
1
10
68.828905410801
20
2.29372563365447
30
0
41
1
10
68.8381601349591
20
2.13618262341748
30
0
41
1
10
68.8400143650345
20
2.10439587519494
30
0
41
1
10
68.8437127799307
20
2.04055565573424
30
0
41
1
10
68.8492427802209
20
1.94444436901779
30
0
41
1
10
68.8547231024464
20
1.84729119682714
30
0
41
1
10
68.8656377957049
20
1.65162072205226
30
0
41
1
10
68.872863334034
20
1.51936025683474
30
0
41
1
10
68.8873554707953
20
1.25130723353897
30
0
41
1
10
68.8946137020505
20
1.11551473356948
30
0
41
1
10
68.9092250995097
20
0.840381627664755
30
0
41
1
10
68.9165803254905
20
0.701000716622531
30
0
41
1
10
68.9314498274342
20
0.418723811136829
30
0
41
1
10
68.9388887892513
20
0.277208312742601
30
0
41
1
10
68.9463052280524
20
0.135312387521935
30
0
0
SPLINE
5
109
100
AcDbEntity
8
1
62
256
6
ByLayer
370
13
48
1
60
0
100
AcDbSpline
70
4
71
3
72
11
73
7
40
0
40
0
40
0
40
0
40
0.306067172133772
40
0.629283003722823
40
0.952498835311874
40
1
40
1
40
1
40
1
41
1
10
68.6128492992536
20
0.550681952056578
30
0
41
1
10
68.5968151986816
20
0.832135861081042
30
0
41
1
10
68.5638486224636
20
1.40312997661093
30
0
41
1
10
68.5139495725285
20
2.20751617521464
30
0
41
1
10
68.4775961481423
20
2.72227085430177
30
0
41
1
10
68.4581752035176
20
2.96832521828679
30
0
41
1
10
68.4556867352499
20
2.99936378141172
30
0
0
SPLINE
5
10A
100
AcDbEntity
8
1
62
256
6
ByLayer
370
18
48
1
60
0
100
AcDbSpline
70
4
71
3
72
30
73
26
40
0
40
0
40
0
40
0
40
0.03125
40
0.03125
40
0.0625
40
0.125
40
0.125
40
0.249999999999999
40
0.249999999999999
40
0.374999999999999
40
0.374999999999999
40
0.437499999999999
40
0.468749999999999
40
0.468749999999999
40
0.499999999999998
40
0.499999999999998
40
0.624999999999999
40
0.624999999999999
40
0.749999999999999
40
0.749999999999999
40
0.874999999999999
40
0.874999999999999
40
0.9375
40
0.9375
40
1
40
1
40
1
40
1
41
1
10
63.4860251062658
20
-3.89133675837411
30
0
41
1
10
63.4841820422932
20
-3.86623182908897
30
0
41
1
10
63.482334572165
20
-3.84071528666979
30
0
41
1
10
63.4786518855394
20
-3.78915541802903
30
0
41
1
10
63.4731396272597
20
-3.71093764295969
30
0
41
1
10
63.4676600255377
20
-3.63011396924546
30
0
41
1
10
63.4567315415333
20
-3.46504490965023
30
0
41
1
10
63.4494888161449
20
-3.35044352607832
30
0
41
1
10
63.4349727922275
20
-3.11223639740521
30
0
41
1
10
63.4276890453403
20
-2.98863113415695
30
0
41
1
10
63.4167264146358
20
-2.79637716434257
30
0
41
1
10
63.4112357561296
20
-2.69853600549752
30
0
41
1
10
63.4057254622687
20
-2.59808103124192
30
0
41
1
10
63.402046382385
20
-2.5305236230403
30
0
41
1
10
63.4002070722365
20
-2.49650552333947
30
0
41
1
10
63.3910386363511
20
-2.32578577534989
30
0
41
1
10
63.3837669046657
20
-2.18666612648803
30
0
41
1
10
63.3692233113271
20
-1.90348800126
30
0
41
1
10
63.3619434290558
20
-1.75942957193408
30
0
41
1
10
63.3473788568646
20
-1.4663899961061
30
0
41
1
10
63.3400953049692
20
-1.31740897360564
30
0
41
1
10
63.3291269940278
20
-1.09016601074308
30
0
41
1
10
63.3254604225657
20
-1.01373170096196
30
0
41
1
10
63.3181089531535
20
-0.859816374458035
30
0
41
1
10
63.3144472609787
20
-0.782822953246949
30
0
41
1
10
63.310790385313
20
-0.705794902087035
30
0
0
SPLINE
5
10B
100
AcDbEntity
8
1
62
256
6
ByLayer
370
13
48
1
60
0
100
AcDbSpline
70
4
71
3
72
11
73
7
40
0
40
0
40
0
40
0
40
0.17254380424128
40
0.585042403928232
40
0.997541003615183
40
1
40
1
40
1
40
1
41
1
10
63.8367360773686
20
-1.19412293998067
30
0
41
1
10
63.8457597496236
20
-1.34737986526687
30
0
41
1
10
63.8763562231576
20
-1.85836374875549
30
0
41
1
10
63.9285257228301
20
-2.65998164501522
30
0
41
1
10
63.9717998448355
20
-3.19515966827609
30
0
41
1
10
63.9935012390783
20
-3.4208843277205
30
0
41
1
10
63.993629839328
20
-3.42222044958044
30
0
0
SPLINE
5
10C
100
AcDbEntity
8
1
62
256
6
ByLayer
370
18
48
1
60
0
100
AcDbSpline
70
4
71
3
72
8
73
4
40
0
40
0
40
0
40
0
40
1
40
1
40
1
40
1
41
1
10
63.1590343457471
20
-0.536743768286186
30
0
41
1
10
63.1618273115505
20
-0.591131019879555
30
0
41
1
10
63.1646170569919
20
-0.645384110601668
30
0
41
1
10
63.1674066383756
20
-0.699503436660677
30
0
0
SPLINE
5
10D
100
AcDbEntity
8
1
62
256
6
ByLayer
370
13
48
1
60
0
100
AcDbSpline
70
4
71
3
72
10
73
6
40
0
40
0
40
0
40
0
40
0.224774810304876
40
0.637466987511913
40
1
40
1
40
1
40
1
41
1
10
62.6498902235786
20
-0.103534623191962
30
0
41
1
10
62.6616399666138
20
-0.311502505131813
30
0
41
1
10
62.6949625322101
20
-0.900248163664799
30
0
41
1
10
62.7472359436925
20
-1.79039885737362
30
0
41
1
10
62.7877595984206
20
-2.40162055705386
30
0
41
1
10
62.8067104315843
20
-2.66223736782513
30
0
0
SPLINE
5
10E
100
AcDbEntity
8
1
62
256
6
ByLayer
370
18
48
1
60
0
100
AcDbSpline
70
4
71
3
72
26
73
22
40
0
40
0
40
0
40
0
40
0.124999999999999
40
0.124999999999999
40
0.249999999999999
40
0.249999999999999
40
0.312499999999998
40
0.312499999999998
40
0.343749999999998
40
0.343749999999998
40
0.374999999999998
40
0.499999999999999
40
0.499999999999999
40
0.624999999999999
40
0.75
40
0.75
40
0.8125
40
0.8125
40
0.875
40
0.875
40
1
40
1
40
1
40
1
41
1
10
63.1674066383756
20
-0.699503436660677
30
0
41
1
10
63.1743593595515
20
-0.84615442668607
30
0
41
1
10
63.1813117033187
20
-0.991517551805174
30
0
41
1
10
63.1952390804863
20
-1.27967925797924
30
0
41
1
10
63.2022072942967
20
-1.42247821812512
30
0
41
1
10
63.2126916897366
20
-1.63471729549357
30
0
41
1
10
63.2161922919648
20
-1.70513660577049
30
0
41
1
10
63.2214594194756
20
-1.81026578005316
30
0
41
1
10
63.2232196918712
20
-1.84526142109522
30
0
41
1
10
63.2267311844345
20
-1.91476506669844
30
0
41
1
10
63.2354919172438
20
-2.08745052159631
30
0
41
1
10
63.2442147593653
20
-2.25483523000983
30
0
41
1
10
63.2581612323056
20
-2.51602827430548
30
0
41
1
10
63.2720784685779
20
-2.77059874087672
30
0
41
1
10
63.2859851960428
20
-3.01194014410382
30
0
41
1
10
63.2964752423109
20
-3.18787380647271
30
0
41
1
10
63.299984371088
20
-3.24570333424651
30
0
41
1
10
63.3070323992218
20
-3.35950432066039
30
0
41
1
10
63.3105492649804
20
-3.41511351014594
30
0
41
1
10
63.321074673979
20
-3.57814143768107
30
0
41
1
10
63.3280562033608
20
-3.68176788506446
30
0
41
1
10
63.3350132197319
20
-3.78043938545414
30
0
0
SPLINE
5
10F
100
AcDbEntity
8
1
62
256
6
ByLayer
370
13
48
1
60
0
100
AcDbSpline
70
4
71
3
72
11
73
7
40
0
40
0
40
0
40
0
40
0.0042576923494963
40
0.417256281966091
40
0.830254871582686
40
1
40
1
40
1
40
1
41
1
10
61.0665104356836
20
1.34864413627349
30
0
41
1
10
61.0667328346272
20
1.34491257118168
30
0
41
1
10
61.0885280581376
20
0.979044190686892
30
0
41
1
10
61.1318961118818
20
0.217596024126465
30
0
41
1
10
61.1839083277563
20
-0.708449056813919
30
0
41
1
10
61.2143477249066
20
-1.22774288883281
30
0
41
1
10
61.2232142973552
20
-1.37616662529669
30
0
0
SPLINE
5
110
100
AcDbEntity
8
1
62
256
6
ByLayer
370
18
48
1
60
0
100
AcDbSpline
70
4
71
3
72
10
73
6
40
0
40
0
40
0
40
0
40
0.5
40
0.5
40
1
40
1
40
1
40
1
41
1
10
61.6162081678779
20
-2.11817084912704
30
0
41
1
10
61.5515689364297
20
-1.98983245519244
30
0
41
1
10
61.486475937852
20
-1.86350203000063
30
0
41
1
10
61.3554809637172
20
-1.61588704312243
30
0
41
1
10
61.2895718943173
20
-1.49459788250513
30
0
41
1
10
61.2232142973552
20
-1.37616662529666
30
0
0
SPLINE
5
111
100
AcDbEntity
8
1
62
256
6
ByLayer
370
18
48
1
60
0
100
AcDbSpline
70
4
71
3
72
34
73
30
40
0
40
0
40
0
40
0
40
0.125000000000054
40
0.125000000000054
40
0.187500000000082
40
0.187500000000082
40
0.25000000000011
40
0.25000000000011
40
0.375000000000166
40
0.375000000000166
40
0.43750000000017
40
0.43750000000017
40
0.500000000000174
40
0.500000000000174
40
0.625000000000131
40
0.625000000000131
40
0.687500000000109
40
0.687500000000109
40
0.750000000000087
40
0.750000000000087
40
0.812500000000065
40
0.812500000000065
40
0.843750000000054
40
0.843750000000054
40
0.875000000000044
40
0.875000000000044
40
0.937500000000022
40
0.937500000000022
40
1
40
1
40
1
40
1
41
1
10
61.2232142973552
20
-1.37616662529669
30
0
41
1
10
61.2122935597716
20
-1.35667591525203
30
0
41
1
10
61.1996398499637
20
-1.33721886523881
30
0
41
1
10
61.1787168411936
20
-1.30809423208444
30
0
41
1
10
61.1713979907014
20
-1.2983795946314
30
0
41
1
10
61.1561916341069
20
-1.27903622256011
30
0
41
1
10
61.1483845784372
20
-1.26950818260812
30
0
41
1
10
61.1244121604676
20
-1.24131145138034
30
0
41
1
10
61.1077015633325
20
-1.22302614168106
30
0
41
1
10
61.0816347301718
20
-1.19629354709272
30
0
41
1
10
61.0727772921603
20
-1.18749969962514
30
0
41
1
10
61.0547217405876
20
-1.17014644697915
30
0
41
1
10
61.0455996311601
20
-1.16166142756296
30
0
41
1
10
61.0181616438649
20
-1.13695441092733
30
0
41
1
10
60.9996928726088
20
-1.1213901259716
30
0
41
1
10
60.9717565319957
20
-1.0995102888576
30
0
41
1
10
60.9624052200898
20
-1.09246373261831
30
0
41
1
10
60.9436245738674
20
-1.0789224057489
30
0
41
1
10
60.9341986007499
20
-1.07243477675834
30
0
41
1
10
60.9157336438518
20
-1.06039980388275
30
0
41
1
10
60.9066398360167
20
-1.05481105631847
30
0
41
1
10
60.8932469845604
20
-1.04716582451817
30
0
41
1
10
60.888824192357
20
-1.04474097768602
30
0
41
1
10
60.8800713120379
20
-1.040164006667
30
0
41
1
10
60.8757394026002
20
-1.0380121919047
30
0
41
1
10
60.8631031380473
20
-1.03210556036691
30
0
41
1
10
60.855087579344
20
-1.02885709449717
30
0
41
1
10
60.84002286025
20
-1.02399151935833
30
0
41
1
10
60.8329350962585
20
-1.02237582856085
30
0
41
1
10
60.8266526257458
20
-1.02182107905634
30
0
0
SPLINE
5
112
100
AcDbEntity
8
1
62
256
6
ByLayer
370
18
48
1
60
0
100
AcDbSpline
70
4
71
3
72
10
73
6
40
0
40
0
40
0
40
0
40
0.5
40
0.5
40
1
40
1
40
1
40
1
41
1
10
60.8266526257459
20
-1.02182107905799
30
0
41
1
10
60.7784338152199
20
-1.01756330161308
30
0
41
1
10
60.7304808570286
20
-1.01066853648146
30
0
41
1
10
60.6350148854204
20
-0.991750523967227
30
0
41
1
10
60.5874733631124
20
-0.979723786871062
30
0
41
1
10
60.5401701910017
20
-0.965222253142656
30
0
0
SPLINE
5
113
100
AcDbEntity
8
1
62
256
6
ByLayer
370
18
48
1
60
0
100
AcDbSpline
70
4
71
3
72
8
73
4
40
0
40
0
40
0
40
0
40
1
40
1
40
1
40
1
41
1
10
60.5401701910016
20
-0.965222253142628
30
0
41
1
10
60.3221205654626
20
-0.730249132551251
30
0
41
1
10
60.1030178347907
20
-0.494610667088153
30
0
41
1
10
59.8811632348571
20
-0.259861973262645
30
0
0
SPLINE
5
114
100
AcDbEntity
8
1
62
256
6
ByLayer
370
18
48
1
60
0
100
AcDbSpline
70
4
71
3
72
10
73
6
40
0
40
0
40
0
40
0
40
0.5
40
0.5
40
1
40
1
40
1
40
1
41
1
10
59.8811632348639
20
-0.259861973267164
30
0
41
1
10
59.8412346096639
20
-0.200833621306486
30
0
41
1
10
59.8011367260595
20
-0.14320249479519
30
0
41
1
10
59.7206548309133
20
-0.0309789072564399
30
0
41
1
10
59.6802743183936
20
0.0236181274900673
30
0
41
1
10
59.6397118601676
20
0.0766395964502919
30
0
0
SPLINE
5
115
100
AcDbEntity
8
1
62
256
6
ByLayer
370
18
48
1
60
0
100
AcDbSpline
70
4
71
3
72
34
73
30
40
0
40
0
40
0
40
0
40
0.124999999999971
40
0.124999999999971
40
0.187499999999938
40
0.187499999999938
40
0.249999999999906
40
0.249999999999906
40
0.374999999999841
40
0.374999999999841
40
0.437499999999832
40
0.437499999999832
40
0.499999999999824
40
0.499999999999824
40
0.624999999999807
40
0.624999999999807
40
0.687499999999824
40
0.687499999999824
40
0.749999999999842
40
0.749999999999842
40
0.81249999999986
40
0.81249999999986
40
0.843749999999868
40
0.843749999999868
40
0.874999999999877
40
0.874999999999877
40
0.937499999999939
40
0.937499999999939
40
1
40
1
40
1
40
1
41
1
10
59.6397118601676
20
0.0766395964502635
30
0
41
1
10
59.6287909337571
20
0.0909149531721027
30
0
41
1
10
59.6161367863667
20
0.106064349178666
30
0
41
1
10
59.5952125173279
20
0.129727579386554
30
0
41
1
10
59.5878931440598
20
0.137790680266022
30
0
41
1
10
59.5726860127522
20
0.154163662359537
30
0
41
1
10
59.5648787372006
20
0.162387777219493
30
0
41
1
10
59.5409063775064
20
0.187167112471712
30
0
41
1
10
59.5241968048381
20
0.203827063830545
30
0
41
1
10
59.4981325733681
20
0.229050963182203
30
0
41
1
10
59.4892761569061
20
0.237498483830194
30
0
41
1
10
59.4712227471338
20
0.254484089306374
30
0
41
1
10
59.4621014274829
20
0.262950488815164
30
0
41
1
10
59.4346659428837
20
0.288099864269753
30
0
41
1
10
59.416198452212
20
0.304613517968249
30
0
41
1
10
59.3882628632504
20
0.329029903806145
30
0
41
1
10
59.3789116319044
20
0.337109191310105
30
0
41
1
10
59.360130814461
20
0.353144795879672
30
0
41
1
10
59.3507039793227
20
0.361097368660722
30
0
41
1
10
59.3322373652319
20
0.376481562031017
30
0
41
1
10
59.3231426971838
20
0.383960610882156
30
0
41
1
10
59.3097485519559
20
0.394816954097195
30
0
41
1
10
59.3053253277409
20
0.398375071040022
30
0
41
1
10
59.2965715880363
20
0.40535795729275
30
0
41
1
10
59.2922391600414
20
0.408783925674157
30
0
41
1
10
59.279601449182
20
0.418680717432778
30
0
41
1
10
59.271585034824
20
0.424828518817009
30
0
41
1
10
59.2565189738473
20
0.436059486033656
30
0
41
1
10
59.2494307271321
20
0.441168130496919
30
0
41
1
10
59.2431479293723
20
0.445462357105527
30
0
0
SPLINE
5
116
100
AcDbEntity
8
1
62
256
6
ByLayer
370
18
48
1
60
0
100
AcDbSpline
70
4
71
3
72
8
73
4
40
0
40
0
40
0
40
0
40
1
40
1
40
1
40
1
41
1
10
59.2431479293724
20
0.445462357103736
30
0
41
1
10
59.1882272793996
20
0.483000047395848
30
0
41
1
10
59.1336523036508
20
0.523692999023893
30
0
41
1
10
59.0793560569671
20
0.567431435116191
30
0
0
SPLINE
5
117
100
AcDbEntity
8
1
62
256
6
ByLayer
370
18
48
1
60
0
100
AcDbSpline
70
4
71
3
72
10
73
6
40
0
40
0
40
0
40
0
40
0.5
40
0.5
40
1
40
1
40
1
40
1
41
1
10
59.0793560569628
20
0.567431435118493
30
0
41
1
10
58.9243671546711
20
0.722587446850639
30
0
41
1
10
58.7694114871216
20
0.874572510166047
30
0
41
1
10
58.4585633407594
20
1.17133324474008
30
0
41
1
10
58.3027051470372
20
1.31614138064634
30
0
41
1
10
58.145713226051
20
1.4567202409859
30
0
0
SPLINE
5
118
100
AcDbEntity
8
1
62
256
6
ByLayer
370
18
48
1
60
0
100
AcDbSpline
70
4
71
3
72
8
73
4
40
0
40
0
40
0
40
0
40
1
40
1
40
1
40
1
41
1
10
58.1457132260509
20
1.45672024098602
30
0
41
1
10
58.1159691543236
20
1.47886052226195
30
0
41
1
10
58.086141174966
20
1.4999915582876
30
0
41
1
10
58.0562139216532
20
1.5200936882857
30
0
0
SPLINE
5
119
100
AcDbEntity
8
1
62
256
6
ByLayer
370
18
48
1
60
0
100
AcDbSpline
70
4
71
3
72
34
73
30
40
0
40
0
40
0
40
0
40
0.124999999999988
40
0.124999999999988
40
0.187499999999982
40
0.187499999999982
40
0.249999999999976
40
0.249999999999976
40
0.374999999999964
40
0.374999999999964
40
0.437499999999983
40
0.437499999999983
40
0.500000000000002
40
0.500000000000002
40
0.62500000000004
40
0.62500000000004
40
0.687500000000033
40
0.687500000000033
40
0.750000000000026
40
0.750000000000026
40
0.812500000000019
40
0.812500000000019
40
0.843750000000016
40
0.843750000000016
40
0.875000000000012
40
0.875000000000012
40
0.937500000000006
40
0.937500000000006
40
1
40
1
40
1
40
1
41
1
10
58.0562139216532
20
1.52009368828567
30
0
41
1
10
58.0452952109304
20
1.52742778407011
30
0
41
1
10
58.0326446987965
20
1.53643931778356
30
0
41
1
10
58.0117260765126
20
1.55178065774283
30
0
41
1
10
58.0044086823312
20
1.55721708517365
30
0
41
1
10
57.9892041632137
20
1.56863773873596
30
0
41
1
10
57.9813976407536
20
1.57456122322691
30
0
41
1
10
57.9574249156658
20
1.59291589409637
30
0
41
1
10
57.9407114353332
20
1.60592319355956
30
0
41
1
10
57.9146418765591
20
1.6265702248368
30
0
41
1
10
57.9057837085182
20
1.63364395350939
30
0
41
1
10
57.8877269445515
20
1.64819631383983
30
0
41
1
10
57.8786046293386
20
1.65561385980564
30
0
41
1
10
57.851165964213
20
1.67814633061235
30
0
41
1
10
57.8326969227163
20
1.69360094034062
30
0
41
1
10
57.8047589031189
20
1.71758469847725
30
0
41
1
10
57.7954068111387
20
1.72571423846196
30
0
41
1
10
57.7766242611455
20
1.74229425251514
30
0
41
1
10
57.7671978431056
20
1.75074328891719
30
0
41
1
10
57.7487321941897
20
1.767603700921
30
0
41
1
10
57.7396381273017
20
1.77606266024122
30
0
41
1
10
57.7262451426941
20
1.78880893596892
30
0
41
1
10
57.7218223483905
20
1.79306736678785
30
0
41
1
10
57.7130695652536
20
1.80160659649255
30
0
41
1
10
57.7087379003418
20
1.80588968038555
30
0
41
1
10
57.6961026048983
20
1.81857207763903
30
0
41
1
10
57.6880879139284
20
1.82687126053023
30
0
41
1
10
57.673025566666
20
1.84310175956685
30
0
41
1
10
57.6659393168652
20
1.85108220879619
30
0
41
1
10
57.6596581302964
20
1.85859408857991
30
0
0
SPLINE
5
11A
100
AcDbEntity
8
1
62
256
6
ByLayer
370
18
48
1
60
0
100
AcDbSpline
70
4
71
3
72
8
73
4
40
0
40
0
40
0
40
0
40
1
40
1
40
1
40
1
41
1
10
57.6596581302963
20
1.85859408857871
30
0
41
1
10
57.6458791363531
20
1.87507284540422
30
0
41
1
10
57.6321219642414
20
1.8917098307931
30
0
41
1
10
57.6183857510321
20
1.90850478958114
30
0
0
SPLINE
5
11B
100
AcDbEntity
8
1
62
256
6
ByLayer
370
18
48
1
60
0
100
AcDbSpline
70
4
71
3
72
11
73
7
40
0
40
0
40
0
40
0
40
0.25
40
0.25
40
0.5
40
1
40
1
40
1
40
1
41
1
10
57.6183857510321
20
1.90850478958117
30
0
41
1
10
57.5671049597968
20
1.9504374897285
30
0
41
1
10
57.515650832976
20
1.99191757144854
30
0
41
1
10
57.4127721272322
20
2.07360837485621
30
0
41
1
10
57.2583685168061
20
2.1943477892496
30
0
41
1
10
57.1035485853169
20
2.30957896161286
30
0
41
1
10
57
20
2.3838311351511
30
0
0
SPLINE
5
11C
100
AcDbEntity
8
1
62
256
6
ByLayer
370
18
48
1
60
0
100
AcDbSpline
70
4
71
3
72
8
73
4
40
0
40
0
40
0
40
0
40
1
40
1
40
1
40
1
41
1
10
57
20
2.38383113515107
30
0
41
1
10
56.9228473002994
20
2.42644821053614
30
0
41
1
10
56.8453683610864
20
2.46595858750976
30
0
41
1
10
56.7673920552745
20
2.50222456379581
30
0
0
SPLINE
5
11D
100
AcDbEntity
8
1
62
256
6
ByLayer
370
18
48
1
60
0
100
AcDbSpline
70
4
71
3
72
12
73
8
40
0
40
0
40
0
40
0
40
0.25
40
0.25
40
0.5
40
0.5
40
1
40
1
40
1
40
1
41
1
10
56.7673920552744
20
2.50222456379583
30
0
41
1
10
56.7323968431634
20
2.51850047632249
30
0
41
1
10
56.6963795591623
20
2.53579225285998
30
0
41
1
10
56.6223865267284
20
2.57231159342902
30
0
41
1
10
56.5844114774306
20
2.59154912413769
30
0
41
1
10
56.4680153090213
20
2.65274901483593
30
0
41
1
10
56.3871548435559
20
2.69814936861513
30
0
41
1
10
56.3038577878562
20
2.7499141025512
30
0
0
SPLINE
5
11E
100
AcDbEntity
8
1
62
256
6
ByLayer
370
18
48
1
60
0
100
AcDbSpline
70
4
71
3
72
50
73
46
40
0
40
0
40
0
40
0
40
0.0531335502643415
40
0.0531335502643415
40
0.106267100528683
40
0.106267100528683
40
0.159400650793025
40
0.159400650793025
40
0.212534201057366
40
0.212534201057366
40
0.265667751321708
40
0.265667751321708
40
0.318801301586049
40
0.318801301586049
40
0.34536807671822
40
0.34536807671822
40
0.371934851850391
40
0.371934851850391
40
0.425068402114732
40
0.425068402114732
40
0.451635177246903
40
0.451635177246903
40
0.478201952379074
40
0.478201952379074
40
0.531335502643412
40
0.531335502643412
40
0.637602603172092
40
0.637602603172092
40
0.664169378304259
40
0.664169378304259
40
0.690736153436426
40
0.690736153436426
40
0.743869703700761
40
0.743869703700761
40
0.850136804229428
40
0.850136804229428
40
0.903270354493762
40
0.903270354493762
40
0.92983712962593
40
0.92983712962593
40
0.956403904758097
40
0.956403904758097
40
0.982970679890264
40
0.982970679890264
40
1
40
1
40
1
40
1
41
1
10
56.3038577878554
20
2.74991410255316
30
0
41
1
10
56.1779934613337
20
2.82813215383615
30
0
41
1
10
56.0527997168088
20
2.90290221917306
30
0
41
1
10
55.8032514038092
20
3.04528586236591
30
0
41
1
10
55.6788878983948
20
3.11289520183189
30
0
41
1
10
55.430689617904
20
3.24082239937633
30
0
41
1
10
55.306846673489
20
3.30113198779705
30
0
41
1
10
55.0592000370534
20
3.41416478292493
30
0
41
1
10
54.935430576544
20
3.46690539049772
30
0
41
1
10
54.6872771367418
20
3.56442976882826
30
0
41
1
10
54.5627882611032
20
3.60917436251117
30
0
41
1
10
54.3134247336909
20
3.69077704140952
30
0
41
1
10
54.1884866601853
20
3.72759621614378
30
0
41
1
10
54.0004137723072
20
3.7765840418794
30
0
41
1
10
53.9375342530966
20
3.79188561417413
30
0
41
1
10
53.8122067586595
20
3.82019819574828
30
0
41
1
10
53.7496874605138
20
3.83323031272454
30
0
41
1
10
53.5624703896143
20
3.86896461400337
30
0
41
1
10
53.4381259014059
20
3.8883059213808
30
0
41
1
10
53.2518448708943
20
3.91062363504523
30
0
41
1
10
53.1897911982756
20
3.91694738417891
30
0
41
1
10
53.0656530442052
20
3.92737087568204
30
0
41
1
10
53.003548080533
20
3.93147013360016
30
0
41
1
10
52.8173035389673
20
3.94047006041845
30
0
41
1
10
52.6933074150561
20
3.94207318328
30
0
41
1
10
52.3212328913349
20
3.93359133061742
30
0
41
1
10
52.0731210322778
20
3.91021327642534
30
0
41
1
10
51.7605533916181
20
3.85837090917073
30
0
41
1
10
51.697914261034
20
3.84687190966835
30
0
41
1
10
51.5723137922677
20
3.82160435195274
30
0
41
1
10
51.5096210308038
20
3.80788650988822
30
0
41
1
10
51.3218015401622
20
3.76361192909724
30
0
41
1
10
51.1968324343619
20
3.72995426381402
30
0
41
1
10
50.8232983057021
20
3.61657637662657
30
0
41
1
10
50.5758235771075
20
3.52452280946031
30
0
41
1
10
50.2043411835645
20
3.36311106864565
30
0
41
1
10
50.0804748713949
20
3.3054112594856
30
0
41
1
10
49.8941797540441
20
3.21325633917883
30
0
41
1
10
49.8319962927111
20
3.18160574456371
30
0
41
1
10
49.7073834017535
20
3.11648598721979
30
0
41
1
10
49.6449405782705
20
3.08302735182838
30
0
41
1
10
49.5198517165079
20
3.01424943782041
30
0
41
1
10
49.4572208949899
20
2.97891790369186
30
0
41
1
10
49.354261369461
20
2.91939966048588
30
0
41
1
10
49.3139649186917
20
2.89574604192592
30
0
41
1
10
49.2736954182455
20
2.87176087907483
30
0
0
SPLINE
5
11F
100
AcDbEntity
8
1
62
256
6
ByLayer
370
18
48
1
60
0
100
AcDbSpline
70
4
71
3
72
83
73
79
40
0
40
0
40
0
40
0
40
0.011990843567429
40
0.011990843567429
40
0.0344455971227143
40
0.0344455971227143
40
0.0569003506779996
40
0.0569003506779996
40
0.10180985778857
40
0.10180985778857
40
0.146719364899141
40
0.146719364899141
40
0.169174118454426
40
0.169174118454426
40
0.180401495232069
40
0.180401495232069
40
0.191628872009711
40
0.191628872009711
40
0.202856248787354
40
0.202856248787354
40
0.214083625564996
40
0.214083625564996
40
0.236538379120282
40
0.236538379120282
40
0.28144788623085
40
0.28144788623085
40
0.326357393341418
40
0.326357393341418
40
0.348812146896702
40
0.348812146896702
40
0.371266900451986
40
0.371266900451986
40
0.39372165400727
40
0.39372165400727
40
0.404949030784913
40
0.404949030784913
40
0.416176407562555
40
0.416176407562555
40
0.461085914673121
40
0.461085914673121
40
0.505995421783687
40
0.505995421783687
40
0.52845017533897
40
0.52845017533897
40
0.550904928894253
40
0.550904928894253
40
0.595814436004819
40
0.595814436004819
40
0.618269189560103
40
0.618269189560103
40
0.629496566337745
40
0.629496566337745
40
0.640723943115388
40
0.663178696670674
40
0.663178696670674
40
0.685633450225961
40
0.685633450225961
40
0.696860827003604
40
0.696860827003604
40
0.708088203781247
40
0.708088203781247
40
0.730542957336536
40
0.730542957336536
40
0.775452464447115
40
0.775452464447115
40
0.820361971557695
40
0.820361971557695
40
0.842816725112986
40
0.842816725112986
40
0.854044101890631
40
0.854044101890631
40
0.865271478668275
40
0.865271478668275
40
0.91018098577885
40
0.91018098577885
40
0.955090492889425
40
0.955090492889425
40
1
40
1
40
1
40
1
41
1
10
45.8599495399858
20
3.94060232673493
30
0
41
1
10
45.9017233433142
20
3.94060055193344
30
0
41
1
10
45.9434461347428
20
3.9400997782611
30
0
41
1
10
46.0631539384588
20
3.93723458773545
30
0
41
1
10
46.1410203106099
20
3.933621095191
30
0
41
1
10
46.2964688100437
20
3.9229024731425
30
0
41
1
10
46.3739713121801
20
3.91578406861751
30
0
41
1
10
46.6067918616563
20
3.88927640128338
30
0
41
1
10
46.7623544518268
20
3.86476229623864
30
0
41
1
10
47.0742521684381
20
3.8021927122436
30
0
41
1
10
47.2305867459949
20
3.76413377539168
30
0
41
1
10
47.4658753694978
20
3.69676295370661
30
0
41
1
10
47.5444286561443
20
3.67258692875481
30
0
41
1
10
47.6624695054068
20
3.6337021927676
30
0
41
1
10
47.7018905359808
20
3.62029262665988
30
0
41
1
10
47.7806563889926
20
3.5926709331234
30
0
41
1
10
47.8199780058452
20
3.57846774814158
30
0
41
1
10
47.898495104699
20
3.54927930759112
30
0
41
1
10
47.9376957322552
20
3.53429687476975
30
0
41
1
10
48.0159279558779
20
3.50352929548933
30
0
41
1
10
48.0549425094601
20
3.48773378840303
30
0
41
1
10
48.1720614358618
20
3.43932698125298
30
0
41
1
10
48.2501600941415
20
3.405656858578
30
0
41
1
10
48.484183233426
20
3.30033844513713
30
0
41
1
10
48.6399755870245
20
3.22446554180951
30
0
41
1
10
48.951475961348
20
3.06180067916017
30
0
41
1
10
49.1071508370496
20
2.97498545541796
30
0
41
1
10
49.3408133788857
20
2.83666057225051
30
0
41
1
10
49.4187265496167
20
2.78920093280317
30
0
41
1
10
49.574628666421
20
2.69156131779698
30
0
41
1
10
49.6525787033355
20
2.64134653341483
30
0
41
1
10
49.8087551493981
20
2.538317567956
30
0
41
1
10
49.8871522967311
20
2.48565806718807
30
0
41
1
10
50.0051939837904
20
2.40493091456258
30
0
41
1
10
50.0446491139195
20
2.37770738339862
30
0
41
1
10
50.1235348475383
20
2.3227981280584
30
0
41
1
10
50.1629382614776
20
2.29513181806274
30
0
41
1
10
50.3597551332627
20
2.15574815482219
30
0
41
1
10
50.5165502864027
20
2.04086201005941
30
0
41
1
10
50.8291151796703
20
1.80475179478111
30
0
41
1
10
50.9848510300256
20
1.68349334645836
30
0
41
1
10
51.2177720440419
20
1.49692871452618
30
0
41
1
10
51.2952658169194
20
1.43392366373953
30
0
41
1
10
51.4503068300612
20
1.30664543273471
30
0
41
1
10
51.5279940364227
20
1.24252647083878
30
0
41
1
10
51.7615982315597
20
1.04879483832138
30
0
41
1
10
51.9179219748549
20
0.917659922554662
30
0
41
1
10
52.1534589193065
20
0.718146397229248
30
0
41
1
10
52.2321418391135
20
0.651167157409844
30
0
41
1
10
52.3504144960175
20
0.549961047547328
30
0
41
1
10
52.3899166920393
20
0.516072968257163
30
0
41
1
10
52.4688261260404
20
0.448218458571489
30
0
41
1
10
52.5869863475953
20
0.346371869158162
30
0
41
1
10
52.7045625048201
20
0.244360740359468
30
0
41
1
10
52.8608371381233
20
0.108227487995492
30
0
41
1
10
52.9387039463148
20
0.040073858846057
30
0
41
1
10
53.0552187156348
20
-0.0621454406915234
30
0
41
1
10
53.094025639631
20
-0.0961975946934785
30
0
41
1
10
53.1717046845965
20
-0.164111452001578
30
0
41
1
10
53.2105723753761
20
-0.197978427495514
30
0
41
1
10
53.3272249266153
20
-0.299352218891727
30
0
41
1
10
53.4050459097164
20
-0.366647530794722
30
0
41
1
10
53.638625093921
20
-0.567727971340474
30
0
41
1
10
53.7944628781319
20
-0.700751218186468
30
0
41
1
10
54.1065184942383
20
-0.964568979349394
30
0
41
1
10
54.2627341831418
20
-1.09536622036703
30
0
41
1
10
54.4974160224642
20
-1.28976561883675
30
0
41
1
10
54.5757181126505
20
-1.3542484492495
30
0
41
1
10
54.6933792546042
20
-1.450381902087
30
0
41
1
10
54.7326664621663
20
-1.4823458865676
30
0
41
1
10
54.8112861535288
20
-1.54583411993286
30
0
41
1
10
54.850605980492
20
-1.57732500731959
30
0
41
1
10
55.0472437390411
20
-1.73354214199671
30
0
41
1
10
55.2044092789724
20
-1.85485145054261
30
0
41
1
10
55.5185286405806
20
-2.09021990802114
30
0
41
1
10
55.6754775131421
20
-2.20428157152034
30
0
41
1
10
55.9894328357145
20
-2.42483646869124
30
0
41
1
10
56.1465819391525
20
-2.53120040382152
30
0
41
1
10
56.3038577878554
20
-2.6335770397867
30
0
0
SPLINE
5
120
100
AcDbEntity
8
1
62
256
6
ByLayer
370
18
48
1
60
0
100
AcDbSpline
70
4
71
3
72
14
73
10
40
0
40
0
40
0
40
0
40
0.25
40
0.25
40
0.5
40
0.5
40
0.75
40
0.75
40
1
40
1
40
1
40
1
41
1
10
56.3038577878554
20
-2.6335770397867
30
0
41
1
10
56.3433198042653
20
-2.65926431804189
30
0
41
1
10
56.382611325
20
-2.68608568028804
30
0
41
1
10
56.4608976576751
20
-2.74199743644334
30
0
41
1
10
56.4998715971277
20
-2.77110666078448
30
0
41
1
10
56.577291775673
20
-2.83193011776618
30
0
41
1
10
56.6157451125167
20
-2.86363583995137
30
0
41
1
10
56.6920444238068
20
-2.93001015822301
30
0
41
1
10
56.7298936992032
20
-2.96467129099176
30
0
41
1
10
56.7673920552744
20
-3.00112928946936
30
0
0
SPLINE
5
121
100
AcDbEntity
8
1
62
256
6
ByLayer
370
18
48
1
60
0
100
AcDbSpline
70
4
71
3
72
10
73
6
40
0
40
0
40
0
40
0
40
0.5
40
0.5
40
1
40
1
40
1
40
1
41
1
10
56.7673920552744
20
-3.00112928946936
30
0
41
1
10
56.8062973321788
20
-3.03895517504833
30
0
41
1
10
56.845250076994
20
-3.07666389419231
30
0
41
1
10
56.9228145991396
20
-3.15214218460437
30
0
41
1
10
56.9614681920309
20
-3.18988262372801
30
0
41
1
10
57
20
-3.22761586721066
30
0
0
SPLINE
5
122
100
AcDbEntity
8
1
62
256
6
ByLayer
370
18
48
1
60
0
100
AcDbSpline
70
4
71
3
72
12
73
8
40
0
40
0
40
0
40
0
40
0.500000000000012
40
0.500000000000012
40
0.750000000000006
40
0.750000000000006
40
1
40
1
40
1
40
1
41
1
10
57
20
-3.22761586721063
30
0
41
1
10
57.1625608166755
20
-3.33876530163354
30
0
41
1
10
57.3235674303736
20
-3.44455444051974
30
0
41
1
10
57.5630491502355
20
-3.59500768749658
30
0
41
1
10
57.6425291819467
20
-3.64378938078028
30
0
41
1
10
57.8008304720004
20
-3.73856030283722
30
0
41
1
10
57.8797040104475
20
-3.78452734929834
30
0
41
1
10
57.9582769337221
20
-3.8290608304317
30
0
0
SPLINE
5
123
100
AcDbEntity
8
1
62
256
6
ByLayer
370
18
48
1
60
0
100
AcDbSpline
70
4
71
3
72
8
73
4
40
0
40
0
40
0
40
0
40
1
40
1
40
1
40
1
41
1
10
57.9582769337191
20
-3.82906083042596
30
0
41
1
10
57.9824811326833
20
-3.80922152195132
30
0
41
1
10
58.006741245208
20
-3.78878325390198
30
0
41
1
10
58.031079727091
20
-3.76769133662981
30
0
0
SPLINE
5
124
100
AcDbEntity
8
1
62
256
6
ByLayer
370
18
48
1
60
0
100
AcDbSpline
70
4
71
3
72
30
73
26
40
0
40
0
40
0
40
0
40
0.125000000000019
40
0.125000000000019
40
0.187500000000029
40
0.187500000000029
40
0.250000000000039
40
0.250000000000039
40
0.375000000000059
40
0.375000000000059
40
0.500000000000079
40
0.500000000000079
40
0.625000000000099
40
0.625000000000099
40
0.687500000000082
40
0.687500000000082
40
0.750000000000066
40
0.750000000000066
40
0.812500000000049
40
0.812500000000049
40
0.875000000000033
40
0.875000000000033
40
0.937500000000016
40
0.937500000000016
40
1
40
1
40
1
40
1
41
1
10
58.031079727091
20
-3.76769133662995
30
0
41
1
10
58.0422188075552
20
-3.75803812305767
30
0
41
1
10
58.0551413651564
20
-3.75124702641864
30
0
41
1
10
58.0764808393575
20
-3.74413520356506
30
0
41
1
10
58.0839408200798
20
-3.74229084789005
30
0
41
1
10
58.0994358152961
20
-3.73959530238039
30
0
41
1
10
58.1073788562027
20
-3.73875808153494
30
0
41
1
10
58.1317314460579
20
-3.73762502262619
30
0
41
1
10
58.1486586698339
20
-3.73868981386457
30
0
41
1
10
58.1837590191492
20
-3.74423543655283
30
0
41
1
10
58.2020596032743
20
-3.74878101722709
30
0
41
1
10
58.2386864423624
20
-3.7611701406955
30
0
41
1
10
58.2571305746809
20
-3.76900855157663
30
0
41
1
10
58.2849489113022
20
-3.78355465244047
30
0
41
1
10
58.2942472470931
20
-3.78887249994435
30
0
41
1
10
58.3128905460404
20
-3.80057941325683
30
0
41
1
10
58.3221322004716
20
-3.80690668770887
30
0
41
1
10
58.3402853642739
20
-3.82050732568195
30
0
41
1
10
58.349219076899
20
-3.82779319150112
30
0
41
1
10
58.3667483267191
20
-3.84349010420286
30
0
41
1
10
58.3754067462892
20
-3.8519711661321
30
0
41
1
10
58.3919040518517
20
-3.86988272806707
30
0
41
1
10
58.3997548289368
20
-3.87930826688952
30
0
41
1
10
58.4145193746787
20
-3.8992653513242
30
0
41
1
10
58.4214770399031
20
-3.90987748872695
30
0
41
1
10
58.4276841979209
20
-3.92091313594406
30
0
0
SPLINE
5
125
100
AcDbEntity
8
1
62
256
6
ByLayer
370
18
48
1
60
0
100
AcDbSpline
70
4
71
3
72
8
73
4
40
0
40
0
40
0
40
0
40
1
40
1
40
1
40
1
41
1
10
58.4276841979209
20
-3.92091313594395
30
0
41
1
10
58.46774035769
20
-3.9921286015115
30
0
41
1
10
58.5076029662824
20
-4.0634150363507
30
0
41
1
10
58.5473002401151
20
-4.13475758504987
30
0
0
SPLINE
5
126
100
AcDbEntity
8
1
62
256
6
ByLayer
370
18
48
1
60
0
100
AcDbSpline
70
4
71
3
72
14
73
10
40
0
40
0
40
0
40
0
40
0.499999999999988
40
0.499999999999988
40
0.749999999999994
40
0.749999999999994
40
0.874999999999997
40
0.874999999999997
40
1
40
1
40
1
40
1
41
1
10
58.5473002401111
20
-4.13475758505223
30
0
41
1
10
58.6919911736599
20
-4.2027281307993
30
0
41
1
10
58.8366276234423
20
-4.26532471767456
30
0
41
1
10
59.0536467963599
20
-4.35078168399377
30
0
41
1
10
59.1259916020872
20
-4.3778597607303
30
0
41
1
10
59.2345617941438
20
-4.41629471310387
30
0
41
1
10
59.2707109731411
20
-4.42872439022327
30
0
41
1
10
59.3427798506984
20
-4.45276449265018
30
0
41
1
10
59.378722928753
20
-4.4643833566
30
0
41
1
10
59.4145791593471
20
-4.47560061524536
30
0
0
SPLINE
5
127
100
AcDbEntity
8
1
62
256
6
ByLayer
370
18
48
1
60
0
100
AcDbSpline
70
4
71
3
72
10
73
6
40
0
40
0
40
0
40
0
40
0.5
40
0.5
40
1
40
1
40
1
40
1
41
1
10
59.4145791593447
20
-4.47560061524078
30
0
41
1
10
59.447661620054
20
-4.43072595248285
30
0
41
1
10
59.4808667220768
20
-4.38491888639319
30
0
41
1
10
59.5474771457247
20
-4.29154275300692
30
0
41
1
10
59.580892448376
20
-4.24395952055181
30
0
41
1
10
59.6144238474975
20
-4.19550843227685
30
0
0
SPLINE
5
128
100
AcDbEntity
8
1
62
256
6
ByLayer
370
18
48
1
60
0
100
AcDbSpline
70
4
71
3
72
30
73
26
40
0
40
0
40
0
40
0
40
0.124999999999986
40
0.124999999999986
40
0.187499999999999
40
0.187499999999999
40
0.250000000000011
40
0.250000000000011
40
0.375000000000035
40
0.375000000000035
40
0.500000000000059
40
0.500000000000059
40
0.625000000000084
40
0.625000000000084
40
0.68750000000007
40
0.68750000000007
40
0.750000000000056
40
0.750000000000056
40
0.812500000000042
40
0.812500000000042
40
0.875000000000028
40
0.875000000000028
40
0.937500000000014
40
0.937500000000014
40
1
40
1
40
1
40
1
41
1
10
59.6144238474976
20
-4.19550843227682
30
0
41
1
10
59.6255762341263
20
-4.1793938267673
30
0
41
1
10
59.6385124660195
20
-4.16610116408006
30
0
41
1
10
59.6598686531287
20
-4.1491944941626
30
0
41
1
10
59.6673340342996
20
-4.14407248690418
30
0
41
1
10
59.6828384954143
20
-4.13482756141354
30
0
41
1
10
59.6907863159345
20
-4.13075643681981
30
0
41
1
10
59.7151549717034
20
-4.12002965284887
30
0
41
1
10
59.7320941375862
20
-4.11484299849695
30
0
41
1
10
59.7672101754404
20
-4.10814371590729
30
0
41
1
10
59.7855133848715
20
-4.10666035958698
30
0
41
1
10
59.8221376814062
20
-4.10762163258363
30
0
41
1
10
59.8405777466363
20
-4.11001577004575
30
0
41
1
10
59.868387226253
20
-4.11682003978055
30
0
41
1
10
59.8776821418582
20
-4.11962870468685
30
0
41
1
10
59.8963179346944
20
-4.12647500821168
30
0
41
1
10
59.9055521691515
20
-4.13047674766904
30
0
41
1
10
59.923694859982
20
-4.13969306721609
30
0
41
1
10
59.9326238061549
20
-4.1449135282077
30
0
41
1
10
59.9501444676919
20
-4.15676911404793
30
0
41
1
10
59.9587988641781
20
-4.16346238145175
30
0
41
1
10
59.9752892078548
20
-4.17822727535429
30
0
41
1
10
59.9831373819976
20
-4.18628925844914
30
0
41
1
10
59.9978983143433
20
-4.20401318169834
30
0
41
1
10
60.0048550597982
20
-4.21375207101119
30
0
41
1
10
60.0110628228096
20
-4.22424606265929
30
0
0
SPLINE
5
129
100
AcDbEntity
8
1
62
256
6
ByLayer
370
18
48
1
60
0
100
AcDbSpline
70
4
71
3
72
8
73
4
40
0
40
0
40
0
40
0
40
1
40
1
40
1
40
1
41
1
10
60.0110628228095
20
-4.22424606265926
30
0
41
1
10
60.1003820812695
20
-4.37523693498508
30
0
41
1
10
60.1887449175686
20
-4.52359619943016
30
0
41
1
10
60.2764487383231
20
-4.66927617768332
30
0
0
SPLINE
5
12A
100
AcDbEntity
8
1
62
256
6
ByLayer
370
18
48
1
60
0
100
AcDbSpline
70
4
71
3
72
8
73
4
40
0
40
0
40
0
40
0
40
1
40
1
40
1
40
1
41
1
10
60.2764487383231
20
-4.66927617768332
30
0
41
1
10
60.4753412137407
20
-4.69584024364138
30
0
41
1
10
60.6734616710158
20
-4.70954521313345
30
0
41
1
10
60.8711153145404
20
-4.70990269325512
30
0
0
SPLINE
5
12B
100
AcDbEntity
8
1
62
256
6
ByLayer
370
18
48
1
60
0
100
AcDbSpline
70
4
71
3
72
10
73
6
40
0
40
0
40
0
40
0
40
0.5
40
0.5
40
1
40
1
40
1
40
1
41
1
10
60.8711153145401
20
-4.70990269325512
30
0
41
1
10
60.9249611507561
20
-4.61415806870428
30
0
41
1
10
60.9790997380338
20
-4.51681538983459
30
0
41
1
10
61.0880026054276
20
-4.31913515767738
30
0
41
1
10
61.1427180102338
20
-4.21888524014162
30
0
41
1
10
61.1977642652063
20
-4.11725720287805
30
0
0
SPLINE
5
12C
100
AcDbEntity
8
1
62
256
6
ByLayer
370
18
48
1
60
0
100
AcDbSpline
70
4
71
3
72
30
73
26
40
0
40
0
40
0
40
0
40
0.125000000000002
40
0.125000000000002
40
0.187500000000002
40
0.187500000000002
40
0.250000000000002
40
0.250000000000002
40
0.375000000000002
40
0.375000000000002
40
0.500000000000001
40
0.500000000000001
40
0.625000000000001
40
0.625000000000001
40
0.687500000000001
40
0.687500000000001
40
0.750000000000001
40
0.750000000000001
40
0.812500000000001
40
0.812500000000001
40
0.875
40
0.875
40
0.9375
40
0.9375
40
1
40
1
40
1
40
1
41
1
10
61.1977642652063
20
-4.11725720287805
30
0
41
1
10
61.2089302556225
20
-4.09664221843144
30
0
41
1
10
61.2218861556701
20
-4.07845451338468
30
0
41
1
10
61.2432747538165
20
-4.05379198188848
30
0
41
1
10
61.2507514797883
20
-4.04600920570164
30
0
41
1
10
61.2662769766529
20
-4.0313292991992
30
0
41
1
10
61.2742337285661
20
-4.02451637810898
30
0
41
1
10
61.298622240872
20
-4.00549579754286
30
0
41
1
10
61.3155664321594
20
-3.99468841398288
30
0
41
1
10
61.3506853075773
20
-3.97654742254289
30
0
41
1
10
61.3689838588297
20
-3.96920622346192
30
0
41
1
10
61.4055970880084
20
-3.95859895151583
30
0
41
1
10
61.4240311198365
20
-3.95524285406066
30
0
41
1
10
61.4518299924995
20
-3.95345426729665
30
0
41
1
10
61.4611210923361
20
-3.95340408466487
30
0
41
1
10
61.4797485191002
20
-3.95454075538265
30
0
41
1
10
61.4889739346923
20
-3.955723822371
30
0
41
1
10
61.5071038293864
20
-3.95941938225661
30
0
41
1
10
61.5160266171795
20
-3.96193135771532
30
0
41
1
10
61.5335353723971
20
-3.96848638467318
30
0
41
1
10
61.5421837607551
20
-3.97256864100467
30
0
41
1
10
61.5586623373287
20
-3.9823713013181
30
0
41
1
10
61.5665054140734
20
-3.98807855830344
30
0
41
1
10
61.5812578157309
20
-4.0013905461023
30
0
41
1
10
61.5882111635979
20
-4.00905903169749
30
0
41
1
10
61.5944173765045
20
-4.01772119659228
30
0
0
SPLINE
5
12D
100
AcDbEntity
8
1
62
256
6
ByLayer
370
18
48
1
60
0
100
AcDbSpline
70
4
71
3
72
12
73
8
40
0
40
0
40
0
40
0
40
0.499999999999999
40
0.499999999999999
40
0.749999999999999
40
0.749999999999999
40
1
40
1
40
1
40
1
41
1
10
61.5944173765045
20
-4.01772119659219
30
0
41
1
10
61.664039582211
20
-4.1148946315424
30
0
41
1
10
61.733074685878
20
-4.20882746224984
30
0
41
1
10
61.8359643523225
20
-4.34494689376169
30
0
41
1
10
61.8701671979368
20
-4.3895446736349
30
0
41
1
10
61.938256498365
20
-4.47698764079348
30
0
41
1
10
61.9721527358376
20
-4.51984645246742
30
0
41
1
10
62.0059185568296
20
-4.5618500281202
30
0
0
SPLINE
5
12E
100
AcDbEntity
8
1
62
256
6
ByLayer
370
18
48
1
60
0
100
AcDbSpline
70
4
71
3
72
8
73
4
40
0
40
0
40
0
40
0
40
1
40
1
40
1
40
1
41
1
10
62.0059185568248
20
-4.56185002812785
30
0
41
1
10
62.1136448120108
20
-4.53362382898678
30
0
41
1
10
62.2209722577519
20
-4.50146524581723
30
0
41
1
10
62.3279361907109
20
-4.4653643527077
30
0
0
SPLINE
5
12F
100
AcDbEntity
8
1
62
256
6
ByLayer
370
18
48
1
60
0
100
AcDbSpline
70
4
71
3
72
14
73
10
40
0
40
0
40
0
40
0
40
0.25
40
0.25
40
0.5
40
0.5
40
0.75
40
0.75
40
1
40
1
40
1
40
1
41
1
10
62.3279361907109
20
-4.46536435270772
30
0
41
1
10
62.3651002396748
20
-4.38940302553507
30
0
41
1
10
62.4024083318387
20
-4.3131328634897
30
0
41
1
10
62.4773583512645
20
-4.15998884774862
30
0
41
1
10
62.5149945066111
20
-4.08312698015237
30
0
41
1
10
62.590528882799
20
-3.92906265473096
30
0
41
1
10
62.6284546866571
20
-3.85180471319262
30
0
41
1
10
62.7045738976462
20
-3.69707340060825
30
0
41
1
10
62.7427697617726
20
-3.61959551833269
30
0
41
1
10
62.7811298125278
20
-3.54201704280325
30
0
0
SPLINE
5
130
100
AcDbEntity
8
1
62
256
6
ByLayer
370
18
48
1
60
0
100
AcDbSpline
70
4
71
3
72
26
73
22
40
0
40
0
40
0
40
0
40
0.151365949766201
40
0.151365949766201
40
0.227048924649326
40
0.227048924649326
40
0.302731899532451
40
0.302731899532451
40
0.4540978492987
40
0.4540978492987
40
0.60546379906495
40
0.60546379906495
40
0.756829748831199
40
0.756829748831199
40
0.832512723714294
40
0.832512723714294
40
0.908195698597388
40
0.908195698597388
40
0.983878673480483
40
0.983878673480483
40
1
40
1
40
1
40
1
41
1
10
62.7811298125279
20
-3.54201704280317
30
0
41
1
10
62.7923089322354
20
-3.51940865080166
30
0
41
1
10
62.8052837148047
20
-3.49853544646598
30
0
41
1
10
62.8267050015387
20
-3.46910692102111
30
0
41
1
10
62.8341935153278
20
-3.45960552380151
30
0
41
1
10
62.8497426617897
20
-3.44126448383184
30
0
41
1
10
62.8577108335436
20
-3.4325312294894
30
0
41
1
10
62.8821308355014
20
-3.40750549775149
30
0
41
1
10
62.8990917546444
20
-3.3923723853249
30
0
41
1
10
62.934230782627
20
-3.36495927428703
30
0
41
1
10
62.9525295107382
20
-3.35263709966537
30
0
41
1
10
62.9891315783917
20
-3.33172231683378
30
0
41
1
10
63.0075570654005
20
-3.32300988684426
30
0
41
1
10
63.0353406128911
20
-3.31282445320156
30
0
41
1
10
63.044626179316
20
-3.30991434318284
30
0
41
1
10
63.0632421201513
20
-3.30518912311106
30
0
41
1
10
63.0724511274027
20
-3.30340681821801
30
0
41
1
10
63.0905602075467
20
-3.30112155472648
30
0
41
1
10
63.0994734057516
20
-3.30061385292598
30
0
41
1
10
63.1100820523358
20
-3.30088408389435
30
0
41
1
10
63.1119401931777
20
-3.30096539512269
30
0
41
1
10
63.1137905983846
20
-3.30108155814438
30
0
0
SPLINE
5
131
100
AcDbEntity
8
1
62
256
6
ByLayer
370
18
48
1
60
0
100
AcDbSpline
70
4
71
3
72
8
73
4
40
0
40
0
40
0
40
0
40
1
40
1
40
1
40
1
41
1
10
63.8385324275291
20
-3.61084170146378
30
0
41
1
10
63.7881283643306
20
-3.65036864972913
30
0
41
1
10
63.7377769711294
20
-3.68918883675775
30
0
41
1
10
63.6874727586775
20
-3.72730249586931
30
0
0
SPLINE
5
132
100
AcDbEntity
8
1
62
256
6
ByLayer
370
18
48
1
60
0
100
AcDbSpline
70
4
71
3
72
8
73
4
40
0
40
0
40
0
40
0
40
1
40
1
40
1
40
1
41
1
10
63.8385324275291
20
-3.61084170146378
30
0
41
1
10
63.8490935067352
20
-3.58852250367971
30
0
41
1
10
63.8596653191292
20
-3.56622324082343
30
0
41
1
10
63.8702484132091
20
-3.54394419444438
30
0
0
SPLINE
5
133
100
AcDbEntity
8
1
62
256
6
ByLayer
370
18
48
1
60
0
100
AcDbSpline
70
4
71
3
72
10
73
6
40
0
40
0
40
0
40
0
40
0.5
40
0.5
40
1
40
1
40
1
40
1
41
1
10
67.1605874656144
20
-4.21555347729574
30
0
41
1
10
67.0744941555834
20
-4.36289296864547
30
0
41
1
10
66.9892310406733
20
-4.50841540489429
30
0
41
1
10
66.8198702268358
20
-4.79573039062637
30
0
41
1
10
66.736094253865
20
-4.93697509412252
30
0
41
1
10
66.6530272886181
20
-5.07567211550139
30
0
0
SPLINE
5
134
100
AcDbEntity
8
1
62
256
6
ByLayer
370
18
48
1
60
0
100
AcDbSpline
70
4
71
3
72
8
73
4
40
0
40
0
40
0
40
0
40
1
40
1
40
1
40
1
41
1
10
66.5020228237686
20
-5.07325503941308
30
0
41
1
10
66.5523506083097
20
-5.07500213882551
30
0
41
1
10
66.6026799507132
20
-5.07580821718111
30
0
41
1
10
66.6530272886181
20
-5.07567211550139
30
0
0
SPLINE
5
135
100
AcDbEntity
8
1
62
256
6
ByLayer
370
18
48
1
60
0
100
AcDbSpline
70
4
71
3
72
12
73
8
40
0
40
0
40
0
40
0
40
0.214858827230226
40
0.214858827230226
40
0.607429413615113
40
0.607429413615113
40
1
40
1
40
1
40
1
41
1
10
66.3123257423768
20
-4.75230496041857
30
0
41
1
10
66.2883387895387
20
-4.7109299064642
30
0
41
1
10
66.264289726399
20
-4.66916051777446
30
0
41
1
10
66.1961485607077
20
-4.55002925395738
30
0
41
1
10
66.1519125699296
20
-4.47177149913358
30
0
41
1
10
66.0630765646835
20
-4.31291309389863
30
0
41
1
10
66.0184958788772
20
-4.23234880382759
30
0
41
1
10
65.9737049614029
20
-4.15064754099913
30
0
0
SPLINE
5
136
100
AcDbEntity
8
1
62
256
6
ByLayer
370
18
48
1
60
0
100
AcDbSpline
70
4
71
3
72
34
73
30
40
0
40
0
40
0
40
0
40
0.125000000000061
40
0.125000000000061
40
0.187500000000092
40
0.187500000000092
40
0.250000000000124
40
0.250000000000124
40
0.375000000000187
40
0.375000000000187
40
0.437500000000219
40
0.437500000000219
40
0.500000000000252
40
0.500000000000252
40
0.625000000000266
40
0.625000000000266
40
0.687500000000247
40
0.687500000000247
40
0.750000000000228
40
0.750000000000228
40
0.812500000000209
40
0.812500000000209
40
0.843750000000174
40
0.843750000000174
40
0.87500000000014
40
0.87500000000014
40
0.93750000000007
40
0.93750000000007
40
1
40
1
40
1
40
1
41
1
10
65.9737049614028
20
-4.15064754099913
30
0
41
1
10
65.962783510041
20
-4.13072617259456
30
0
41
1
10
65.9501296124583
20
-4.11311417741692
30
0
41
1
10
65.9292097795417
20
-4.08924975084761
30
0
41
1
10
65.9218922151187
20
-4.08172004464035
30
0
41
1
10
65.9066907924535
20
-4.06753170727225
30
0
41
1
10
65.8988865159408
20
-4.06094452083596
30
0
41
1
10
65.8749231506863
20
-4.04256341427501
30
0
41
1
10
65.8582195608296
20
-4.03213267536762
30
0
41
1
10
65.8321635514145
20
-4.01907171360821
30
0
41
1
10
65.8233097763256
20
-4.01515361682098
30
0
41
1
10
65.8052613044523
20
-4.00821932573874
30
0
41
1
10
65.7961405755104
20
-4.00523422882887
30
0
41
1
10
65.7687080332374
20
-3.99779885628976
30
0
41
1
10
65.7502415761702
20
-3.9948102030734
30
0
41
1
10
65.7223053383843
20
-3.99365071363138
30
0
41
1
10
65.712953514636
20
-3.99382341096901
30
0
41
1
10
65.6941707644796
20
-3.9954451427287
30
0
41
1
10
65.6847391467587
20
-3.99690449738935
30
0
41
1
10
65.6662629697121
20
-4.00121236472481
30
0
41
1
10
65.6571633409937
20
-4.00406147405059
30
0
41
1
10
65.6437615780116
20
-4.00954266938675
30
0
41
1
10
65.6393357857204
20
-4.01157192497783
30
0
41
1
10
65.6305768762873
20
-4.01607804771282
30
0
41
1
10
65.626241123272
20
-4.01855910804301
30
0
41
1
10
65.6135936006375
20
-4.02661785138841
30
0
41
1
10
65.6055709963715
20
-4.03283590238595
30
0
41
1
10
65.5904935386906
20
-4.04727245847278
30
0
41
1
10
65.5833998143173
20
-4.05555961214455
30
0
41
1
10
65.5771127112955
20
-4.06483821502613
30
0
0
SPLINE
5
137
100
AcDbEntity
8
1
62
256
6
ByLayer
370
18
48
1
60
0
100
AcDbSpline
70
4
71
3
72
10
73
6
40
0
40
0
40
0
40
0
40
0.5
40
0.5
40
1
40
1
40
1
40
1
41
1
10
65.5771127112954
20
-4.06483821502644
30
0
41
1
10
65.4910056160001
20
-4.19191638437908
30
0
41
1
10
65.4057390078642
20
-4.31448212590371
30
0
41
1
10
65.2363774433005
20
-4.55078019984416
30
0
41
1
10
65.1526043690901
20
-4.66406632475102
30
0
41
1
10
65.0695372190278
20
-4.77250968161425
30
0
0
SPLINE
5
138
100
AcDbEntity
8
1
62
256
6
ByLayer
370
18
48
1
60
0
100
AcDbSpline
70
4
71
3
72
8
73
4
40
0
40
0
40
0
40
0
40
1
40
1
40
1
40
1
41
1
10
64.91846803732
20
-4.71216522682465
30
0
41
1
10
64.9688197171985
20
-4.73315617563017
30
0
41
1
10
65.0191685427567
20
-4.75327373706023
30
0
41
1
10
65.0695372190278
20
-4.77250968161425
30
0
0
SPLINE
5
139
100
AcDbEntity
8
1
62
256
6
ByLayer
370
18
48
1
60
0
100
AcDbSpline
70
4
71
3
72
14
73
10
40
0
40
0
40
0
40
0
40
0.25
40
0.25
40
0.5
40
0.5
40
0.750000000000001
40
0.750000000000001
40
1
40
1
40
1
40
1
41
1
10
64.9184680373215
20
-4.71216522681098
30
0
41
1
10
64.8752165217958
20
-4.62391401475827
30
0
41
1
10
64.8318037551632
20
-4.53502846848502
30
0
41
1
10
64.7445664458861
20
-4.35600351507532
30
0
41
1
10
64.7007207549163
20
-4.26582025438049
30
0
41
1
10
64.6126704306913
20
-4.08450898005347
30
0
41
1
10
64.5684435971397
20
-3.99333613717886
30
0
41
1
10
64.4796055621332
20
-3.81019579085671
30
0
41
1
10
64.435015000923
20
-3.71826706408555
30
0
41
1
10
64.3902132299112
20
-3.62599380613793
30
0
0
SPLINE
5
13A
100
AcDbEntity
8
1
62
256
6
ByLayer
370
18
48
1
60
0
100
AcDbSpline
70
4
71
3
72
34
73
30
40
0
40
0
40
0
40
0
40
0.124999999999942
40
0.124999999999942
40
0.187499999999913
40
0.187499999999913
40
0.249999999999883
40
0.249999999999883
40
0.374999999999869
40
0.374999999999869
40
0.437499999999887
40
0.437499999999887
40
0.499999999999905
40
0.499999999999905
40
0.624999999999889
40
0.624999999999889
40
0.687499999999882
40
0.687499999999882
40
0.749999999999874
40
0.749999999999874
40
0.812499999999867
40
0.812499999999867
40
0.843749999999888
40
0.843749999999888
40
0.87499999999991
40
0.87499999999991
40
0.937499999999955
40
0.937499999999955
40
1
40
1
40
1
40
1
41
1
10
64.3902132299112
20
-3.62599380613801
30
0
41
1
10
64.3792894703532
20
-3.60349534545895
30
0
41
1
10
64.3666320968921
20
-3.58272645549877
30
0
41
1
10
64.3457056334069
20
-3.55349396426209
30
0
41
1
10
64.3383857550838
20
-3.54406307680927
30
0
41
1
10
64.323178884006
20
-3.52588241829344
30
0
41
1
10
64.3153719329563
20
-3.51722559346348
30
0
41
1
10
64.2914009170537
20
-3.49243385979153
30
0
41
1
10
64.2746927293064
20
-3.47746327216908
30
0
41
1
10
64.248631307635
20
-3.45720232897523
30
0
41
1
10
64.2397759672377
20
-3.45081844189383
30
0
41
1
10
64.2217250512311
20
-3.43881313071049
30
0
41
1
10
64.2126045114737
20
-3.43324409070172
30
0
41
1
10
64.1851718866329
20
-3.41796090705418
30
0
41
1
10
64.166706216196
20
-3.40959184203229
30
0
41
1
10
64.1387727633351
20
-3.40008520369557
30
0
41
1
10
64.1294221457157
20
-3.39742895773506
30
0
41
1
10
64.1106422861491
20
-3.39328205727352
30
0
41
1
10
64.1012144017976
20
-3.39180112112177
30
0
41
1
10
64.0827452331953
20
-3.39024187950159
30
0
41
1
10
64.0736490383583
20
-3.39014767282558
30
0
41
1
10
64.0602522623559
20
-3.39119435691796
30
0
41
1
10
64.0558281048707
20
-3.391742175231
30
0
41
1
10
64.0470723967768
20
-3.39327788797195
30
0
41
1
10
64.0427386719927
20
-3.39426875798469
30
0
41
1
10
64.0300969336616
20
-3.39791520062181
30
0
41
1
10
64.0220777372119
20
-3.40124632310165
30
0
41
1
10
64.0070061123791
20
-3.41003877014566
30
0
41
1
10
63.9999149563428
20
-3.41555167380164
30
0
41
1
10
63.9936298393279
20
-3.42222044957967
30
0
0
SPLINE
5
13B
100
AcDbEntity
8
1
62
256
6
ByLayer
370
18
48
1
60
0
100
AcDbSpline
70
4
71
3
72
10
73
6
40
0
40
0
40
0
40
0
40
0.5
40
0.5
40
1
40
1
40
1
40
1
41
1
10
63.9936298393278
20
-3.42222044958041
30
0
41
1
10
63.9075196407591
20
-3.51358702320101
30
0
41
1
10
63.8222499927412
20
-3.59828590797577
30
0
41
1
10
63.6528786056904
20
-3.75481237205
30
0
41
1
10
63.5690994181689
20
-3.82634746750887
30
0
41
1
10
63.4860251062658
20
-3.89133675837408
30
0
0
SPLINE
5
13C
100
AcDbEntity
8
1
62
256
6
ByLayer
370
18
48
1
60
0
100
AcDbSpline
70
4
71
3
72
8
73
4
40
0
40
0
40
0
40
0
40
1
40
1
40
1
40
1
41
1
10
63.335013219732
20
-3.78043938545414
30
0
41
1
10
63.3853441221541
20
-3.81810890589404
30
0
41
1
10
63.4356757960101
20
-3.85507824130147
30
0
41
1
10
63.4860251062658
20
-3.89133675837411
30
0
0
SPLINE
5
13D
100
AcDbEntity
8
1
62
256
6
ByLayer
370
18
48
1
60
0
100
AcDbSpline
70
4
71
3
72
14
73
10
40
0
40
0
40
0
40
0
40
0.25
40
0.25
40
0.5
40
0.5
40
0.75
40
0.75
40
1
40
1
40
1
40
1
41
1
10
63.3350132197319
20
-3.78043938545414
30
0
41
1
10
63.2917496407453
20
-3.68633200015469
30
0
41
1
10
63.2483239010031
20
-3.59236730772085
30
0
41
1
10
63.1610663189406
20
-3.40476352491453
30
0
41
1
10
63.1172133689141
20
-3.31107978998867
30
0
41
1
10
63.0291556174536
20
-3.12438636123619
30
0
41
1
10
62.9849293679095
20
-3.03132999482216
30
0
41
1
10
62.8960940905422
20
-2.8460759583817
30
0
41
1
10
62.8515067263529
20
-2.75391407544834
30
0
41
1
10
62.8067104315843
20
-2.66223736782601
30
0
0
SPLINE
5
13E
100
AcDbEntity
8
1
62
256
6
ByLayer
370
18
48
1
60
0
100
AcDbSpline
70
4
71
3
72
34
73
30
40
0
40
0
40
0
40
0
40
0.125000000000019
40
0.125000000000019
40
0.187500000000009
40
0.187500000000009
40
0.249999999999999
40
0.249999999999999
40
0.374999999999979
40
0.374999999999979
40
0.437499999999969
40
0.437499999999969
40
0.499999999999959
40
0.499999999999959
40
0.624999999999992
40
0.624999999999992
40
0.687500000000009
40
0.687500000000009
40
0.750000000000026
40
0.750000000000026
40
0.812500000000042
40
0.812500000000042
40
0.843750000000051
40
0.843750000000051
40
0.87500000000006
40
0.87500000000006
40
0.93750000000003
40
0.93750000000003
40
1
40
1
40
1
40
1
41
1
10
62.806710431584
20
-2.66223736782521
30
0
41
1
10
62.7957891733616
20
-2.63988674704075
30
0
41
1
10
62.7831352555897
20
-2.61847354560987
30
0
41
1
10
62.7622139104535
20
-2.58740675555978
30
0
41
1
10
62.7548958096038
20
-2.57721415314631
30
0
41
1
10
62.7396921670282
20
-2.55723696208423
30
0
41
1
10
62.7318867001644
20
-2.54755525112788
30
0
41
1
10
62.7079196296466
20
-2.51934301923507
30
0
41
1
10
62.6912133892465
20
-2.50163558782148
30
0
41
1
10
62.6651534310269
20
-2.47661244418302
30
0
41
1
10
62.6562983390508
20
-2.46853042248395
30
0
41
1
10
62.6382473853099
20
-2.45289703782103
30
0
41
1
10
62.6291262873774
20
-2.44541248930022
30
0
41
1
10
62.6016920364434
20
-2.42411647009331
30
0
41
1
10
62.5832247091105
20
-2.41137138664152
30
0
41
1
10
62.5552881999835
20
-2.39465838136496
30
0
41
1
10
62.5459364685948
20
-2.38949191211043
30
0
41
1
10
62.5271542450604
20
-2.38007384894021
30
0
41
1
10
62.5177247525015
20
-2.37583033591216
30
0
41
1
10
62.4992529932681
20
-2.36859181000841
30
0
41
1
10
62.4901557183022
20
-2.36556616995432
30
0
41
1
10
62.4767576856318
20
-2.36205357256557
30
0
41
1
10
62.4723331698212
20
-2.36105448561708
30
0
41
1
10
62.4635768726528
20
-2.35943594599234
30
0
41
1
10
62.4592427932753
20
-2.35881812938769
30
0
41
1
10
62.4466002900321
20
-2.35761583959393
30
0
41
1
10
62.4385809683684
20
-2.35766082090876
30
0
41
1
10
62.4235096887781
20
-2.35975350311978
30
0
41
1
10
62.4164189366953
20
-2.36182953042285
30
0
41
1
10
62.4101342188096
20
-2.36508568706148
30
0
0
SPLINE
5
13F
100
AcDbEntity
8
1
62
256
6
ByLayer
370
18
48
1
60
0
100
AcDbSpline
70
4
71
3
72
9
73
5
40
0
40
0
40
0
40
0
40
0.182380042997854
40
1
40
1
40
1
40
1
41
1
10
57.3406794747256
20
-4.25679348387993
30
0
41
1
10
57.3200173870966
20
-4.2538827711372
30
0
41
1
10
57.2066889605108
20
-4.2371329602278
30
0
41
1
10
57.0931226663988
20
-4.21605831844442
30
0
41
1
10
57
20
-4.19595152808753
30
0
0
SPLINE
5
140
100
AcDbEntity
8
1
62
256
6
ByLayer
370
18
48
1
60
0
100
AcDbSpline
70
4
71
3
72
8
73
4
40
0
40
0
40
0
40
0
40
1
40
1
40
1
40
1
41
1
10
57
20
-4.19595152808753
30
0
41
1
10
56.9920958932751
20
-4.1905454706247
30
0
41
1
10
56.9841881211057
20
-4.18511278391517
30
0
41
1
10
56.9762765436636
20
-4.17965350282537
30
0
0
SPLINE
5
141
100
AcDbEntity
8
1
62
256
6
ByLayer
370
18
48
1
60
0
100
AcDbSpline
70
4
71
3
72
8
73
4
40
0
40
0
40
0
40
0
40
1
40
1
40
1
40
1
41
1
10
56.8626784846119
20
-4.09964058011025
30
0
41
1
10
56.8309864763118
20
-4.07687025075563
30
0
41
1
10
56.7992372124338
20
-4.05368564187472
30
0
41
1
10
56.7673920552744
20
-4.03007557477304
30
0
0
SPLINE
5
142
100
AcDbEntity
8
1
62
256
6
ByLayer
370
18
48
1
60
0
100
AcDbSpline
70
4
71
3
72
12
73
8
40
0
40
0
40
0
40
0
40
0.249999999999989
40
0.249999999999989
40
0.499999999999977
40
0.499999999999977
40
1
40
1
40
1
40
1
41
1
10
56.7673920552744
20
-4.03007557477301
30
0
41
1
10
56.7323968431634
20
-4.0041300502449
30
0
41
1
10
56.6963795591623
20
-3.98031820851335
30
0
41
1
10
56.6223865267284
20
-3.93677165002066
30
0
41
1
10
56.5844114774306
20
-3.91704672306332
30
0
41
1
10
56.4680153090213
20
-3.86411859783584
30
0
41
1
10
56.3871548435559
20
-3.83707712649996
30
0
41
1
10
56.3038577878562
20
-3.81928223247149
30
0
0
SPLINE
5
143
100
AcDbEntity
8
1
62
256
6
ByLayer
370
18
48
1
60
0
100
AcDbSpline
70
4
71
3
72
78
73
74
40
0
40
0
40
0
40
0
40
0.031250000000004
40
0.031250000000004
40
0.062500000000008
40
0.062500000000008
40
0.0937500000000119
40
0.0937500000000119
40
0.125000000000016
40
0.125000000000016
40
0.15625000000002
40
0.15625000000002
40
0.187500000000024
40
0.187500000000024
40
0.203125000000026
40
0.203125000000026
40
0.218750000000028
40
0.218750000000028
40
0.250000000000032
40
0.250000000000032
40
0.265625000000033
40
0.265625000000033
40
0.281250000000034
40
0.281250000000034
40
0.312500000000036
40
0.312500000000036
40
0.37500000000004
40
0.37500000000004
40
0.390625000000041
40
0.390625000000041
40
0.406250000000043
40
0.406250000000043
40
0.437500000000044
40
0.437500000000044
40
0.500000000000043
40
0.500000000000043
40
0.531250000000043
40
0.531250000000043
40
0.546875000000042
40
0.546875000000042
40
0.562500000000041
40
0.562500000000041
40
0.57812500000004
40
0.57812500000004
40
0.593750000000039
40
0.593750000000039
40
0.625000000000037
40
0.625000000000037
40
0.656250000000035
40
0.656250000000035
40
0.687500000000033
40
0.687500000000033
40
0.703125000000032
40
0.703125000000032
40
0.718750000000031
40
0.718750000000031
40
0.750000000000027
40
0.750000000000027
40
0.781250000000024
40
0.781250000000024
40
0.81250000000002
40
0.81250000000002
40
0.843750000000016
40
0.843750000000016
40
0.875000000000012
40
0.875000000000012
40
0.937500000000006
40
0.937500000000006
40
0.968750000000004
40
0.968750000000004
40
0.984375000000002
40
0.984375000000002
40
1
40
1
40
1
40
1
41
1
10
56.3038577878554
20
-3.81928223247365
30
0
41
1
10
56.1779934613336
20
-3.79239361878143
30
0
41
1
10
56.0527997168088
20
-3.76120163615548
30
0
41
1
10
55.8032514038092
20
-3.69053452854231
30
0
41
1
10
55.6788878983948
20
-3.65106557205658
30
0
41
1
10
55.430689617904
20
-3.564071272847
30
0
41
1
10
55.306846673489
20
-3.51654708654758
30
0
41
1
10
55.0592000370534
20
-3.41371617322201
30
0
41
1
10
54.935430576544
20
-3.35838700821168
30
0
41
1
10
54.6872771367418
20
-3.24033579118381
30
0
41
1
10
54.5627882611032
20
-3.1776969209505
30
0
41
1
10
54.3134247336909
20
-3.04482950068436
30
0
41
1
10
54.1884866601854
20
-2.9746357188032
30
0
41
1
10
54.0004137723073
20
-2.86376217607497
30
0
41
1
10
53.9375342530967
20
-2.82582878155267
30
0
41
1
10
53.8122067586596
20
-2.74857963887945
30
0
41
1
10
53.7496874605139
20
-2.70922389339512
30
0
41
1
10
53.5624703896144
20
-2.58906166272985
30
0
41
1
10
53.4381259014059
20
-2.50614825981816
30
0
41
1
10
53.2518448708944
20
-2.37805230677208
30
0
41
1
10
53.1897911982756
20
-2.33473207034055
30
0
41
1
10
53.0656530442052
20
-2.2469635320472
30
0
41
1
10
53.0035480805329
20
-2.20253558104559
30
0
41
1
10
52.8173035389673
20
-2.06746226696069
30
0
41
1
10
52.6933074150562
20
-1.97495406280092
30
0
41
1
10
52.321232891335
20
-1.69058930025773
30
0
41
1
10
52.0731210322778
20
-1.49183861948126
30
0
41
1
10
51.7605533916182
20
-1.23405397715126
30
0
41
1
10
51.697914261034
20
-1.18203421240881
30
0
41
1
10
51.5723137922677
20
-1.07713599963847
30
0
41
1
10
51.5096210308038
20
-1.02447147114509
30
0
41
1
10
51.3218015401622
20
-0.866147746481715
30
0
41
1
10
51.1968324343619
20
-0.760169824501787
30
0
41
1
10
50.8232983057021
20
-0.440218069337163
30
0
41
1
10
50.5758235771074
20
-0.224551794826482
30
0
41
1
10
50.2043411835645
20
0.0994861026171918
30
0
41
1
10
50.0804748713949
20
0.207595829528515
30
0
41
1
10
49.8941797540441
20
0.36939809043983
30
0
41
1
10
49.8319962927111
20
0.423268887755938
30
0
41
1
10
49.7073834017535
20
0.530795710808803
30
0
41
1
10
49.6449405782705
20
0.584436064008372
30
0
41
1
10
49.519851716508
20
0.691552333482406
30
0
41
1
10
49.45722089499
20
0.74504606604981
30
0
41
1
10
49.3317370622171
20
0.851847986336452
30
0
41
1
10
49.2688032618859
20
0.905218978616062
30
0
41
1
10
49.0806312407494
20
1.06403514901359
30
0
41
1
10
48.9557586634353
20
1.16840983573002
30
0
41
1
10
48.706766564441
20
1.37378062106566
30
0
41
1
10
48.5826438326097
20
1.47477250344676
30
0
41
1
10
48.3346804052955
20
1.6729115439102
30
0
41
1
10
48.2108625645773
20
1.7700820485957
30
0
41
1
10
48.0249329324433
20
1.91254165377654
30
0
41
1
10
47.9628801108287
20
1.95943638697085
30
0
41
1
10
47.8387735051086
20
2.05219703109657
30
0
41
1
10
47.7767170123511
20
2.09805935623763
30
0
41
1
10
47.5904096033756
20
2.23395667451982
30
0
41
1
10
47.4660197557603
20
2.32230325672205
30
0
41
1
10
47.2166270974749
20
2.4941895071874
30
0
41
1
10
47.0916005968789
20
2.57770558927046
30
0
41
1
10
46.8404238801525
20
2.73935315284078
30
0
41
1
10
46.7153758675669
20
2.81679437219626
30
0
41
1
10
46.4659518125889
20
2.96443018577952
30
0
41
1
10
46.3414725526853
20
3.03460286783059
30
0
41
1
10
46.0929009975769
20
3.16774751208098
30
0
41
1
10
45.9689023261989
20
3.23078241005217
30
0
41
1
10
45.5971902627899
20
3.40889009479733
30
0
41
1
10
45.3497371024035
20
3.51294741091553
30
0
41
1
10
44.9762757599456
20
3.64507797166544
30
0
41
1
10
44.8514438332247
20
3.68514203135359
30
0
41
1
10
44.663130661553
20
3.73894706380099
30
0
41
1
10
44.600117869326
20
3.75586107629323
30
0
41
1
10
44.4745350830077
20
3.78743893901077
30
0
41
1
10
44.4118921531626
20
3.80211728272553
30
0
41
1
10
44.3493747487954
20
3.81568870561119
30
0
0
SPLINE
5
144
100
AcDbEntity
8
1
62
256
6
ByLayer
370
18
48
1
60
0
100
AcDbSpline
70
4
71
3
72
28
73
24
40
0
40
0
40
0
40
0
40
0.0320366507348842
40
0.0320366507348842
40
0.109347590068288
40
0.109347590068288
40
0.263969468735096
40
0.263969468735096
40
0.418591347401905
40
0.418591347401905
40
0.457246817068605
40
0.457246817068605
40
0.495902286735307
40
0.495902286735307
40
0.573213226068709
40
0.573213226068709
40
0.727835104735509
40
0.727835104735509
40
0.80514604406891
40
0.80514604406891
40
0.882456983402311
40
0.882456983402311
40
1
40
1
40
1
40
1
41
1
10
44.3491382953607
20
3.81558070245109
30
0
41
1
10
44.3353857687077
20
3.7854584542489
30
0
41
1
10
44.3210290854999
20
3.7550059921935
30
0
41
1
10
44.2688497471199
20
3.64932907099447
30
0
41
1
10
44.2273982603703
20
3.57178693605621
30
0
41
1
10
44.0910147140756
20
3.33510109506582
30
0
41
1
10
43.9856070020476
20
3.17374800544121
30
0
41
1
10
43.740636458311
20
2.84264171011912
30
0
41
1
10
43.6074458899015
20
2.68126197380366
30
0
41
1
10
43.4240786413652
20
2.4863480538319
30
0
41
1
10
43.3863184208574
20
2.4475084105049
30
0
41
1
10
43.3105774401135
20
2.37255169973091
30
0
41
1
10
43.2724551609316
20
2.33622970349779
30
0
41
1
10
43.1577821875536
20
2.22866966675977
30
0
41
1
10
43.0807926103414
20
2.15944722969979
30
0
41
1
10
42.8479364225469
20
1.96044820367894
30
0
41
1
10
42.6939319757262
20
1.84157848887227
30
0
41
1
10
42.469153376564
20
1.68817319234583
30
0
41
1
10
42.394698141491
20
1.64091624012397
30
0
41
1
10
42.2517700082741
20
1.55745172765654
30
0
41
1
10
42.1828093749543
20
1.52087523363275
30
0
41
1
10
42.0151761500569
20
1.44140469534349
30
0
41
1
10
41.9191120405918
20
1.40520068569518
30
0
41
1
10
41.8310458557163
20
1.38107522863851
30
0
0
SPLINE
5
145
100
AcDbEntity
8
1
62
256
6
ByLayer
370
18
48
1
60
0
100
AcDbSpline
70
4
71
3
72
106
73
102
40
0
40
0
40
0
40
0
40
0.0092079333156645
40
0.0092079333156645
40
0.018415866631329
40
0.0368317332626598
40
0.0368317332626598
40
0.0736634665253196
40
0.0736634665253196
40
0.110495199787979
40
0.110495199787979
40
0.128911066419308
40
0.128911066419308
40
0.138118999734972
40
0.138118999734972
40
0.147326933050635
40
0.147326933050635
40
0.165742799681965
40
0.165742799681965
40
0.184158666313293
40
0.184158666313293
40
0.220990399575951
40
0.220990399575951
40
0.257822132838609
40
0.257822132838609
40
0.267030066154273
40
0.267030066154273
40
0.276237999469937
40
0.276237999469937
40
0.294653866101265
40
0.294653866101265
40
0.313069732732594
40
0.313069732732594
40
0.322277666048258
40
0.322277666048258
40
0.331485599363922
40
0.331485599363922
40
0.368317332626582
40
0.368317332626582
40
0.386733199257911
40
0.386733199257911
40
0.405149065889239
40
0.405149065889239
40
0.441980799151899
40
0.441980799151899
40
0.478812532414559
40
0.478812532414559
40
0.497228399045889
40
0.497228399045889
40
0.506436332361554
40
0.506436332361554
40
0.515644265677219
40
0.515644265677219
40
0.524852198992884
40
0.524852198992884
40
0.534060132308549
40
0.534060132308549
40
0.552475998939881
40
0.552475998939881
40
0.589307732202545
40
0.589307732202545
40
0.626139465465208
40
0.626139465465208
40
0.64455533209654
40
0.64455533209654
40
0.662971198727872
40
0.662971198727872
40
0.681387065359204
40
0.681387065359204
40
0.69059499867487
40
0.69059499867487
40
0.699802931990536
40
0.699802931990536
40
0.736634665253196
40
0.736634665253196
40
0.773466398515856
40
0.773466398515856
40
0.791882265147186
40
0.791882265147186
40
0.810298131778516
40
0.810298131778516
40
0.847129865041176
40
0.847129865041176
40
0.865545731672506
40
0.865545731672506
40
0.874753664988171
40
0.874753664988171
40
0.883961598303836
40
0.902377464935166
40
0.902377464935166
40
0.920793331566496
40
0.920793331566496
40
0.930001264882161
40
0.930001264882161
40
0.939209198197826
40
0.939209198197826
40
0.957625064829158
40
0.957625064829158
40
0.994456798091822
40
0.994456798091822
40
1
40
1
40
1
40
1
41
1
10
41.2914050158571
20
1.83204675924804
30
0
41
1
10
41.3305812715365
20
1.801748128605
30
0
41
1
10
41.3696797253727
20
1.771227325881
30
0
41
1
10
41.4478373314735
20
1.70986357711666
30
0
41
1
10
41.5650930909854
20
1.61741777764521
30
0
41
1
10
41.6822866918457
20
1.52365647441656
30
0
41
1
10
41.9167221414171
20
1.33454186079496
30
0
41
1
10
42.0731192566214
20
1.20639404100263
30
0
41
1
10
42.386123388744
20
0.945989910272658
30
0
41
1
10
42.5427442759327
20
0.81374833370441
30
0
41
1
10
42.777962997043
20
0.61238231628181
30
0
41
1
10
42.8564057048542
20
0.54474549354444
30
0
41
1
10
42.97415692783
20
0.44253727369184
30
0
41
1
10
43.0134430860688
20
0.408324395269943
30
0
41
1
10
43.0920034256177
20
0.339786216526676
30
0
41
1
10
43.1312505589822
20
0.30555149055661
30
0
41
1
10
43.2489702331927
20
0.203039488508551
30
0
41
1
10
43.3273041423765
20
0.134815164278791
30
0
41
1
10
43.4839224728115
20
-0.0011252420622441
30
0
41
1
10
43.5621724931219
20
-0.0688824691021921
30
0
41
1
10
43.7966377500671
20
-0.271654533477914
30
0
41
1
10
43.9526452238927
20
-0.406080849242357
30
0
41
1
10
44.2641594684922
20
-0.673319895538782
30
0
41
1
10
44.4195969032223
20
-0.806210950077627
30
0
41
1
10
44.6138792679751
20
-0.970949355041029
30
0
41
1
10
44.6527333917684
20
-1.00383006387199
30
0
41
1
10
44.7304309927079
20
-1.06946313179344
30
0
41
1
10
44.7692617310318
20
-1.10222966540792
30
0
41
1
10
44.8860731062548
20
-1.1999586541063
30
0
41
1
10
44.9642147161142
20
-1.26452954344805
30
0
41
1
10
45.1208538170426
20
-1.39270693577723
30
0
41
1
10
45.1993872614008
20
-1.45627300437099
30
0
41
1
10
45.3175493907003
20
-1.55078847827906
30
0
41
1
10
45.3570294885955
20
-1.58217944376489
30
0
41
1
10
45.4359636734394
20
-1.64454934506236
30
0
41
1
10
45.4753823862992
20
-1.67550068078793
30
0
41
1
10
45.6722517456924
20
-1.82908315492668
30
0
41
1
10
45.8290448398554
20
-1.94818804625245
30
0
41
1
10
46.0631539384589
20
-2.12134930025184
30
0
41
1
10
46.14102031061
20
-2.1781408088255
30
0
41
1
10
46.2964688100438
20
-2.2898089825884
30
0
41
1
10
46.3739713121802
20
-2.34475851091631
30
0
41
1
10
46.6067918616563
20
-2.5060340456759
30
0
41
1
10
46.7623544518269
20
-2.60887433240322
30
0
41
1
10
47.0742521684383
20
-2.80521563333284
30
0
41
1
10
47.2305867459951
20
-2.89871502402073
30
0
41
1
10
47.465875369498
20
-3.0316682705643
30
0
41
1
10
47.5444286561446
20
-3.07477419979696
30
0
41
1
10
47.6624695054072
20
-3.13756298082154
30
0
41
1
10
47.7018905359811
20
-3.15819608433972
30
0
41
1
10
47.7806563889928
20
-3.19871340664173
30
0
41
1
10
47.8199780058454
20
-3.21858691277004
30
0
41
1
10
47.8984951046992
20
-3.25757120148577
30
0
41
1
10
47.9376957322555
20
-3.27667872474581
30
0
41
1
10
48.0159279558782
20
-3.31416163457337
30
0
41
1
10
48.0549425094603
20
-3.33254662073369
30
0
41
1
10
48.172061435862
20
-3.38639911972581
30
0
41
1
10
48.2501600941416
20
-3.42062242689846
30
0
41
1
10
48.4841832334261
20
-3.5185499623249
30
0
41
1
10
48.6399755870245
20
-3.57743005582216
30
0
41
1
10
48.951475961348
20
-3.6823919947359
30
0
41
1
10
49.1071508370496
20
-3.72848882844411
30
0
41
1
10
49.3408133788858
20
-3.78786486975073
30
0
41
1
10
49.4187265496168
20
-3.80602670235535
30
0
41
1
10
49.5746286664212
20
-3.83903779134852
30
0
41
1
10
49.6525787033356
20
-3.85389577926443
30
0
41
1
10
49.8087551493983
20
-3.88018499477462
30
0
41
1
10
49.8871522967314
20
-3.89158019440933
30
0
41
1
10
50.0051939837907
20
-3.90604712937372
30
0
41
1
10
50.0446491139198
20
-3.91043492427613
30
0
41
1
10
50.1235348475386
20
-3.91831406970707
30
0
41
1
10
50.1629382614778
20
-3.9218036373174
30
0
41
1
10
50.3597551332629
20
-3.93702581977746
30
0
41
1
10
50.5165502864027
20
-3.94209614060225
30
0
41
1
10
50.8291151796702
20
-3.93834669631528
30
0
41
1
10
50.9848510300256
20
-3.92952731905149
30
0
41
1
10
51.2177720440419
20
-3.90585068867992
30
0
41
1
10
51.2952658169194
20
-3.89620682505108
30
0
41
1
10
51.4503068300612
20
-3.87344846182788
30
0
41
1
10
51.5279940364227
20
-3.86036447053942
30
0
41
1
10
51.7615982315597
20
-3.81605453495572
30
0
41
1
10
51.9179219748551
20
-3.77974667480692
30
0
41
1
10
52.1534589193067
20
-3.71509758338652
30
0
41
1
10
52.2321418391138
20
-3.69184605898539
30
0
41
1
10
52.3504144960177
20
-3.65437042562166
30
0
41
1
10
52.3899166920396
20
-3.64143332794785
30
0
41
1
10
52.4688261260407
20
-3.61475044360458
30
0
41
1
10
52.5869863475955
20
-3.57353601364994
30
0
41
1
10
52.7045625048202
20
-3.528783356926
30
0
41
1
10
52.8608371381233
20
-3.46599638354033
30
0
41
1
10
52.9387039463148
20
-3.43303047461797
30
0
41
1
10
53.0552187156348
20
-3.38129017132351
30
0
41
1
10
53.094025639631
20
-3.36367076349595
30
0
41
1
10
53.1717046845965
20
-3.32777016291243
30
0
41
1
10
53.2105723753761
20
-3.30948684405317
30
0
41
1
10
53.3272249266153
20
-3.25362741749009
30
0
41
1
10
53.4050459097164
20
-3.21503381087939
30
0
41
1
10
53.6386250939209
20
-3.095211776041
30
0
41
1
10
53.7944628781319
20
-3.00992451591424
30
0
41
1
10
53.9739729816601
20
-2.9056309928236
30
0
41
1
10
53.9974595327233
20
-2.8918665409937
30
0
41
1
10
54.0209505131944
20
-2.8779801627289
30
0
0
SPLINE
5
146
100
AcDbEntity
8
1
62
256
6
ByLayer
370
18
48
1
60
0
100
AcDbSpline
70
4
71
3
72
22
73
18
40
0
40
0
40
0
40
0
40
0.153416208485595
40
0.153416208485595
40
0.365062156364196
40
0.365062156364196
40
0.470885130303497
40
0.470885130303497
40
0.576708104242798
40
0.576708104242798
40
0.682531078182098
40
0.682531078182098
40
0.788354052121399
40
0.788354052121399
40
0.894177026060699
40
0.894177026060699
40
1
40
1
40
1
40
1
41
1
10
65.042561540317
20
4.12104593849779
30
0
41
1
10
65.0555607017764
20
4.11793247192631
30
0
41
1
10
65.0688396017601
20
4.11581754625604
30
0
41
1
10
65.1004340454553
20
4.11331039956056
30
0
41
1
10
65.1188724273936
20
4.11381177994352
30
0
41
1
10
65.1466688100441
20
4.117833281391
30
0
41
1
10
65.1559575579434
20
4.11972382689638
30
0
41
1
10
65.174577131608
20
4.12475311638204
30
0
41
1
10
65.1837746067482
20
4.12785738701746
30
0
41
1
10
65.2018678025009
20
4.13533644147782
30
0
41
1
10
65.2107712653847
20
4.1397117588474
30
0
41
1
10
65.2282398484761
20
4.1499293000671
30
0
41
1
10
65.2368663517106
20
4.15582369745633
30
0
41
1
10
65.2532926880427
20
4.16907957329423
30
0
41
1
10
65.2611103885032
20
4.17643425472596
30
0
41
1
10
65.275815141276
20
4.19285330835891
30
0
41
1
10
65.2827456277296
20
4.20199023334703
30
0
41
1
10
65.2889333442204
20
4.21196722345078
30
0
0
SPLINE
5
147
100
AcDbEntity
8
1
62
256
6
ByLayer
370
18
48
1
60
0
100
AcDbSpline
70
4
71
3
72
10
73
6
40
0
40
0
40
0
40
0
40
0.5
40
0.5
40
1
40
1
40
1
40
1
41
1
10
65.2889333442204
20
4.21196722345081
30
0
41
1
10
65.3755327990521
20
4.35159900928491
30
0
41
1
10
65.4612158247213
20
4.48781188736837
30
0
41
1
10
65.6312927259799
20
4.75337383703371
30
0
41
1
10
65.71537535533
20
4.88223418658771
30
0
41
1
10
65.7987035210244
20
5.00705859916431
30
0
0
SPLINE
5
148
100
AcDbEntity
8
1
62
256
6
ByLayer
370
18
48
1
60
0
100
AcDbSpline
70
4
71
3
72
10
73
6
40
0
40
0
40
0
40
0
40
0.5
40
0.5
40
1
40
1
40
1
40
1
41
1
10
65.9497216376573
20
4.97658466092548
30
0
41
1
10
65.9246075276724
20
4.98211872648665
30
0
41
1
10
65.8994611711554
20
4.98742698551095
30
0
41
1
10
65.8491017250039
20
4.99758960114312
30
0
41
1
10
65.8238847061043
20
5.00244429038702
30
0
41
1
10
65.7987035210244
20
5.00705859916431
30
0
0
SPLINE
5
149
100
AcDbEntity
8
1
62
256
6
ByLayer
370
18
48
1
60
0
100
AcDbSpline
70
4
71
3
72
14
73
10
40
0
40
0
40
0
40
0
40
0.25
40
0.25
40
0.5
40
0.5
40
0.75
40
0.75
40
1
40
1
40
1
40
1
41
1
10
65.9497216376551
20
4.97658466091343
30
0
41
1
10
65.9927669078698
20
4.89666376248434
30
0
41
1
10
66.0359801133498
20
4.81585375641464
30
0
41
1
10
66.1228167757276
20
4.65245916434117
30
0
41
1
10
66.1664608583115
20
4.5698343012476
30
0
41
1
10
66.2541075532252
20
4.40305666729193
30
0
41
1
10
66.2981117771942
20
4.31888857177469
30
0
41
1
10
66.3865968807081
20
4.14907324197264
30
0
41
1
10
66.4310574049893
20
4.06346997215985
30
0
41
1
10
66.4757619013873
20
3.9772032616917
30
0
0
SPLINE
5
14A
100
AcDbEntity
8
1
62
256
6
ByLayer
370
18
48
1
60
0
100
AcDbSpline
70
4
71
3
72
30
73
26
40
0
40
0
40
0
40
0
40
0.125000000000089
40
0.125000000000089
40
0.187500000000114
40
0.187500000000114
40
0.250000000000138
40
0.250000000000138
40
0.375000000000142
40
0.375000000000142
40
0.500000000000145
40
0.500000000000145
40
0.625000000000148
40
0.625000000000148
40
0.687500000000124
40
0.687500000000124
40
0.750000000000099
40
0.750000000000099
40
0.812500000000074
40
0.812500000000074
40
0.875000000000049
40
0.875000000000049
40
0.937500000000025
40
0.937500000000025
40
1
40
1
40
1
40
1
41
1
10
66.4757619013873
20
3.9772032616917
30
0
41
1
10
66.4869375620645
20
3.95563747834535
30
0
41
1
10
66.4999093520872
20
3.93629981704294
30
0
41
1
10
66.521330602154
20
3.90970078576601
30
0
41
1
10
66.5288185755113
20
3.90123622881006
30
0
41
1
10
66.5443748033653
20
3.88512490268181
30
0
41
1
10
66.5523471466582
20
3.87757489697023
30
0
41
1
10
66.5767825612587
20
3.85628473170047
30
0
41
1
10
66.5937583251617
20
3.84388745619731
30
0
41
1
10
66.6289358021272
20
3.8224166984383
30
0
41
1
10
66.6472560755764
20
3.81332656022127
30
0
41
1
10
66.6838873249473
20
3.79916621427927
30
0
41
1
10
66.7023231936421
20
3.79399325676769
30
0
41
1
10
66.7301137022125
20
3.78939772431335
30
0
41
1
10
66.7394001362454
20
3.78839814155171
30
0
41
1
10
66.7580142502966
20
3.78760240232879
30
0
41
1
10
66.7672051821763
20
3.78781331745853
30
0
41
1
10
66.7852894771705
20
3.7895578804648
30
0
41
1
10
66.7941886685491
20
3.79108978341799
30
0
41
1
10
66.8116491351405
20
3.79567222601807
30
0
41
1
10
66.8202716268295
20
3.79875446608534
30
0
41
1
10
66.8366913357239
20
3.80658193638717
30
0
41
1
10
66.844506444326
20
3.81131521691796
30
0
41
1
10
66.8592074596853
20
3.82271002283056
30
0
41
1
10
66.8661369378376
20
3.82942821175135
30
0
41
1
10
66.8723253843289
20
3.83718415736737
30
0
0
SPLINE
5
14B
100
AcDbEntity
8
1
62
256
6
ByLayer
370
18
48
1
60
0
100
AcDbSpline
70
4
71
3
72
10
73
6
40
0
40
0
40
0
40
0
40
0.5
40
0.5
40
1
40
1
40
1
40
1
41
1
10
66.8723253843289
20
3.83718415736749
30
0
41
1
10
66.958923672677
20
3.94571731117421
30
0
41
1
10
67.0446057553761
20
4.04851103478501
30
0
41
1
10
67.2146928468069
20
4.24282462430798
30
0
41
1
10
67.2987909880521
20
4.33398832040436
30
0
41
1
10
67.382146441294
20
4.41914054891615
30
0
0
SPLINE
5
14C
100
AcDbEntity
8
1
62
256
6
ByLayer
370
18
48
1
60
0
100
AcDbSpline
70
4
71
3
72
8
73
4
40
0
40
0
40
0
40
0
40
1
40
1
40
1
40
1
41
1
10
67.3844060404176
20
4.41789871156487
30
0
41
1
10
67.3836528330007
20
4.41831284762409
30
0
41
1
10
67.3828996332918
20
4.41872679339966
30
0
41
1
10
67.382146441294
20
4.41914054891612
30
0
0
SPLINE
5
14D
100
AcDbEntity
8
1
62
256
6
ByLayer
370
18
48
1
60
0
100
AcDbSpline
70
4
71
3
72
8
73
4
40
0
40
0
40
0
40
0
40
1
40
1
40
1
40
1
41
1
10
67.3844060404176
20
4.41789871156456
30
0
41
1
10
67.4422469123861
20
4.37321513241886
30
0
41
1
10
67.5002573855581
20
4.32753125798959
30
0
41
1
10
67.5584459465522
20
4.28083753763354
30
0
0
SPLINE
5
14E
100
AcDbEntity
8
1
62
256
6
ByLayer
370
18
48
1
60
0
100
AcDbSpline
70
4
71
3
72
12
73
8
40
0
40
0
40
0
40
0
40
0.250000000000004
40
0.250000000000004
40
0.500000000000008
40
0.500000000000008
40
1
40
1
40
1
40
1
41
1
10
67.5584459465526
20
4.28083753763374
30
0
41
1
10
67.5994533779446
20
4.19507727786552
30
0
41
1
10
67.6406161230068
20
4.10917609471002
30
0
41
1
10
67.7233141297041
20
3.93711661870574
30
0
41
1
10
67.7648673101645
20
3.85092052991393
30
0
41
1
10
67.8900231366096
20
3.59232713212413
30
0
41
1
10
67.974139449235
20
3.41985882221576
30
0
41
1
10
68.0591101282513
20
3.24806958051508
30
0
0
SPLINE
5
14F
100
AcDbEntity
8
1
62
256
6
ByLayer
370
18
48
1
60
0
100
AcDbSpline
70
4
71
3
72
30
73
26
40
0
40
0
40
0
40
0
40
0.12500000000009
40
0.12500000000009
40
0.187500000000115
40
0.187500000000115
40
0.25000000000014
40
0.25000000000014
40
0.375000000000142
40
0.375000000000142
40
0.500000000000145
40
0.500000000000145
40
0.625000000000148
40
0.625000000000148
40
0.687500000000123
40
0.687500000000123
40
0.750000000000099
40
0.750000000000099
40
0.812500000000074
40
0.812500000000074
40
0.875000000000049
40
0.875000000000049
40
0.937500000000025
40
0.937500000000025
40
1
40
1
40
1
40
1
41
1
10
68.0591101282525
20
3.24806958051363
30
0
41
1
10
68.0702913896873
20
3.22546389529006
30
0
41
1
10
68.0832689100981
20
3.20430576033576
30
0
41
1
10
68.1046980054593
20
3.1741428861715
30
0
41
1
10
68.112188616965
20
3.16434489219358
30
0
41
1
10
68.1277496184655
20
3.14530875388945
30
0
41
1
10
68.1357241747984
20
3.13618550422314
30
0
41
1
10
68.1601658287562
20
3.10987566220069
30
0
41
1
10
68.1771452614662
20
3.0937361092135
30
0
41
1
10
68.2123291212287
20
3.06402913117697
30
0
41
1
10
68.2306517417272
20
3.05041093887985
30
0
41
1
10
68.2672862094024
20
3.02669016438816
30
0
41
1
10
68.2857231650318
20
3.01645915414088
30
0
41
1
10
68.3135134936115
20
3.00378933727862
30
0
41
1
10
68.3227995569476
20
3.00001632743428
30
0
41
1
10
68.3414119951481
20
2.99348367802816
30
0
41
1
10
68.3506008526994
20
2.99077330495973
30
0
41
1
10
68.3686811529495
20
2.98656622064704
30
0
41
1
10
68.3775779623922
20
2.9850663694869
30
0
41
1
10
68.3950327125711
20
2.98345267773703
30
0
41
1
10
68.403651904775
20
2.98334624883688
30
0
41
1
10
68.4200661366437
20
2.98478946471778
30
0
41
1
10
68.4278782298318
20
2.98632339847728
30
0
41
1
10
68.4425729590377
20
2.99130136089914
30
0
41
1
10
68.4494993635347
20
2.99477909403993
30
0
41
1
10
68.4556867352499
20
2.99936378141152
30
0
0
SPLINE
5
150
100
AcDbEntity
8
1
62
256
6
ByLayer
370
18
48
1
60
0
100
AcDbSpline
70
4
71
3
72
10
73
6
40
0
40
0
40
0
40
0
40
0.5
40
0.5
40
1
40
1
40
1
40
1
41
1
10
68.4556867352499
20
2.99936378141172
30
0
41
1
10
68.5087323046928
20
3.03866921892853
30
0
41
1
10
68.5614328888736
20
3.07519258794787
30
0
41
1
10
68.6662777445207
20
3.14279761482732
30
0
41
1
10
68.7184638758004
20
3.17389983263922
30
0
41
1
10
68.77029864118
20
3.20223787240997
30
0
0
SPLINE
5
151
100
AcDbEntity
8
1
62
256
6
ByLayer
370
18
48
1
60
0
100
AcDbSpline
70
4
71
3
72
10
73
6
40
0
40
0
40
0
40
0
40
0.5
40
0.5
40
1
40
1
40
1
40
1
41
1
10
68.7702986411801
20
3.20223787240974
30
0
41
1
10
68.8761246572594
20
3.10086438274229
30
0
41
1
10
68.9823241379839
20
2.9976515740214
30
0
41
1
10
69.1956055601769
20
2.78777053336566
30
0
41
1
10
69.3026835901587
20
2.68110990552586
30
0
41
1
10
69.41027528683
20
2.57275622083441
30
0
0
SPLINE
5
152
100
AcDbEntity
8
1
62
256
6
ByLayer
370
18
48
1
60
0
100
AcDbSpline
70
4
71
3
72
8
73
4
40
0
40
0
40
0
40
0
40
1
40
1
40
1
40
1
41
1
10
69.41027528683
20
2.57275622083441
30
0
41
1
10
69.48706110518
20
2.42163989293365
30
0
41
1
10
69.5644308228202
20
2.27279480796818
30
0
41
1
10
69.6424627866221
20
2.12687991995256
30
0
0
SPLINE
5
153
100
AcDbEntity
8
1
62
256
6
ByLayer
370
18
48
1
60
0
100
AcDbSpline
70
4
71
3
72
30
73
26
40
0
40
0
40
0
40
0
40
0.125
40
0.125
40
0.1875
40
0.1875
40
0.25
40
0.25
40
0.375
40
0.375
40
0.5
40
0.5
40
0.625
40
0.625
40
0.6875
40
0.6875
40
0.75
40
0.75
40
0.8125
40
0.8125
40
0.875
40
0.875
40
0.9375
40
0.9375
40
1
40
1
40
1
40
1
41
1
10
69.6424627866232
20
2.12687991995162
30
0
41
1
10
69.6536530258055
20
2.10595487311764
30
0
41
1
10
69.6666388326668
20
2.0855150150602
30
0
41
1
10
69.6880784785021
20
2.05540342798548
30
0
41
1
10
69.6955727665753
20
2.04544518504176
30
0
41
1
10
69.7111402039262
20
2.02576531797189
30
0
41
1
10
69.7191183680023
20
2.01616190104929
30
0
41
1
10
69.7435717236175
20
1.98798436329881
30
0
41
1
10
69.7605603618399
20
1.97003596875356
30
0
41
1
10
69.7957588618164
20
1.93564649783144
30
0
41
1
10
69.8140855266471
20
1.91912618973785
30
0
41
1
10
69.8507226767464
20
1.88866738715717
30
0
41
1
10
69.8691585863515
20
1.87459016667842
30
0
41
1
10
69.8969438442915
20
1.85533661357743
30
0
41
1
10
69.9062276276402
20
1.84923199401064
30
0
41
1
10
69.9248342662369
20
1.83772249234914
30
0
41
1
10
69.9340197084385
20
1.83240330263277
30
0
41
1
10
69.952093556462
20
1.82272197136993
30
0
41
1
10
69.9609871134778
20
1.8183557734063
30
0
41
1
10
69.9784353849264
20
1.81070927301073
30
0
41
1
10
69.9870513767983
20
1.80741105613868
30
0
41
1
10
70.0034620870975
20
1.8022635289241
30
0
41
1
10
70.0112728078475
20
1.80039732203179
30
0
41
1
10
70.0259655601554
20
1.79832862610485
30
0
41
1
10
70.0328915839457
20
1.79813268544837
30
0
41
1
10
70.0390804035412
20
1.79897934547617
30
0
0
SPLINE
5
154
100
AcDbEntity
8
1
62
256
6
ByLayer
370
18
48
1
60
0
100
AcDbSpline
70
4
71
3
72
8
73
4
40
0
40
0
40
0
40
0
40
1
40
1
40
1
40
1
41
1
10
70.0390804035412
20
1.79897934547642
30
0
41
1
10
70.0790548449594
20
1.8044480396531
30
0
41
1
10
70.1188337267449
20
1.80818171488539
30
0
41
1
10
70.1584455172429
20
1.81021601720519
30
0
0
SPLINE
5
155
100
AcDbEntity
8
1
62
256
6
ByLayer
370
18
48
1
60
0
100
AcDbSpline
70
4
71
3
72
12
73
8
40
0
40
0
40
0
40
0
40
0.499999999999991
40
0.499999999999991
40
0.749999999999995
40
0.749999999999995
40
1
40
1
40
1
40
1
41
1
10
70.1584455172429
20
1.81021601720511
30
0
41
1
10
70.3450758602674
20
1.61955287946191
30
0
41
1
10
70.5323069762309
20
1.42867992931079
30
0
41
1
10
70.8148398695401
20
1.14289573325277
30
0
41
1
10
70.9092763196658
20
1.04769999988579
30
0
41
1
10
71.0987974245421
20
0.857571824061296
30
0
41
1
10
71.1938882024041
20
0.762645200048269
30
0
41
1
10
71.2894385262985
20
0.667981967274244
30
0
0
SPLINE
5
156
100
AcDbEntity
8
1
62
256
6
ByLayer
370
18
48
1
60
0
100
AcDbSpline
70
4
71
3
72
16
73
12
40
0
40
0
40
0
40
0
40
0.249999999999907
40
0.249999999999907
40
0.499999999999815
40
0.499999999999815
40
0.624999999999829
40
0.624999999999829
40
0.749999999999844
40
0.749999999999844
40
1
40
1
40
1
40
1
41
1
10
71.2894385262982
20
0.667981967274272
30
0
41
1
10
71.3020495818358
20
0.653550977473031
30
0
41
1
10
71.3151504366122
20
0.639241669723447
30
0
41
1
10
71.3421888712049
20
0.610820733546404
30
0
41
1
10
71.3561277348321
20
0.596709238169865
30
0
41
1
10
71.3776289872162
20
0.575664319667396
30
0
41
1
10
71.3849193462391
20
0.568647386985674
30
0
41
1
10
71.3995786767411
20
0.554765546715174
30
0
41
1
10
71.4069302511445
20
0.547916268961814
30
0
41
1
10
71.4290429325904
20
0.527633646922112
30
0
41
1
10
71.4438617031777
20
0.514463218228258
30
0
41
1
10
71.4587407340659
20
0.501644892131793
30
0
0
SPLINE
5
157
100
AcDbEntity
8
1
62
256
6
ByLayer
370
18
48
1
60
0
100
AcDbSpline
70
4
71
3
72
8
73
4
40
0
40
0
40
0
40
0
40
1
40
1
40
1
40
1
41
1
10
71.458740734066
20
0.501644892131992
30
0
41
1
10
71.5056216731604
20
0.455966623937428
30
0
41
1
10
71.5526896363546
20
0.410426914012646
30
0
41
1
10
71.5999999285112
20
0.365079776229436
30
0
0
SPLINE
5
158
100
AcDbEntity
8
1
62
256
6
ByLayer
370
18
48
1
60
0
100
AcDbSpline
70
4
71
3
72
12
73
8
40
0
40
0
40
0
40
0
40
0.25
40
0.25
40
0.5
40
0.5
40
1
40
1
40
1
40
1
41
1
10
71.5999999285112
20
0.365079776229436
30
0
41
1
10
71.631903881523
20
0.328272842980596
30
0
41
1
10
71.6641173676442
20
0.292456303398126
30
0
41
1
10
71.7292893845536
20
0.222953687609817
30
0
41
1
10
71.762258947472
20
0.189230269298918
30
0
41
1
10
71.862241260245
20
0.0915121408433208
30
0
41
1
10
71.9303394036872
20
0.0309592415840996
30
0
41
1
10
72
20
-0.0242331333451773
30
0
0
SPLINE
5
159
100
AcDbEntity
8
1
62
256
6
ByLayer
370
18
48
1
60
0
100
AcDbSpline
70
4
71
3
72
53
73
49
40
0
40
0
40
0
40
0
40
0.0625000000000003
40
0.0625000000000003
40
0.0781250000000005
40
0.0781250000000005
40
0.0937500000000006
40
0.0937500000000006
40
0.125000000000001
40
0.125000000000001
40
0.187500000000001
40
0.187500000000001
40
0.218750000000001
40
0.218750000000001
40
0.234375000000001
40
0.234375000000001
40
0.250000000000001
40
0.250000000000001
40
0.375000000000001
40
0.375000000000001
40
0.500000000000001
40
0.500000000000001
40
0.625000000000001
40
0.625000000000001
40
0.656250000000001
40
0.656250000000001
40
0.687500000000001
40
0.687500000000001
40
0.750000000000001
40
0.750000000000001
40
0.765625000000001
40
0.765625000000001
40
0.781250000000001
40
0.781250000000001
40
0.812500000000001
40
0.84375
40
0.84375
40
0.859375
40
0.859375
40
0.875
40
0.875
40
0.9375
40
0.9375
40
0.953125
40
0.953125
40
0.96875
40
0.96875
40
1
40
1
40
1
40
1
41
1
10
72
20
-0.0242331333451205
30
0
41
1
10
72.0000000000001
20
-0.0221481112216111
30
0
41
1
10
72
20
-0.0110635184795171
30
0
41
1
10
72
20
0.0148717308998982
30
0
41
1
10
72
20
0.0206857286629827
30
0
41
1
10
71.9999999999999
20
0.0334155251881327
30
0
41
1
10
71.9999999999999
20
0.0403350645733553
30
0
41
1
10
71.9999999999999
20
0.0627219743685146
30
0
41
1
10
72.0000000000001
20
0.079812732954764
30
0
41
1
10
72
20
0.137497736675016
30
0
41
1
10
72
20
0.184414540602916
30
0
41
1
10
72
20
0.267561933857848
30
0
41
1
10
72
20
0.297451889464753
30
0
41
1
10
72
20
0.345580023448036
30
0
41
1
10
72
20
0.362197787870343
30
0
41
1
10
72
20
0.395366608560437
30
0
41
1
10
72
20
0.41207185468528
30
0
41
1
10
72
20
0.563571346321481
30
0
41
1
10
72
20
0.70598683110245
30
0
41
1
10
72
20
1.00594127637888
30
0
41
1
10
72
20
1.16345993920163
30
0
41
1
10
72
20
1.49357574689023
30
0
41
1
10
72.0000000000001
20
1.66616302107408
30
0
41
1
10
72.0000000000001
20
1.89152937131016
30
0
41
1
10
72
20
1.93708400881061
30
0
41
1
10
72
20
2.02916543287529
30
0
41
1
10
72.0000000000001
20
2.07573730172979
30
0
41
1
10
72
20
2.21634229353214
30
0
41
1
10
72
20
2.31141284753377
30
0
41
1
10
71.9999999999999
20
2.43184550838774
30
0
41
1
10
72
20
2.45596463231917
30
0
41
1
10
72
20
2.50482595242562
30
0
41
1
10
72
20
2.52959966510628
30
0
41
1
10
72
20
2.60486991719404
30
0
41
1
10
72
20
2.70775399183475
30
0
41
1
10
71.9999999999999
20
2.81572525598622
30
0
41
1
10
72
20
2.89872262795015
30
0
41
1
10
72
20
2.92681298598146
30
0
41
1
10
72
20
2.9831118193195
30
0
41
1
10
72
20
3.0113424525365
30
0
41
1
10
72
20
3.15289224521078
30
0
41
1
10
72
20
3.2673943170789
30
0
41
1
10
72
20
3.41209611631911
30
0
41
1
10
72
20
3.441115226665
30
0
41
1
10
72
20
3.4993131874991
30
0
41
1
10
72.0000000000001
20
3.52852787566681
30
0
41
1
10
72.0000000000001
20
3.61618645625913
30
0
41
1
10
72
20
3.67402735810296
30
0
41
1
10
72
20
3.73129338088197
30
0
0
SPLINE
5
15A
100
AcDbEntity
8
1
62
256
6
ByLayer
370
18
48
1
60
0
100
AcDbSpline
70
4
71
3
72
12
73
8
40
0
40
0
40
0
40
0
40
0.499999999999979
40
0.499999999999979
40
0.749999999999989
40
0.749999999999989
40
1
40
1
40
1
40
1
41
1
10
72
20
3.73129338088197
30
0
41
1
10
71.9343614819783
20
3.79924007983769
30
0
41
1
10
71.8682012590615
20
3.86676686671944
30
0
41
1
10
71.7681916155697
20
3.96764107120862
30
0
41
1
10
71.7347304177101
20
4.00119306001471
30
0
41
1
10
71.6675232706232
20
4.06822789916427
30
0
41
1
10
71.6337109174927
20
4.10178345573647
30
0
41
1
10
71.6000000656059
20
4.13506407339301
30
0
0
SPLINE
5
15B
100
AcDbEntity
8
1
62
256
6
ByLayer
370
18
48
1
60
0
100
AcDbSpline
70
4
71
3
72
8
73
4
40
0
40
0
40
0
40
0
40
1
40
1
40
1
40
1
41
1
10
71.6000000656059
20
4.13506407339301
30
0
41
1
10
71.481224313642
20
4.16304238584954
30
0
41
1
10
71.3634774916869
20
4.18704481062179
30
0
41
1
10
71.2465502705309
20
4.20711720535155
30
0
0
SPLINE
5
15C
100
AcDbEntity
8
1
62
256
6
ByLayer
370
18
48
1
60
0
100
AcDbSpline
70
4
71
3
72
30
73
26
40
0
40
0
40
0
40
0
40
0.124999999999982
40
0.124999999999982
40
0.187499999999972
40
0.187499999999972
40
0.249999999999962
40
0.249999999999962
40
0.374999999999941
40
0.374999999999941
40
0.499999999999921
40
0.499999999999921
40
0.624999999999901
40
0.624999999999901
40
0.687499999999917
40
0.687499999999917
40
0.749999999999934
40
0.749999999999934
40
0.81249999999995
40
0.81249999999995
40
0.874999999999967
40
0.874999999999967
40
0.937499999999983
40
0.937499999999983
40
1
40
1
40
1
40
1
41
1
10
71.2465502705309
20
4.20711720535147
30
0
41
1
10
71.2353148703435
20
4.18980064202444
30
0
41
1
10
71.2225167795419
20
4.17467928930785
30
0
41
1
10
71.2014927162216
20
4.15453888960062
30
0
41
1
10
71.1941390570503
20
4.14823358813075
30
0
41
1
10
71.179050400438
20
4.13660120031955
30
0
41
1
10
71.1713163770257
20
4.13126703530801
30
0
41
1
10
71.1475938739353
20
4.11659687963311
30
0
41
1
10
71.1310897786535
20
4.10857647613975
30
0
41
1
10
71.0967884369404
20
4.09593851030314
30
0
41
1
10
71.0788804333453
20
4.09133250367012
30
0
41
1
10
71.0429789666523
20
4.0860553016071
30
0
41
1
10
71.0248601220628
20
4.08531018836544
30
0
41
1
10
70.9974538428823
20
4.08742985478787
30
0
41
1
10
70.9882800119308
20
4.08868104820539
30
0
41
1
10
70.9698543147084
20
4.09243338806365
30
0
41
1
10
70.9606350692947
20
4.09493628479922
30
0
41
1
10
70.9425640654254
20
4.10124632943729
30
0
41
1
10
70.9336633808961
20
4.10506041197925
30
0
41
1
10
70.9161841910908
20
4.11421812621938
30
0
41
1
10
70.9075407859696
20
4.11961275725787
30
0
41
1
10
70.8910745115965
20
4.13197584202848
30
0
41
1
10
70.8832374951144
20
4.13893268591983
30
0
41
1
10
70.8684991442776
20
4.15467769341873
30
0
41
1
10
70.8615622445042
20
4.16353388667699
30
0
41
1
10
70.8554024931125
20
4.17325672555771
30
0
0
SPLINE
5
15D
100
AcDbEntity
8
1
62
256
6
ByLayer
370
18
48
1
60
0
100
AcDbSpline
70
4
71
3
72
8
73
4
40
0
40
0
40
0
40
0
40
1
40
1
40
1
40
1
41
1
10
70.8554024931104
20
4.17325672556098
30
0
41
1
10
70.8359058827492
20
4.20403108465734
30
0
41
1
10
70.8164515293257
20
4.23462043876299
30
0
41
1
10
70.7970372839852
20
4.26502254961284
30
0
0
SPLINE
5
15E
100
AcDbEntity
8
1
62
256
6
ByLayer
370
18
48
1
60
0
100
AcDbSpline
70
4
71
3
72
10
73
6
40
0
40
0
40
0
40
0
40
0.5
40
0.5
40
1
40
1
40
1
40
1
41
1
10
70.7970372839852
20
4.26502254961284
30
0
41
1
10
70.6399948281643
20
4.27835243062782
30
0
41
1
10
70.4842943049712
20
4.28416717578529
30
0
41
1
10
70.1745058604062
20
4.28046085653665
30
0
41
1
10
70.020428338071
20
4.2709389918557
30
0
41
1
10
69.8667112697296
20
4.2536524950655
30
0
0
SPLINE
5
15F
100
AcDbEntity
8
1
62
256
6
ByLayer
370
18
48
1
60
0
100
AcDbSpline
70
4
71
3
72
10
73
6
40
0
40
0
40
0
40
0
40
0.5
40
0.5
40
1
40
1
40
1
40
1
41
1
10
69.8667112697296
20
4.25365249506564
30
0
41
1
10
69.8338804100458
20
4.18831887572424
30
0
41
1
10
69.8009355201353
20
4.12256232667008
30
0
41
1
10
69.7348654357052
20
3.99038193087165
30
0
41
1
10
69.7017332062814
20
3.9239427355578
30
0
41
1
10
69.6684740553092
20
3.8571519582504
30
0
0
SPLINE
5
160
100
AcDbEntity
8
1
62
256
6
ByLayer
370
18
48
1
60
0
100
AcDbSpline
70
4
71
3
72
34
73
30
40
0
40
0
40
0
40
0
40
0.124999999999948
40
0.124999999999948
40
0.187499999999941
40
0.187499999999941
40
0.249999999999934
40
0.249999999999934
40
0.37499999999992
40
0.37499999999992
40
0.437499999999912
40
0.437499999999912
40
0.499999999999905
40
0.499999999999905
40
0.62499999999989
40
0.62499999999989
40
0.687499999999883
40
0.687499999999883
40
0.749999999999875
40
0.749999999999875
40
0.812499999999869
40
0.812499999999869
40
0.843749999999891
40
0.843749999999891
40
0.874999999999912
40
0.874999999999912
40
0.937499999999956
40
0.937499999999956
40
1
40
1
40
1
40
1
41
1
10
69.6684740553092
20
3.85715195825043
30
0
41
1
10
69.6575658007507
20
3.8352460833338
30
0
41
1
10
69.6449277433697
20
3.8152866701856
30
0
41
1
10
69.6240307397281
20
3.78750837137713
30
0
41
1
10
69.6167210037448
20
3.77860453774014
30
0
41
1
10
69.6015328875294
20
3.76155043975879
30
0
41
1
10
69.5937346071998
20
3.75348734021924
30
0
41
1
10
69.5697868952861
20
3.73056125990331
30
0
41
1
10
69.5530908771794
20
3.71694581639284
30
0
41
1
10
69.5270386344535
20
3.69888414012803
30
0
41
1
10
69.5181848829891
20
3.69326143588921
30
0
41
1
10
69.5001345407505
20
3.68283821192648
30
0
41
1
10
69.4910110953529
20
3.67808260109553
30
0
41
1
10
69.4635711931161
20
3.66529664328215
30
0
41
1
10
69.4450991168192
20
3.65867201812185
30
0
41
1
10
69.4171533199371
20
3.65192543120753
30
0
41
1
10
69.4077980042862
20
3.65021341230053
30
0
41
1
10
69.3890069117834
20
3.64801251675203
30
0
41
1
10
69.3795697487066
20
3.64753358900546
30
0
41
1
10
69.3610840672407
20
3.64799662479146
30
0
41
1
10
69.351980222551
20
3.64892799431883
30
0
41
1
10
69.3385731349902
20
3.65153829947661
30
0
41
1
10
69.3341457349745
20
3.65261155022841
30
0
41
1
10
69.3253839859349
20
3.65520744371429
30
0
41
1
10
69.3210470023721
20
3.65673360211747
30
0
41
1
10
69.3083968522739
20
3.66197549163047
30
0
41
1
10
69.3003737459328
20
3.6663644547676
30
0
41
1
10
69.2852975726545
20
3.67725639912371
30
0
41
1
10
69.2782058297794
20
3.68381737514946
30
0
41
1
10
69.2719213723187
20
3.69149183985161
30
0
0
SPLINE
5
161
100
AcDbEntity
8
1
62
256
6
ByLayer
370
18
48
1
60
0
100
AcDbSpline
70
4
71
3
72
10
73
6
40
0
40
0
40
0
40
0
40
0.5
40
0.5
40
1
40
1
40
1
40
1
41
1
10
69.2719213723167
20
3.69149183985527
30
0
41
1
10
69.2182727661045
20
3.75700653818694
30
0
41
1
10
69.1649483423194
20
3.82018434119197
30
0
41
1
10
69.0588283365372
20
3.9419318313447
30
0
41
1
10
69.0059863326103
20
4.00055687152752
30
0
41
1
10
68.9534995952247
20
4.05676225034347
30
0
0
SPLINE
5
162
100
AcDbEntity
8
1
62
256
6
ByLayer
370
18
48
1
60
0
100
AcDbSpline
70
4
71
3
72
8
73
4
40
0
40
0
40
0
40
0
40
1
40
1
40
1
40
1
41
1
10
68.9534995952245
20
4.0567622503435
30
0
41
1
10
68.7961751454496
20
4.00615070523153
30
0
41
1
10
68.640437926232
20
3.94730482875019
30
0
41
1
10
68.4857627715695
20
3.880533255286
30
0
0
SPLINE
5
163
100
AcDbEntity
8
1
62
256
6
ByLayer
370
18
48
1
60
0
100
AcDbSpline
70
4
71
3
72
12
73
8
40
0
40
0
40
0
40
0
40
0.572891723363416
40
0.572891723363416
40
0.859337585045114
40
0.859337585045114
40
1
40
1
40
1
40
1
41
1
10
68.4857627715695
20
3.880533255286
30
0
41
1
10
68.4198409098123
20
3.73898519019681
30
0
41
1
10
68.3534500590361
20
3.5971322526305
30
0
41
1
10
68.2532590750605
20
3.38467221233114
30
0
41
1
10
68.219744330188
20
3.31387125603049
30
0
41
1
10
68.169632162823
20
3.20848700776875
30
0
41
1
10
68.1531042773771
20
3.17380583853091
30
0
41
1
10
68.1365491219172
20
3.13915211992361
30
0
0
SPLINE
5
164
100
AcDbEntity
8
1
62
256
6
ByLayer
370
18
48
1
60
0
100
AcDbSpline
70
4
71
3
72
12
73
8
40
0
40
0
40
0
40
0
40
0.500000000000011
40
0.500000000000011
40
0.750000000000006
40
0.750000000000006
40
1
40
1
40
1
40
1
41
1
10
63.4657593927819
20
4.03364068877463
30
0
41
1
10
63.3824619753082
20
4.17976367443075
30
0
41
1
10
63.2999408350146
20
4.32596405569973
30
0
41
1
10
63.1769931104547
20
4.54521209786375
30
0
41
1
10
63.1361948162889
20
4.61820507493937
30
0
41
1
10
63.0550281377284
20
4.76377242790315
30
0
41
1
10
63.0146413269433
20
4.83638005120719
30
0
41
1
10
62.9744212524966
20
4.9088003742028
30
0
0
SPLINE
5
165
100
AcDbEntity
8
1
62
256
6
ByLayer
370
18
48
1
60
0
100
AcDbSpline
70
4
71
3
72
8
73
4
40
0
40
0
40
0
40
0
40
1
40
1
40
1
40
1
41
1
10
62.9744212524924
20
4.90880037422235
30
0
41
1
10
62.9072458129142
20
4.91759407627174
30
0
41
1
10
62.8400332539523
20
4.92457663852309
30
0
41
1
10
62.7727568520842
20
4.92976305577145
30
0
0
SPLINE
5
166
100
AcDbEntity
8
1
62
256
6
ByLayer
370
18
48
1
60
0
100
AcDbSpline
70
4
71
3
72
14
73
10
40
0
40
0
40
0
40
0
40
0.25
40
0.25
40
0.5
40
0.5
40
0.75
40
0.75
40
1
40
1
40
1
40
1
41
1
10
62.7727568520841
20
4.92976305577145
30
0
41
1
10
62.7322672586689
20
4.87673438055265
30
0
41
1
10
62.691623501985
20
4.82220972776761
30
0
41
1
10
62.6099691696778
20
4.71015372284973
30
0
41
1
10
62.568948162995
20
4.6526063874293
30
0
41
1
10
62.4866250215595
20
4.5346894969849
30
0
41
1
10
62.4452913945026
20
4.47427451562208
30
0
41
1
10
62.3623276547534
20
4.35069477603591
30
0
41
1
10
62.3207043614613
20
4.2875421925925
30
0
41
1
10
62.2789018176088
20
4.22301557371259
30
0
0
SPLINE
5
167
100
AcDbEntity
8
1
62
256
6
ByLayer
370
18
48
1
60
0
100
AcDbSpline
70
4
71
3
72
34
73
30
40
0
40
0
40
0
40
0
40
0.124999999999949
40
0.124999999999949
40
0.187499999999942
40
0.187499999999942
40
0.249999999999936
40
0.249999999999936
40
0.374999999999878
40
0.374999999999878
40
0.437499999999874
40
0.437499999999874
40
0.499999999999871
40
0.499999999999871
40
0.624999999999863
40
0.624999999999863
40
0.687499999999885
40
0.687499999999885
40
0.749999999999907
40
0.749999999999907
40
0.812499999999929
40
0.812499999999929
40
0.84374999999994
40
0.84374999999994
40
0.874999999999952
40
0.874999999999952
40
0.937499999999976
40
0.937499999999976
40
1
40
1
40
1
40
1
41
1
10
62.2789018176078
20
4.22301557371242
30
0
41
1
10
62.2679751712462
20
4.20614914692501
30
0
41
1
10
62.2553161803089
20
4.19183135901227
30
0
41
1
10
62.2343894474248
20
4.17316333602415
30
0
41
1
10
62.2270694844907
20
4.1674126686317
30
0
41
1
10
62.2118648858336
20
4.15685241444532
30
0
41
1
10
62.2040593035646
20
4.15209499711594
30
0
41
1
10
62.1800929452377
20
4.13924660832234
30
0
41
1
10
62.1633885971699
20
4.13256146952838
30
0
41
1
10
62.1373334547812
20
4.12520652039686
30
0
41
1
10
62.1284802941535
20
4.12320523138234
30
0
41
1
10
62.1104338155307
20
4.12013698771932
30
0
41
1
10
62.1013142815137
20
4.1190851625957
30
0
41
1
10
62.0738855191316
20
4.11740993782624
30
0
41
1
10
62.0554217657519
20
4.11822711883801
30
0
41
1
10
62.0274897601082
20
4.12273507304081
30
0
41
1
10
62.0181393871798
20
4.12478997691136
30
0
41
1
10
61.9993594719896
20
4.13016332313634
30
0
41
1
10
61.9899284504931
20
4.13349225824808
30
0
41
1
10
61.9714527429372
20
4.14143572029641
30
0
41
1
10
61.9623530597101
20
4.14606187541122
30
0
41
1
10
61.9489507564942
20
4.15413990327963
30
0
41
1
10
61.9445247076056
20
4.15702325844893
30
0
41
1
10
61.9357651260046
20
4.16321236549763
30
0
41
1
10
61.9314287332063
20
4.16652294030015
30
0
41
1
10
61.9187789353444
20
4.17698985773231
30
0
41
1
10
61.910754449154
20
4.18471989477405
30
0
41
1
10
61.8956727179181
20
4.20195990858861
30
0
41
1
10
61.8885764670388
20
4.21154548991407
30
0
41
1
10
61.8822869676677
20
4.22194628802089
30
0
0
SPLINE
5
168
100
AcDbEntity
8
1
62
256
6
ByLayer
370
18
48
1
60
0
100
AcDbSpline
70
4
71
3
72
10
73
6
40
0
40
0
40
0
40
0
40
0.5
40
0.5
40
1
40
1
40
1
40
1
41
1
10
61.8822869676678
20
4.22194628802094
30
0
41
1
10
61.8201116457663
20
4.32476416463888
30
0
41
1
10
61.7583730438727
20
4.42613478493413
30
0
41
1
10
61.6355822416484
20
4.62597657914418
30
0
41
1
10
61.5744987351902
20
4.72449661107979
30
0
41
1
10
61.5139117861458
20
4.8211617941457
30
0
0
SPLINE
5
169
100
AcDbEntity
8
1
62
256
6
ByLayer
370
18
48
1
60
0
100
AcDbSpline
70
4
71
3
72
8
73
4
40
0
40
0
40
0
40
0
40
1
40
1
40
1
40
1
41
1
10
61.5139117861395
20
4.82116179416815
30
0
41
1
10
61.3550246255071
20
4.78222280793506
30
0
41
1
10
61.196544241198
20
4.73419807202964
30
0
41
1
10
61.0379526027587
20
4.67753046425827
30
0
0
SPLINE
5
16A
100
AcDbEntity
8
1
62
256
6
ByLayer
370
18
48
1
60
0
100
AcDbSpline
70
4
71
3
72
10
73
6
40
0
40
0
40
0
40
0
40
0.5
40
0.5
40
1
40
1
40
1
40
1
41
1
10
61.0379526027587
20
4.67753046425824
30
0
41
1
10
60.9814860668416
20
4.57238736929383
30
0
41
1
10
60.924702552598
20
4.46550252325085
30
0
41
1
10
60.8104999252325
20
4.24857480640588
30
0
41
1
10
60.7531225114317
20
4.13861042666036
30
0
41
1
10
60.6954175355611
20
4.02722193795509
30
0
0
SPLINE
5
16B
100
AcDbEntity
8
1
62
256
6
ByLayer
370
18
48
1
60
0
100
AcDbSpline
70
4
71
3
72
34
73
30
40
0
40
0
40
0
40
0
40
0.124999999999952
40
0.124999999999952
40
0.187499999999948
40
0.187499999999948
40
0.249999999999943
40
0.249999999999943
40
0.374999999999934
40
0.374999999999934
40
0.437499999999905
40
0.437499999999905
40
0.499999999999875
40
0.499999999999875
40
0.624999999999867
40
0.624999999999867
40
0.687499999999889
40
0.687499999999889
40
0.749999999999911
40
0.749999999999911
40
0.812499999999933
40
0.812499999999933
40
0.843749999999944
40
0.843749999999944
40
0.874999999999955
40
0.874999999999955
40
0.937499999999977
40
0.937499999999977
40
1
40
1
40
1
40
1
41
1
10
60.6954175355608
20
4.02722193795455
30
0
41
1
10
60.6844865610356
20
4.00612176913762
30
0
41
1
10
60.6718223196182
20
3.98716908675186
30
0
41
1
10
60.6508870810067
20
3.96111356993271
30
0
41
1
10
60.6435641696172
20
3.95282111899809
30
0
41
1
10
60.6283536221276
20
3.93705603785912
30
0
41
1
10
60.6205451897031
20
3.92966259645229
30
0
41
1
10
60.5965708484009
20
3.90881290791472
30
0
41
1
10
60.5798619294224
20
3.89667076392436
30
0
41
1
10
60.5538018385958
20
3.8809430554401
30
0
41
1
10
60.5449473472131
20
3.87611924435694
30
0
41
1
10
60.5268989976147
20
3.86733728221986
30
0
41
1
10
60.517779432564
20
3.86341790669218
30
0
41
1
10
60.4903507283247
20
3.85316595320094
30
0
41
1
10
60.4718882299914
20
3.84827349472135
30
0
41
1
10
60.4439601197758
20
3.84420463916737
30
0
41
1
10
60.4346113806457
20
3.84339850526285
30
0
41
1
10
60.4158354382748
20
3.84304034926836
30
0
41
1
10
60.4064076150076
20
3.84349840160954
30
0
41
1
10
60.3879378715574
20
3.84582654778418
30
0
41
1
10
60.378841101462
20
3.84769149419259
30
0
41
1
10
60.3654429881378
20
3.85170586588433
30
0
41
1
10
60.3610183055862
20
3.85324776010415
30
0
41
1
10
60.3522613782133
20
3.85678263219594
30
0
41
1
10
60.3479263770358
20
3.85877951878373
30
0
41
1
10
60.3352803750398
20
3.86541482480365
30
0
41
1
10
60.3272579640808
20
3.87071489313126
30
0
41
1
10
60.3121794756252
20
3.88339009955391
30
0
41
1
10
60.305084391423
20
3.89082889206293
30
0
41
1
10
60.29879545088
20
3.89933134960489
30
0
0
SPLINE
5
16C
100
AcDbEntity
8
1
62
256
6
ByLayer
370
18
48
1
60
0
100
AcDbSpline
70
4
71
3
72
8
73
4
40
0
40
0
40
0
40
0
40
1
40
1
40
1
40
1
41
1
10
60.2987954508801
20
3.89933134960557
30
0
41
1
10
60.216249018367
20
4.01093163154209
30
0
41
1
10
60.1344714718167
20
4.11765934704221
30
0
41
1
10
60.0532399288343
20
4.21963529013382
30
0
0
SPLINE
5
16D
100
AcDbEntity
8
1
62
256
6
ByLayer
370
18
48
1
60
0
100
AcDbSpline
70
4
71
3
72
14
73
10
40
0
40
0
40
0
40
0
40
0.500000000000001
40
0.500000000000001
40
0.625
40
0.625
40
0.75
40
0.75
40
1
40
1
40
1
40
1
41
1
10
60.0532399288319
20
4.21963529015235
30
0
41
1
10
59.9296217941144
20
4.14956752777144
30
0
41
1
10
59.8052960611369
20
4.07467916098923
30
0
41
1
10
59.6486074154953
20
3.97512488928425
30
0
41
1
10
59.6172008362658
20
3.9549183473267
30
0
41
1
10
59.5542569878588
20
3.91390965842575
30
0
41
1
10
59.5227578621783
20
3.89312978573727
30
0
41
1
10
59.4283778320197
20
3.83011553436813
30
0
41
1
10
59.365527918266
20
3.78715213301501
30
0
41
1
10
59.3027176153594
20
3.74326870149551
30
0
0
SPLINE
5
16E
100
AcDbEntity
8
1
62
256
6
ByLayer
370
18
48
1
60
0
100
AcDbSpline
70
4
71
3
72
8
73
4
40
0
40
0
40
0
40
0
40
1
40
1
40
1
40
1
41
1
10
59.3027176153593
20
3.7432687014956
30
0
41
1
10
59.2394878420945
20
3.61034345956989
30
0
41
1
10
59.1758994890656
20
3.4771029297813
30
0
41
1
10
59.1119190271131
20
3.34379164831301
30
0
0
SPLINE
5
16F
100
AcDbEntity
8
1
62
256
6
ByLayer
370
18
48
1
60
0
100
AcDbSpline
70
4
71
3
72
16
73
12
40
0
40
0
40
0
40
0
40
0.305657988094629
40
0.305657988094629
40
0.458486982141896
40
0.458486982141896
40
0.611315976189163
40
0.611315976189163
40
0.916973964283591
40
0.916973964283591
40
1
40
1
40
1
40
1
41
1
10
59.1119190271131
20
3.34379164831301
30
0
41
1
10
59.1009896028242
20
3.32101882809263
30
0
41
1
10
59.0883267275091
20
3.29972742961576
30
0
41
1
10
59.0673922483218
20
3.26943821546658
30
0
41
1
10
59.0600694735713
20
3.25960724645625
30
0
41
1
10
59.0448582218223
20
3.24054311007984
30
0
41
1
10
59.0370492546825
20
3.23140689661605
30
0
41
1
10
59.0130728497722
20
3.20507382465615
30
0
41
1
10
58.9963619413486
20
3.18893951073349
30
0
41
1
10
58.9742664252871
20
3.17011588798891
30
0
41
1
10
58.9694970967523
20
3.16619430980501
30
0
41
1
10
58.9646779181591
20
3.16237359662256
30
0
0
SPLINE
5
170
100
AcDbEntity
8
1
62
256
6
ByLayer
370
18
48
1
60
0
100
AcDbSpline
70
4
71
3
72
28
73
24
40
0
40
0
40
0
40
0
40
0.0132944949923758
40
0.0132944949923758
40
0.0652263636769908
40
0.0652263636769908
40
0.169090101046214
40
0.169090101046214
40
0.272953838415437
40
0.272953838415437
40
0.376817575784661
40
0.376817575784661
40
0.480681313153884
40
0.480681313153884
40
0.584545050523107
40
0.584545050523107
40
0.792272525261554
40
0.792272525261554
40
0.896136262630777
40
0.896136262630777
40
0.948068131315389
40
0.948068131315389
40
1
40
1
40
1
40
1
41
1
10
47.9484821510793
20
-3.94060017439873
30
0
41
1
10
47.9325979160031
20
-3.94060092626691
30
0
41
1
10
47.9167123777551
20
-3.94052928629597
30
0
41
1
10
47.8387735051086
20
-3.939822819178
30
0
41
1
10
47.7767170123512
20
-3.93815447339077
30
0
41
1
10
47.5904096033756
20
-3.92981798604737
30
0
41
1
10
47.4660197557604
20
-3.91982323582059
30
0
41
1
10
47.216627097475
20
-3.89083308720714
30
0
41
1
10
47.091600596879
20
-3.87183825455765
30
0
41
1
10
46.8404238801526
20
-3.82471154417618
30
0
41
1
10
46.7153758675669
20
-3.79677446117324
30
0
41
1
10
46.4659518125889
20
-3.73259487522696
30
0
41
1
10
46.3414725526854
20
-3.69637629710894
30
0
41
1
10
46.0929009975768
20
-3.61587030088631
30
0
41
1
10
45.9689023261988
20
-3.57153741360975
30
0
41
1
10
45.5971902627899
20
-3.42658305926901
30
0
41
1
10
45.3497371024035
20
-3.31401476028685
30
0
41
1
10
44.9762757599456
20
-3.12258632370256
30
0
41
1
10
44.8514438332246
20
-3.05498563279451
30
0
41
1
10
44.663130661553
20
-2.94821312275636
30
0
41
1
10
44.600117869326
20
-2.91166413120223
30
0
41
1
10
44.4745350830077
20
-2.83709329369773
30
0
41
1
10
44.4118921531626
20
-2.79904996306971
30
0
41
1
10
44.3493747487954
20
-2.76027384924711
30
0
0
SPLINE
5
171
100
AcDbEntity
8
1
62
256
6
ByLayer
370
18
48
1
60
0
100
AcDbSpline
70
4
71
3
72
29
73
25
40
0
40
0
40
0
40
0
40
0.0362318864691038
40
0.0362318864691038
40
0.0724637729382076
40
0.144927545876408
40
0.144927545876408
40
0.289855091752809
40
0.289855091752809
40
0.434782637629209
40
0.434782637629209
40
0.50724641056741
40
0.50724641056741
40
0.543478297036506
40
0.543478297036506
40
0.579710183505603
40
0.579710183505603
40
0.652173956443803
40
0.652173956443803
40
0.724637729382003
40
0.724637729382003
40
0.869565275258404
40
0.869565275258404
40
1
40
1
40
1
40
1
41
1
10
41.2914050158572
20
-3.93743857352672
30
0
41
1
10
41.3305812715365
20
-3.93606802689061
30
0
41
1
10
41.3696797253727
20
-3.93425085900142
30
0
41
1
10
41.4478373314735
20
-3.92973232581343
30
0
41
1
10
41.5650930909853
20
-3.92163671825097
30
0
41
1
10
41.6822866918456
20
-3.90961389124561
30
0
41
1
10
41.916722141417
20
-3.88041813485117
30
0
41
1
10
42.0731192566212
20
-3.85411158583491
30
0
41
1
10
42.3861233887437
20
-3.78793277732399
30
0
41
1
10
42.5427442759323
20
-3.74806210046245
30
0
41
1
10
42.7779629970424
20
-3.67790730414035
30
0
41
1
10
42.8564057048536
20
-3.65278979183236
30
0
41
1
10
42.9741569278293
20
-3.61247053411884
30
0
41
1
10
43.013443086068
20
-3.59858239074734
30
0
41
1
10
43.092003425617
20
-3.56997311490028
30
0
41
1
10
43.1312505589815
20
-3.55529023959264
30
0
41
1
10
43.2489702331921
20
-3.51016274269168
30
0
41
1
10
43.327304142376
20
-3.47857759876476
30
0
41
1
10
43.4839224728111
20
-3.41260471724661
30
0
41
1
10
43.5621724931215
20
-3.37819970239403
30
0
41
1
10
43.7966377500668
20
-3.27072833863906
30
0
41
1
10
43.9526452238925
20
-3.19346022168679
30
0
41
1
10
44.2485836847422
20
-3.03612291587749
30
0
41
1
10
44.388506076625
20
-2.95706005876019
30
0
41
1
10
44.5283941589405
20
-2.87356353547341
30
0
0
SPLINE
5
172
100
AcDbEntity
8
1
62
256
6
ByLayer
370
18
48
1
60
0
100
AcDbSpline
70
4
71
3
72
12
73
8
40
0
40
0
40
0
40
0
40
0.0027427190483863
40
0.0027427190483863
40
0.501371359524193
40
0.501371359524193
40
1
40
1
40
1
40
1
41
1
10
55.3588772182994
20
3.9405999870458
30
0
41
1
10
55.3597411353322
20
3.94059992169636
30
0
41
1
10
55.3606050491557
20
3.94059964403266
30
0
41
1
10
55.5185286405805
20
3.94051008012647
30
0
41
1
10
55.675477513142
20
3.93339989677716
30
0
41
1
10
55.9894328357145
20
3.90505581926186
30
0
41
1
10
56.1465819391525
20
3.88384777820514
30
0
41
1
10
56.3038577878554
20
3.85538069896259
30
0
0
SPLINE
5
173
100
AcDbEntity
8
1
62
256
6
ByLayer
370
18
48
1
60
0
100
AcDbSpline
70
4
71
3
72
14
73
10
40
0
40
0
40
0
40
0
40
0.25
40
0.25
40
0.5
40
0.5
40
0.75
40
0.75
40
1
40
1
40
1
40
1
41
1
10
56.3038577878554
20
3.85538069896259
30
0
41
1
10
56.3433198042653
20
3.84823803619855
30
0
41
1
10
56.3826113250001
20
3.8432578171435
30
0
41
1
10
56.4608976576751
20
3.83772114114305
30
0
41
1
10
56.4998715971277
20
3.83716109292885
30
0
41
1
10
56.577291775673
20
3.84071027949449
30
0
41
1
10
56.6157451125167
20
3.84481602421428
30
0
41
1
10
56.6920444238068
20
3.85832255033409
30
0
41
1
10
56.7298936992032
20
3.86771387098892
30
0
41
1
10
56.7673920552744
20
3.88035456189377
30
0
0
SPLINE
5
174
100
AcDbEntity
8
1
62
256
6
ByLayer
370
18
48
1
60
0
100
AcDbSpline
70
4
71
3
72
10
73
6
40
0
40
0
40
0
40
0
40
0.5
40
0.5
40
1
40
1
40
1
40
1
41
1
10
56.7673920552744
20
3.88035456189377
30
0
41
1
10
56.8062973321791
20
3.89346952562673
30
0
41
1
10
56.8452500769947
20
3.9062377186456
30
0
41
1
10
56.9228145991409
20
3.9305857801223
30
0
41
1
10
56.9614681920306
20
3.94220926956956
30
0
41
1
10
57
20
3.9532719904
30
0
0
SPLINE
5
175
100
AcDbEntity
8
1
62
256
6
ByLayer
370
18
48
1
60
0
100
AcDbSpline
70
4
71
3
72
8
73
4
40
0
40
0
40
0
40
0
40
1
40
1
40
1
40
1
41
1
10
57
20
3.9532719904
30
0
41
1
10
57.1590315437466
20
3.92528537327772
30
0
41
1
10
57.3165747190089
20
3.88998309359266
30
0
41
1
10
57.4728214411395
20
3.84745054714895
30
0
0
SPLINE
5
176
100
AcDbEntity
8
1
62
256
6
ByLayer
370
18
48
1
60
0
100
AcDbSpline
70
4
71
3
72
8
73
4
40
0
40
0
40
0
40
0
40
1
40
1
40
1
40
1
41
1
10
57.4728214411369
20
3.84745054714537
30
0
41
1
10
57.4829370948947
20
3.8273026604179
30
0
41
1
10
57.4930637444482
20
3.80713359959671
30
0
41
1
10
57.5032018589765
20
3.78694352126934
30
0
0
SPLINE
5
177
100
AcDbEntity
8
1
62
256
6
ByLayer
370
18
48
1
60
0
100
AcDbSpline
70
4
71
3
72
30
73
26
40
0
40
0
40
0
40
0
40
0.125000000000021
40
0.125000000000021
40
0.18750000000003
40
0.18750000000003
40
0.25000000000004
40
0.25000000000004
40
0.375000000000059
40
0.375000000000059
40
0.500000000000078
40
0.500000000000078
40
0.625000000000098
40
0.625000000000098
40
0.687500000000082
40
0.687500000000082
40
0.750000000000065
40
0.750000000000065
40
0.812500000000049
40
0.812500000000049
40
0.875000000000033
40
0.875000000000033
40
0.937500000000016
40
0.937500000000016
40
1
40
1
40
1
40
1
41
1
10
57.5032018589765
20
3.78694352126925
30
0
41
1
10
57.5143564343774
20
3.7647291587833
30
0
41
1
10
57.5273035448292
20
3.74450049751462
30
0
41
1
10
57.5486874934018
20
3.71631430623827
30
0
41
1
10
57.5561635294264
20
3.70727574483175
30
0
41
1
10
57.5716924904825
20
3.68994313166036
30
0
41
1
10
57.5796522030386
20
3.68175047228297
30
0
41
1
10
57.6040522193869
20
3.65844696966801
30
0
41
1
10
57.6210076797335
20
3.64459490020801
30
0
41
1
10
57.6561487156773
20
3.6200023789211
30
0
41
1
10
57.6744561847672
20
3.60923053247203
30
0
41
1
10
57.7110738534888
20
3.5915892150654
30
0
41
1
10
57.7295058747517
20
3.58460811752198
30
0
41
1
10
57.7572984492263
20
3.57718369029649
30
0
41
1
10
57.7665869068117
20
3.57522153514262
30
0
41
1
10
57.7852088014766
20
3.57245631031046
30
0
41
1
10
57.7944225174768
20
3.57167326065127
30
0
41
1
10
57.8125390566098
20
3.57142269825829
30
0
41
1
10
57.8214559894661
20
3.57195156877563
30
0
41
1
10
57.8389556999575
20
3.5745173606189
30
0
41
1
10
57.8476003522842
20
3.57657853207289
30
0
41
1
10
57.864067086774
20
3.58240419728401
30
0
41
1
10
57.8719061617629
20
3.58615475167019
30
0
41
1
10
57.886654322318
20
3.59563197202149
30
0
41
1
10
57.8936066718733
20
3.6014095321481
30
0
41
1
10
57.8998097320031
20
3.60827389220739
30
0
0
SPLINE
5
178
100
AcDbEntity
8
1
62
256
6
ByLayer
370
18
48
1
60
0
100
AcDbSpline
70
4
71
3
72
8
73
4
40
0
40
0
40
0
40
0
40
1
40
1
40
1
40
1
41
1
10
57.8998097320031
20
3.60827389220756
30
0
41
1
10
57.9235774787584
20
3.63457548659957
30
0
41
1
10
57.9472727850984
20
3.66037607729993
30
0
41
1
10
57.9709004099239
20
3.68567140174218
30
0
0
SPLINE
5
179
100
AcDbEntity
8
1
62
256
6
ByLayer
370
18
48
1
60
0
100
AcDbSpline
70
4
71
3
72
12
73
8
40
0
40
0
40
0
40
0
40
0.250000000000006
40
0.250000000000006
40
0.500000000000011
40
0.500000000000011
40
1
40
1
40
1
40
1
41
1
10
57.9709004099171
20
3.68567140175273
30
0
41
1
10
58.050927649782
20
3.65540898267997
30
0
41
1
10
58.1308142383631
20
3.62327272321616
30
0
41
1
10
58.2906240140493
20
3.55546646073071
30
0
41
1
10
58.3705018968503
20
3.51976563303484
30
0
41
1
10
58.6099978507217
20
3.40716919921982
30
0
41
1
10
58.7695488542834
20
3.32484573123259
30
0
41
1
10
58.9291497225468
20
3.23509786378653
30
0
0
SPLINE
5
17A
100
AcDbEntity
8
1
62
256
6
ByLayer
370
18
48
1
60
0
100
AcDbSpline
70
4
71
3
72
8
73
4
40
0
40
0
40
0
40
0
40
1
40
1
40
1
40
1
41
1
10
58.9291497225445
20
3.23509786378409
30
0
41
1
10
58.9813651618422
20
3.12820281620878
30
0
41
1
10
59.0338235233654
20
3.0218113974679
30
0
41
1
10
59.0865915989543
20
2.91596533058839
30
0
0
SPLINE
5
17B
100
AcDbEntity
8
1
62
256
6
ByLayer
370
18
48
1
60
0
100
AcDbSpline
70
4
71
3
72
30
73
26
40
0
40
0
40
0
40
0
40
0.125000000000018
40
0.125000000000018
40
0.187500000000027
40
0.187500000000027
40
0.250000000000036
40
0.250000000000036
40
0.375000000000055
40
0.375000000000055
40
0.500000000000075
40
0.500000000000075
40
0.625000000000094
40
0.625000000000094
40
0.687500000000078
40
0.687500000000078
40
0.750000000000063
40
0.750000000000063
40
0.812500000000047
40
0.812500000000047
40
0.875000000000031
40
0.875000000000031
40
0.937500000000016
40
0.937500000000016
40
1
40
1
40
1
40
1
41
1
10
59.0865915989543
20
2.91596533058828
30
0
41
1
10
59.0977466578991
20
2.89358969717867
30
0
41
1
10
59.1106944958461
20
2.87236016451922
30
0
41
1
10
59.1320796691415
20
2.84177122398867
30
0
41
1
10
59.1395558156816
20
2.83177555544464
30
0
41
1
10
59.1550866986915
20
2.8122446500943
30
0
41
1
10
59.1630472762211
20
2.80282558834009
30
0
41
1
10
59.1874498600861
20
2.77549831985314
30
0
41
1
10
59.2044069864085
20
2.7585088932062
30
0
41
1
10
59.2395530632982
20
2.72678097448556
30
0
41
1
10
59.2578637056178
20
2.71197821185675
30
0
41
1
10
59.2944874323354
20
2.68562825611102
30
0
41
1
10
59.3129228482954
20
2.67394887421946
30
0
41
1
10
59.3407191870638
20
2.65888066570645
30
0
41
1
10
59.350008662979
20
2.6542702076832
30
0
41
1
10
59.3686317046352
20
2.64597674649923
30
0
41
1
10
59.377841561419
20
2.64235048077401
30
0
41
1
10
59.3959526656926
20
2.63625870954635
30
0
41
1
10
59.4048662415619
20
2.63378650878016
30
0
41
1
10
59.422357886818
20
2.63016079592242
30
0
41
1
10
59.4309976586661
20
2.62900658822454
30
0
41
1
10
59.4474532957863
20
2.62832785585624
30
0
41
1
10
59.4552865794777
20
2.62878658753203
30
0
41
1
10
59.470023323395
20
2.63158615222593
30
0
41
1
10
59.4769700469702
20
2.63395349127401
30
0
41
1
10
59.4831689252625
20
2.63743572999806
30
0
0
SPLINE
5
17C
100
AcDbEntity
8
1
62
256
6
ByLayer
370
18
48
1
60
0
100
AcDbSpline
70
4
71
3
72
10
73
6
40
0
40
0
40
0
40
0
40
0.5
40
0.5
40
1
40
1
40
1
40
1
41
1
10
59.4831689252625
20
2.63743572999837
30
0
41
1
10
59.5196237146401
20
2.65791431874638
30
0
41
1
10
59.5559115806745
20
2.67699494629611
30
0
41
1
10
59.6281800396997
20
2.71227868470009
30
0
41
1
10
59.6641572310808
20
2.72845368179495
30
0
41
1
10
59.7000220737068
20
2.74335339512319
30
0
0
SPLINE
5
17D
100
AcDbEntity
8
1
62
256
6
ByLayer
370
18
48
1
60
0
100
AcDbSpline
70
4
71
3
72
8
73
4
40
0
40
0
40
0
40
0
40
1
40
1
40
1
40
1
41
1
10
59.7000220736989
20
2.74335339513584
30
0
41
1
10
59.9298072988232
20
2.57959833225701
30
0
41
1
10
60.1581768573101
20
2.40432204499422
30
0
41
1
10
60.3856494849728
20
2.21795208561562
30
0
0
SPLINE
5
17E
100
AcDbEntity
8
1
62
256
6
ByLayer
370
18
48
1
60
0
100
AcDbSpline
70
4
71
3
72
8
73
4
40
0
40
0
40
0
40
0
40
1
40
1
40
1
40
1
41
1
10
60.38564948497
20
2.21795208561511
30
0
41
1
10
60.4794713986829
20
2.03819353680552
30
0
41
1
10
60.5742305195514
20
1.86290472747342
30
0
41
1
10
60.6699644186262
20
1.69300804383494
30
0
0
SPLINE
5
17F
100
AcDbEntity
8
1
62
256
6
ByLayer
370
18
48
1
60
0
100
AcDbSpline
70
4
71
3
72
30
73
26
40
0
40
0
40
0
40
0
40
0.125000000000002
40
0.125000000000002
40
0.187499999999983
40
0.187499999999983
40
0.249999999999964
40
0.249999999999964
40
0.374999999999971
40
0.374999999999971
40
0.499999999999978
40
0.499999999999978
40
0.624999999999984
40
0.624999999999984
40
0.687499999999987
40
0.687499999999987
40
0.749999999999989
40
0.749999999999989
40
0.812499999999992
40
0.812499999999992
40
0.874999999999995
40
0.874999999999995
40
0.937499999999997
40
0.937499999999997
40
1
40
1
40
1
40
1
41
1
10
60.6699644186262
20
1.69300804383494
30
0
41
1
10
60.681124264752
20
1.67320292918888
30
0
41
1
10
60.6940794167774
20
1.6535644433645
30
0
41
1
10
60.7154783686443
20
1.62430845406286
30
0
41
1
10
60.7229591475733
20
1.61457676659254
30
0
41
1
10
60.7385022097161
20
1.5952329766516
30
0
41
1
10
60.7464688111845
20
1.58573838712664
30
0
41
1
10
60.7708890883515
20
1.55772755035275
30
0
41
1
10
60.7878575471796
20
1.53967908962443
30
0
41
1
10
60.8230240287961
20
1.50469804609483
30
0
41
1
10
60.8413419544826
20
1.48767751395414
30
0
41
1
10
60.8779725656581
20
1.45584573933701
30
0
41
1
10
60.8964092104605
20
1.44089693847209
30
0
41
1
10
60.9242030714066
20
1.42002521183201
30
0
41
1
10
60.9334909940967
20
1.41332892017516
30
0
41
1
10
60.9521091534169
20
1.4005176749412
30
0
41
1
10
60.9613067735374
20
1.39449475314297
30
0
41
1
10
60.9794012111095
20
1.38330606781111
30
0
41
1
10
60.9883059556836
20
1.37813409129876
30
0
41
1
10
61.0057790069832
20
1.36875734374328
30
0
41
1
10
61.0144085753344
20
1.36452728251442
30
0
41
1
10
61.0308419084009
20
1.35742422087873
30
0
41
1
10
61.0386643767856
20
1.35453295119501
30
0
41
1
10
61.0533809475675
20
1.35030782716666
30
0
41
1
10
61.0603182784685
20
1.3489728425254
30
0
41
1
10
61.0665104356836
20
1.34864413627321
30
0
0
SPLINE
5
180
100
AcDbEntity
8
1
62
256
6
ByLayer
370
18
48
1
60
0
100
AcDbSpline
70
4
71
3
72
10
73
6
40
0
40
0
40
0
40
0
40
0.5
40
0.5
40
1
40
1
40
1
40
1
41
1
10
61.0665104356836
20
1.34864413627349
30
0
41
1
10
61.1278296919414
20
1.34538904726153
30
0
41
1
10
61.1886692232303
20
1.33789084631084
30
0
41
1
10
61.3095950783746
20
1.3146421354329
30
0
41
1
10
61.3697199365083
20
1.29890630778911
30
0
41
1
10
61.4293730774211
20
1.27945045988548
30
0
0
SPLINE
5
181
100
AcDbEntity
8
1
62
256
6
ByLayer
370
18
48
1
60
0
100
AcDbSpline
70
4
71
3
72
30
73
26
40
0
40
0
40
0
40
0
40
0.124999999999948
40
0.124999999999948
40
0.187499999999921
40
0.187499999999921
40
0.249999999999895
40
0.249999999999895
40
0.374999999999886
40
0.374999999999886
40
0.499999999999878
40
0.499999999999878
40
0.62499999999987
40
0.62499999999987
40
0.687499999999892
40
0.687499999999892
40
0.749999999999913
40
0.749999999999913
40
0.812499999999935
40
0.812499999999935
40
0.874999999999957
40
0.874999999999957
40
0.937499999999978
40
0.937499999999978
40
1
40
1
40
1
40
1
41
1
10
62.2533499227193
20
0.265493231875837
30
0
41
1
10
62.2645144045011
20
0.250649187641301
30
0
41
1
10
62.277475234582
20
0.234966044058467
30
0
41
1
10
62.2988825282711
20
0.210559196401334
30
0
41
1
10
62.3063659918082
20
0.202259593724193
30
0
41
1
10
62.3219146989859
20
0.185424905325533
30
0
41
1
10
62.3298838312195
20
0.176993112004908
30
0
41
1
10
62.3543107703209
20
0.151653484046619
30
0
41
1
10
62.3712824375125
20
0.134702876402912
30
0
41
1
10
62.406452505236
20
0.100641743102386
30
0
41
1
10
62.424770185796
20
0.0834290254209407
30
0
41
1
10
62.4613979567832
20
0.0498976961490598
30
0
41
1
10
62.4798324409772
20
0.0334533202511977
30
0
41
1
10
62.507622701908
20
0.0092537184424089
30
0
41
1
10
62.5169093577291
20
0.0012656664946178
30
0
41
1
10
62.5355248869338
20
-0.0145440386701239
30
0
41
1
10
62.5447186455922
20
-0.0222506974918986
30
0
41
1
10
62.5628080364513
20
-0.0372085145976655
30
0
41
1
10
62.5717103375327
20
-0.0444655760828709
30
0
41
1
10
62.5891786193523
20
-0.0584763384134703
30
0
41
1
10
62.5978057266186
20
-0.0652768981628924
30
0
41
1
10
62.6142334325279
20
-0.0779509069799929
30
0
41
1
10
62.6220532426987
20
-0.0838422653642112
30
0
41
1
10
62.6367647982557
20
-0.0945743159655024
30
0
41
1
10
62.6436997232637
20
-0.0994434520077903
30
0
41
1
10
62.6498902235785
20
-0.103534623192331
30
0
0
SPLINE
5
182
100
AcDbEntity
8
1
62
256
6
ByLayer
370
18
48
1
60
0
100
AcDbSpline
70
4
71
3
72
12
73
8
40
0
40
0
40
0
40
0
40
0.5
40
0.5
40
0.75
40
0.75
40
1
40
1
40
1
40
1
41
1
10
62.6498902235785
20
-0.103534623191962
30
0
41
1
10
62.7364323757553
20
-0.160728507567228
30
0
41
1
10
62.8220315001335
20
-0.225669005388539
30
0
41
1
10
62.9494030353208
20
-0.334521590563014
30
0
41
1
10
62.9916226516063
20
-0.372637177079525
30
0
41
1
10
63.0756226763966
20
-0.452202912767234
30
0
41
1
10
63.1174147364973
20
-0.493659938582226
30
0
41
1
10
63.1590343457471
20
-0.536743768286158
30
0
0
SPLINE
5
183
100
AcDbEntity
8
1
62
256
6
ByLayer
370
18
48
1
60
0
100
AcDbSpline
70
4
71
3
72
8
73
4
40
0
40
0
40
0
40
0
40
1
40
1
40
1
40
1
41
1
10
63.1590343457471
20
-0.536743768286186
30
0
41
1
10
63.1618249283645
20
-0.539844076637195
30
0
41
1
10
63.1646156920091
20
-0.542944744363666
30
0
41
1
10
63.1674066383756
20
-0.546045770098885
30
0
0
SPLINE
5
184
100
AcDbEntity
8
1
62
256
6
ByLayer
370
18
48
1
60
0
100
AcDbSpline
70
4
71
3
72
8
73
4
40
0
40
0
40
0
40
0
40
1
40
1
40
1
40
1
41
1
10
63.310790385313
20
-0.705794902087035
30
0
41
1
10
63.262940524811
20
-0.652665233048765
30
0
41
1
10
63.2151483864324
20
-0.599413396280653
30
0
41
1
10
63.1674066383756
20
-0.546045770098857
30
0
0
SPLINE
5
185
100
AcDbEntity
8
1
62
256
6
ByLayer
370
18
48
1
60
0
100
AcDbSpline
70
4
71
3
72
14
73
10
40
0
40
0
40
0
40
0
40
0.25
40
0.25
40
0.5
40
0.5
40
0.75
40
0.75
40
1
40
1
40
1
40
1
41
1
10
63.310790385313
20
-0.705794902087035
30
0
41
1
10
63.3537546259062
20
-0.754583040013102
30
0
41
1
10
63.3969090048719
20
-0.801400822207057
30
0
41
1
10
63.4836769187726
20
-0.891058740016405
30
0
41
1
10
63.5273125435097
20
-0.933918454303239
30
0
41
1
10
63.614990763939
20
-1.01547901541403
30
0
41
1
10
63.65904787459
20
-1.05419479041365
30
0
41
1
10
63.7475860357811
20
-1.12737925472717
30
0
41
1
10
63.7920453236832
20
-1.16183309306641
30
0
41
1
10
63.8367360773683
20
-1.19412293997462
30
0
0
SPLINE
5
186
100
AcDbEntity
8
1
62
256
6
ByLayer
370
18
48
1
60
0
100
AcDbSpline
70
4
71
3
72
30
73
26
40
0
40
0
40
0
40
0
40
0.124999999999983
40
0.124999999999983
40
0.187499999999974
40
0.187499999999974
40
0.249999999999964
40
0.249999999999964
40
0.374999999999945
40
0.374999999999945
40
0.499999999999925
40
0.499999999999925
40
0.624999999999906
40
0.624999999999906
40
0.687499999999922
40
0.687499999999922
40
0.749999999999938
40
0.749999999999938
40
0.812499999999954
40
0.812499999999954
40
0.87499999999997
40
0.87499999999997
40
0.937499999999985
40
0.937499999999985
40
1
40
1
40
1
40
1
41
1
10
63.8367360773706
20
-1.19412293998045
30
0
41
1
10
63.8479032736715
20
-1.20219143355499
30
0
41
1
10
63.8608683732614
20
-1.21200488071375
30
0
41
1
10
63.88228394612
20
-1.22858519169458
30
0
41
1
10
63.8897700370046
20
-1.23444030861654
30
0
41
1
10
63.9053267531646
20
-1.24671396857019
30
0
41
1
10
63.9132998182582
20
-1.25305543252168
30
0
41
1
10
63.9377383826351
20
-1.27263599808282
30
0
41
1
10
63.9547175963426
20
-1.28642330432589
30
0
41
1
10
63.9899025277423
20
-1.3154133391381
30
0
41
1
10
64.0082261276169
20
-1.33071957912668
30
0
41
1
10
64.0448606322049
20
-1.36185987281485
30
0
41
1
10
64.0632972205878
20
-1.37779341084004
30
0
41
1
10
64.0910878431191
20
-1.4023692362652
30
0
41
1
10
64.1003741343771
20
-1.4106749180722
30
0
41
1
10
64.1189876541027
20
-1.42755572917389
30
0
41
1
10
64.1281718544701
20
-1.43600129014183
30
0
41
1
10
64.1462490309496
20
-1.4529000334532
30
0
41
1
10
64.1551447284571
20
-1.46135539165812
30
0
41
1
10
64.1725987747237
20
-1.47828846522526
30
0
41
1
10
64.1812178687076
20
-1.48682867709084
30
0
41
1
10
64.1976272096246
20
-1.50352353391102
30
0
41
1
10
64.2054378415769
20
-1.51169451364194
30
0
41
1
10
64.220131668947
20
-1.52762025799319
30
0
41
1
10
64.2270579667998
20
-1.53542718643701
30
0
41
1
10
64.2332419930935
20
-1.54277971448403
30
0
0
SPLINE
5
187
100
AcDbEntity
8
1
62
256
6
ByLayer
370
18
48
1
60
0
100
AcDbSpline
70
4
71
3
72
10
73
6
40
0
40
0
40
0
40
0
40
0.5
40
0.5
40
1
40
1
40
1
40
1
41
1
10
64.2332419930935
20
-1.54277971448371
30
0
41
1
10
64.3199287117108
20
-1.64584630891014
30
0
41
1
10
64.4056588909394
20
-1.75523362468283
30
0
41
1
10
64.5757694953018
20
-1.98613578547531
30
0
41
1
10
64.6598104998806
20
-2.10725184851353
30
0
41
1
10
64.7431422314846
20
-2.233255634199
30
0
0
SPLINE
5
188
100
AcDbEntity
8
1
62
256
6
ByLayer
370
18
48
1
60
0
100
AcDbSpline
70
4
71
3
72
8
73
4
40
0
40
0
40
0
40
0
40
1
40
1
40
1
40
1
41
1
10
64.8942094664342
20
-2.38458337180677
30
0
41
1
10
64.8437812628687
20
-2.33459653746999
30
0
41
1
10
64.7934281055341
20
-2.28415227373958
30
0
41
1
10
64.7431422314842
20
-2.2332556341988
30
0
0
SPLINE
5
189
100
AcDbEntity
8
1
62
256
6
ByLayer
370
18
48
1
60
0
100
AcDbSpline
70
4
71
3
72
14
73
10
40
0
40
0
40
0
40
0
40
0.25
40
0.25
40
0.499999999999999
40
0.499999999999999
40
0.75
40
0.75
40
1
40
1
40
1
40
1
41
1
10
64.8942094664342
20
-2.38458337180677
30
0
41
1
10
64.9371589521355
20
-2.40397404358058
30
0
41
1
10
64.9803056790491
20
-2.4211470052951
30
0
41
1
10
65.0670658611187
20
-2.45104008048992
30
0
41
1
10
65.1107006459277
20
-2.46376756582987
30
0
41
1
10
65.1983785135769
20
-2.48469432137156
30
0
41
1
10
65.2424364150841
20
-2.49289691516086
30
0
41
1
10
65.3309771092276
20
-2.50472117740046
30
0
41
1
10
65.3754378772848
20
-2.50834115551623
30
0
41
1
10
65.4201291919089
20
-2.50965066927935
30
0
0
SPLINE
5
18A
100
AcDbEntity
8
1
62
256
6
ByLayer
370
18
48
1
60
0
100
AcDbSpline
70
4
71
3
72
30
73
26
40
0
40
0
40
0
40
0
40
0.125000000000034
40
0.125000000000034
40
0.187500000000051
40
0.187500000000051
40
0.250000000000068
40
0.250000000000068
40
0.375000000000056
40
0.375000000000056
40
0.500000000000045
40
0.500000000000045
40
0.625000000000034
40
0.625000000000034
40
0.687500000000028
40
0.687500000000028
40
0.750000000000023
40
0.750000000000023
40
0.812500000000017
40
0.812500000000017
40
0.875000000000011
40
0.875000000000011
40
0.937500000000006
40
0.937500000000006
40
1
40
1
40
1
40
1
41
1
10
65.4201291919089
20
-2.50965066927935
30
0
41
1
10
65.4313008223622
20
-2.50997801261121
30
0
41
1
10
65.444271652475
20
-2.51274813959068
30
0
41
1
10
65.4656963432466
20
-2.51951846996451
30
0
41
1
10
65.4731854293285
20
-2.52222906139897
30
0
41
1
10
65.4887489557296
20
-2.52847212621936
30
0
41
1
10
65.4967252537692
20
-2.53196429606931
30
0
41
1
10
65.5211729539549
20
-2.5434430759513
30
0
41
1
10
65.5381575220835
20
-2.55241845883765
30
0
41
1
10
65.5733513271165
20
-2.57287243253359
30
0
41
1
10
65.5916777483716
20
-2.58444444000864
30
0
41
1
10
65.6283143191779
20
-2.60947753792834
30
0
41
1
10
65.6467506995037
20
-2.6229990641894
30
0
41
1
10
65.6745387759209
20
-2.64501777872613
30
0
41
1
10
65.6838238369465
20
-2.65264956291347
30
0
41
1
10
65.7024339836173
20
-2.6685854980073
30
0
41
1
10
65.7116128020643
20
-2.67676471705335
30
0
41
1
10
65.7296820356402
20
-2.69358763081794
30
0
41
1
10
65.7385734806045
20
-2.70223141379995
30
0
41
1
10
65.7560184810418
20
-2.72006217568509
30
0
41
1
10
65.7646326503645
20
-2.72931995109445
30
0
41
1
10
65.7810320368225
20
-2.74803565388191
30
0
41
1
10
65.7888378113547
20
-2.75750570340301
30
0
41
1
10
65.8035225288256
20
-2.77670935208292
30
0
41
1
10
65.8104446252131
20
-2.78651252907514
30
0
41
1
10
65.8166260308649
20
-2.79623715112027
30
0
0
SPLINE
5
18B
100
AcDbEntity
8
1
62
256
6
ByLayer
370
18
48
1
60
0
100
AcDbSpline
70
4
71
3
72
12
73
8
40
0
40
0
40
0
40
0
40
0.5
40
0.5
40
0.75
40
0.75
40
1
40
1
40
1
40
1
41
1
10
65.8166260308649
20
-2.79623715111998
30
0
41
1
10
65.9033282261577
20
-2.93263753109835
30
0
41
1
10
65.9890798309439
20
-3.07302734384942
30
0
41
1
10
66.1167008118728
20
-3.28923858724238
30
0
41
1
10
66.1590020195908
20
-3.3621300985001
30
0
41
1
10
66.2431230651761
20
-3.50940235437594
30
0
41
1
10
66.284947305377
20
-3.58381867806983
30
0
41
1
10
66.3265957998617
20
-3.65892536031021
30
0
0
SPLINE
5
18C
100
AcDbEntity
8
1
62
256
6
ByLayer
370
18
48
1
60
0
100
AcDbSpline
70
4
71
3
72
8
73
4
40
0
40
0
40
0
40
0
40
1
40
1
40
1
40
1
41
1
10
66.477687269179
20
-3.7747848117009
30
0
41
1
10
66.4272555286925
20
-3.73687710592017
30
0
41
1
10
66.3768828031876
20
-3.69826334455723
30
0
41
1
10
66.3265957998616
20
-3.65892536031021
30
0
0
SPLINE
5
18D
100
AcDbEntity
8
1
62
256
6
ByLayer
370
18
48
1
60
0
100
AcDbSpline
70
4
71
3
72
14
73
10
40
0
40
0
40
0
40
0
40
0.25
40
0.25
40
0.5
40
0.5
40
0.75
40
0.75
40
1
40
1
40
1
40
1
41
1
10
66.477687269179
20
-3.7747848117009
30
0
41
1
10
66.5206363878111
20
-3.76245929931008
30
0
41
1
10
66.5637770244697
20
-3.74795066756465
30
0
41
1
10
66.6505192196757
20
-3.71455206394594
30
0
41
1
10
66.6941432394198
20
-3.69565120424713
30
0
41
1
10
66.7818016525636
20
-3.65349976076806
30
0
41
1
10
66.8258502716568
20
-3.63024415478071
30
0
41
1
10
66.914378984767
20
-3.57939597993663
30
0
41
1
10
66.9588373211282
20
-3.55181728504877
30
0
41
1
10
67.0035324894621
20
-3.52207018347392
30
0
0
SPLINE
5
18E
100
AcDbEntity
8
1
62
256
6
ByLayer
370
18
48
1
60
0
100
AcDbSpline
70
4
71
3
72
30
73
26
40
0
40
0
40
0
40
0
40
0.124999999999911
40
0.124999999999911
40
0.187499999999886
40
0.187499999999886
40
0.249999999999862
40
0.249999999999862
40
0.374999999999859
40
0.374999999999859
40
0.499999999999855
40
0.499999999999855
40
0.624999999999852
40
0.624999999999852
40
0.687499999999877
40
0.687499999999877
40
0.749999999999902
40
0.749999999999902
40
0.812499999999926
40
0.812499999999926
40
0.874999999999951
40
0.874999999999951
40
0.937499999999975
40
0.937499999999975
40
1
40
1
40
1
40
1
41
1
10
67.0035324894621
20
-3.52207018347394
30
0
41
1
10
67.0147071797247
20
-3.51463281029251
30
0
41
1
10
67.0276812662823
20
-3.51004210734183
30
0
41
1
10
67.0491105670766
20
-3.50621031821277
30
0
41
1
10
67.0566010314664
20
-3.50545767955182
30
0
41
1
10
67.0721679167691
20
-3.50493270597781
30
0
41
1
10
67.0801456928199
20
-3.5051620632895
30
0
41
1
10
67.1045974101142
20
-3.50717699377145
30
0
41
1
10
67.121584114201
20
-3.51027202072217
30
0
41
1
10
67.1567818659451
20
-3.51974829444165
30
0
41
1
10
67.1751094442764
20
-3.52620205273539
30
0
41
1
10
67.211747071103
20
-3.54212796351419
30
0
41
1
10
67.2301839021926
20
-3.55161407270893
30
0
41
1
10
67.2579724096362
20
-3.56842752446892
30
0
41
1
10
67.267258461603
20
-3.57446746581431
30
0
41
1
10
67.2858668179881
20
-3.58753768589779
30
0
41
1
10
67.2950432384887
20
-3.59446582292924
30
0
41
1
10
67.3131088312816
20
-3.60918336739994
30
0
41
1
10
67.3219983204399
20
-3.61697179560448
30
0
41
1
10
67.3394389577225
20
-3.63354484545741
30
0
41
1
10
67.3480505790484
20
-3.64240000434685
30
0
41
1
10
67.3644436795722
20
-3.66086867462019
30
0
41
1
10
67.3722461010155
20
-3.67048889375269
30
0
41
1
10
67.3869238142459
20
-3.69063714865686
30
0
41
1
10
67.393842251691
20
-3.70124356024414
30
0
41
1
10
67.4000210373272
20
-3.71215479786028
30
0
0
SPLINE
5
18F
100
AcDbEntity
8
1
62
256
6
ByLayer
370
18
48
1
60
0
100
AcDbSpline
70
4
71
3
72
12
73
8
40
0
40
0
40
0
40
0
40
0.500000000000011
40
0.500000000000011
40
0.750000000000005
40
0.750000000000005
40
1
40
1
40
1
40
1
41
1
10
67.4000210373272
20
-3.71215479786011
30
0
41
1
10
67.4754760903267
20
-3.84540234213489
30
0
41
1
10
67.5502122401485
20
-3.97958002059255
30
0
41
1
10
67.661518453288
20
-4.18206798392237
30
0
41
1
10
67.698492162356
20
-4.24977756182111
30
0
41
1
10
67.7720291622014
20
-4.38523532103366
30
0
41
1
10
67.8086158939117
20
-4.45302623132216
30
0
41
1
10
67.84504307065
20
-4.52086743714105
30
0
0
SPLINE
5
190
100
AcDbEntity
8
1
62
256
6
ByLayer
370
18
48
1
60
0
100
AcDbSpline
70
4
71
3
72
12
73
8
40
0
40
0
40
0
40
0
40
0.250000000000001
40
0.250000000000001
40
0.5
40
0.5
40
1
40
1
40
1
40
1
41
1
10
67.84504307065
20
-4.52086743714105
30
0
41
1
10
67.872515517729
20
-4.52799241253268
30
0
41
1
10
67.9000513402775
20
-4.53483129015839
30
0
41
1
10
67.9551320133655
20
-4.54787405509103
30
0
41
1
10
67.9826635550287
20
-4.5540744559288
30
0
41
1
10
68.0652611519175
20
-4.5717023923535
30
0
41
1
10
68.120336769925
20
-4.58215188106067
30
0
41
1
10
68.1754803592502
20
-4.59129280947178
30
0
0
SPLINE
5
191
100
AcDbEntity
8
1
62
256
6
ByLayer
370
18
48
1
60
0
100
AcDbSpline
70
4
71
3
72
12
73
8
40
0
40
0
40
0
40
0
40
0.50000000000001
40
0.50000000000001
40
0.750000000000005
40
0.750000000000005
40
1
40
1
40
1
40
1
41
1
10
68.1754803592501
20
-4.59129280947155
30
0
41
1
10
68.2429388997659
20
-4.51987556128211
30
0
41
1
10
68.3110005230989
20
-4.44380048521657
30
0
41
1
10
68.4138681498751
20
-4.32309784566019
30
0
41
1
10
68.448302183885
20
-4.28174794522002
30
0
41
1
10
68.5174053457158
20
-4.19692908101013
30
0
41
1
10
68.5520796602742
20
-4.15345416111546
30
0
41
1
10
68.5868964100562
20
-4.10891183429149
30
0
0
SPLINE
5
192
100
AcDbEntity
8
1
62
256
6
ByLayer
370
18
48
1
60
0
100
AcDbSpline
70
4
71
3
72
28
73
24
40
0
40
0
40
0
40
0
40
0.124999999999999
40
0.124999999999999
40
0.187499999999999
40
0.187499999999999
40
0.249999999999999
40
0.249999999999999
40
0.374999999999999
40
0.374999999999999
40
0.499999999999999
40
0.499999999999999
40
0.625
40
0.625
40
0.75
40
0.75
40
0.8125
40
0.8125
40
0.875
40
0.875
40
0.9375
40
0.9375
40
1
40
1
40
1
40
1
41
1
10
68.5868964100562
20
-4.10891183429146
30
0
41
1
10
68.5980790752465
20
-4.09460544639646
30
0
41
1
10
68.6110633450369
20
-4.08320729954167
30
0
41
1
10
68.6325085320846
20
-4.06923639529884
30
0
41
1
10
68.6400043374525
20
-4.06511191553568
30
0
41
1
10
68.6555823249346
20
-4.05788350203065
30
0
41
1
10
68.6635652860589
20
-4.05482347506847
30
0
41
1
10
68.6880312609464
20
-4.04713585134434
30
0
41
1
10
68.7050257586283
20
-4.04398150987461
30
0
41
1
10
68.7402346542802
20
-4.04134694834792
30
0
41
1
10
68.758564445365
20
-4.0419099348839
30
0
41
1
10
68.7952014196802
20
-4.04681897205376
30
0
41
1
10
68.8136359463214
20
-4.05113073403649
30
0
41
1
10
68.8506789822343
20
-4.06391247938998
30
0
41
1
10
68.8694454067748
20
-4.07249283146899
30
0
41
1
10
68.8965272334552
20
-4.08874963554933
30
0
41
1
10
68.9054110767926
20
-4.09474306762436
30
0
41
1
10
68.9228402135998
20
-4.10805716170779
30
0
41
1
10
68.9314457855681
20
-4.11543954536324
30
0
41
1
10
68.9478270210093
20
-4.13142754613639
30
0
41
1
10
68.9556238609366
20
-4.14003348611695
30
0
41
1
10
68.9702913887033
20
-4.15868492214457
30
0
41
1
10
68.9772052789078
20
-4.16880804943341
30
0
41
1
10
68.9833814221201
20
-4.17958131870392
30
0
0
SPLINE
5
193
100
AcDbEntity
8
1
62
256
6
ByLayer
370
18
48
1
60
0
100
AcDbSpline
70
4
71
3
72
8
73
4
40
0
40
0
40
0
40
0
40
1
40
1
40
1
40
1
41
1
10
68.98338142212
20
-4.1795813187039
30
0
41
1
10
69.0673025549299
20
-4.32596797622918
30
0
41
1
10
69.1503418172903
20
-4.47079132367531
30
0
41
1
10
69.2327501336373
20
-4.61396818108625
30
0
0
SPLINE
5
194
100
AcDbEntity
8
1
62
256
6
ByLayer
370
18
48
1
60
0
100
AcDbSpline
70
4
71
3
72
16
73
12
40
0
40
0
40
0
40
0
40
0.249999999999994
40
0.249999999999994
40
0.499999999999988
40
0.499999999999988
40
0.749999999999982
40
0.749999999999982
40
0.874999999999991
40
0.874999999999991
40
1
40
1
40
1
40
1
41
1
10
69.2327501336373
20
-4.61396818108625
30
0
41
1
10
69.2980316300678
20
-4.60642601500501
30
0
41
1
10
69.363489704626
20
-4.59728093243032
30
0
41
1
10
69.4947918446256
20
-4.57574495953679
30
0
41
1
10
69.5606258610202
20
-4.56335611978926
30
0
41
1
10
69.6928758048318
20
-4.53524135580003
30
0
41
1
10
69.7593904847124
20
-4.51948775818155
30
0
41
1
10
69.8598437961655
20
-4.4932899499631
30
0
41
1
10
69.8934212875778
20
-4.48413379944191
30
0
41
1
10
69.9605327038284
20
-4.46504688773831
30
0
41
1
10
69.9940987337059
20
-4.45510793568687
30
0
41
1
10
70.0276786603244
20
-4.44477913660521
30
0
0
SPLINE
5
195
100
AcDbEntity
8
1
62
256
6
ByLayer
370
18
48
1
60
0
100
AcDbSpline
70
4
71
3
72
8
73
4
40
0
40
0
40
0
40
0
40
1
40
1
40
1
40
1
41
1
10
70.0276786603245
20
-4.44477913660521
30
0
41
1
10
70.074982553148
20
-4.36438959541277
30
0
41
1
10
70.1225059930164
20
-4.28268918214775
30
0
41
1
10
70.170298195533
20
-4.1996874630394
30
0
0
SPLINE
5
196
100
AcDbEntity
8
1
62
256
6
ByLayer
370
18
48
1
60
0
100
AcDbSpline
70
4
71
3
72
28
73
24
40
0
40
0
40
0
40
0
40
0.124999999999963
40
0.124999999999963
40
0.187499999999965
40
0.187499999999965
40
0.249999999999968
40
0.249999999999968
40
0.374999999999973
40
0.374999999999973
40
0.499999999999979
40
0.499999999999979
40
0.624999999999984
40
0.624999999999984
40
0.749999999999989
40
0.749999999999989
40
0.812499999999992
40
0.812499999999992
40
0.874999999999995
40
0.874999999999995
40
0.937499999999997
40
0.937499999999997
40
1
40
1
40
1
40
1
41
1
10
70.170298195533
20
-4.1996874630394
30
0
41
1
10
70.1814859919226
20
-4.1802573827236
30
0
41
1
10
70.1944759883719
20
-4.16344121737498
30
0
41
1
10
70.2159290400081
20
-4.14103248173296
30
0
41
1
10
70.2234274333354
20
-4.13403799781264
30
0
41
1
10
70.2390101018115
20
-4.1209850625024
30
0
41
1
10
70.2469951238128
20
-4.11500735939546
30
0
41
1
10
70.2714665232889
20
-4.09855002421091
30
0
41
1
10
70.2884636227631
20
-4.0895274974387
30
0
41
1
10
70.3236761938939
20
-4.07509721051105
30
0
41
1
10
70.3420065267314
20
-4.06969879989654
30
0
41
1
10
70.3786429573695
20
-4.06299143105116
30
0
41
1
10
70.3970767702754
20
-4.06160362430077
30
0
41
1
10
70.4341173387905
20
-4.06319485216267
30
0
41
1
10
70.4528810495889
20
-4.06623950119806
30
0
41
1
10
70.4799574765572
20
-4.07470651040356
30
0
41
1
10
70.4888394631565
20
-4.07817850822201
30
0
41
1
10
70.5062646629062
20
-4.08661968312401
30
0
41
1
10
70.5148681143477
20
-4.09163440381843
30
0
41
1
10
70.5312453324246
20
-4.10320357528244
30
0
41
1
10
70.5390401659168
20
-4.10975159268554
30
0
41
1
10
70.5537037514433
20
-4.12464306271534
30
0
41
1
10
70.5606157750315
20
-4.1330539350725
30
0
41
1
10
70.5667911428193
20
-4.14237983375418
30
0
0
SPLINE
5
197
100
AcDbEntity
8
1
62
256
6
ByLayer
370
18
48
1
60
0
100
AcDbSpline
70
4
71
3
72
8
73
4
40
0
40
0
40
0
40
0
40
1
40
1
40
1
40
1
41
1
10
70.5667911428193
20
-4.14237983375423
30
0
41
1
10
70.5848821669591
20
-4.16970048314275
30
0
41
1
10
70.6029323893198
20
-4.19683192950626
30
0
41
1
10
70.6209443803486
20
-4.22377446587902
30
0
0
SPLINE
5
198
100
AcDbEntity
8
1
62
256
6
ByLayer
370
18
48
1
60
0
100
AcDbSpline
70
4
71
3
72
14
73
10
40
0
40
0
40
0
40
0
40
0.49999999999999
40
0.49999999999999
40
0.624999999999988
40
0.624999999999988
40
0.749999999999985
40
0.749999999999985
40
1
40
1
40
1
40
1
41
1
10
70.6209443803487
20
-4.2237744658789
30
0
41
1
10
70.7819999125615
20
-4.1537670026579
30
0
41
1
10
70.94377121781
20
-4.07565318593174
30
0
41
1
10
71.1472738583287
20
-3.96818763751332
30
0
41
1
10
71.1880764778945
20
-3.94620504441329
30
0
41
1
10
71.2697634109616
20
-3.90125217090338
30
0
41
1
10
71.3106745424598
20
-3.87828308173579
30
0
41
1
10
71.4339072992837
20
-3.80793787724892
30
0
41
1
10
71.5165921063367
20
-3.75910911553152
30
0
41
1
10
71.5999999285112
20
-3.70839970087852
30
0
0
SPLINE
5
199
100
AcDbEntity
8
1
62
256
6
ByLayer
370
18
48
1
60
0
100
AcDbSpline
70
4
71
3
72
12
73
8
40
0
40
0
40
0
40
0
40
0.25
40
0.25
40
0.5
40
0.5
40
1
40
1
40
1
40
1
41
1
10
71.5999999285113
20
-3.70839970087852
30
0
41
1
10
71.631903881523
20
-3.66570038121074
30
0
41
1
10
71.6641173676442
20
-3.62277246657024
30
0
41
1
10
71.7292893845536
20
-3.53650044780812
30
0
41
1
10
71.762258947472
20
-3.49313055411304
30
0
41
1
10
71.862241260245
20
-3.36268449970137
30
0
41
1
10
71.9303394036873
20
-3.27525214877741
30
0
41
1
10
72.0000000000001
20
-3.18802245465534
30
0
0
SPLINE
5
19A
100
AcDbEntity
8
1
62
256
6
ByLayer
370
18
48
1
60
0
100
AcDbSpline
70
4
71
3
72
28
73
24
40
0
40
0
40
0
40
0
40
0.0943352106425951
40
0.0943352106425951
40
0.18867042128519
40
0.18867042128519
40
0.377340842570381
40
0.377340842570381
40
0.471676053212976
40
0.471676053212976
40
0.518843658534273
40
0.518843658534273
40
0.566011263855571
40
0.566011263855571
40
0.660346474498166
40
0.660346474498166
40
0.683930277158815
40
0.683930277158815
40
0.707514079819463
40
0.707514079819463
40
0.754681685140761
40
0.754681685140761
40
1
40
1
40
1
40
1
41
1
10
72
20
-3.18802245465537
30
0
41
1
10
72.0000000000001
20
-3.13886383139649
30
0
41
1
10
72
20
-3.09071491405175
30
0
41
1
10
72
20
-2.99655430418852
30
0
41
1
10
72
20
-2.95122497774094
30
0
41
1
10
72.0000000000001
20
-2.82038974303418
30
0
41
1
10
72.0000000000001
20
-2.73992481361572
30
0
41
1
10
72
20
-2.62940990015233
30
0
41
1
10
71.9999999999999
20
-2.59427954862269
30
0
41
1
10
72
20
-2.54420480167511
30
0
41
1
10
71.9999999999999
20
-2.5280315718762
30
0
41
1
10
71.9999999999999
20
-2.49684174410657
30
0
41
1
10
72
20
-2.48180234086343
30
0
41
1
10
72
20
-2.43833953261895
30
0
41
1
10
72
20
-2.41158625104597
30
0
41
1
10
72
20
-2.38077214729742
30
0
41
1
10
72
20
-2.37474177171043
30
0
41
1
10
72
20
-2.36273859800039
30
0
41
1
10
72.0000000000001
20
-2.35675861856055
30
0
41
1
10
72.0000000000001
20
-2.33893161510383
30
0
41
1
10
72
20
-2.32720817087812
30
0
41
1
10
72
20
-2.25545780883425
30
0
41
1
10
72
20
-2.1993645352855
30
0
41
1
10
72.0000000000001
20
-2.14739945465155
30
0
0
SPLINE
5
19B
100
AcDbEntity
8
1
62
256
6
ByLayer
370
18
48
1
60
0
100
AcDbSpline
70
4
71
3
72
14
73
10
40
0
40
0
40
0
40
0
40
0.5
40
0.5
40
0.749999999999978
40
0.749999999999978
40
0.874999999999989
40
0.874999999999989
40
1
40
1
40
1
40
1
41
1
10
72
20
-2.09377947724903
30
0
41
1
10
71.9367027484153
20
-2.08921732748931
30
0
41
1
10
71.8729201164703
20
-2.08457193482397
30
0
41
1
10
71.7765309910471
20
-2.07780810901241
30
0
41
1
10
71.7442841203631
20
-2.07558374526934
30
0
41
1
10
71.6957218463103
20
-2.07239494728304
30
0
41
1
10
71.6794988867562
20
-2.07136800058572
30
0
41
1
10
71.6469842405161
20
-2.06938953286911
30
0
41
1
10
71.6307010115638
20
-2.06841117830683
30
0
41
1
10
71.6144349639273
20
-2.0673045382384
30
0
0
SPLINE
5
19C
100
AcDbEntity
8
1
62
256
6
ByLayer
370
18
48
1
60
0
100
AcDbSpline
70
4
71
3
72
18
73
14
40
0
40
0
40
0
40
0
40
0.249999999999939
40
0.249999999999939
40
0.499999999999877
40
0.499999999999877
40
0.624999999999908
40
0.624999999999908
40
0.749999999999939
40
0.749999999999939
40
0.874999999999969
40
0.874999999999969
40
1
40
1
40
1
40
1
41
1
10
71.6144349639273
20
-2.0673045382384
30
0
41
1
10
71.5987558117215
20
-2.05329465832551
30
0
41
1
10
71.5829307651628
20
-2.04026715913113
30
0
41
1
10
71.551029113733
20
-2.01620573552958
30
0
41
1
10
71.5349525802964
20
-2.00516763777372
30
0
41
1
10
71.5106548613258
20
-1.99034163522239
30
0
41
1
10
71.5024865491702
20
-1.98567091890291
30
0
41
1
10
71.4862784298521
20
-1.977097963175
30
0
41
1
10
71.478271070385
20
-1.97320952197978
30
0
41
1
10
71.4624776671928
20
-1.96630383594464
30
0
41
1
10
71.454691521811
20
-1.96328539756189
30
0
41
1
10
71.4393817990199
20
-1.95825059073098
30
0
41
1
10
71.4318239291611
20
-1.95623222577191
30
0
41
1
10
71.4246226281564
20
-1.95485366566729
30
0
0
SPLINE
5
19D
100
AcDbEntity
8
1
62
256
6
ByLayer
370
18
48
1
60
0
100
AcDbSpline
70
4
71
3
72
12
73
8
40
0
40
0
40
0
40
0
40
0.249999999999995
40
0.249999999999995
40
0.49999999999999
40
0.49999999999999
40
1
40
1
40
1
40
1
41
1
10
71.4246226281564
20
-1.95485366566808
30
0
41
1
10
71.3311023323505
20
-1.89403592734754
30
0
41
1
10
71.2381295209359
20
-1.83142336153182
30
0
41
1
10
71.0533266894522
20
-1.70253081175241
30
0
41
1
10
70.96147293626
20
-1.63627657787066
30
0
41
1
10
70.6873757427894
20
-1.43221176872194
30
0
41
1
10
70.5065610357587
20
-1.28914362014808
30
0
41
1
10
70.326829223383
20
-1.13970586189751
30
0
0
SPLINE
5
19E
100
AcDbEntity
8
1
62
256
6
ByLayer
370
18
48
1
60
0
100
AcDbSpline
70
4
71
3
72
8
73
4
40
0
40
0
40
0
40
0
40
1
40
1
40
1
40
1
41
1
10
70.326829223383
20
-1.13970586189751
30
0
41
1
10
70.2834921471863
20
-1.06446521263473
30
0
41
1
10
70.2400030459705
20
-0.990579639007251
30
0
41
1
10
70.1963156149574
20
-0.918104243831351
30
0
0
SPLINE
5
19F
100
AcDbEntity
8
1
62
256
6
ByLayer
370
18
48
1
60
0
100
AcDbSpline
70
4
71
3
72
34
73
30
40
0
40
0
40
0
40
0
40
0.125000000000028
40
0.125000000000028
40
0.18750000000004
40
0.18750000000004
40
0.250000000000053
40
0.250000000000053
40
0.375000000000033
40
0.375000000000033
40
0.437500000000023
40
0.437500000000023
40
0.500000000000014
40
0.500000000000014
40
0.625000000000046
40
0.625000000000046
40
0.687500000000062
40
0.687500000000062
40
0.750000000000077
40
0.750000000000077
40
0.812500000000093
40
0.812500000000093
40
0.843750000000078
40
0.843750000000078
40
0.875000000000062
40
0.875000000000062
40
0.937500000000031
40
0.937500000000031
40
1
40
1
40
1
40
1
41
1
10
70.1963156149575
20
-0.918104243831323
30
0
41
1
10
70.1854002895067
20
-0.899996231820325
30
0
41
1
10
70.172756592402
20
-0.88162572942062
30
0
41
1
10
70.1518572125921
20
-0.853802718975288
30
0
41
1
10
70.1445470593931
20
-0.844465815186538
30
0
41
1
10
70.1293630242469
20
-0.825774076658547
30
0
41
1
10
70.1215675736318
20
-0.816514363054097
30
0
41
1
10
70.0976305028818
20
-0.788966575380044
30
0
41
1
10
70.0809444389132
20
-0.770907620137137
30
0
41
1
10
70.0549095073466
20
-0.744226444574707
30
0
41
1
10
70.0460619722937
20
-0.735401073911049
30
0
41
1
10
70.0280247479608
20
-0.717883434316207
30
0
41
1
10
70.0189046121834
20
-0.709259913440633
30
0
41
1
10
69.9914774305303
20
-0.683995806734913
30
0
41
1
10
69.973012615584
20
-0.66786292583518
30
0
41
1
10
69.9450733682325
20
-0.644798667739423
30
0
41
1
10
69.9357195299536
20
-0.637301610397373
30
0
41
1
10
69.9169296513985
20
-0.622732630947979
30
0
41
1
10
69.907485112593
20
-0.615658287367893
30
0
41
1
10
69.888983132114
20
-0.60233640565346
30
0
41
1
10
69.8798705597538
20
-0.596044030213818
30
0
41
1
10
69.8664497688673
20
-0.587237621537696
30
0
41
1
10
69.8620176989639
20
-0.584408009471048
30
0
41
1
10
69.8532464573489
20
-0.578982083839747
30
0
41
1
10
69.8489031054689
20
-0.576384201407251
30
0
41
1
10
69.8362338284039
20
-0.569096253906764
30
0
41
1
10
69.8281984683729
20
-0.564863893553934
30
0
41
1
10
69.8130996973475
20
-0.557878695542513
30
0
41
1
10
69.8059970444326
20
-0.555118439589563
30
0
41
1
10
69.7997037826234
20
-0.553360664610864
30
0
0
SPLINE
5
1A0
100
AcDbEntity
8
1
62
256
6
ByLayer
370
18
48
1
60
0
100
AcDbSpline
70
4
71
3
72
8
73
4
40
0
40
0
40
0
40
0
40
1
40
1
40
1
40
1
41
1
10
69.7997037826229
20
-0.553360664611148
30
0
41
1
10
69.7218659130858
20
-0.531619719514964
30
0
41
1
10
69.6446940142341
20
-0.503231291495837
30
0
41
1
10
69.5680205475151
20
-0.468308180039799
30
0
0
SPLINE
5
1A1
100
AcDbEntity
8
1
62
256
6
ByLayer
370
18
48
1
60
0
100
AcDbSpline
70
4
71
3
72
12
73
8
40
0
40
0
40
0
40
0
40
0.25
40
0.25
40
0.5
40
0.5
40
1
40
1
40
1
40
1
41
1
10
69.5680205475151
20
-0.468308180039827
30
0
41
1
10
69.5157110561726
20
-0.419448708457509
30
0
41
1
10
69.4633963045706
20
-0.370074096283332
30
0
41
1
10
69.3588640977976
20
-0.270417515828569
30
0
41
1
10
69.3068238179664
20
-0.220307634251696
30
0
41
1
10
69.1513204736101
20
-0.0691901224689104
30
0
41
1
10
69.0484770574302
20
0.0326080683877024
30
0
41
1
10
68.9463052280522
20
0.135312387521964
30
0
0
SPLINE
5
1A2
100
AcDbEntity
8
1
62
256
6
ByLayer
370
18
48
1
60
0
100
AcDbSpline
70
4
71
3
72
10
73
6
40
0
40
0
40
0
40
0
40
0.5
40
0.5
40
1
40
1
40
1
40
1
41
1
10
68.9463052280525
20
0.135312387521935
30
0
41
1
10
68.8913094344891
20
0.210468092802017
30
0
41
1
10
68.8360126989717
20
0.282787627093484
30
0
41
1
10
68.724843042096
20
0.421380798304114
30
0
41
1
10
68.6689997256
20
0.48763267413969
30
0
41
1
10
68.6128492992536
20
0.550681952056578
30
0
0
SPLINE
5
1A3
100
AcDbEntity
8
1
62
256
6
ByLayer
370
18
48
1
60
0
100
AcDbSpline
70
4
71
3
72
34
73
30
40
0
40
0
40
0
40
0
40
0.124999999999923
40
0.124999999999923
40
0.187499999999884
40
0.187499999999884
40
0.249999999999845
40
0.249999999999845
40
0.374999999999812
40
0.374999999999812
40
0.43749999999982
40
0.43749999999982
40
0.499999999999828
40
0.499999999999828
40
0.624999999999894
40
0.624999999999894
40
0.687499999999928
40
0.687499999999928
40
0.749999999999961
40
0.749999999999961
40
0.812499999999994
40
0.812499999999994
40
0.84375000000001
40
0.84375000000001
40
0.875000000000027
40
0.875000000000027
40
0.937500000000013
40
0.937500000000013
40
1
40
1
40
1
40
1
41
1
10
68.6128492992534
20
0.550681952056834
30
0
41
1
10
68.6019293212018
20
0.562943599488989
30
0
41
1
10
68.5892797209775
20
0.576354806170087
30
0
41
1
10
68.5683710798664
20
0.597717430404145
30
0
41
1
10
68.5610576143574
20
0.605065425729578
30
0
41
1
10
68.5458675928419
20
0.620106410351696
30
0
41
1
10
68.5380692872758
20
0.627722401027881
30
0
41
1
10
68.5141242172716
20
0.650834059119489
30
0
41
1
10
68.4974335770848
20
0.666589421532052
30
0
41
1
10
68.4713950293868
20
0.69074674740537
30
0
41
1
10
68.462546700362
20
0.69888766328782
30
0
41
1
10
68.4445085403151
20
0.715361693842283
30
0
41
1
10
68.4353892327748
20
0.723630186216866
30
0
41
1
10
68.4079636738344
20
0.748346166530098
30
0
41
1
10
68.3895004353726
20
0.76478703340544
30
0
41
1
10
68.3615644404683
20
0.789456982114416
30
0
41
1
10
68.3522118533524
20
0.797681739247651
30
0
41
1
10
68.3334251829161
20
0.814147203703186
30
0
41
1
10
68.3239839902629
20
0.82239382918857
30
0
41
1
10
68.3054884534594
20
0.838510238681096
30
0
41
1
10
68.2963788550452
20
0.846428479481915
30
0
41
1
10
68.2829619882006
20
0.8580711408502
30
0
41
1
10
68.2785311374661
20
0.861912720439136
30
0
41
1
10
68.2697621276531
20
0.86950993758424
30
0
41
1
10
68.2654200131076
20
0.873268980439491
30
0
41
1
10
68.2527539027549
20
0.884226949085928
30
0
41
1
10
68.2447199025996
20
0.891168112941415
30
0
41
1
10
68.2296224042279
20
0.904190039148261
30
0
41
1
10
68.222519686241
20
0.910304656939104
30
0
41
1
10
68.2162258414438
20
0.915699192520975
30
0
0
SPLINE
5
1A4
100
AcDbEntity
8
1
62
256
6
ByLayer
370
18
48
1
60
0
100
AcDbSpline
70
4
71
3
72
10
73
6
40
0
40
0
40
0
40
0
40
0.5
40
0.5
40
1
40
1
40
1
40
1
41
1
10
68.2162258414411
20
0.915699192521146
30
0
41
1
10
68.1328409175259
20
0.987169486681211
30
0
41
1
10
68.0502234011011
20
1.06538999392603
30
0
41
1
10
67.8861002296585
20
1.23493765844765
30
0
41
1
10
67.8048902111809
20
1.32594895988919
30
0
41
1
10
67.7243510389687
20
1.42279596535397
30
0
0
SPLINE
5
1A5
100
AcDbEntity
8
1
62
256
6
ByLayer
370
18
48
1
60
0
100
AcDbSpline
70
4
71
3
72
8
73
4
40
0
40
0
40
0
40
0
40
1
40
1
40
1
40
1
41
1
10
67.7243510389689
20
1.42279596535394
30
0
41
1
10
67.6876765988999
20
1.46272300430999
30
0
41
1
10
67.6510215788529
20
1.50270544810186
30
0
41
1
10
67.6143795527381
20
1.54273748376639
30
0
0
SPLINE
5
1A6
100
AcDbEntity
8
1
62
256
6
ByLayer
370
18
48
1
60
0
100
AcDbSpline
70
4
71
3
72
8
73
4
40
0
40
0
40
0
40
0
40
1
40
1
40
1
40
1
41
1
10
67.5576727067191
20
1.60316872923099
30
0
41
1
10
67.5765782753339
20
1.58306266404256
30
0
41
1
10
67.5954802985414
20
1.56291868322455
30
0
41
1
10
67.6143795527381
20
1.54273748376636
30
0
0
SPLINE
5
1A7
100
AcDbEntity
8
1
62
256
6
ByLayer
370
18
48
1
60
0
100
AcDbSpline
70
4
71
3
72
14
73
10
40
0
40
0
40
0
40
0
40
0.25
40
0.25
40
0.5
40
0.5
40
0.75
40
0.75
40
1
40
1
40
1
40
1
41
1
10
67.5576727067191
20
1.60316872923099
30
0
41
1
10
67.5143923126994
20
1.64102224916201
30
0
41
1
10
67.4709484097895
20
1.67676679391556
30
0
41
1
10
67.3836595197398
20
1.74398918484712
30
0
41
1
10
67.3397939637115
20
1.77548013492628
30
0
41
1
10
67.2517233228238
20
1.83402473883373
30
0
41
1
10
67.2074970636722
20
1.86109389021712
30
0
41
1
10
67.1186851225307
20
1.91068997254712
30
0
41
1
10
67.0741191605591
20
1.93321504980895
30
0
41
1
10
67.0293461750426
20
1.95340205780687
30
0
0
SPLINE
5
1A8
100
AcDbEntity
8
1
62
256
6
ByLayer
370
18
48
1
60
0
100
AcDbSpline
70
4
71
3
72
34
73
30
40
0
40
0
40
0
40
0
40
0.125000000000038
40
0.125000000000038
40
0.187500000000059
40
0.187500000000059
40
0.250000000000078
40
0.250000000000078
40
0.375000000000116
40
0.375000000000116
40
0.437500000000135
40
0.437500000000135
40
0.500000000000153
40
0.500000000000153
40
0.625000000000139
40
0.625000000000139
40
0.687500000000132
40
0.687500000000132
40
0.750000000000124
40
0.750000000000124
40
0.812500000000117
40
0.812500000000117
40
0.843750000000114
40
0.843750000000114
40
0.87500000000011
40
0.87500000000011
40
0.937500000000055
40
0.937500000000055
40
1
40
1
40
1
40
1
41
1
10
67.0293461750426
20
1.95340205780687
30
0
41
1
10
67.0184253894759
20
1.95832596410969
30
0
41
1
10
67.0057745439558
20
1.96514607067695
30
0
41
1
10
66.984863269257
20
1.97744733412381
30
0
41
1
10
66.9775489106368
20
1.98191132020941
30
0
41
1
10
66.9623565051563
20
1.991469889608
30
0
41
1
10
66.9545569955427
20
1.99651453106645
30
0
41
1
10
66.9306083774405
20
2.01237443349828
30
0
41
1
10
66.9139152369973
20
2.02390567439329
30
0
41
1
10
66.8878744891827
20
2.04259234224159
30
0
41
1
10
66.8790256595728
20
2.04905549440315
30
0
41
1
10
66.8609866428012
20
2.06247519606515
30
0
41
1
10
66.851867013097
20
2.06938002395876
30
0
41
1
10
66.8244403132018
20
2.09053032768179
30
0
41
1
10
66.805976041605
20
2.10527014991396
30
0
41
1
10
66.7780392863115
20
2.12852955370931
30
0
41
1
10
66.7686866028017
20
2.13647615079003
30
0
41
1
10
66.7499006804137
20
2.15282382717146
30
0
41
1
10
66.740460583458
20
2.161234264364
30
0
41
1
10
66.7219675153855
20
2.17817214675685
30
0
41
1
10
66.7128593605837
20
2.18674621548072
30
0
41
1
10
66.6994449416927
20
2.19979794099385
30
0
41
1
10
66.6950149537934
20
2.20418042451314
30
0
41
1
10
66.6862477543269
20
2.21301703970602
30
0
41
1
10
66.6819065369389
20
2.21747618164403
30
0
41
1
10
66.6692431077499
20
2.2307596522696
30
0
41
1
10
66.6612109433736
20
2.23955723890984
30
0
41
1
10
66.6461170142625
20
2.25701561879558
30
0
41
1
10
66.6390159092587
20
2.26573262539444
30
0
41
1
10
66.6327232688392
20
2.27410053277941
30
0
0
SPLINE
5
1A9
100
AcDbEntity
8
1
62
256
6
ByLayer
370
18
48
1
60
0
100
AcDbSpline
70
4
71
3
72
10
73
6
40
0
40
0
40
0
40
0
40
0.5
40
0.5
40
1
40
1
40
1
40
1
41
1
10
66.6327232688392
20
2.27410053277816
30
0
41
1
10
66.546626624668
20
2.3885912229423
30
0
41
1
10
66.4613594240773
20
2.50849237668899
30
0
41
1
10
66.2920007242694
20
2.75858595310996
30
0
41
1
10
66.208232711317
20
2.88827794193887
30
0
41
1
10
66.1251839258097
20
3.02224495255712
30
0
0
SPLINE
5
1AA
100
AcDbEntity
8
1
62
256
6
ByLayer
370
18
48
1
60
0
100
AcDbSpline
70
4
71
3
72
8
73
4
40
0
40
0
40
0
40
0
40
1
40
1
40
1
40
1
41
1
10
65.9741723502135
20
3.15651619681333
30
0
41
1
10
66.0245321583097
20
3.11231886739662
30
0
41
1
10
66.0748648939596
20
3.06755827047061
30
0
41
1
10
66.1251839258082
20
3.02224495256508
30
0
0
SPLINE
5
1AB
100
AcDbEntity
8
1
62
256
6
ByLayer
370
18
48
1
60
0
100
AcDbSpline
70
4
71
3
72
14
73
10
40
0
40
0
40
0
40
0
40
0.25
40
0.25
40
0.5
40
0.5
40
0.75
40
0.75
40
1
40
1
40
1
40
1
41
1
10
65.9741723502135
20
3.15651619681333
30
0
41
1
10
65.9308900463029
20
3.16251580821236
30
0
41
1
10
65.8874428351959
20
3.16626765540752
30
0
41
1
10
65.8001487843525
20
3.16923277716586
30
0
41
1
10
65.7562813017468
20
3.16844340132553
30
0
41
1
10
65.6682148014086
20
3.16227267765152
30
0
41
1
10
65.6239940259115
20
3.15689215157551
30
0
41
1
10
65.5351963510627
20
3.14150669366492
30
0
41
1
10
65.4906390272739
20
3.13151239933029
30
0
41
1
10
65.4458754922917
20
3.11916895766848
30
0
0
SPLINE
5
1AC
100
AcDbEntity
8
1
62
256
6
ByLayer
370
18
48
1
60
0
100
AcDbSpline
70
4
71
3
72
34
73
30
40
0
40
0
40
0
40
0
40
0.125000000000068
40
0.125000000000068
40
0.187500000000101
40
0.187500000000101
40
0.250000000000135
40
0.250000000000135
40
0.375000000000204
40
0.375000000000204
40
0.437500000000215
40
0.437500000000215
40
0.500000000000226
40
0.500000000000226
40
0.625000000000247
40
0.625000000000247
40
0.687500000000231
40
0.687500000000231
40
0.750000000000214
40
0.750000000000214
40
0.812500000000198
40
0.812500000000198
40
0.843750000000165
40
0.843750000000165
40
0.875000000000132
40
0.875000000000132
40
0.937500000000066
40
0.937500000000066
40
1
40
1
40
1
40
1
41
1
10
65.4458754922917
20
3.11916895766848
30
0
41
1
10
65.4349505720523
20
3.11615643607721
30
0
41
1
10
65.422294370306
20
3.11556113883228
30
0
41
1
10
65.40137403086
20
3.11731841875775
30
0
41
1
10
65.3940563539229
20
3.11836110875052
30
0
41
1
10
65.3788577088794
20
3.12128742742274
30
0
41
1
10
65.3710551600217
20
3.12315446613619
30
0
41
1
10
65.3470978402028
20
3.12985818355597
30
0
41
1
10
65.3303994347636
20
3.13578290538089
30
0
41
1
10
65.304352261647
20
3.14676009125722
30
0
41
1
10
65.2955016064451
20
3.15077144307361
30
0
41
1
10
65.2774596557991
20
3.15953040078259
30
0
41
1
10
65.2683404973924
20
3.164244554877
30
0
41
1
10
65.2409138174234
20
3.17929757732631
30
0
41
1
10
65.2224502655762
20
3.19057308748336
30
0
41
1
10
65.1945161595915
20
3.2096389932901
30
0
41
1
10
65.185164698487
20
3.2163565576968
30
0
41
1
10
65.1663818173562
20
3.23062919348334
30
0
41
1
10
65.1569458638554
20
3.23819416969738
30
0
41
1
10
65.138460340791
20
3.25392027424138
30
0
41
1
10
65.1293556808017
20
3.26212057624363
30
0
41
1
10
65.115945940759
20
3.27501352608243
30
0
41
1
10
65.1115174180729
20
3.27941037615582
30
0
41
1
10
65.1027529280747
20
3.28842452804906
30
0
41
1
10
65.0984134582778
20
3.29304726719448
30
0
41
1
10
65.0857547011839
20
3.30705771756345
30
0
41
1
10
65.0777247609873
20
3.31665286701292
30
0
41
1
10
65.0626334931815
20
3.33644643780545
30
0
41
1
10
65.0555329518799
20
3.34671644220788
30
0
41
1
10
65.0492402362869
20
3.3570500243674
30
0
0
SPLINE
5
1AD
100
AcDbEntity
8
1
62
256
6
ByLayer
370
18
48
1
60
0
100
AcDbSpline
70
4
71
3
72
10
73
6
40
0
40
0
40
0
40
0
40
0.500000000000001
40
0.500000000000001
40
1
40
1
40
1
40
1
41
1
10
65.0492402362864
20
3.35705002436725
30
0
41
1
10
64.963151045911
20
3.49842137806184
30
0
41
1
10
64.8778902863583
20
3.64270532864796
30
0
41
1
10
64.7085331817224
20
3.93665756374196
30
0
41
1
10
64.6247680295505
20
4.0857781077309
30
0
41
1
10
64.5417182900476
20
4.23672151874359
30
0
0
SPLINE
5
1AE
100
AcDbEntity
8
1
62
256
6
ByLayer
370
18
48
1
60
0
100
AcDbSpline
70
4
71
3
72
8
73
4
40
0
40
0
40
0
40
0
40
1
40
1
40
1
40
1
41
1
10
64.3906602296983
20
4.32757650537616
30
0
41
1
10
64.4410373026616
20
4.29807784746268
30
0
41
1
10
64.4913885183855
20
4.2677917198383
30
0
41
1
10
64.5417182900463
20
4.23672151875488
30
0
0
SPLINE
5
1AF
100
AcDbEntity
8
1
62
256
6
ByLayer
370
18
48
1
60
0
100
AcDbSpline
70
4
71
3
72
14
73
10
40
0
40
0
40
0
40
0
40
0.25
40
0.25
40
0.5
40
0.5
40
0.75
40
0.75
40
1
40
1
40
1
40
1
41
1
10
64.3906602296983
20
4.32757650537613
30
0
41
1
10
64.3473893685223
20
4.30099880012639
30
0
41
1
10
64.3039530844889
20
4.27231269505606
30
0
41
1
10
64.2166764358561
20
4.21070442469207
30
0
41
1
10
64.1728153146976
20
4.17776487064069
30
0
41
1
10
64.084751973138
20
4.1077161548003
30
0
41
1
10
64.0405287317581
20
4.0705914881635
30
0
41
1
10
63.951723110582
20
3.99219112282557
30
0
41
1
10
63.9071601259243
20
3.95093708947172
30
0
41
1
10
63.8623927963071
20
3.90759397593376
30
0
0
SPLINE
5
1B0
100
AcDbEntity
8
1
62
256
6
ByLayer
370
18
48
1
60
0
100
AcDbSpline
70
4
71
3
72
34
73
30
40
0
40
0
40
0
40
0
40
0.125000000000143
40
0.125000000000143
40
0.187500000000195
40
0.187500000000195
40
0.250000000000248
40
0.250000000000248
40
0.375000000000307
40
0.375000000000307
40
0.437500000000312
40
0.437500000000312
40
0.500000000000318
40
0.500000000000318
40
0.625000000000278
40
0.625000000000278
40
0.687500000000257
40
0.687500000000257
40
0.750000000000237
40
0.750000000000237
40
0.812500000000217
40
0.812500000000217
40
0.843750000000181
40
0.843750000000181
40
0.875000000000145
40
0.875000000000145
40
0.937500000000072
40
0.937500000000072
40
1
40
1
40
1
40
1
41
1
10
63.8623927963071
20
3.90759397593365
30
0
41
1
10
63.851464946172
20
3.89701378155578
30
0
41
1
10
63.8388050665964
20
3.88907841607531
30
0
41
1
10
63.8178785783441
20
3.88008162948853
30
0
41
1
10
63.8105588144761
20
3.87757723906103
30
0
41
1
10
63.7953557212618
20
3.87351730705453
30
0
41
1
10
63.7875510548932
20
3.87198051226051
30
0
41
1
10
63.7635878787401
20
3.86871460554647
30
0
41
1
10
63.7468862261345
20
3.86831263141909
30
0
41
1
10
63.7208358703074
20
3.87024344901141
30
0
41
1
10
63.7119844304453
20
3.87131405393936
30
0
41
1
10
63.6939416421155
20
3.87434386902129
30
0
41
1
10
63.6848226534625
20
3.87629317107897
30
0
41
1
10
63.6573968053211
20
3.88341297424415
30
0
41
1
10
63.6389346798964
20
3.88984776062145
30
0
41
1
10
63.6110042569928
20
3.90239108051864
30
0
41
1
10
63.6016542690607
20
3.90705867565916
30
0
41
1
10
63.5828747860006
20
3.91751161599433
30
0
41
1
10
63.5734412256621
20
3.92330806843361
30
0
41
1
10
63.5549602433301
20
3.93590283603362
30
0
41
1
10
63.5458578088627
20
3.94272810202904
30
0
41
1
10
63.5324512872373
20
3.95388767988155
30
0
41
1
10
63.5280238172742
20
3.95776186065137
30
0
41
1
10
63.5192613819027
20
3.96585246347485
30
0
41
1
10
63.5149230021479
20
3.97007451480272
30
0
41
1
10
63.502267292405
20
3.98310161811256
30
0
41
1
10
63.4942391035161
20
3.99232268186057
30
0
41
1
10
63.4791507408453
20
4.01203420384459
30
0
41
1
10
63.4720513418598
20
4.02260315108487
30
0
41
1
10
63.4657593927818
20
4.03364068877514
30
0
0
SPLINE
5
1B1
100
AcDbEntity
8
1
62
256
6
ByLayer
370
18
48
1
60
0
100
AcDbSpline
70
4
71
3
72
25
73
21
40
0
40
0
40
0
40
0
40
0.125
40
0.250000000000001
40
0.250000000000001
40
0.312500000000001
40
0.312500000000001
40
0.375000000000001
40
0.375000000000001
40
0.5
40
0.5
40
0.625
40
0.625
40
0.75
40
0.75
40
0.8125
40
0.8125
40
0.875
40
0.875
40
1
40
1
40
1
40
1
41
1
10
61.4293730774249
20
1.27945045989378
30
0
41
1
10
61.4371754262181
20
1.14006057800589
30
0
41
1
10
61.4527124901007
20
0.858735774903749
30
0
41
1
10
61.4681943489118
20
0.572374291924802
30
0
41
1
10
61.4798643777535
20
0.355692659116272
30
0
41
1
10
61.4837651984017
20
0.283146637693051
30
0
41
1
10
61.4916047897821
20
0.137407614925252
30
0
41
1
10
61.4955500675599
20
0.0640608173951591
30
0
41
1
10
61.5073238224084
20
-0.154897244045344
30
0
41
1
10
61.5151154460624
20
-0.299934581832787
30
0
41
1
10
61.5306219093898
20
-0.588189429631285
30
0
41
1
10
61.5383367866715
20
-0.731406813906034
30
0
41
1
10
61.5537933064917
20
-1.01602398308728
30
0
41
1
10
61.561548992221
20
-1.1574233678449
30
0
41
1
10
61.5732560448185
20
-1.36812904280711
30
0
41
1
10
61.577168776597
20
-1.4381317470712
30
0
41
1
10
61.5850179781101
20
-1.57766279618136
30
0
41
1
10
61.5889329772111
20
-1.6468089793604
30
0
41
1
10
61.6006478532495
20
-1.85220146198262
30
0
41
1
10
61.6084208386519
20
-1.98649751876272
30
0
41
1
10
61.6162081678822
20
-2.11817084912653
30
0
0
SPLINE
5
1B2
100
AcDbEntity
8
1
62
256
6
ByLayer
370
18
48
1
60
0
100
AcDbSpline
70
4
71
3
72
8
73
4
40
0
40
0
40
0
40
0
40
1
40
1
40
1
40
1
41
1
10
62.0007815062383
20
-2.51934386993833
30
0
41
1
10
61.8734701052948
20
-2.38825550178703
30
0
41
1
10
61.7453875860791
20
-2.25446937094478
30
0
41
1
10
61.616208167873
20
-2.11817084912647
30
0
0
SPLINE
5
1B3
100
AcDbEntity
8
1
62
256
6
ByLayer
370
18
48
1
60
0
100
AcDbSpline
70
4
71
3
72
8
73
4
40
0
40
0
40
0
40
0
40
1
40
1
40
1
40
1
41
1
10
61.4293730774162
20
1.2794504598931
30
0
41
1
10
61.5678519642295
20
1.14468204822981
30
0
41
1
10
61.7054843028611
20
1.00792014184373
30
0
41
1
10
61.8423984447995
20
0.869303579798952
30
0
0
SPLINE
5
1B4
100
AcDbEntity
8
1
62
256
6
ByLayer
370
18
48
1
60
0
100
AcDbSpline
70
4
71
3
72
27
73
23
40
0
40
0
40
0
40
0
40
0.125
40
0.125
40
0.25
40
0.25
40
0.3125
40
0.34375
40
0.34375
40
0.375
40
0.375
40
0.5
40
0.5
40
0.625
40
0.75
40
0.75
40
0.812499999999999
40
0.812499999999999
40
0.843749999999999
40
0.843749999999999
40
0.874999999999999
40
1
40
1
40
1
40
1
41
1
10
62.0007815062308
20
-2.51934386993543
30
0
41
1
10
61.9942245934438
20
-2.39341956152046
30
0
41
1
10
61.9876971818368
20
-2.26463815893459
30
0
41
1
10
61.9745898567662
20
-2.00141203701492
30
0
41
1
10
61.9680128440728
20
-1.86696747741505
30
0
41
1
10
61.9581155947029
20
-1.66099153014815
30
0
41
1
10
61.9531583698908
20
-1.55692467101963
30
0
41
1
10
61.9481824957863
20
-1.45121259285392
30
0
41
1
10
61.9448599912814
20
-1.38036814736125
30
0
41
1
10
61.943199658071
20
-1.3448361242543
30
0
41
1
10
61.9349201893777
20
-1.16707282354918
30
0
41
1
10
61.928348890261
20
-1.02409415969234
30
0
41
1
10
61.9151990555998
20
-0.736646590101543
30
0
41
1
10
61.9020436970051
20
-0.447708516441025
30
0
41
1
10
61.8888840325118
20
-0.155801511285006
30
0
41
1
10
61.8789723827309
20
0.0642633576035507
30
0
41
1
10
61.8756610617957
20
0.137807686537997
30
0
41
1
10
61.8706735343029
20
0.248413489745332
30
0
41
1
10
61.8690087953095
20
0.285303015246711
30
0
41
1
10
61.8656835863944
20
0.35888955121257
30
0
41
1
10
61.8573734295504
20
0.542541114815265
30
0
41
1
10
61.8490550105168
20
0.724629727383132
30
0
41
1
10
61.8423984447946
20
0.869303579794263
30
0
0
SPLINE
5
1B5
100
AcDbEntity
8
1
62
256
6
ByLayer
370
18
48
1
60
0
100
AcDbSpline
70
4
71
3
72
12
73
8
40
0
40
0
40
0
40
0
40
0.499999999999987
40
0.499999999999987
40
0.749999999999994
40
0.749999999999994
40
1
40
1
40
1
40
1
41
1
10
62.4101342188097
20
-2.36508568706287
30
0
41
1
10
62.3409328652562
20
-2.4009393961507
30
0
41
1
10
62.2722783920225
20
-2.43161182643451
30
0
41
1
10
62.1699163586302
20
-2.47011894299757
30
0
41
1
10
62.13588066201
20
-2.48170997178445
30
0
41
1
10
62.0681214816136
20
-2.50238660243207
30
0
41
1
10
62.0343876264801
20
-2.51147745003954
30
0
41
1
10
62.0007815062401
20
-2.51934386992809
30
0
0
SPLINE
5
1B6
100
AcDbEntity
8
1
62
256
6
ByLayer
370
13
48
1
60
0
100
AcDbSpline
70
4
71
3
72
10
73
6
40
0
40
0
40
0
40
0
40
0.364920515130614
40
0.777707150457326
40
1
40
1
40
1
40
1
41
1
10
62.2533499227193
20
0.265493231875865
30
0
41
1
10
62.2724211974123
20
-0.0714757400602366
30
0
41
1
10
62.3130654025834
20
-0.795037882058978
30
0
41
1
10
62.3653267353289
20
-1.68369717611927
30
0
41
1
10
62.3985168799243
20
-2.19462500843687
30
0
41
1
10
62.4101342188097
20
-2.36508568706287
30
0
0
SPLINE
5
1B7
100
AcDbEntity
8
1
62
256
6
ByLayer
370
18
48
1
60
0
100
AcDbSpline
70
4
71
3
72
12
73
8
40
0
40
0
40
0
40
0
40
0.500000000000001
40
0.500000000000001
40
0.75
40
0.75
40
1
40
1
40
1
40
1
41
1
10
61.8423984447967
20
0.869303579800203
30
0
41
1
10
61.9098337819079
20
0.76092681420613
30
0
41
1
10
61.9778476664422
20
0.656132028405636
30
0
41
1
10
62.0805971967004
20
0.505008140459324
30
0
41
1
10
62.1149863090889
20
0.455618217891868
30
0
41
1
10
62.1839824001737
20
0.358970042545962
30
0
41
1
10
62.2185975796766
20
0.311699166684605
30
0
41
1
10
62.2533499227193
20
0.265493231875865
30
0
0
SPLINE
5
1B8
100
AcDbEntity
8
1
62
256
6
ByLayer
370
18
48
1
60
0
100
AcDbSpline
70
4
71
3
72
114
73
110
40
0
40
0
40
0
40
0
40
0.0156250000000005
40
0.0156250000000005
40
0.031250000000001
40
0.031250000000001
40
0.0625000000000051
40
0.0625000000000051
40
0.0937500000000091
40
0.0937500000000091
40
0.125000000000013
40
0.125000000000013
40
0.156250000000017
40
0.156250000000017
40
0.171875000000019
40
0.171875000000019
40
0.187500000000021
40
0.187500000000021
40
0.250000000000026
40
0.250000000000026
40
0.281250000000026
40
0.281250000000026
40
0.289062500000026
40
0.289062500000026
40
0.296875000000026
40
0.296875000000026
40
0.31250000000003
40
0.31250000000003
40
0.343750000000035
40
0.343750000000035
40
0.375000000000039
40
0.375000000000039
40
0.406250000000043
40
0.406250000000043
40
0.414062500000041
40
0.414062500000041
40
0.42187500000004
40
0.42187500000004
40
0.43750000000004
40
0.43750000000004
40
0.46875000000004
40
0.46875000000004
40
0.476562500000041
40
0.476562500000041
40
0.484375000000042
40
0.484375000000042
40
0.500000000000044
40
0.500000000000044
40
0.515625000000046
40
0.515625000000046
40
0.531250000000047
40
0.531250000000047
40
0.535156250000048
40
0.535156250000048
40
0.539062500000048
40
0.539062500000048
40
0.546875000000049
40
0.546875000000049
40
0.562500000000049
40
0.562500000000049
40
0.570312500000049
40
0.570312500000049
40
0.574218750000048
40
0.574218750000048
40
0.578125000000047
40
0.578125000000047
40
0.593750000000046
40
0.593750000000046
40
0.601562500000045
40
0.601562500000045
40
0.605468750000045
40
0.605468750000045
40
0.609375000000045
40
0.609375000000045
40
0.617187500000045
40
0.617187500000045
40
0.625000000000044
40
0.625000000000044
40
0.640625000000044
40
0.640625000000044
40
0.648437500000044
40
0.648437500000044
40
0.656250000000044
40
0.656250000000044
40
0.671875000000043
40
0.671875000000043
40
0.687500000000043
40
0.687500000000043
40
0.695312500000041
40
0.695312500000041
40
0.70312500000004
40
0.70312500000004
40
0.718750000000038
40
0.718750000000038
40
0.750000000000033
40
0.750000000000033
40
0.781250000000028
40
0.781250000000028
40
0.812500000000023
40
0.812500000000023
40
0.828125000000021
40
0.828125000000021
40
0.843750000000019
40
0.843750000000019
40
0.875000000000014
40
0.875000000000014
40
0.937500000000007
40
0.937500000000007
40
1
40
1
40
1
40
1
41
1
10
44.3491508514836
20
-2.76050381046565
30
0
41
1
10
44.3070960779644
20
-2.73405137507714
30
0
41
1
10
44.2648579210876
20
-2.70746900153279
30
0
41
1
10
44.1797689972774
20
-2.65434408137605
30
0
41
1
10
44.1368900345321
20
-2.62783289741876
30
0
41
1
10
44.0074214062347
20
-2.54834088717584
30
0
41
1
10
43.9199438613074
20
-2.49545842328271
30
0
41
1
10
43.7422032561523
20
-2.39078737611177
30
0
41
1
10
43.6519366786755
20
-2.33900318203857
30
0
41
1
10
43.468202536784
20
-2.23739111413508
30
0
41
1
10
43.3747118112658
20
-2.18758969146111
30
0
41
1
10
43.1839395094039
20
-2.09105336979604
30
0
41
1
10
43.0866568197546
20
-2.04432069109595
30
0
41
1
10
42.937541891847
20
-1.97726988678681
30
0
41
1
10
42.8872488202289
20
-1.95540690201761
30
0
41
1
10
42.7862578715457
20
-1.91308741031787
30
0
41
1
10
42.735484956299
20
-1.89259695976924
30
0
41
1
10
42.480113955558
20
-1.79393694391598
30
0
41
1
10
42.27096800931
20
-1.72723957943177
30
0
41
1
10
41.9479849536414
20
-1.65319554465404
30
0
41
1
10
41.8388452222965
20
-1.63265430266472
30
0
41
1
10
41.6999274580332
20
-1.61417971213058
30
0
41
1
10
41.6720216752698
20
-1.61083778459155
30
0
41
1
10
41.6160104539206
20
-1.60473211829572
30
0
41
1
10
41.5879040404981
20
-1.60196879465221
30
0
41
1
10
41.5037269135542
20
-1.59435494902897
30
0
41
1
10
41.4476458051945
20
-1.5900485699855
30
0
41
1
10
41.27953290495
20
-1.57985876311676
30
0
41
1
10
41.1676293179026
20
-1.57666031330828
30
0
41
1
10
40.9442167285185
20
-1.57855429448708
30
0
41
1
10
40.8326941157908
20
-1.58336146294511
30
0
41
1
10
40.6100582696579
20
-1.60153212520748
30
0
41
1
10
40.498944724941
20
-1.61489073630298
30
0
41
1
10
40.3603528929412
20
-1.63777393114839
30
0
41
1
10
40.3326496257384
20
-1.64266146237696
30
0
41
1
10
40.2772748417658
20
-1.6530870305067
30
0
41
1
10
40.2495677725468
20
-1.65863288884691
30
0
41
1
10
40.1668144445966
20
-1.67622629975878
30
0
41
1
10
40.1121510098274
20
-1.68925209437049
30
0
41
1
10
39.9497849527984
20
-1.73243558264394
30
0
41
1
10
39.8436782942281
20
-1.76663874257184
30
0
41
1
10
39.7144677555455
20
-1.8177580074989
30
0
41
1
10
39.6887978320092
20
-1.82840186027963
30
0
41
1
10
39.6378291152788
20
-1.85058550663228
30
0
41
1
10
39.6126335778198
20
-1.86208174259625
30
0
41
1
10
39.5382059440764
20
-1.89771039993747
30
0
41
1
10
39.4900144949243
20
-1.92301194336005
30
0
41
1
10
39.3969089316313
20
-1.97707248598502
30
0
41
1
10
39.3519769568992
20
-2.00581075591325
30
0
41
1
10
39.2657175098558
20
-2.06694557950092
30
0
41
1
10
39.2243864047318
20
-2.09933916135978
30
0
41
1
10
39.1753473944359
20
-2.14239686192639
30
0
41
1
10
39.1656715935522
20
-2.15113734377644
30
0
41
1
10
39.1465968233411
20
-2.1688862056663
30
0
41
1
10
39.1372012322755
20
-2.17789291324581
30
0
41
1
10
39.1096793128134
20
-2.20509695243697
30
0
41
1
10
39.0921376930168
20
-2.22355079324504
30
0
41
1
10
39.042019150657
20
-2.27986550335015
30
0
41
1
10
39.0119875907781
20
-2.31870103259541
30
0
41
1
10
38.9721873313799
20
-2.37877527185228
30
0
41
1
10
38.9597968899789
20
-2.39910413586998
30
0
41
1
10
38.9425704515006
20
-2.43004691789724
30
0
41
1
10
38.9370479381629
20
-2.44045180385788
30
0
41
1
10
38.9265499364822
20
-2.46123304539856
30
0
41
1
10
38.9215632657067
20
-2.47162802634671
30
0
41
1
10
38.8979145848643
20
-2.52361395522001
30
0
41
1
10
38.8830902061596
20
-2.56523495546483
30
0
41
1
10
38.866604518192
20
-2.62753257292133
30
0
41
1
10
38.8621014762178
20
-2.64828198110302
30
0
41
1
10
38.8566538804494
20
-2.67933568300759
30
0
41
1
10
38.8550527530201
20
-2.68967470184722
30
0
41
1
10
38.8523802351584
20
-2.71034306114592
30
0
41
1
10
38.8513073658171
20
-2.7207011190398
30
0
41
1
10
38.8490442705852
20
-2.75151810378259
30
0
41
1
10
38.8488389227496
20
-2.77171774559338
30
0
41
1
10
38.8512223944305
20
-2.81142707032836
30
0
41
1
10
38.8536849206449
20
-2.8309483671456
30
0
41
1
10
38.8643791565748
20
-2.88857916628632
30
0
41
1
10
38.8758948643261
20
-2.92575872620935
30
0
41
1
10
38.8982752530068
20
-2.97985971498036
30
0
41
1
10
38.9066095934023
20
-2.99763491638944
30
0
41
1
10
38.9245616966293
20
-3.03221859294806
30
0
41
1
10
38.9341983055155
20
-3.04908920763086
30
0
41
1
10
38.9648402781045
20
-3.09855701701286
30
0
41
1
10
38.9875649182659
20
-3.13001630460161
30
0
41
1
10
39.0365126260811
20
-3.19039693481699
30
0
41
1
10
39.0627448668428
20
-3.21931446969592
30
0
41
1
10
39.1042179155196
20
-3.26102249015909
30
0
41
1
10
39.1183987255025
20
-3.27464607476261
30
0
41
1
10
39.1474101032725
20
-3.30136516588229
30
0
41
1
10
39.1622593131536
20
-3.31447563740667
30
0
41
1
10
39.2074903227362
20
-3.35287707075835
30
0
41
1
10
39.2385736918412
20
-3.37729005943896
30
0
41
1
10
39.3340699086719
20
-3.44741242917863
30
0
41
1
10
39.4007152729494
20
-3.49002324636922
30
0
41
1
10
39.5381435284111
20
-3.56847042850527
30
0
41
1
10
39.6089409131583
20
-3.60429413155657
30
0
41
1
10
39.7535647989525
20
-3.67001412457861
30
0
41
1
10
39.8273979988638
20
-3.69990457283876
30
0
41
1
10
39.9398642116385
20
-3.74066833453392
30
0
41
1
10
39.9776788155311
20
-3.75358709545745
30
0
41
1
10
40.0536200299744
20
-3.77804196503519
30
0
41
1
10
40.0917237526432
20
-3.78957249804887
30
0
41
1
10
40.2063513815088
20
-3.82215646652122
30
0
41
1
10
40.2831881277879
20
-3.84120744209812
30
0
41
1
10
40.5144502267567
20
-3.89078440738385
30
0
41
1
10
40.6696000585074
20
-3.913783089519
30
0
41
1
10
40.9803113463683
20
-3.94037813818548
30
0
41
1
10
41.1358748766102
20
-3.94395627480313
30
0
41
1
10
41.2913980417984
20
-3.93743866644635
30
0
0
SPLINE
5
1B9
100
AcDbEntity
8
1
62
256
6
ByLayer
370
18
48
1
60
0
100
AcDbSpline
70
4
71
3
72
24
73
20
40
0
40
0
40
0
40
0
40
0.02703281309996
40
0.02703281309996
40
0.260861009368061
40
0.260861009368061
40
0.377775107502109
40
0.377775107502109
40
0.436232156569134
40
0.436232156569134
40
0.494689205636158
40
0.494689205636158
40
0.611603303770206
40
0.611603303770206
40
0.728517401904255
40
0.728517401904255
40
0.962345598172352
40
0.962345598172352
40
1
40
1
40
1
40
1
41
1
10
42.1628279551156
20
-1.70648416990969
30
0
41
1
10
42.1471867613554
20
-1.71746107142408
30
0
41
1
10
42.1316772064191
20
-1.72878493251324
30
0
41
1
10
41.9832771352564
20
-1.84138908308881
30
0
41
1
10
41.859008678289
20
-1.97027732637395
30
0
41
1
10
41.6957723477002
20
-2.19024371563248
30
0
41
1
10
41.6448082354972
20
-2.26817536899989
30
0
41
1
10
41.5730530408139
20
-2.39134406896633
30
0
41
1
10
41.5499121356764
20
-2.4334411367075
30
0
41
1
10
41.5051653071625
20
-2.5196816274923
30
0
41
1
10
41.4834853287184
20
-2.56327655924139
30
0
41
1
10
41.4247056226587
20
-2.69834674813356
30
0
41
1
10
41.3927666596391
20
-2.79335476850935
30
0
41
1
10
41.3408913385892
20
-2.99158710372933
30
0
41
1
10
41.3209852410649
20
-3.09559417506665
30
0
41
1
10
41.2789438541136
20
-3.40800977414912
30
0
41
1
10
41.2730338402524
20
-3.61997388935362
30
0
41
1
10
41.2863518649648
20
-3.86864336726626
30
0
41
1
10
41.2886543548996
20
-3.90307136402808
30
0
41
1
10
41.2913980715123
20
-3.93743903864131
30
0
0
SPLINE
5
1BA
100
AcDbEntity
8
SK1
62
256
6
ByLayer
370
18
48
1
60
0
100
AcDbSpline
70
4
71
3
72
25
73
21
40
0
40
0
40
0
40
0
40
0.062491130530761
40
0.062491130530761
40
0.124982261061522
40
0.124982261061522
40
0.249964522123044
40
0.249964522123044
40
0.499929044246089
40
0.499929044246089
40
0.624911305307612
40
0.624911305307612
40
0.687402435838373
40
0.687402435838373
40
0.749893566369134
40
0.749893566369134
40
0.874875827430657
40
0.874875827430657
40
0.999858088492179
40
1
40
1
40
1
40
1
41
1
10
-26.6
20
3.99999999999997
30
0
41
1
10
-26.6283317627322
20
3.99999999999997
30
0
41
1
10
-26.6562643308211
20
3.99999999999997
30
0
41
1
10
-26.7110666479687
20
3.99999999999997
30
0
41
1
10
-26.737959342392
20
3.99999999999997
30
0
41
1
10
-26.8169929964967
20
3.99999999999997
30
0
41
1
10
-26.8674930803063
20
3.99999999999997
30
0
41
1
10
-27.0113525868834
20
3.99999999999997
30
0
41
1
10
-27.0971352747749
20
3.99999999999997
30
0
41
1
10
-27.2052465276026
20
3.99999999999997
30
0
41
1
10
-27.237840514736
20
3.99999999999997
30
0
41
1
10
-27.2807541784904
20
3.99999999999997
30
0
41
1
10
-27.2940615568609
20
3.99999999999997
30
0
41
1
10
-27.3185359592893
20
3.99999999999997
30
0
41
1
10
-27.3297140257202
20
3.99999999999997
30
0
41
1
10
-27.3595680314471
20
3.99999999999997
30
0
41
1
10
-27.3746632622382
20
3.99999999999997
30
0
41
1
10
-27.3948651379692
20
3.99999999999997
30
0
41
1
10
-27.3999766854205
20
3.99999999999997
30
0
41
1
10
-27.3999994900082
20
3.99999999999997
30
0
41
1
10
-27.4000004901082
20
3.99999999999997
30
0
0
SPLINE
5
1BB
100
AcDbEntity
8
SK1
62
256
6
ByLayer
370
18
48
1
60
0
100
AcDbSpline
70
4
71
3
72
25
73
21
40
0
40
0
40
0
40
0
40
0.0001418738481145
40
0.1251241396171
40
0.1251241396171
40
0.250106405386086
40
0.250106405386086
40
0.312597538270579
40
0.312597538270579
40
0.375088671155072
40
0.375088671155072
40
0.500070936924058
40
0.500070936924058
40
0.750035468462029
40
0.750035468462029
40
0.875017734231015
40
0.875017734231015
40
0.937508867115507
40
0.937508867115507
40
1
40
1
40
1
40
1
41
1
10
-27.4000004900933
20
-4.00000000000003
30
0
41
1
10
-27.3999994899933
20
-4.00000000000003
30
0
41
1
10
-27.3999766838819
20
-4.00000000000003
30
0
41
1
10
-27.3948651379692
20
-4.00000000000003
30
0
41
1
10
-27.3746632622382
20
-4.00000000000003
30
0
41
1
10
-27.3595680314471
20
-4.00000000000003
30
0
41
1
10
-27.3297140257202
20
-4.00000000000003
30
0
41
1
10
-27.3185359592893
20
-4.00000000000003
30
0
41
1
10
-27.2940615568609
20
-4.00000000000003
30
0
41
1
10
-27.2807541784904
20
-4.00000000000003
30
0
41
1
10
-27.237840514736
20
-4.00000000000003
30
0
41
1
10
-27.2052465276027
20
-4.00000000000003
30
0
41
1
10
-27.0971352747749
20
-4.00000000000003
30
0
41
1
10
-27.0113525868834
20
-4.00000000000003
30
0
41
1
10
-26.8674930803063
20
-4.00000000000003
30
0
41
1
10
-26.8169929964967
20
-4.00000000000003
30
0
41
1
10
-26.737959342392
20
-4.00000000000003
30
0
41
1
10
-26.7110666479687
20
-4.00000000000003
30
0
41
1
10
-26.6562643308211
20
-4.00000000000003
30
0
41
1
10
-26.6283317627322
20
-4.00000000000003
30
0
41
1
10
-26.6
20
-4.00000000000003
30
0
0
SPLINE
5
1BC
100
AcDbEntity
8
SK1
62
256
6
ByLayer
370
18
48
1
60
0
100
AcDbSpline
70
4
71
3
72
40
73
36
40
0
40
0
40
0
40
0
40
0.03125
40
0.03125
40
0.0625000000000001
40
0.0625000000000001
40
0.125
40
0.125
40
0.25
40
0.25
40
0.375
40
0.375
40
0.390625
40
0.390625
40
0.40625
40
0.4375
40
0.4375
40
0.5
40
0.5625
40
0.5625
40
0.625
40
0.625
40
0.65625
40
0.65625
40
0.6875
40
0.6875
40
0.75
40
0.75
40
0.875
40
0.875
40
0.9375
40
0.9375
40
0.96875
40
0.96875
40
1
40
1
40
1
40
1
41
1
10
-26.5999999999999
20
-2.65329983228457
30
0
41
1
10
-26.6282295270017
20
-2.60223069642595
30
0
41
1
10
-26.6560584360805
20
-2.5508632880092
30
0
41
1
10
-26.7108403326679
20
-2.44747632020494
30
0
41
1
10
-26.7378072191618
20
-2.3954292926004
30
0
41
1
10
-26.8171780972791
20
-2.23839595975562
30
0
41
1
10
-26.8678480909849
20
-2.13293290519914
30
0
41
1
10
-27.012056092629
20
-1.81385201739309
30
0
41
1
10
-27.0978486134983
20
-1.59756195018468
30
0
41
1
10
-27.2417193148033
20
-1.15542022190161
30
0
41
1
10
-27.2997815074192
20
-0.929563044944587
30
0
41
1
10
-27.3446381375532
20
-0.668413761645894
30
0
41
1
10
-27.349342295642
20
-0.639263426553924
30
0
41
1
10
-27.3581304448549
20
-0.580981403716152
30
0
41
1
10
-27.3703872878578
20
-0.493575227391403
30
0
41
1
10
-27.3798443637048
20
-0.40622005524051
30
0
41
1
10
-27.3949812685901
20
-0.231578522144161
30
0
41
1
10
-27.4050766381913
20
0.0010930943988683
30
0
41
1
10
-27.3948651379693
20
0.233394774778958
30
0
41
1
10
-27.3746632622382
20
0.465514457578195
30
0
41
1
10
-27.3595680314471
20
0.581483316488743
30
0
41
1
10
-27.3297140257202
20
0.755305237060611
30
0
41
1
10
-27.3185359592893
20
0.813331433943375
30
0
41
1
10
-27.2940615568609
20
0.928380204804654
30
0
41
1
10
-27.2807541784904
20
0.98549487009106
30
0
41
1
10
-27.237840514736
20
1.15569355132644
30
0
41
1
10
-27.2052465276027
20
1.26763371778793
30
0
41
1
10
-27.0971352747749
20
1.59949962073117
30
0
41
1
10
-27.0113525868834
20
1.81549521327489
30
0
41
1
10
-26.8674930803063
20
2.13367480307187
30
0
41
1
10
-26.8169929964967
20
2.23875957323745
30
0
41
1
10
-26.737959342392
20
2.39512962098939
30
0
41
1
10
-26.7110666479687
20
2.44704311222699
30
0
41
1
10
-26.6562643308211
20
2.55048076102256
30
0
41
1
10
-26.6283317627322
20
2.60204574503041
30
0
41
1
10
-26.6
20
2.65329983228429
30
0
0
SPLINE
5
1BD
100
AcDbEntity
8
1
62
256
6
ByLayer
370
18
48
1
60
0
100
AcDbSpline
70
4
71
2
72
6
73
3
40
0
40
0
40
0
40
1
40
1
40
1
41
1
10
70.0238543310123
20
-4.4522703221208
30
0
41
1
10
70.0673806250476
20
-4.37730198610919
30
0
41
1
10
70.1109352763094
20
-4.30235187254343
30
0
0
SPLINE
5
1BE
100
AcDbEntity
8
1
62
256
6
ByLayer
370
18
48
1
60
0
100
AcDbSpline
70
4
71
1
72
4
73
2
40
0
40
0
40
1
40
1
41
1
10
66.31189314832
20
-4.75159974789969
30
0
41
1
10
66.4929642598942
20
-5.0640564895381
30
0
0
SPLINE
5
1BF
100
AcDbEntity
8
1
62
256
6
ByLayer
370
18
48
1
60
0
100
AcDbSpline
70
4
71
2
72
6
73
3
40
0
40
0
40
0
40
1
40
1
40
1
41
1
10
62.2414680395437
20
4.19848261448197
30
0
41
1
10
62.2066533069434
20
4.1341233411126
30
0
41
1
10
62.1349117545127
20
4.12324646227825
30
0
0
SPLINE
5
1C0
100
AcDbEntity
8
1
62
256
6
ByLayer
370
18
48
1
60
0
100
AcDbSpline
70
4
71
1
72
4
73
2
40
0
40
0
40
1
40
1
41
1
10
72
20
3.73592145939077
30
0
41
1
10
71.7235414393003
20
4.01232854200842
30
0
0
SPLINE
5
1C1
100
AcDbEntity
8
1
62
256
6
ByLayer
370
18
48
1
60
0
100
AcDbSpline
70
4
71
1
72
4
73
2
40
0
40
0
40
1
40
1
41
1
10
69.2748844502551
20
-4.63814427299903
30
0
41
1
10
69.8128481187587
20
-4.50262322735975
30
0
0
SPLINE
5
1C2
100
AcDbEntity
8
1
62
256
6
ByLayer
370
18
48
1
60
0
100
AcDbSpline
70
4
71
1
72
4
73
2
40
0
40
0
40
1
40
1
41
1
10
69.9231914018756
20
-4.47482611394338
30
0
41
1
10
69.9482204323183
20
-4.46852092908514
30
0
0
SPLINE
5
1C3
100
AcDbEntity
8
1
62
256
6
ByLayer
370
18
48
1
60
0
100
AcDbSpline
70
4
71
3
72
9
73
5
40
0
40
0
40
0
40
0
40
0.48789375239511
40
1
40
1
40
1
40
1
41
1
10
59.6644567379888
20
-4.21005484460036
30
0
41
1
10
59.6804962101579
20
-4.18154294354355
30
0
41
1
10
59.7236347720457
20
-4.13782436607534
30
0
41
1
10
59.7985945246732
20
-4.11520426506203
30
0
41
1
10
59.8371570570801
20
-4.11602642726683
30
0
0
SPLINE
5
1C4
100
AcDbEntity
8
1
62
256
6
ByLayer
370
18
48
1
60
0
100
AcDbSpline
70
4
71
2
72
6
73
3
40
0
40
0
40
0
40
1
40
1
40
1
41
1
10
68.9957732442044
20
-4.20657468649256
30
0
41
1
10
69.1208044708354
20
-4.42196298823282
30
0
41
1
10
69.2457179283955
20
-4.63742588788193
30
0
0
SPLINE
5
1C5
100
AcDbEntity
8
1
62
256
6
ByLayer
370
18
48
1
60
0
100
AcDbSpline
70
4
71
2
72
6
73
3
40
0
40
0
40
0
40
1
40
1
40
1
41
1
10
59.4654518040863
20
-4.55284743121288
30
0
41
1
10
59.5664111347724
20
-4.37890794973734
30
0
41
1
10
59.6675277152907
20
-4.20489970371926
30
0
0
SPLINE
5
1C6
100
AcDbEntity
8
1
62
256
6
ByLayer
370
18
48
1
60
0
100
AcDbSpline
70
4
71
2
72
6
73
3
40
0
40
0
40
0
40
1
40
1
40
1
41
1
10
62.7133805328125
20
5.01266942958009
30
0
41
1
10
62.480728600039
20
4.61123705283941
30
0
41
1
10
62.2475140824497
20
4.20945380810119
30
0
0
SPLINE
5
1C7
100
AcDbEntity
8
1
62
256
6
ByLayer
370
18
48
1
60
0
100
AcDbSpline
70
4
71
3
72
11
73
7
40
0
40
0
40
0
40
0
40
0.239936091480433
40
0.488976131559188
40
0.746212961217374
40
1
40
1
40
1
40
1
41
1
10
68.6665613236456
20
-4.20656784563025
30
0
41
1
10
68.6740486305131
20
-4.18847849462398
30
0
41
1
10
68.7033293227436
20
-4.15817429224481
30
0
41
1
10
68.7971766242603
20
-4.10847137970262
30
0
41
1
10
68.9272560675768
20
-4.12877259806646
30
0
41
1
10
68.9783124039022
20
-4.17824689736617
30
0
41
1
10
68.9996293120452
20
-4.2126692834631
30
0
0
SPLINE
5
1C8
100
AcDbEntity
8
1
62
256
6
ByLayer
370
18
48
1
60
0
100
AcDbSpline
70
4
71
2
72
6
73
3
40
0
40
0
40
0
40
1
40
1
40
1
41
1
10
63.4171757510593
20
4.20553905756123
30
0
41
1
10
63.176791093914
20
4.61912150814587
30
0
41
1
10
62.9366493961163
20
5.03332548942422
30
0
0
SPLINE
5
1C9
100
AcDbEntity
8
1
62
256
6
ByLayer
370
18
48
1
60
0
100
AcDbSpline
70
4
71
2
72
6
73
3
40
0
40
0
40
0
40
1
40
1
40
1
41
1
10
58.4972512401181
20
-4.209018085172
30
0
41
1
10
58.5631817579157
20
-4.32258091875093
30
0
41
1
10
58.62907207264
20
-4.43614529977316
30
0
0
SPLINE
5
1CA
100
AcDbEntity
8
1
62
256
6
ByLayer
370
18
48
1
60
0
100
AcDbSpline
70
4
71
3
72
11
73
7
40
0
40
0
40
0
40
0
40
0.221526475459399
40
0.464109878361811
40
0.726418003316728
40
1
40
1
40
1
40
1
41
1
10
63.7434387661817
20
4.20232730059664
30
0
41
1
10
63.7350260748867
20
4.18481587332124
30
0
41
1
10
63.7054039100623
20
4.15473722250911
30
0
41
1
10
63.611302598184
20
4.10819262206491
30
0
41
1
10
63.4833225584239
20
4.13072235254475
30
0
41
1
10
63.4356268570288
20
4.17457814751799
30
0
41
1
10
63.416649060655
20
4.20645884041167
30
0
0
SPLINE
5
1CB
100
AcDbEntity
8
1
62
256
6
ByLayer
370
18
48
1
60
0
100
AcDbSpline
70
4
71
2
72
6
73
3
40
0
40
0
40
0
40
1
40
1
40
1
41
1
10
68.2673105573738
20
-4.89418145949131
30
0
41
1
10
68.465915327281
20
-4.55174574881013
30
0
41
1
10
68.664836356338
20
-4.20942380253658
30
0
0
SPLINE
5
1CC
100
AcDbEntity
8
1
62
256
6
ByLayer
370
18
48
1
60
0
100
AcDbSpline
70
4
71
3
72
11
73
7
40
0
40
0
40
0
40
0
40
0.255721052433902
40
0.512138534356562
40
0.761878080710808
40
1
40
1
40
1
40
1
41
1
10
58.1662123945221
20
-4.20723485785697
30
0
41
1
10
58.1812859827332
20
-4.1797752889178
30
0
41
1
10
58.2229534221346
20
-4.13926188759135
30
0
41
1
10
58.3399319302367
20
-4.1060743082588
30
0
41
1
10
58.4471340987071
20
-4.14627720340098
30
0
41
1
10
58.4836194533476
20
-4.18314971578124
30
0
41
1
10
58.4957438073936
20
-4.2065056758106
30
0
0
SPLINE
5
1CD
100
AcDbEntity
8
1
62
256
6
ByLayer
370
18
48
1
60
0
100
AcDbSpline
70
4
71
2
72
6
73
3
40
0
40
0
40
0
40
1
40
1
40
1
41
1
10
58.0857542792121
20
-4.34571178219568
30
0
41
1
10
58.1261729497284
20
-4.27613177584624
30
0
41
1
10
58.1666068944795
20
-4.20656187604567
30
0
0
SPLINE
5
1CE
100
AcDbEntity
8
1
62
256
6
ByLayer
370
18
48
1
60
0
100
AcDbSpline
70
4
71
1
72
4
73
2
40
0
40
0
40
1
40
1
41
1
10
67.9581560242297
20
-4.97325334641536
30
0
41
1
10
68.2631658149193
20
-4.89634344595177
30
0
0
SPLINE
5
1CF
100
AcDbEntity
8
1
62
256
6
ByLayer
370
18
48
1
60
0
100
AcDbSpline
70
4
71
2
72
6
73
3
40
0
40
0
40
0
40
1
40
1
40
1
41
1
10
67.4957467671828
20
-4.20650728412491
30
0
41
1
10
67.7161189105955
20
-4.58614124914013
30
0
41
1
10
67.9361581325195
20
-4.96597707682736
30
0
0
SPLINE
5
1D0
100
AcDbEntity
8
1
62
256
6
ByLayer
370
18
48
1
60
0
100
AcDbSpline
70
4
71
3
72
11
73
7
40
0
40
0
40
0
40
0
40
0.243821636108677
40
0.50058050699584
40
0.756993752605461
40
1
40
1
40
1
40
1
41
1
10
67.1537382856263
20
-4.22254723538003
30
0
41
1
10
67.1691133223107
20
-4.19248528885851
30
0
41
1
10
67.2114477764829
20
-4.14533866825929
30
0
41
1
10
67.3259306706699
20
-4.10438359000062
30
0
41
1
10
67.4405268303081
20
-4.13955409697471
30
0
41
1
10
67.4828935211991
20
-4.18266369163536
30
0
41
1
10
67.4983081022494
20
-4.21067775316675
30
0
0
SPLINE
5
1D1
100
AcDbEntity
8
1
62
256
6
ByLayer
370
18
48
1
60
0
100
AcDbSpline
70
4
71
2
72
6
73
3
40
0
40
0
40
0
40
1
40
1
40
1
41
1
10
64.244124862585
20
5.06596432000885
30
0
41
1
10
63.9965400262383
20
4.63846514776168
30
0
41
1
10
63.7488012646122
20
4.21142093566317
30
0
0
SPLINE
5
1D2
100
AcDbEntity
8
1
62
256
6
ByLayer
370
18
48
1
60
0
100
AcDbSpline
70
4
71
2
72
6
73
3
40
0
40
0
40
0
40
1
40
1
40
1
41
1
10
64.9137120193027
20
4.21117814335653
30
0
41
1
10
64.6650373561103
20
4.63925390444237
30
0
41
1
10
64.4167111365775
20
5.06765271518483
30
0
0
SPLINE
5
1D3
100
AcDbEntity
8
1
62
256
6
ByLayer
370
18
48
1
60
0
100
AcDbSpline
70
4
71
2
72
6
73
3
40
0
40
0
40
0
40
1
40
1
40
1
41
1
10
65.045156635662
20
4.129461220053
30
0
41
1
10
64.9509252276388
20
4.12858924648458
30
0
41
1
10
64.9251668375232
20
4.18904036834368
30
0
0
LINE
5
83
100
AcDbEntity
8
4
62
256
6
ByLayer
370
18
48
0.05
60
0
100
AcDbLine
10
-5
20
0
30
0
11
77
21
0
31
0
39
0
210
0
220
0
230
1
0
LINE
5
85
100
AcDbEntity
8
81
62
256
6
ByLayer
370
18
48
1
60
0
100
AcDbLine
10
72
20
0
30
0
11
77
21
0
31
0
39
0
210
0
220
0
230
1
0
LINE
5
86
100
AcDbEntity
8
SK4
62
256
6
ByLayer
370
18
48
0.05
60
0
100
AcDbLine
10
-33
20
0
30
0
11
77
21
0
31
0
39
0
210
0
220
0
230
1
0
LINE
5
88
100
AcDbEntity
8
80
62
256
6
ByLayer
370
18
48
1
60
0
100
AcDbLine
10
0
20
0
30
0
11
-5
21
0
31
0
39
0
210
0
220
0
230
1
0
LINE
5
89
100
AcDbEntity
8
1
62
256
6
ByLayer
370
18
48
1
60
0
100
AcDbLine
10
0
20
5
30
0
11
0
21
-5
31
0
39
0
210
0
220
0
230
1
0
LINE
5
8A
100
AcDbEntity
8
1
62
256
6
ByLayer
370
18
48
1
60
0
100
AcDbLine
10
72
20
3.735921
30
0
11
72
21
3.731293
31
0
39
0
210
0
220
0
230
1
0
LINE
5
8B
100
AcDbEntity
8
1
62
256
6
ByLayer
370
18
48
1
60
0
100
AcDbLine
10
70.032275
20
-4.437769
30
0
11
70.027679
21
-4.444779
31
0
39
0
210
0
220
0
230
1
0
LINE
5
8C
100
AcDbEntity
8
1
62
256
6
ByLayer
370
18
48
1
60
0
100
AcDbLine
10
59.663855
20
-4.210983
30
0
11
59.667365
21
-4.205191
31
0
39
0
210
0
220
0
230
1
0
LINE
5
8D
100
AcDbEntity
8
1
62
256
6
ByLayer
370
18
48
1
60
0
100
AcDbLine
10
69.000543
20
-4.213953
30
0
11
68.995775
21
-4.206577
31
0
39
0
210
0
220
0
230
1
0
LINE
5
8E
100
AcDbEntity
8
1
62
256
6
ByLayer
370
18
48
1
60
0
100
AcDbLine
10
67.495812
20
-4.206619
30
0
11
67.498484
21
-4.210946
31
0
39
0
210
0
220
0
230
1
0
LINE
5
8F
100
AcDbEntity
8
1
62
256
6
ByLayer
370
18
48
1
60
0
100
AcDbLine
10
63.743701
20
4.202822
30
0
11
63.748789
21
4.211403
31
0
39
0
210
0
220
0
230
1
0
LINE
5
90
100
AcDbEntity
8
1
62
256
6
ByLayer
370
18
48
1
60
0
100
AcDbLine
10
57
20
-3.227616
30
0
11
57
21
-4.195952
31
0
39
0
210
0
220
0
230
1
0
LINE
5
91
100
AcDbEntity
8
1
62
256
6
ByLayer
370
13
48
1
60
0
100
AcDbLine
10
56.767392
20
-3.001129
30
0
11
56.767392
21
-4.030076
31
0
39
0
210
0
220
0
230
1
0
LINE
5
92
100
AcDbEntity
8
1
62
256
6
ByLayer
370
13
48
1
60
0
100
AcDbLine
10
56.767392
20
3.880355
30
0
11
56.767392
21
2.502225
31
0
39
0
210
0
220
0
230
1
0
LINE
5
93
100
AcDbEntity
8
1
62
256
6
ByLayer
370
18
48
1
60
0
100
AcDbLine
10
57
20
3.953272
30
0
11
57
21
2.383831
31
0
39
0
210
0
220
0
230
1
0
LINE
5
94
100
AcDbEntity
8
1
62
256
6
ByLayer
370
13
48
1
60
0
100
AcDbLine
10
56.303858
20
-3.819282
30
0
11
56.303858
21
-2.633577
31
0
39
0
210
0
220
0
230
1
0
LINE
5
95
100
AcDbEntity
8
1
62
256
6
ByLayer
370
13
48
1
60
0
100
AcDbLine
10
56.303858
20
2.749914
30
0
11
56.303858
21
3.855381
31
0
39
0
210
0
220
0
230
1
0
LINE
5
96
100
AcDbEntity
8
1
62
256
6
ByLayer
370
13
48
1
60
0
100
AcDbLine
10
33.096238
20
-3.9406
30
0
11
33.096238
21
3.9406
31
0
39
0
210
0
220
0
230
1
0
LINE
5
97
100
AcDbEntity
8
1
62
256
6
ByLayer
370
13
48
1
60
0
100
AcDbLine
10
32.905225
20
3.957311
30
0
11
32.905225
21
-3.957311
31
0
39
0
210
0
220
0
230
1
0
LINE
5
98
100
AcDbEntity
8
1
62
256
6
ByLayer
370
18
48
1
60
0
100
AcDbLine
10
26.991844
20
5
30
0
11
26.991844
21
-5
31
0
39
0
210
0
220
0
230
1
0
LINE
5
99
100
AcDbEntity
8
1
62
256
6
ByLayer
370
18
48
1
60
0
100
AcDbLine
10
63.167407
20
-0.546046
30
0
11
63.167407
21
-0.699503
31
0
39
0
210
0
220
0
230
1
0
LINE
5
9A
100
AcDbEntity
8
SK1
62
256
6
ByLayer
370
18
48
1
60
0
100
AcDbLine
10
-28
20
3.4
30
0
11
-28
21
-3.4
31
0
39
0
210
0
220
0
230
1
0
LINE
5
9C
100
AcDbEntity
8
SK1
62
256
6
ByLayer
370
18
48
1
60
0
100
AcDbLine
10
-17
20
2.6533
30
0
11
-17
21
-2.6533
31
0
39
0
210
0
220
0
230
1
0
LINE
5
9D
100
AcDbEntity
8
SK1
62
256
6
ByLayer
370
18
48
1
60
0
100
AcDbLine
10
-17
20
4
30
0
11
-16.2
21
4.8
31
0
39
0
210
0
220
0
230
1
0
LINE
5
9E
100
AcDbEntity
8
SK1
62
256
6
ByLayer
370
18
48
1
60
0
100
AcDbLine
10
-26.6
20
4
30
0
11
-17
21
4
31
0
39
0
210
0
220
0
230
1
0
LINE
5
9F
100
AcDbEntity
8
SK1
62
256
6
ByLayer
370
18
48
1
60
0
100
AcDbLine
10
-26.6
20
2.6533
30
0
11
-26.6
21
4
31
0
39
0
210
0
220
0
230
1
0
LINE
5
A0
100
AcDbEntity
8
SK1
62
256
6
ByLayer
370
18
48
1
60
0
100
AcDbLine
10
-17
20
2.6533
30
0
11
-26.6
21
2.6533
31
0
39
0
210
0
220
0
230
1
0
LINE
5
A1
100
AcDbEntity
8
SK1
62
256
6
ByLayer
370
18
48
1
60
0
100
AcDbLine
10
-26.6
20
-2.6533
30
0
11
-17
21
-2.6533
31
0
39
0
210
0
220
0
230
1
0
LINE
5
A2
100
AcDbEntity
8
SK1
62
256
6
ByLayer
370
18
48
1
60
0
100
AcDbLine
10
-26.6
20
-4
30
0
11
-26.6
21
-2.6533
31
0
39
0
210
0
220
0
230
1
0
LINE
5
A3
100
AcDbEntity
8
SK1
62
256
6
ByLayer
370
18
48
1
60
0
100
AcDbLine
10
-17
20
-4
30
0
11
-26.6
21
-4
31
0
39
0
210
0
220
0
230
1
0
LINE
5
A4
100
AcDbEntity
8
SK1
62
256
6
ByLayer
370
18
48
1
60
0
100
AcDbLine
10
-17
20
-4
30
0
11
-16.2
21
-4.8
31
0
39
0
210
0
220
0
230
1
0
LINE
5
A5
100
AcDbEntity
8
SK1
62
256
6
ByLayer
370
18
48
1
60
0
100
AcDbLine
10
0
20
5
30
0
11
0
21
-5
31
0
39
0
210
0
220
0
230
1
0
LINE
5
A6
100
AcDbEntity
8
SK1
62
256
6
ByLayer
370
18
48
1
60
0
100
AcDbLine
10
-15.9
20
4.8
30
0
11
-15.9
21
-4.8
31
0
39
0
210
0
220
0
230
1
0
LINE
5
A7
100
AcDbEntity
8
SK1
62
256
6
ByLayer
370
18
48
1
60
0
100
AcDbLine
10
-15.7
20
-5
30
0
11
-15.7
21
5
31
0
39
0
210
0
220
0
230
1
0
LINE
5
A8
100
AcDbEntity
8
1
62
256
6
ByLayer
370
18
48
1
60
0
100
AcDbLine
10
57.33918
20
-4.256583
30
0
11
58.065821
21
-4.358706
31
0
39
0
210
0
220
0
230
1
0
LINE
5
A9
100
AcDbEntity
8
1
62
256
6
ByLayer
370
18
48
1
60
0
100
AcDbLine
10
26.991844
20
5
30
0
11
0
21
5
31
0
39
0
210
0
220
0
230
1
0
LINE
5
AA
100
AcDbEntity
8
1
62
256
6
ByLayer
370
18
48
1
60
0
100
AcDbLine
10
0
20
-5
30
0
11
26.991844
21
-5
31
0
39
0
210
0
220
0
230
1
0
LINE
5
AB
100
AcDbEntity
8
1
62
256
6
ByLayer
370
18
48
1
60
0
100
AcDbLine
10
62.922353
20
5.041247
30
0
11
62.722054
21
5.013097
31
0
39
0
210
0
220
0
230
1
0
LINE
5
AC
100
AcDbEntity
8
1
62
256
6
ByLayer
370
18
48
1
60
0
100
AcDbLine
10
58.64003
20
-4.439406
30
0
11
59.451962
21
-4.553515
31
0
39
0
210
0
220
0
230
1
0
LINE
5
AD
100
AcDbEntity
8
1
62
256
6
ByLayer
370
18
48
1
60
0
100
AcDbLine
10
64.402492
20
5.075687
30
0
11
64.259393
21
5.075687
31
0
39
0
210
0
220
0
230
1
0
LINE
5
AE
100
AcDbEntity
8
1
62
256
6
ByLayer
370
18
48
1
60
0
100
AcDbLine
10
33.096238
20
-3.9406
30
0
11
41.139399
21
-3.9406
31
0
39
0
210
0
220
0
230
1
0
LINE
5
AF
100
AcDbEntity
8
1
62
256
6
ByLayer
370
18
48
1
60
0
100
AcDbLine
10
47.948256
20
-3.9406
30
0
11
50.609739
21
-3.9406
31
0
39
0
210
0
220
0
230
1
0
LINE
5
B0
100
AcDbEntity
8
1
62
256
6
ByLayer
370
18
48
1
60
0
100
AcDbLine
10
55.359114
20
3.9406
30
0
11
52.688454
21
3.9406
31
0
39
0
210
0
220
0
230
1
0
LINE
5
B1
100
AcDbEntity
8
1
62
256
6
ByLayer
370
18
48
1
60
0
100
AcDbLine
10
45.859797
20
3.9406
30
0
11
42.920636
21
3.9406
31
0
39
0
210
0
220
0
230
1
0
LINE
5
B2
100
AcDbEntity
8
1
62
256
6
ByLayer
370
18
48
1
60
0
100
AcDbLine
10
39.413502
20
3.9406
30
0
11
33.096238
21
3.9406
31
0
39
0
210
0
220
0
230
1
0
LINE
5
B3
100
AcDbEntity
8
1
62
256
6
ByLayer
370
18
48
1
60
0
100
AcDbLine
10
32.905225
20
3.957311
30
0
11
26.991844
21
5
31
0
39
0
210
0
220
0
230
1
0
LINE
5
B4
100
AcDbEntity
8
1
62
256
6
ByLayer
370
18
48
1
60
0
100
AcDbLine
10
26.991844
20
-5
30
0
11
32.905225
21
-3.957311
31
0
39
0
210
0
220
0
230
1
0
LINE
5
B5
100
AcDbEntity
8
SK1
62
256
6
ByLayer
370
18
48
1
60
0
100
AcDbLine
10
-28
20
-3.4
30
0
11
-27.4
21
-4
31
0
39
0
210
0
220
0
230
1
0
LINE
5
B6
100
AcDbEntity
8
SK1
62
256
6
ByLayer
370
18
48
1
60
0
100
AcDbLine
10
-27.4
20
4
30
0
11
-28
21
3.4
31
0
39
0
210
0
220
0
230
1
0
LINE
5
B7
100
AcDbEntity
8
SK1
62
256
6
ByLayer
370
18
48
1
60
0
100
AcDbLine
10
-15.9
20
4.8
30
0
11
-16.2
21
4.8
31
0
39
0
210
0
220
0
230
1
0
LINE
5
B8
100
AcDbEntity
8
SK1
62
256
6
ByLayer
370
18
48
1
60
0
100
AcDbLine
10
-16.2
20
-4.8
30
0
11
-15.9
21
-4.8
31
0
39
0
210
0
220
0
230
1
0
LINE
5
B9
100
AcDbEntity
8
SK1
62
256
6
ByLayer
370
18
48
1
60
0
100
AcDbLine
10
0
20
5
30
0
11
-15.7
21
5
31
0
39
0
210
0
220
0
230
1
0
LINE
5
BA
100
AcDbEntity
8
SK1
62
256
6
ByLayer
370
18
48
1
60
0
100
AcDbLine
10
-15.7
20
-5
30
0
11
0
21
-5
31
0
39
0
210
0
220
0
230
1
0
LINE
5
BB
100
AcDbEntity
8
SK1
62
256
6
ByLayer
370
18
48
1
60
0
100
AcDbLine
10
-15.9
20
-4.8
30
0
11
-15.7
21
-5
31
0
39
0
210
0
220
0
230
1
0
LINE
5
BC
100
AcDbEntity
8
SK1
62
256
6
ByLayer
370
18
48
1
60
0
100
AcDbLine
10
-15.7
20
5
30
0
11
-15.9
21
4.8
31
0
39
0
210
0
220
0
230
1
0
LINE
5
BD
100
AcDbEntity
8
SK2
62
256
6
ByLayer
370
13
48
1
60
0
100
AcDbLine
10
7.5
20
-5
30
0
11
7.5
21
33.713788
31
0
39
0
210
0
220
0
230
1
0
LINE
5
BF
100
AcDbEntity
8
SK2
62
256
6
ByLayer
370
13
48
1
60
0
100
AcDbLine
10
7.5875
20
5
30
0
11
9.5
21
5
31
0
39
0
210
0
220
0
230
1
0
LINE
5
C0
100
AcDbEntity
8
SK2
62
256
6
ByLayer
370
13
48
1
60
0
100
AcDbLine
10
7.5875
20
-5
30
0
11
9.5
21
-5
31
0
39
0
210
0
220
0
230
1
0
LINE
5
C1
100
AcDbEntity
8
1
62
256
6
ByLayer
370
18
48
1
60
1
100
AcDbLine
10
7.5
20
5
30
0
11
7.960784
21
1.500002
31
0
39
0
210
0
220
0
230
1
0
LINE
5
C2
100
AcDbEntity
8
1
62
256
6
ByLayer
370
18
48
1
60
1
100
AcDbLine
10
7.960784
20
1.500002
30
0
11
7.039216
21
1.499998
31
0
39
0
210
0
220
0
230
1
0
LINE
5
C3
100
AcDbEntity
8
1
62
256
6
ByLayer
370
18
48
1
60
1
100
AcDbLine
10
7.039216
20
1.499998
30
0
11
7.5
21
5
31
0
39
0
210
0
220
0
230
1
0
LINE
5
C4
100
AcDbEntity
8
1
62
256
6
ByLayer
370
18
48
1
60
1
100
AcDbLine
10
7.5
20
-5
30
0
11
7.039216
21
-1.500002
31
0
39
0
210
0
220
0
230
1
0
LINE
5
C5
100
AcDbEntity
8
1
62
256
6
ByLayer
370
18
48
1
60
1
100
AcDbLine
10
7.039216
20
-1.500002
30
0
11
7.960784
21
-1.499998
31
0
39
0
210
0
220
0
230
1
0
LINE
5
C6
100
AcDbEntity
8
1
62
256
6
ByLayer
370
18
48
1
60
1
100
AcDbLine
10
7.960784
20
-1.499998
30
0
11
7.5
21
-5
31
0
39
0
210
0
220
0
230
1
0
LINE
5
1D9
100
AcDbEntity
8
1
62
256
6
ByLayer
370
18
48
1
60
1
100
AcDbLine
10
7.5
20
5
30
0
11
7.960784
21
1.500002
31
0
39
0
210
0
220
0
230
1
0
LINE
5
1DA
100
AcDbEntity
8
1
62
256
6
ByLayer
370
18
48
1
60
1
100
AcDbLine
10
7.960784
20
1.500002
30
0
11
7.039216
21
1.499998
31
0
39
0
210
0
220
0
230
1
0
LINE
5
1DB
100
AcDbEntity
8
1
62
256
6
ByLayer
370
18
48
1
60
1
100
AcDbLine
10
7.039216
20
1.499998
30
0
11
7.5
21
5
31
0
39
0
210
0
220
0
230
1
0
LINE
5
1DD
100
AcDbEntity
8
1
62
256
6
ByLayer
370
18
48
1
60
1
100
AcDbLine
10
7.5
20
-5
30
0
11
7.039216
21
-1.500002
31
0
39
0
210
0
220
0
230
1
0
LINE
5
1DE
100
AcDbEntity
8
1
62
256
6
ByLayer
370
18
48
1
60
1
100
AcDbLine
10
7.039216
20
-1.500002
30
0
11
7.960784
21
-1.499998
31
0
39
0
210
0
220
0
230
1
0
LINE
5
1DF
100
AcDbEntity
8
1
62
256
6
ByLayer
370
18
48
1
60
1
100
AcDbLine
10
7.960784
20
-1.499998
30
0
11
7.5
21
-5
31
0
39
0
210
0
220
0
230
1
0
MTEXT
5
1D4
100
AcDbEntity
8
SK2
62
256
6
ByLayer
370
18
48
1
60
0
100
AcDbMText
10
6.158886
20
11.658437
30
0
210
0
220
0
230
1
1
%%c
40
3
41
0
44
1.084337
50
90
71
7
72
5
7
iso_b_vert
0
MTEXT
5
1D7
100
AcDbEntity
8
SK2
62
256
6
ByLayer
370
18
48
1
60
0
100
AcDbMText
10
6.310366
20
29.690355
30
0
210
0
220
0
230
1
1
\W0.7125;h9
40
3.5
41
0
44
1.084337
50
90
71
7
72
5
7
iso_b_vert
0
MTEXT
5
1D8
100
AcDbEntity
8
SK2
62
256
6
ByLayer
370
18
48
1
60
0
100
AcDbMText
10
6.158886
20
17.635
30
0
210
0
220
0
230
1
1
\W0.6864;10.00
40
3
41
0
44
1.084337
50
90
71
7
72
5
7
iso_b_vert
0
MTEXT
5
1E1
100
AcDbEntity
8
SK6
62
256
6
ByLayer
370
18
48
1
60
0
100
AcDbMText
10
6.57779
20
-67.114886
30
0
210
0
220
0
230
1
1
\W0.7661;T300-PM104DA-M10 P1PM
40
3
41
0
44
1.084337
50
0
71
7
72
5
7
iso_b_vert
0
HATCH
5
1DC
100
AcDbEntity
8
SK2
62
256
6
ByLayer
370
13
48
1
60
0
100
AcDbHatch
10
0
20
0
30
0
210
0
220
0
230
1
2
ANSI31
70
0
71
0
91
1
92
5
93
3
72
1
10
7.5
20
5
11
7.96078374155277
21
1.50000169255318
72
1
10
7.96078374155277
20
1.50000169255318
11
7.03921625844723
21
1.49999830744682
72
1
10
7.03921625844723
20
1.49999830744682
11
7.5
21
5
97
0
75
0
76
1
52
0
41
0.0062
77
0
78
1
53
45
43
0
44
0
45
-0.0139193969876572
46
0.0139193969876572
79
0
47
0
98
1
10
0
20
0
0
HATCH
5
1E0
100
AcDbEntity
8
SK2
62
256
6
ByLayer
370
13
48
1
60
0
100
AcDbHatch
10
0
20
0
30
0
210
0
220
0
230
1
2
ANSI31
70
0
71
0
91
1
92
5
93
3
72
1
10
7.5
20
-5
11
7.03921625844723
21
-1.50000169255318
72
1
10
7.03921625844723
20
-1.50000169255318
11
7.96078374155277
21
-1.49999830744682
72
1
10
7.96078374155277
20
-1.49999830744682
11
7.5
21
-5
97
0
75
0
76
1
52
0
41
0.0062
77
0
78
1
53
45
43
0
44
0
45
-0.0139193969876572
46
0.0139193969876572
79
0
47
0
98
1
10
0
20
0
0
DIMENSION
5
1E4
100
AcDbEntity
8
SK2
62
256
6
ByLayer
370
18
48
1
60
0
100
AcDbDimension
2
_U0
10
72
20
-50.324569
30
0
11
22
21
-50.324569
31
0
70
32
71
1
72
1
41
1
210
0
220
0
230
1
3
Standard
100
AcDbAlignedDimension
13
-28
23
0
33
0
14
72
24
0
34
0
50
0
100
AcDbRotatedDimension
1001
ACAD
1000
DSTYLE
1002
{
1070
   371
1070
    13
1070
   372
1070
    13
1070
     3
1000

1070
   170
1070
     0
1070
   144
1040
1.0
1070
   277
1070
     2
1070
   284
1070
     8
1070
   278
1070
    46
1070
   146
1040
1.166667
1070
   345
1005
16
1070
   347
1005
16
1070
   346
1005
16
1070
   344
1005
0
1070
   343
1005
0
1070
   172
1070
     1
1070
    76
1070
     0
1070
    75
1070
     0
1070
   282
1070
     0
1070
   281
1070
     0
1070
    71
1070
     0
1070
    74
1070
     0
1070
   279
1070
     0
1070
   173
1070
     1
1070
   340
1005
1D5
1070
   271
1070
     2
1070
   272
1070
     3
1070
    77
1070
     1
1070
    73
1070
     1
1070
   171
1070
     3
1070
   274
1070
     4
1070
   177
1070
     2
1070
   176
1070
     2
1070
   178
1070
     2
1070
    78
1070
     8
1070
    48
1040
-0.1
1070
    41
1040
3.5
1070
   147
1040
1.5
1070
    42
1040
1.5875
1070
    44
1040
2.0
1070
   140
1040
3.0
1002
}
1001
ACAD_DSTYLE_DIM_LINETYPE
1070
   380
1005
16
1001
ACAD_DSTYLE_DIM_EXT1_LINETYPE
1070
   381
1005
16
1001
ACAD_DSTYLE_DIM_EXT2_LINETYPE
1070
   382
1005
16
0
DIMENSION
5
1FD
100
AcDbEntity
8
SK2
62
256
6
ByLayer
370
18
48
1
60
0
100
AcDbDimension
2
_U1
10
33
20
-42.324569
30
0
11
52.5
21
-42.324569
31
0
70
32
71
1
72
1
41
1
210
0
220
0
230
1
3
Standard
100
AcDbAlignedDimension
13
72
23
0
33
0
14
33
24
0
34
0
50
0
100
AcDbRotatedDimension
1001
ACAD
1000
DSTYLE
1002
{
1070
   371
1070
    13
1070
   372
1070
    13
1070
     3
1000

1070
   170
1070
     0
1070
   144
1040
1.0
1070
   277
1070
     2
1070
   284
1070
     8
1070
   278
1070
    46
1070
   146
1040
1.166667
1070
   345
1005
16
1070
   347
1005
16
1070
   346
1005
16
1070
   344
1005
0
1070
   343
1005
0
1070
   172
1070
     1
1070
    76
1070
     0
1070
    75
1070
     0
1070
   282
1070
     0
1070
   281
1070
     0
1070
    71
1070
     0
1070
    74
1070
     0
1070
   279
1070
     0
1070
   173
1070
     1
1070
   340
1005
1D5
1070
   271
1070
     2
1070
   272
1070
     3
1070
    77
1070
     1
1070
    73
1070
     1
1070
   171
1070
     3
1070
   274
1070
     4
1070
   177
1070
     2
1070
   176
1070
     2
1070
   178
1070
     2
1070
    78
1070
     8
1070
    48
1040
-0.1
1070
    41
1040
3.5
1070
   147
1040
1.5
1070
    42
1040
1.5875
1070
    44
1040
2.0
1070
   140
1040
3.0
1002
}
1001
ACAD_DSTYLE_DIM_LINETYPE
1070
   380
1005
16
1001
ACAD_DSTYLE_DIM_EXT1_LINETYPE
1070
   381
1005
16
1001
ACAD_DSTYLE_DIM_EXT2_LINETYPE
1070
   382
1005
16
0
DIMENSION
5
215
100
AcDbEntity
8
2
62
256
6
ByLayer
370
18
48
1
60
0
100
AcDbDimension
2
_U2
10
38.85
20
-34.324569
30
0
11
55.425
21
-34.324569
31
0
70
32
71
1
72
1
41
1
210
0
220
0
230
1
3
Standard
100
AcDbAlignedDimension
13
72
23
0
33
0
14
38.85
24
0
34
0
50
0
100
AcDbRotatedDimension
1001
ACAD
1000
DSTYLE
1002
{
1070
   371
1070
    13
1070
   372
1070
    13
1070
     3
1000

1070
   170
1070
     0
1070
   144
1040
1.0
1070
   277
1070
     2
1070
   284
1070
     8
1070
   278
1070
    46
1070
   146
1040
1.166667
1070
   345
1005
16
1070
   347
1005
16
1070
   346
1005
16
1070
   344
1005
0
1070
   343
1005
0
1070
   172
1070
     1
1070
    76
1070
     0
1070
    75
1070
     0
1070
   282
1070
     0
1070
   281
1070
     0
1070
    71
1070
     0
1070
    74
1070
     0
1070
   279
1070
     0
1070
   173
1070
     1
1070
   340
1005
1D5
1070
   271
1070
     2
1070
   272
1070
     3
1070
    77
1070
     1
1070
    73
1070
     1
1070
   171
1070
     3
1070
   274
1070
     4
1070
   177
1070
     2
1070
   176
1070
     2
1070
   178
1070
     2
1070
    78
1070
     8
1070
    48
1040
-0.1
1070
    41
1040
3.5
1070
   147
1040
1.5
1070
    42
1040
1.5875
1070
    44
1040
2.0
1070
   140
1040
3.0
1002
}
1001
ACAD_DSTYLE_DIM_LINETYPE
1070
   380
1005
16
1001
ACAD_DSTYLE_DIM_EXT1_LINETYPE
1070
   381
1005
16
1001
ACAD_DSTYLE_DIM_EXT2_LINETYPE
1070
   382
1005
16
0
DIMENSION
5
22E
100
AcDbEntity
8
SK2
62
256
6
ByLayer
370
18
48
1
60
0
100
AcDbDimension
2
_U3
10
57
20
-26.324569
30
0
11
64.5
21
-26.324569
31
0
70
32
71
1
72
1
41
1
210
0
220
0
230
1
3
Standard
100
AcDbAlignedDimension
13
72
23
0
33
0
14
57
24
-3.9406
34
0
50
0
100
AcDbRotatedDimension
1001
ACAD
1000
DSTYLE
1002
{
1070
   371
1070
    13
1070
   372
1070
    13
1070
     3
1000

1070
   170
1070
     0
1070
   144
1040
1.0
1070
   277
1070
     2
1070
   284
1070
     8
1070
   278
1070
    46
1070
   146
1040
1.166667
1070
   345
1005
16
1070
   347
1005
16
1070
   346
1005
16
1070
   344
1005
0
1070
   343
1005
0
1070
   172
1070
     1
1070
    76
1070
     0
1070
    75
1070
     0
1070
   282
1070
     0
1070
   281
1070
     0
1070
    71
1070
     0
1070
    74
1070
     0
1070
   279
1070
     0
1070
   173
1070
     1
1070
   340
1005
1D5
1070
   271
1070
     2
1070
   272
1070
     3
1070
    77
1070
     1
1070
    73
1070
     1
1070
   171
1070
     3
1070
   274
1070
     4
1070
   177
1070
     2
1070
   176
1070
     2
1070
   178
1070
     2
1070
    78
1070
     8
1070
    48
1040
-0.1
1070
    41
1040
3.5
1070
   147
1040
1.5
1070
    42
1040
1.5875
1070
    44
1040
2.0
1070
   140
1040
3.0
1002
}
1001
ACAD_DSTYLE_DIM_LINETYPE
1070
   380
1005
16
1001
ACAD_DSTYLE_DIM_EXT1_LINETYPE
1070
   381
1005
16
1001
ACAD_DSTYLE_DIM_EXT2_LINETYPE
1070
   382
1005
16
0
DIMENSION
5
247
100
AcDbEntity
8
SK2
62
256
6
ByLayer
370
18
48
1
60
0
100
AcDbDimension
2
_U4
10
67.87
20
10.651374
30
0
11
69.935
21
10.651374
31
0
70
32
71
1
72
1
41
1
210
0
220
0
230
1
3
Standard
100
AcDbAlignedDimension
13
72
23
0
33
0
14
67.87
24
0
34
0
50
0
100
AcDbRotatedDimension
1001
ACAD
1000
DSTYLE
1002
{
1070
   371
1070
    13
1070
   372
1070
    13
1070
     3
1000

1070
   170
1070
     0
1070
   144
1040
1.0
1070
   277
1070
     2
1070
   284
1070
     8
1070
   278
1070
    46
1070
   146
1040
1.166667
1070
   345
1005
16
1070
   347
1005
16
1070
   346
1005
16
1070
   344
1005
0
1070
   343
1005
0
1070
   172
1070
     1
1070
    76
1070
     0
1070
    75
1070
     0
1070
   282
1070
     0
1070
   281
1070
     0
1070
    71
1070
     0
1070
    74
1070
     0
1070
   279
1070
     0
1070
   173
1070
     1
1070
   340
1005
1D5
1070
   271
1070
     2
1070
   272
1070
     3
1070
    77
1070
     1
1070
    73
1070
     1
1070
   171
1070
     3
1070
   274
1070
     4
1070
   177
1070
     2
1070
   176
1070
     2
1070
   178
1070
     2
1070
    78
1070
     8
1070
    48
1040
-0.1
1070
    41
1040
3.5
1070
   147
1040
1.5
1070
    42
1040
1.5875
1070
    44
1040
2.0
1070
   140
1040
3.0
1002
}
1001
ACAD_DSTYLE_DIM_LINETYPE
1070
   380
1005
16
1001
ACAD_DSTYLE_DIM_EXT1_LINETYPE
1070
   381
1005
16
1001
ACAD_DSTYLE_DIM_EXT2_LINETYPE
1070
   382
1005
16
0
DIMENSION
5
261
100
AcDbEntity
8
2
62
256
6
ByLayer
370
18
48
1
60
0
100
AcDbDimension
2
_U5
10
88.5
20
5.075687
30
0
11
88.5
21
25.423783
31
0
70
32
71
1
72
1
41
1
210
0
220
0
230
1
3
Standard
100
AcDbAlignedDimension
13
72
23
-5.075687
33
0
14
72
24
5.075687
34
0
50
90
100
AcDbRotatedDimension
1001
ACAD
1000
DSTYLE
1002
{
1070
   371
1070
    13
1070
   372
1070
    13
1070
     3
1000

1070
   170
1070
     0
1070
   144
1040
1.0
1070
   277
1070
     2
1070
   284
1070
     8
1070
   278
1070
    46
1070
   146
1040
1.166667
1070
   345
1005
16
1070
   347
1005
16
1070
   346
1005
16
1070
   344
1005
0
1070
   343
1005
0
1070
   172
1070
     1
1070
    76
1070
     0
1070
    75
1070
     0
1070
   282
1070
     0
1070
   281
1070
     0
1070
    71
1070
     0
1070
    74
1070
     0
1070
   279
1070
     0
1070
   173
1070
     1
1070
   340
1005
1D5
1070
   271
1070
     2
1070
   272
1070
     3
1070
    77
1070
     1
1070
    73
1070
     0
1070
   171
1070
     3
1070
   274
1070
     4
1070
   177
1070
     2
1070
   176
1070
     2
1070
   178
1070
     2
1070
    78
1070
     8
1070
    48
1040
-0.1
1070
    41
1040
3.5
1070
   147
1040
1.5
1070
    42
1040
1.5875
1070
    44
1040
2.0
1070
   140
1040
3.0
1002
}
1001
ACAD_DSTYLE_DIM_LINETYPE
1070
   380
1005
16
1001
ACAD_DSTYLE_DIM_EXT1_LINETYPE
1070
   381
1005
16
1001
ACAD_DSTYLE_DIM_EXT2_LINETYPE
1070
   382
1005
16
0
DIMENSION
5
27C
100
AcDbEntity
8
SK2
62
256
6
ByLayer
370
18
48
1
60
0
100
AcDbDimension
2
_U6
10
-33.5
20
-4
30
0
11
-33.5
21
22.165626
31
0
70
32
71
1
72
1
41
1
210
0
220
0
230
1
3
Standard
100
AcDbAlignedDimension
13
-28
23
4
33
0
14
-28
24
-4
34
0
50
90
100
AcDbRotatedDimension
1001
ACAD
1000
DSTYLE
1002
{
1070
   371
1070
    13
1070
   372
1070
    13
1070
     3
1000

1070
   170
1070
     0
1070
   144
1040
1.0
1070
   277
1070
     2
1070
   284
1070
     8
1070
   278
1070
    46
1070
   146
1040
1.166667
1070
   345
1005
16
1070
   347
1005
16
1070
   346
1005
16
1070
   344
1005
0
1070
   343
1005
0
1070
   172
1070
     1
1070
    76
1070
     0
1070
    75
1070
     0
1070
   282
1070
     0
1070
   281
1070
     0
1070
    71
1070
     0
1070
    74
1070
     0
1070
   279
1070
     0
1070
   173
1070
     1
1070
   340
1005
1D5
1070
   271
1070
     2
1070
   272
1070
     3
1070
    77
1070
     1
1070
    73
1070
     0
1070
   171
1070
     3
1070
   274
1070
     4
1070
   177
1070
     2
1070
   176
1070
     2
1070
   178
1070
     2
1070
    78
1070
     8
1070
    48
1040
-0.1
1070
    41
1040
3.5
1070
   147
1040
1.5
1070
    42
1040
1.5875
1070
    44
1040
2.0
1070
   140
1040
3.0
1002
}
1001
ACAD_DSTYLE_DIM_LINETYPE
1070
   380
1005
16
1001
ACAD_DSTYLE_DIM_EXT1_LINETYPE
1070
   381
1005
16
1001
ACAD_DSTYLE_DIM_EXT2_LINETYPE
1070
   382
1005
16
0
ENDSEC
0
SECTION
2
OBJECTS
0
DICTIONARY
5
306
330
0
100
AcDbDictionary
280
0
281
1
3
ACAD_GROUP
350
307
3
ACAD_MLINESTYLE
350
308
0
DICTIONARY
5
307
330
0
100
AcDbDictionary
280
0
281
1
0
DICTIONARY
5
308
330
0
100
AcDbDictionary
280
0
281
1
3
Standard
350
18
0
MLINESTYLE
5
18
330
308
100
AcDbMlineStyle
2
Standard
70
0
3

62
256
51
90
52
90
71
2
49
-0.5
62
256
6
ByLayer
49
0.5
62
256
6
ByLayer
0
RASTERVARIABLES
5
2f4
330

100
AcDbRasterVariables
90
0
70
1
71
1
72
1
0
ENDSEC
0
EOF
