0
SECTION
2
HEADER
9
$ACADVER
1
AC1015
9
$DWGCODEPAGE
3
ANSI_1252
9
$HANDSEED
5
45a
9
$ANGBASE
50
0
9
$ANGDIR
70
0
9
$ATTMODE
70
1
9
$AUNITS
70
0
9
$AUPREC
70
0
9
$CECOLOR
62
256
9
$CELTSCALE
40
1
9
$CELTYPE
6
ByLayer
9
$CELWEIGHT
370
18
9
$CLAYER
8
0
9
$CMLJUST
70
0
9
$CMLSCALE
40
1
9
$CMLSTYLE
2
Standard
9
$DIMSTYLE
2
Standard
9
$TEXTSIZE
40
0.2
9
$TEXTSTYLE
7
Standard
9
$LUNITS
70
2
9
$LUPREC
70
4
9
$EXTNAMES
290
1
9
$INSUNITS
70
4
9
$LTSCALE
40
1
9
$LWDISPLAY
290
1
9
$PDMODE
70
0
9
$PDSIZE
40
0
9
$PLINEGEN
70
0
0
ENDSEC
0
SECTION
2
CLASSES
0
CLASS
1
RASTERVARIABLES
2
AcDbRasterVariables
3
ISM
90
0
280
0
281
0
0
ENDSEC
0
SECTION
2
TABLES
0
TABLE
2
VPORT
5
450
100
AcDbSymbolTable
0
VPORT
5
1
100
AcDbSymbolTableRecord
100
AcDbViewportTableRecord
2
*Active
70
0
10
0
20
0
11
1
21
1
12
-1
22
1
13
0
23
0
14
0.5
24
0.5
15
10
25
10
16
0
26
0
36
1
17
0
27
0
37
0
0
ENDTAB
0
TABLE
2
LTYPE
5
451
100
AcDbSymbolTable
0
LTYPE
5
14
100
AcDbSymbolTableRecord
100
AcDbLinetypeTableRecord
70
0
2
ByBlock
3

72
65
73
0
40
0
0
LTYPE
5
15
100
AcDbSymbolTableRecord
100
AcDbLinetypeTableRecord
70
0
2
ByLayer
3

72
65
73
0
40
0
0
LTYPE
5
16
100
AcDbSymbolTableRecord
100
AcDbLinetypeTableRecord
70
0
2
Continuous
3
Solid line
72
65
73
0
40
0
0
LTYPE
5
6E
100
AcDbSymbolTableRecord
100
AcDbLinetypeTableRecord
70
0
2
CENTER
3
____ _ ____ _ ____ _ ____
72
65
73
4
40
47.5
49
22
74
0
49
-8.5
74
0
49
8.5
74
0
49
-8.5
74
0
0
LTYPE
5
6F
100
AcDbSymbolTableRecord
100
AcDbLinetypeTableRecord
70
0
2
DASHED
3
__ __ __ __ __ __ __ __ __
72
65
73
2
40
25.72
49
12.86
74
0
49
-12.86
74
0
0
ENDTAB
0
TABLE
2
LAYER
5
452
100
AcDbSymbolTable
0
LAYER
5
10
100
AcDbSymbolTableRecord
100
AcDbLayerTableRecord
2
0
70
0
62
7
6
Continuous
290
1
370
-3
390
0
0
LAYER
5
71
100
AcDbSymbolTableRecord
100
AcDbLayerTableRecord
2
1
70
0
62
4
6
Continuous
290
1
370
-3
390
0
0
LAYER
5
73
100
AcDbSymbolTableRecord
100
AcDbLayerTableRecord
2
80
70
0
62
-6
6
Continuous
290
1
370
-3
390
0
0
LAYER
5
75
100
AcDbSymbolTableRecord
100
AcDbLayerTableRecord
2
81
70
0
62
-3
6
Continuous
290
1
370
-3
390
0
0
LAYER
5
149
100
AcDbSymbolTableRecord
100
AcDbLayerTableRecord
2
4
70
0
62
-2
6
CENTER
290
1
370
-3
390
0
0
LAYER
5
186
100
AcDbSymbolTableRecord
100
AcDbLayerTableRecord
2
2
70
0
62
7
6
Continuous
290
1
370
-3
390
0
0
LAYER
5
364
100
AcDbSymbolTableRecord
100
AcDbLayerTableRecord
2
Defpoints
70
0
62
7
6
Continuous
290
0
370
-3
390
0
0
LAYER
5
43c
100
AcDbSymbolTableRecord
100
AcDbLayerTableRecord
2
SK1
70
0
62
4
6
Continuous
290
1
370
-3
390
0
0
LAYER
5
43d
100
AcDbSymbolTableRecord
100
AcDbLayerTableRecord
2
SK4
70
0
62
2
6
CENTER
290
1
370
-3
390
0
0
LAYER
5
43e
100
AcDbSymbolTableRecord
100
AcDbLayerTableRecord
2
SK2
70
0
62
7
6
Continuous
290
1
370
-3
390
0
0
LAYER
5
43f
100
AcDbSymbolTableRecord
100
AcDbLayerTableRecord
2
SK6
70
0
62
5
6
Continuous
290
1
370
-3
390
0
0
ENDTAB
0
TABLE
2
STYLE
5
453
100
AcDbSymbolTable
0
STYLE
5
11
100
AcDbSymbolTableRecord
100
AcDbTextStyleTableRecord
2
Standard
3
txt
70
0
71
0
40
0
41
1
42
0
50
0
0
STYLE
5
33F
100
AcDbSymbolTableRecord
100
AcDbTextStyleTableRecord
2
iso_b_vert
3
simplex.shx
70
0
71
0
40
0
41
1
42
0
50
0
0
STYLE
5
340
100
AcDbSymbolTableRecord
100
AcDbTextStyleTableRecord
2
DWGDirectTextStyle
3
simplex
70
0
71
0
40
0
41
1
42
0
50
0
0
ENDTAB
0
TABLE
2
DIMSTYLE
5
454
100
AcDbSymbolTable
100
AcDbDimStyleTable
0
DIMSTYLE
105
27
100
AcDbSymbolTableRecord
100
AcDbDimStyleTableRecord
2
Standard
70
0
3
<>
41
0.18
42
0.0625
44
0.18
140
0.18
147
0.09
73
0
74
0
77
1
271
2
275
0
278
52
280
0
340
11
0
ENDTAB
0
TABLE
2
VIEW
5
455
100
AcDbSymbolTable
0
ENDTAB
0
TABLE
2
UCS
5
456
100
AcDbSymbolTable
0
ENDTAB
0
TABLE
2
APPID
5
457
100
AcDbSymbolTable
0
APPID
5
12
100
AcDbSymbolTableRecord
100
AcDbRegAppTableRecord
2
ACAD
70
0
0
APPID
5
360
100
AcDbSymbolTableRecord
100
AcDbRegAppTableRecord
2
ACAD_DSTYLE_DIMBREAK
70
0
0
APPID
5
3FB
100
AcDbSymbolTableRecord
100
AcDbRegAppTableRecord
2
ACAD_DSTYLE_DIM_LINETYPE
70
0
0
APPID
5
3FC
100
AcDbSymbolTableRecord
100
AcDbRegAppTableRecord
2
ACAD_DSTYLE_DIM_EXT1_LINETYPE
70
0
0
APPID
5
3FD
100
AcDbSymbolTableRecord
100
AcDbRegAppTableRecord
2
ACAD_DSTYLE_DIM_EXT2_LINETYPE
70
0
0
APPID
5
438
100
AcDbSymbolTableRecord
100
AcDbRegAppTableRecord
2
ACAD_MLEADERVER
70
0
0
ENDTAB
0
TABLE
2
BLOCK_RECORD
5
458
100
AcDbSymbolTable
0
BLOCK_RECORD
5
1F
100
AcDbSymbolTableRecord
100
AcDbBlockTableRecord
2
*Model_Space
340
0
70
0
0
BLOCK_RECORD
5
1B
100
AcDbSymbolTableRecord
100
AcDbBlockTableRecord
2
*Paper_Space
340
0
70
0
0
BLOCK_RECORD
5
23
100
AcDbSymbolTableRecord
100
AcDbBlockTableRecord
2
*Paper_Space0
340
0
70
0
0
BLOCK_RECORD
5
365
100
AcDbSymbolTableRecord
100
AcDbBlockTableRecord
2
*D1
340
0
70
0
0
BLOCK_RECORD
5
371
100
AcDbSymbolTableRecord
100
AcDbBlockTableRecord
2
_U0
340
0
70
0
0
BLOCK_RECORD
5
37D
100
AcDbSymbolTableRecord
100
AcDbBlockTableRecord
2
*D3
340
0
70
0
0
BLOCK_RECORD
5
38A
100
AcDbSymbolTableRecord
100
AcDbBlockTableRecord
2
_U1
340
0
70
0
0
BLOCK_RECORD
5
396
100
AcDbSymbolTableRecord
100
AcDbBlockTableRecord
2
*D5
340
0
70
0
0
BLOCK_RECORD
5
3A2
100
AcDbSymbolTableRecord
100
AcDbBlockTableRecord
2
_U2
340
0
70
0
0
BLOCK_RECORD
5
3AE
100
AcDbSymbolTableRecord
100
AcDbBlockTableRecord
2
*D7
340
0
70
0
0
BLOCK_RECORD
5
3BA
100
AcDbSymbolTableRecord
100
AcDbBlockTableRecord
2
_U3
340
0
70
0
0
BLOCK_RECORD
5
3C6
100
AcDbSymbolTableRecord
100
AcDbBlockTableRecord
2
*D9
340
0
70
0
0
BLOCK_RECORD
5
3D4
100
AcDbSymbolTableRecord
100
AcDbBlockTableRecord
2
_U4
340
0
70
0
0
ENDTAB
0
ENDSEC
0
SECTION
2
BLOCKS
0
BLOCK
5
20
100
AcDbEntity
8
0
100
AcDbBlockBegin
2
*Model_Space
70
0
10
0
20
0
30
0
3
*Model_Space
0
ENDBLK
5
21
100
AcDbEntity
8
0
100
AcDbBlockEnd
0
BLOCK
5
1C
100
AcDbEntity
8
0
100
AcDbBlockBegin
2
*Paper_Space
70
0
10
0
20
0
30
0
3
*Paper_Space
0
ENDBLK
5
1D
100
AcDbEntity
8
0
100
AcDbBlockEnd
0
BLOCK
5
24
100
AcDbEntity
8
0
100
AcDbBlockBegin
2
*Paper_Space0
70
0
10
0
20
0
30
0
3
*Paper_Space0
0
ENDBLK
5
25
100
AcDbEntity
8
0
100
AcDbBlockEnd
0
BLOCK
5
366
100
AcDbEntity
8
0
100
AcDbBlockBegin
2
*D1
70
1
10
0
20
0
30
0
3
*D1
0
LINE
5
368
100
AcDbEntity
8
0
62
256
6
ByLayer
370
-2
48
1
60
0
100
AcDbLine
10
0
20
-35.5875
30
0
11
0
21
-86.025
31
0
39
0
210
0
220
0
230
1
0
LINE
5
369
100
AcDbEntity
8
0
62
256
6
ByLayer
370
-2
48
1
60
0
100
AcDbLine
10
232
20
-24.0875
30
0
11
232
21
-86.025
31
0
39
0
210
0
220
0
230
1
0
LINE
5
36A
100
AcDbEntity
8
0
62
256
6
ByLayer
370
-2
48
1
60
0
100
AcDbLine
10
4.175
20
-82.85
30
0
11
227.825
21
-82.85
31
0
39
0
210
0
220
0
230
1
0
SOLID
5
36B
100
AcDbEntity
8
0
62
256
6
ByLayer
370
-1
48
1
60
0
100
AcDbTrace
10
4.175
20
-82.154167
30
0
11
4.175
21
-83.545833
31
0
12
0
22
-82.85
32
0
13
0
23
-82.85
33
0
39
0
210
0
220
0
230
1
0
SOLID
5
36C
100
AcDbEntity
8
0
62
256
6
ByLayer
370
-1
48
1
60
0
100
AcDbTrace
10
227.825
20
-83.545833
30
0
11
227.825
21
-82.154167
31
0
12
232
22
-82.85
32
0
13
232
23
-82.85
33
0
39
0
210
0
220
0
230
1
0
MTEXT
5
36D
100
AcDbEntity
8
0
62
256
6
ByLayer
370
18
48
1
60
0
100
AcDbMText
10
116
20
-73.45625
30
0
210
0
220
0
230
1
1
\A1;232
40
4.5
41
0
44
1
50
0
71
5
72
5
7
iso_b_vert
0
POINT
5
36E
100
AcDbEntity
8
Defpoints
62
0
6
ByLayer
370
-1
48
1
60
0
100
AcDbPoint
10
0
20
-34
30
0
39
0
210
0
220
0
230
1
50
360
0
POINT
5
36F
100
AcDbEntity
8
Defpoints
62
0
6
ByLayer
370
-1
48
1
60
0
100
AcDbPoint
10
232
20
-22.5
30
0
39
0
210
0
220
0
230
1
50
360
0
POINT
5
370
100
AcDbEntity
8
Defpoints
62
0
6
ByLayer
370
-1
48
1
60
0
100
AcDbPoint
10
232
20
-82.85
30
0
39
0
210
0
220
0
230
1
50
360
0
ENDBLK
5
367
100
AcDbEntity
8
0
100
AcDbBlockEnd
0
BLOCK
5
378
100
AcDbEntity
8
0
100
AcDbBlockBegin
2
_U0
70
0
10
0
20
0
30
0
3
_U0
0
MTEXT
5
372
100
AcDbEntity
8
2
62
256
6
ByLayer
370
18
48
1
60
0
100
AcDbMText
10
111.869387
20
-81.522328
30
0
210
0
220
0
230
1
1
\W0.7138;232
40
4.5
41
0
44
1.084337
50
0
71
7
72
5
7
iso_b_vert
0
LINE
5
373
100
AcDbEntity
8
2
62
256
6
ByLayer
370
13
48
1
60
0
100
AcDbLine
10
0
20
-35.5875
30
0
11
0
21
-86.025
31
0
39
0
210
0
220
0
230
1
0
LINE
5
374
100
AcDbEntity
8
2
62
256
6
ByLayer
370
13
48
1
60
0
100
AcDbLine
10
232
20
-24.0875
30
0
11
232
21
-86.025
31
0
39
0
210
0
220
0
230
1
0
LINE
5
375
100
AcDbEntity
8
2
62
256
6
ByLayer
370
13
48
1
60
0
100
AcDbLine
10
0
20
-82.85
30
0
11
232
21
-82.85
31
0
39
0
210
0
220
0
230
1
0
SOLID
5
376
100
AcDbEntity
8
2
62
256
6
ByLayer
370
18
48
1
60
0
100
AcDbTrace
10
0
20
-82.85
30
0
11
4.174997
21
-81.924425
31
0
12
4.175003
22
-83.775575
32
0
13
4.175003
23
-83.775575
33
0
39
0
210
0
220
0
230
1
0
SOLID
5
377
100
AcDbEntity
8
2
62
256
6
ByLayer
370
18
48
1
60
0
100
AcDbTrace
10
232
20
-82.85
30
0
11
227.825003
21
-83.775575
31
0
12
227.824997
22
-81.924425
32
0
13
227.824997
23
-81.924425
33
0
39
0
210
0
220
0
230
1
0
ENDBLK
5
379
100
AcDbEntity
8
0
100
AcDbBlockEnd
0
BLOCK
5
37E
100
AcDbEntity
8
0
100
AcDbBlockBegin
2
*D3
70
1
10
0
20
0
30
0
3
*D3
0
LINE
5
380
100
AcDbEntity
8
0
62
256
6
ByLayer
370
-2
48
1
60
0
100
AcDbLine
10
-18
20
-26.5875
30
0
11
-18
21
-86.025
31
0
39
0
210
0
220
0
230
1
0
LINE
5
381
100
AcDbEntity
8
0
62
256
6
ByLayer
370
-2
48
1
60
0
100
AcDbLine
10
0
20
-35.5875
30
0
11
0
21
-86.025
31
0
39
0
210
0
220
0
230
1
0
LINE
5
382
100
AcDbEntity
8
0
62
256
6
ByLayer
370
-2
48
1
60
0
100
AcDbLine
10
-22.175
20
-82.85
30
0
11
-26.35
21
-82.85
31
0
39
0
210
0
220
0
230
1
0
LINE
5
383
100
AcDbEntity
8
0
62
256
6
ByLayer
370
-2
48
1
60
0
100
AcDbLine
10
4.175
20
-82.85
30
0
11
8.35
21
-82.85
31
0
39
0
210
0
220
0
230
1
0
SOLID
5
384
100
AcDbEntity
8
0
62
256
6
ByLayer
370
-1
48
1
60
0
100
AcDbTrace
10
-22.175
20
-83.545833
30
0
11
-22.175
21
-82.154167
31
0
12
-18
22
-82.85
32
0
13
-18
23
-82.85
33
0
39
0
210
0
220
0
230
1
0
SOLID
5
385
100
AcDbEntity
8
0
62
256
6
ByLayer
370
-1
48
1
60
0
100
AcDbTrace
10
4.175
20
-82.154167
30
0
11
4.175
21
-83.545833
31
0
12
0
22
-82.85
32
0
13
0
23
-82.85
33
0
39
0
210
0
220
0
230
1
0
MTEXT
5
386
100
AcDbEntity
8
0
62
256
6
ByLayer
370
18
48
1
60
0
100
AcDbMText
10
-9
20
-73.45625
30
0
210
0
220
0
230
1
1
\A1;18
40
4.5
41
0
44
1
50
0
71
5
72
5
7
iso_b_vert
0
POINT
5
387
100
AcDbEntity
8
Defpoints
62
0
6
ByLayer
370
-1
48
1
60
0
100
AcDbPoint
10
-18
20
-25
30
0
39
0
210
0
220
0
230
1
50
360
0
POINT
5
388
100
AcDbEntity
8
Defpoints
62
0
6
ByLayer
370
-1
48
1
60
0
100
AcDbPoint
10
0
20
-34
30
0
39
0
210
0
220
0
230
1
50
360
0
POINT
5
389
100
AcDbEntity
8
Defpoints
62
0
6
ByLayer
370
-1
48
1
60
0
100
AcDbPoint
10
0
20
-82.85
30
0
39
0
210
0
220
0
230
1
50
360
0
ENDBLK
5
37F
100
AcDbEntity
8
0
100
AcDbBlockEnd
0
BLOCK
5
391
100
AcDbEntity
8
0
100
AcDbBlockBegin
2
_U1
70
0
10
0
20
0
30
0
3
_U1
0
MTEXT
5
38B
100
AcDbEntity
8
SK2
62
256
6
ByLayer
370
18
48
1
60
0
100
AcDbMText
10
-10.886828
20
-81.522328
30
0
210
0
220
0
230
1
1
\W0.5321;18
40
4.5
41
0
44
1.084337
50
0
71
7
72
5
7
iso_b_vert
0
LINE
5
38C
100
AcDbEntity
8
SK2
62
256
6
ByLayer
370
13
48
1
60
0
100
AcDbLine
10
-18
20
-26.5875
30
0
11
-18
21
-86.025
31
0
39
0
210
0
220
0
230
1
0
LINE
5
38D
100
AcDbEntity
8
SK2
62
256
6
ByLayer
370
13
48
1
60
0
100
AcDbLine
10
0
20
-35.5875
30
0
11
0
21
-86.025
31
0
39
0
210
0
220
0
230
1
0
LINE
5
38E
100
AcDbEntity
8
SK2
62
256
6
ByLayer
370
13
48
1
60
0
100
AcDbLine
10
-18
20
-82.85
30
0
11
0
21
-82.85
31
0
39
0
210
0
220
0
230
1
0
SOLID
5
38F
100
AcDbEntity
8
SK2
62
256
6
ByLayer
370
18
48
1
60
0
100
AcDbTrace
10
-18
20
-82.85
30
0
11
-13.825003
21
-81.924425
31
0
12
-13.824997
22
-83.775575
32
0
13
-13.824997
23
-83.775575
33
0
39
0
210
0
220
0
230
1
0
SOLID
5
390
100
AcDbEntity
8
SK2
62
256
6
ByLayer
370
18
48
1
60
0
100
AcDbTrace
10
0
20
-82.85
30
0
11
-4.174997
21
-83.775575
31
0
12
-4.175003
22
-81.924425
32
0
13
-4.175003
23
-81.924425
33
0
39
0
210
0
220
0
230
1
0
ENDBLK
5
392
100
AcDbEntity
8
0
100
AcDbBlockEnd
0
BLOCK
5
397
100
AcDbEntity
8
0
100
AcDbBlockBegin
2
*D5
70
1
10
0
20
0
30
0
3
*D5
0
LINE
5
399
100
AcDbEntity
8
0
62
256
6
ByLayer
370
-2
48
1
60
0
100
AcDbLine
10
232
20
-24.0875
30
0
11
232
21
-76.025
31
0
39
0
210
0
220
0
230
1
0
LINE
5
39A
100
AcDbEntity
8
0
62
256
6
ByLayer
370
-2
48
1
60
0
100
AcDbLine
10
18.3177
20
-35.5875
30
0
11
18.3177
21
-76.025
31
0
39
0
210
0
220
0
230
1
0
LINE
5
39B
100
AcDbEntity
8
0
62
256
6
ByLayer
370
-2
48
1
60
0
100
AcDbLine
10
227.825
20
-72.85
30
0
11
22.4927
21
-72.85
31
0
39
0
210
0
220
0
230
1
0
SOLID
5
39C
100
AcDbEntity
8
0
62
256
6
ByLayer
370
-1
48
1
60
0
100
AcDbTrace
10
227.825
20
-73.545833
30
0
11
227.825
21
-72.154167
31
0
12
232
22
-72.85
32
0
13
232
23
-72.85
33
0
39
0
210
0
220
0
230
1
0
SOLID
5
39D
100
AcDbEntity
8
0
62
256
6
ByLayer
370
-1
48
1
60
0
100
AcDbTrace
10
22.4927
20
-72.154167
30
0
11
22.4927
21
-73.545833
31
0
12
18.3177
22
-72.85
32
0
13
18.3177
23
-72.85
33
0
39
0
210
0
220
0
230
1
0
MTEXT
5
39E
100
AcDbEntity
8
0
62
256
6
ByLayer
370
18
48
1
60
0
100
AcDbMText
10
125.15885
20
-63.45625
30
0
210
0
220
0
230
1
1
\A1;213.7
40
4.5
41
0
44
1
50
0
71
5
72
5
7
iso_b_vert
0
POINT
5
39F
100
AcDbEntity
8
Defpoints
62
0
6
ByLayer
370
-1
48
1
60
0
100
AcDbPoint
10
232
20
-22.5
30
0
39
0
210
0
220
0
230
1
50
360
0
POINT
5
3A0
100
AcDbEntity
8
Defpoints
62
0
6
ByLayer
370
-1
48
1
60
0
100
AcDbPoint
10
18.3177
20
-34
30
0
39
0
210
0
220
0
230
1
50
360
0
POINT
5
3A1
100
AcDbEntity
8
Defpoints
62
0
6
ByLayer
370
-1
48
1
60
0
100
AcDbPoint
10
18.3177
20
-72.85
30
0
39
0
210
0
220
0
230
1
50
360
0
ENDBLK
5
398
100
AcDbEntity
8
0
100
AcDbBlockEnd
0
BLOCK
5
3A9
100
AcDbEntity
8
0
100
AcDbBlockBegin
2
_U2
70
0
10
0
20
0
30
0
3
_U2
0
MTEXT
5
3A3
100
AcDbEntity
8
SK2
62
256
6
ByLayer
370
18
48
1
60
0
100
AcDbMText
10
118.997709
20
-71.522328
30
0
210
0
220
0
230
1
1
\W0.6864;213.7
40
4.5
41
0
44
1.084337
50
0
71
7
72
5
7
iso_b_vert
0
LINE
5
3A4
100
AcDbEntity
8
SK2
62
256
6
ByLayer
370
13
48
1
60
0
100
AcDbLine
10
232
20
-24.0875
30
0
11
232
21
-76.025
31
0
39
0
210
0
220
0
230
1
0
LINE
5
3A5
100
AcDbEntity
8
SK2
62
256
6
ByLayer
370
13
48
1
60
0
100
AcDbLine
10
18.3177
20
-35.5875
30
0
11
18.3177
21
-76.025
31
0
39
0
210
0
220
0
230
1
0
LINE
5
3A6
100
AcDbEntity
8
SK2
62
256
6
ByLayer
370
13
48
1
60
0
100
AcDbLine
10
232
20
-72.85
30
0
11
18.3177
21
-72.85
31
0
39
0
210
0
220
0
230
1
0
SOLID
5
3A7
100
AcDbEntity
8
SK2
62
256
6
ByLayer
370
18
48
1
60
0
100
AcDbTrace
10
232
20
-72.85
30
0
11
227.825003
21
-73.775575
31
0
12
227.824997
22
-71.924425
32
0
13
227.824997
23
-71.924425
33
0
39
0
210
0
220
0
230
1
0
SOLID
5
3A8
100
AcDbEntity
8
SK2
62
256
6
ByLayer
370
18
48
1
60
0
100
AcDbTrace
10
18.3177
20
-72.85
30
0
11
22.492697
21
-71.924425
31
0
12
22.492703
22
-73.775575
32
0
13
22.492703
23
-73.775575
33
0
39
0
210
0
220
0
230
1
0
ENDBLK
5
3AA
100
AcDbEntity
8
0
100
AcDbBlockEnd
0
BLOCK
5
3AF
100
AcDbEntity
8
0
100
AcDbBlockBegin
2
*D7
70
1
10
0
20
0
30
0
3
*D7
0
LINE
5
3B1
100
AcDbEntity
8
0
62
256
6
ByLayer
370
-2
48
1
60
0
100
AcDbLine
10
47
20
-24.0875
30
0
11
47
21
-66.025
31
0
39
0
210
0
220
0
230
1
0
LINE
5
3B2
100
AcDbEntity
8
0
62
256
6
ByLayer
370
-2
48
1
60
0
100
AcDbLine
10
232
20
-24.0875
30
0
11
232
21
-66.025
31
0
39
0
210
0
220
0
230
1
0
LINE
5
3B3
100
AcDbEntity
8
0
62
256
6
ByLayer
370
-2
48
1
60
0
100
AcDbLine
10
51.175
20
-62.85
30
0
11
227.825
21
-62.85
31
0
39
0
210
0
220
0
230
1
0
SOLID
5
3B4
100
AcDbEntity
8
0
62
256
6
ByLayer
370
-1
48
1
60
0
100
AcDbTrace
10
51.175
20
-62.154167
30
0
11
51.175
21
-63.545833
31
0
12
47
22
-62.85
32
0
13
47
23
-62.85
33
0
39
0
210
0
220
0
230
1
0
SOLID
5
3B5
100
AcDbEntity
8
0
62
256
6
ByLayer
370
-1
48
1
60
0
100
AcDbTrace
10
227.825
20
-63.545833
30
0
11
227.825
21
-62.154167
31
0
12
232
22
-62.85
32
0
13
232
23
-62.85
33
0
39
0
210
0
220
0
230
1
0
MTEXT
5
3B6
100
AcDbEntity
8
0
62
256
6
ByLayer
370
18
48
1
60
0
100
AcDbMText
10
139.5
20
-53.45625
30
0
210
0
220
0
230
1
1
\A1;185
40
4.5
41
0
44
1
50
0
71
5
72
5
7
iso_b_vert
0
POINT
5
3B7
100
AcDbEntity
8
Defpoints
62
0
6
ByLayer
370
-1
48
1
60
0
100
AcDbPoint
10
47
20
-22.5
30
0
39
0
210
0
220
0
230
1
50
360
0
POINT
5
3B8
100
AcDbEntity
8
Defpoints
62
0
6
ByLayer
370
-1
48
1
60
0
100
AcDbPoint
10
232
20
-22.5
30
0
39
0
210
0
220
0
230
1
50
360
0
POINT
5
3B9
100
AcDbEntity
8
Defpoints
62
0
6
ByLayer
370
-1
48
1
60
0
100
AcDbPoint
10
232
20
-62.85
30
0
39
0
210
0
220
0
230
1
50
360
0
ENDBLK
5
3B0
100
AcDbEntity
8
0
100
AcDbBlockEnd
0
BLOCK
5
3C1
100
AcDbEntity
8
0
100
AcDbBlockBegin
2
_U3
70
0
10
0
20
0
30
0
3
_U3
0
MTEXT
5
3BB
100
AcDbEntity
8
SK2
62
256
6
ByLayer
370
18
48
1
60
0
100
AcDbMText
10
135.931801
20
-61.522328
30
0
210
0
220
0
230
1
1
\W0.6217;185
40
4.5
41
0
44
1.084337
50
0
71
7
72
5
7
iso_b_vert
0
LINE
5
3BC
100
AcDbEntity
8
SK2
62
256
6
ByLayer
370
13
48
1
60
0
100
AcDbLine
10
47
20
-24.0875
30
0
11
47
21
-66.025
31
0
39
0
210
0
220
0
230
1
0
LINE
5
3BD
100
AcDbEntity
8
SK2
62
256
6
ByLayer
370
13
48
1
60
0
100
AcDbLine
10
232
20
-24.0875
30
0
11
232
21
-66.025
31
0
39
0
210
0
220
0
230
1
0
LINE
5
3BE
100
AcDbEntity
8
SK2
62
256
6
ByLayer
370
13
48
1
60
0
100
AcDbLine
10
47
20
-62.85
30
0
11
232
21
-62.85
31
0
39
0
210
0
220
0
230
1
0
SOLID
5
3BF
100
AcDbEntity
8
SK2
62
256
6
ByLayer
370
18
48
1
60
0
100
AcDbTrace
10
47
20
-62.85
30
0
11
51.174997
21
-61.924425
31
0
12
51.175003
22
-63.775575
32
0
13
51.175003
23
-63.775575
33
0
39
0
210
0
220
0
230
1
0
SOLID
5
3C0
100
AcDbEntity
8
SK2
62
256
6
ByLayer
370
18
48
1
60
0
100
AcDbTrace
10
232
20
-62.85
30
0
11
227.825003
21
-63.775575
31
0
12
227.824997
22
-61.924425
32
0
13
227.824997
23
-61.924425
33
0
39
0
210
0
220
0
230
1
0
ENDBLK
5
3C2
100
AcDbEntity
8
0
100
AcDbBlockEnd
0
BLOCK
5
3C7
100
AcDbEntity
8
0
100
AcDbBlockBegin
2
*D9
70
1
10
0
20
0
30
0
3
*D9
0
LINE
5
3C9
100
AcDbEntity
8
0
62
256
6
ByLayer
370
-2
48
1
60
0
100
AcDbLine
10
230.7234
20
-12.8375
30
0
11
230.7234
21
-56.025
31
0
39
0
210
0
220
0
230
1
0
LINE
5
3CA
100
AcDbEntity
8
0
62
256
6
ByLayer
370
-2
48
1
60
0
100
AcDbLine
10
232
20
-1.5875
30
0
11
232
21
-56.025
31
0
39
0
210
0
220
0
230
1
0
LINE
5
3CB
100
AcDbEntity
8
0
62
256
6
ByLayer
370
-2
48
1
60
0
100
AcDbLine
10
232
20
-52.85
30
0
11
267.708929
21
-52.85
31
0
39
0
210
0
220
0
230
1
0
LINE
5
3CC
100
AcDbEntity
8
0
62
256
6
ByLayer
370
-2
48
1
60
0
100
AcDbLine
10
226.5484
20
-52.85
30
0
11
222.3734
21
-52.85
31
0
39
0
210
0
220
0
230
1
0
LINE
5
3CD
100
AcDbEntity
8
0
62
256
6
ByLayer
370
-2
48
1
60
0
100
AcDbLine
10
236.175
20
-52.85
30
0
11
240.35
21
-52.85
31
0
39
0
210
0
220
0
230
1
0
SOLID
5
3CE
100
AcDbEntity
8
0
62
256
6
ByLayer
370
-1
48
1
60
0
100
AcDbTrace
10
226.5484
20
-53.545833
30
0
11
226.5484
21
-52.154167
31
0
12
230.7234
22
-52.85
32
0
13
230.7234
23
-52.85
33
0
39
0
210
0
220
0
230
1
0
SOLID
5
3CF
100
AcDbEntity
8
0
62
256
6
ByLayer
370
-1
48
1
60
0
100
AcDbTrace
10
236.175
20
-52.154167
30
0
11
236.175
21
-53.545833
31
0
12
232
22
-52.85
32
0
13
232
23
-52.85
33
0
39
0
210
0
220
0
230
1
0
MTEXT
5
3D0
100
AcDbEntity
8
0
62
256
6
ByLayer
370
18
48
1
60
0
100
AcDbMText
10
254.029464
20
-43.45625
30
0
210
0
220
0
230
1
1
\A1;1.28
40
4.5
41
0
44
1
50
0
71
5
72
5
7
iso_b_vert
0
POINT
5
3D1
100
AcDbEntity
8
Defpoints
62
0
6
ByLayer
370
-1
48
1
60
0
100
AcDbPoint
10
230.7234
20
-11.25
30
0
39
0
210
0
220
0
230
1
50
360
0
POINT
5
3D2
100
AcDbEntity
8
Defpoints
62
0
6
ByLayer
370
-1
48
1
60
0
100
AcDbPoint
10
232
20
0
30
0
39
0
210
0
220
0
230
1
50
360
0
POINT
5
3D3
100
AcDbEntity
8
Defpoints
62
0
6
ByLayer
370
-1
48
1
60
0
100
AcDbPoint
10
232
20
-52.85
30
0
39
0
210
0
220
0
230
1
50
360
0
ENDBLK
5
3C8
100
AcDbEntity
8
0
100
AcDbBlockEnd
0
BLOCK
5
3DB
100
AcDbEntity
8
0
100
AcDbBlockBegin
2
_U4
70
0
10
0
20
0
30
0
3
_U4
0
MTEXT
5
3D5
100
AcDbEntity
8
2
62
256
6
ByLayer
370
18
48
1
60
0
100
AcDbMText
10
244.351
20
-51.522328
30
0
210
0
220
0
230
1
1
\W0.6563;1.28
40
4.5
41
0
44
1.084337
50
0
71
7
72
5
7
iso_b_vert
0
LINE
5
3D6
100
AcDbEntity
8
2
62
256
6
ByLayer
370
13
48
1
60
0
100
AcDbLine
10
230.7234
20
-12.8375
30
0
11
230.7234
21
-56.025
31
0
39
0
210
0
220
0
230
1
0
LINE
5
3D7
100
AcDbEntity
8
2
62
256
6
ByLayer
370
13
48
1
60
0
100
AcDbLine
10
232
20
-1.5875
30
0
11
232
21
-56.025
31
0
39
0
210
0
220
0
230
1
0
LINE
5
3D8
100
AcDbEntity
8
2
62
256
6
ByLayer
370
13
48
1
60
0
100
AcDbLine
10
253.549041
20
-52.85
30
0
11
219.4734
21
-52.85
31
0
39
0
210
0
220
0
230
1
0
SOLID
5
3D9
100
AcDbEntity
8
2
62
256
6
ByLayer
370
18
48
1
60
0
100
AcDbTrace
10
230.7234
20
-52.85
30
0
11
226.548403
21
-53.775575
31
0
12
226.548397
22
-51.924425
32
0
13
226.548397
23
-51.924425
33
0
39
0
210
0
220
0
230
1
0
SOLID
5
3DA
100
AcDbEntity
8
2
62
256
6
ByLayer
370
18
48
1
60
0
100
AcDbTrace
10
232
20
-52.85
30
0
11
236.174997
21
-51.924425
31
0
12
236.175003
22
-53.775575
32
0
13
236.175003
23
-53.775575
33
0
39
0
210
0
220
0
230
1
0
ENDBLK
5
3DC
100
AcDbEntity
8
0
100
AcDbBlockEnd
0
ENDSEC
0
SECTION
2
ENTITIES
0
ARC
5
18F
100
AcDbEntity
8
SK1
62
256
6
ByLayer
370
13
48
1
60
0
100
AcDbCircle
39
0
10
-0.3
20
25.4
30
0
40
0.600000000000001
210
0
220
0
230
1
100
AcDbArc
50
270
51
300
0
ARC
5
190
100
AcDbEntity
8
SK1
62
256
6
ByLayer
370
13
48
1
60
0
100
AcDbCircle
39
0
10
-0.3
20
-25.4
30
0
40
0.600000000000001
210
0
220
0
230
1
100
AcDbArc
50
60
51
90
0
ARC
5
191
100
AcDbEntity
8
1
62
256
6
ByLayer
370
13
48
1
60
0
100
AcDbCircle
39
0
10
228.546286
20
21.003492
30
0
40
0.2
210
0
220
0
230
1
100
AcDbArc
50
8.974534
51
93
0
ARC
5
192
100
AcDbEntity
8
1
62
256
6
ByLayer
370
13
48
1
60
0
100
AcDbCircle
39
0
10
228.692333
20
8.182393
30
0
40
0.2
210
0
220
0
230
1
100
AcDbArc
50
273
51
352.543899
0
ARC
5
193
100
AcDbEntity
8
1
62
256
6
ByLayer
370
13
48
1
60
0
100
AcDbCircle
39
0
10
215.925347
20
20.107488
30
0
40
0.2
210
0
220
0
230
1
100
AcDbArc
50
76.847115
51
93
0
ARC
5
194
100
AcDbEntity
8
1
62
256
6
ByLayer
370
13
48
1
60
0
100
AcDbCircle
39
0
10
216.071393
20
7.286389
30
0
40
0.2
210
0
220
0
230
1
100
AcDbArc
50
273
51
304.880681
0
ARC
5
195
100
AcDbEntity
8
1
62
256
6
ByLayer
370
13
48
1
60
0
100
AcDbCircle
39
0
10
7.5
20
-30
30
0
40
0.5
210
0
220
0
230
1
100
AcDbArc
50
90
51
180
0
ARC
5
196
100
AcDbEntity
8
1
62
256
6
ByLayer
370
13
48
1
60
0
100
AcDbCircle
39
0
10
7.5
20
30
30
0
40
0.5
210
0
220
0
230
1
100
AcDbArc
50
180
51
270
0
ELLIPSE
5
197
100
AcDbEntity
8
1
62
256
6
ByLayer
370
18
48
1
60
0
100
AcDbEllipse
10
222.281937
20
14.14353
30
0
11
-0.0942047212373068
21
1.79753316255823
31
0
210
0
220
0
230
1
40
0.995725
41
0
42
6.28318530717959
0
ELLIPSE
5
198
100
AcDbEntity
8
1
62
256
6
ByLayer
370
18
48
1
60
0
100
AcDbEllipse
10
222.274632
20
14.143147
30
0
11
-0.149157475292402
21
2.84609417405053
31
0
210
0
220
0
230
1
40
0.995725
41
0
42
6.28318530717959
0
ELLIPSE
5
199
100
AcDbEntity
8
1
62
256
6
ByLayer
370
18
48
1
60
0
100
AcDbEllipse
10
222.281937
20
14.14353
30
0
11
0.0877359970456743
21
-1.67410255206257
31
0
210
0
220
0
230
1
40
0.995725
41
-2.61799387799147
42
-1.5707963267949
0
ELLIPSE
5
19A
100
AcDbEntity
8
1
62
256
6
ByLayer
370
18
48
1
60
0
100
AcDbEllipse
10
222.136653
20
14.135916
30
0
11
-0.0675290843402758
21
1.28853168869383
31
0
210
0
220
0
230
1
40
0.995725
41
-3.03890209425328
42
-2.0943951023932
0
ELLIPSE
5
19B
100
AcDbEntity
8
1
62
256
6
ByLayer
370
18
48
1
60
0
100
AcDbEllipse
10
222.136653
20
14.135916
30
0
11
0.067529084340273
21
-1.28853168869383
31
0
210
0
220
0
230
1
40
0.995725
41
-0.773927979467122
42
0
0
ELLIPSE
5
19C
100
AcDbEntity
8
1
62
256
6
ByLayer
370
18
48
1
60
0
100
AcDbEllipse
10
223.452799
20
13.462225
30
0
11
-0.177667934094639
21
-0.351309387094165
31
0
210
0
220
0
230
1
40
0.48867
41
-2.85504177777832
42
-1.57317835192378
0
ELLIPSE
5
19D
100
AcDbEntity
8
1
62
256
6
ByLayer
370
18
48
1
60
0
100
AcDbEllipse
10
223.375169
20
14.943492
30
0
11
-0.213416480918815
21
0.330813521383928
31
0
210
0
220
0
230
1
40
0.48867
41
0.291314926058907
42
1.57317835193872
0
ELLIPSE
5
19E
100
AcDbEntity
8
1
62
256
6
ByLayer
370
18
48
1
60
0
100
AcDbEllipse
10
222.136653
20
14.135916
30
0
11
0.067529084340273
21
-1.28853168869383
31
0
210
0
220
0
230
1
40
0.995725
41
-1.8941510985487
42
-1.23150380240866
0
ELLIPSE
5
19F
100
AcDbEntity
8
1
62
256
6
ByLayer
370
18
48
1
60
0
100
AcDbEllipse
10
222.214283
20
12.654649
30
0
11
-0.391877312293428
21
-0.0205374196886548
31
0
210
0
220
0
230
1
40
0.491826
41
-1.5707963267949
42
-0.288932900934228
0
ELLIPSE
5
1A0
100
AcDbEntity
8
1
62
256
6
ByLayer
370
18
48
1
60
0
100
AcDbEllipse
10
222.281937
20
14.14353
30
0
11
0.0877359970456743
21
-1.67410255206257
31
0
210
0
220
0
230
1
40
0.995725
41
0.523598775598277
42
1.5707963267949
0
ELLIPSE
5
1A1
100
AcDbEntity
8
1
62
256
6
ByLayer
370
18
48
1
60
0
100
AcDbEllipse
10
222.941404
20
12.891666
30
0
11
-0.328810806111004
21
-0.214953577526594
31
0
210
0
220
0
230
1
40
0.490768
41
0.673401308867879
42
-2.94809584055996
0
ELLIPSE
5
1A2
100
AcDbEntity
8
1
62
256
6
ByLayer
370
18
48
1
60
0
100
AcDbEllipse
10
222.208142
20
14.139663
30
0
11
-0.149157475292402
21
2.84609417405053
31
0
210
0
220
0
230
1
40
0.995725
41
9.2516345866192E-05
42
3.1415869351611
0
ELLIPSE
5
1A3
100
AcDbEntity
8
1
62
256
6
ByLayer
370
18
48
1
60
0
100
AcDbEllipse
10
222.281937
20
14.14353
30
0
11
0.0877359970456743
21
-1.67410255206257
31
0
210
0
220
0
230
1
40
0.995725
41
-0.523598775598318
42
0.523598775598277
0
ELLIPSE
5
1A4
100
AcDbEntity
8
1
62
256
6
ByLayer
370
18
48
1
60
0
100
AcDbEllipse
10
223.611687
20
14.213219
30
0
11
-0.0206256003553415
21
0.393559899646756
31
0
210
0
220
0
230
1
40
0.48763
41
-2.94566969474579
42
-0.320422399685434
0
ELLIPSE
5
1A5
100
AcDbEntity
8
1
62
256
6
ByLayer
370
18
48
1
60
0
100
AcDbEllipse
10
221.331902
20
15.380166
30
0
11
-0.328810806111007
21
-0.214953577526555
31
0
210
0
220
0
230
1
40
0.490768
41
2.9432983835535
42
-2.46819100314311
0
ELLIPSE
5
1A6
100
AcDbEntity
8
1
62
256
6
ByLayer
370
18
48
1
60
0
100
AcDbEllipse
10
222.136653
20
14.135916
30
0
11
0.067529084340273
21
-1.28853168869383
31
0
210
0
220
0
230
1
40
0.995725
41
2.0943951023932
42
3.14159265358977
0
ELLIPSE
5
1A7
100
AcDbEntity
8
1
62
256
6
ByLayer
370
18
48
1
60
0
100
AcDbEllipse
10
223.375169
20
14.943492
30
0
11
-0.21341648092661
21
0.330813521391962
31
0
210
0
220
0
230
1
40
0.48867
41
1.57317835192703
42
2.8550417777783
0
ELLIPSE
5
1A8
100
AcDbEntity
8
1
62
256
6
ByLayer
370
18
48
1
60
0
100
AcDbEllipse
10
223.452799
20
13.462225
30
0
11
-0.177667934093442
21
-0.351309387090579
31
0
210
0
220
0
230
1
40
0.48867
41
-1.57317835191998
42
-0.291314926055484
0
ELLIPSE
5
1A9
100
AcDbEntity
8
1
62
256
6
ByLayer
370
18
48
1
60
0
100
AcDbEllipse
10
221.46637
20
12.814363
30
0
11
-0.349478313243819
21
0.179405951069345
31
0
210
0
220
0
230
1
40
0.490768
41
2.51649656479999
42
-2.9432983835531
0
ELLIPSE
5
1AA
100
AcDbEntity
8
1
62
256
6
ByLayer
370
18
48
1
60
0
100
AcDbEllipse
10
222.059023
20
15.617183
30
0
11
-0.391877312292698
21
-0.0205374196883225
31
0
210
0
220
0
230
1
40
0.491826
41
0.288932900934473
42
1.5707963267949
0
ELLIPSE
5
1AB
100
AcDbEntity
8
1
62
256
6
ByLayer
370
18
48
1
60
0
100
AcDbEllipse
10
222.281937
20
14.14353
30
0
11
0.0877359970456743
21
-1.67410255206257
31
0
210
0
220
0
230
1
40
0.995725
41
1.5707963267949
42
2.61799387799148
0
ELLIPSE
5
1AC
100
AcDbEntity
8
1
62
256
6
ByLayer
370
18
48
1
60
0
100
AcDbEllipse
10
222.806936
20
15.457469
30
0
11
-0.349478313243819
21
0.179405951069335
31
0
210
0
220
0
230
1
40
0.490768
41
2.94809584056026
42
-0.625095735375651
0
ELLIPSE
5
1AD
100
AcDbEntity
8
1
62
256
6
ByLayer
370
18
48
1
60
0
100
AcDbEllipse
10
222.136653
20
14.135916
30
0
11
0.067529084340273
21
-1.28853168869383
31
0
210
0
220
0
230
1
40
0.995725
41
1.0471975511966
42
2.09439510239319
0
ELLIPSE
5
1AE
100
AcDbEntity
8
1
62
256
6
ByLayer
370
18
48
1
60
0
100
AcDbEllipse
10
222.281937
20
14.14353
30
0
11
0.0877359970456743
21
-1.67410255206257
31
0
210
0
220
0
230
1
40
0.995725
41
-1.5707963267949
42
-0.523598775598318
0
ELLIPSE
5
1AF
100
AcDbEntity
8
1
62
256
6
ByLayer
370
18
48
1
60
0
100
AcDbEllipse
10
222.281937
20
14.14353
30
0
11
0.0877359970456743
21
-1.67410255206257
31
0
210
0
220
0
230
1
40
0.995725
41
2.6179938779915
42
-2.61799387799147
0
ELLIPSE
5
1B0
100
AcDbEntity
8
1
62
256
6
ByLayer
370
18
48
1
60
0
100
AcDbEllipse
10
222.136653
20
14.135916
30
0
11
0.067529084340273
21
-1.28853168869383
31
0
210
0
220
0
230
1
40
0.995725
41
3.14159265358979
42
-2.34982975905692
0
ELLIPSE
5
1B1
100
AcDbEntity
8
1
62
256
6
ByLayer
370
18
48
1
60
0
100
AcDbEllipse
10
223.204527
20
-6.129139
30
0
11
2
21
0
31
0
210
0
220
0
230
1
40
0.993815
41
0.420384580287761
42
3.04155286629409
0
ELLIPSE
5
1B2
100
AcDbEntity
8
1
62
256
6
ByLayer
370
18
48
1
60
0
100
AcDbEllipse
10
223.204527
20
-6.073615
30
0
11
-1.5
21
1.51595858262354E-15
31
0
210
0
220
0
230
1
40
0.993815
41
-3.14159243122297
42
0
0
ELLIPSE
5
1B3
100
AcDbEntity
8
1
62
256
6
ByLayer
370
18
48
1
60
0
100
AcDbEllipse
10
223.204527
20
-6.073615
30
0
11
-1.5
21
1.51595858262354E-15
31
0
210
0
220
0
230
1
40
0.993815
41
0
42
0.38052553221104
0
ELLIPSE
5
1B4
100
AcDbEntity
8
1
62
256
6
ByLayer
370
18
48
1
60
0
100
AcDbEllipse
10
223.204527
20
-6.073615
30
0
11
-1.5
21
1.51595858262354E-15
31
0
210
0
220
0
230
1
40
0.993815
41
3.12981201527662
42
-3.14159243122297
0
ELLIPSE
5
1B5
100
AcDbEntity
8
1
62
256
6
ByLayer
370
18
48
1
60
0
100
AcDbEllipse
10
223.204527
20
-6.9111
30
0
11
-2.35
21
2.37500177944355E-15
31
0
210
0
220
0
230
1
40
0.993815
41
-0.617617364601588
42
-0.487633821260904
0
ELLIPSE
5
1B6
100
AcDbEntity
8
1
62
256
6
ByLayer
370
18
48
1
60
0
100
AcDbEllipse
10
223.204527
20
-7.020869
30
0
11
-2.35
21
2.37500177944355E-15
31
0
210
0
220
0
230
1
40
0.993815
41
-0.584630662872597
42
-0.514828191158646
0
ELLIPSE
5
1B7
100
AcDbEntity
8
1
62
256
6
ByLayer
370
13
48
1
60
0
100
AcDbEllipse
10
227.323675
20
22.744181
30
0
11
0.107288710298038
21
-2.04719054624687
31
0
210
0
220
0
230
1
40
0.995725
41
0.77385285722034
42
1.26193471909897
0
ELLIPSE
5
1B8
100
AcDbEntity
8
1
62
256
6
ByLayer
370
13
48
1
60
0
100
AcDbEllipse
10
231.691784
20
14.636449
30
0
11
0.148731686424787
21
-0.0194649801756591
31
0
210
0
220
0
230
1
40
0.016833
41
-1.66175841710589
42
-0.0909620903063398
0
ELLIPSE
5
1B9
100
AcDbEntity
8
1
62
256
6
ByLayer
370
13
48
1
60
0
100
AcDbEllipse
10
231.153411
20
14.708602
30
0
11
0.036635169370062
21
-0.699040674328201
31
0
210
0
220
0
230
1
40
0.995725
41
1.38753675533618
42
1.67551608191529
0
ELLIPSE
5
1BA
100
AcDbEntity
8
1
62
256
6
ByLayer
370
13
48
1
60
0
100
AcDbEllipse
10
230.874155
20
8.388956
30
0
11
0.148731686424787
21
-0.0194649801756591
31
0
210
0
220
0
230
1
40
0.016833
41
-1.6617584171057
42
-0.0909620903112785
0
ELLIPSE
5
1BB
100
AcDbEntity
8
1
62
256
6
ByLayer
370
13
48
1
60
0
100
AcDbEllipse
10
216.071393
20
7.286389
30
0
11
0.197551554484216
21
0.0311990916673833
31
0
210
0
220
0
230
1
40
0.009655
41
-3.04959407912129
42
-1.47879775232089
0
ELLIPSE
5
1BC
100
AcDbEntity
8
1
62
256
6
ByLayer
370
13
48
1
60
0
100
AcDbEllipse
10
214.950163
20
7.76636
30
0
11
0.0994383168615969
21
-1.89739611603369
31
0
210
0
220
0
230
1
40
0.995725
41
-0.0273572726611984
42
-0.00872664626078684
0
ELLIPSE
5
1BD
100
AcDbEntity
8
1
62
256
6
ByLayer
370
13
48
1
60
0
100
AcDbEllipse
10
212.918763
20
13.49512
30
0
11
-0.148163665863164
21
-0.0233993187505275
31
0
210
0
220
0
230
1
40
0.009655
41
-1.47879775232123
42
-0.264819008250051
0
ELLIPSE
5
1BE
100
AcDbEntity
8
1
62
256
6
ByLayer
370
13
48
1
60
0
100
AcDbEllipse
10
215.085272
20
13.530474
30
0
11
-0.197551554484218
21
-0.03119909166737
31
0
210
0
220
0
230
1
40
0.009655
41
0.0919985744754408
42
1.66279490126979
0
ELLIPSE
5
1BF
100
AcDbEntity
8
1
62
256
6
ByLayer
370
13
48
1
60
0
100
AcDbEllipse
10
215.925347
20
20.107488
30
0
11
0.010467191248589
21
-0.199725906950915
31
0
210
0
220
0
230
1
40
0.995725
41
-3.14157313675571
42
-1.75405589825518
0
ELLIPSE
5
1C0
100
AcDbEntity
8
1
62
256
6
ByLayer
370
13
48
1
60
0
100
AcDbEllipse
10
229.31092
20
22.226157
30
0
11
0.0127690523125644
21
-0.243648032548785
31
0
210
0
220
0
230
1
40
0.995725
41
-2.96705972838953
42
-1.87965793449035
0
ELLIPSE
5
1C1
100
AcDbEntity
8
1
62
256
6
ByLayer
370
13
48
1
60
0
100
AcDbEllipse
10
230.041015
20
21.722804
30
0
11
0.0366351693700618
21
-0.699040674328197
31
0
210
0
220
0
230
1
40
0.995725
41
1.67551608191456
42
3.06423017113047
0
ELLIPSE
5
1C2
100
AcDbEntity
8
1
62
256
6
ByLayer
370
13
48
1
60
0
100
AcDbEllipse
10
229.618949
20
22.272721
30
0
11
-0.00373239490690377
21
0.149953556904326
31
0
210
0
220
0
230
1
40
0.092336
41
0.0025375354558029
42
1.57333386224946
0
ELLIPSE
5
1C3
100
AcDbEntity
8
1
62
256
6
ByLayer
370
13
48
1
60
0
100
AcDbEllipse
10
215.24819
20
6.077704
30
0
11
0.0104671912485892
21
-0.199725906950916
31
0
210
0
220
0
230
1
40
0.995725
41
0.0114035669059261
42
1.26193471909934
0
ELLIPSE
5
1C4
100
AcDbEntity
8
1
62
256
6
ByLayer
370
13
48
1
60
0
100
AcDbEllipse
10
227.660053
20
6.08896
30
0
11
0.0942047212373021
21
-1.79753316255823
31
0
210
0
220
0
230
1
40
0.995725
41
2.07174781206119
42
2.74715904466468
0
ELLIPSE
5
1C5
100
AcDbEntity
8
1
62
256
6
ByLayer
370
13
48
1
60
0
100
AcDbEllipse
10
228.546286
20
21.003492
30
0
11
-0.197551554484218
21
-0.03119909166737
31
0
210
0
220
0
230
1
40
0.009655
41
1.66279490126852
42
-3.14146319865851
0
ELLIPSE
5
1C6
100
AcDbEntity
8
1
62
256
6
ByLayer
370
13
48
1
60
0
100
AcDbEllipse
10
228.974494
20
8.036095
30
0
11
0.00523359562429397
21
-0.0998629534754459
31
0
210
0
220
0
230
1
40
0.995725
41
-1.75405589825318
42
0.104719755120294
0
ELLIPSE
5
1C7
100
AcDbEntity
8
1
62
256
6
ByLayer
370
13
48
1
60
0
100
AcDbEllipse
10
213.734299
20
19.900441
30
0
11
-0.148731686424784
21
0.019464980175683
31
0
210
0
220
0
230
1
40
0.016833
41
0.263130755736509
42
1.47983423648416
0
ELLIPSE
5
1C8
100
AcDbEntity
8
1
62
256
6
ByLayer
370
13
48
1
60
0
100
AcDbEllipse
10
227.583178
20
22.757781
30
0
11
-2.06113725246398
21
-1.58826933382268
31
0
210
0
220
0
230
1
40
0.479615
41
1.82992719209236
42
1.86916047254024
0
ELLIPSE
5
1C9
100
AcDbEntity
8
1
62
256
6
ByLayer
370
13
48
1
60
0
100
AcDbEllipse
10
215.638574
20
20.253544
30
0
11
0.00523359562429397
21
-0.0998629534754459
31
0
210
0
220
0
230
1
40
0.995725
41
1.38753675533575
42
3.14158141713665
0
ELLIPSE
5
1CA
100
AcDbEntity
8
1
62
256
6
ByLayer
370
13
48
1
60
0
100
AcDbEllipse
10
215.928933
20
22.147008
30
0
11
-1.72936595007085
21
1.21940905088576
31
0
210
0
220
0
230
1
40
0.74335
41
1.1617510967021
42
1.98390815207368
0
ELLIPSE
5
1CB
100
AcDbEntity
8
1
62
256
6
ByLayer
370
13
48
1
60
0
100
AcDbEllipse
10
215.580523
20
20.193698
30
0
11
-0.0427993177774322
21
-0.15858092515314
31
0
210
0
220
0
230
1
40
0.080206
41
-3.11537766647681
42
-1.54458133967538
0
ELLIPSE
5
1CC
100
AcDbEntity
8
1
62
256
6
ByLayer
370
13
48
1
60
0
100
AcDbEllipse
10
215.234354
20
6.076979
30
0
11
-0.00261679781214745
21
0.0499314767377296
31
0
210
0
220
0
230
1
40
0.995725
41
3.13286600733338
42
-1.87965793448986
0
ELLIPSE
5
1CD
100
AcDbEntity
8
1
62
256
6
ByLayer
370
13
48
1
60
0
100
AcDbEllipse
10
215.827141
20
6.917988
30
0
11
0.00523359562429541
21
-0.0998629534754734
31
0
210
0
220
0
230
1
40
0.995725
41
0.761807904941623
42
1.67551608191388
0
ELLIPSE
5
1CE
100
AcDbEntity
8
1
62
256
6
ByLayer
370
13
48
1
60
0
100
AcDbEllipse
10
229.059135
20
14.682267
30
0
11
-0.026167978121474
21
0.499314767377287
31
0
210
0
220
0
230
1
40
0.995725
41
-1.7540558982542
42
-1.46607657167515
0
ELLIPSE
5
1CF
100
AcDbEntity
8
1
62
256
6
ByLayer
370
13
48
1
60
0
100
AcDbEllipse
10
221.984095
20
20.341436
30
0
11
0.010467191248589
21
-0.199725906950915
31
0
210
0
220
0
230
1
40
0.092371
41
1.5707963267949
42
-3.14159265356672
0
ELLIPSE
5
1D0
100
AcDbEntity
8
1
62
256
6
ByLayer
370
13
48
1
60
0
100
AcDbEllipse
10
230.425717
20
7.429607
30
0
11
-0.0435637040713996
21
-0.25913963010645
31
0
210
0
220
0
230
1
40
0.947521
41
0.308152981533497
42
1.28542437783997
0
ELLIPSE
5
1D1
100
AcDbEntity
8
1
62
256
6
ByLayer
370
13
48
1
60
0
100
AcDbEllipse
10
229.838721
20
13.525509
30
0
11
0.465790010562217
21
-8.88780285931571
31
0
210
0
220
0
230
1
40
0.995725
41
3.06423017113061
42
3.11423538092933
0
ELLIPSE
5
1D2
100
AcDbEntity
8
1
62
256
6
ByLayer
370
13
48
1
60
0
100
AcDbEllipse
10
214.733221
20
13.719472
30
0
11
-0.148731686424784
21
0.019464980175683
31
0
210
0
220
0
230
1
40
0.016833
41
1.47983423648334
42
3.05063056327851
0
ELLIPSE
5
1D3
100
AcDbEntity
8
1
62
256
6
ByLayer
370
13
48
1
60
0
100
AcDbEllipse
10
229.662904
20
20.523278
30
0
11
0.0994383168615969
21
-1.89739611603369
31
0
210
0
220
0
230
1
40
0.995725
41
3.11423538092938
42
3.13286600732982
0
ELLIPSE
5
1D4
100
AcDbEntity
8
1
62
256
6
ByLayer
370
13
48
1
60
0
100
AcDbEllipse
10
229.824885
20
13.524784
30
0
11
-0.457939617125796
21
8.73800842910252
31
0
210
0
220
0
230
1
40
0.995725
41
-0.0773624824591871
42
-0.027357272660473
0
ELLIPSE
5
1D5
100
AcDbEntity
8
1
62
256
6
ByLayer
370
13
48
1
60
0
100
AcDbEllipse
10
229.649067
20
20.522553
30
0
11
-0.0915879234251589
21
1.7476016858205
31
0
210
0
220
0
230
1
40
0.995725
41
-0.0273572726604055
42
-0.00872664625997129
0
ELLIPSE
5
1D6
100
AcDbEntity
8
1
62
256
6
ByLayer
370
13
48
1
60
0
100
AcDbEllipse
10
214.553871
20
6.016774
30
0
11
-0.00379960965785788
21
-0.149951868832795
31
0
210
0
220
0
230
1
40
0.092094
41
-1.56362690568454
42
-0.0717426686085738
0
ELLIPSE
5
1D7
100
AcDbEntity
8
1
62
256
6
ByLayer
370
13
48
1
60
0
100
AcDbEllipse
10
213.638498
20
20.831268
30
0
11
-0.043563704059562
21
-0.259139630110036
31
0
210
0
220
0
230
1
40
0.947521
41
-2.83343967210141
42
-2.19739446867209
0
ELLIPSE
5
1D8
100
AcDbEntity
8
1
62
256
6
ByLayer
370
13
48
1
60
0
100
AcDbEllipse
10
214.989506
20
6.016676
30
0
11
0.00373239490690328
21
-0.149953556904326
31
0
210
0
220
0
230
1
40
0.092336
41
-1.56825879134033
42
-0.0414707750417362
0
ELLIPSE
5
1D9
100
AcDbEntity
8
1
62
256
6
ByLayer
370
13
48
1
60
0
100
AcDbEllipse
10
229.534309
20
14.615927
30
0
11
0.19830891523305
21
-0.0259533069008789
31
0
210
0
220
0
230
1
40
0.016833
41
0.000152472619040907
42
1.47983423648318
0
ELLIPSE
5
1DA
100
AcDbEntity
8
1
62
256
6
ByLayer
370
13
48
1
60
0
100
AcDbEllipse
10
222.22396
20
14.140492
30
0
11
0.156043507061199
21
-2.97748748746712
31
0
210
0
220
0
230
1
40
0.995725
41
0
42
6.28318530717959
0
ELLIPSE
5
1DB
100
AcDbEntity
8
1
62
256
6
ByLayer
370
13
48
1
60
0
100
AcDbEllipse
10
214.159874
20
21.432125
30
0
11
-0.30035132161195
21
0.184900888631255
31
0
210
0
220
0
230
1
40
0.479615
41
-1.8691605827715
42
-0.781758788886837
0
ELLIPSE
5
1DC
100
AcDbEntity
8
1
62
256
6
ByLayer
370
13
48
1
60
0
100
AcDbEllipse
10
228.692333
20
8.182393
30
0
11
0.010467191248589
21
-0.199725906950915
31
0
210
0
220
0
230
1
40
0.995725
41
-0.280778212086603
42
2.11747654885941E-05
0
ELLIPSE
5
1DD
100
AcDbEntity
8
1
62
256
6
ByLayer
370
13
48
1
60
0
100
AcDbEllipse
10
217.270944
20
5.54449
30
0
11
-0.0994383168616008
21
1.89739611603368
31
0
210
0
220
0
230
1
40
0.995725
41
0.761807904943184
42
1.26193471909894
0
ELLIPSE
5
1DE
100
AcDbEntity
8
1
62
256
6
ByLayer
370
13
48
1
60
0
100
AcDbEllipse
10
214.736455
20
13.475558
30
0
11
-0.148163665863164
21
-0.0233993187505275
31
0
210
0
220
0
230
1
40
0.009655
41
-3.04959407911743
42
-1.47879775232198
0
ELLIPSE
5
1DF
100
AcDbEntity
8
1
62
256
6
ByLayer
370
13
48
1
60
0
100
AcDbEllipse
10
214.553603
20
6.565867
30
0
11
-0.0287847759336211
21
0.54924624411501
31
0
210
0
220
0
230
1
40
0.995725
41
1.67551608191458
42
3.0642301711306
0
ELLIPSE
5
1E0
100
AcDbEntity
8
1
62
256
6
ByLayer
370
13
48
1
60
0
100
AcDbEllipse
10
217.257107
20
5.543765
30
0
11
0.107288710298038
21
-2.04719054624687
31
0
210
0
220
0
230
1
40
0.995725
41
-2.36773979636944
42
-1.87965793449081
0
ELLIPSE
5
1E1
100
AcDbEntity
8
1
62
256
6
ByLayer
370
13
48
1
60
0
100
AcDbEllipse
10
230.027179
20
21.722079
30
0
11
-0.0287847759336211
21
0.54924624411501
31
0
210
0
220
0
230
1
40
0.995725
41
-1.46607657167522
42
-0.0773624824592953
0
ELLIPSE
5
1E2
100
AcDbEntity
8
1
62
256
6
ByLayer
370
13
48
1
60
0
100
AcDbEllipse
10
213.734299
20
19.900441
30
0
11
0.0235312926468821
21
-0.148142763125192
31
0
210
0
220
0
230
1
40
0.091865
41
-3.05123893757167
42
-1.58049283524418
0
ELLIPSE
5
1E3
100
AcDbEntity
8
1
62
256
6
ByLayer
370
13
48
1
60
0
100
AcDbEllipse
10
215.572381
20
13.608338
30
0
11
-0.0366351693700637
21
0.699040674328202
31
0
210
0
220
0
230
1
40
0.995725
41
1.38753675533556
42
1.67551608191464
0
ELLIPSE
5
1E4
100
AcDbEntity
8
1
62
256
6
ByLayer
370
13
48
1
60
0
100
AcDbEllipse
10
213.44582
20
13.580312
30
0
11
-0.0287847759336214
21
0.549246244115015
31
0
210
0
220
0
230
1
40
0.995725
41
1.38753675533537
42
1.67551608191447
0
ELLIPSE
5
1E5
100
AcDbEntity
8
1
62
256
6
ByLayer
370
13
48
1
60
0
100
AcDbEllipse
10
228.546286
20
21.003492
30
0
11
-0.114373860316015
21
0.16406894915374
31
0
210
0
220
0
230
1
40
0.07853
41
-1.61960141451367
42
-0.0488050877195115
0
ELLIPSE
5
1E6
100
AcDbEntity
8
1
62
256
6
ByLayer
370
13
48
1
60
0
100
AcDbEllipse
10
214.026546
20
6.480676
30
0
11
-0.148163665863164
21
-0.0233993187505275
31
0
210
0
220
0
230
1
40
0.009655
41
-1.47879775232091
42
-0.264793552088792
0
ELLIPSE
5
1E7
100
AcDbEntity
8
1
62
256
6
ByLayer
370
13
48
1
60
0
100
AcDbEllipse
10
215.558545
20
13.607613
30
0
11
0.0444855628065039
21
-0.848835104541388
31
0
210
0
220
0
230
1
40
0.995725
41
-1.75405589825425
42
-1.46607657167515
0
ELLIPSE
5
1E8
100
AcDbEntity
8
1
62
256
6
ByLayer
370
13
48
1
60
0
100
AcDbEllipse
10
215.576993
20
13.60858
30
0
11
0.036635169370062
21
-0.699040674328202
31
0
210
0
220
0
230
1
40
0.995725
41
-1.75405589825423
42
-1.46607657167516
0
ELLIPSE
5
1E9
100
AcDbEntity
8
1
62
256
6
ByLayer
370
13
48
1
60
0
100
AcDbEllipse
10
215.250373
20
6.027752
30
0
11
0.00653729335064082
21
-0.149857478277354
31
0
210
0
220
0
230
1
40
0.092367
41
-1.56998679074958
42
-0.0232440763814888
0
ELLIPSE
5
1EA
100
AcDbEntity
8
1
62
256
6
ByLayer
370
13
48
1
60
0
100
AcDbEllipse
10
215.609646
20
22.130276
30
0
11
-2.21586826966114
21
1.36412185048566
31
0
210
0
220
0
230
1
40
0.479615
41
1.27243178939863
42
1.3116650311121
0
ELLIPSE
5
1EB
100
AcDbEntity
8
1
62
256
6
ByLayer
370
13
48
1
60
0
100
AcDbEllipse
10
229.027931
20
8.095698
30
0
11
-0.157381426401802
21
-0.0466723701613334
31
0
210
0
220
0
230
1
40
0.019797
41
-1.48863729004847
42
-0.271936942495241
0
ELLIPSE
5
1EC
100
AcDbEntity
8
1
62
256
6
ByLayer
370
13
48
1
60
0
100
AcDbEllipse
10
215.925347
20
20.107488
30
0
11
0.19830891523305
21
-0.0259533069008789
31
0
210
0
220
0
230
1
40
0.016833
41
1.47983423648517
42
3.05063056328557
0
ELLIPSE
5
1ED
100
AcDbEntity
8
1
62
256
6
ByLayer
370
13
48
1
60
0
100
AcDbEllipse
10
216.071393
20
7.286389
30
0
11
0.114373860316012
21
-0.164068949153743
31
0
210
0
220
0
230
1
40
0.07853
41
3.35013650229904E-05
42
1.52199123907656
0
ELLIPSE
5
1EE
100
AcDbEntity
8
1
62
256
6
ByLayer
370
13
48
1
60
0
100
AcDbEllipse
10
229.358082
20
22.261645
30
0
11
-0.00653729335064184
21
0.149857478277354
31
0
210
0
220
0
230
1
40
0.092367
41
0.000809536045784252
42
1.57160586284002
0
ELLIPSE
5
1EF
100
AcDbEntity
8
1
62
256
6
ByLayer
370
13
48
1
60
0
100
AcDbEllipse
10
229.040686
20
14.6813
30
0
11
0.036635169370062
21
-0.699040674328202
31
0
210
0
220
0
230
1
40
0.995725
41
1.38753675533556
42
1.67551608191464
0
ELLIPSE
5
1F0
100
AcDbEntity
8
1
62
256
6
ByLayer
370
13
48
1
60
0
100
AcDbEllipse
10
231.134962
20
14.707635
30
0
11
-0.0287847759336214
21
0.549246244115015
31
0
210
0
220
0
230
1
40
0.995725
41
-1.75405589825442
42
-1.46607657167532
0
ELLIPSE
5
1F1
100
AcDbEntity
8
1
62
256
6
ByLayer
370
13
48
1
60
0
100
AcDbEllipse
10
227.738288
20
6.093061
30
0
11
-1.4039410756768
21
-1.5083737963433
31
0
210
0
220
0
230
1
40
0.735668
41
2.56900210139209
42
-2.89202615041553
0
ELLIPSE
5
1F2
100
AcDbEntity
8
1
62
256
6
ByLayer
370
13
48
1
60
0
100
AcDbEllipse
10
215.595442
20
13.609546
30
0
11
-0.026167978121474
21
0.499314767377287
31
0
210
0
220
0
230
1
40
0.995725
41
1.38753675533559
42
1.67551608191464
0
ELLIPSE
5
1F3
100
AcDbEntity
8
1
62
256
6
ByLayer
370
13
48
1
60
0
100
AcDbEllipse
10
229.667516
20
20.52352
30
0
11
0.0994383168615969
21
-1.89739611603369
31
0
210
0
220
0
230
1
40
0.995725
41
3.11423538093023
42
3.13286600733063
0
ELLIPSE
5
1F4
100
AcDbEntity
8
1
62
256
6
ByLayer
370
13
48
1
60
0
100
AcDbEllipse
10
222.633584
20
7.948444
30
0
11
0.010467191248589
21
-0.199725906950915
31
0
210
0
220
0
230
1
40
0.092371
41
0
42
1.5707963267949
0
ELLIPSE
5
1F5
100
AcDbEntity
8
1
62
256
6
ByLayer
370
13
48
1
60
0
100
AcDbEllipse
10
230.874155
20
8.388956
30
0
11
-0.0235312926468724
21
0.148142763125194
31
0
210
0
220
0
230
1
40
0.091865
41
1.56109981834619
42
3.13189614514058
0
ELLIPSE
5
1F6
100
AcDbEntity
8
1
62
256
6
ByLayer
370
13
48
1
60
0
100
AcDbEllipse
10
229.843333
20
13.525751
30
0
11
0.465790010562217
21
-8.88780285931571
31
0
210
0
220
0
230
1
40
0.995725
41
3.06423017113143
42
3.11423538093014
0
ELLIPSE
5
1F7
100
AcDbEntity
8
1
62
256
6
ByLayer
370
13
48
1
60
0
100
AcDbEllipse
10
230.045628
20
21.723046
30
0
11
0.0366351693700618
21
-0.699040674328197
31
0
210
0
220
0
230
1
40
0.995725
41
1.67551608191537
42
3.06423017113137
0
ELLIPSE
5
1F8
100
AcDbEntity
8
1
62
256
6
ByLayer
370
13
48
1
60
0
100
AcDbEllipse
10
229.097982
20
22.214998
30
0
11
-0.279378559898214
21
-0.215283244301508
31
0
210
0
220
0
230
1
40
0.479615
41
-2.35983386470173
42
-1.27243207080485
0
ELLIPSE
5
1F9
100
AcDbEntity
8
1
62
256
6
ByLayer
370
13
48
1
60
0
100
AcDbEllipse
10
229.022237
20
14.680334
30
0
11
0.0444855628065039
21
-0.848835104541388
31
0
210
0
220
0
230
1
40
0.995725
41
1.38753675533555
42
1.67551608191464
0
ELLIPSE
5
1FA
100
AcDbEntity
8
1
62
256
6
ByLayer
370
13
48
1
60
0
100
AcDbEllipse
10
214.572052
20
6.566834
30
0
11
0.0366351693700618
21
-0.699040674328197
31
0
210
0
220
0
230
1
40
0.995725
41
-1.46607657167605
42
-0.0773624824600209
0
ELLIPSE
5
1FB
100
AcDbEntity
8
1
62
256
6
ByLayer
370
13
48
1
60
0
100
AcDbEllipse
10
228.692333
20
8.182393
30
0
11
-0.198308915233045
21
0.0259533069009107
31
0
210
0
220
0
230
1
40
0.016833
41
-3.14144018097075
42
-1.66175841710661
0
ELLIPSE
5
1FC
100
AcDbEntity
8
1
62
256
6
ByLayer
370
13
48
1
60
0
100
AcDbEllipse
10
217.275556
20
5.544732
30
0
11
-0.0994383168616008
21
1.89739611603368
31
0
210
0
220
0
230
1
40
0.995725
41
0.761807904942381
42
1.26193471909813
0
ELLIPSE
5
1FD
100
AcDbEntity
8
1
62
256
6
ByLayer
370
13
48
1
60
0
100
AcDbEllipse
10
213.737405
20
19.888877
30
0
11
-0.0435637040421581
21
-0.259139630115282
31
0
210
0
220
0
230
1
40
0.947521
41
-2.83343967216459
42
-1.53236303195833
0
ELLIPSE
5
1FE
100
AcDbEntity
8
1
62
256
6
ByLayer
370
13
48
1
60
0
100
AcDbEllipse
10
229.872
20
14.813839
30
0
11
0.148163665863162
21
0.0233993187505375
31
0
210
0
220
0
230
1
40
0.009655
41
1.66279490126989
42
2.8560295683096
0
ELLIPSE
5
1FF
100
AcDbEntity
8
1
62
256
6
ByLayer
370
13
48
1
60
0
100
AcDbEllipse
10
222.327288
20
14.145907
30
0
11
0.164592752017143
21
-3.14061679904834
31
0
210
0
220
0
230
1
40
0.995725
41
0
42
6.28318530717959
0
ELLIPSE
5
200
100
AcDbEntity
8
1
62
256
6
ByLayer
370
13
48
1
60
0
100
AcDbEllipse
10
215.252802
20
6.077946
30
0
11
0.0104671912485892
21
-0.199725906950916
31
0
210
0
220
0
230
1
40
0.995725
41
-0.00872664625884252
42
1.26193471909859
0
ELLIPSE
5
201
100
AcDbEntity
8
1
62
256
6
ByLayer
370
13
48
1
60
0
100
AcDbEllipse
10
214.755897
20
14.763163
30
0
11
-0.457939617125796
21
8.73800842910252
31
0
210
0
220
0
230
1
40
0.995725
41
3.06423017113061
42
3.11423538092932
0
ELLIPSE
5
202
100
AcDbEntity
8
1
62
256
6
ByLayer
370
13
48
1
60
0
100
AcDbEllipse
10
214.774346
20
14.764129
30
0
11
0.465790010562217
21
-8.88780285931571
31
0
210
0
220
0
230
1
40
0.995725
41
-0.0773624824599926
42
-0.0273572726612794
0
ELLIPSE
5
203
100
AcDbEntity
8
1
62
256
6
ByLayer
370
13
48
1
60
0
100
AcDbEllipse
10
228.546286
20
21.003492
30
0
11
0.010467191248589
21
-0.199725906950915
31
0
210
0
220
0
230
1
40
0.995725
41
3.14157394909798
42
-2.58708947813791
0
ELLIPSE
5
204
100
AcDbEntity
8
1
62
256
6
ByLayer
370
13
48
1
60
0
100
AcDbEllipse
10
229.586505
20
22.271609
30
0
11
-0.00653729335064184
21
0.149857478277354
31
0
210
0
220
0
230
1
40
0.092367
41
0.000809536047835613
42
1.57160586284021
0
ELLIPSE
5
205
100
AcDbEntity
8
1
62
256
6
ByLayer
370
13
48
1
60
0
100
AcDbEllipse
10
227.263888
20
22.741048
30
0
11
-1.59242934826864
21
-1.39349696570645
31
0
210
0
220
0
230
1
40
0.74335
41
1.15768450151695
42
1.97984155688722
0
ELLIPSE
5
206
100
AcDbEntity
8
1
62
256
6
ByLayer
370
13
48
1
60
0
100
AcDbEllipse
10
212.91667
20
13.652947
30
0
11
-0.148731686424784
21
0.019464980175683
31
0
210
0
220
0
230
1
40
0.016833
41
0.263181912490352
42
1.47983423648428
0
ELLIPSE
5
207
100
AcDbEntity
8
1
62
256
6
ByLayer
370
13
48
1
60
0
100
AcDbEllipse
10
215.822528
20
6.917747
30
0
11
0.00523359562429541
21
-0.0998629534754734
31
0
210
0
220
0
230
1
40
0.995725
41
0.761807904942441
42
1.67551608191388
0
ELLIPSE
5
208
100
AcDbEntity
8
1
62
256
6
ByLayer
370
13
48
1
60
0
100
AcDbEllipse
10
229.312104
20
22.224388
30
0
11
0.145139532363191
21
-0.0378750068698885
31
0
210
0
220
0
230
1
40
0.028078
41
3.05344420152922
42
-1.65894477885525
0
ELLIPSE
5
209
100
AcDbEntity
8
1
62
256
6
ByLayer
370
13
48
1
60
0
100
AcDbEllipse
10
230.054584
20
22.272623
30
0
11
0.00379960965785723
21
0.149951868832795
31
0
210
0
220
0
230
1
40
0.092094
41
0.00716942111041693
42
1.57796574790525
0
ELLIPSE
5
20A
100
AcDbEntity
8
1
62
256
6
ByLayer
370
13
48
1
60
0
100
AcDbEllipse
10
213.738912
20
19.900682
30
0
11
0.00785039343644185
21
-0.149794430213186
31
0
210
0
220
0
230
1
40
0.995725
41
-3.03687289847124
42
-1.75405589825528
0
ELLIPSE
5
20B
100
AcDbEntity
8
1
62
256
6
ByLayer
370
13
48
1
60
0
100
AcDbEllipse
10
231.689692
20
14.794276
30
0
11
0.148163665863162
21
0.0233993187505375
31
0
210
0
220
0
230
1
40
0.009655
41
0.0919985744760602
42
1.66279490126894
0
ELLIPSE
5
20C
100
AcDbEntity
8
1
62
256
6
ByLayer
370
13
48
1
60
0
100
AcDbEllipse
10
228.969881
20
8.035853
30
0
11
0.00523359562429397
21
-0.0998629534754459
31
0
210
0
220
0
230
1
40
0.995725
41
-6.3441075492681E-06
42
0.104719755119744
0
ELLIPSE
5
20D
100
AcDbEntity
8
1
62
256
6
ByLayer
370
13
48
1
60
0
100
AcDbEllipse
10
230.880274
20
8.401003
30
0
11
-0.0435637040541811
21
-0.259139630111666
31
0
210
0
220
0
230
1
40
0.947521
41
0.308152981469394
42
1.60922962168213
0
ELLIPSE
5
20E
100
AcDbEntity
8
1
62
256
6
ByLayer
370
13
48
1
60
0
100
AcDbEllipse
10
215.925347
20
20.107488
30
0
11
-0.0455100421908225
21
-0.194753269702435
31
0
210
0
220
0
230
1
40
0.088753
41
1.59649677847495
42
-3.11589220188392
0
ELLIPSE
5
20F
100
AcDbEntity
8
1
62
256
6
ByLayer
370
13
48
1
60
0
100
AcDbEllipse
10
215.643186
20
20.253785
30
0
11
0.00523359562429397
21
-0.0998629534754459
31
0
210
0
220
0
230
1
40
0.995725
41
1.38753675533488
42
-3.03687289847035
0
ELLIPSE
5
210
100
AcDbEntity
8
1
62
256
6
ByLayer
370
13
48
1
60
0
100
AcDbEllipse
10
230.878768
20
8.389198
30
0
11
0.00785039343644185
21
-0.149794430213186
31
0
210
0
220
0
230
1
40
0.995725
41
0.104719755120073
42
1.38753675533606
0
ELLIPSE
5
211
100
AcDbEntity
8
1
62
256
6
ByLayer
370
13
48
1
60
0
100
AcDbEllipse
10
214.931715
20
7.765393
30
0
11
-0.0915879234251589
21
1.7476016858205
31
0
210
0
220
0
230
1
40
0.995725
41
3.11423538092937
42
3.13286600732976
0
ELLIPSE
5
212
100
AcDbEntity
8
1
62
256
6
ByLayer
370
13
48
1
60
0
100
AcDbEllipse
10
228.790539
20
21.371892
30
0
11
0.00523359562429541
21
-0.0998629534754734
31
0
210
0
220
0
230
1
40
0.995725
41
-2.37978474864657
42
-1.46607657167448
0
ELLIPSE
5
213
100
AcDbEntity
8
1
62
256
6
ByLayer
370
13
48
1
60
0
100
AcDbEllipse
10
216.404162
20
22.171914
30
0
11
-0.0942047212373064
21
1.79753316255823
31
0
210
0
220
0
230
1
40
0.995725
41
2.74104825906061
42
3.14159265358895
0
ELLIPSE
5
214
100
AcDbEntity
8
1
62
256
6
ByLayer
370
13
48
1
60
0
100
AcDbEllipse
10
228.692333
20
8.182393
30
0
11
0.0455100421908323
21
0.194753269702433
31
0
210
0
220
0
230
1
40
0.088753
41
-3.11589220193687
42
-1.54509587511456
0
ELLIPSE
5
215
100
AcDbEntity
8
1
62
256
6
ByLayer
370
13
48
1
60
0
100
AcDbEllipse
10
230.874155
20
8.388956
30
0
11
0.00785039343644185
21
-0.149794430213186
31
0
210
0
220
0
230
1
40
0.995725
41
0.104719755119327
42
1.38753675533529
0
ELLIPSE
5
216
100
AcDbEntity
8
1
62
256
6
ByLayer
370
13
48
1
60
0
100
AcDbEllipse
10
227.342123
20
22.745148
30
0
11
-0.0942047212373064
21
1.79753316255823
31
0
210
0
220
0
230
1
40
0.995725
41
-3.14159265358905
42
-1.87965793449004
0
ELLIPSE
5
217
100
AcDbEntity
8
1
62
256
6
ByLayer
370
13
48
1
60
0
100
AcDbEllipse
10
226.788659
20
22.716142
30
0
11
0.0942047212373021
21
-1.79753316255823
31
0
210
0
220
0
230
1
40
0.995725
41
0
42
0.40054439452919
0
ELLIPSE
5
218
100
AcDbEntity
8
1
62
256
6
ByLayer
370
13
48
1
60
0
100
AcDbEllipse
10
229.532407
20
14.759406
30
0
11
0.197551554484216
21
0.0311990916673833
31
0
210
0
220
0
230
1
40
0.009655
41
-1.4787977523217
42
0.000129454886208241
0
ELLIPSE
5
219
100
AcDbEntity
8
1
62
256
6
ByLayer
370
13
48
1
60
0
100
AcDbEllipse
10
213.464268
20
13.581278
30
0
11
0.036635169370062
21
-0.699040674328201
31
0
210
0
220
0
230
1
40
0.995725
41
-1.75405589825522
42
-1.46607657167614
0
ELLIPSE
5
21A
100
AcDbEntity
8
1
62
256
6
ByLayer
370
13
48
1
60
0
100
AcDbEllipse
10
231.148799
20
14.70836
30
0
11
0.036635169370062
21
-0.699040674328201
31
0
210
0
220
0
230
1
40
0.995725
41
1.38753675533535
42
1.67551608191447
0
ELLIPSE
5
21B
100
AcDbEntity
8
1
62
256
6
ByLayer
370
13
48
1
60
0
100
AcDbEllipse
10
230.581909
20
21.808721
30
0
11
0.148163665863162
21
0.0233993187505375
31
0
210
0
220
0
230
1
40
0.009655
41
0.0919985744809805
42
1.66279490126902
0
ELLIPSE
5
21C
100
AcDbEntity
8
1
62
256
6
ByLayer
370
13
48
1
60
0
100
AcDbEllipse
10
215.08337
20
13.673953
30
0
11
-0.198308915233045
21
0.0259533069009107
31
0
210
0
220
0
230
1
40
0.016833
41
-1.66175841710449
42
-0.0909620903105779
0
ELLIPSE
5
21D
100
AcDbEntity
8
1
62
256
6
ByLayer
370
13
48
1
60
0
100
AcDbEllipse
10
222.249051
20
14.141807
30
0
11
0.161488764830073
21
-3.0813891952549
31
0
210
0
220
0
230
1
40
0.995725
41
-0.853733431166166
42
0
0
ELLIPSE
5
21E
100
AcDbEntity
8
1
62
256
6
ByLayer
370
13
48
1
60
0
100
AcDbEllipse
10
222.249051
20
14.141807
30
0
11
0.161488764830073
21
-3.0813891952549
31
0
210
0
220
0
230
1
40
0.995725
41
0
42
-2.28787053660728
0
ELLIPSE
5
21F
100
AcDbEntity
8
1
62
256
6
ByLayer
370
13
48
1
60
0
100
AcDbEllipse
10
227.342123
20
22.745148
30
0
11
-0.0994383168616008
21
1.89739611603368
31
0
210
0
220
0
230
1
40
0.995725
41
-2.37978474864579
42
-1.87965793449005
0
ELLIPSE
5
220
100
AcDbEntity
8
1
62
256
6
ByLayer
370
13
48
1
60
0
100
AcDbEllipse
10
229.346428
20
22.210967
30
0
11
-0.00261679781214745
21
0.0499314767377296
31
0
210
0
220
0
230
1
40
0.995725
41
-0.00872664625809204
42
1.26193471909935
0
ELLIPSE
5
221
100
AcDbEntity
8
1
62
256
6
ByLayer
370
13
48
1
60
0
100
AcDbEllipse
10
216.071393
20
7.286389
30
0
11
0.010467191248589
21
-0.199725906950915
31
0
210
0
220
0
230
1
40
0.995725
41
-1.46607657167604
42
-1.72590776514609E-05
0
ELLIPSE
5
222
100
AcDbEntity
8
1
62
256
6
ByLayer
370
13
48
1
60
0
100
AcDbEllipse
10
215.306759
20
6.063723
30
0
11
0.0127690523125644
21
-0.243648032548785
31
0
210
0
220
0
230
1
40
0.995725
41
0.17453292519863
42
1.26193471909785
0
ELLIPSE
5
223
100
AcDbEntity
8
1
62
256
6
ByLayer
370
13
48
1
60
0
100
AcDbEllipse
10
215.02195
20
6.017787
30
0
11
0.00653729335064082
21
-0.149857478277354
31
0
210
0
220
0
230
1
40
0.092367
41
-1.56998679074977
42
0.000809536043604682
0
ELLIPSE
5
224
100
AcDbEntity
8
1
62
256
6
ByLayer
370
13
48
1
60
0
100
AcDbEllipse
10
217.275556
20
5.544732
30
0
11
-0.0942047212373064
21
1.79753316255823
31
0
210
0
220
0
230
1
40
0.995725
41
0
42
1.26193471909813
0
ELLIPSE
5
225
100
AcDbEntity
8
1
62
256
6
ByLayer
370
13
48
1
60
0
100
AcDbEllipse
10
215.580523
20
20.193698
30
0
11
-0.157381426398521
21
-0.0466723701602414
31
0
210
0
220
0
230
1
40
0.019797
41
-3.05943361684719
42
-1.48863729001048
0
ELLIPSE
5
226
100
AcDbEntity
8
1
62
256
6
ByLayer
370
13
48
1
60
0
100
AcDbEllipse
10
229.364877
20
22.211934
30
0
11
0.0104671912485892
21
-0.199725906950916
31
0
210
0
220
0
230
1
40
0.995725
41
3.13286600733295
42
-1.87965793448956
0
ELLIPSE
5
227
100
AcDbEntity
8
1
62
256
6
ByLayer
370
13
48
1
60
0
100
AcDbEllipse
10
229.875234
20
14.569924
30
0
11
0.148731686424787
21
-0.0194649801756591
31
0
210
0
220
0
230
1
40
0.016833
41
-2.85804977878719
42
-1.6617584171045
0
ELLIPSE
5
228
100
AcDbEntity
8
1
62
256
6
ByLayer
370
13
48
1
60
0
100
AcDbEllipse
10
229.027931
20
8.095698
30
0
11
-0.0427993177770339
21
-0.158580925152399
31
0
210
0
220
0
230
1
40
0.080206
41
-1.54458133969758
42
0.0262149871108207
0
ELLIPSE
5
229
100
AcDbEntity
8
1
62
256
6
ByLayer
370
13
48
1
60
0
100
AcDbEllipse
10
228.213517
20
6.117966
30
0
11
-0.0942047212373064
21
1.79753316255823
31
0
210
0
220
0
230
1
40
0.995725
41
-0.400544394527569
42
7.92881497022098E-13
0
ELLIPSE
5
22A
100
AcDbEntity
8
1
62
256
6
ByLayer
370
13
48
1
60
0
100
AcDbEllipse
10
215.296351
20
6.065009
30
0
11
-0.145139532363191
21
0.0378750068698915
31
0
210
0
220
0
230
1
40
0.028078
41
1.48264787473431
42
3.05344420153134
0
ELLIPSE
5
22B
100
AcDbEntity
8
1
62
256
6
ByLayer
370
13
48
1
60
0
100
AcDbEllipse
10
215.254478
20
8.04238
30
0
11
0.136073486231659
21
-2.59643679036189
31
0
210
0
220
0
230
1
40
0.995725
41
0.687062733516975
42
1.13806179252793
0
ELLIPSE
5
22C
100
AcDbEntity
8
1
62
256
6
ByLayer
370
13
48
1
60
0
100
AcDbEllipse
10
215.254478
20
8.04238
30
0
11
0.136073486231659
21
-2.59643679036189
31
0
210
0
220
0
230
1
40
0.995725
41
-2.08239418575105
42
-0.581932527432346
0
ELLIPSE
5
22D
100
AcDbEntity
8
1
62
256
6
ByLayer
370
13
48
1
60
0
100
AcDbEllipse
10
227.965057
20
7.406729
30
0
11
-0.026167978121474
21
0.499314767377286
31
0
210
0
220
0
230
1
40
0.995725
41
-0.990362103391664
42
-0.927295220885106
0
ELLIPSE
5
22E
100
AcDbEntity
8
1
62
256
6
ByLayer
370
13
48
1
60
0
100
AcDbEllipse
10
5.5
20
-29.498313
30
0
11
-0.5
21
5.05319527541181E-16
31
0
210
0
220
0
230
1
40
0.5
41
1.5707963267949
42
3.14159265358979
0
ELLIPSE
5
22F
100
AcDbEntity
8
1
62
256
6
ByLayer
370
13
48
1
60
0
100
AcDbEllipse
10
208
20
5.968111
30
0
11
-3
21
3.03191716524709E-15
31
0
210
0
220
0
230
1
40
0.759344
41
-2.76799072331344
42
-1.6904069245871
0
ELLIPSE
5
230
100
AcDbEntity
8
1
62
256
6
ByLayer
370
13
48
1
60
0
100
AcDbEllipse
10
225.635371
20
7.284635
30
0
11
-0.318392268456018
21
-0.395167026605491
31
0
210
0
220
0
230
1
40
0.966608
41
-2.1258634007086
42
-2.06669043234201
0
ELLIPSE
5
231
100
AcDbEntity
8
1
62
256
6
ByLayer
370
13
48
1
60
0
100
AcDbEllipse
10
221.074424
20
7.045606
30
0
11
0.0523359562429457
21
-0.998629534754574
31
0
210
0
220
0
230
1
40
0.092371
41
-1.5707963267949
42
-3.07690827536824E-13
0
ELLIPSE
5
232
100
AcDbEntity
8
1
62
256
6
ByLayer
370
13
48
1
60
0
100
AcDbEllipse
10
218.120892
20
6.890818
30
0
11
-0.0261679781214741
21
0.499314767377288
31
0
210
0
220
0
230
1
40
0.995725
41
0.927295218001658
42
1.13806179252797
0
ELLIPSE
5
233
100
AcDbEntity
8
1
62
256
6
ByLayer
370
13
48
1
60
0
100
AcDbEllipse
10
230.64175
20
5.966621
30
0
11
-0.00984073218034727
21
0.500167498712616
31
0
210
0
220
0
230
1
40
0.104862
41
1.923291078542
42
-2.78909790185282
0
ELLIPSE
5
234
100
AcDbEntity
8
1
62
256
6
ByLayer
370
13
48
1
60
0
100
AcDbEllipse
10
859.741119
20
-0.277783
30
0
11
-761.939005545703
21
0.34399979206552
31
0
210
0
220
0
230
1
40
0.054377
41
-0.552325399162184
42
-0.544774974196234
0
ELLIPSE
5
235
100
AcDbEntity
8
1
62
256
6
ByLayer
370
13
48
1
60
0
100
AcDbEllipse
10
214.111055
20
6.680672
30
0
11
-3.96879667293093
21
-0.7049066524076
31
0
210
0
220
0
230
1
40
0.015321
41
-3.01817314070587
42
-2.71671453993712
0
ELLIPSE
5
236
100
AcDbEntity
8
1
62
256
6
ByLayer
370
13
48
1
60
0
100
AcDbEllipse
10
242.877336
20
0.000182
30
0
11
-234.376593095871
21
0.106298113079591
31
0
210
0
220
0
230
1
40
0.092637
41
-1.42185271906687
42
-1.412538161621
0
ELLIPSE
5
237
100
AcDbEntity
8
1
62
256
6
ByLayer
370
13
48
1
60
0
100
AcDbEllipse
10
214.664116
20
8.01144
30
0
11
-0.109905508110191
21
2.0971220229846
31
0
210
0
220
0
230
1
40
0.995725
41
2.21256348620485
42
2.73234058533935
0
ELLIPSE
5
238
100
AcDbEntity
8
1
62
256
6
ByLayer
370
13
48
1
60
0
100
AcDbEllipse
10
214.664116
20
8.01144
30
0
11
-0.109905508110191
21
2.0971220229846
31
0
210
0
220
0
230
1
40
0.995725
41
-2.74205116609545
42
-2.08304175457702
0
ELLIPSE
5
239
100
AcDbEntity
8
1
62
256
6
ByLayer
370
13
48
1
60
0
100
AcDbEllipse
10
230.500707
20
0.120462
30
0
11
-0.0109809519174591
21
0.505636677122744
31
0
210
0
220
0
230
1
40
0.102137
41
-0.125957895452063
42
0.219652343299459
0
ELLIPSE
5
23A
100
AcDbEntity
8
1
62
256
6
ByLayer
370
13
48
1
60
0
100
AcDbEllipse
10
217.793937
20
6.358033
30
0
11
0.353010790461904
21
-0.935619250452587
31
0
210
0
220
0
230
1
40
0.088046
41
-1.59884006173132
42
-0.0280437349361143
0
ELLIPSE
5
23B
100
AcDbEntity
8
1
62
256
6
ByLayer
370
13
48
1
60
0
100
AcDbEllipse
10
221.557876
20
-3.944153
30
0
11
0.575695518672402
21
-10.9849248823003
31
0
210
0
220
0
230
1
40
0.995725
41
-3.14159265358977
42
-2.83440246605355
0
ELLIPSE
5
23C
100
AcDbEntity
8
1
62
256
6
ByLayer
370
13
48
1
60
0
100
AcDbEllipse
10
225.097669
20
-6.95568
30
0
11
-6.03299767898716
21
-0.0247235405013081
31
0
210
0
220
0
230
1
40
0.988371
41
3.0073498466583
42
-2.98941211611377
0
ELLIPSE
5
23D
100
AcDbEntity
8
1
62
256
6
ByLayer
370
13
48
1
60
0
100
AcDbEllipse
10
216.628304
20
7.482953
30
0
11
0.0261679781214729
21
-0.499314767377287
31
0
210
0
220
0
230
1
40
0.092371
41
-1.005947825603
42
-0.630730776736125
0
ELLIPSE
5
23E
100
AcDbEntity
8
1
62
256
6
ByLayer
370
13
48
1
60
0
100
AcDbEllipse
10
223.002789
20
-6.486431
30
0
11
2
21
0
31
0
210
0
220
0
230
1
40
0.993815
41
2.526920306469
42
2.79297384914677
0
ELLIPSE
5
23F
100
AcDbEntity
8
1
62
256
6
ByLayer
370
13
48
1
60
0
100
AcDbEllipse
10
1219.942556
20
-2E-06
30
0
11
-1777.80083388657
21
17.7321088381665
31
0
210
0
220
0
230
1
40
0.007265
41
0.967447861132173
42
0.979409572725076
0
ELLIPSE
5
240
100
AcDbEntity
8
1
62
256
6
ByLayer
370
13
48
1
60
0
100
AcDbEllipse
10
214.710238
20
8.013858
30
0
11
0.136073486231659
21
-2.59643679036189
31
0
210
0
220
0
230
1
40
0.995725
41
0.0555653949272782
42
1.07574208457342
0
ELLIPSE
5
241
100
AcDbEntity
8
1
62
256
6
ByLayer
370
13
48
1
60
0
100
AcDbEllipse
10
212.487208
20
9.417107
30
0
11
-0.0261679781214742
21
0.49931476737729
31
0
210
0
220
0
230
1
40
0.995725
41
-2.08239418575109
42
-1.46607657167532
0
ELLIPSE
5
242
100
AcDbEntity
8
1
62
256
6
ByLayer
370
13
48
1
60
0
100
AcDbEllipse
10
214.638878
20
14.783139
30
0
11
0.523359562429457
21
-9.98629534754574
31
0
210
0
220
0
230
1
40
0.995725
41
-9.46300582439836E-06
42
0.307190187536242
0
ELLIPSE
5
243
100
AcDbEntity
8
1
62
256
6
ByLayer
370
13
48
1
60
0
100
AcDbEllipse
10
208
20
1.088172
30
0
11
-0.494019432252979
21
14.0036609990625
31
0
210
0
220
0
230
1
40
0.355302
41
-0.537120877694873
42
-0.386741754575367
0
ELLIPSE
5
244
100
AcDbEntity
8
1
62
256
6
ByLayer
370
13
48
1
60
0
100
AcDbEllipse
10
215.056594
20
8.032009
30
0
11
-1.65564191835325
21
-2.0548664533122
31
0
210
0
220
0
230
1
40
0.966608
41
1.54124461053466
42
1.85179470935587
0
ELLIPSE
5
245
100
AcDbEntity
8
1
62
256
6
ByLayer
370
13
48
1
60
0
100
AcDbEllipse
10
221.65012
20
-3.939319
30
0
11
-0.52335956242948
21
9.98629534754573
31
0
210
0
220
0
230
1
40
0.995725
41
0
42
0.307190187536245
0
ELLIPSE
5
246
100
AcDbEntity
8
1
62
256
6
ByLayer
370
13
48
1
60
0
100
AcDbEllipse
10
230.64187
20
6.994096
30
0
11
-0.0190690707678645
21
-0.501607026758386
31
0
210
0
220
0
230
1
40
0.195483
41
-0.786740978470648
42
-0.331356153711727
0
ELLIPSE
5
247
100
AcDbEntity
8
1
62
256
6
ByLayer
370
13
48
1
60
0
100
AcDbEllipse
10
242.877736
20
-6.7E-05
30
0
11
-236.806764626662
21
0.107437569849634
31
0
210
0
220
0
230
1
40
0.092638
41
-1.44605742595315
42
-1.43618584539537
0
ELLIPSE
5
248
100
AcDbEntity
8
1
62
256
6
ByLayer
370
13
48
1
60
0
100
AcDbEllipse
10
229.654359
20
-14.180663
30
0
11
-0.293754032276293
21
-2.48620978312221
31
0
210
0
220
0
230
1
40
0.118643
41
0
42
6.28318530717959
0
ELLIPSE
5
249
100
AcDbEntity
8
1
62
256
6
ByLayer
370
13
48
1
60
0
100
AcDbEllipse
10
230.453762
20
9.23949
30
0
11
0.136073486231659
21
-2.59643679036189
31
0
210
0
220
0
230
1
40
0.995725
41
-0.990362103391485
42
-0.858139698776763
0
ELLIPSE
5
24A
100
AcDbEntity
8
1
62
256
6
ByLayer
370
13
48
1
60
0
100
AcDbEllipse
10
230.114813
20
7.519393
30
0
11
-0.0196814643650456
21
1.00033499750819
31
0
210
0
220
0
230
1
40
0.104862
41
-3.13816375225
42
-2.60407008983925
0
ELLIPSE
5
24B
100
AcDbEntity
8
1
62
256
6
ByLayer
370
13
48
1
60
0
100
AcDbEllipse
10
214.322951
20
0
30
0
11
-1.15966139458988
21
21.9372369648302
31
0
210
0
220
0
230
1
40
0.092638
41
-0.124738688398174
42
-0.00489773240557396
0
ELLIPSE
5
24C
100
AcDbEntity
8
1
62
256
6
ByLayer
370
13
48
1
60
0
100
AcDbEllipse
10
208
20
5.554304
30
0
11
-4.99986667801985
21
0.0460818988319888
31
0
210
0
220
0
230
1
40
0.792544
41
1.7213916737826
42
1.78939514569187
0
ELLIPSE
5
24D
100
AcDbEntity
8
1
62
256
6
ByLayer
370
13
48
1
60
0
100
AcDbEllipse
10
236.091475
20
0.707244
30
0
11
-6.03299766828714
21
-0.0247234950433413
31
0
210
0
220
0
230
1
40
0.988371
41
0.0285785579325593
42
0.152180545053522
0
ELLIPSE
5
24E
100
AcDbEntity
8
1
62
256
6
ByLayer
370
13
48
1
60
0
100
AcDbEllipse
10
223.002789
20
-5.942296
30
0
11
2
21
0
31
0
210
0
220
0
230
1
40
0.993815
41
0.751527825072862
42
2.97548107544182
0
ELLIPSE
5
24F
100
AcDbEntity
8
1
62
256
6
ByLayer
370
13
48
1
60
0
100
AcDbEllipse
10
213.604447
20
18.131546
30
0
11
-0.143594274774564
21
2.73994198455229
31
0
210
0
220
0
230
1
40
0.016833
41
0.326127687959918
42
0.836829632654763
0
ELLIPSE
5
250
100
AcDbEntity
8
1
62
256
6
ByLayer
370
13
48
1
60
0
100
AcDbEllipse
10
232.593099
20
0
30
0
11
-2.65123903973247
21
-21.9352970321451
31
0
210
0
220
0
230
1
40
0.117261
41
-1.28238907554058
42
-0.0920912760323257
0
ELLIPSE
5
251
100
AcDbEntity
8
1
62
256
6
ByLayer
370
13
48
1
60
0
100
AcDbEllipse
10
214.90823
20
13.875619
30
0
11
0.136073486231659
21
-2.59643679036189
31
0
210
0
220
0
230
1
40
0.995725
41
-2.20424198809737
42
-1.46607657167524
0
ELLIPSE
5
252
100
AcDbEntity
8
1
62
256
6
ByLayer
370
13
48
1
60
0
100
AcDbEllipse
10
223.002789
20
-5.942296
30
0
11
-2.1
21
2.12234201567296E-15
31
0
210
0
220
0
230
1
40
0.993815
41
-2.75399876557282
42
-0.262716000733394
0
ELLIPSE
5
253
100
AcDbEntity
8
1
62
256
6
ByLayer
370
13
48
1
60
0
100
AcDbEllipse
10
231.12223
20
0
30
0
11
-45.1993673317138
21
19.2053789529753
31
0
210
0
220
0
230
1
40
0.224085
41
0.815116432807346
42
1.04621604963899
0
ELLIPSE
5
254
100
AcDbEntity
8
1
62
256
6
ByLayer
370
13
48
1
60
0
100
AcDbEllipse
10
230.328231
20
9.232911
30
0
11
-0.0814480402397222
21
2.59913809318198
31
0
210
0
220
0
230
1
40
0.529488
41
2.97870855961083
42
-3.13045444806911
0
ELLIPSE
5
255
100
AcDbEntity
8
1
62
256
6
ByLayer
370
13
48
1
60
0
100
AcDbEllipse
10
214.546634
20
14.778305
30
0
11
-0.471023606186532
21
8.98766581279116
31
0
210
0
220
0
230
1
40
0.995725
41
2.79252680319577
42
3.02206401946906
0
ELLIPSE
5
256
100
AcDbEntity
8
1
62
256
6
ByLayer
370
13
48
1
60
0
100
AcDbEllipse
10
217.879362
20
6.87816
30
0
11
-0.318392676572323
21
-0.395166625660413
31
0
210
0
220
0
230
1
40
0.966608
41
-2.1258622821161
42
-1.28979794431642
0
ELLIPSE
5
257
100
AcDbEntity
8
1
62
256
6
ByLayer
370
13
48
1
60
0
100
AcDbEllipse
10
230.454735
20
0
30
0
11
-3.73656816014969
21
21.9352238731901
31
0
210
0
220
0
230
1
40
0.08457
41
1.59453721546433
42
1.747706425494
0
ELLIPSE
5
258
100
AcDbEntity
8
1
62
256
6
ByLayer
370
13
48
1
60
0
100
AcDbEllipse
10
230.604857
20
0.118585
30
0
11
-0.0219619038423301
21
1.0112733545018
31
0
210
0
220
0
230
1
40
0.102137
41
-0.125957895435996
42
1.05774800742639
0
ELLIPSE
5
259
100
AcDbEntity
8
1
62
256
6
ByLayer
370
13
48
1
60
0
100
AcDbEllipse
10
212.020675
20
6.177085
30
0
11
-0.29369042064903
21
-0.95590058940195
31
0
210
0
220
0
230
1
40
0.0868
41
-1.53907871771946
42
-1.39194539667548E-05
0
ELLIPSE
5
25A
100
AcDbEntity
8
1
62
256
6
ByLayer
370
13
48
1
60
0
100
AcDbEllipse
10
224.491694
20
10.128678
30
0
11
-1.65564191951729
21
-2.05486645212875
31
0
210
0
220
0
230
1
40
0.966608
41
0.7137329174458
42
1.07490334584389
0
ELLIPSE
5
25B
100
AcDbEntity
8
1
62
256
6
ByLayer
370
13
48
1
60
0
100
AcDbEllipse
10
214.39719
20
7.997451
30
0
11
-2.29348548691382
21
1.84790145597823
31
0
210
0
220
0
230
1
40
0.775936
41
3.0528350678345
42
-2.77958348579044
0
ELLIPSE
5
25C
100
AcDbEntity
8
1
62
256
6
ByLayer
370
13
48
1
60
0
100
AcDbEllipse
10
230.268769
20
-14.302227
30
0
11
-0.0637212468001246
21
-0.515917477206849
31
0
210
0
220
0
230
1
40
0.113789
41
-1.64812757218458
42
-0.0773312453853121
0
ELLIPSE
5
25D
100
AcDbEntity
8
1
62
256
6
ByLayer
370
13
48
1
60
0
100
AcDbEllipse
10
234.655913
20
2.211595
30
0
11
-5.86790544659653
21
-1.93851229565149
31
0
210
0
220
0
230
1
40
0.829336
41
-0.372626307018067
42
-0.22507423780678
0
ELLIPSE
5
25E
100
AcDbEntity
8
1
62
256
6
ByLayer
370
13
48
1
60
0
100
AcDbEllipse
10
221.867064
20
7.087147
30
0
11
-3.96879667512655
21
-0.704906652807707
31
0
210
0
220
0
230
1
40
0.015321
41
-3.01817314107478
42
-2.71671454005631
0
ELLIPSE
5
25F
100
AcDbEntity
8
1
62
256
6
ByLayer
370
13
48
1
60
0
100
AcDbEllipse
10
173.496432
20
0
30
0
11
-236.806390677247
21
0.107428569227609
31
0
210
0
220
0
230
1
40
0.092638
41
-1.80296808496094
42
-1.74517127437521
0
ELLIPSE
5
260
100
AcDbEntity
8
1
62
256
6
ByLayer
370
13
48
1
60
0
100
AcDbEllipse
10
230.530865
20
-2.000801
30
0
11
-2.23867079788733
21
3.66706317753363
31
0
210
0
220
0
230
1
40
0.360575
41
-1.01723559604251
42
-0.873895907490546
0
ELLIPSE
5
261
100
AcDbEntity
8
1
62
256
6
ByLayer
370
13
48
1
60
0
100
AcDbEllipse
10
214.546634
20
14.778305
30
0
11
-0.471023606186532
21
8.98766581279116
31
0
210
0
220
0
230
1
40
0.995725
41
-2.91693381338444
42
-2.83440246605355
0
POINT
5
70
100
AcDbEntity
8
1
62
256
6
ByLayer
370
18
48
1
60
0
100
AcDbPoint
10
0
20
0
30
0
39
0
210
0
220
0
230
1
50
360
0
POINT
5
72
100
AcDbEntity
8
80
62
256
6
ByLayer
370
18
48
1
60
0
100
AcDbPoint
10
0
20
0
30
0
39
0
210
0
220
0
230
1
50
360
0
POINT
5
74
100
AcDbEntity
8
81
62
256
6
ByLayer
370
18
48
1
60
0
100
AcDbPoint
10
232
20
0
30
0
39
0
210
0
220
0
230
1
50
360
0
POINT
5
76
100
AcDbEntity
8
1
62
256
6
ByLayer
370
18
48
1
60
1
100
AcDbPoint
10
0
20
-34
30
0
39
0
210
0
220
0
230
1
50
360
0
POINT
5
77
100
AcDbEntity
8
1
62
256
6
ByLayer
370
18
48
1
60
1
100
AcDbPoint
10
232
20
-22.5
30
0
39
0
210
0
220
0
230
1
50
360
0
POINT
5
78
100
AcDbEntity
8
1
62
256
6
ByLayer
370
18
48
1
60
1
100
AcDbPoint
10
-18
20
-25
30
0
39
0
210
0
220
0
230
1
50
360
0
POINT
5
79
100
AcDbEntity
8
1
62
256
6
ByLayer
370
18
48
1
60
1
100
AcDbPoint
10
0
20
-34
30
0
39
0
210
0
220
0
230
1
50
360
0
POINT
5
7A
100
AcDbEntity
8
1
62
256
6
ByLayer
370
18
48
1
60
1
100
AcDbPoint
10
232
20
-22.5
30
0
39
0
210
0
220
0
230
1
50
360
0
POINT
5
7B
100
AcDbEntity
8
1
62
256
6
ByLayer
370
18
48
1
60
1
100
AcDbPoint
10
18.3177
20
-34
30
0
39
0
210
0
220
0
230
1
50
360
0
POINT
5
7C
100
AcDbEntity
8
1
62
256
6
ByLayer
370
18
48
1
60
1
100
AcDbPoint
10
47
20
-22.5
30
0
39
0
210
0
220
0
230
1
50
360
0
POINT
5
7D
100
AcDbEntity
8
1
62
256
6
ByLayer
370
18
48
1
60
1
100
AcDbPoint
10
232
20
-22.5
30
0
39
0
210
0
220
0
230
1
50
360
0
POINT
5
7E
100
AcDbEntity
8
1
62
256
6
ByLayer
370
18
48
1
60
1
100
AcDbPoint
10
230.7234
20
-11.25
30
0
39
0
210
0
220
0
230
1
50
360
0
SPLINE
5
262
100
AcDbEntity
8
1
62
256
6
ByLayer
370
18
48
1
60
0
100
AcDbSpline
70
4
71
3
72
16
73
12
40
0
40
0
40
0
40
0
40
0.125000000000042
40
0.125000000000042
40
0.250000000000085
40
0.250000000000085
40
0.500000000000057
40
0.500000000000057
40
0.750000000000028
40
0.750000000000028
40
1
40
1
40
1
40
1
41
1
10
220.854914587425
20
13.6816502196924
30
0
41
1
10
220.838403599963
20
13.6734719881804
30
0
41
1
10
220.819947411053
20
13.6702873831217
30
0
41
1
10
220.783084703225
20
13.6763400921905
30
0
41
1
10
220.764846040091
20
13.6855611629845
30
0
41
1
10
220.71701308442
20
13.7233871427513
30
0
41
1
10
220.69310964528
20
13.7603915404922
30
0
41
1
10
220.655743223957
20
13.8392175374749
30
0
41
1
10
220.642337108486
20
13.8815614458714
30
0
41
1
10
220.62309916793
20
13.9678338633473
30
0
41
1
10
220.617306575145
20
14.012005226511
30
0
41
1
10
220.614992036548
20
14.0561692538401
30
0
0
SPLINE
5
263
100
AcDbEntity
8
1
62
256
6
ByLayer
370
18
48
1
60
0
100
AcDbSpline
70
4
71
3
72
8
73
4
40
0
40
0
40
0
40
0
40
1
40
1
40
1
40
1
41
1
10
221.970458718403
20
12.6969375165542
30
0
41
1
10
221.967656812173
20
12.6910817308629
30
0
41
1
10
221.964855470349
20
12.6852267322251
30
0
41
1
10
221.962054671517
20
12.679372491097
30
0
0
SPLINE
5
264
100
AcDbEntity
8
1
62
256
6
ByLayer
370
18
48
1
60
0
100
AcDbSpline
70
4
71
3
72
8
73
4
40
0
40
0
40
0
40
0
40
1
40
1
40
1
40
1
41
1
10
222.572221721022
20
15.5890120511244
30
0
41
1
10
222.575704936117
20
15.5949035427003
30
0
41
1
10
222.579187881695
20
15.6007942626772
30
0
41
1
10
222.582670567633
20
15.6066842399942
30
0
0
SPLINE
5
265
100
AcDbEntity
8
1
62
256
6
ByLayer
370
18
48
1
60
0
100
AcDbSpline
70
4
71
3
72
16
73
12
40
0
40
0
40
0
40
0
40
0.249999999999976
40
0.249999999999976
40
0.499999999999952
40
0.499999999999952
40
0.749999999999928
40
0.749999999999928
40
0.874999999999964
40
0.874999999999964
40
1
40
1
40
1
40
1
41
1
10
220.614992036548
20
14.0561692538401
30
0
41
1
10
220.612675896122
20
14.1003638458895
30
0
41
1
10
220.613814370227
20
14.1447982819173
30
0
41
1
10
220.62393806668
20
14.2327089904045
30
0
41
1
10
220.632833133387
20
14.2761932443537
30
0
41
1
10
220.661836441895
20
14.3586694413584
30
0
41
1
10
220.681718556935
20
14.3980198435636
30
0
41
1
10
220.725807485412
20
14.4408294850732
30
0
41
1
10
220.742835786187
20
14.4516511009122
30
0
41
1
10
220.778660069136
20
14.461346609475
30
0
41
1
10
220.797241188744
20
14.4600991124253
30
0
41
1
10
220.814452367484
20
14.4537153690787
30
0
0
SPLINE
5
266
100
AcDbEntity
8
1
62
256
6
ByLayer
370
18
48
1
60
0
100
AcDbSpline
70
4
71
3
72
16
73
12
40
0
40
0
40
0
40
0
40
0.125000000000008
40
0.125000000000008
40
0.250000000000017
40
0.250000000000017
40
0.500000000000011
40
0.500000000000011
40
0.750000000000006
40
0.750000000000006
40
1
40
1
40
1
40
1
41
1
10
223.379502703666
20
13.1407506369501
30
0
41
1
10
223.396405463267
20
13.1296635273812
30
0
41
1
10
223.410000714465
20
13.1143767749098
30
0
41
1
10
223.426130896
20
13.0778059209304
30
0
41
1
10
223.4285858152
20
13.0566810546162
30
0
41
1
10
223.422992630812
20
12.9945992306356
30
0
41
1
10
223.404253809444
20
12.9547022944649
30
0
41
1
10
223.356735821998
20
12.8819208492011
30
0
41
1
10
223.327451133537
20
12.8488384913737
30
0
41
1
10
223.263360629917
20
12.7886562417771
30
0
41
1
10
223.228317908498
20
12.7614731572427
30
0
41
1
10
223.19139152639
20
12.7373952639809
30
0
0
SPLINE
5
267
100
AcDbEntity
8
1
62
256
6
ByLayer
370
18
48
1
60
0
100
AcDbSpline
70
4
71
3
72
16
73
12
40
0
40
0
40
0
40
0
40
0.124999999999952
40
0.124999999999952
40
0.249999999999904
40
0.249999999999904
40
0.499999999999936
40
0.499999999999936
40
0.749999999999968
40
0.749999999999968
40
1
40
1
40
1
40
1
41
1
10
221.962054671517
20
12.679372491097
30
0
41
1
10
221.961418727008
20
12.6600532896688
30
0
41
1
10
221.955513666982
20
12.6415272120069
30
0
41
1
10
221.932902208196
20
12.6109105964169
30
0
41
1
10
221.916290140622
20
12.5989633902943
30
0
41
1
10
221.860864259418
20
12.5746027440878
30
0
41
1
10
221.817438682479
20
12.5716691537835
30
0
41
1
10
221.731415949525
20
12.5776540484597
30
0
41
1
10
221.688387385212
20
12.5868978977574
30
0
41
1
10
221.60461930186
20
12.6129650251237
30
0
41
1
10
221.563687188712
20
12.6299482307353
30
0
41
1
10
221.524446268007
20
12.6500343648027
30
0
0
SPLINE
5
268
100
AcDbEntity
8
1
62
256
6
ByLayer
370
18
48
1
60
0
100
AcDbSpline
70
4
71
3
72
16
73
12
40
0
40
0
40
0
40
0
40
0.250000000000002
40
0.250000000000002
40
0.500000000000004
40
0.500000000000004
40
0.750000000000006
40
0.750000000000006
40
0.875000000000003
40
0.875000000000003
40
1
40
1
40
1
40
1
41
1
10
223.039428321854
20
15.637025941234
30
0
41
1
10
223.078696400131
20
15.6169259061005
30
0
41
1
10
223.116305003902
20
15.5936097909609
30
0
41
1
10
223.186416252344
20
15.5403981900287
30
0
41
1
10
223.218980004686
20
15.51058310803
30
0
41
1
10
223.273952062777
20
15.4430055453174
30
0
41
1
10
223.296815719027
20
15.4052820509864
30
0
41
1
10
223.308762211463
20
15.3435966278184
30
0
41
1
10
223.308390102809
20
15.3225915238927
30
0
41
1
10
223.296133539786
20
15.2848097491975
30
0
41
1
10
223.284264189368
20
15.268288800099
30
0
41
1
10
223.268671123706
20
15.2555431634859
30
0
0
SPLINE
5
269
100
AcDbEntity
8
1
62
256
6
ByLayer
370
18
48
1
60
0
100
AcDbSpline
70
4
71
3
72
8
73
4
40
0
40
0
40
0
40
0
40
1
40
1
40
1
40
1
41
1
10
221.810760871616
20
15.5662301670189
30
0
41
1
10
221.814158262207
20
15.5607007592341
30
0
41
1
10
221.817556271998
20
15.5551706548474
30
0
41
1
10
221.820954925372
20
15.5496398267153
30
0
0
SPLINE
5
26A
100
AcDbEntity
8
1
62
256
6
ByLayer
370
18
48
1
60
0
100
AcDbSpline
70
4
71
3
72
8
73
4
40
0
40
0
40
0
40
0
40
1
40
1
40
1
40
1
41
1
10
222.733964367534
20
12.7198265640723
30
0
41
1
10
222.729885089837
20
12.7253202356681
30
0
41
1
10
222.725805476292
20
12.7308146187157
30
0
41
1
10
222.721725514053
20
12.7363097409633
30
0
0
SPLINE
5
26B
100
AcDbEntity
8
1
62
256
6
ByLayer
370
18
48
1
60
0
100
AcDbSpline
70
4
71
3
72
16
73
12
40
0
40
0
40
0
40
0
40
0.249999999999964
40
0.249999999999964
40
0.499999999999928
40
0.499999999999928
40
0.749999999999891
40
0.749999999999891
40
0.874999999999946
40
0.874999999999946
40
1
40
1
40
1
40
1
41
1
10
223.19139152639
20
12.7373952639809
30
0
41
1
10
223.154439588538
20
12.7133007070651
30
0
41
1
10
223.115403044618
20
12.6921672159042
30
0
41
1
10
223.033847917886
20
12.6573989205509
30
0
41
1
10
222.991377322638
20
12.6436767236567
30
0
41
1
10
222.903977237058
20
12.628598607448
30
0
41
1
10
222.858887127736
20
12.6268488380238
30
0
41
1
10
222.796781762244
20
12.6454065073665
30
0
41
1
10
222.777657553873
20
12.6554606522024
30
0
41
1
10
222.748481052846
20
12.6832529745727
30
0
41
1
10
222.738654169569
20
12.7008581645094
30
0
41
1
10
222.733964367534
20
12.7198265640723
30
0
0
SPLINE
5
26C
100
AcDbEntity
8
1
62
256
6
ByLayer
370
18
48
1
60
0
100
AcDbSpline
70
4
71
3
72
16
73
12
40
0
40
0
40
0
40
0
40
0.250000000000029
40
0.250000000000029
40
0.500000000000058
40
0.500000000000058
40
0.750000000000087
40
0.750000000000087
40
0.875000000000044
40
0.875000000000044
40
1
40
1
40
1
40
1
41
1
10
223.948882553313
20
14.2308910521966
30
0
41
1
10
223.946566412887
20
14.2750856442459
30
0
41
1
10
223.940596534786
20
14.3191475473202
30
0
41
1
10
223.920459004514
20
14.4054723321165
30
0
41
1
10
223.906392806205
20
14.4477532371566
30
0
41
1
10
223.86664412474
20
14.5266262950456
30
0
41
1
10
223.841194796913
20
14.5636009769984
30
0
41
1
10
223.78882593644
20
14.6013554799945
30
0
41
1
10
223.769114407438
20
14.6102516429437
30
0
41
1
10
223.728733729648
20
14.6159534187438
30
0
41
1
10
223.708308055582
20
14.6126616622608
30
0
41
1
10
223.689810651724
20
14.6044065113987
30
0
0
SPLINE
5
26D
100
AcDbEntity
8
1
62
256
6
ByLayer
370
18
48
1
60
0
100
AcDbSpline
70
4
71
3
72
18
73
14
40
0
40
0
40
0
40
0
40
0.125000000000045
40
0.125000000000045
40
0.250000000000091
40
0.250000000000091
40
0.500000000000088
40
0.500000000000088
40
0.750000000000086
40
0.750000000000086
40
0.875000000000043
40
0.875000000000043
40
1
40
1
40
1
40
1
41
1
10
222.721725514053
20
12.7363097409633
30
0
41
1
10
222.702180142611
20
12.7626345447623
30
0
41
1
10
222.674154617537
20
12.7825621194458
30
0
41
1
10
222.612439777223
20
12.814407484825
30
0
41
1
10
222.578761234383
20
12.8260905980115
30
0
41
1
10
222.474709034171
20
12.8521322698056
30
0
41
1
10
222.401100325296
20
12.8577111370385
30
0
41
1
10
222.256560950158
20
12.850122838095
30
0
41
1
10
222.185889233689
20
12.8370332785779
30
0
41
1
10
222.089941163335
20
12.800439766249
30
0
41
1
10
222.059692463783
20
12.7853559092651
30
0
41
1
10
222.006771949533
20
12.7475671572874
30
0
41
1
10
221.983888032938
20
12.7250038333541
30
0
41
1
10
221.970458718403
20
12.6969375165542
30
0
0
SPLINE
5
26E
100
AcDbEntity
8
1
62
256
6
ByLayer
370
18
48
1
60
0
100
AcDbSpline
70
4
71
3
72
8
73
4
40
0
40
0
40
0
40
0
40
1
40
1
40
1
40
1
41
1
10
221.17468385455
20
15.1282379732741
30
0
41
1
10
221.171529478078
20
15.1339280824634
30
0
41
1
10
221.168375712779
20
15.1396174467736
30
0
41
1
10
221.165222535483
20
15.1453060941411
30
0
0
SPLINE
5
26F
100
AcDbEntity
8
1
62
256
6
ByLayer
370
18
48
1
60
0
100
AcDbSpline
70
4
71
3
72
8
73
4
40
0
40
0
40
0
40
0
40
1
40
1
40
1
40
1
41
1
10
223.689810651724
20
14.6044065113987
30
0
41
1
10
223.682833844938
20
14.6041873133548
30
0
41
1
10
223.675856332184
20
14.6039680970185
30
0
41
1
10
223.668878086185
20
14.6037488616896
30
0
0
SPLINE
5
270
100
AcDbEntity
8
1
62
256
6
ByLayer
370
18
48
1
60
0
100
AcDbSpline
70
4
71
3
72
18
73
14
40
0
40
0
40
0
40
0
40
0.124999999999977
40
0.124999999999977
40
0.249999999999953
40
0.249999999999953
40
0.499999999999969
40
0.499999999999969
40
0.749999999999984
40
0.749999999999984
40
0.874999999999992
40
0.874999999999992
40
1
40
1
40
1
40
1
41
1
10
220.833294205629
20
14.4551422075389
30
0
41
1
10
220.863386815406
20
14.4574210134794
30
0
41
1
10
220.892471722503
20
14.4704537379725
30
0
41
1
10
220.947137616773
20
14.5058271103837
30
0
41
1
10
220.972528552686
20
14.5282873625369
30
0
41
1
10
221.043330933246
20
14.6033794584591
30
0
41
1
10
221.083677285638
20
14.6637983120617
30
0
41
1
10
221.149348867431
20
14.7933057852507
30
0
41
1
10
221.17460403993
20
14.8621253971782
30
0
41
1
10
221.19463294567
20
14.9662634836961
30
0
41
1
10
221.198253326502
20
15.0011072712581
30
0
41
1
10
221.195728255809
20
15.0684042941318
30
0
41
1
10
221.189802531023
20
15.1009657308197
30
0
41
1
10
221.17468385455
20
15.1282379732741
30
0
0
SPLINE
5
271
100
AcDbEntity
8
1
62
256
6
ByLayer
370
18
48
1
60
0
100
AcDbSpline
70
4
71
3
72
16
73
12
40
0
40
0
40
0
40
0
40
0.12500000000005
40
0.12500000000005
40
0.2500000000001
40
0.2500000000001
40
0.500000000000067
40
0.500000000000067
40
0.750000000000033
40
0.750000000000033
40
1
40
1
40
1
40
1
41
1
10
222.582670567633
20
15.6066842399942
30
0
41
1
10
222.585361945435
20
15.6261111621168
30
0
41
1
10
222.593355250091
20
15.6447466800423
30
0
41
1
10
222.61972457386
20
15.675560236991
30
0
41
1
10
222.637993288717
20
15.6875942643187
30
0
41
1
10
222.697418652211
20
15.7121645145102
30
0
41
1
10
222.742410862011
20
15.7151802085638
30
0
41
1
10
222.830710243336
20
15.7093146279729
30
0
41
1
10
222.874414328412
20
15.7001061812182
30
0
41
1
10
222.959061690115
20
15.6740851348777
30
0
41
1
10
223.000187401149
20
15.6571120753013
30
0
41
1
10
223.039428321854
20
15.637025941234
30
0
0
SPLINE
5
272
100
AcDbEntity
8
1
62
256
6
ByLayer
370
18
48
1
60
0
100
AcDbSpline
70
4
71
3
72
16
73
12
40
0
40
0
40
0
40
0
40
0.25
40
0.25
40
0.5
40
0.5
40
0.75
40
0.75
40
0.875
40
0.875
40
1
40
1
40
1
40
1
41
1
10
221.524446268007
20
12.6500343648027
30
0
41
1
10
221.48517818973
20
12.6701343999363
30
0
41
1
10
221.447376608596
20
12.6934404015607
30
0
41
1
10
221.376385238929
20
12.7466058772941
30
0
41
1
10
221.343146969121
20
12.7763856093302
30
0
41
1
10
221.285891765043
20
12.8438435174318
30
0
41
1
10
221.261465216772
20
12.8814851040628
30
0
41
1
10
221.245472094617
20
12.9429584523537
30
0
41
1
10
221.244198859104
20
12.9638773274455
30
0
41
1
10
221.252716234726
20
13.0014631396326
30
0
41
1
10
221.26250884242
20
13.0178752512568
30
0
41
1
10
221.276054115443
20
13.0305135676053
30
0
0
SPLINE
5
273
100
AcDbEntity
8
1
62
256
6
ByLayer
370
18
48
1
60
0
100
AcDbSpline
70
4
71
3
72
18
73
14
40
0
40
0
40
0
40
0
40
0.12500000000003
40
0.12500000000003
40
0.250000000000059
40
0.250000000000059
40
0.500000000000045
40
0.500000000000045
40
0.750000000000031
40
0.750000000000031
40
0.875000000000016
40
0.875000000000016
40
1
40
1
40
1
40
1
41
1
10
223.668878086185
20
14.6037488616896
30
0
41
1
10
223.635414151083
20
14.6026975263227
30
0
41
1
10
223.602203594124
20
14.6124870960271
30
0
41
1
10
223.539090266042
20
14.6417428174185
30
0
41
1
10
223.509390834018
20
14.6613483678536
30
0
41
1
10
223.426058967271
20
14.7284707247047
30
0
41
1
10
223.377883760266
20
14.7843375258012
30
0
41
1
10
223.299034981342
20
14.9064330792121
30
0
41
1
10
223.268588518887
20
14.9722273458368
30
0
41
1
10
223.242953430791
20
15.0732749724047
30
0
41
1
10
223.237757487755
20
15.1077650867127
30
0
41
1
10
223.238130198256
20
15.1749114079129
30
0
41
1
10
223.243460427307
20
15.2084300426617
30
0
41
1
10
223.259000939456
20
15.2374724030157
30
0
0
SPLINE
5
274
100
AcDbEntity
8
1
62
256
6
ByLayer
370
18
48
1
60
0
100
AcDbSpline
70
4
71
3
72
18
73
14
40
0
40
0
40
0
40
0
40
0.12500000000001
40
0.12500000000001
40
0.250000000000019
40
0.250000000000019
40
0.500000000000012
40
0.500000000000012
40
0.750000000000004
40
0.750000000000004
40
0.875000000000002
40
0.875000000000002
40
1
40
1
40
1
40
1
41
1
10
221.28367949997
20
13.0484771646629
30
0
41
1
10
221.295858669442
20
13.0771663002892
30
0
41
1
10
221.298362886116
20
13.1102023200413
30
0
41
1
10
221.293809249384
20
13.1775518314515
30
0
41
1
10
221.286559945026
20
13.211749611923
30
0
41
1
10
221.25581299604
20
13.3130145495328
30
0
41
1
10
221.223403455361
20
13.3790569645506
30
0
41
1
10
221.144534512532
20
13.5009760785542
30
0
41
1
10
221.098269232864
20
13.5566616506115
30
0
41
1
10
221.01984167711
20
13.6240747655914
30
0
41
1
10
220.992171550623
20
13.6437800973379
30
0
41
1
10
220.934235574726
20
13.6731578523744
30
0
41
1
10
220.903983073949
20
13.6830803480723
30
0
41
1
10
220.873802353241
20
13.682200705989
30
0
0
SPLINE
5
275
100
AcDbEntity
8
1
62
256
6
ByLayer
370
18
48
1
60
0
100
AcDbSpline
70
4
71
3
72
8
73
4
40
0
40
0
40
0
40
0
40
1
40
1
40
1
40
1
41
1
10
223.709386233797
20
13.8308073601397
30
0
41
1
10
223.716349168566
20
13.8313187511355
30
0
41
1
10
223.723311372122
20
13.8318300843748
30
0
41
1
10
223.730272871665
20
13.8323413620125
30
0
0
SPLINE
5
276
100
AcDbEntity
8
1
62
256
6
ByLayer
370
18
48
1
60
0
100
AcDbSpline
70
4
71
3
72
8
73
4
40
0
40
0
40
0
40
0
40
1
40
1
40
1
40
1
41
1
10
221.276054115443
20
13.0305135676053
30
0
41
1
10
221.278595393737
20
13.0365006487445
30
0
41
1
10
221.281137181871
20
13.0424885043619
30
0
41
1
10
221.28367949997
20
13.0484771646629
30
0
0
SPLINE
5
277
100
AcDbEntity
8
1
62
256
6
ByLayer
370
18
48
1
60
0
100
AcDbSpline
70
4
71
3
72
16
73
12
40
0
40
0
40
0
40
0
40
0.125
40
0.125
40
0.25
40
0.25
40
0.5
40
0.5
40
0.75
40
0.75
40
1
40
1
40
1
40
1
41
1
10
223.730272871665
20
13.8323413620125
30
0
41
1
10
223.749603701477
20
13.8260415205493
30
0
41
1
10
223.770379911955
20
13.8249129984185
30
0
41
1
10
223.810165866619
20
13.8349826936734
30
0
41
1
10
223.82899739937
20
13.8461465311114
30
0
41
1
10
223.876613911858
20
13.8889748055381
30
0
41
1
10
223.89808502549
20
13.9283571828258
30
0
41
1
10
223.929283837687
20
14.0107765314333
30
0
41
1
10
223.938865890144
20
14.0543251986607
30
0
41
1
10
223.949859798379
20
14.1421820001954
30
0
41
1
10
223.95119709191
20
14.1867270248674
30
0
41
1
10
223.948882553313
20
14.2308910521966
30
0
0
SPLINE
5
278
100
AcDbEntity
8
1
62
256
6
ByLayer
370
18
48
1
60
0
100
AcDbSpline
70
4
71
3
72
8
73
4
40
0
40
0
40
0
40
0
40
1
40
1
40
1
40
1
41
1
10
220.814452367484
20
14.4537153690787
30
0
41
1
10
220.820731979922
20
14.4541909105274
30
0
41
1
10
220.827012579725
20
14.4546665224277
30
0
41
1
10
220.833294205629
20
14.4551422075389
30
0
0
SPLINE
5
279
100
AcDbEntity
8
1
62
256
6
ByLayer
370
18
48
1
60
0
100
AcDbSpline
70
4
71
3
72
18
73
14
40
0
40
0
40
0
40
0
40
0.125
40
0.125
40
0.25
40
0.25
40
0.499999999999999
40
0.499999999999999
40
0.749999999999999
40
0.749999999999999
40
0.874999999999999
40
0.874999999999999
40
1
40
1
40
1
40
1
41
1
10
221.820954925372
20
15.5496398267153
30
0
41
1
10
221.83723643454
20
15.5231439711426
30
0
41
1
10
221.862372290311
20
15.503064955308
30
0
41
1
10
221.919096512
20
15.4709580426895
30
0
41
1
10
221.950698449704
20
15.4591660992394
30
0
41
1
10
222.049744908583
20
15.4328620876583
30
0
41
1
10
222.12164798585
20
15.4271938320606
30
0
41
1
10
222.266189659956
20
15.4347822514879
30
0
41
1
10
222.338558847821
20
15.4479607717113
30
0
41
1
10
222.439523700454
20
15.4848172024585
30
0
41
1
10
222.47185601554
20
15.5000102571055
30
0
41
1
10
222.529757311698
20
15.5380600408021
30
0
41
1
10
222.555526947086
20
15.5607745988489
30
0
41
1
10
222.572221721022
20
15.5890120511244
30
0
0
SPLINE
5
27A
100
AcDbEntity
8
1
62
256
6
ByLayer
370
18
48
1
60
0
100
AcDbSpline
70
4
71
3
72
20
73
16
40
0
40
0
40
0
40
0
40
0.125000000000009
40
0.125000000000009
40
0.250000000000018
40
0.250000000000018
40
0.375000000000027
40
0.375000000000027
40
0.500000000000036
40
0.500000000000036
40
0.750000000000016
40
0.750000000000016
40
0.875000000000008
40
0.875000000000008
40
1
40
1
40
1
40
1
41
1
10
223.367996584875
20
13.1577115944045
30
0
41
1
10
223.349539847223
20
13.18491972782
30
0
41
1
10
223.340703764333
20
13.2176032307736
30
0
41
1
10
223.333282355909
20
13.2848685781169
30
0
41
1
10
223.334865245712
20
13.3193316855065
30
0
41
1
10
223.344872306323
20
13.3883588330014
30
0
41
1
10
223.353441604393
20
13.4230174691262
30
0
41
1
10
223.375736728929
20
13.4903287956764
30
0
41
1
10
223.389538754432
20
13.5233536244316
30
0
41
1
10
223.43875825694
20
13.6206274371801
30
0
41
1
10
223.480823844108
20
13.6812777037086
30
0
41
1
10
223.556850686083
20
13.7569091907666
30
0
41
1
10
223.584416319433
20
13.7795466035446
30
0
41
1
10
223.644004410264
20
13.8151453604883
30
0
41
1
10
223.6759747606
20
13.8283534628802
30
0
41
1
10
223.709386233797
20
13.8308073601397
30
0
0
SPLINE
5
27B
100
AcDbEntity
8
1
62
256
6
ByLayer
370
18
48
1
60
0
100
AcDbSpline
70
4
71
3
72
16
73
12
40
0
40
0
40
0
40
0
40
0.125000000000008
40
0.125000000000008
40
0.250000000000017
40
0.250000000000017
40
0.500000000000011
40
0.500000000000011
40
0.750000000000006
40
0.750000000000006
40
1
40
1
40
1
40
1
41
1
10
221.165222535483
20
15.1453060941411
30
0
41
1
10
221.150375209176
20
15.1565009244044
30
0
41
1
10
221.138868202608
20
15.1718971171394
30
0
41
1
10
221.126495886057
20
15.2086649124775
30
0
41
1
10
221.125697614139
20
15.2298765999967
30
0
41
1
10
221.135290280817
20
15.2921680279625
30
0
41
1
10
221.155595735046
20
15.3321470678824
30
0
41
1
10
221.205390370863
20
15.4050478272315
30
0
41
1
10
221.235350580086
20
15.4381655876019
30
0
41
1
10
221.300320362058
20
15.4983939182243
30
0
41
1
10
221.335556681363
20
15.525587148794
30
0
41
1
10
221.372483063471
20
15.5496650420558
30
0
0
SPLINE
5
27C
100
AcDbEntity
8
1
62
256
6
ByLayer
370
18
48
1
60
0
100
AcDbSpline
70
4
71
3
72
8
73
4
40
0
40
0
40
0
40
0
40
1
40
1
40
1
40
1
41
1
10
223.268671123706
20
15.2555431634859
30
0
41
1
10
223.265447958307
20
15.2495203461578
30
0
41
1
10
223.262224566419
20
15.2434967692013
30
0
41
1
10
223.259000939456
20
15.2374724030157
30
0
0
SPLINE
5
27D
100
AcDbEntity
8
1
62
256
6
ByLayer
370
18
48
1
60
0
100
AcDbSpline
70
4
71
3
72
8
73
4
40
0
40
0
40
0
40
0
40
1
40
1
40
1
40
1
41
1
10
220.873802353241
20
13.682200705989
30
0
41
1
10
220.867505416107
20
13.6820171765447
30
0
41
1
10
220.861209507106
20
13.6818336815475
30
0
41
1
10
220.854914587425
20
13.6816502196924
30
0
0
SPLINE
5
27E
100
AcDbEntity
8
1
62
256
6
ByLayer
370
18
48
1
60
0
100
AcDbSpline
70
4
71
3
72
8
73
4
40
0
40
0
40
0
40
0
40
1
40
1
40
1
40
1
41
1
10
223.367996584875
20
13.1577115944045
30
0
41
1
10
223.371832270212
20
13.1520571910998
30
0
41
1
10
223.375667639265
20
13.1464035481287
30
0
41
1
10
223.379502703666
20
13.1407506369501
30
0
0
SPLINE
5
27F
100
AcDbEntity
8
1
62
256
6
ByLayer
370
18
48
1
60
0
100
AcDbSpline
70
4
71
3
72
16
73
12
40
0
40
0
40
0
40
0
40
0.249999999999963
40
0.249999999999963
40
0.49999999999993
40
0.49999999999993
40
0.749999999999897
40
0.749999999999897
40
0.874999999999946
40
0.874999999999946
40
1
40
1
40
1
40
1
41
1
10
221.372483063471
20
15.5496650420558
30
0
41
1
10
221.409435001323
20
15.5737595989716
30
0
41
1
10
221.44827856788
20
15.5948829766174
30
0
41
1
10
221.528953573388
20
15.6296051467718
30
0
41
1
10
221.570749651169
20
15.6432919937036
30
0
41
1
10
221.655866590762
20
15.6582504553012
30
0
41
1
10
221.699393808063
20
15.6599183170254
30
0
41
1
10
221.757452543836
20
15.6411485728055
30
0
41
1
10
221.77493140804
20
15.6310081991358
30
0
41
1
10
221.800368721666
20
15.6030199142574
30
0
41
1
10
221.808118862218
20
15.5853058868464
30
0
41
1
10
221.810760871616
20
15.5662301670189
30
0
0
SPLINE
5
280
100
AcDbEntity
8
1
62
256
6
ByLayer
370
18
48
1
60
0
100
AcDbSpline
70
4
71
3
72
12
73
8
40
0
40
0
40
0
40
0
40
0.441018873546171
40
0.441018873546171
40
0.720346495183968
40
0.720346495183968
40
1
40
1
40
1
40
1
41
1
10
230.856297981164
20
-0.128065086397527
30
0
41
1
10
230.860257764798
20
-0.141788574551583
30
0
41
1
10
230.863846796313
20
-0.155623121364101
30
0
41
1
10
230.869091215702
20
-0.178354272726125
30
0
41
1
10
230.870974030734
20
-0.187205671392121
30
0
41
1
10
230.874436273187
20
-0.204975004761792
30
0
41
1
10
230.876015848941
20
-0.213895595830223
30
0
41
1
10
230.877441505839
20
-0.222839143581012
30
0
0
SPLINE
5
281
100
AcDbEntity
8
1
62
256
6
ByLayer
370
18
48
1
60
0
100
AcDbSpline
70
4
71
2
72
12
73
9
40
0
40
0
40
0
40
0.25
40
0.5
40
0.5
40
0.75
40
0.75
40
0.875
40
1
40
1
40
1
41
1
10
230.411419951339
20
-14.10973319725
30
0
41
1
10
230.459904071487
20
-14.095916586419
30
0
41
1
10
230.545634050105
20
-14.041841144281
30
0
41
1
10
230.57989957697
20
-14.0026501075747
30
0
41
1
10
230.612669916069
20
-13.9651691849107
30
0
41
1
10
230.634236610229
20
-13.9178526548941
30
0
41
1
10
230.644252554426
20
-13.8958780434526
30
0
41
1
10
230.658535536246
20
-13.8465685723347
30
0
41
1
10
230.661952578279
20
-13.8207740917562
30
0
0
SPLINE
5
282
100
AcDbEntity
8
1
62
256
6
ByLayer
370
18
48
1
60
0
100
AcDbSpline
70
4
71
1
72
4
73
2
40
0
40
0
40
1
40
1
41
1
10
230.661952578279
20
-13.8207740917558
30
0
41
1
10
231.051245754538
20
-14.5428037779457
30
0
0
SPLINE
5
283
100
AcDbEntity
8
1
62
256
6
ByLayer
370
18
48
1
60
0
100
AcDbSpline
70
4
71
3
72
12
73
8
40
0
40
0
40
0
40
0
40
0.441018873492865
40
0.441018873492865
40
0.720346495158162
40
0.720346495158162
40
1
40
1
40
1
40
1
41
1
10
230.448710351028
20
-14.9318890376872
30
0
41
1
10
230.434901626679
20
-14.935824500365
30
0
41
1
10
230.420981169777
20
-14.9393915211771
30
0
41
1
10
230.39810897247
20
-14.9446039216135
30
0
41
1
10
230.389202678516
20
-14.9464752812508
30
0
41
1
10
230.371323227426
20
-14.9499165757575
30
0
41
1
10
230.362347397612
20
-14.9514866582675
30
0
41
1
10
230.353348528151
20
-14.9529038334181
30
0
0
SPLINE
5
284
100
AcDbEntity
8
1
62
256
6
ByLayer
370
18
48
1
60
0
100
AcDbSpline
70
4
71
3
72
10
73
6
40
0
40
0
40
0
40
0
40
0.538208310955668
40
0.538208310955668
40
1
40
1
40
1
40
1
41
1
10
230.802774731947
20
-14.830989249559
30
0
41
1
10
230.739254467417
20
-14.849090048543
30
0
41
1
10
230.675734667656
20
-14.8671939830428
30
0
41
1
10
230.557713157794
20
-14.9008269118592
30
0
41
1
10
230.503211506192
20
-14.9163563022486
30
0
41
1
10
230.448710351012
20
-14.9318890376917
30
0
0
SPLINE
5
285
100
AcDbEntity
8
1
62
256
6
ByLayer
370
18
48
1
60
0
100
AcDbSpline
70
4
71
2
72
12
73
9
40
0
40
0
40
0
40
0.25
40
0.5
40
0.5
40
0.75
40
0.75
40
0.875
40
1
40
1
40
1
41
1
10
230.420025499437
20
0.223456837804633
30
0
41
1
10
230.406122901703
20
0.27164108598393
30
0
41
1
10
230.35171092408
20
0.356840828781117
30
0
41
1
10
230.312275984156
20
0.390894424994286
30
0
41
1
10
230.274561801063
20
0.423462081114792
30
0
41
1
10
230.22695079928
20
0.444895386296991
30
0
41
1
10
230.204839430071
20
0.454849382358958
30
0
41
1
10
230.155223084226
20
0.469044024618057
30
0
41
1
10
230.129268073144
20
0.472439932410083
30
0
0
SPLINE
5
286
100
AcDbEntity
8
1
62
256
6
ByLayer
370
18
48
1
60
0
100
AcDbSpline
70
4
71
2
72
6
73
3
40
0
40
0
40
0
40
1
40
1
40
1
41
1
10
230.260180841408
20
-14.1466670708816
30
0
41
1
10
230.308508526883
20
-14.139060059283
30
0
41
1
10
230.355543154029
20
-14.1256565131849
30
0
0
SPLINE
5
287
100
AcDbEntity
8
1
62
256
6
ByLayer
370
18
48
1
60
0
100
AcDbSpline
70
4
71
3
72
30
73
26
40
0
40
0
40
0
40
0
40
0.00510264507245
40
0.0127873861161493
40
0.0281568682035478
40
0.0588958323783448
40
0.120373760727939
40
0.243329617427127
40
0.366285474126315
40
0.485398960303653
40
0.489241330825503
40
0.496926071869202
40
0.504610812912902
40
0.5199802950003
40
0.550719259175097
40
0.612197187524691
40
0.735153044223879
40
0.858108900923067
40
0.919586829272661
40
0.950325793447458
40
0.965695275534857
40
0.981064757622255
40
0.988749498665955
40
0.996434239709654
40
1
40
1
40
1
40
1
41
1
10
230.244149391321
20
-13.9506159832062
30
0
41
1
10
230.272489942381
20
-13.9393616630259
30
0
41
1
10
230.343338760259
20
-13.9045755159311
30
0
41
1
10
230.480386952643
20
-13.7687367361558
30
0
41
1
10
230.523309450747
20
-13.4669288787469
30
0
41
1
10
230.588462061984
20
-12.9628020817092
30
0
41
1
10
230.724904343627
20
-11.9410244866995
30
0
41
1
10
230.914859173739
20
-10.4881226400581
30
0
41
1
10
231.151947525565
20
-8.76194486284658
30
0
41
1
10
231.305495032161
20
-7.59720694939384
30
0
41
1
10
231.384581729124
20
-6.96853257686593
30
0
41
1
10
231.380028996105
20
-6.85829843815031
30
0
41
1
10
231.347441572936
20
-6.70759997568308
30
0
41
1
10
231.312706497602
20
-6.45700388747386
30
0
41
1
10
231.228342488675
20
-5.94863946543839
30
0
41
1
10
231.068980504804
20
-4.93472699361473
30
0
41
1
10
230.837404971435
20
-3.48526077321222
30
0
41
1
10
230.604428430223
20
-2.03693435830266
30
0
41
1
10
230.447119657064
20
-1.02097994867944
30
0
41
1
10
230.359596941719
20
-0.517099182469792
30
0
41
1
10
230.324668124446
20
-0.226936155551868
30
0
41
1
10
230.297125794993
20
-0.030102788601738
30
0
41
1
10
230.226125568127
20
0.143306546737051
30
0
41
1
10
230.134206757728
20
0.234900162339443
30
0
41
1
10
230.075249418447
20
0.267117297307209
30
0
41
1
10
230.056287807558
20
0.275603079387764
30
0
0
SPLINE
5
288
100
AcDbEntity
8
1
62
256
6
ByLayer
370
18
48
1
60
0
100
AcDbSpline
70
4
71
1
72
4
73
2
40
0
40
0
40
1
40
1
41
1
10
231.555958110752
20
-6.8212933556155
30
0
41
1
10
231.99016065066
20
-7.20431237207248
30
0
0
SPLINE
5
289
100
AcDbEntity
8
1
62
256
6
ByLayer
370
18
48
1
60
0
100
AcDbSpline
70
4
71
1
72
4
73
2
40
0
40
0
40
1
40
1
41
1
10
230.800713127601
20
-14.8317628834411
30
0
41
1
10
230.411419951339
20
-14.1097331972499
30
0
0
SPLINE
5
28A
100
AcDbEntity
8
1
62
256
6
ByLayer
370
18
48
1
60
0
100
AcDbSpline
70
4
71
1
72
4
73
2
40
0
40
0
40
1
40
1
41
1
10
230.464704534183
20
0.470657465294408
30
0
41
1
10
230.057048982797
20
0.523994397380676
30
0
0
SPLINE
5
28B
100
AcDbEntity
8
1
62
256
6
ByLayer
370
18
48
1
60
0
100
AcDbSpline
70
4
71
1
72
4
73
2
40
0
40
0
40
1
40
1
41
1
10
230.755461960477
20
0.22167437068893
30
0
41
1
10
230.420025499437
20
0.223456837804633
30
0
0
SPLINE
5
28C
100
AcDbEntity
8
1
62
256
6
ByLayer
370
18
48
1
60
0
100
AcDbSpline
70
4
71
1
72
4
73
2
40
0
40
0
40
1
40
1
41
1
10
231.99016065066
20
-7.20431237207251
30
0
41
1
10
231.974066489778
20
-7.1033263204618
30
0
0
SPLINE
5
28D
100
AcDbEntity
8
1
62
256
6
ByLayer
370
18
48
1
60
0
100
AcDbSpline
70
4
71
3
72
10
73
6
40
0
40
0
40
0
40
0
40
0.772512487538529
40
0.772512487538529
40
1
40
1
40
1
40
1
41
1
10
230.755386996139
20
0.221674769040703
30
0
41
1
10
230.781371489196
20
0.131615632268478
30
0
41
1
10
230.807357879806
20
0.041555250791248
30
0
41
1
10
230.840993881941
20
-0.0750240494123489
30
0
41
1
10
230.848645688487
20
-0.101544408204973
30
0
41
1
10
230.856297980869
20
-0.128065085373976
30
0
0
SPLINE
5
28E
100
AcDbEntity
8
1
62
256
6
ByLayer
370
18
48
1
60
0
100
AcDbSpline
70
4
71
1
72
4
73
2
40
0
40
0
40
1
40
1
41
1
10
231.974066489778
20
-7.1033263204618
30
0
41
1
10
231.935251136077
20
-6.8597715715751
30
0
0
SPLINE
5
28F
100
AcDbEntity
8
1
62
256
6
ByLayer
370
18
48
1
60
0
100
AcDbSpline
70
4
71
1
72
4
73
2
40
0
40
0
40
1
40
1
41
1
10
231.886152638379
20
-8.24027978627427
30
0
41
1
10
231.946471987512
20
-7.78494260744645
30
0
0
SPLINE
5
290
100
AcDbEntity
8
1
62
256
6
ByLayer
370
18
48
1
60
0
100
AcDbSpline
70
4
71
1
72
4
73
2
40
0
40
0
40
1
40
1
41
1
10
230.353368705931
20
-14.9530784442113
30
0
41
1
10
230.260180841408
20
-14.1466670708816
30
0
0
SPLINE
5
291
100
AcDbEntity
8
1
62
256
6
ByLayer
370
18
48
1
60
0
100
AcDbSpline
70
4
71
1
72
4
73
2
40
0
40
0
40
1
40
1
41
1
10
231.935251136077
20
-6.8597715715751
30
0
41
1
10
231.863960107812
20
-6.41244166648809
30
0
0
SPLINE
5
292
100
AcDbEntity
8
1
62
256
6
ByLayer
370
18
48
1
60
0
100
AcDbSpline
70
4
71
3
72
8
73
4
40
0
40
0
40
0
40
0
40
1
40
1
40
1
40
1
41
1
10
231.99112253569
20
-7.20995341520441
30
0
41
1
10
231.995995704873
20
-7.2459304323468
30
0
41
1
10
231.999465411159
20
-7.28200874516315
30
0
41
1
10
231.999943169459
20
-7.31827898020819
30
0
0
SPLINE
5
293
100
AcDbEntity
8
1
62
256
6
ByLayer
370
18
48
1
60
0
100
AcDbSpline
70
4
71
3
72
27
73
23
40
0
40
0
40
0
40
0
40
0.0030864568759347
40
0.0188334963232277
40
0.0503275752178137
40
0.113315733006986
40
0.23929204858533
40
0.365268364163674
40
0.487307919880195
40
0.491244679742018
40
0.499118199465664
40
0.506991719189311
40
0.522738758636604
40
0.55423283753119
40
0.617220995320362
40
0.743197310898706
40
0.86917362647705
40
0.932161784266222
40
0.963655863160808
40
0.979402902608101
40
0.995149942055395
40
1
40
1
40
1
40
1
41
1
10
230.290598827494
20
-13.7382328558948
30
0
41
1
10
230.299246940506
20
-13.7287379370951
30
0
41
1
10
230.346841771388
20
-13.6665024812595
30
0
41
1
10
230.37971799763
20
-13.4353345893652
30
0
41
1
10
230.444792430027
20
-12.9318127112589
30
0
41
1
10
230.581248714978
20
-11.909930249439
30
0
41
1
10
230.771238301767
20
-10.4567625604398
30
0
41
1
10
231.008337074318
20
-8.73050891267386
30
0
41
1
10
231.161778378106
20
-7.56657660290728
30
0
41
1
10
231.23932222988
20
-6.95016658416776
30
0
41
1
10
231.235770288896
20
-6.86416436231579
30
0
41
1
10
231.204647893576
20
-6.72024082780916
30
0
41
1
10
231.169435670464
20
-6.46620235850438
30
0
41
1
10
231.085284583367
20
-5.95912097036447
30
0
41
1
10
230.925855621712
20
-4.94478236421963
30
0
41
1
10
230.694320665641
20
-3.49557012324584
30
0
41
1
10
230.461289455876
20
-2.04690385477079
30
0
41
1
10
230.304117483058
20
-1.03183294901302
30
0
41
1
10
230.216180357975
20
-0.525566366789008
30
0
41
1
10
230.180969511589
20
-0.233060448594102
30
0
41
1
10
230.158017341185
20
-0.0690310048552476
30
0
41
1
10
230.126022071451
20
0.0169459231860856
30
0
41
1
10
230.116881319282
20
0.0359938479889195
30
0
0
SPLINE
5
294
100
AcDbEntity
8
1
62
256
6
ByLayer
370
18
48
1
60
0
100
AcDbSpline
70
4
71
1
72
4
73
2
40
0
40
0
40
1
40
1
41
1
10
231.051245754537
20
-14.5428037779457
30
0
41
1
10
231.886152638379
20
-8.24027978627427
30
0
0
SPLINE
5
295
100
AcDbEntity
8
1
62
256
6
ByLayer
370
18
48
1
60
0
100
AcDbSpline
70
4
71
1
72
4
73
2
40
0
40
0
40
1
40
1
41
1
10
230.436047913273
20
0.1679256356922
30
0
41
1
10
230.856297980869
20
-0.128065085373691
30
0
0
SPLINE
5
296
100
AcDbEntity
8
1
62
256
6
ByLayer
370
18
48
1
60
0
100
AcDbSpline
70
4
71
1
72
4
73
2
40
0
40
0
40
1
40
1
41
1
10
231.979329005051
20
-7.53691238354412
30
0
41
1
10
231.993165867282
20
-7.43246102750643
30
0
0
SPLINE
5
297
100
AcDbEntity
8
1
62
256
6
ByLayer
370
18
48
1
60
0
100
AcDbSpline
70
4
71
3
72
12
73
8
40
0
40
0
40
0
40
0
40
0.5
40
0.5
40
0.75
40
0.75
40
1
40
1
40
1
40
1
41
1
10
230.464705210966
20
0.470752053218234
30
0
41
1
10
230.531820335441
20
0.461912563850774
30
0
41
1
10
230.596055297991
20
0.433065084860459
30
0
41
1
10
230.673063730669
20
0.367310846446969
30
0
41
1
10
230.695509450644
20
0.341606498372784
30
0
41
1
10
230.731901573903
20
0.284939233889332
30
0
41
1
10
230.74531490515
20
0.253879999577265
30
0
41
1
10
230.75546523272
20
0.221762140101589
30
0
0
SPLINE
5
298
100
AcDbEntity
8
1
62
256
6
ByLayer
370
18
48
1
60
0
100
AcDbSpline
70
4
71
3
72
8
73
4
40
0
40
0
40
0
40
0
40
1
40
1
40
1
40
1
41
1
10
231.999943169459
20
-7.31827898020819
30
0
41
1
10
232.000415193705
20
-7.35411390009389
30
0
41
1
10
231.997984280195
20
-7.38983745437707
30
0
41
1
10
231.994156289438
20
-7.42549708540955
30
0
0
SPLINE
5
299
100
AcDbEntity
8
1
62
256
6
ByLayer
370
18
48
1
60
0
100
AcDbSpline
70
4
71
1
72
4
73
2
40
0
40
0
40
1
40
1
41
1
10
231.863960107812
20
-6.41244166648809
30
0
41
1
10
230.877532521844
20
-0.222903247093228
30
0
0
SPLINE
5
29A
100
AcDbEntity
8
1
62
256
6
ByLayer
370
18
48
1
60
0
100
AcDbSpline
70
4
71
1
72
4
73
2
40
0
40
0
40
1
40
1
41
1
10
230.355543154029
20
-14.1256565131849
30
0
41
1
10
230.448710351012
20
-14.9318890376917
30
0
0
SPLINE
5
29B
100
AcDbEntity
8
1
62
256
6
ByLayer
370
18
48
1
60
0
100
AcDbSpline
70
4
71
2
72
7
73
4
40
0
40
0
40
0
40
0.5
40
1
40
1
40
1
41
1
10
231.558963327374
20
-7.04944201104632
30
0
41
1
10
231.566455467091
20
-6.99288553612669
30
0
41
1
10
231.565029418043
20
-6.87821309889299
30
0
41
1
10
231.555958110752
20
-6.8212933556155
30
0
0
SPLINE
5
29C
100
AcDbEntity
8
1
62
256
6
ByLayer
370
18
48
1
60
0
100
AcDbSpline
70
4
71
2
72
6
73
3
40
0
40
0
40
0
40
1
40
1
40
1
41
1
10
230.457189228981
20
0.0731531344214886
30
0
41
1
10
230.449534875572
20
0.1211819155684
30
0
41
1
10
230.436047913273
20
0.167925635692143
30
0
0
SPLINE
5
29D
100
AcDbEntity
8
1
62
256
6
ByLayer
370
18
48
1
60
0
100
AcDbSpline
70
4
71
1
72
4
73
2
40
0
40
0
40
1
40
1
41
1
10
230.877532521844
20
-0.222903247093228
30
0
41
1
10
230.457189228982
20
0.0731531344213749
30
0
0
SPLINE
5
29E
100
AcDbEntity
8
1
62
256
6
ByLayer
370
18
48
1
60
0
100
AcDbSpline
70
4
71
3
72
12
73
8
40
0
40
0
40
0
40
0
40
0.115853576205373
40
0.268292501543307
40
0.420731426881242
40
0.496950889550209
40
1
40
1
40
1
40
1
41
1
10
231.096209183912
20
-6.64754463299121
30
0
41
1
10
231.100577962615
20
-6.67501023660373
30
0
41
1
10
231.111291080378
20
-6.73813614482719
30
0
41
1
10
231.132038650367
20
-6.83408196052159
30
0
41
1
10
231.134870955083
20
-6.90265981687361
30
0
41
1
10
231.113289445891
20
-7.07421511341283
30
0
41
1
10
231.095936479018
20
-7.21058400648892
30
0
41
1
10
231.080693296987
20
-7.3293378013164
30
0
0
SPLINE
5
29F
100
AcDbEntity
8
1
62
256
6
ByLayer
370
18
48
1
60
0
100
AcDbSpline
70
4
71
1
72
4
73
2
40
0
40
0
40
1
40
1
41
1
10
231.946471987512
20
-7.78494260744645
30
0
41
1
10
231.979329005051
20
-7.53691238354412
30
0
0
SPLINE
5
2A0
100
AcDbEntity
8
1
62
256
6
ByLayer
370
18
48
1
60
0
100
AcDbSpline
70
4
71
1
72
4
73
2
40
0
40
0
40
1
40
1
41
1
10
230.129268073143
20
0.47243993241014
30
0
41
1
10
230.464704534183
20
0.470657465294408
30
0
0
SPLINE
5
2A1
100
AcDbEntity
8
1
62
256
6
ByLayer
370
18
48
1
60
0
100
AcDbSpline
70
4
71
1
72
4
73
2
40
0
40
0
40
1
40
1
41
1
10
231.993165867282
20
-7.43246102750643
30
0
41
1
10
231.558963327374
20
-7.04944201104632
30
0
0
SPLINE
5
2A2
100
AcDbEntity
8
1
62
256
6
ByLayer
370
18
48
1
60
0
100
AcDbSpline
70
4
71
3
72
12
73
8
40
0
40
0
40
0
40
0
40
0.500000000000072
40
0.500000000000072
40
0.750000000000036
40
0.750000000000036
40
1
40
1
40
1
40
1
41
1
10
231.051250855163
20
-14.5427149316973
30
0
41
1
10
231.042356361299
20
-14.6094149598515
30
0
41
1
10
231.013331276526
20
-14.6732545452038
30
0
41
1
10
230.947166936316
20
-14.7497858058896
30
0
41
1
10
230.921302936051
20
-14.772093015575
30
0
41
1
10
230.864283768533
20
-14.8082608130844
30
0
41
1
10
230.833031534726
20
-14.8215914775989
30
0
41
1
10
230.800714090612
20
-14.8316793230877
30
0
0
SPLINE
5
2A3
100
AcDbEntity
8
1
62
256
6
ByLayer
370
13
48
1
60
0
100
AcDbSpline
70
4
71
3
72
8
73
4
40
0
40
0
40
0
40
0
40
1
40
1
40
1
40
1
41
1
10
213.897076176785
20
21.6762844672168
30
0
41
1
10
213.844833019434
20
21.6816197350877
30
0
41
1
10
213.79254748621
20
21.6869607377647
30
0
41
1
10
213.740350021923
20
21.6922898220919
30
0
0
SPLINE
5
2A4
100
AcDbEntity
8
1
62
256
6
ByLayer
370
13
48
1
60
0
100
AcDbSpline
70
4
71
3
72
8
73
4
40
0
40
0
40
0
40
0
40
1
40
1
40
1
40
1
41
1
10
229.333818721818
20
22.485289863366
30
0
41
1
10
229.385217998335
20
22.4960568010355
30
0
41
1
10
229.436658819135
20
22.5068338715799
30
0
41
1
10
229.488013299256
20
22.5175898833541
30
0
0
SPLINE
5
2A5
100
AcDbEntity
8
1
62
256
6
ByLayer
370
13
48
1
60
0
100
AcDbSpline
70
4
71
2
72
6
73
3
40
0
40
0
40
0
40
1
40
1
40
1
41
1
10
212.667749863994
20
13.5709856606011
30
0
41
0.997409491337352
10
212.666984981349
20
13.6286757942892
30
0
41
1
10
212.674470876453
20
13.6858754314388
30
0
0
SPLINE
5
2A6
100
AcDbEntity
8
1
62
256
6
ByLayer
370
13
48
1
60
0
100
AcDbSpline
70
4
71
3
72
10
73
6
40
0
40
0
40
0
40
0
40
0.5
40
0.5
40
1
40
1
40
1
40
1
41
1
10
215.920872678488
20
6.93336796795805
30
0
41
1
10
215.917196037691
20
6.93317528337863
30
0
41
1
10
215.896924840166
20
6.93308381071702
30
0
41
1
10
215.835824240236
20
6.93308832931243
30
0
41
1
10
215.794913050694
20
6.93317652007107
30
0
41
1
10
215.755715336686
20
6.93330035484706
30
0
0
SPLINE
5
2A7
100
AcDbEntity
8
1
62
256
6
ByLayer
370
13
48
1
60
0
100
AcDbSpline
70
4
71
2
72
6
73
3
40
0
40
0
40
0
40
1
40
1
40
1
41
1
10
212.452280732668
20
13.449986081976
30
0
41
0.997409491337352
10
212.443870000502
20
13.5032425431439
30
0
41
1
10
212.443155184393
20
13.5571564829704
30
0
0
SPLINE
5
2A8
100
AcDbEntity
8
1
62
256
6
ByLayer
370
13
48
1
60
0
100
AcDbSpline
70
4
71
3
72
8
73
4
40
0
40
0
40
0
40
0
40
1
40
1
40
1
40
1
41
1
10
230.257101456475
20
6.80334695868811
30
0
41
1
10
230.190258317072
20
6.80012519972482
30
0
41
1
10
230.125349328788
20
6.79880752855109
30
0
41
1
10
230.062023229893
20
6.7985020198519
30
0
0
SPLINE
5
2A9
100
AcDbEntity
8
1
62
256
6
ByLayer
370
13
48
1
60
0
100
AcDbSpline
70
4
71
3
72
12
73
8
40
0
40
0
40
0
40
0
40
0.250000000000001
40
0.250000000000001
40
0.500000000000001
40
0.500000000000001
40
1
40
1
40
1
40
1
41
1
10
230.062023229893
20
6.7985020198519
30
0
41
1
10
230.040256839814
20
6.79791640388544
30
0
41
1
10
230.019823381595
20
6.79822530333942
30
0
41
1
10
229.978475538296
20
6.79852036954648
30
0
41
1
10
229.957728239269
20
6.79862029782734
30
0
41
1
10
229.895562107812
20
6.79896923690802
30
0
41
1
10
229.854170097097
20
6.79923564582259
30
0
41
1
10
229.812751293587
20
6.79948467693711
30
0
0
SPLINE
5
2AA
100
AcDbEntity
8
1
62
256
6
ByLayer
370
13
48
1
60
0
100
AcDbSpline
70
4
71
1
72
4
73
2
40
0
40
0
40
1
40
1
41
1
10
213.611235920454
20
21.6840412192371
30
0
41
1
10
213.812216260919
20
21.452416042128
30
0
0
SPLINE
5
2AB
100
AcDbEntity
8
1
62
256
6
ByLayer
370
13
48
1
60
0
100
AcDbSpline
70
4
71
3
72
9
73
5
40
0
40
0
40
0
40
0
40
0.513495271764701
40
1
40
1
40
1
40
1
41
1
10
215.000396944418
20
5.76699752340662
30
0
41
1
10
215.022535311879
20
5.76754855488372
30
0
41
1
10
215.065618842356
20
5.76952630102403
30
0
41
1
10
215.108704625631
20
5.77138184608054
30
0
41
1
10
215.129665959112
20
5.77229020587595
30
0
0
SPLINE
5
2AC
100
AcDbEntity
8
1
62
256
6
ByLayer
370
13
48
1
60
0
100
AcDbSpline
70
4
71
3
72
10
73
6
40
0
40
0
40
0
40
0
40
0.5
40
0.5
40
1
40
1
40
1
40
1
41
1
10
215.894949215285
20
6.84908395184434
30
0
41
1
10
215.891273613589
20
6.84889132172191
30
0
41
1
10
215.873977397777
20
6.85819851804229
30
0
41
1
10
215.822589639776
20
6.88953695106977
30
0
41
1
10
215.788397109554
20
6.91156927681934
30
0
41
1
10
215.755715336686
20
6.93330035484709
30
0
0
SPLINE
5
2AD
100
AcDbEntity
8
1
62
256
6
ByLayer
370
13
48
1
60
0
100
AcDbSpline
70
4
71
3
72
26
73
22
40
0
40
0
40
0
40
0
40
0.249999999999853
40
0.249999999999853
40
0.374999999999779
40
0.374999999999779
40
0.499999999999705
40
0.499999999999705
40
0.624999999999631
40
0.624999999999631
40
0.687499999999594
40
0.687499999999594
40
0.718749999999624
40
0.718749999999624
40
0.749999999999655
40
0.749999999999655
40
0.812499999999716
40
0.812499999999716
40
0.874999999999777
40
0.874999999999777
40
1
40
1
40
1
40
1
41
1
10
230.916158767461
20
6.94988804178175
30
0
41
1
10
230.878953800937
20
6.92876525074161
30
0
41
1
10
230.837316701716
20
6.90774913774467
30
0
41
1
10
230.763538804947
20
6.87780767670577
30
0
41
1
10
230.737464535297
20
6.86828170696936
30
0
41
1
10
230.680918707225
20
6.85057871004187
30
0
41
1
10
230.650540920248
20
6.84243917530128
30
0
41
1
10
230.58795099653
20
6.82928560650319
30
0
41
1
10
230.556160712593
20
6.82453932688125
30
0
41
1
10
230.510600920774
20
6.82059037858525
30
0
41
1
10
230.495729706954
20
6.81970339893513
30
0
41
1
10
230.473778572275
20
6.81858682996324
30
0
41
1
10
230.466466216564
20
6.81821875143592
30
0
41
1
10
230.452137332758
20
6.81774195459417
30
0
41
1
10
230.445117974333
20
6.81763649526076
30
0
41
1
10
230.422825730755
20
6.81617453243589
30
0
41
1
10
230.406375777069
20
6.81371129033366
30
0
41
1
10
230.375679333172
20
6.81084974977571
30
0
41
1
10
230.360840085431
20
6.80989595726064
30
0
41
1
10
230.315917310782
20
6.80665501041418
30
0
41
1
10
230.286243223906
20
6.80475155684536
30
0
41
1
10
230.257101456475
20
6.80334695868811
30
0
0
SPLINE
5
2AE
100
AcDbEntity
8
1
62
256
6
ByLayer
370
13
48
1
60
0
100
AcDbSpline
70
4
71
3
72
24
73
20
40
0
40
0
40
0
40
0
40
0.0514081714720317
40
0.0514081714720317
40
0.102816342944063
40
0.102816342944063
40
0.154224514416095
40
0.154224514416095
40
0.205632685888127
40
0.205632685888127
40
0.3084490288322
40
0.3084490288322
40
0.411265371776274
40
0.411265371776274
40
0.616898057664421
40
0.616898057664421
40
0.822530743552569
40
0.822530743552569
40
1
40
1
40
1
40
1
41
1
10
231.067370085223
20
7.34831050355612
30
0
41
1
10
231.066024847507
20
7.33082439226985
30
0
41
1
10
231.064329161786
20
7.31189610476844
30
0
41
1
10
231.060204044437
20
7.27454110439984
30
0
41
1
10
231.057795208513
20
7.25645924515081
30
0
41
1
10
231.053105407105
20
7.22515182757485
30
0
41
1
10
231.050802429243
20
7.21157249586892
30
0
41
1
10
231.046324629281
20
7.18712929455063
30
0
41
1
10
231.044170679191
20
7.17639174765614
30
0
41
1
10
231.037860186733
20
7.14682329083902
30
0
41
1
10
231.033912537243
20
7.13085116269733
30
0
41
1
10
231.026323651817
20
7.10272104313592
30
0
41
1
10
231.022676981639
20
7.09063807307965
30
0
41
1
10
231.012092440476
20
7.05833775486994
30
0
41
1
10
231.005468004991
20
7.04185864722399
30
0
41
1
10
230.992719946186
20
7.01414604542816
30
0
41
1
10
230.986600320132
20
7.00306123312944
30
0
41
1
10
230.975554508393
20
6.98597465472841
30
0
41
1
10
230.970572334401
20
6.97945469221543
30
0
41
1
10
230.965703257892
20
6.97406946354761
30
0
0
SPLINE
5
2AF
100
AcDbEntity
8
1
62
256
6
ByLayer
370
13
48
1
60
0
100
AcDbSpline
70
4
71
3
72
10
73
6
40
0
40
0
40
0
40
0
40
0.196352315114126
40
0.196352315114126
40
1
40
1
40
1
40
1
41
1
10
230.954912744815
20
6.96374397837866
30
0
41
1
10
230.952245174667
20
6.96157688094979
30
0
41
1
10
230.949608654431
20
6.95971081576636
30
0
41
1
10
230.936319302199
20
6.95149943135729
30
0
41
1
10
230.926090674719
20
6.94926048836604
30
0
41
1
10
230.916158767461
20
6.94988804178178
30
0
0
SPLINE
5
2B0
100
AcDbEntity
8
1
62
256
6
ByLayer
370
13
48
1
60
0
100
AcDbSpline
70
4
71
3
72
24
73
20
40
0
40
0
40
0
40
0
40
0.0453611707759749
40
0.0453611707759749
40
0.0907223415519497
40
0.0907223415519497
40
0.136083512327925
40
0.136083512327925
40
0.181444683103899
40
0.181444683103899
40
0.272167024655839
40
0.272167024655839
40
0.362889366207779
40
0.362889366207779
40
0.544334049311668
40
0.544334049311668
40
0.725778732415557
40
0.725778732415557
40
1
40
1
40
1
40
1
41
1
10
213.755266580128
20
6.44102160413598
30
0
41
1
10
213.758432244832
20
6.42377189922834
30
0
41
1
10
213.762097186215
20
6.40512455028866
30
0
41
1
10
213.770104366523
20
6.36840537669781
30
0
41
1
10
213.774390075552
20
6.35067436368351
30
0
41
1
10
213.782326701986
20
6.32002866915096
30
0
41
1
10
213.786036490569
20
6.30676445318181
30
0
41
1
10
213.793044770945
20
6.28292321182673
30
0
41
1
10
213.796309300748
20
6.2724696354303
30
0
41
1
10
213.80567596902
20
6.24372278379255
30
0
41
1
10
213.811271534883
20
6.2282507943751
30
0
41
1
10
213.821759245769
20
6.20106802908307
30
0
41
1
10
213.826648953398
20
6.18943243163042
30
0
41
1
10
213.840551813963
20
6.15841544376559
30
0
41
1
10
213.848862495896
20
6.14271905245698
30
0
41
1
10
213.86443747518
20
6.11649079819
30
0
41
1
10
213.871682255677
20
6.10610638476015
30
0
41
1
10
213.88889762864
20
6.08475673593216
30
0
41
1
10
213.898399787515
20
6.07612051828556
30
0
41
1
10
213.907305561337
20
6.07031706345899
30
0
0
SPLINE
5
2B1
100
AcDbEntity
8
1
62
256
6
ByLayer
370
13
48
1
60
0
100
AcDbSpline
70
4
71
1
72
4
73
2
40
0
40
0
40
1
40
1
41
1
10
212.355472024303
20
13.5841577667839
30
0
41
1
10
212.443561292368
20
13.5913451707486
30
0
0
SPLINE
5
2B2
100
AcDbEntity
8
1
62
256
6
ByLayer
370
13
48
1
60
0
100
AcDbSpline
70
4
71
2
72
6
73
3
40
0
40
0
40
0
40
1
40
1
40
1
41
1
10
212.667749863994
20
13.5709856606011
30
0
41
0.997409491337352
10
212.668514746639
20
13.5132955269116
30
0
41
1
10
212.677514576083
20
13.4563089224395
30
0
0
SPLINE
5
2B3
100
AcDbEntity
8
1
62
256
6
ByLayer
370
13
48
1
60
0
100
AcDbSpline
70
4
71
1
72
4
73
2
40
0
40
0
40
1
40
1
41
1
10
212.363485305688
20
13.8032890844367
30
0
41
1
10
212.433633523856
20
13.8057960221708
30
0
0
SPLINE
5
2B4
100
AcDbEntity
8
1
62
256
6
ByLayer
370
13
48
1
60
0
100
AcDbSpline
70
4
71
3
72
18
73
14
40
0
40
0
40
0
40
0
40
0.500000000000007
40
0.500000000000007
40
0.75000000000001
40
0.75000000000001
40
0.875000000000005
40
0.875000000000005
40
0.906250000000004
40
0.906250000000004
40
0.937500000000003
40
0.937500000000003
40
1
40
1
40
1
40
1
41
1
10
222.652033037024
20
7.94941064206651
30
0
41
1
10
223.661378679423
20
8.00230820571363
30
0
41
1
10
224.670724644462
20
8.0551977661265
30
0
41
1
10
226.184743156715
20
8.13454699511837
30
0
41
1
10
226.689415260369
20
8.16101963325852
30
0
41
1
10
227.446425226087
20
8.20067210683891
30
0
41
1
10
227.698760955618
20
8.2139184822976
30
0
41
1
10
228.014181635759
20
8.2304446805521
30
0
41
1
10
228.077249875818
20
8.23424591163439
30
0
41
1
10
228.203456496501
20
8.23965982403979
30
0
41
1
10
228.266650398501
20
8.2395401084047
30
0
41
1
10
228.456509662806
20
8.23052049266622
30
0
41
1
10
228.583447624131
20
8.21311486497467
30
0
41
1
10
228.710781382332
20
8.18335944820083
30
0
0
SPLINE
5
2B5
100
AcDbEntity
8
1
62
256
6
ByLayer
370
13
48
1
60
0
100
AcDbSpline
70
4
71
3
72
20
73
16
40
0
40
0
40
0
40
0
40
0.0624999999999973
40
0.0624999999999973
40
0.124999999999995
40
0.124999999999995
40
0.156249999999987
40
0.156249999999987
40
0.18749999999998
40
0.18749999999998
40
0.249999999999977
40
0.249999999999977
40
0.499999999999981
40
0.499999999999981
40
1
40
1
40
1
40
1
41
1
10
216.089842251811
20
7.28735537102159
30
0
41
1
10
216.206070286511
20
7.36837892285266
30
0
41
1
10
216.328511986004
20
7.43650532910866
30
0
41
1
10
216.585411929183
20
7.54781648079199
30
0
41
1
10
216.721519477226
20
7.59115843818435
30
0
41
1
10
216.926054620727
20
7.63449437471422
30
0
41
1
10
216.994497413374
20
7.64545986113865
30
0
41
1
10
217.131900203112
20
7.66058408966066
30
0
41
1
10
217.200936887842
20
7.6637335729333
30
0
41
1
10
217.407940270529
20
7.67458588858406
30
0
41
1
10
217.545944752713
20
7.68179145614437
30
0
41
1
10
218.235957486632
20
7.71794664952171
30
0
41
1
10
218.787963681006
20
7.74692362942264
30
0
41
1
10
220.443992989964
20
7.83371169821442
30
0
41
1
10
221.548013523838
20
7.89155143109537
30
0
41
1
10
222.652033037024
20
7.9494106420666
30
0
0
SPLINE
5
2B6
100
AcDbEntity
8
1
62
256
6
ByLayer
370
13
48
1
60
0
100
AcDbSpline
70
4
71
2
72
6
73
3
40
0
40
0
40
0
40
1
40
1
40
1
41
1
10
212.433633523856
20
13.8057960221708
30
0
41
0.997409491337352
10
212.430835682605
20
13.7519521445612
30
0
41
1
10
212.435760323613
20
13.6982588323088
30
0
0
SPLINE
5
2B7
100
AcDbEntity
8
1
62
256
6
ByLayer
370
13
48
1
60
0
100
AcDbSpline
70
4
71
3
72
22
73
18
40
0
40
0
40
0
40
0
40
0.125
40
0.125
40
0.25
40
0.25
40
0.375
40
0.375
40
0.5
40
0.5
40
0.624999999999999
40
0.624999999999999
40
0.6875
40
0.6875
40
0.75
40
0.75
40
1
40
1
40
1
40
1
41
1
10
213.785297759251
20
6.4418646495316
30
0
41
1
10
213.795201698278
20
6.37709111523398
30
0
41
1
10
213.812318017319
20
6.3148490187753
30
0
41
1
10
213.862159481662
20
6.19584329112692
30
0
41
1
10
213.895182632014
20
6.13845138159596
30
0
41
1
10
213.972634385725
20
6.03496331714365
30
0
41
1
10
214.017721445689
20
5.98795649766561
30
0
41
1
10
214.118923289096
20
5.90576910131827
30
0
41
1
10
214.173454745559
20
5.87143274681617
30
0
41
1
10
214.290396355781
20
5.81630503069297
30
0
41
1
10
214.353008430359
20
5.79570945221789
30
0
41
1
10
214.447682786985
20
5.77646740139562
30
0
41
1
10
214.479590878702
20
5.77196488046192
30
0
41
1
10
214.544098935602
20
5.76673874182774
30
0
41
1
10
214.576778362978
20
5.76642738426665
30
0
41
1
10
214.739712603733
20
5.76351778790738
30
0
41
1
10
214.870056668704
20
5.76378195668553
30
0
41
1
10
215.000396944418
20
5.76699752340662
30
0
0
SPLINE
5
2B8
100
AcDbEntity
8
1
62
256
6
ByLayer
370
13
48
1
60
0
100
AcDbSpline
70
4
71
3
72
20
73
16
40
0
40
0
40
0
40
0
40
0.499999999999993
40
0.499999999999993
40
0.749999999999997
40
0.749999999999997
40
0.875000000000005
40
0.875000000000005
40
0.906249999999997
40
0.906249999999997
40
0.921874999999993
40
0.921874999999993
40
0.937499999999989
40
0.937499999999989
40
1
40
1
40
1
40
1
41
1
10
222.64405142892
20
7.74871787451107
30
0
41
1
10
223.643949880195
20
7.80112033185097
30
0
41
1
10
224.643848730299
20
7.85351517933151
30
0
41
1
10
226.14369629091
20
7.93212108421167
30
0
41
1
10
226.643644359176
20
7.95834445045745
30
0
41
1
10
227.393569041633
20
7.9976301050522
30
0
41
1
10
227.643544366219
20
8.01071685571281
30
0
41
1
10
227.956010912621
20
8.02712662509751
30
0
41
1
10
228.018507841635
20
8.03033737111213
30
0
41
1
10
228.112245610792
20
8.03530347760173
30
0
41
1
10
228.143492248896
20
8.03694477984155
30
0
41
1
10
228.206089647839
20
8.03817906885459
30
0
41
1
10
228.237427768286
20
8.03802071902444
30
0
41
1
10
228.394316397157
20
8.0333333649983
30
0
41
1
10
228.520454923777
20
8.01723679334458
30
0
41
1
10
228.647281753555
20
7.98759983586012
30
0
0
SPLINE
5
2B9
100
AcDbEntity
8
1
62
256
6
ByLayer
370
13
48
1
60
0
100
AcDbSpline
70
4
71
1
72
4
73
2
40
0
40
0
40
1
40
1
41
1
10
212.677514576083
20
13.4563089224395
30
0
41
1
10
212.452280732668
20
13.449986081976
30
0
0
SPLINE
5
2BA
100
AcDbEntity
8
1
62
256
6
ByLayer
370
13
48
1
60
0
100
AcDbSpline
70
4
71
3
72
22
73
18
40
0
40
0
40
0
40
0
40
0.125
40
0.125
40
0.25
40
0.25
40
0.375
40
0.375
40
0.5
40
0.5
40
0.625
40
0.625
40
0.75
40
0.75
40
0.875
40
0.875
40
1
40
1
40
1
40
1
41
1
10
230.832381499117
20
21.8480154396966
30
0
41
1
10
230.823722805411
20
21.9046448466573
30
0
41
1
10
230.809613252836
20
21.9593610834341
30
0
41
1
10
230.769352918802
20
22.0645672652004
30
0
41
1
10
230.743113707507
20
22.1157741771162
30
0
41
1
10
230.680615312498
20
22.2106216662523
30
0
41
1
10
230.644870287779
20
22.2542771246927
30
0
41
1
10
230.563875515223
20
22.3336214284106
30
0
41
1
10
230.518643391063
20
22.3692370696066
30
0
41
1
10
230.423327506442
20
22.4293343573257
30
0
41
1
10
230.372605223137
20
22.4542971737375
30
0
41
1
10
230.265296634571
20
22.4933990799565
30
0
41
1
10
230.210574939983
20
22.5071200620424
30
0
41
1
10
230.099023469467
20
22.5230480205853
30
0
41
1
10
230.04185540394
20
22.5234850794306
30
0
41
1
10
229.927897041924
20
22.52540379434
30
0
41
1
10
229.870918627441
20
22.5257661164341
30
0
41
1
10
229.813940881606
20
22.5256076383012
30
0
0
SPLINE
5
2BB
100
AcDbEntity
8
1
62
256
6
ByLayer
370
13
48
1
60
0
100
AcDbSpline
70
4
71
3
72
8
73
4
40
0
40
0
40
0
40
0
40
1
40
1
40
1
40
1
41
1
10
229.813940881606
20
22.5256076383012
30
0
41
1
10
229.748387093587
20
22.5254253067299
30
0
41
1
10
229.682834259759
20
22.5244997685956
30
0
41
1
10
229.617282313949
20
22.5228825658216
30
0
0
SPLINE
5
2BC
100
AcDbEntity
8
1
62
256
6
ByLayer
370
13
48
1
60
0
100
AcDbSpline
70
4
71
2
72
6
73
3
40
0
40
0
40
0
40
1
40
1
40
1
41
0.998835603708708
10
212.445564656397
20
13.6280277068323
30
0
41
0.99829304864034
10
212.442684590944
20
13.5926502926425
30
0
41
1
10
212.443155184393
20
13.5571564829704
30
0
0
SPLINE
5
2BD
100
AcDbEntity
8
1
62
256
6
ByLayer
370
13
48
1
60
0
100
AcDbSpline
70
4
71
3
72
18
73
14
40
0
40
0
40
0
40
0
40
0.500000000000014
40
0.500000000000014
40
0.750000000000027
40
0.750000000000027
40
0.875000000000034
40
0.875000000000034
40
0.906250000000026
40
0.906250000000026
40
0.937500000000017
40
0.937500000000017
40
1
40
1
40
1
40
1
41
1
10
222.002543820049
20
20.3424031683707
30
0
41
1
10
220.993198177651
20
20.2895056047237
30
0
41
1
10
219.983852212611
20
20.2366160443108
30
0
41
1
10
218.469833700359
20
20.1572668153189
30
0
41
1
10
217.965161596705
20
20.1307941771788
30
0
41
1
10
217.208151630987
20
20.0911417035984
30
0
41
1
10
216.955815901456
20
20.0778953281397
30
0
41
1
10
216.640395221315
20
20.0613691298852
30
0
41
1
10
216.577326981255
20
20.0575678988029
30
0
41
1
10
216.451120360573
20
20.0521539863975
30
0
41
1
10
216.387926458573
20
20.0522737020326
30
0
41
1
10
216.198067194268
20
20.0612933177711
30
0
41
1
10
216.071129232943
20
20.0786989454626
30
0
41
1
10
215.943795474741
20
20.1084543622364
30
0
0
SPLINE
5
2BE
100
AcDbEntity
8
1
62
256
6
ByLayer
370
13
48
1
60
0
100
AcDbSpline
70
4
71
3
72
24
73
20
40
0
40
0
40
0
40
0
40
0.0312499999999779
40
0.0312499999999779
40
0.0624999999999559
40
0.0624999999999559
40
0.124999999999912
40
0.124999999999912
40
0.15624999999989
40
0.15624999999989
40
0.171874999999885
40
0.171874999999885
40
0.18749999999988
40
0.18749999999988
40
0.249999999999887
40
0.249999999999887
40
0.499999999999924
40
0.499999999999924
40
1
40
1
40
1
40
1
41
1
10
216.185002552888
20
7.12207674100964
30
0
41
1
10
216.240741765445
20
7.16093302029935
30
0
41
1
10
216.299076861925
20
7.19713806192698
30
0
41
1
10
216.419136670875
20
7.26294578348319
30
0
41
1
10
216.480438572572
20
7.2923603243996
30
0
41
1
10
216.668052967101
20
7.37043033709043
30
0
41
1
10
216.798104138338
20
7.40907593564111
30
0
41
1
10
217.000555931848
20
7.4460696580386
30
0
41
1
10
217.068260888863
20
7.45463694503624
30
0
41
1
10
217.170132018076
20
7.46214583711583
30
0
41
1
10
217.204149665072
20
7.46361674819519
30
0
41
1
10
217.272147402941
20
7.46719813135843
30
0
41
1
10
217.306147359054
20
7.46897030886558
30
0
41
1
10
217.476145367683
20
7.47786137153028
30
0
41
1
10
217.612143194627
20
7.48498409807698
30
0
41
1
10
218.292130782975
20
7.52062406464407
30
0
41
1
10
218.836118650558
20
7.54917355547653
30
0
41
1
10
220.468089506705
20
7.63469850637566
30
0
41
1
10
221.556070945629
20
7.6916992334786
30
0
41
1
10
222.644051428919
20
7.74871787451113
30
0
0
SPLINE
5
2BF
100
AcDbEntity
8
1
62
256
6
ByLayer
370
13
48
1
60
0
100
AcDbSpline
70
4
71
3
72
10
73
6
40
0
40
0
40
0
40
0
40
0.437251963451942
40
0.437251963451942
40
1
40
1
40
1
40
1
41
1
10
228.71306616853
20
21.4388036871357
30
0
41
1
10
228.714859036323
20
21.4354899476199
30
0
41
1
10
228.724529750398
20
21.4268821868949
30
0
41
1
10
228.761144948735
20
21.3985641733928
30
0
41
1
10
228.792384550106
20
21.3763770911999
30
0
41
1
10
228.825066322975
20
21.354646013172
30
0
0
SPLINE
5
2C0
100
AcDbEntity
8
1
62
256
6
ByLayer
370
13
48
1
60
0
100
AcDbSpline
70
4
71
1
72
4
73
2
40
0
40
0
40
1
40
1
41
1
10
212.443155184393
20
13.5571564829704
30
0
41
1
10
212.667749863994
20
13.5709856606011
30
0
0
SPLINE
5
2C1
100
AcDbEntity
8
1
62
256
6
ByLayer
370
13
48
1
60
0
100
AcDbSpline
70
4
71
1
72
4
73
2
40
0
40
0
40
1
40
1
41
1
10
212.674470876453
20
13.6858754314388
30
0
41
1
10
212.449436262944
20
13.6645259722688
30
0
0
SPLINE
5
2C2
100
AcDbEntity
8
1
62
256
6
ByLayer
370
13
48
1
60
0
100
AcDbSpline
70
4
71
3
72
9
73
5
40
0
40
0
40
0
40
0
40
0.51349527176476
40
1
40
1
40
1
40
1
41
1
10
229.617282313949
20
22.5228825658216
30
0
41
1
10
229.595143946488
20
22.5223315343445
30
0
41
1
10
229.552060416011
20
22.5203537882042
30
0
41
1
10
229.508974632736
20
22.5184982431477
30
0
41
1
10
229.488013299255
20
22.5175898833522
30
0
0
SPLINE
5
2C3
100
AcDbEntity
8
1
62
256
6
ByLayer
370
13
48
1
60
0
100
AcDbSpline
70
4
71
3
72
12
73
8
40
0
40
0
40
0
40
0
40
0.0590320358271158
40
0.0590320358271158
40
0.539356876108047
40
0.539356876108047
40
1
40
1
40
1
40
1
41
1
10
230.824375736986
20
6.84139195653808
30
0
41
1
10
230.818904515957
20
6.83556124558604
30
0
41
1
10
230.813339795177
20
6.829808319021
30
0
41
1
10
230.761654647337
20
6.77797769300798
30
0
41
1
10
230.711011046268
20
6.73812934730458
30
0
41
1
10
230.60273717568
20
6.67245360366749
30
0
41
1
10
230.545274705538
20
6.64627826019492
30
0
41
1
10
230.486471158413
20
6.62711505066829
30
0
0
SPLINE
5
2C4
100
AcDbEntity
8
1
62
256
6
ByLayer
370
13
48
1
60
0
100
AcDbSpline
70
4
71
3
72
9
73
5
40
0
40
0
40
0
40
0
40
0.5134952717648
40
1
40
1
40
1
40
1
41
1
10
213.611235920454
20
21.6840412192371
30
0
41
1
10
213.633310610094
20
21.6858072958981
30
0
41
1
10
213.676364855248
20
21.6883438392909
30
0
41
1
10
213.719408567368
20
21.6910021498188
30
0
41
1
10
213.740350021924
20
21.6922898220902
30
0
0
SPLINE
5
2C5
100
AcDbEntity
8
1
62
256
6
ByLayer
370
13
48
1
60
0
100
AcDbSpline
70
4
71
1
72
4
73
2
40
0
40
0
40
1
40
1
41
1
10
229.998599633216
20
6.70066861536412
30
0
41
1
10
230.062023229893
20
6.79850201985192
30
0
0
SPLINE
5
2C6
100
AcDbEntity
8
1
62
256
6
ByLayer
370
13
48
1
60
0
100
AcDbSpline
70
4
71
3
72
24
73
20
40
0
40
0
40
0
40
0
40
0.0312499999999959
40
0.0312499999999959
40
0.0624999999999918
40
0.0624999999999918
40
0.124999999999983
40
0.124999999999983
40
0.156249999999979
40
0.156249999999979
40
0.171874999999983
40
0.171874999999983
40
0.187499999999988
40
0.187499999999988
40
0.249999999999991
40
0.249999999999991
40
0.499999999999994
40
0.499999999999994
40
1
40
1
40
1
40
1
41
1
10
228.432676705479
20
21.1678033482183
30
0
41
1
10
228.376937492922
20
21.1289470689285
30
0
41
1
10
228.318602396441
20
21.0927420273009
30
0
41
1
10
228.198542587491
20
21.0269343057448
30
0
41
1
10
228.137240685795
20
20.9975197648283
30
0
41
1
10
227.949626291265
20
20.9194497521376
30
0
41
1
10
227.819575120029
20
20.880804153587
30
0
41
1
10
227.617123326519
20
20.8438104311895
30
0
41
1
10
227.549418369503
20
20.8352431441919
30
0
41
1
10
227.447547240291
20
20.8277342521123
30
0
41
1
10
227.413529593294
20
20.8262633410329
30
0
41
1
10
227.345531855425
20
20.8226819578697
30
0
41
1
10
227.311531899312
20
20.8209097803626
30
0
41
1
10
227.141533890683
20
20.8120187176979
30
0
41
1
10
227.00553606374
20
20.8048959911512
30
0
41
1
10
226.325548475391
20
20.769256024584
30
0
41
1
10
225.781560607809
20
20.7407065337516
30
0
41
1
10
224.149589751661
20
20.6551815828525
30
0
41
1
10
223.061608312738
20
20.5981808557496
30
0
41
1
10
221.973627829448
20
20.5411622147171
30
0
0
SPLINE
5
2C7
100
AcDbEntity
8
1
62
256
6
ByLayer
370
13
48
1
60
0
100
AcDbSpline
70
4
71
3
72
12
73
8
40
0
40
0
40
0
40
0
40
0.25
40
0.25
40
0.5
40
0.5
40
1
40
1
40
1
40
1
41
1
10
213.812216260919
20
21.452416042128
30
0
41
1
10
213.835750278049
20
21.4530942955028
30
0
41
1
10
213.858371628458
20
21.4529000586199
30
0
41
1
10
213.903943630179
20
21.452826371175
30
0
41
1
10
213.926780881132
20
21.4528359726334
30
0
41
1
10
213.995239715841
20
21.4528168201558
30
0
41
1
10
214.040842564287
20
21.4527710918957
30
0
41
1
10
214.086464128798
20
21.4527423181521
30
0
0
SPLINE
5
2C8
100
AcDbEntity
8
1
62
256
6
ByLayer
370
13
48
1
60
0
100
AcDbSpline
70
4
71
3
72
20
73
16
40
0
40
0
40
0
40
0
40
0.49999999999998
40
0.49999999999998
40
0.749999999999976
40
0.749999999999976
40
0.874999999999967
40
0.874999999999967
40
0.906249999999969
40
0.906249999999969
40
0.921874999999969
40
0.921874999999969
40
0.93749999999997
40
0.93749999999997
40
1
40
1
40
1
40
1
41
1
10
221.973627829447
20
20.5411622147171
30
0
41
1
10
220.973729378172
20
20.4887597573772
30
0
41
1
10
219.973830528068
20
20.4363649098967
30
0
41
1
10
218.473982967457
20
20.3577590050165
30
0
41
1
10
217.974034899191
20
20.3315356387707
30
0
41
1
10
217.224110216734
20
20.292249984176
30
0
41
1
10
216.974134892148
20
20.2791632335154
30
0
41
1
10
216.661668345746
20
20.2627534641307
30
0
41
1
10
216.599171416731
20
20.259542718116
30
0
41
1
10
216.505433647574
20
20.2545766116264
30
0
41
1
10
216.474187009471
20
20.2529353093866
30
0
41
1
10
216.411589610528
20
20.2517010203736
30
0
41
1
10
216.380251490082
20
20.2518593702038
30
0
41
1
10
216.22336286121
20
20.2565467242299
30
0
41
1
10
216.09722433459
20
20.2726432958836
30
0
41
1
10
215.970397504812
20
20.3022802533681
30
0
0
SPLINE
5
2C9
100
AcDbEntity
8
1
62
256
6
ByLayer
370
13
48
1
60
0
100
AcDbSpline
70
4
71
1
72
4
73
2
40
0
40
0
40
1
40
1
41
1
10
214.086464128798
20
21.4527423181521
30
0
41
1
10
213.897076176785
20
21.6762844672168
30
0
0
SPLINE
5
2CA
100
AcDbEntity
8
1
62
256
6
ByLayer
370
13
48
1
60
0
100
AcDbSpline
70
4
71
2
72
6
73
3
40
0
40
0
40
0
40
1
40
1
40
1
41
1
10
231.949929394373
20
14.7188944286271
30
0
41
0.997409491337352
10
231.949164511728
20
14.7765845623166
30
0
41
1
10
231.940164682284
20
14.8335711667887
30
0
0
SPLINE
5
2CB
100
AcDbEntity
8
1
62
256
6
ByLayer
370
13
48
1
60
0
100
AcDbSpline
70
4
71
2
72
6
73
3
40
0
40
0
40
0
40
1
40
1
40
1
41
1
10
231.949929394373
20
14.7188944286271
30
0
41
0.997409491337352
10
231.950694277018
20
14.661204294939
30
0
41
1
10
231.943208381914
20
14.6040046577894
30
0
0
SPLINE
5
2CC
100
AcDbEntity
8
1
62
256
6
ByLayer
370
13
48
1
60
0
100
AcDbSpline
70
4
71
1
72
4
73
2
40
0
40
0
40
1
40
1
41
1
10
213.785297759251
20
6.4418646495316
30
0
41
1
10
213.755266580128
20
6.44102160413598
30
0
0
SPLINE
5
2CD
100
AcDbEntity
8
1
62
256
6
ByLayer
370
13
48
1
60
0
100
AcDbSpline
70
4
71
2
72
6
73
3
40
0
40
0
40
0
40
1
40
1
40
1
41
0.998835603708702
10
212.445564656397
20
13.6280277068328
30
0
41
0.99829304864035
10
212.439002421504
20
13.6629102710299
30
0
41
1
10
212.435760323613
20
13.6982588323088
30
0
0
SPLINE
5
2CE
100
AcDbEntity
8
1
62
256
6
ByLayer
370
13
48
1
60
0
100
AcDbSpline
70
4
71
3
72
8
73
4
40
0
40
0
40
0
40
0
40
1
40
1
40
1
40
1
41
1
10
213.429135371887
20
21.6675275958114
30
0
41
1
10
213.489771464638
20
21.6736495376108
30
0
41
1
10
213.550470382593
20
21.6791662639511
30
0
41
1
10
213.611235920454
20
21.6840412192371
30
0
0
SPLINE
5
2CF
100
AcDbEntity
8
1
62
256
6
ByLayer
370
13
48
1
60
0
100
AcDbSpline
70
4
71
3
72
10
73
6
40
0
40
0
40
0
40
0
40
0.470344360265421
40
0.470344360265421
40
1
40
1
40
1
40
1
41
1
10
228.686971248824
20
21.3559606244318
30
0
41
1
10
228.686990114173
20
21.3557722880925
30
0
41
1
10
228.699836311938
20
21.3555204644873
30
0
41
1
10
228.74791045542
20
21.3550128007653
30
0
41
1
10
228.785868608966
20
21.3547698479481
30
0
41
1
10
228.825066322975
20
21.354646013172
30
0
0
SPLINE
5
2D0
100
AcDbEntity
8
1
62
256
6
ByLayer
370
13
48
1
60
0
100
AcDbSpline
70
4
71
3
72
14
73
10
40
0
40
0
40
0
40
0
40
0.0288455662639839
40
0.0288455662639839
40
0.190704638553285
40
0.190704638553285
40
0.352563710842587
40
0.352563710842587
40
1
40
1
40
1
40
1
41
1
10
213.44202866947
20
21.4355461171408
30
0
41
1
10
213.445748379303
20
21.4359832707331
30
0
41
1
10
213.449461339977
20
21.4364086085732
30
0
41
1
10
213.473811516059
20
21.4388756275299
30
0
41
1
10
213.493960038659
20
21.440061754034
30
0
41
1
10
213.534542350641
20
21.4429334236656
30
0
41
1
10
213.554770465361
20
21.4442588921135
30
0
41
1
10
213.655302617011
20
21.4498210699031
30
0
41
1
10
213.73443250404
20
21.45172029279
30
0
41
1
10
213.812216260919
20
21.452416042128
30
0
0
SPLINE
5
2D1
100
AcDbEntity
8
1
62
256
6
ByLayer
370
13
48
1
60
0
100
AcDbSpline
70
4
71
3
72
20
73
16
40
0
40
0
40
0
40
0
40
0.0624999999999969
40
0.0624999999999969
40
0.124999999999994
40
0.124999999999994
40
0.156249999999992
40
0.156249999999992
40
0.187499999999991
40
0.187499999999991
40
0.249999999999988
40
0.249999999999988
40
0.499999999999988
40
0.499999999999988
40
1
40
1
40
1
40
1
41
1
10
228.564734605263
20
21.0044584394157
30
0
41
1
10
228.448506570563
20
20.9234348875847
30
0
41
1
10
228.32606487107
20
20.8553084813286
30
0
41
1
10
228.069164927891
20
20.7439973296453
30
0
41
1
10
227.933057379848
20
20.700655372253
30
0
41
1
10
227.728522236347
20
20.6573194357231
30
0
41
1
10
227.6600794437
20
20.6463539492986
30
0
41
1
10
227.522676653961
20
20.6312297207766
30
0
41
1
10
227.453639969231
20
20.628080237504
30
0
41
1
10
227.246636586545
20
20.6172279218532
30
0
41
1
10
227.108632104361
20
20.6100223542929
30
0
41
1
10
226.418619370441
20
20.5738671609155
30
0
41
1
10
225.866613176068
20
20.5448901810146
30
0
41
1
10
224.21058386711
20
20.4581021122229
30
0
41
1
10
223.106563333235
20
20.4002623793419
30
0
41
1
10
222.00254382005
20
20.3424031683707
30
0
0
SPLINE
5
2D2
100
AcDbEntity
8
1
62
256
6
ByLayer
370
13
48
1
60
0
100
AcDbSpline
70
4
71
2
72
6
73
3
40
0
40
0
40
0
40
1
40
1
40
1
41
1
10
212.449436262944
20
13.6645259722688
30
0
41
0.999116442697012
10
212.447054215958
20
13.6463247790375
30
0
41
0.998835603708708
10
212.445564656397
20
13.6280277068323
30
0
0
SPLINE
5
2D3
100
AcDbEntity
8
1
62
256
6
ByLayer
370
13
48
1
60
0
100
AcDbSpline
70
4
71
3
72
24
73
20
40
0
40
0
40
0
40
0
40
0.0913818384657164
40
0.0913818384657164
40
0.182763676931433
40
0.182763676931433
40
0.365527353862865
40
0.365527353862865
40
0.456909192328581
40
0.456909192328581
40
0.548291030794298
40
0.548291030794298
40
0.73105470772573
40
0.73105470772573
40
0.822436546191447
40
0.822436546191447
40
0.913818384657163
40
0.913818384657163
40
1
40
1
40
1
40
1
41
1
10
47.01
20
-12.660913986737
30
0
41
1
10
47.01
20
-12.5288389680146
30
0
41
1
10
47.01
20
-12.3934781240468
30
0
41
1
10
47.01
20
-12.1161207473714
30
0
41
1
10
47.01
20
-11.9743630053425
30
0
41
1
10
47.01
20
-11.5451789066895
30
0
41
1
10
47.01
20
-11.2519908445737
30
0
41
1
10
47.01
20
-10.801660914242
30
0
41
1
10
47.01
20
-10.649534701763
30
0
41
1
10
47.01
20
-10.3426790527216
30
0
41
1
10
47.01
20
-10.1898371301832
30
0
41
1
10
47.01
20
-9.73299493802455
30
0
41
1
10
47.01
20
-9.43067490637728
30
0
41
1
10
47.01
20
-8.98059635482565
30
0
41
1
10
47.01
20
-8.83037531942335
30
0
41
1
10
47.01
20
-8.53614132496153
30
0
41
1
10
47.01
20
-8.39192415460465
30
0
41
1
10
47.01
20
-8.11714061267926
30
0
41
1
10
47.01
20
-7.98625909573113
30
0
41
1
10
47.01
20
-7.85789698674324
30
0
0
SPLINE
5
2D4
100
AcDbEntity
8
1
62
256
6
ByLayer
370
13
48
1
60
0
100
AcDbSpline
70
4
71
3
72
14
73
10
40
0
40
0
40
0
40
0
40
0.125
40
0.125
40
0.25
40
0.25
40
0.5
40
0.5
40
1
40
1
40
1
40
1
41
1
10
224.762708723844
20
7.53931284768055
30
0
41
1
10
224.799334960785
20
7.54123234742212
30
0
41
1
10
224.836663465277
20
7.54405697165149
30
0
41
1
10
224.9105441693
20
7.55141237229901
30
0
41
1
10
224.947318261127
20
7.55594774198806
30
0
41
1
10
225.057213947035
20
7.57210868780695
30
0
41
1
10
225.129908900444
20
7.58628041901426
30
0
41
1
10
225.346835960251
20
7.63915124233461
30
0
41
1
10
225.489843189205
20
7.68798884973057
30
0
41
1
10
225.633042717522
20
7.75289725498143
30
0
0
SPLINE
5
2D5
100
AcDbEntity
8
1
62
256
6
ByLayer
370
13
48
1
60
0
100
AcDbSpline
70
4
71
3
72
8
73
4
40
0
40
0
40
0
40
0
40
1
40
1
40
1
40
1
41
1
10
205.19249228457
20
20.1883585735535
30
0
41
1
10
205.452069458653
20
20.6070810837081
30
0
41
1
10
205.704266166126
20
21.0304219224675
30
0
41
1
10
205.949688504459
20
21.4576629334559
30
0
0
SPLINE
5
2D6
100
AcDbEntity
8
1
62
256
6
ByLayer
370
13
48
1
60
0
100
AcDbSpline
70
4
71
3
72
18
73
14
40
0
40
0
40
0
40
0
40
0.249999999999974
40
0.249999999999974
40
0.374999999999961
40
0.374999999999961
40
0.499999999999948
40
0.499999999999948
40
0.749999999999921
40
0.749999999999921
40
0.87499999999996
40
0.87499999999996
40
1
40
1
40
1
40
1
41
1
10
217.698222874135
20
7.16907883252082
30
0
41
1
10
217.692902324299
20
7.16879999431933
30
0
41
1
10
217.69416626852
20
7.17905844645134
30
0
41
1
10
217.709431364178
20
7.20747677731592
30
0
41
1
10
217.716790018651
20
7.21898128609033
30
0
41
1
10
217.736732277839
20
7.24447964566897
30
0
41
1
10
217.749583358607
20
7.25872443056508
30
0
41
1
10
217.795666620208
20
7.30119143931239
30
0
41
1
10
217.837854314274
20
7.32988417843958
30
0
41
1
10
217.911143279668
20
7.36106944732066
30
0
41
1
10
217.937655393455
20
7.36974742959805
30
0
41
1
10
217.991800116228
20
7.38222896765302
30
0
41
1
10
218.019665439596
20
7.38618379000764
30
0
41
1
10
218.048333783929
20
7.38770180062124
30
0
0
SPLINE
5
2D7
100
AcDbEntity
8
1
62
256
6
ByLayer
370
13
48
1
60
0
100
AcDbSpline
70
4
71
3
72
10
73
6
40
0
40
0
40
0
40
0
40
0.160533796301138
40
0.160533796301138
40
1
40
1
40
1
40
1
41
1
10
188.991528650567
20
9.17826012190443
30
0
41
1
10
189.567898232131
20
8.95958929574866
30
0
41
1
10
190.144202786777
20
8.73905441251475
30
0
41
1
10
193.732634938251
20
7.35483099594373
30
0
41
1
10
196.741902747163
20
6.14552801401629
30
0
41
1
10
199.755469449918
20
4.90465336958232
30
0
0
SPLINE
5
2D8
100
AcDbEntity
8
1
62
256
6
ByLayer
370
13
48
1
60
0
100
AcDbSpline
70
4
71
3
72
14
73
10
40
0
40
0
40
0
40
0
40
0.25
40
0.25
40
0.5
40
0.5
40
0.75
40
0.75
40
1
40
1
40
1
40
1
41
1
10
230.060771020951
20
0.652703991367247
30
0
41
1
10
230.061884150774
20
0.703181042245006
30
0
41
1
10
230.063866491203
20
0.750147283512348
30
0
41
1
10
230.069456810674
20
0.833693828516175
30
0
41
1
10
230.072985526768
20
0.869327601152719
30
0
41
1
10
230.081444927646
20
0.927004658720307
30
0
41
1
10
230.086181109629
20
0.947833681248056
30
0
41
1
10
230.09668595081
20
0.973164117084764
30
0
41
1
10
230.102200689822
20
0.977008898625286
30
0
41
1
10
230.107938066791
20
0.971878591302072
30
0
0
SPLINE
5
2D9
100
AcDbEntity
8
1
62
256
6
ByLayer
370
13
48
1
60
0
100
AcDbSpline
70
4
71
3
72
12
73
8
40
0
40
0
40
0
40
0
40
0.500000000000011
40
0.500000000000011
40
0.750000000000006
40
0.750000000000006
40
1
40
1
40
1
40
1
41
1
10
204.759200185394
20
0.852464671804398
30
0
41
1
10
205.275857871046
20
0.549233551028436
30
0
41
1
10
205.812966280166
20
0.299154547272906
30
0
41
1
10
206.650100749818
20
0.0059586758463013
30
0
41
1
10
206.934416559352
20
-0.0780531568555318
30
0
41
1
10
207.514125621279
20
-0.217227441332454
30
0
41
1
10
207.80982021309
20
-0.272305319032142
30
0
41
1
10
208.107106212144
20
-0.311442752815566
30
0
0
SPLINE
5
2DA
100
AcDbEntity
8
1
62
256
6
ByLayer
370
13
48
1
60
0
100
AcDbSpline
70
4
71
3
72
48
73
44
40
0
40
0
40
0
40
0
40
0.124999999999999
40
0.124999999999999
40
0.187499999999998
40
0.187499999999998
40
0.249999999999997
40
0.249999999999997
40
0.312499999999997
40
0.312499999999997
40
0.343749999999997
40
0.343749999999997
40
0.374999999999997
40
0.374999999999997
40
0.437499999999997
40
0.437499999999997
40
0.468749999999997
40
0.468749999999997
40
0.499999999999997
40
0.499999999999997
40
0.531249999999998
40
0.531249999999998
40
0.562499999999998
40
0.562499999999998
40
0.593749999999998
40
0.593749999999998
40
0.624999999999998
40
0.624999999999998
40
0.656249999999998
40
0.656249999999998
40
0.687499999999999
40
0.687499999999999
40
0.718749999999999
40
0.718749999999999
40
0.749999999999999
40
0.749999999999999
40
0.812499999999999
40
0.812499999999999
40
0.874999999999999
40
0.874999999999999
40
0.9375
40
0.9375
40
1
40
1
40
1
40
1
41
1
10
196.993038673196
20
5.79917320179518
30
0
41
1
10
193.90955033853
20
7.13542806801897
30
0
41
1
10
190.830455728676
20
8.43381996383809
30
0
41
1
10
186.205119425853
20
10.2968111087082
30
0
41
1
10
184.661048898791
20
10.9042050264324
30
0
41
1
10
181.577024658576
20
12.082373016674
30
0
41
1
10
180.036499709026
20
12.6533804057141
30
0
41
1
10
176.955608079508
20
13.7542392665046
30
0
41
1
10
175.415147921093
20
14.283946635722
30
0
41
1
10
173.103055643103
20
15.0450996072801
30
0
41
1
10
172.332131339385
20
15.2932595087664
30
0
41
1
10
170.789628280776
20
15.7781027336433
30
0
41
1
10
170.017809701113
20
16.014856457577
30
0
41
1
10
167.703376725578
20
16.7066663951073
30
0
41
1
10
166.161899368903
20
17.1436747702185
30
0
41
1
10
163.848444404371
20
17.7579715610734
30
0
41
1
10
163.077012435067
20
17.9560080134929
30
0
41
1
10
161.533014692783
20
18.3365385720661
30
0
41
1
10
160.760692719075
20
18.5187701878999
30
0
41
1
10
159.212858633799
20
18.864562072899
30
0
41
1
10
158.437259353989
20
19.0280191634274
30
0
41
1
10
156.88063170097
20
19.3349921111135
30
0
41
1
10
156.099714143356
20
19.4786572875167
30
0
41
1
10
154.531473634471
20
19.7467721583781
30
0
41
1
10
153.744074188066
20
19.8711465148397
30
0
41
1
10
152.162005687311
20
20.1017528870572
30
0
41
1
10
151.367444643621
20
20.208108051272
30
0
41
1
10
149.771559011379
20
20.4050185156575
30
0
41
1
10
148.970201663417
20
20.4955466131405
30
0
41
1
10
147.361207339546
20
20.6628278198897
30
0
41
1
10
146.553625729184
20
20.7396241942791
30
0
41
1
10
144.935562963483
20
20.8815203713173
30
0
41
1
10
144.124823479541
20
20.9466895674825
30
0
41
1
10
142.500497424528
20
21.0670408852149
30
0
41
1
10
141.686836758403
20
21.1221455373391
30
0
41
1
10
139.241117295062
20
21.2734946254982
30
0
41
1
10
137.604624004769
20
21.3558345445763
30
0
41
1
10
134.319762989142
20
21.4890435425228
30
0
41
1
10
132.670415193395
20
21.5398903477927
30
0
41
1
10
129.356945291259
20
21.6171854806653
30
0
41
1
10
127.69426941571
20
21.6435868069554
30
0
41
1
10
124.356341984168
20
21.6809856815873
30
0
41
1
10
122.6812095938
20
21.692062515855
30
0
41
1
10
121
20
21.6991471194127
30
0
0
SPLINE
5
2DB
100
AcDbEntity
8
1
62
256
6
ByLayer
370
13
48
1
60
0
100
AcDbSpline
70
4
71
3
72
8
73
4
40
0
40
0
40
0
40
0
40
1
40
1
40
1
40
1
41
1
10
208.107106212145
20
-0.311442752815566
30
0
41
1
10
208.43242587019
20
-0.371494526078152
30
0
41
1
10
208.758332701887
20
-0.412796441719223
30
0
41
1
10
209.084804718845
20
-0.435294583045476
30
0
0
SPLINE
5
2DC
100
AcDbEntity
8
1
62
256
6
ByLayer
370
13
48
1
60
0
100
AcDbSpline
70
4
71
3
72
14
73
10
40
0
40
0
40
0
40
0
40
0.25
40
0.25
40
0.5
40
0.5
40
0.75
40
0.75
40
1
40
1
40
1
40
1
41
1
10
216.894599543143
20
7.02641797158716
30
0
41
1
10
216.922215734162
20
7.01916514224399
30
0
41
1
10
216.947046305561
20
7.01061948233033
30
0
41
1
10
216.988786643865
20
6.99180587966143
30
0
41
1
10
217.00628097267
20
6.9812539081689
30
0
41
1
10
217.032567483606
20
6.95918919442116
30
0
41
1
10
217.041520024574
20
6.9477102432248
30
0
41
1
10
217.051601406737
20
6.92391858804373
30
0
41
1
10
217.052574349004
20
6.91159432650673
30
0
41
1
10
217.049832509097
20
6.89956895555062
30
0
0
SPLINE
5
2DD
100
AcDbEntity
8
1
62
256
6
ByLayer
370
13
48
1
60
0
100
AcDbSpline
70
4
71
3
72
8
73
4
40
0
40
0
40
0
40
0
40
1
40
1
40
1
40
1
41
1
10
230.061638806802
20
0.512144031413555
30
0
41
1
10
230.060054056986
20
0.560130931459582
30
0
41
1
10
230.059782792189
20
0.607890823608102
30
0
41
1
10
230.060771020951
20
0.652703991367247
30
0
0
SPLINE
5
2DE
100
AcDbEntity
8
1
62
256
6
ByLayer
370
13
48
1
60
0
100
AcDbSpline
70
4
71
3
72
14
73
10
40
0
40
0
40
0
40
0
40
0.0697674307259325
40
0.0697674307259325
40
0.534883715362968
40
0.534883715362968
40
0.767441857681484
40
0.767441857681484
40
1
40
1
40
1
40
1
41
1
10
187.404468971307
20
9.83180166113056
30
0
41
1
10
187.902096867417
20
9.86438039382867
30
0
41
1
10
188.399692930138
20
9.89540152144315
30
0
41
1
10
192.214428955848
20
10.1211559085491
30
0
41
1
10
195.53060868841
20
10.2474215650898
30
0
41
1
10
200.508108737186
20
10.3257647121274
30
0
41
1
10
202.167945779393
20
10.3333800047562
30
0
41
1
10
205.486726408519
20
10.3109988018264
30
0
41
1
10
207.146004909995
20
10.2810115679995
30
0
41
1
10
208.805556618068
20
10.2320822832537
30
0
0
SPLINE
5
2DF
100
AcDbEntity
8
1
62
256
6
ByLayer
370
13
48
1
60
0
100
AcDbSpline
70
4
71
3
72
10
73
6
40
0
40
0
40
0
40
0
40
0.5
40
0.5
40
1
40
1
40
1
40
1
41
1
10
196.993038673196
20
5.79917320179516
30
0
41
1
10
197.455838230209
20
5.63587145961034
30
0
41
1
10
197.918282937113
20
5.47879367467087
30
0
41
1
10
198.839552302049
20
5.17984090636819
30
0
41
1
10
199.298486059512
20
5.03791707026048
30
0
41
1
10
199.755469449918
20
4.90465336958235
30
0
0
SPLINE
5
2E0
100
AcDbEntity
8
1
62
256
6
ByLayer
370
13
48
1
60
0
100
AcDbSpline
70
4
71
3
72
46
73
42
40
0
40
0
40
0
40
0
40
0.0106884102757356
40
0.0966580539890984
40
0.189017578040189
40
0.287860679004573
40
0.393217029495579
40
0.505047575734421
40
0.514984100818557
40
0.525232314954514
40
0.53579295403778
40
0.546666733723111
40
0.557854347342316
40
0.569356463580287
40
0.581173723925978
40
0.593306739912412
40
0.605756090157591
40
0.618522317216713
40
0.63160592425488
40
0.645007371548638
40
0.658727072824205
40
0.672765391439861
40
0.687122636419901
40
0.701799058347584
40
0.716794845124735
40
0.732110117605968
40
0.747744925115964
40
0.763699240858782
40
0.779972957228856
40
0.796565881034016
40
0.81347772864177
40
0.83070812106088
40
0.848256578971351
40
0.866122517716878
40
0.884305242274951
40
0.902803942220991
40
0.92161768670406
40
0.940745419453011
40
0.960185953833225
40
0.979937967975493
40
1
40
1
40
1
40
1
41
1
10
43.7988093509245
20
-8.08135634204373
30
0
41
1
10
43.8065754474826
20
-8.0979192010854
30
0
41
1
10
43.8772459191787
20
-8.24792435187226
30
0
41
1
10
44.0231577444524
20
-8.54512956719586
30
0
41
1
10
44.258620301043
20
-8.9881474690813
30
0
41
1
10
44.5343901419743
20
-9.46663577621197
30
0
41
1
10
44.8530428448141
20
-9.97718846387707
30
0
41
1
10
45.0986271265276
20
-10.3412830928742
30
0
41
1
10
45.2453934544313
20
-10.5506956627903
30
0
41
1
10
45.2796917044399
20
-10.5994137645609
30
0
41
1
10
45.315181145927
20
-10.649535348223
30
0
41
1
10
45.3518799958225
20
-10.7010474107749
30
0
41
1
10
45.3898104349008
20
-10.7539313266112
30
0
41
1
10
45.428992887314
20
-10.8081683306518
30
0
41
1
10
45.4694474882067
20
-10.8637378997567
30
0
41
1
10
45.511193533747
20
-10.9206181216873
30
0
41
1
10
45.5542494898333
20
-10.9787855081443
30
0
41
1
10
45.5986328393094
20
-11.0382149631242
30
0
41
1
10
45.6443599688127
20
-11.0988797082411
30
0
41
1
10
45.6914460391962
20
-11.1607512206082
30
0
41
1
10
45.7399048552203
20
-11.2237991680632
30
0
41
1
10
45.7897487302419
20
-11.2879913462644
30
0
41
1
10
45.8409883472166
20
-11.3532936166994
30
0
41
1
10
45.8936326158069
20
-11.4196698461885
30
0
41
1
10
45.9476885258433
20
-11.4870818480489
30
0
41
1
10
46.0031609972961
20
-11.5554893252139
30
0
41
1
10
46.0600527269748
20
-11.6248498155736
30
0
41
1
10
46.1183640321977
20
-11.6951186398493
30
0
41
1
10
46.1780926916999
20
-11.7662488522023
30
0
41
1
10
46.2392337841128
20
-11.8381911942489
30
0
41
1
10
46.3017795242639
20
-11.9108940513825
30
0
41
1
10
46.3657190980396
20
-11.9843034171436
30
0
41
1
10
46.4310384948442
20
-12.0583628451525
30
0
41
1
10
46.4977203434296
20
-12.1330134687773
30
0
41
1
10
46.5657437312157
20
-12.2081937827431
30
0
41
1
10
46.6350840857405
20
-12.2838403601859
30
0
41
1
10
46.7057128197085
20
-12.3598850120217
30
0
41
1
10
46.7775978853527
20
-12.436265591098
30
0
41
1
10
46.8507008573474
20
-12.5128846208558
30
0
41
1
10
46.9249873013663
20
-12.5897674732573
30
0
41
1
10
46.9748663037444
20
-12.6405007300868
30
0
41
1
10
47
20
-12.6660648794565
30
0
0
SPLINE
5
2E1
100
AcDbEntity
8
1
62
256
6
ByLayer
370
13
48
1
60
0
100
AcDbSpline
70
4
71
3
72
34
73
30
40
0
40
0
40
0
40
0
40
0.0152889322558788
40
0.0152889322558788
40
0.0671158305582005
40
0.0671158305582005
40
0.118942728860522
40
0.118942728860522
40
0.170769627162844
40
0.170769627162844
40
0.274423423767487
40
0.274423423767487
40
0.326250322069808
40
0.326250322069808
40
0.352163771220969
40
0.352163771220969
40
0.37807722037213
40
0.37807722037213
40
0.429904118674452
40
0.429904118674452
40
0.481731016976775
40
0.481731016976775
40
0.58538481358142
40
0.58538481358142
40
0.689038610186065
40
0.689038610186065
40
0.79269240679071
40
0.79269240679071
40
1
40
1
40
1
40
1
41
1
10
142.06747764973
20
-11.6741394805755
30
0
41
1
10
141.590785080796
20
-11.7083445186307
30
0
41
1
10
141.113829599471
20
-11.7415847480774
30
0
41
1
10
139.018935825471
20
-11.8837446391552
30
0
41
1
10
137.398283378379
20
-11.9834938143624
30
0
41
1
10
134.15057841486
20
-12.1609585756839
30
0
41
1
10
132.523524681952
20
-12.2387685075565
30
0
41
1
10
129.262048828288
20
-12.3711637505715
30
0
41
1
10
127.626699395379
20
-12.4254277018467
30
0
41
1
10
122.722589230549
20
-12.5562235526269
30
0
41
1
10
119.452175889475
20
-12.602781690984
30
0
41
1
10
114.545171568001
20
-12.643204092478
30
0
41
1
10
112.909269382985
20
-12.6516339928128
30
0
41
1
10
110.455036692167
20
-12.6586021944682
30
0
41
1
10
109.636890456935
20
-12.6599833697873
30
0
41
1
10
108.000496124291
20
-12.660910621034
30
0
41
1
10
107.182261457518
20
-12.6605962692167
30
0
41
1
10
104.72756219275
20
-12.6606602294484
30
0
41
1
10
103.091068377627
20
-12.6610600969157
30
0
41
1
10
99.8180492504102
20
-12.6609975067684
30
0
41
1
10
98.1815289047319
20
-12.6609494498162
30
0
41
1
10
93.2719928868979
20
-12.660955337593
30
0
41
1
10
89.9989892735665
20
-12.6609266453515
30
0
41
1
10
83.4529955986144
20
-12.6608230868258
30
0
41
1
10
80.1800056370023
20
-12.6607585289368
30
0
41
1
10
73.6340141625062
20
-12.6607915284674
30
0
41
1
10
70.3610131854127
20
-12.6608865664076
30
0
41
1
10
60.5420031378277
20
-12.6610078452819
30
0
41
1
10
53.9959873279199
20
-12.6609096860519
30
0
41
1
10
47.4500000000001
20
-12.6609139867369
30
0
0
SPLINE
5
2E2
100
AcDbEntity
8
1
62
256
6
ByLayer
370
13
48
1
60
0
100
AcDbSpline
70
4
71
3
72
24
73
20
40
0
40
0
40
0
40
0
40
0.0625000000000001
40
0.0625000000000001
40
0.125
40
0.125
40
0.1875
40
0.1875
40
0.25
40
0.25
40
0.312500000000001
40
0.312500000000001
40
0.375000000000001
40
0.375000000000001
40
0.5
40
0.5
40
0.75
40
0.75
40
1
40
1
40
1
40
1
41
1
10
121
20
-21.6765096283486
30
0
41
1
10
119.569335973045
20
-21.6723653746413
30
0
41
1
10
118.136705663735
20
-21.668251531788
30
0
41
1
10
115.267722976697
20
-21.6626820487248
30
0
41
1
10
113.831217613744
20
-21.6611823802386
30
0
41
1
10
110.956008506753
20
-21.6615141451343
30
0
41
1
10
109.518270146346
20
-21.6633312408668
30
0
41
1
10
106.642598118941
20
-21.6697902126975
30
0
41
1
10
105.204669123067
20
-21.6743456281681
30
0
41
1
10
102.328766607398
20
-21.6841120112698
30
0
41
1
10
100.890793885156
20
-21.6893044528132
30
0
41
1
10
98.0148528485657
20
-21.6996203600337
30
0
41
1
10
96.57689029648
20
-21.7046927090933
30
0
41
1
10
92.2630053013559
20
-21.7196339397684
30
0
41
1
10
89.3870769953957
20
-21.7292912673974
30
0
41
1
10
80.7592918394251
20
-21.7582487949557
30
0
41
1
10
75.007432517437
20
-21.7773913199581
30
0
41
1
10
63.5037158896801
20
-21.8158072304216
30
0
41
1
10
57.7518587159239
20
-21.8351079047707
30
0
41
1
10
51.9999999999999
20
-21.8542789155116
30
0
0
SPLINE
5
2E3
100
AcDbEntity
8
1
62
256
6
ByLayer
370
13
48
1
60
0
100
AcDbSpline
70
4
71
3
72
18
73
14
40
0
40
0
40
0
40
0
40
0.125
40
0.125
40
0.25
40
0.25
40
0.375
40
0.375
40
0.5
40
0.5
40
0.75
40
0.75
40
1
40
1
40
1
40
1
41
1
10
5.49999999999997
20
-27.197533014896
30
0
41
1
10
5.5331183619886
20
-27.197533014896
30
0
41
1
10
5.56567694370481
20
-27.1995026580579
30
0
41
1
10
5.62972133566616
20
-27.2072122555809
30
0
41
1
10
5.66154354218739
20
-27.2130480694634
30
0
41
1
10
5.72214649856302
20
-27.2282429091525
30
0
41
1
10
5.75087897885176
20
-27.2375315286339
30
0
41
1
10
5.8052384884854
20
-27.259437487858
30
0
41
1
10
5.83093052062634
20
-27.272154639518
30
0
41
1
10
5.89997612824273
20
-27.3137174239843
30
0
41
1
10
5.93710206073182
20
-27.3470902458003
30
0
41
1
10
5.98680620220951
20
-27.4186740847385
30
0
41
1
10
5.99999999999997
20
-27.4575544853432
30
0
41
1
10
5.99999999999997
20
-27.4965076027925
30
0
0
SPLINE
5
2E4
100
AcDbEntity
8
1
62
256
6
ByLayer
370
13
48
1
60
0
100
AcDbSpline
70
4
71
3
72
8
73
4
40
0
40
0
40
0
40
0
40
1
40
1
40
1
40
1
41
1
10
204.428981129317
20
2.69139850059477
30
0
41
1
10
202.863612722797
20
3.40477361062446
30
0
41
1
10
201.306034308749
20
4.14336294354686
30
0
41
1
10
199.755469449918
20
4.90465336958235
30
0
0
SPLINE
5
2E5
100
AcDbEntity
8
1
62
256
6
ByLayer
370
13
48
1
60
0
100
AcDbSpline
70
4
71
3
72
8
73
4
40
0
40
0
40
0
40
0
40
1
40
1
40
1
40
1
41
1
10
51.9999999999999
20
-21.8542789155116
30
0
41
1
10
50.3333333053008
20
-21.8542569157616
30
0
41
1
10
48.6666666192846
20
-21.8542242186001
30
0
41
1
10
47
20
-21.8541753248575
30
0
0
SPLINE
5
2E6
100
AcDbEntity
8
1
62
256
6
ByLayer
370
13
48
1
60
0
100
AcDbSpline
70
4
71
1
72
4
73
2
40
0
40
0
40
1
40
1
41
1
10
47.0099999999995
20
-21.2369691773354
30
0
41
1
10
47.0099999999995
20
-12.6652110621233
30
0
0
SPLINE
5
2E7
100
AcDbEntity
8
1
62
256
6
ByLayer
370
13
48
1
60
0
100
AcDbSpline
70
4
71
3
72
12
73
8
40
0
40
0
40
0
40
0
40
0.499999999999984
40
0.499999999999984
40
0.749999999999992
40
0.749999999999992
40
1
40
1
40
1
40
1
41
1
10
206.157065137219
20
1.96776018070597
30
0
41
1
10
206.562082202074
20
1.81055424864118
30
0
41
1
10
206.981545234742
20
1.70205297220656
30
0
41
1
10
207.633063309143
20
1.61544423899827
30
0
41
1
10
207.850374644827
20
1.59993846410663
30
0
41
1
10
208.283072120974
20
1.5951189546692
30
0
41
1
10
208.498836615521
20
1.60575729711883
30
0
41
1
10
208.714005236032
20
1.62962474865918
30
0
0
SPLINE
5
2E8
100
AcDbEntity
8
1
62
256
6
ByLayer
370
13
48
1
60
0
100
AcDbSpline
70
4
71
3
72
12
73
8
40
0
40
0
40
0
40
0
40
0.270214767006119
40
0.270214767006119
40
0.635107383503059
40
0.635107383503059
40
1
40
1
40
1
40
1
41
1
10
47.4499729236431
20
-7.85078499658283
30
0
41
1
10
47.4499231849261
20
-8.25550419551396
30
0
41
1
10
47.4498796911482
20
-8.68761643354415
30
0
41
1
10
47.4497960686757
20
-9.73131245665195
30
0
41
1
10
47.4497624873189
20
-10.3523723191972
30
0
41
1
10
47.4497286723884
20
-11.5555447710576
30
0
41
1
10
47.4497284489204
20
-12.1372977881746
30
0
41
1
10
47.4497449241632
20
-12.6609139869046
30
0
0
SPLINE
5
2E9
100
AcDbEntity
8
1
62
256
6
ByLayer
370
13
48
1
60
0
100
AcDbSpline
70
4
71
3
72
38
73
34
40
0
40
0
40
0
40
0
40
0.0624999999999994
40
0.0624999999999994
40
0.124999999999999
40
0.124999999999999
40
0.156249999999999
40
0.156249999999999
40
0.187499999999998
40
0.187499999999998
40
0.249999999999998
40
0.249999999999998
40
0.312499999999997
40
0.312499999999997
40
0.374999999999997
40
0.374999999999997
40
0.406249999999997
40
0.406249999999997
40
0.437499999999997
40
0.437499999999997
40
0.499999999999997
40
0.499999999999997
40
0.562499999999998
40
0.562499999999998
40
0.624999999999998
40
0.624999999999998
40
0.749999999999999
40
0.749999999999999
40
0.812499999999999
40
0.812499999999999
40
0.875
40
0.875
40
1
40
1
40
1
40
1
41
1
10
18.790464293951
20
-24.7432521768965
30
0
41
1
10
18.7058241086076
20
-24.9258354347321
30
0
41
1
10
18.6427475655948
20
-25.1026301299733
30
0
41
1
10
18.5593253132041
20
-25.44448517705
30
0
41
1
10
18.5389739972082
20
-25.6095479022736
30
0
41
1
10
18.5424125528681
20
-25.8478815875089
30
0
41
1
10
18.5492920188435
20
-25.9256217436132
30
0
41
1
10
18.5738137429811
20
-26.0755544360822
30
0
41
1
10
18.5914528987866
20
-26.1480723963112
30
0
41
1
10
18.6600417357615
20
-26.3584948545129
30
0
41
1
10
18.7268142489032
20
-26.4892432023726
30
0
41
1
10
18.9016978777648
20
-26.7322115970395
30
0
41
1
10
19.0107162559455
20
-26.8448142453881
30
0
41
1
10
19.2631858538143
20
-27.0463262198808
30
0
41
1
10
19.4068639888309
20
-27.1360921910108
30
0
41
1
10
19.647290957698
20
-27.25544521533
30
0
41
1
10
19.7315945102051
20
-27.2926740011869
30
0
41
1
10
19.9084393784685
20
-27.3621451190697
30
0
41
1
10
20.0012469978258
20
-27.3944657670912
30
0
41
1
10
20.2900010460079
20
-27.4834646288313
30
0
41
1
10
20.4953641393061
20
-27.5320421592983
30
0
41
1
10
20.9299886877937
20
-27.6098875041598
30
0
41
1
10
21.1592576579494
20
-27.6391468189305
30
0
41
1
10
21.6409023991003
20
-27.6796822115761
30
0
41
1
10
21.8945523254264
20
-27.6908738626058
30
0
41
1
10
22.6757089475539
20
-27.6984944866867
30
0
41
1
10
23.2260159895564
20
-27.6698968903712
30
0
41
1
10
24.0936589197591
20
-27.5832935131617
30
0
41
1
10
24.3914360358828
20
-27.5467663029891
30
0
41
1
10
24.9914741159073
20
-27.4608286334382
30
0
41
1
10
25.2943853700681
20
-27.4114030715493
30
0
41
1
10
26.2117748742733
20
-27.2449479190826
30
0
41
1
10
26.8347949750592
20
-27.1100117989916
30
0
41
1
10
27.4699904221593
20
-26.9515171686722
30
0
0
SPLINE
5
2EA
100
AcDbEntity
8
1
62
256
6
ByLayer
370
13
48
1
60
0
100
AcDbSpline
70
4
71
3
72
8
73
4
40
0
40
0
40
0
40
0
40
1
40
1
40
1
40
1
41
1
10
206.156869873502
20
1.96783597589678
30
0
41
1
10
205.571719063815
20
2.19498579623689
30
0
41
1
10
204.994647002417
20
2.43361129038757
30
0
41
1
10
204.428981129289
20
2.69139850060725
30
0
0
SPLINE
5
2EB
100
AcDbEntity
8
1
62
256
6
ByLayer
370
13
48
1
60
0
100
AcDbSpline
70
4
71
3
72
8
73
4
40
0
40
0
40
0
40
0
40
1
40
1
40
1
40
1
41
1
10
0.499999999999957
20
-31.268533014896
30
0
41
1
10
0.333324220354243
20
-31.1231415880536
30
0
41
1
10
0.166657416166501
20
-30.9777424437056
30
0
41
1
10
-2.84E-14
20
-30.8323352297609
30
0
0
SPLINE
5
2EC
100
AcDbEntity
8
1
62
256
6
ByLayer
370
13
48
1
60
0
100
AcDbSpline
70
4
71
3
72
8
73
4
40
0
40
0
40
0
40
0
40
1
40
1
40
1
40
1
41
1
10
47
20
-7.86004506345432
30
0
41
1
10
46.4134653002323
20
-7.85981265489337
30
0
41
1
10
45.8284688052197
20
-7.8604096644988
30
0
41
1
10
45.2449982617482
20
-7.8618271743095
30
0
0
SPLINE
5
2ED
100
AcDbEntity
8
1
62
256
6
ByLayer
370
13
48
1
60
0
100
AcDbSpline
70
4
71
3
72
8
73
4
40
0
40
0
40
0
40
0
40
1
40
1
40
1
40
1
41
1
10
212.900809752592
20
15.5851418830459
30
0
41
1
10
212.886940997104
20
15.5584016467232
30
0
41
1
10
212.87159758655
20
15.5343412339659
30
0
41
1
10
212.85566143541
20
15.5128378589932
30
0
0
SPLINE
5
2EE
100
AcDbEntity
8
1
62
256
6
ByLayer
370
13
48
1
60
0
100
AcDbSpline
70
4
71
3
72
8
73
4
40
0
40
0
40
0
40
0
40
1
40
1
40
1
40
1
41
1
10
208.226187017121
20
7.79541019351296
30
0
41
1
10
208.272091132475
20
7.93984653948314
30
0
41
1
10
208.315804300866
20
8.08470772775536
30
0
41
1
10
208.357976789043
20
8.2298676663581
30
0
0
SPLINE
5
2EF
100
AcDbEntity
8
1
62
256
6
ByLayer
370
13
48
1
60
0
100
AcDbSpline
70
4
71
3
72
18
73
14
40
0
40
0
40
0
40
0
40
0.111045425896333
40
0.111045425896333
40
0.407363617264221
40
0.407363617264221
40
0.481443165106194
40
0.481443165106194
40
0.555522712948166
40
0.555522712948166
40
0.703681808632111
40
0.703681808632111
40
1
40
1
40
1
40
1
41
1
10
25.1619801162656
20
-13.4425293971346
30
0
41
1
10
24.8045663448412
20
-13.8007094935377
30
0
41
1
10
24.4602819286577
20
-14.1666398268438
30
0
41
1
10
23.2443574644161
20
-15.5367306389513
30
0
41
1
10
22.4504227097064
20
-16.5866731744674
30
0
41
1
10
21.5757635512565
20
-17.9671210093916
30
0
41
1
10
21.4065153305492
20
-18.2471197065708
30
0
41
1
10
21.0817554298907
20
-18.8116766004678
30
0
41
1
10
20.9263715413701
20
-19.096066737737
30
0
41
1
10
20.4804038601664
20
-19.9553580419148
30
0
41
1
10
20.2099446849446
20
-20.5363364151096
30
0
41
1
10
19.4742992830637
20
-22.3018385400874
30
0
41
1
10
19.08402372694
20
-23.5087142618567
30
0
41
1
10
18.790464293951
20
-24.7432521768965
30
0
0
SPLINE
5
2F0
100
AcDbEntity
8
1
62
256
6
ByLayer
370
13
48
1
60
0
100
AcDbSpline
70
4
71
3
72
12
73
8
40
0
40
0
40
0
40
0
40
0.24999999999999
40
0.24999999999999
40
0.49999999999998
40
0.49999999999998
40
1
40
1
40
1
40
1
41
1
10
211.884617934551
20
10.1440794099586
30
0
41
1
10
211.87565456592
20
10.2120260184322
30
0
41
1
10
211.863445659957
20
10.2795818561951
30
0
41
1
10
211.831808655048
20
10.4138243230555
30
0
41
1
10
211.812238169408
20
10.480825251649
30
0
41
1
10
211.742974874718
20
10.6761633622233
30
0
41
1
10
211.682642427528
20
10.7998691234081
30
0
41
1
10
211.607405351748
20
10.9167108973674
30
0
0
SPLINE
5
2F1
100
AcDbEntity
8
1
62
256
6
ByLayer
370
13
48
1
60
0
100
AcDbSpline
70
4
71
3
72
16
73
12
40
0
40
0
40
0
40
0
40
0.250000000000002
40
0.250000000000002
40
0.375000000000004
40
0.375000000000004
40
0.500000000000005
40
0.500000000000005
40
0.750000000000002
40
0.750000000000002
40
1
40
1
40
1
40
1
41
1
10
41.3392311399815
20
-8.88852100325457
30
0
41
1
10
41.6361851403492
20
-8.72209151036199
30
0
41
1
10
41.941841544937
20
-8.57536705073255
30
0
41
1
10
42.4134083257371
20
-8.38452068445721
30
0
41
1
10
42.572784057566
20
-8.32579429268907
30
0
41
1
10
42.8959924829489
20
-8.21825552396513
30
0
41
1
10
43.0603115974112
20
-8.1693212303536
30
0
41
1
10
43.5563845483854
20
-8.03874680485075
30
0
41
1
10
43.8900064367263
20
-7.97343621363962
30
0
41
1
10
44.5630804726666
20
-7.88539179574556
30
0
41
1
10
44.9025325069137
20
-7.86265917615216
30
0
41
1
10
45.2449982617478
20
-7.8618271743095
30
0
0
SPLINE
5
2F2
100
AcDbEntity
8
1
62
256
6
ByLayer
370
13
48
1
60
0
100
AcDbSpline
70
4
71
3
72
26
73
22
40
0
40
0
40
0
40
0
40
0.0624999999999948
40
0.0624999999999948
40
0.12499999999999
40
0.12499999999999
40
0.187499999999984
40
0.187499999999984
40
0.249999999999979
40
0.249999999999979
40
0.374999999999983
40
0.374999999999983
40
0.499999999999986
40
0.499999999999986
40
0.62499999999999
40
0.62499999999999
40
0.749999999999993
40
0.749999999999993
40
0.874999999999997
40
0.874999999999997
40
1
40
1
40
1
40
1
41
1
10
210.292710049483
20
6.67480883060401
30
0
41
1
10
210.273013653679
20
6.63178710373313
30
0
41
1
10
210.258696777675
20
6.58662036195804
30
0
41
1
10
210.241675189233
20
6.49562969221867
30
0
41
1
10
210.238836667001
20
6.44873355400026
30
0
41
1
10
210.243525563326
20
6.35783062486624
30
0
41
1
10
210.250954496841
20
6.31302410708423
30
0
41
1
10
210.273600814333
20
6.22686914564864
30
0
41
1
10
210.288636066123
20
6.18583931862045
30
0
41
1
10
210.342246091304
20
6.06745697757563
30
0
41
1
10
210.389583546819
20
5.99459153074042
30
0
41
1
10
210.495023894222
20
5.86310610002045
30
0
41
1
10
210.553712901089
20
5.80348554138314
30
0
41
1
10
210.679859131301
20
5.69325473312887
30
0
41
1
10
210.746806358394
20
5.64323347150983
30
0
41
1
10
210.884832348941
20
5.55245442108389
30
0
41
1
10
210.956248203356
20
5.51145260405386
30
0
41
1
10
211.103176876699
20
5.43689863945579
30
0
41
1
10
211.178697007779
20
5.40335981045612
30
0
41
1
10
211.333551215809
20
5.34317073038514
30
0
41
1
10
211.412820154094
20
5.31658088181024
30
0
41
1
10
211.49297535698
20
5.29360749526532
30
0
0
SPLINE
5
2F3
100
AcDbEntity
8
1
62
256
6
ByLayer
370
13
48
1
60
0
100
AcDbSpline
70
4
71
3
72
42
73
38
40
0
40
0
40
0
40
0
40
0.125
40
0.125
40
0.1875
40
0.1875
40
0.21875
40
0.21875
40
0.25
40
0.25
40
0.375000000000001
40
0.375000000000001
40
0.437500000000002
40
0.437500000000002
40
0.468750000000002
40
0.468750000000002
40
0.500000000000002
40
0.500000000000002
40
0.625000000000002
40
0.625000000000002
40
0.656250000000001
40
0.656250000000001
40
0.687500000000001
40
0.687500000000001
40
0.750000000000001
40
0.750000000000001
40
0.812500000000001
40
0.812500000000001
40
0.843750000000001
40
0.843750000000001
40
0.875
40
0.875
40
0.9375
40
0.9375
40
0.96875
40
0.96875
40
1
40
1
40
1
40
1
41
1
10
27.4699705753036
20
-12.7101650966778
30
0
41
1
10
26.8337645531414
20
-12.8456125914451
30
0
41
1
10
26.2105446182829
20
-13.0271939638217
30
0
41
1
10
25.2938967922405
20
-13.364940872639
30
0
41
1
10
24.9913998231433
20
-13.4885023771962
30
0
41
1
10
24.5422702428862
20
-13.6905990344423
30
0
41
1
10
24.3933310985188
20
-13.7607623922804
30
0
41
1
10
24.0970187506045
20
-13.9068031065372
30
0
41
1
10
23.9494901492417
20
-13.982781141123
30
0
41
1
10
23.2239539391779
20
-14.3729363673241
30
0
41
1
10
22.6750644671564
20
-14.7199840008107
30
0
41
1
10
21.9002612943074
20
-15.2932203438769
30
0
41
1
10
21.6501299378818
20
-15.4931261082999
30
0
41
1
10
21.2878521766914
20
-15.8068377652632
30
0
41
1
10
21.1689195638746
20
-15.9140138762277
30
0
41
1
10
20.9371387073621
20
-16.1316800070445
30
0
41
1
10
20.8246218626826
20
-16.2418547139974
30
0
41
1
10
20.2789225145189
20
-16.7993335056704
30
0
41
1
10
19.8956039287445
20
-17.2661442002147
30
0
41
1
10
19.4906588505286
20
-17.8770027832443
30
0
41
1
10
19.4132648125859
20
-18.0008996381424
30
0
41
1
10
19.2684826211372
20
-18.2478948171666
30
0
41
1
10
19.2008196825777
20
-18.371368243278
30
0
41
1
10
19.0119640684613
20
-18.7416559412482
30
0
41
1
10
18.904967783176
20
-18.9883537966628
30
0
41
1
10
18.7301913156707
20
-19.481220937886
30
0
41
1
10
18.6623463442581
20
-19.7273832282362
30
0
41
1
10
18.5922471089448
20
-20.0960827007737
30
0
41
1
10
18.5742626180096
20
-20.2184106534695
30
0
41
1
10
18.5494984379234
20
-20.4585894608008
30
0
41
1
10
18.5426192969475
20
-20.5769309753026
30
0
41
1
10
18.5387133492626
20
-20.9267228242541
30
0
41
1
10
18.5583536635262
20
-21.1529564868402
30
0
41
1
10
18.6206758235988
20
-21.4819706731554
30
0
41
1
10
18.6469486878609
20
-21.5899146082714
30
0
41
1
10
18.7106834463969
20
-21.8023061263061
30
0
41
1
10
18.7481100986954
20
-21.9065221004334
30
0
41
1
10
18.7907681114296
20
-22.0079142322639
30
0
0
SPLINE
5
2F4
100
AcDbEntity
8
1
62
256
6
ByLayer
370
13
48
1
60
0
100
AcDbSpline
70
4
71
3
72
12
73
8
40
0
40
0
40
0
40
0
40
0.5
40
0.5
40
0.75
40
0.75
40
1
40
1
40
1
40
1
41
1
10
212.030269290522
20
8.16037079655837
30
0
41
1
10
212.084839384529
20
8.49228457196881
30
0
41
1
10
212.108548389271
20
8.82555593524651
30
0
41
1
10
212.079247224633
20
9.32831639504508
30
0
41
1
10
212.058175325626
20
9.49738167700289
30
0
41
1
10
211.990975530837
20
9.82636576038044
30
0
41
1
10
211.944932581178
20
9.98727643152549
30
0
41
1
10
211.884617934552
20
10.1440794099568
30
0
0
SPLINE
5
2F5
100
AcDbEntity
8
1
62
256
6
ByLayer
370
13
48
1
60
0
100
AcDbSpline
70
4
71
3
72
8
73
4
40
0
40
0
40
0
40
0
40
1
40
1
40
1
40
1
41
1
10
210.170554943918
20
10.282845355348
30
0
41
1
10
210.257350479287
20
10.283354847211
30
0
41
1
10
210.344534639386
20
10.2787713904723
30
0
41
1
10
210.432035426353
20
10.2612898172909
30
0
0
SPLINE
5
2F6
100
AcDbEntity
8
1
62
256
6
ByLayer
370
13
48
1
60
0
100
AcDbSpline
70
4
71
3
72
8
73
4
40
0
40
0
40
0
40
0
40
1
40
1
40
1
40
1
41
1
10
214.590388630353
20
21.5859245001505
30
0
41
1
10
214.498028624252
20
21.5777783345251
30
0
41
1
10
214.403442118582
20
21.5708180374488
30
0
41
1
10
214.306673327548
20
21.5651220795117
30
0
0
SPLINE
5
2F7
100
AcDbEntity
8
1
62
256
6
ByLayer
370
13
48
1
60
0
100
AcDbSpline
70
4
71
3
72
20
73
16
40
0
40
0
40
0
40
0
40
0.125000000000001
40
0.125000000000001
40
0.250000000000001
40
0.250000000000001
40
0.375000000000002
40
0.375000000000002
40
0.500000000000002
40
0.500000000000002
40
0.625000000000002
40
0.625000000000002
40
0.750000000000003
40
0.750000000000003
40
1
40
1
40
1
40
1
41
1
10
5.99999999999996
20
-31.0675076027925
30
0
41
1
10
5.99999999999997
20
-31.080962010327
30
0
41
1
10
5.99677802951543
20
-31.09414941444
30
0
41
1
10
5.98415574729455
20
-31.1200169935347
30
0
41
1
10
5.97460706229403
20
-31.132827336719
30
0
41
1
10
5.94964138722892
20
-31.1572191139859
30
0
41
1
10
5.93436036703302
20
-31.1687556935702
30
0
41
1
10
5.89825058475371
20
-31.1905426353914
30
0
41
1
10
5.87720587398624
20
-31.2008461165011
30
0
41
1
10
5.83118489707975
20
-31.2192929262407
30
0
41
1
10
5.80606785289073
20
-31.2275533431178
30
0
41
1
10
5.75151945639116
20
-31.242127423306
30
0
41
1
10
5.72235822232541
20
-31.248336483291
30
0
41
1
10
5.63204318454244
20
-31.2632543930297
30
0
41
1
10
5.56624413343683
20
-31.268533014896
30
0
41
1
10
5.49999999999996
20
-31.268533014896
30
0
0
SPLINE
5
2F8
100
AcDbEntity
8
1
62
256
6
ByLayer
370
13
48
1
60
0
100
AcDbSpline
70
4
71
3
72
16
73
12
40
0
40
0
40
0
40
0
40
0.249999999999998
40
0.249999999999998
40
0.499999999999996
40
0.499999999999996
40
0.624999999999994
40
0.624999999999994
40
0.749999999999993
40
0.749999999999993
40
1
40
1
40
1
40
1
41
1
10
211.74433510625
20
5.2216206303774
30
0
41
1
10
212.316820369815
20
5.05779457678184
30
0
41
1
10
212.890373613705
20
4.94366863959056
30
0
41
1
10
214.040201088895
20
4.80499935178835
30
0
41
1
10
214.616471507597
20
4.78055556543325
30
0
41
1
10
215.483009250131
20
4.81026639237487
30
0
41
1
10
215.773006644706
20
4.83141715035634
30
0
41
1
10
216.347549791802
20
4.8956332842391
30
0
41
1
10
216.632545179502
20
4.93864978941028
30
0
41
1
10
217.480653349569
20
5.09999939397395
30
0
41
1
10
218.036957407059
20
5.25045539262624
30
0
41
1
10
218.583229053592
20
5.44490322405966
30
0
0
SPLINE
5
2F9
100
AcDbEntity
8
1
62
256
6
ByLayer
370
13
48
1
60
0
100
AcDbSpline
70
4
71
3
72
8
73
4
40
0
40
0
40
0
40
0
40
1
40
1
40
1
40
1
41
1
10
211.49297535698
20
5.29360749526631
30
0
41
1
10
211.576978350497
20
5.26953128846313
30
0
41
1
10
211.660767829263
20
5.24553477816428
30
0
41
1
10
211.74433510625
20
5.22162063037746
30
0
0
SPLINE
5
2FA
100
AcDbEntity
8
1
62
256
6
ByLayer
370
13
48
1
60
0
100
AcDbSpline
70
4
71
3
72
8
73
4
40
0
40
0
40
0
40
0
40
1
40
1
40
1
40
1
41
1
10
47
20
21.9374982807161
30
0
41
1
10
46.6664797474653
20
21.9374982807161
30
0
41
1
10
46.3331464795633
20
21.9447667743339
30
0
41
1
10
45.9999999999997
20
21.9592961311579
30
0
0
SPLINE
5
2FB
100
AcDbEntity
8
1
62
256
6
ByLayer
370
13
48
1
60
0
100
AcDbSpline
70
4
71
3
72
12
73
8
40
0
40
0
40
0
40
0
40
0.250000000000004
40
0.250000000000004
40
0.500000000000008
40
0.500000000000008
40
1
40
1
40
1
40
1
41
1
10
218.583229053592
20
5.44490322405963
30
0
41
1
10
218.87742745786
20
5.5496244595185
30
0
41
1
10
219.165134972241
20
5.63773898072785
30
0
41
1
10
219.729430299976
20
5.7875264701764
30
0
41
1
10
220.00599116248
20
5.84914313473229
30
0
41
1
10
220.819634759484
20
6.00093538451389
30
0
41
1
10
221.340915481741
20
6.05820021289847
30
0
41
1
10
221.838520189202
20
6.08427857057771
30
0
0
SPLINE
5
2FC
100
AcDbEntity
8
1
62
256
6
ByLayer
370
13
48
1
60
0
100
AcDbSpline
70
4
71
3
72
8
73
4
40
0
40
0
40
0
40
0
40
1
40
1
40
1
40
1
41
1
10
216.538118329177
20
7.07895517189905
30
0
41
1
10
216.489934455341
20
7.07734792979605
30
0
41
1
10
216.441792969864
20
7.07647045733395
30
0
41
1
10
216.393731423851
20
7.07675010034072
30
0
0
SPLINE
5
2FD
100
AcDbEntity
8
1
62
256
6
ByLayer
370
13
48
1
60
0
100
AcDbSpline
70
4
71
3
72
10
73
6
40
0
40
0
40
0
40
0
40
0.5
40
0.5
40
1
40
1
40
1
40
1
41
1
10
210.325746917399
20
6.74871885540949
30
0
41
1
10
209.993715825845
20
6.94418155071509
30
0
41
1
10
209.651557113663
20
7.12775172938092
30
0
41
1
10
208.950725899751
20
7.47550051151191
30
0
41
1
10
208.592029761463
20
7.63965135938096
30
0
41
1
10
208.226187017111
20
7.7954101935018
30
0
0
SPLINE
5
2FE
100
AcDbEntity
8
1
62
256
6
ByLayer
370
13
48
1
60
0
100
AcDbSpline
70
4
71
3
72
16
73
12
40
0
40
0
40
0
40
0
40
0.249999999999997
40
0.249999999999997
40
0.499999999999995
40
0.499999999999995
40
0.624999999999996
40
0.624999999999996
40
0.749999999999997
40
0.749999999999997
40
1
40
1
40
1
40
1
41
1
10
45.2449981547569
20
-21.9230701675608
30
0
41
1
10
44.9029669386541
20
-21.9499686479349
30
0
41
1
10
44.5646978992302
20
-21.9825129782967
30
0
41
1
10
43.8953529037338
20
-22.058084563065
30
0
41
1
10
43.5642776380282
20
-22.1011140927699
30
0
41
1
10
43.0730027712429
20
-22.1723472312559
30
0
41
1
10
42.9101360551768
20
-22.1972003699448
30
0
41
1
10
42.5862001318114
20
-22.2488436746851
30
0
41
1
10
42.4252037121398
20
-22.2756314291792
30
0
41
1
10
41.9518738891291
20
-22.357125061188
30
0
41
1
10
41.6467743529646
20
-22.4133599266473
30
0
41
1
10
41.3518279003089
20
-22.4694446513456
30
0
0
SPLINE
5
2FF
100
AcDbEntity
8
1
62
256
6
ByLayer
370
13
48
1
60
0
100
AcDbSpline
70
4
71
3
72
56
73
52
40
0
40
0
40
0
40
0
40
0.0312500000000046
40
0.0312500000000046
40
0.0625000000000092
40
0.0625000000000092
40
0.0937500000000139
40
0.0937500000000139
40
0.109375000000016
40
0.109375000000016
40
0.125000000000018
40
0.125000000000018
40
0.140625000000019
40
0.140625000000019
40
0.14843750000002
40
0.14843750000002
40
0.15625000000002
40
0.15625000000002
40
0.17187500000002
40
0.17187500000002
40
0.18750000000002
40
0.18750000000002
40
0.218750000000019
40
0.218750000000019
40
0.250000000000018
40
0.250000000000018
40
0.281250000000017
40
0.281250000000017
40
0.312500000000016
40
0.312500000000016
40
0.375000000000014
40
0.375000000000014
40
0.437500000000012
40
0.437500000000012
40
0.468750000000011
40
0.468750000000011
40
0.50000000000001
40
0.50000000000001
40
0.625000000000006
40
0.625000000000006
40
0.656250000000005
40
0.656250000000005
40
0.687500000000004
40
0.687500000000004
40
0.750000000000003
40
0.750000000000003
40
0.812500000000002
40
0.812500000000002
40
0.875000000000001
40
0.875000000000001
40
1
40
1
40
1
40
1
41
1
10
199.329803450535
20
-21.5901475802787
30
0
41
1
10
198.472293595814
20
-21.5801164387216
30
0
41
1
10
197.613992512164
20
-21.5701442698864
30
0
41
1
10
195.898413254303
20
-21.5481978638848
30
0
41
1
10
195.041204260412
20
-21.5361905874847
30
0
41
1
10
193.331637786804
20
-21.5056815596478
30
0
41
1
10
192.479267842228
20
-21.4872428121497
30
0
41
1
10
191.207219963834
20
-21.4495650685329
30
0
41
1
10
190.784223383606
20
-21.4352816715006
30
0
41
1
10
189.947191541039
20
-21.4020719139215
30
0
41
1
10
189.532505122624
20
-21.3831283073807
30
0
41
1
10
188.712280529475
20
-21.3388825598603
30
0
41
1
10
188.306591386814
20
-21.3136632508629
30
0
41
1
10
187.706452265418
20
-21.2692219733748
30
0
41
1
10
187.508122071543
20
-21.2531289195426
30
0
41
1
10
187.113929573106
20
-21.2186543336407
30
0
41
1
10
186.917655869079
20
-21.200495353129
30
0
41
1
10
186.328864368314
20
-21.1445231864821
30
0
41
1
10
185.937153763348
20
-21.1047888258968
30
0
41
1
10
185.15472210583
20
-21.02063503796
30
0
41
1
10
184.763875769936
20
-20.9762855117907
30
0
41
1
10
183.5899678364
20
-20.8381010802057
30
0
41
1
10
182.805900282947
20
-20.7388673528821
30
0
41
1
10
181.238200126848
20
-20.5248855457458
30
0
41
1
10
180.454888823671
20
-20.4101916905622
30
0
41
1
10
178.889506207172
20
-20.1652244922245
30
0
41
1
10
178.107435409057
20
-20.0349505386753
30
0
41
1
10
176.544689038449
20
-19.7584958016722
30
0
41
1
10
175.764026406345
20
-19.6122761556878
30
0
41
1
10
173.421928710918
20
-19.1516822899339
30
0
41
1
10
171.860347430585
20
-18.815193724994
30
0
41
1
10
168.725605744107
20
-18.0990569793017
30
0
41
1
10
167.152174706857
20
-17.7198307391798
30
0
41
1
10
164.776692875304
20
-17.1331432256549
30
0
41
1
10
163.982767232206
20
-16.9346045422545
30
0
41
1
10
162.392274172283
20
-16.5341292457492
30
0
41
1
10
161.595378224102
20
-16.332150104024
30
0
41
1
10
157.601803039068
20
-15.3176603556616
30
0
41
1
10
154.377846950096
20
-14.4911630131609
30
0
41
1
10
150.299385187444
20
-13.504108118514
30
0
41
1
10
149.48130230823
20
-13.3089362019533
30
0
41
1
10
147.840193878908
20
-12.9243927001715
30
0
41
1
10
147.016940886044
20
-12.7349714426839
30
0
41
1
10
144.542462342169
20
-12.178071679141
30
0
41
1
10
142.88578341786
20
-11.8219393490543
30
0
41
1
10
139.55723468429
20
-11.1493990173213
30
0
41
1
10
137.884669043774
20
-10.8323369882653
30
0
41
1
10
134.531517451544
20
-10.2402584961955
30
0
41
1
10
132.850555918232
20
-9.96508659267823
30
0
41
1
10
127.794836662698
20
-9.20514406871834
30
0
41
1
10
124.407136652446
20
-8.78671109716657
30
0
41
1
10
121
20
-8.47900989704482
30
0
0
SPLINE
5
300
100
AcDbEntity
8
1
62
256
6
ByLayer
370
13
48
1
60
0
100
AcDbSpline
70
4
71
3
72
8
73
4
40
0
40
0
40
0
40
0
40
1
40
1
40
1
40
1
41
1
10
47.0099999999995
20
-21.2411999345544
30
0
41
1
10
46.4216660496602
20
-21.2414206889265
30
0
41
1
10
45.8333320996678
20
-21.2416421222012
30
0
41
1
10
45.2449981495083
20
-21.2418632282169
30
0
0
SPLINE
5
301
100
AcDbEntity
8
1
62
256
6
ByLayer
370
13
48
1
60
0
100
AcDbSpline
70
4
71
3
72
26
73
22
40
0
40
0
40
0
40
0
40
0.0625000000000002
40
0.0625000000000002
40
0.125
40
0.125
40
0.1875
40
0.1875
40
0.250000000000001
40
0.250000000000001
40
0.312500000000001
40
0.312500000000001
40
0.375000000000001
40
0.375000000000001
40
0.500000000000001
40
0.500000000000001
40
0.625
40
0.625
40
0.75
40
0.75
40
1
40
1
40
1
40
1
41
1
10
121
20
-8.47900989704482
30
0
41
1
10
119.568180283927
20
-8.35002218377744
30
0
41
1
10
118.134827967258
20
-8.24061748978565
30
0
41
1
10
115.265030450399
20
-8.06226249362513
30
0
41
1
10
113.828339986946
20
-7.99351948847016
30
0
41
1
10
110.953065802076
20
-7.89441591714149
30
0
41
1
10
109.515326576504
20
-7.86512077342204
30
0
41
1
10
106.639710483987
20
-7.83422954942807
30
0
41
1
10
105.201837227544
20
-7.83188661538952
30
0
41
1
10
102.326044256125
20
-7.83656976560954
30
0
41
1
10
100.88812458004
20
-7.84357966094683
30
0
41
1
10
98.0123106677858
20
-7.8524763783854
30
0
41
1
10
96.5744118460126
20
-7.85528735679412
30
0
41
1
10
92.260731614173
20
-7.86045462342463
30
0
41
1
10
89.3849655603648
20
-7.85972114629143
30
0
41
1
10
83.6334364042719
20
-7.85765617792921
30
0
41
1
10
80.7576733821938
20
-7.8560337688798
30
0
41
1
10
75.0061404258211
20
-7.85559011194624
30
0
41
1
10
72.1303727035427
20
-7.85646210417843
30
0
41
1
10
63.503069234526
20
-7.85934195566389
30
0
41
1
10
57.7515333922218
20
-7.86143145073703
30
0
41
1
10
52
20
-7.86134331648518
30
0
0
SPLINE
5
302
100
AcDbEntity
8
1
62
256
6
ByLayer
370
13
48
1
60
0
100
AcDbSpline
70
4
71
3
72
10
73
6
40
0
40
0
40
0
40
0
40
0.45235590403543
40
0.45235590403543
40
1
40
1
40
1
40
1
41
1
10
47.45
20
-21.2274947827549
30
0
41
1
10
47.45
20
-19.9357803096744
30
0
41
1
10
47.45
20
-18.6440658394246
30
0
41
1
10
47.45
20
-15.7885389061023
30
0
41
1
10
47.45
20
-14.2247264443474
30
0
41
1
10
47.45
20
-12.6609139867369
30
0
0
SPLINE
5
303
100
AcDbEntity
8
1
62
256
6
ByLayer
370
13
48
1
60
0
100
AcDbSpline
70
4
71
3
72
8
73
4
40
0
40
0
40
0
40
0
40
1
40
1
40
1
40
1
41
1
10
209.036313271988
20
10.3545843154149
30
0
41
1
10
209.167860083968
20
11.6124361132057
30
0
41
1
10
209.29600175437
20
12.8685747557405
30
0
41
1
10
209.419847196482
20
14.123310012083
30
0
0
SPLINE
5
304
100
AcDbEntity
8
1
62
256
6
ByLayer
370
13
48
1
60
0
100
AcDbSpline
70
4
71
3
72
14
73
10
40
0
40
0
40
0
40
0
40
0.349925637930772
40
0.349925637930772
40
0.524888456896158
40
0.524888456896158
40
0.699851275861544
40
0.699851275861544
40
1
40
1
40
1
40
1
41
1
10
121
20
21.6991471194128
30
0
41
1
10
119.571119311785
20
21.7097540385067
30
0
41
1
10
118.140074969179
20
21.7175099105444
30
0
41
1
10
115.99014900417
20
21.7271925657327
30
0
41
1
10
115.272941815624
20
21.7300859631059
30
0
41
1
10
113.837360137427
20
21.7354941533405
30
0
41
1
10
113.118840159851
20
21.7380100082793
30
0
41
1
10
111.167162867387
20
21.7446260290022
30
0
41
1
10
109.934019779525
20
21.7485939112927
30
0
41
1
10
108.700766844208
20
21.7525523175401
30
0
0
SPLINE
5
305
100
AcDbEntity
8
1
62
256
6
ByLayer
370
13
48
1
60
0
100
AcDbSpline
70
4
71
3
72
14
73
10
40
0
40
0
40
0
40
0
40
0.164839744420784
40
0.164839744420784
40
0.443226496280523
40
0.443226496280523
40
0.721613248140261
40
0.721613248140261
40
1
40
1
40
1
40
1
41
1
10
82.9962610751613
20
21.8363834871086
30
0
41
1
10
81.2931235407802
20
21.8419402624869
30
0
41
1
10
79.5899831349232
20
21.8474945135466
30
0
41
1
10
75.0105231617994
20
21.8624284355059
30
0
41
1
10
72.1342029027495
20
21.8718070519704
30
0
41
1
10
66.3815678586113
20
21.8905727188465
30
0
41
1
10
63.5052539616199
20
21.8999608022342
30
0
41
1
10
57.7526275704813
20
21.9187330784446
30
0
41
1
10
54.8763143490004
20
21.9281166400325
30
0
41
1
10
52.0000000000001
20
21.9374979856
30
0
0
SPLINE
5
306
100
AcDbEntity
8
1
62
256
6
ByLayer
370
13
48
1
60
0
100
AcDbSpline
70
4
71
3
72
14
73
10
40
0
40
0
40
0
40
0
40
0.551077763099497
40
0.551077763099497
40
0.826616644649245
40
0.826616644649245
40
0.96438608542412
40
0.96438608542412
40
1
40
1
40
1
40
1
41
1
10
18.7907681114296
20
-22.0079142322639
30
0
41
1
10
19.084437927591
20
-20.820107168865
30
0
41
1
10
19.4750007474192
20
-19.6518668638525
30
0
41
1
10
20.2118180334106
20
-17.9281487106473
30
0
41
1
10
20.4827925025392
20
-17.3583957308872
30
0
41
1
10
20.9298025102635
20
-16.5112914202161
30
0
41
1
10
21.0857999367699
20
-16.2297972139728
30
0
41
1
10
21.2903560231907
20
-15.8782767333404
30
0
41
1
10
21.3327805676447
20
-15.8062729738235
30
0
41
1
10
21.375609377782
20
-15.7344684045159
30
0
0
SPLINE
5
307
100
AcDbEntity
8
1
62
256
6
ByLayer
370
13
48
1
60
0
100
AcDbSpline
70
4
71
2
72
16
73
13
40
0
40
0
40
0
40
0.305433704558385
40
0.305433704558385
40
0.458150556837577
40
0.458150556837577
40
0.61086740911677
40
0.61086740911677
40
0.763584261395963
40
0.763584261395963
40
0.916301113675155
40
0.916301113675155
40
1
40
1
40
1
41
1
10
46.9999999999988
20
-12.6660648794565
30
0
41
1
10
42.9252278414543
20
-13.3621399039294
30
0
41
1
10
39.3306859476686
20
-15.0522709070751
30
0
41
1
10
37.4987353039958
20
-15.9136425840771
30
0
41
1
10
35.8411676060063
20
-17.0183902056879
30
0
41
1
10
34.1718401256437
20
-18.1309755714964
30
0
41
1
10
32.7610896872848
20
-19.4352941289992
30
0
41
1
10
31.3560638925733
20
-20.7343199297243
30
0
41
1
10
30.2090043220105
20
-22.2213798070986
30
0
41
1
10
29.0793067983284
20
-23.6859313475324
30
0
41
1
10
28.2543539347712
20
-25.2607060816557
30
0
41
1
10
27.8162913606723
20
-26.0969355247313
30
0
41
1
10
27.4678467161857
20
-26.9515285438479
30
0
0
SPLINE
5
308
100
AcDbEntity
8
1
62
256
6
ByLayer
370
13
48
1
60
0
100
AcDbSpline
70
4
71
3
72
18
73
14
40
0
40
0
40
0
40
0
40
0.124999999999999
40
0.124999999999999
40
0.249999999999999
40
0.249999999999999
40
0.374999999999998
40
0.374999999999998
40
0.499999999999998
40
0.499999999999998
40
0.749999999999999
40
0.749999999999999
40
1
40
1
40
1
40
1
41
1
10
5.5
20
4.071
30
0
41
1
10
5.53311836198864
20
4.071
30
0
41
1
10
5.56567694370484
20
4.06774205109016
30
0
41
1
10
5.62972133566619
20
4.05498192252259
30
0
41
1
10
5.66154354218742
20
4.04532095818553
30
0
41
1
10
5.72214649856305
20
4.02014098073175
30
0
41
1
10
5.7508789788518
20
4.00473867431307
30
0
41
1
10
5.80523848848543
20
3.96836502711199
30
0
41
1
10
5.83093052062637
20
3.94722698913094
30
0
41
1
10
5.89997612824277
20
3.87802788825485
30
0
41
1
10
5.93710206073186
20
3.82231798197651
30
0
41
1
10
5.98680620220954
20
3.70229608162887
30
0
41
1
10
6
20
3.63685881207022
30
0
41
1
10
6
20
3.571
30
0
0
SPLINE
5
309
100
AcDbEntity
8
1
62
256
6
ByLayer
370
13
48
1
60
0
100
AcDbSpline
70
4
71
3
72
20
73
16
40
0
40
0
40
0
40
0
40
0.125
40
0.125
40
0.250000000000001
40
0.250000000000001
40
0.375000000000001
40
0.375000000000001
40
0.500000000000001
40
0.500000000000001
40
0.625000000000002
40
0.625000000000002
40
0.750000000000002
40
0.750000000000002
40
1
40
1
40
1
40
1
41
1
10
6
20
-3.571
30
0
41
1
10
6
20
-3.60393322509643
30
0
41
1
10
5.99677802951547
20
-3.63631595001573
30
0
41
1
10
5.98415574729458
20
-3.70002633954874
30
0
41
1
10
5.97460706229406
20
-3.73167708988237
30
0
41
1
10
5.94964138722897
20
-3.79211448094432
30
0
41
1
10
5.93436036703305
20
-3.82078736336274
30
0
41
1
10
5.89825058475375
20
-3.87507092443721
30
0
41
1
10
5.87720587398627
20
-3.90081594433366
30
0
41
1
10
5.83118489707979
20
-3.94700451121324
30
0
41
1
10
5.80606785289076
20
-3.96773917479186
30
0
41
1
10
5.75151945639119
20
-4.00437912552908
30
0
41
1
10
5.72235822232544
20
-4.02002157401955
30
0
41
1
10
5.63204318454247
20
-4.05764032847557
30
0
41
1
10
5.56624413343685
20
-4.071
30
0
41
1
10
5.5
20
-4.071
30
0
0
SPLINE
5
30A
100
AcDbEntity
8
1
62
256
6
ByLayer
370
13
48
1
60
0
100
AcDbSpline
70
4
71
3
72
8
73
4
40
0
40
0
40
0
40
0
40
1
40
1
40
1
40
1
41
1
10
209.036281172837
20
10.3545893895145
30
0
41
1
10
209.412217982532
20
10.3641066930564
30
0
41
1
10
209.773867447982
20
10.3436408249123
30
0
41
1
10
210.121349742162
20
10.2921877318348
30
0
0
SPLINE
5
30B
100
AcDbEntity
8
1
62
256
6
ByLayer
370
13
48
1
60
0
100
AcDbSpline
70
4
71
3
72
8
73
4
40
0
40
0
40
0
40
0
40
1
40
1
40
1
40
1
41
1
10
208.357976789043
20
8.2298676663581
30
0
41
1
10
208.358510794033
20
8.23170573982355
30
0
41
1
10
208.359085113823
20
8.2335339595914
30
0
41
1
10
208.35969844592
20
8.23535265599062
30
0
0
SPLINE
5
30C
100
AcDbEntity
8
1
62
256
6
ByLayer
370
13
48
1
60
0
100
AcDbSpline
70
4
71
3
72
14
73
10
40
0
40
0
40
0
40
0
40
0.500000000000039
40
0.500000000000039
40
0.75000000000002
40
0.75000000000002
40
0.87500000000001
40
0.87500000000001
40
1
40
1
40
1
40
1
41
1
10
220.316566613709
20
7.47427254876925
30
0
41
1
10
220.475170997127
20
7.42518101631129
30
0
41
1
10
220.633513164593
20
7.39213646157006
30
0
41
1
10
220.872355969918
20
7.3631515247454
30
0
41
1
10
220.952180872772
20
7.35697302050141
30
0
41
1
10
221.072406325107
20
7.35287221250391
30
0
41
1
10
221.112562798394
20
7.35236860289149
30
0
41
1
10
221.193068354884
20
7.35310424330928
30
0
41
1
10
221.23365743287
20
7.35436310654458
30
0
41
1
10
221.273390009808
20
7.35644540266711
30
0
0
SPLINE
5
30D
100
AcDbEntity
8
1
62
256
6
ByLayer
370
13
48
1
60
0
100
AcDbSpline
70
4
71
3
72
12
73
8
40
0
40
0
40
0
40
0
40
0.250000000000063
40
0.250000000000063
40
0.500000000000125
40
0.500000000000125
40
1
40
1
40
1
40
1
41
1
10
208.805556618059
20
10.2320822832548
30
0
41
1
10
208.811356897685
20
10.2540498247619
30
0
41
1
10
208.824575840957
20
10.2735039152438
30
0
41
1
10
208.857654339471
20
10.3046472431713
30
0
41
1
10
208.877606308119
20
10.3168082495346
30
0
41
1
10
208.940859159141
20
10.3449304231865
30
0
41
1
10
208.988252467695
20
10.3533737066969
30
0
41
1
10
209.036313889251
20
10.354590217695
30
0
0
SPLINE
5
30E
100
AcDbEntity
8
1
62
256
6
ByLayer
370
13
48
1
60
0
100
AcDbSpline
70
4
71
3
72
10
73
6
40
0
40
0
40
0
40
0
40
0.5
40
0.5
40
1
40
1
40
1
40
1
41
1
10
225.633042717522
20
7.75289725498143
30
0
41
1
10
225.658906601917
20
7.76462064198881
30
0
41
1
10
225.686819114755
20
7.77427292108021
30
0
41
1
10
225.744210755757
20
7.78818459763033
30
0
41
1
10
225.77381721554
20
7.7925606565307
30
0
41
1
10
225.804342502336
20
7.79417699365288
30
0
0
SPLINE
5
30F
100
AcDbEntity
8
1
62
256
6
ByLayer
370
13
48
1
60
0
100
AcDbSpline
70
4
71
3
72
12
73
8
40
0
40
0
40
0
40
0
40
0.25
40
0.25
40
0.500000000000001
40
0.500000000000001
40
1
40
1
40
1
40
1
41
1
10
205.192492284576
20
20.1883585735638
30
0
41
1
10
205.476243669442
20
19.6392003326532
30
0
41
1
10
205.775835181336
20
19.0985965397151
30
0
41
1
10
206.410172030677
20
18.0363737493012
30
0
41
1
10
206.745415493616
20
17.5141695483349
30
0
41
1
10
207.80096232447
20
15.9900703435022
30
0
41
1
10
208.573125193473
20
15.0274488045291
30
0
41
1
10
209.41981714783
20
14.1230055761626
30
0
0
SPLINE
5
310
100
AcDbEntity
8
1
62
256
6
ByLayer
370
13
48
1
60
0
100
AcDbSpline
70
4
71
1
72
4
73
2
40
0
40
0
40
1
40
1
41
1
10
47.4499999999816
20
-12.6609139869306
30
0
41
1
10
46.9999999999815
20
-12.6609139869306
30
0
0
SPLINE
5
311
100
AcDbEntity
8
1
62
256
6
ByLayer
370
13
48
1
60
0
100
AcDbSpline
70
4
71
3
72
8
73
4
40
0
40
0
40
0
40
0
40
1
40
1
40
1
40
1
41
1
10
52
20
21.9374979856
30
0
41
1
10
50.3333333851986
20
21.9374981910465
30
0
41
1
10
48.6666666837509
20
21.9374982807161
30
0
41
1
10
47
20
21.9374982807161
30
0
0
SPLINE
5
312
100
AcDbEntity
8
1
62
256
6
ByLayer
370
13
48
1
60
0
100
AcDbSpline
70
4
71
3
72
8
73
4
40
0
40
0
40
0
40
0
40
1
40
1
40
1
40
1
41
1
10
45.2449981495083
20
-21.2418632282169
30
0
41
1
10
45.2449981512314
20
-21.4689322080187
30
0
41
1
10
45.2449981529809
20
-21.6960011877996
30
0
41
1
10
45.2449981547569
20
-21.9230701675598
30
0
0
SPLINE
5
313
100
AcDbEntity
8
1
62
256
6
ByLayer
370
13
48
1
60
0
100
AcDbSpline
70
4
71
3
72
10
73
6
40
0
40
0
40
0
40
0
40
0.5
40
0.5
40
1
40
1
40
1
40
1
41
1
10
210.432035426353
20
10.2612898172908
30
0
41
1
10
210.686948393109
20
10.2131346237586
30
0
41
1
10
210.932795807342
20
10.1836668532244
30
0
41
1
10
211.415047819885
20
10.1483222335024
30
0
41
1
10
211.651314290185
20
10.1423458698582
30
0
41
1
10
211.884617934565
20
10.1440794099602
30
0
0
SPLINE
5
314
100
AcDbEntity
8
1
62
256
6
ByLayer
370
13
48
1
60
0
100
AcDbSpline
70
4
71
3
72
10
73
6
40
0
40
0
40
0
40
0
40
0.806108221291213
40
0.806108221291213
40
1
40
1
40
1
40
1
41
1
10
212.85566143541
20
15.5128378589932
30
0
41
1
10
212.81925528529
20
15.4637133815384
30
0
41
1
10
212.787621083916
20
15.4159411396839
30
0
41
1
10
212.758382811686
20
15.3659380059625
30
0
41
1
10
212.753194300718
20
15.3566887325101
30
0
41
1
10
212.748673453251
20
15.3482191642062
30
0
0
SPLINE
5
315
100
AcDbEntity
8
1
62
256
6
ByLayer
370
13
48
1
60
0
100
AcDbSpline
70
4
71
3
72
8
73
4
40
0
40
0
40
0
40
0
40
1
40
1
40
1
40
1
41
1
10
52
20
-7.86134331648515
30
0
41
1
10
50.3333332863763
20
-7.86111782675152
30
0
41
1
10
48.6666665810163
20
-7.86070546356675
30
0
41
1
10
47
20
-7.86004506345432
30
0
0
SPLINE
5
316
100
AcDbEntity
8
1
62
256
6
ByLayer
370
13
48
1
60
0
100
AcDbSpline
70
4
71
3
72
47
73
43
40
0
40
0
40
0
40
0
40
0.125000000000004
40
0.125000000000004
40
0.250000000000007
40
0.250000000000007
40
0.312500000000009
40
0.312500000000009
40
0.375000000000011
40
0.375000000000011
40
0.406250000000013
40
0.406250000000013
40
0.437500000000016
40
0.437500000000016
40
0.500000000000022
40
0.500000000000022
40
0.562500000000028
40
0.562500000000028
40
0.578125000000029
40
0.578125000000029
40
0.593750000000029
40
0.593750000000029
40
0.625000000000027
40
0.625000000000027
40
0.687500000000022
40
0.687500000000022
40
0.703125000000022
40
0.703125000000022
40
0.718750000000022
40
0.718750000000022
40
0.750000000000019
40
0.781250000000016
40
0.781250000000016
40
0.812500000000013
40
0.812500000000013
40
0.875000000000009
40
0.875000000000009
40
0.906250000000006
40
0.906250000000006
40
0.937500000000004
40
0.937500000000004
40
1
40
1
40
1
40
1
41
1
10
209.048628268947
20
1.67599695817123
30
0
41
1
10
209.869589376462
20
1.51725589979702
30
0
41
1
10
210.696208898807
20
1.37341649408191
30
0
41
1
10
212.36846626675
20
1.13582316696872
30
0
41
1
10
213.214025014805
20
1.04186093915959
30
0
41
1
10
214.504318528747
20
0.958737964680608
30
0
41
1
10
214.939470078184
20
0.940799037666096
30
0
41
1
10
215.804346833198
20
0.929185542045872
30
0
41
1
10
216.235414183481
20
0.935348759928189
30
0
41
1
10
216.879590321559
20
0.965764441575118
30
0
41
1
10
217.093910589631
20
0.979439889009939
30
0
41
1
10
217.521662844091
20
1.01454606481011
30
0
41
1
10
217.735714260187
20
1.03605329469033
30
0
41
1
10
218.371901934479
20
1.1128885220171
30
0
41
1
10
218.78514573399
20
1.18002358021084
30
0
41
1
10
219.587448510039
20
1.3496587718777
30
0
41
1
10
219.976543495794
20
1.4521062496566
30
0
41
1
10
220.445330094003
20
1.60587566689466
30
0
41
1
10
220.53820268961
20
1.63792326798168
30
0
41
1
10
220.722089159562
20
1.70473644818074
30
0
41
1
10
220.81325392514
20
1.73957137028452
30
0
41
1
10
221.080927292836
20
1.84717183471145
30
0
41
1
10
221.252509533693
20
1.92332647873548
30
0
41
1
10
221.746228153024
20
2.16532903349696
30
0
41
1
10
222.047502818774
20
2.34460843893473
30
0
41
1
10
222.385752788631
20
2.59339448318565
30
0
41
1
10
222.451433703375
20
2.64438730113389
30
0
41
1
10
222.577325364022
20
2.74765436456079
30
0
41
1
10
222.637744585037
20
2.80007713748756
30
0
41
1
10
222.811513240367
20
2.95968481024514
30
0
41
1
10
223.023259385753
20
3.17872541729881
30
0
41
1
10
223.195460607831
20
3.41011873877659
30
0
41
1
10
223.347653872093
20
3.64776197980029
30
0
41
1
10
223.413998608868
20
3.77041808527184
30
0
41
1
10
223.579106491428
20
4.14065374915864
30
0
41
1
10
223.645388007343
20
4.39142867674593
30
0
41
1
10
223.684202832328
20
4.77305959983175
30
0
41
1
10
223.686951926609
20
4.90159866812675
30
0
41
1
10
223.67249442162
20
5.15860782047326
30
0
41
1
10
223.655411660696
20
5.28622786972321
30
0
41
1
10
223.576763779663
20
5.66662854298386
30
0
41
1
10
223.48793879166
20
5.91696223514447
30
0
41
1
10
223.366183846653
20
6.16434003034595
30
0
0
SPLINE
5
317
100
AcDbEntity
8
1
62
256
6
ByLayer
370
13
48
1
60
0
100
AcDbSpline
70
4
71
3
72
8
73
4
40
0
40
0
40
0
40
0
40
1
40
1
40
1
40
1
41
1
10
210.170554943916
20
10.2828453553713
30
0
41
1
10
210.15423341881
20
10.2864629663231
30
0
41
1
10
210.137833655643
20
10.2895894625735
30
0
41
1
10
210.121349742162
20
10.2921877318346
30
0
0
SPLINE
5
318
100
AcDbEntity
8
1
62
256
6
ByLayer
370
13
48
1
60
0
100
AcDbSpline
70
4
71
3
72
8
73
4
40
0
40
0
40
0
40
0
40
1
40
1
40
1
40
1
41
1
10
216.929956732343
20
6.30040657534164
30
0
41
1
10
216.951391865019
20
6.32373333105883
30
0
41
1
10
216.972435739482
20
6.3474855251911
30
0
41
1
10
216.993058048494
20
6.37163483058069
30
0
0
SPLINE
5
319
100
AcDbEntity
8
1
62
256
6
ByLayer
370
13
48
1
60
0
100
AcDbSpline
70
4
71
3
72
8
73
4
40
0
40
0
40
0
40
0
40
1
40
1
40
1
40
1
41
1
10
47
20
-21.8541753248575
30
0
41
1
10
46.4134881414209
20
-21.854158118801
30
0
41
1
10
45.8284914302728
20
-21.8771823021234
30
0
41
1
10
45.2449981547569
20
-21.9230701675608
30
0
0
SPLINE
5
31A
100
AcDbEntity
8
1
62
256
6
ByLayer
370
13
48
1
60
0
100
AcDbSpline
70
4
71
3
72
10
73
6
40
0
40
0
40
0
40
0
40
0.5
40
0.5
40
1
40
1
40
1
40
1
41
1
10
216.622237410308
20
7.07828264839395
30
0
41
1
10
216.672552968058
20
7.07574048027013
30
0
41
1
10
216.720980192396
20
7.06834298254833
30
0
41
1
10
216.813185285844
20
7.04855967792167
30
0
41
1
10
216.855975529441
20
7.03656178105507
30
0
41
1
10
216.894599543143
20
7.02641797158662
30
0
0
SPLINE
5
31B
100
AcDbEntity
8
1
62
256
6
ByLayer
370
13
48
1
60
0
100
AcDbSpline
70
4
71
3
72
8
73
4
40
0
40
0
40
0
40
0
40
1
40
1
40
1
40
1
41
1
10
-2.84E-14
20
-26.7613352297609
30
0
41
1
10
0.166657416166501
20
-26.9067424437056
30
0
41
1
10
0.333324220354257
20
-27.0521415880536
30
0
41
1
10
0.499999999999972
20
-27.197533014896
30
0
0
SPLINE
5
31C
100
AcDbEntity
8
1
62
256
6
ByLayer
370
13
48
1
60
0
100
AcDbSpline
70
4
71
3
72
18
73
14
40
0
40
0
40
0
40
0
40
0.124999999999994
40
0.124999999999994
40
0.249999999999988
40
0.249999999999988
40
0.499999999999976
40
0.499999999999976
40
0.624999999999978
40
0.624999999999978
40
0.74999999999998
40
0.74999999999998
40
1
40
1
40
1
40
1
41
1
10
210.170554943914
20
10.2828453553629
30
0
41
1
10
210.275405565293
20
10.2141847466405
30
0
41
1
10
210.378267575856
20
10.1411146048058
30
0
41
1
10
210.577129282798
20
9.98803963485466
30
0
41
1
10
210.672437675423
20
9.90863768403884
30
0
41
1
10
210.946884939992
20
9.66283451629653
30
0
41
1
10
211.114611633196
20
9.48890943264306
30
0
41
1
10
211.346236417918
20
9.21656992338126
30
0
41
1
10
211.420100730024
20
9.12386422641717
30
0
41
1
10
211.561438355192
20
8.93501810283706
30
0
41
1
10
211.629174962735
20
8.83845100990897
30
0
41
1
10
211.820183425175
20
8.54862979829025
30
0
41
1
10
211.932147906213
20
8.35472002007339
30
0
41
1
10
212.030269290522
20
8.16037079655888
30
0
0
SPLINE
5
31D
100
AcDbEntity
8
1
62
256
6
ByLayer
370
13
48
1
60
0
100
AcDbSpline
70
4
71
3
72
10
73
6
40
0
40
0
40
0
40
0
40
0.582750643059782
40
0.582750643059782
40
1
40
1
40
1
40
1
41
1
10
208.359698445921
20
8.23535265599051
30
0
41
1
10
205.035820475615
20
8.35409823690674
30
0
41
1
10
201.71455705479
20
8.41133703181913
30
0
41
1
10
196.016161181045
20
8.4057394452326
30
0
41
1
10
193.638768804234
20
8.37241298147475
30
0
41
1
10
191.260884215273
20
8.30896434122502
30
0
0
SPLINE
5
31E
100
AcDbEntity
8
1
62
256
6
ByLayer
370
13
48
1
60
0
100
AcDbSpline
70
4
71
3
72
10
73
6
40
0
40
0
40
0
40
0
40
0.246432795276287
40
0.246432795276287
40
1
40
1
40
1
40
1
41
1
10
0
20
4.071
30
0
41
1
10
0.0410698531254923
20
4.071
30
0
41
1
10
0.0821402764839974
20
4.071
30
0
41
1
10
0.248802294970289
20
4.071
30
0
41
1
10
0.374398598796674
20
4.071
30
0
41
1
10
0.5
20
4.071
30
0
0
SPLINE
5
31F
100
AcDbEntity
8
1
62
256
6
ByLayer
370
13
48
1
60
0
100
AcDbSpline
70
4
71
3
72
20
73
16
40
0
40
0
40
0
40
0
40
0.0624999999999991
40
0.0624999999999991
40
0.124999999999998
40
0.124999999999998
40
0.249999999999997
40
0.249999999999997
40
0.281249999999997
40
0.281249999999997
40
0.312499999999997
40
0.374999999999997
40
0.499999999999998
40
0.499999999999998
40
1
40
1
40
1
40
1
41
1
10
41.3392311399815
20
-8.88852100325445
30
0
41
1
10
41.044261654028
20
-8.9485711223023
30
0
41
1
10
40.7504112209193
20
-9.01333058608714
30
0
41
1
10
40.1649591054469
20
-9.15231300104605
30
0
41
1
10
39.8729799077226
20
-9.22664361657647
30
0
41
1
10
39.0040304246718
20
-9.46296050559852
30
0
41
1
10
38.4337939516155
20
-9.63824133304612
30
0
41
1
10
37.7321782373256
20
-9.87922087722899
30
0
41
1
10
37.5919248104203
20
-9.9275532170081
30
0
41
1
10
37.3108128885249
20
-10.0230338058975
30
0
41
1
10
36.8885916524848
20
-10.1651718022417
30
0
41
1
10
35.8995531583561
20
-10.4892818739094
30
0
41
1
10
35.0452534525806
20
-10.7542677094578
30
0
41
1
10
32.1832239226888
20
-11.6094444398674
30
0
41
1
10
29.8478208032139
20
-12.2039974375875
30
0
41
1
10
27.467519569329
20
-12.7106868714478
30
0
0
SPLINE
5
320
100
AcDbEntity
8
1
62
256
6
ByLayer
370
13
48
1
60
0
100
AcDbSpline
70
4
71
3
72
8
73
4
40
0
40
0
40
0
40
0
40
1
40
1
40
1
40
1
41
1
10
47.45
20
-21.2274947323378
30
0
41
1
10
47.303333332454
20
-21.2275460842442
30
0
41
1
10
47.1566666657464
20
-21.2275992290358
30
0
41
1
10
47.01
20
-21.2276542279322
30
0
0
SPLINE
5
321
100
AcDbEntity
8
1
62
256
6
ByLayer
370
13
48
1
60
0
100
AcDbSpline
70
4
71
3
72
18
73
14
40
0
40
0
40
0
40
0
40
0.499999999999995
40
0.499999999999995
40
0.624999999999993
40
0.624999999999993
40
0.687499999999993
40
0.687499999999993
40
0.718749999999993
40
0.718749999999993
40
0.749999999999993
40
0.749999999999993
40
1
40
1
40
1
40
1
41
1
10
27.4676091095438
20
-26.9521113165276
30
0
41
1
10
29.8466820639421
20
-26.3585604816503
30
0
41
1
10
32.1829933515283
20
-25.6616198898421
30
0
41
1
10
35.0485888912928
20
-24.6579634897875
30
0
41
1
10
35.6189571799751
20
-24.4505812404167
30
0
41
1
10
36.4703210890224
20
-24.1293807944273
30
0
41
1
10
36.7534170791333
20
-24.0206237680642
30
0
41
1
10
37.1771564091888
20
-23.8548715290835
30
0
41
1
10
37.3182457647075
20
-23.7991869867275
30
0
41
1
10
37.6001084759721
20
-23.6869452727107
30
0
41
1
10
37.740761922402
20
-23.6300569730171
30
0
41
1
10
39.0075908328224
20
-23.1206798688554
30
0
41
1
10
40.1641729319626
20
-22.7521585959391
30
0
41
1
10
41.3518279003089
20
-22.4694446513456
30
0
0
SPLINE
5
322
100
AcDbEntity
8
1
62
256
6
ByLayer
370
13
48
1
60
0
100
AcDbSpline
70
4
71
3
72
16
73
12
40
0
40
0
40
0
40
0
40
0.249999999999999
40
0.249999999999999
40
0.499999999999998
40
0.499999999999998
40
0.749999999999998
40
0.749999999999998
40
0.874999999999999
40
0.874999999999999
40
1
40
1
40
1
40
1
41
1
10
45.2449981495083
20
-21.2418632282169
30
0
41
1
10
44.8890940835471
20
-21.2419969830852
30
0
41
1
10
44.5393333465027
20
-21.2707729308936
30
0
41
1
10
43.8512070826462
20
-21.3814529943964
30
0
41
1
10
43.5123965089665
20
-21.4635271876982
30
0
41
1
10
42.8477618567289
20
-21.6790713213229
30
0
41
1
10
42.5304519127431
20
-21.8096419415624
30
0
41
1
10
42.074099024915
20
-22.0352916006105
30
0
41
1
10
41.9252679291119
20
-22.1155009104116
30
0
41
1
10
41.6338712210016
20
-22.285437776365
30
0
41
1
10
41.4910399617009
20
-22.3753480940346
30
0
41
1
10
41.3518279003089
20
-22.4694446513456
30
0
0
SPLINE
5
323
100
AcDbEntity
8
1
62
256
6
ByLayer
370
13
48
1
60
0
100
AcDbSpline
70
4
71
3
72
8
73
4
40
0
40
0
40
0
40
0
40
1
40
1
40
1
40
1
41
1
10
230.027701013168
20
0.584821816074282
30
0
41
1
10
230.178840429693
20
0.608776065563461
30
0
41
1
10
230.328685758432
20
0.617675754420276
30
0
41
1
10
230.478737105266
20
0.613705596964309
30
0
0
SPLINE
5
324
100
AcDbEntity
8
1
62
256
6
ByLayer
370
13
48
1
60
0
100
AcDbSpline
70
4
71
3
72
8
73
4
40
0
40
0
40
0
40
0
40
1
40
1
40
1
40
1
41
1
10
210.325746917399
20
6.74871885540949
30
0
41
1
10
210.314946735389
20
6.72395948196979
30
0
41
1
10
210.303933418027
20
6.69932340174046
30
0
41
1
10
210.292710049485
20
6.67480883060819
30
0
0
SPLINE
5
325
100
AcDbEntity
8
1
62
256
6
ByLayer
370
13
48
1
60
0
100
AcDbSpline
70
4
71
3
72
8
73
4
40
0
40
0
40
0
40
0
40
1
40
1
40
1
40
1
41
1
10
216.538118329176
20
7.07895517189559
30
0
41
1
10
216.565910625825
20
7.07988222374405
30
0
41
1
10
216.594332477491
20
7.07969253102343
30
0
41
1
10
216.622237410308
20
7.07828264839708
30
0
0
SPLINE
5
326
100
AcDbEntity
8
1
62
256
6
ByLayer
370
13
48
1
60
0
100
AcDbSpline
70
4
71
3
72
8
73
4
40
0
40
0
40
0
40
0
40
1
40
1
40
1
40
1
41
1
10
211.107106212145
20
-21.8137588062544
30
0
41
1
10
210.107106211416
20
-21.7392217405852
30
0
41
1
10
209.107106211408
20
-21.66468466536
30
0
41
1
10
208.107106212145
20
-21.5901475802787
30
0
0
SPLINE
5
327
100
AcDbEntity
8
1
62
256
6
ByLayer
370
13
48
1
60
0
100
AcDbSpline
70
4
71
3
72
18
73
14
40
0
40
0
40
0
40
0
40
0.125
40
0.125
40
0.25
40
0.25
40
0.375
40
0.375
40
0.5
40
0.5
40
0.75
40
0.75
40
1
40
1
40
1
40
1
41
1
10
216.554549027962
20
5.99907848550961
30
0
41
1
10
216.54158787575
20
5.98629777586575
30
0
41
1
10
216.533233985656
20
5.97725700466961
30
0
41
1
10
216.528353281614
20
5.96832545146489
30
0
41
1
10
216.531728357926
20
5.96826857490808
30
0
41
1
10
216.548059610003
20
5.97582208164843
30
0
41
1
10
216.561099549352
20
5.98344491033129
30
0
41
1
10
216.593059509066
20
6.00414378535649
30
0
41
1
10
216.612263314154
20
6.0173994827982
30
0
41
1
10
216.67532858426
20
6.06359885497659
30
0
41
1
10
216.723358883469
20
6.10190975910868
30
0
41
1
10
216.826162336558
20
6.19336685978584
30
0
41
1
10
216.878228599887
20
6.24411350135961
30
0
41
1
10
216.929956732343
20
6.30040657534175
30
0
0
SPLINE
5
328
100
AcDbEntity
8
1
62
256
6
ByLayer
370
13
48
1
60
0
100
AcDbSpline
70
4
71
3
72
18
73
14
40
0
40
0
40
0
40
0
40
0.250000000000002
40
0.250000000000002
40
0.375000000000002
40
0.375000000000002
40
0.500000000000001
40
0.500000000000001
40
0.750000000000001
40
0.750000000000001
40
0.875
40
0.875
40
1
40
1
40
1
40
1
41
1
10
227.892767032725
20
7.90362672187496
30
0
41
1
10
227.950143375315
20
7.90663368857344
30
0
41
1
10
228.00790019997
20
7.8994591090032
30
0
41
1
10
228.089198500554
20
7.87608295122661
30
0
41
1
10
228.115080972486
20
7.86631174407466
30
0
41
1
10
228.163228505425
20
7.84436732777741
30
0
41
1
10
228.185882986987
20
7.83197605702247
30
0
41
1
10
228.245871405469
20
7.79505186753377
30
0
41
1
10
228.276691628691
20
7.77018391036867
30
0
41
1
10
228.308902401287
20
7.74454421756275
30
0
41
1
10
228.317575045892
20
7.73771868473432
30
0
41
1
10
228.330658044537
20
7.72878222191997
30
0
41
1
10
228.335215172145
20
7.72653997711032
30
0
41
1
10
228.337875860782
20
7.72667941789311
30
0
0
SPLINE
5
329
100
AcDbEntity
8
1
62
256
6
ByLayer
370
13
48
1
60
0
100
AcDbSpline
70
4
71
3
72
26
73
22
40
0
40
0
40
0
40
0
40
0.130642211444526
40
0.130642211444526
40
0.261284422889052
40
0.261284422889052
40
0.391926634333577
40
0.391926634333577
40
0.457247740055839
40
0.457247740055839
40
0.522568845778101
40
0.522568845778101
40
0.653211057222625
40
0.653211057222625
40
0.783853268667149
40
0.783853268667149
40
0.849174374389411
40
0.849174374389411
40
0.914495480111673
40
0.914495480111673
40
1
40
1
40
1
40
1
41
1
10
205.949688504455
20
21.4576629334485
30
0
41
1
10
204.226600676707
20
21.5763432029822
30
0
41
1
10
202.504199179414
20
21.6538151891424
30
0
41
1
10
199.057026024733
20
21.7252938903725
30
0
41
1
10
197.335630547837
20
21.7192296402299
30
0
41
1
10
193.894271735293
20
21.6241141711381
30
0
41
1
10
192.174193701552
20
21.5350790707147
30
0
41
1
10
189.592535339265
20
21.3400585146401
30
0
41
1
10
188.731734921003
20
21.2648071788115
30
0
41
1
10
187.009315879281
20
21.093905245429
30
0
41
1
10
186.147341770255
20
20.998209884279
30
0
41
1
10
183.562386794336
20
20.6809474115074
30
0
41
1
10
181.841669866231
20
20.4293657181058
30
0
41
1
10
178.402674917529
20
19.847709020436
30
0
41
1
10
176.684451295882
20
19.5174471315382
30
0
41
1
10
174.104038866758
20
18.9676323048805
30
0
41
1
10
173.243260476582
20
18.7754393911744
30
0
41
1
10
171.519042846132
20
18.375080469067
30
0
41
1
10
170.655289359399
20
18.1668227921875
30
0
41
1
10
168.659626819747
20
17.6709409055515
30
0
41
1
10
167.526788043348
20
17.3786647703168
30
0
41
1
10
166.391288113156
20
17.0780325451268
30
0
0
SPLINE
5
32A
100
AcDbEntity
8
1
62
256
6
ByLayer
370
13
48
1
60
0
100
AcDbSpline
70
4
71
3
72
32
73
28
40
0
40
0
40
0
40
0
40
0.103788755090134
40
0.103788755090134
40
0.207577510180267
40
0.207577510180267
40
0.311366265270401
40
0.311366265270401
40
0.363260642815468
40
0.363260642815468
40
0.415155020360535
40
0.415155020360535
40
0.518943775450674
40
0.518943775450674
40
0.622732530540814
40
0.622732530540814
40
0.674626908085884
40
0.674626908085884
40
0.726521285630954
40
0.726521285630954
40
0.830310040721094
40
0.830310040721094
40
0.882204418266166
40
0.882204418266166
40
0.934098795811239
40
0.934098795811239
40
1
40
1
40
1
40
1
41
1
10
208.226187017117
20
7.79541019350032
30
0
41
1
10
207.790129241414
20
7.90376560642247
30
0
41
1
10
207.34929202045
20
7.99375131311288
30
0
41
1
10
206.458935859359
20
8.14261426806544
30
0
41
1
10
206.009404686906
20
8.20143892207523
30
0
41
1
10
205.101563572797
20
8.29050694042778
30
0
41
1
10
204.643250414833
20
8.32072810872273
30
0
41
1
10
203.948590647471
20
8.34512427569223
30
0
41
1
10
203.715833721218
20
8.3497542693737
30
0
41
1
10
203.247745598035
20
8.35195447736953
30
0
41
1
10
203.011941109023
20
8.34950260590256
30
0
41
1
10
202.30622209307
20
8.33154386891493
30
0
41
1
10
201.836758255697
20
8.30553252068691
30
0
41
1
10
200.899697223597
20
8.22568189672901
30
0
41
1
10
200.432099558486
20
8.17185580644434
30
0
41
1
10
199.73203491905
20
8.06946252501754
30
0
41
1
10
199.498902612435
20
8.03171136494092
30
0
41
1
10
199.033081635139
20
7.94865305724627
30
0
41
1
10
198.799767057475
20
7.90319692111262
30
0
41
1
10
198.109073346553
20
7.75667458989793
30
0
41
1
10
197.658804764982
20
7.64528130203806
30
0
41
1
10
197.000932638235
20
7.4560310972484
30
0
41
1
10
196.784578739302
20
7.38923078795096
30
0
41
1
10
196.358409247189
20
7.24748469096173
30
0
41
1
10
196.147754906381
20
7.17218987424519
30
0
41
1
10
195.686106069659
20
6.99387780185819
30
0
41
1
10
195.438399705314
20
6.88875058039125
30
0
41
1
10
195.203060270608
20
6.77706277863649
30
0
0
SPLINE
5
32B
100
AcDbEntity
8
1
62
256
6
ByLayer
370
13
48
1
60
0
100
AcDbSpline
70
4
71
3
72
32
73
28
40
0
40
0
40
0
40
0
40
0.0458478658047272
40
0.0458478658047272
40
0.0988563177044646
40
0.0988563177044646
40
0.151864769604202
40
0.151864769604202
40
0.204873221503939
40
0.204873221503939
40
0.257881673403677
40
0.257881673403677
40
0.310890125303414
40
0.310890125303414
40
0.363898577203152
40
0.363898577203152
40
0.469915481002627
40
0.469915481002627
40
0.575932384802102
40
0.575932384802102
40
0.681949288601576
40
0.681949288601576
40
0.787966192401051
40
0.787966192401051
40
0.893983096200526
40
0.893983096200526
40
1
40
1
40
1
40
1
41
1
10
168.650021870413
20
-18.0633583986561
30
0
41
1
10
167.952209551968
20
-18.2341351031152
30
0
41
1
10
167.254363422425
20
-18.3993664335924
30
0
41
1
10
165.749614053251
20
-18.7431207874365
30
0
41
1
10
164.94247247702
20
-18.919653219468
30
0
41
1
10
163.326626087939
20
-19.2562215287337
30
0
41
1
10
162.517838044186
20
-19.4163713161791
30
0
41
1
10
160.897749889319
20
-19.7183796498045
30
0
41
1
10
160.086405752493
20
-19.8602074817741
30
0
41
1
10
158.458644122403
20
-20.1243242239895
30
0
41
1
10
157.642138295044
20
-20.2465506169576
30
0
41
1
10
156.002553011346
20
-20.4719520531939
30
0
41
1
10
155.179248472726
20
-20.5751733498424
30
0
41
1
10
153.526072275268
20
-20.7634878594869
30
0
41
1
10
152.696334934472
20
-20.8485099038903
30
0
41
1
10
150.198496624487
20
-21.0801026775562
30
0
41
1
10
148.521940485994
20
-21.2036108924985
30
0
41
1
10
145.150530381133
20
-21.4041096612115
30
0
41
1
10
143.457262396093
20
-21.480754358489
30
0
41
1
10
140.054681708006
20
-21.5975826995187
30
0
41
1
10
138.344595077003
20
-21.6376479611423
30
0
41
1
10
134.911325173647
20
-21.6911519265586
30
0
41
1
10
133.187652037351
20
-21.7046453247223
30
0
41
1
10
129.725333423542
20
-21.715095274343
30
0
41
1
10
127.987193561881
20
-21.7120546818207
30
0
41
1
10
124.501858747244
20
-21.6982069565437
30
0
41
1
10
122.753853441991
20
-21.6874157380159
30
0
41
1
10
121
20
-21.6765096283486
30
0
0
SPLINE
5
32C
100
AcDbEntity
8
1
62
256
6
ByLayer
370
13
48
1
60
0
100
AcDbSpline
70
4
71
3
72
8
73
4
40
0
40
0
40
0
40
0
40
1
40
1
40
1
40
1
41
1
10
221.838520189202
20
6.08427857057771
30
0
41
1
10
222.375316508394
20
6.11241087359389
30
0
41
1
10
222.885727153522
20
6.13916036202744
30
0
41
1
10
223.366183846656
20
6.1643400303563
30
0
0
SPLINE
5
32D
100
AcDbEntity
8
1
62
256
6
ByLayer
370
13
48
1
60
0
100
AcDbSpline
70
4
71
3
72
16
73
12
40
0
40
0
40
0
40
0
40
0.25000000000001
40
0.25000000000001
40
0.500000000000019
40
0.500000000000019
40
0.625000000000024
40
0.625000000000024
40
0.750000000000028
40
0.750000000000028
40
1
40
1
40
1
40
1
41
1
10
230.185427500863
20
6.66118220882709
30
0
41
1
10
230.034959814386
20
6.67898917307593
30
0
41
1
10
229.889310640855
20
6.70849001033304
30
0
41
1
10
229.602423148791
20
6.79086334904775
30
0
41
1
10
229.462951304436
20
6.84342189527513
30
0
41
1
10
229.260710774312
20
6.93962189108754
30
0
41
1
10
229.194338564272
20
6.97464644520255
30
0
41
1
10
229.063577769198
20
7.05115593802813
30
0
41
1
10
228.998840596263
20
7.09290838155852
30
0
41
1
10
228.811273411697
20
7.22643791225832
30
0
41
1
10
228.694449771925
20
7.32648315059365
30
0
41
1
10
228.586596423833
20
7.43930260646536
30
0
0
SPLINE
5
32E
100
AcDbEntity
8
1
62
256
6
ByLayer
370
13
48
1
60
0
100
AcDbSpline
70
4
71
3
72
23
73
19
40
0
40
0
40
0
40
0
40
0.125
40
0.125
40
0.25
40
0.25
40
0.375
40
0.375
40
0.5
40
0.625
40
0.625
40
0.75
40
0.75
40
0.875
40
0.875
40
0.9375
40
0.9375
40
1
40
1
40
1
40
1
41
1
10
216.999476950795
20
6.12098076634729
30
0
41
1
10
216.898530937841
20
6.02852544239215
30
0
41
1
10
216.791019925729
20
5.94423220338061
30
0
41
1
10
216.561841690486
20
5.79238617248731
30
0
41
1
10
216.442509459987
20
5.72642132748302
30
0
41
1
10
216.195284459864
20
5.61434848973826
30
0
41
1
10
216.066759108206
20
5.56798616336576
30
0
41
1
10
215.801510842867
20
5.49606059383575
30
0
41
1
10
215.533451422067
20
5.446262151247
30
0
41
1
10
215.25974126077
20
5.43905825226193
30
0
41
1
10
214.983221481745
20
5.45397713916654
30
0
41
1
10
214.846428035536
20
5.47241202251263
30
0
41
1
10
214.57852294798
20
5.53009274881487
30
0
41
1
10
214.44694923978
20
5.5693602850653
30
0
41
1
10
214.253410457198
20
5.6445097061569
30
0
41
1
10
214.189749884026
20
5.67223139352282
30
0
41
1
10
214.066104068819
20
5.73209052671157
30
0
41
1
10
214.005837835592
20
5.76433279685187
30
0
41
1
10
213.947151413128
20
5.79883981065618
30
0
0
SPLINE
5
32F
100
AcDbEntity
8
1
62
256
6
ByLayer
370
13
48
1
60
0
100
AcDbSpline
70
4
71
3
72
18
73
14
40
0
40
0
40
0
40
0
40
0.249999999999991
40
0.249999999999991
40
0.499999999999983
40
0.499999999999983
40
0.749999999999975
40
0.749999999999975
40
0.812499999999991
40
0.812499999999991
40
0.875000000000008
40
0.875000000000008
40
1
40
1
40
1
40
1
41
1
10
212.030269290522
20
8.16037079655837
30
0
41
1
10
212.009161223432
20
7.99597385699289
30
0
41
1
10
211.968436927695
20
7.83528364435787
30
0
41
1
10
211.840608189747
20
7.52632761079894
30
0
41
1
10
211.756325709988
20
7.38421186328125
30
0
41
1
10
211.538898843837
20
7.12963672924991
30
0
41
1
10
211.412006877239
20
7.02469819557129
30
0
41
1
10
211.228736342659
20
6.92568849423682
30
0
41
1
10
211.190840522324
20
6.90757413107485
30
0
41
1
10
211.114343624474
20
6.87554619611853
30
0
41
1
10
211.075516101835
20
6.86150308600787
30
0
41
1
10
210.957339112313
20
6.82514066102587
30
0
41
1
10
210.876164220983
20
6.80856329899697
30
0
41
1
10
210.793056360684
20
6.79952734822842
30
0
0
SPLINE
5
330
100
AcDbEntity
8
1
62
256
6
ByLayer
370
13
48
1
60
0
100
AcDbSpline
70
4
71
3
72
8
73
4
40
0
40
0
40
0
40
0
40
1
40
1
40
1
40
1
41
1
10
209.084804718845
20
-0.435294583045021
30
0
41
1
10
209.75888823844
20
-0.481747649469696
30
0
41
1
10
210.432988967231
20
-0.52809975870025
30
0
41
1
10
211.107106212145
20
-0.57435423554179
30
0
0
SPLINE
5
331
100
AcDbEntity
8
1
62
256
6
ByLayer
370
13
48
1
60
0
100
AcDbSpline
70
4
71
3
72
20
73
16
40
0
40
0
40
0
40
0
40
0.25
40
0.25
40
0.375
40
0.375
40
0.5
40
0.5
40
0.625
40
0.625
40
0.75
40
0.75
40
0.875
40
0.875
40
1
40
1
40
1
40
1
41
1
10
208.35969844592
20
8.23535265599054
30
0
41
1
10
208.405113286727
20
8.37002000474422
30
0
41
1
10
208.445952522416
20
8.51809950158847
30
0
41
1
10
208.504892904595
20
8.75931877824078
30
0
41
1
10
208.524169525572
20
8.84336461879926
30
0
41
1
10
208.561174788154
20
9.01303792989148
30
0
41
1
10
208.579038203571
20
9.09919952656276
30
0
41
1
10
208.613987612466
20
9.27405986267712
30
0
41
1
10
208.631128715646
20
9.36309582619484
30
0
41
1
10
208.664969264892
20
9.54224601359383
30
0
41
1
10
208.681415844188
20
9.63104309801369
30
0
41
1
10
208.71438861137
20
9.80693096050518
30
0
41
1
10
208.730874662209
20
9.89402977799875
30
0
41
1
10
208.765832670047
20
10.0660999782029
30
0
41
1
10
208.784185630413
20
10.1511434167656
30
0
41
1
10
208.805556618063
20
10.2320822832555
30
0
0
SPLINE
5
332
100
AcDbEntity
8
1
62
256
6
ByLayer
370
13
48
1
60
0
100
AcDbSpline
70
2053
71
3
72
94
73
90
40
0
40
0
40
0
40
0
40
0.0312500000000012
40
0.0312500000000012
40
0.0468750000000017
40
0.0468750000000017
40
0.0625000000000023
40
0.0625000000000023
40
0.0937500000000035
40
0.0937500000000035
40
0.109375000000004
40
0.109375000000004
40
0.125000000000005
40
0.140625000000005
40
0.140625000000005
40
0.156250000000006
40
0.156250000000006
40
0.187500000000004
40
0.187500000000004
40
0.218750000000002
40
0.218750000000002
40
0.250000000000001
40
0.250000000000001
40
0.265625
40
0.265625
40
0.281249999999999
40
0.281249999999999
40
0.312499999999997
40
0.312499999999997
40
0.328124999999996
40
0.328124999999996
40
0.343749999999994
40
0.343749999999994
40
0.374999999999993
40
0.374999999999993
40
0.406249999999993
40
0.406249999999993
40
0.421874999999993
40
0.421874999999993
40
0.437499999999993
40
0.437499999999993
40
0.468749999999997
40
0.468749999999997
40
0.484375
40
0.484375
40
0.500000000000002
40
0.500000000000002
40
0.531250000000001
40
0.531250000000001
40
0.546875000000001
40
0.546875000000001
40
0.5625
40
0.578124999999999
40
0.578124999999999
40
0.593749999999999
40
0.593749999999999
40
0.624999999999997
40
0.624999999999997
40
0.640624999999997
40
0.640624999999997
40
0.656249999999996
40
0.656249999999996
40
0.687499999999998
40
0.687499999999998
40
0.71875
40
0.71875
40
0.734375
40
0.734375
40
0.750000000000001
40
0.750000000000001
40
0.781250000000001
40
0.781250000000001
40
0.796875000000002
40
0.796875000000002
40
0.812500000000003
40
0.812500000000003
40
0.843750000000002
40
0.843750000000002
40
0.875000000000002
40
0.875000000000002
40
0.906250000000002
40
0.906250000000002
40
0.921875000000001
40
0.921875000000001
40
0.937500000000001
40
0.937500000000001
40
0.968750000000001
40
0.968750000000001
40
1
40
1
40
1
40
1
41
1
10
223.002789113507
20
-2.68372372616216
30
0
41
1
10
223.14577863063
20
-2.68372372616216
30
0
41
1
10
223.286228648034
20
-2.69846715571049
30
0
41
1
10
223.493255027714
20
-2.74174889554715
30
0
41
1
10
223.561650813427
20
-2.75973203302649
30
0
41
1
10
223.697184798666
20
-2.8029865230792
30
0
41
1
10
223.764111056184
20
-2.82824225332581
30
0
41
1
10
223.95842135509
20
-2.91314584886462
30
0
41
1
10
224.080932368705
20
-2.98229798307568
30
0
41
1
10
224.25420806411
20
-3.10468269125855
30
0
41
1
10
224.310433320446
20
-3.14884593072722
30
0
41
1
10
224.417012320471
20
-3.2416297495821
30
0
41
1
10
224.518227390475
20
-3.33914821634983
30
0
41
1
10
224.609025263427
20
-3.44582973542637
30
0
41
1
10
224.694621390407
20
-3.55707065043939
30
0
41
1
10
224.734984275612
20
-3.61524441054414
30
0
41
1
10
224.846853382072
20
-3.79478169378359
30
0
41
1
10
224.908559709967
20
-3.91977376963516
30
0
41
1
10
225.007622751815
20
-4.17966358849597
30
0
41
1
10
225.045077167438
20
-4.31592765667293
30
0
41
1
10
225.093136131881
20
-4.58899180560354
30
0
41
1
10
225.104228502397
20
-4.72634061194171
30
0
41
1
10
225.101847785472
20
-4.93353583581427
30
0
41
1
10
225.097817693864
20
-5.00313904500203
30
0
41
1
10
225.083422305178
20
-5.14075760489129
30
0
41
1
10
225.07310101238
20
-5.20875179063515
30
0
41
1
10
225.033037421213
20
-5.41036815082023
30
0
41
1
10
224.994280619357
20
-5.54164397313056
30
0
41
1
10
224.917602953778
20
-5.73380523201453
30
0
41
1
10
224.88887582718
20
-5.79708113798321
30
0
41
1
10
224.826286815829
20
-5.91949167431426
30
0
41
1
10
224.792304751889
20
-5.97895891245375
30
0
41
1
10
224.682338645536
20
-6.15220910666378
30
0
41
1
10
224.598423315764
20
-6.26089509739717
30
0
41
1
10
224.407647242242
20
-6.46375166747242
30
0
41
1
10
224.303157353579
20
-6.55523061412225
30
0
41
1
10
224.134558493228
20
-6.67589115946635
30
0
41
1
10
224.076272813392
20
-6.71343321293239
30
0
41
1
10
223.955344289634
20
-6.78295450046969
30
0
41
1
10
223.892359758419
20
-6.81508311906808
30
0
41
1
10
223.698804897078
20
-6.90146073675777
30
0
41
1
10
223.565635452853
20
-6.94510532087781
30
0
41
1
10
223.359643773546
20
-6.98966408937116
30
0
41
1
10
223.289933007233
20
-7.00100705864207
30
0
41
1
10
223.148315648259
20
-7.01634309211704
30
0
41
1
10
223.07680450081
20
-7.02024057783871
30
0
41
1
10
222.86452690167
20
-7.02058476782369
30
0
41
1
10
222.724316910616
20
-7.00600288082131
30
0
41
1
10
222.515967488897
20
-6.96183233004305
30
0
41
1
10
222.446894858849
20
-6.94331355926221
30
0
41
1
10
222.312739243565
20
-6.89976197712608
30
0
41
1
10
222.181694963568
20
-6.8495386164989
30
0
41
1
10
222.056663427449
20
-6.78637439794554
30
0
41
1
10
221.934623915838
20
-6.71674178019083
30
0
41
1
10
221.875098516608
20
-6.67863112455191
30
0
41
1
10
221.704679542003
20
-6.55718929084665
30
0
41
1
10
221.600500741125
20
-6.46610144787269
30
0
41
1
10
221.457701303464
20
-6.31482537979929
30
0
41
1
10
221.412207721835
20
-6.2617035487356
30
0
41
1
10
221.327314715479
20
-6.15244870595785
30
0
41
1
10
221.287734439107
20
-6.09616266177082
30
0
41
1
10
221.17728300721
20
-5.92246916867035
30
0
41
1
10
221.114587879704
20
-5.80018418679865
30
0
41
1
10
221.011629322792
20
-5.54278574884378
30
0
41
1
10
220.972774904597
20
-5.41123910839545
30
0
41
1
10
220.932646353093
20
-5.20975488738
30
0
41
1
10
220.922317887595
20
-5.14189495093049
30
0
41
1
10
220.907886131838
20
-5.0047426551433
30
0
41
1
10
220.903788425547
20
-4.93508677757913
30
0
41
1
10
220.901279150186
20
-4.72709308915705
30
0
41
1
10
220.912391645512
20
-4.58977820360445
30
0
41
1
10
220.948152143897
20
-4.38584629216845
30
0
41
1
10
220.9632750764
20
-4.31821170257084
30
0
41
1
10
221.000177149007
20
-4.18366514564394
30
0
41
1
10
221.022069193153
20
-4.11655263076301
30
0
41
1
10
221.096547719496
20
-3.92071246753983
30
0
41
1
10
221.158143575194
20
-3.79605843255075
30
0
41
1
10
221.305532422706
20
-3.55883501047046
30
0
41
1
10
221.392510198616
20
-3.44525392621716
30
0
41
1
10
221.584796163616
20
-3.24039570166389
30
0
41
1
10
221.690372611324
20
-3.14812344587446
30
0
41
1
10
221.863281443089
20
-3.02546861364013
30
0
41
1
10
221.923730458326
20
-2.98704178754573
30
0
41
1
10
222.047186651666
20
-2.91719107627938
30
0
41
1
10
222.110309216556
20
-2.88562938702808
30
0
41
1
10
222.303781488076
20
-2.80086176829005
30
0
41
1
10
222.438436113495
20
-2.75741636320797
30
0
41
1
10
222.71820302077
20
-2.69849120734599
30
0
41
1
10
222.859799596384
20
-2.68372372616216
30
0
41
1
10
223.002789113507
20
-2.68372372616216
30
0
0
SPLINE
5
333
100
AcDbEntity
8
1
62
256
6
ByLayer
370
13
48
1
60
0
100
AcDbSpline
70
4
71
3
72
30
73
26
40
0
40
0
40
0
40
0
40
0.12442453176045
40
0.12442453176045
40
0.186636797640675
40
0.186636797640675
40
0.2488490635209
40
0.2488490635209
40
0.497698127041804
40
0.497698127041804
40
0.622122658802256
40
0.622122658802256
40
0.746547190562708
40
0.746547190562708
40
0.87097172232316
40
0.87097172232316
40
0.902077855263272
40
0.902077855263272
40
0.933183988203385
40
0.933183988203385
40
0.964290121143498
40
0.964290121143498
40
0.99539625408361
40
0.99539625408361
40
1
40
1
40
1
40
1
41
1
10
205.192492284549
20
20.1883585735657
30
0
41
1
10
203.629871933657
20
20.2972316127594
30
0
41
1
10
202.067876443314
20
20.3741806130831
30
0
41
1
10
199.724149302186
20
20.4419532986481
30
0
41
1
10
198.942578826851
20
20.4565968667599
30
0
41
1
10
197.380428794961
20
20.4699618431393
30
0
41
1
10
196.59975203381
20
20.4686906670648
30
0
41
1
10
192.697657992906
20
20.4225894076529
30
0
41
1
10
189.580185448757
20
20.2584582962713
30
0
41
1
10
184.896195977691
20
19.8192218966006
30
0
41
1
10
183.332665091651
20
19.6405507827688
30
0
41
1
10
180.209828750133
20
19.2204850143695
30
0
41
1
10
178.649548520628
20
18.978952872547
30
0
41
1
10
175.529245188464
20
18.4340036436349
30
0
41
1
10
173.969117261619
20
18.1290814083547
30
0
41
1
10
172.018091737558
20
17.7264397643753
30
0
41
1
10
171.627858822993
20
17.6448522957602
30
0
41
1
10
170.847326273306
20
17.4798810155853
30
0
41
1
10
170.457001406691
20
17.3964052860917
30
0
41
1
10
169.675720035379
20
17.2264586854424
30
0
41
1
10
169.28466256333
20
17.139963139004
30
0
41
1
10
168.501883637989
20
16.9632877760014
30
0
41
1
10
168.1102078836
20
16.8730126017389
30
0
41
1
10
167.660194070494
20
16.7675888765425
30
0
41
1
10
167.602171279263
20
16.7539666454267
30
0
41
1
10
167.544141857229
20
16.7403145006247
30
0
0
SPLINE
5
334
100
AcDbEntity
8
1
62
256
6
ByLayer
370
13
48
1
60
0
100
AcDbSpline
70
4
71
3
72
18
73
14
40
0
40
0
40
0
40
0
40
0.249999999999999
40
0.249999999999999
40
0.374999999999999
40
0.374999999999999
40
0.499999999999998
40
0.499999999999998
40
0.749999999999998
40
0.749999999999998
40
0.874999999999999
40
0.874999999999999
40
1
40
1
40
1
40
1
41
1
10
18.7907681114296
20
-22.0079142322639
30
0
41
1
10
18.6740547946667
20
-22.2636805498506
30
0
41
1
10
18.5846688045165
20
-22.5161725444886
30
0
41
1
10
18.493575992284
20
-22.8894587630238
30
0
41
1
10
18.4704004340435
20
-23.013476369163
30
0
41
1
10
18.4397273112861
20
-23.2553329762081
30
0
41
1
10
18.4320764293082
20
-23.3735591409057
30
0
41
1
10
18.4321170334909
20
-23.7202258125433
30
0
41
1
10
18.4623425778289
20
-23.9407380266446
30
0
41
1
10
18.5520833190618
20
-24.2558039113229
30
0
41
1
10
18.5897676852801
20
-24.3585593091805
30
0
41
1
10
18.6795917619792
20
-24.556577787214
30
0
41
1
10
18.7315721028539
20
-24.6517630525943
30
0
41
1
10
18.790464293951
20
-24.7432521768964
30
0
0
SPLINE
5
335
100
AcDbEntity
8
1
62
256
6
ByLayer
370
13
48
1
60
0
100
AcDbSpline
70
4
71
3
72
56
73
52
40
0
40
0
40
0
40
0
40
0.0329204272656425
40
0.0329204272656425
40
0.0530679183642753
40
0.0530679183642753
40
0.0732154094629079
40
0.0732154094629079
40
0.0933629005615406
40
0.0933629005615406
40
0.113510391660173
40
0.113510391660173
40
0.133657882758806
40
0.133657882758806
40
0.153805373857439
40
0.153805373857439
40
0.194100356054703
40
0.194100356054703
40
0.234395338251968
40
0.234395338251968
40
0.274690320449233
40
0.274690320449233
40
0.314985302646498
40
0.314985302646498
40
0.355280284843762
40
0.355280284843762
40
0.395575267041027
40
0.395575267041027
40
0.41572275813966
40
0.41572275813966
40
0.435870249238292
40
0.435870249238292
40
0.476165231435557
40
0.476165231435557
40
0.49631272253419
40
0.49631272253419
40
0.516460213632822
40
0.516460213632822
40
0.536607704731455
40
0.536607704731455
40
0.556755195830087
40
0.556755195830087
40
0.597050178027352
40
0.597050178027352
40
0.677640142421882
40
0.677640142421882
40
0.758230106816411
40
0.758230106816411
40
0.838820071210941
40
0.838820071210941
40
1
40
1
40
1
40
1
41
1
10
168.105859786535
20
-17.9312710567457
30
0
41
1
10
166.868274229199
20
-18.2193828972781
30
0
41
1
10
165.63031328002
20
-18.4901343894114
30
0
41
1
10
163.633526602438
20
-18.89568549618
30
0
41
1
10
162.875142648512
20
-19.0425418767374
30
0
41
1
10
161.356180384899
20
-19.3197455909739
30
0
41
1
10
160.595341955702
20
-19.4502753495504
30
0
41
1
10
159.069592709253
20
-19.6956016941582
30
0
41
1
10
158.304706401446
20
-19.8101614376724
30
0
41
1
10
156.769094295347
20
-20.0271175595917
30
0
41
1
10
155.998526470462
20
-20.1292168300232
30
0
41
1
10
154.451739020306
20
-20.3173173245438
30
0
41
1
10
153.675457308653
20
-20.4029614235103
30
0
41
1
10
152.117111629001
20
-20.5567668305644
30
0
41
1
10
151.335546691151
20
-20.6252115946359
30
0
41
1
10
148.98502487093
20
-20.8104747513769
30
0
41
1
10
147.409890359288
20
-20.9083427466889
30
0
41
1
10
144.244104432834
20
-21.0694774080024
30
0
41
1
10
142.6539466279
20
-21.1331383914882
30
0
41
1
10
139.461680467125
20
-21.2312731398282
30
0
41
1
10
137.858715845323
20
-21.2650425462709
30
0
41
1
10
134.639667927631
20
-21.3080091472526
30
0
41
1
10
133.024666098418
20
-21.3167811854416
30
0
41
1
10
129.782811306879
20
-21.3210461913049
30
0
41
1
10
128.155400436865
20
-21.3171967446817
30
0
41
1
10
124.892650425184
20
-21.3078826030441
30
0
41
1
10
123.256976019795
20
-21.3026416308547
30
0
41
1
10
120.796837790731
20
-21.2900428306139
30
0
41
1
10
119.975494522777
20
-21.2850378484515
30
0
41
1
10
118.332545742263
20
-21.272766599742
30
0
41
1
10
117.510737252493
20
-21.2654702677822
30
0
41
1
10
115.044361371394
20
-21.2425338560925
30
0
41
1
10
113.398836786337
20
-21.2258218762824
30
0
41
1
10
110.928768036756
20
-21.2181534725257
30
0
41
1
10
110.105110917905
20
-21.2189605421708
30
0
41
1
10
108.457259794064
20
-21.2280920365126
30
0
41
1
10
107.633088297518
20
-21.2342180134856
30
0
41
1
10
105.984564294392
20
-21.2384670666843
30
0
41
1
10
105.160195399394
20
-21.237937550789
30
0
41
1
10
103.511365352435
20
-21.2358669004414
30
0
41
1
10
102.686922792072
20
-21.2346333709416
30
0
41
1
10
100.213630363483
20
-21.2317098871042
30
0
41
1
10
98.5647690478959
20
-21.2306553584241
30
0
41
1
10
93.6181823706078
20
-21.2288524269561
30
0
41
1
10
90.3204560525257
20
-21.2279092190388
30
0
41
1
10
83.7250030311487
20
-21.2250058751912
30
0
41
1
10
80.4272761393617
20
-21.2232896703522
30
0
41
1
10
73.8318211504823
20
-21.2227084634359
30
0
41
1
10
70.5340934431688
20
-21.2238041885807
30
0
41
1
10
60.6409107018792
20
-21.2264713383839
30
0
41
1
10
54.0454553592018
20
-21.2276495538687
30
0
41
1
10
47.4499999999999
20
-21.2274947827549
30
0
0
SPLINE
5
336
100
AcDbEntity
8
1
62
256
6
ByLayer
370
13
48
1
60
0
100
AcDbSpline
70
4
71
3
72
10
73
6
40
0
40
0
40
0
40
0
40
0.5
40
0.5
40
1
40
1
40
1
40
1
41
1
10
229.286213893876
20
-4.17142316380429
30
0
41
1
10
229.341236961271
20
-4.46733539560634
30
0
41
1
10
229.375239991215
20
-4.76280071355805
30
0
41
1
10
229.403770007907
20
-5.35266943278054
30
0
41
1
10
229.39828962521
20
-5.64707339627842
30
0
41
1
10
229.373102438739
20
-5.94091427213243
30
0
0
SPLINE
5
337
100
AcDbEntity
8
1
62
256
6
ByLayer
370
13
48
1
60
0
100
AcDbSpline
70
4
71
3
72
10
73
6
40
0
40
0
40
0
40
0
40
0.5
40
0.5
40
1
40
1
40
1
40
1
41
1
10
220.136758314409
20
7.49715152884818
30
0
41
1
10
220.167337119694
20
7.49875409612633
30
0
41
1
10
220.198275052232
20
7.49748355218654
30
0
41
1
10
220.258456623205
20
7.48966302944447
30
0
41
1
10
220.287865549188
20
7.48315615721788
30
0
41
1
10
220.316566613709
20
7.47427254876925
30
0
0
SPLINE
5
338
100
AcDbEntity
8
1
62
256
6
ByLayer
370
13
48
1
60
0
100
AcDbSpline
70
4
71
3
72
10
73
6
40
0
40
0
40
0
40
0
40
0.753567204723711
40
0.753567204723711
40
1
40
1
40
1
40
1
41
1
10
0.5
20
-4.071
30
0
41
1
10
0.374398598796674
20
-4.071
30
0
41
1
10
0.248802294970275
20
-4.071
30
0
41
1
10
0.0821402764839974
20
-4.071
30
0
41
1
10
0.0410698531254923
20
-4.071
30
0
41
1
10
0
20
-4.071
30
0
0
SPLINE
5
339
100
AcDbEntity
8
1
62
256
6
ByLayer
370
13
48
1
60
0
100
AcDbSpline
70
4
71
2
72
6
73
3
40
0
40
0
40
0
40
1
40
1
40
1
41
1
10
230.821210170497
20
6.83807544891999
30
0
41
1
10
230.889138076597
20
6.9090671665233
30
0
41
1
10
230.958380134285
20
6.96494205680193
30
0
0
SPLINE
5
33A
100
AcDbEntity
8
1
62
256
6
ByLayer
370
13
48
1
60
0
100
AcDbSpline
70
4
71
2
72
6
73
3
40
0
40
0
40
0
40
1
40
1
40
1
41
1
10
213.903732387315
20
6.07114584192868
30
0
41
1
10
213.978435646182
20
6.02281480602889
30
0
41
1
10
214.053412091251
20
5.95931238812042
30
0
0
SPLINE
5
33B
100
AcDbEntity
8
1
62
256
6
ByLayer
370
13
48
1
60
0
100
AcDbSpline
70
4
71
2
72
6
73
3
40
0
40
0
40
0
40
1
40
1
40
1
41
1
10
188.990069069807
20
9.17881638017238
30
0
41
1
10
188.751923653834
20
9.26878099720807
30
0
41
1
10
188.527296753991
20
9.36089132524577
30
0
0
SPLINE
5
33C
100
AcDbEntity
8
1
62
256
6
ByLayer
370
13
48
1
60
0
100
AcDbSpline
70
4
71
3
72
17
73
13
40
0
40
0
40
0
40
0
40
0.139805801338504
40
0.27992231146071
40
0.420136962436257
40
0.560236292177207
40
0.633510939758082
40
0.706620506418959
40
0.779856121149406
40
0.853394313658175
40
0.926890179614855
40
1
40
1
40
1
40
1
41
1
10
17.8176999999999
20
-29.5
30
0
41
1
10
19.2169458579051
20
-29.3032893250688
30
0
41
1
10
22.0028926802764
20
-28.8333710069551
30
0
41
1
10
26.1427571720317
20
-27.8972660741904
30
0
41
1
10
30.2274249176177
20
-26.735909312121
30
0
41
1
10
33.6008986244763
20
-25.5640183121362
30
0
41
1
10
36.2977887449074
20
-24.5172373345824
30
0
41
1
10
38.3216070396877
20
-23.610184770224
30
0
41
1
10
40.4156429469091
20
-22.8629051983214
30
0
41
1
10
42.5783183152037
20
-22.3311767414822
30
0
41
1
10
44.7820398333338
20
-22.0087982728907
30
0
41
1
10
46.2593477983452
20
-21.9376661357005
30
0
41
1
10
47
20
-21.9375
30
0
0
SPLINE
5
33D
100
AcDbEntity
8
1
62
256
6
ByLayer
370
13
48
1
60
0
100
AcDbSpline
70
4
71
3
72
16
73
12
40
0
40
0
40
0
40
0
40
0.0619897764983337
40
0.158788920608489
40
0.255343508674987
40
0.351589497386825
40
0.44808222208069
40
0.544707176339366
40
0.69664409230816
40
0.848492674468153
40
1
40
1
40
1
40
1
41
1
10
45.9970377016023
20
21.9992321571047
30
0
41
1
10
45.3895974463119
20
22.0075264048835
30
0
41
1
10
43.843792863193
20
22.0995832458721
30
0
41
1
10
41.3872961112754
20
22.5782231335872
30
0
41
1
10
38.6877687255454
20
23.4357068416977
30
0
41
1
10
36.1144489572426
20
24.6041979341455
30
0
41
1
10
33.4728552346379
20
25.6056181343908
30
0
41
1
10
30.2894951174661
20
26.705948047377
30
0
41
1
10
26.535400725412
20
27.7998378048264
30
0
41
1
10
22.2019194139486
20
28.7977455831012
30
0
41
1
10
19.2838139685722
20
29.2938794413327
30
0
41
1
10
17.8177
20
29.4999999999999
30
0
0
LINE
5
7F
100
AcDbEntity
8
SK1
62
256
6
ByLayer
370
13
48
1
60
0
100
AcDbLine
10
-9.296888
20
-24.65
30
0
11
-9.296888
21
24.65
31
0
39
0
210
0
220
0
230
1
0
LINE
5
81
100
AcDbEntity
8
SK1
62
256
6
ByLayer
370
13
48
1
60
0
100
AcDbLine
10
-16.5
20
-24.8475
30
0
11
-16.5
21
24.8475
31
0
39
0
210
0
220
0
230
1
0
LINE
5
82
100
AcDbEntity
8
SK1
62
256
6
ByLayer
370
13
48
1
60
0
100
AcDbLine
10
-2
20
-24.9975
30
0
11
-2
21
24.9975
31
0
39
0
210
0
220
0
230
1
0
LINE
5
83
100
AcDbEntity
8
SK1
62
256
6
ByLayer
370
13
48
1
60
0
100
AcDbLine
10
-8
20
-24.9975
30
0
11
-8
21
24.9975
31
0
39
0
210
0
220
0
230
1
0
LINE
5
84
100
AcDbEntity
8
1
62
256
6
ByLayer
370
18
48
1
60
0
100
AcDbLine
10
223.709386
20
13.830807
30
0
11
223.574699
21
13.823749
31
0
39
0
210
0
220
0
230
1
0
LINE
5
85
100
AcDbEntity
8
1
62
256
6
ByLayer
370
18
48
1
60
0
100
AcDbLine
10
223.367997
20
13.157712
30
0
11
223.233309
21
13.150653
31
0
39
0
210
0
220
0
230
1
0
LINE
5
86
100
AcDbEntity
8
1
62
256
6
ByLayer
370
18
48
1
60
0
100
AcDbLine
10
223.574699
20
13.823749
30
0
11
223.594563
21
13.825229
31
0
39
0
210
0
220
0
230
1
0
LINE
5
87
100
AcDbEntity
8
1
62
256
6
ByLayer
370
18
48
1
60
0
100
AcDbLine
10
223.268671
20
15.255543
30
0
11
223.132962
21
15.248431
31
0
39
0
210
0
220
0
230
1
0
LINE
5
88
100
AcDbEntity
8
1
62
256
6
ByLayer
370
18
48
1
60
0
100
AcDbLine
10
223.379503
20
13.140751
30
0
11
223.243793
21
13.133638
31
0
39
0
210
0
220
0
230
1
0
LINE
5
89
100
AcDbEntity
8
1
62
256
6
ByLayer
370
18
48
1
60
0
100
AcDbLine
10
221.970459
20
12.696938
30
0
11
221.835771
21
12.689879
31
0
39
0
210
0
220
0
230
1
0
LINE
5
8A
100
AcDbEntity
8
1
62
256
6
ByLayer
370
18
48
1
60
0
100
AcDbLine
10
220.814452
20
14.453715
30
0
11
220.746727
21
14.450166
31
0
39
0
210
0
220
0
230
1
0
LINE
5
8B
100
AcDbEntity
8
1
62
256
6
ByLayer
370
18
48
1
60
0
100
AcDbLine
10
223.243793
20
13.133638
30
0
11
223.233309
21
13.150653
31
0
39
0
210
0
220
0
230
1
0
LINE
5
8C
100
AcDbEntity
8
1
62
256
6
ByLayer
370
18
48
1
60
0
100
AcDbLine
10
221.962055
20
12.679372
30
0
11
221.826345
21
12.67226
31
0
39
0
210
0
220
0
230
1
0
LINE
5
8D
100
AcDbEntity
8
1
62
256
6
ByLayer
370
18
48
1
60
0
100
AcDbLine
10
223.259001
20
15.237472
30
0
11
223.124314
21
15.230414
31
0
39
0
210
0
220
0
230
1
0
LINE
5
8E
100
AcDbEntity
8
1
62
256
6
ByLayer
370
18
48
1
60
0
100
AcDbLine
10
221.810761
20
15.56623
30
0
11
221.675051
21
15.559118
31
0
39
0
210
0
220
0
230
1
0
LINE
5
8F
100
AcDbEntity
8
1
62
256
6
ByLayer
370
18
48
1
60
0
100
AcDbLine
10
221.826345
20
12.67226
30
0
11
221.835771
21
12.689879
31
0
39
0
210
0
220
0
230
1
0
LINE
5
90
100
AcDbEntity
8
1
62
256
6
ByLayer
370
18
48
1
60
0
100
AcDbLine
10
223.668878
20
14.603749
30
0
11
223.534191
21
14.59669
31
0
39
0
210
0
220
0
230
1
0
LINE
5
91
100
AcDbEntity
8
1
62
256
6
ByLayer
370
18
48
1
60
0
100
AcDbLine
10
223.124314
20
15.230414
30
0
11
223.132962
21
15.248431
31
0
39
0
210
0
220
0
230
1
0
LINE
5
92
100
AcDbEntity
8
1
62
256
6
ByLayer
370
18
48
1
60
0
100
AcDbLine
10
221.820955
20
15.54964
30
0
11
221.686268
21
15.542581
31
0
39
0
210
0
220
0
230
1
0
LINE
5
93
100
AcDbEntity
8
1
62
256
6
ByLayer
370
18
48
1
60
0
100
AcDbLine
10
223.554101
20
14.597294
30
0
11
223.534191
21
14.59669
31
0
39
0
210
0
220
0
230
1
0
LINE
5
94
100
AcDbEntity
8
1
62
256
6
ByLayer
370
18
48
1
60
0
100
AcDbLine
10
220.854915
20
13.68165
30
0
11
220.7866
21
13.67807
31
0
39
0
210
0
220
0
230
1
0
LINE
5
95
100
AcDbEntity
8
1
62
256
6
ByLayer
370
18
48
1
60
0
100
AcDbLine
10
221.686268
20
15.542581
30
0
11
221.675051
21
15.559118
31
0
39
0
210
0
220
0
230
1
0
LINE
5
96
100
AcDbEntity
8
1
62
256
6
ByLayer
370
18
48
1
60
0
100
AcDbLine
10
230.260181
20
-14.146667
30
0
11
230.228854
21
-14.151598
31
0
39
0
210
0
220
0
230
1
0
LINE
5
97
100
AcDbEntity
8
1
62
256
6
ByLayer
370
18
48
1
60
0
100
AcDbLine
10
230.06273
20
0.481146
30
0
11
230.129268
21
0.47244
31
0
39
0
210
0
220
0
230
1
0
LINE
5
98
100
AcDbEntity
8
1
62
256
6
ByLayer
370
18
48
1
60
0
100
AcDbLine
10
230.420025
20
0.223457
30
0
11
230.436048
21
0.167926
31
0
39
0
210
0
220
0
230
1
0
LINE
5
99
100
AcDbEntity
8
1
62
256
6
ByLayer
370
18
48
1
60
0
100
AcDbLine
10
230.457189
20
0.073153
30
0
11
231.555958
21
-6.821293
31
0
39
0
210
0
220
0
230
1
0
LINE
5
9A
100
AcDbEntity
8
1
62
256
6
ByLayer
370
18
48
1
60
0
100
AcDbLine
10
231.558963
20
-7.049442
30
0
11
230.661953
21
-13.820774
31
0
39
0
210
0
220
0
230
1
0
LINE
5
9B
100
AcDbEntity
8
1
62
256
6
ByLayer
370
18
48
1
60
0
100
AcDbLine
10
230.41142
20
-14.109733
30
0
11
230.355543
21
-14.125657
31
0
39
0
210
0
220
0
230
1
0
LINE
5
9C
100
AcDbEntity
8
1
62
256
6
ByLayer
370
13
48
1
60
0
100
AcDbLine
10
212.451899
20
14.157314
30
0
11
212.457301
21
14.714231
31
0
39
0
210
0
220
0
230
1
0
LINE
5
9D
100
AcDbEntity
8
1
62
256
6
ByLayer
370
13
48
1
60
0
100
AcDbLine
10
215.925485
20
6.93361
30
0
11
215.874705
21
7.255146
31
0
39
0
210
0
220
0
230
1
0
LINE
5
9E
100
AcDbEntity
8
1
62
256
6
ByLayer
370
13
48
1
60
0
100
AcDbLine
10
228.825066
20
21.354646
30
0
11
229.858163
21
14.813114
31
0
39
0
210
0
220
0
230
1
0
LINE
5
9F
100
AcDbEntity
8
1
62
256
6
ByLayer
370
13
48
1
60
0
100
AcDbLine
10
215.755715
20
6.9333
30
0
11
214.722619
21
13.474833
31
0
39
0
210
0
220
0
230
1
0
LINE
5
A0
100
AcDbEntity
8
1
62
256
6
ByLayer
370
13
48
1
60
0
100
AcDbLine
10
230.734037
20
21.832394
30
0
11
231.84182
21
14.81795
31
0
39
0
210
0
220
0
230
1
0
LINE
5
A1
100
AcDbEntity
8
1
62
256
6
ByLayer
370
13
48
1
60
0
100
AcDbLine
10
213.897076
20
21.676284
30
0
11
214.009201
21
21.664834
31
0
39
0
210
0
220
0
230
1
0
LINE
5
A2
100
AcDbEntity
8
1
62
256
6
ByLayer
370
13
48
1
60
0
100
AcDbLine
10
229.619794
20
22.422914
30
0
11
229.615182
21
22.422673
31
0
39
0
210
0
220
0
230
1
0
LINE
5
A3
100
AcDbEntity
8
1
62
256
6
ByLayer
370
13
48
1
60
0
100
AcDbLine
10
231.844484
20
14.617079
30
0
11
231.839871
21
14.616838
31
0
39
0
210
0
220
0
230
1
0
LINE
5
A4
100
AcDbEntity
8
1
62
256
6
ByLayer
370
13
48
1
60
0
100
AcDbLine
10
231.84182
20
14.81795
30
0
11
231.837208
21
14.817708
31
0
39
0
210
0
220
0
230
1
0
LINE
5
A5
100
AcDbEntity
8
1
62
256
6
ByLayer
370
13
48
1
60
0
100
AcDbLine
10
215.793014
20
20.480082
30
0
11
213.704444
21
20.14833
31
0
39
0
210
0
220
0
230
1
0
LINE
5
A6
100
AcDbEntity
8
1
62
256
6
ByLayer
370
13
48
1
60
0
100
AcDbLine
10
229.256217
20
22.463896
30
0
11
229.488013
21
22.51759
31
0
39
0
210
0
220
0
230
1
0
LINE
5
A7
100
AcDbEntity
8
1
62
256
6
ByLayer
370
13
48
1
60
0
100
AcDbLine
10
212.773196
20
13.672801
30
0
11
213.590825
21
19.920294
31
0
39
0
210
0
220
0
230
1
0
LINE
5
A8
100
AcDbEntity
8
1
62
256
6
ByLayer
370
13
48
1
60
0
100
AcDbLine
10
230.458678
20
7.170154
30
0
11
230.881235
21
7.237274
31
0
39
0
210
0
220
0
230
1
0
LINE
5
A9
100
AcDbEntity
8
1
62
256
6
ByLayer
370
13
48
1
60
0
100
AcDbLine
10
230.902166
20
8.241041
30
0
11
230.897554
21
8.240799
31
0
39
0
210
0
220
0
230
1
0
LINE
5
AA
100
AcDbEntity
8
1
62
256
6
ByLayer
370
13
48
1
60
0
100
AcDbLine
10
215.008114
20
6.017062
30
0
11
215.236536
21
6.027027
31
0
39
0
210
0
220
0
230
1
0
LINE
5
AB
100
AcDbEntity
8
1
62
256
6
ByLayer
370
13
48
1
60
0
100
AcDbLine
10
212.50719
20
13.102303
30
0
11
213.755267
21
6.441022
31
0
39
0
210
0
220
0
230
1
0
LINE
5
AC
100
AcDbEntity
8
1
62
256
6
ByLayer
370
13
48
1
60
0
100
AcDbLine
10
213.720463
20
19.899715
30
0
11
212.902834
21
13.652222
31
0
39
0
210
0
220
0
230
1
0
LINE
5
AD
100
AcDbEntity
8
1
62
256
6
ByLayer
370
13
48
1
60
0
100
AcDbLine
10
212.451899
20
14.157314
30
0
11
212.531873
21
14.908421
31
0
39
0
210
0
220
0
230
1
0
LINE
5
AE
100
AcDbEntity
8
1
62
256
6
ByLayer
370
13
48
1
60
0
100
AcDbLine
10
229.014095
20
8.094973
30
0
11
230.860319
21
8.388231
31
0
39
0
210
0
220
0
230
1
0
LINE
5
AF
100
AcDbEntity
8
1
62
256
6
ByLayer
370
13
48
1
60
0
100
AcDbLine
10
215.943795
20
20.108454
30
0
11
215.101819
21
13.67492
31
0
39
0
210
0
220
0
230
1
0
LINE
5
B0
100
AcDbEntity
8
1
62
256
6
ByLayer
370
13
48
1
60
0
100
AcDbLine
10
212.451899
20
14.157314
30
0
11
212.433634
21
13.805796
31
0
39
0
210
0
220
0
230
1
0
LINE
5
B1
100
AcDbEntity
8
1
62
256
6
ByLayer
370
13
48
1
60
0
100
AcDbLine
10
231.844484
20
14.617079
30
0
11
231.026855
21
8.369586
31
0
39
0
210
0
220
0
230
1
0
LINE
5
B2
100
AcDbEntity
8
1
62
256
6
ByLayer
370
13
48
1
60
0
100
AcDbLine
10
231.675855
20
14.793551
30
0
11
230.568072
21
21.807996
31
0
39
0
210
0
220
0
230
1
0
LINE
5
B3
100
AcDbEntity
8
1
62
256
6
ByLayer
370
13
48
1
60
0
100
AcDbLine
10
216.498367
20
20.374381
30
0
11
227.436328
21
20.947615
31
0
39
0
210
0
220
0
230
1
0
LINE
5
B4
100
AcDbEntity
8
1
62
256
6
ByLayer
370
13
48
1
60
0
100
AcDbLine
10
229.356146
20
22.411743
30
0
11
229.584568
21
22.421708
31
0
39
0
210
0
220
0
230
1
0
LINE
5
B5
100
AcDbEntity
8
1
62
256
6
ByLayer
370
13
48
1
60
0
100
AcDbLine
10
230.916159
20
6.949888
30
0
11
230.881235
21
7.237274
31
0
39
0
210
0
220
0
230
1
0
LINE
5
B6
100
AcDbEntity
8
1
62
256
6
ByLayer
370
13
48
1
60
0
100
AcDbLine
10
213.605537
20
21.09072
30
0
11
213.704444
21
20.14833
31
0
39
0
210
0
220
0
230
1
0
LINE
5
B7
100
AcDbEntity
8
1
62
256
6
ByLayer
370
13
48
1
60
0
100
AcDbLine
10
231.026855
20
8.369586
30
0
11
231.022243
21
8.369344
31
0
39
0
210
0
220
0
230
1
0
LINE
5
B8
100
AcDbEntity
8
1
62
256
6
ByLayer
370
13
48
1
60
0
100
AcDbLine
10
214.883972
20
13.49899
30
0
11
215.920873
21
6.933368
31
0
39
0
210
0
220
0
230
1
0
LINE
5
B9
100
AcDbEntity
8
1
62
256
6
ByLayer
370
13
48
1
60
0
100
AcDbLine
10
230.729425
20
21.832153
30
0
11
231.837208
21
14.817708
31
0
39
0
210
0
220
0
230
1
0
LINE
5
BA
100
AcDbEntity
8
1
62
256
6
ByLayer
370
13
48
1
60
0
100
AcDbLine
10
231.185862
20
8.817155
30
0
11
231.06737
21
7.348311
31
0
39
0
210
0
220
0
230
1
0
LINE
5
BB
100
AcDbEntity
8
1
62
256
6
ByLayer
370
13
48
1
60
0
100
AcDbLine
10
212.744505
20
10.979599
30
0
11
213.483892
21
7.8894
31
0
39
0
210
0
220
0
230
1
0
LINE
5
BC
100
AcDbEntity
8
1
62
256
6
ByLayer
370
13
48
1
60
0
100
AcDbLine
10
213.883642
20
6.457486
30
0
11
212.775859
21
13.47193
31
0
39
0
210
0
220
0
230
1
0
LINE
5
BD
100
AcDbEntity
8
1
62
256
6
ByLayer
370
13
48
1
60
0
100
AcDbLine
10
215.737298
20
20.240469
30
0
11
214.881308
21
13.69986
31
0
39
0
210
0
220
0
230
1
0
LINE
5
BE
100
AcDbEntity
8
1
62
256
6
ByLayer
370
13
48
1
60
0
100
AcDbLine
10
212.674471
20
13.685875
30
0
11
213.490372
21
19.920167
31
0
39
0
210
0
220
0
230
1
0
LINE
5
BF
100
AcDbEntity
8
1
62
256
6
ByLayer
370
13
48
1
60
0
100
AcDbLine
10
229.223505
20
22.462182
30
0
11
229.256217
21
22.463896
31
0
39
0
210
0
220
0
230
1
0
LINE
5
C0
100
AcDbEntity
8
1
62
256
6
ByLayer
370
13
48
1
60
0
100
AcDbLine
10
230.062897
20
22.422815
30
0
11
230.058284
21
22.422573
31
0
39
0
210
0
220
0
230
1
0
LINE
5
C1
100
AcDbEntity
8
1
62
256
6
ByLayer
370
13
48
1
60
0
100
AcDbLine
10
228.990092
20
7.937324
30
0
11
228.98548
21
7.937082
31
0
39
0
210
0
220
0
230
1
0
LINE
5
C2
100
AcDbEntity
8
1
62
256
6
ByLayer
370
13
48
1
60
0
100
AcDbLine
10
229.572668
20
22.270884
30
0
11
229.344245
21
22.260919
31
0
39
0
210
0
220
0
230
1
0
LINE
5
C3
100
AcDbEntity
8
1
62
256
6
ByLayer
370
13
48
1
60
0
100
AcDbLine
10
212.50719
20
13.102303
30
0
11
212.452281
21
13.449986
31
0
39
0
210
0
220
0
230
1
0
LINE
5
C4
100
AcDbEntity
8
1
62
256
6
ByLayer
370
13
48
1
60
0
100
AcDbLine
10
230.734037
20
21.832394
30
0
11
230.729425
21
21.832153
31
0
39
0
210
0
220
0
230
1
0
LINE
5
C5
100
AcDbEntity
8
1
62
256
6
ByLayer
370
13
48
1
60
0
100
AcDbLine
10
228.917165
20
22.279788
30
0
11
229.075912
21
22.288107
31
0
39
0
210
0
220
0
230
1
0
LINE
5
C6
100
AcDbEntity
8
1
62
256
6
ByLayer
370
13
48
1
60
0
100
AcDbLine
10
229.618555
20
6.800652
30
0
11
229.812751
21
6.799485
31
0
39
0
210
0
220
0
230
1
0
LINE
5
C7
100
AcDbEntity
8
1
62
256
6
ByLayer
370
13
48
1
60
0
100
AcDbLine
10
212.677515
20
13.456309
30
0
11
213.785298
21
6.441865
31
0
39
0
210
0
220
0
230
1
0
LINE
5
C8
100
AcDbEntity
8
1
62
256
6
ByLayer
370
13
48
1
60
0
100
AcDbLine
10
215.899561
20
6.849326
30
0
11
215.894949
21
6.849084
31
0
39
0
210
0
220
0
230
1
0
LINE
5
C9
100
AcDbEntity
8
1
62
256
6
ByLayer
370
13
48
1
60
0
100
AcDbLine
10
229.584568
20
22.421708
30
0
11
229.579956
21
22.421466
31
0
39
0
210
0
220
0
230
1
0
LINE
5
CA
100
AcDbEntity
8
1
62
256
6
ByLayer
370
13
48
1
60
0
100
AcDbLine
10
212.904926
20
13.494395
30
0
11
214.01271
21
6.479951
31
0
39
0
210
0
220
0
230
1
0
LINE
5
CB
100
AcDbEntity
8
1
62
256
6
ByLayer
370
13
48
1
60
0
100
AcDbLine
10
228.692194
20
21.35627
30
0
11
228.740135
21
21.05271
31
0
39
0
210
0
220
0
230
1
0
LINE
5
CC
100
AcDbEntity
8
1
62
256
6
ByLayer
370
13
48
1
60
0
100
AcDbLine
10
228.824666
20
7.809798
30
0
11
230.570629
21
8.08713
31
0
39
0
210
0
220
0
230
1
0
LINE
5
CD
100
AcDbEntity
8
1
62
256
6
ByLayer
370
13
48
1
60
0
100
AcDbLine
10
215.727897
20
20.133637
30
0
11
215.74191
21
20.240711
31
0
39
0
210
0
220
0
230
1
0
LINE
5
CE
100
AcDbEntity
8
1
62
256
6
ByLayer
370
13
48
1
60
0
100
AcDbLine
10
215.566687
20
20.192973
30
0
11
213.720463
21
19.899715
31
0
39
0
210
0
220
0
230
1
0
LINE
5
CF
100
AcDbEntity
8
1
62
256
6
ByLayer
370
13
48
1
60
0
100
AcDbLine
10
228.710781
20
8.183359
30
0
11
229.552758
21
14.616894
31
0
39
0
210
0
220
0
230
1
0
LINE
5
D0
100
AcDbEntity
8
1
62
256
6
ByLayer
370
13
48
1
60
0
100
AcDbLine
10
229.861397
20
14.569199
30
0
11
229.014095
21
8.094973
31
0
39
0
210
0
220
0
230
1
0
LINE
5
D1
100
AcDbEntity
8
1
62
256
6
ByLayer
370
13
48
1
60
0
100
AcDbLine
10
212.641625
20
15.133037
30
0
11
212.449436
21
13.664526
31
0
39
0
210
0
220
0
230
1
0
LINE
5
D2
100
AcDbEntity
8
1
62
256
6
ByLayer
370
13
48
1
60
0
100
AcDbLine
10
215.261534
20
5.878137
30
0
11
215.033111
21
5.868172
31
0
39
0
210
0
220
0
230
1
0
LINE
5
D3
100
AcDbEntity
8
1
62
256
6
ByLayer
370
13
48
1
60
0
100
AcDbLine
10
231.943208
20
14.604005
30
0
11
231.127307
21
8.369713
31
0
39
0
210
0
220
0
230
1
0
LINE
5
D4
100
AcDbEntity
8
1
62
256
6
ByLayer
370
13
48
1
60
0
100
AcDbLine
10
229.333819
20
22.48529
30
0
11
229.223505
21
22.462182
31
0
39
0
210
0
220
0
230
1
0
LINE
5
D5
100
AcDbEntity
8
1
62
256
6
ByLayer
370
13
48
1
60
0
100
AcDbLine
10
229.356146
20
22.411743
30
0
11
229.351533
21
22.411502
31
0
39
0
210
0
220
0
230
1
0
LINE
5
D6
100
AcDbEntity
8
1
62
256
6
ByLayer
370
13
48
1
60
0
100
AcDbLine
10
230.860319
20
8.388231
30
0
11
231.677948
21
14.635724
31
0
39
0
210
0
220
0
230
1
0
LINE
5
D7
100
AcDbEntity
8
1
62
256
6
ByLayer
370
13
48
1
60
0
100
AcDbLine
10
230.902166
20
8.241041
30
0
11
228.990092
21
7.937324
31
0
39
0
210
0
220
0
230
1
0
LINE
5
D8
100
AcDbEntity
8
1
62
256
6
ByLayer
370
13
48
1
60
0
100
AcDbLine
10
230.570629
20
8.08713
30
0
11
230.257101
21
6.803347
31
0
39
0
210
0
220
0
230
1
0
LINE
5
D9
100
AcDbEntity
8
1
62
256
6
ByLayer
370
13
48
1
60
0
100
AcDbLine
10
230.458678
20
7.170154
30
0
11
230.913235
21
8.14155
31
0
39
0
210
0
220
0
230
1
0
LINE
5
DA
100
AcDbEntity
8
1
62
256
6
ByLayer
370
13
48
1
60
0
100
AcDbLine
10
214.40944
20
21.452539
30
0
11
214.086464
21
21.452742
31
0
39
0
210
0
220
0
230
1
0
LINE
5
DB
100
AcDbEntity
8
1
62
256
6
ByLayer
370
13
48
1
60
0
100
AcDbLine
10
230.960626
20
7.98291
30
0
11
230.881235
21
7.237274
31
0
39
0
210
0
220
0
230
1
0
LINE
5
DC
100
AcDbEntity
8
1
62
256
6
ByLayer
370
13
48
1
60
0
100
AcDbLine
10
215.74191
20
20.240711
30
0
11
215.737298
21
20.240469
31
0
39
0
210
0
220
0
230
1
0
LINE
5
DD
100
AcDbEntity
8
1
62
256
6
ByLayer
370
13
48
1
60
0
100
AcDbLine
10
229.550856
20
14.760373
30
0
11
228.564735
21
21.004458
31
0
39
0
210
0
220
0
230
1
0
LINE
5
DE
100
AcDbEntity
8
1
62
256
6
ByLayer
370
13
48
1
60
0
100
AcDbLine
10
230.570629
20
8.08713
30
0
11
230.913235
21
8.14155
31
0
39
0
210
0
220
0
230
1
0
LINE
5
DF
100
AcDbEntity
8
1
62
256
6
ByLayer
370
13
48
1
60
0
100
AcDbLine
10
230.897554
20
8.240799
30
0
11
228.98548
21
7.937082
31
0
39
0
210
0
220
0
230
1
0
LINE
5
E0
100
AcDbEntity
8
1
62
256
6
ByLayer
370
13
48
1
60
0
100
AcDbLine
10
213.490372
20
19.920167
30
0
11
213.467982
21
20.133501
31
0
39
0
210
0
220
0
230
1
0
LINE
5
E1
100
AcDbEntity
8
1
62
256
6
ByLayer
370
13
48
1
60
0
100
AcDbLine
10
215.103721
20
13.531441
30
0
11
216.089842
21
7.287355
31
0
39
0
210
0
220
0
230
1
0
LINE
5
E2
100
AcDbEntity
8
1
62
256
6
ByLayer
370
13
48
1
60
0
100
AcDbLine
10
213.605537
20
21.09072
30
0
11
213.462462
21
21.067994
31
0
39
0
210
0
220
0
230
1
0
LINE
5
E3
100
AcDbEntity
8
1
62
256
6
ByLayer
370
13
48
1
60
0
100
AcDbLine
10
215.925485
20
6.93361
30
0
11
215.920873
21
6.933368
31
0
39
0
210
0
220
0
230
1
0
LINE
5
E4
100
AcDbEntity
8
1
62
256
6
ByLayer
370
13
48
1
60
0
100
AcDbLine
10
215.874705
20
7.255146
30
0
11
214.888584
21
13.499231
31
0
39
0
210
0
220
0
230
1
0
LINE
5
E5
100
AcDbEntity
8
1
62
256
6
ByLayer
370
13
48
1
60
0
100
AcDbLine
10
231.940165
20
14.833571
30
0
11
230.832381
21
21.848015
31
0
39
0
210
0
220
0
230
1
0
LINE
5
E6
100
AcDbEntity
8
1
62
256
6
ByLayer
370
13
48
1
60
0
100
AcDbLine
10
228.119312
20
7.915499
30
0
11
217.181351
21
7.342265
31
0
39
0
210
0
220
0
230
1
0
LINE
5
E7
100
AcDbEntity
8
1
62
256
6
ByLayer
370
13
48
1
60
0
100
AcDbLine
10
215.445446
20
6.027164
30
0
11
215.440833
21
6.026922
31
0
39
0
210
0
220
0
230
1
0
LINE
5
E8
100
AcDbEntity
8
1
62
256
6
ByLayer
370
13
48
1
60
0
100
AcDbLine
10
214.888584
20
13.499231
30
0
11
214.883972
21
13.49899
31
0
39
0
210
0
220
0
230
1
0
LINE
5
E9
100
AcDbEntity
8
1
62
256
6
ByLayer
370
13
48
1
60
0
100
AcDbLine
10
214.885921
20
13.700102
30
0
11
214.881308
21
13.69986
31
0
39
0
210
0
220
0
230
1
0
LINE
5
EA
100
AcDbEntity
8
1
62
256
6
ByLayer
370
13
48
1
60
0
100
AcDbLine
10
214.719385
20
13.718747
30
0
11
215.566687
21
20.192973
31
0
39
0
210
0
220
0
230
1
0
LINE
5
EB
100
AcDbEntity
8
1
62
256
6
ByLayer
370
13
48
1
60
0
100
AcDbLine
10
213.715513
20
20.048839
30
0
11
215.627587
21
20.352557
31
0
39
0
210
0
220
0
230
1
0
LINE
5
EC
100
AcDbEntity
8
1
62
256
6
ByLayer
370
13
48
1
60
0
100
AcDbLine
10
229.352147
20
22.411528
30
0
11
229.579956
21
22.421466
31
0
39
0
210
0
220
0
230
1
0
LINE
5
ED
100
AcDbEntity
8
1
62
256
6
ByLayer
370
13
48
1
60
0
100
AcDbLine
10
231.839871
20
14.616838
30
0
11
231.022243
21
8.369344
31
0
39
0
210
0
220
0
230
1
0
LINE
5
EE
100
AcDbEntity
8
1
62
256
6
ByLayer
370
13
48
1
60
0
100
AcDbLine
10
228.887464
20
8.138533
30
0
11
228.875769
21
8.049169
31
0
39
0
210
0
220
0
230
1
0
LINE
5
EF
100
AcDbEntity
8
1
62
256
6
ByLayer
370
13
48
1
60
0
100
AcDbLine
10
214.885921
20
13.700102
30
0
11
215.727897
21
20.133637
31
0
39
0
210
0
220
0
230
1
0
LINE
5
F0
100
AcDbEntity
8
1
62
256
6
ByLayer
370
13
48
1
60
0
100
AcDbLine
10
215.361463
20
5.825984
30
0
11
215.129666
21
5.77229
31
0
39
0
210
0
220
0
230
1
0
LINE
5
F1
100
AcDbEntity
8
SK1
62
256
6
ByLayer
370
13
48
1
60
0
100
AcDbLine
10
-0.3
20
-24.8
30
0
11
-0.3
21
24.8
31
0
39
0
210
0
220
0
230
1
0
LINE
5
F2
100
AcDbEntity
8
SK1
62
256
6
ByLayer
370
13
48
1
60
0
100
AcDbLine
10
-1.57646
20
-24.8
30
0
11
-1.57646
21
24.8
31
0
39
0
210
0
220
0
230
1
0
LINE
5
F3
100
AcDbEntity
8
SK1
62
256
6
ByLayer
370
13
48
1
60
0
100
AcDbLine
10
-10.07646
20
-24.65
30
0
11
-10.07646
21
24.65
31
0
39
0
210
0
220
0
230
1
0
LINE
5
F4
100
AcDbEntity
8
SK1
62
256
6
ByLayer
370
13
48
1
60
0
100
AcDbLine
10
-18
20
-24.445576
30
0
11
-18
21
24.445576
31
0
39
0
210
0
220
0
230
1
0
LINE
5
F5
100
AcDbEntity
8
SK1
62
256
6
ByLayer
370
13
48
1
60
0
100
AcDbLine
10
-10.5
20
-24.8475
30
0
11
-10.5
21
24.8475
31
0
39
0
210
0
220
0
230
1
0
LINE
5
F6
100
AcDbEntity
8
1
62
256
6
ByLayer
370
13
48
1
60
0
100
AcDbLine
10
208.714005
20
1.629625
30
0
11
209.084805
21
-0.435295
31
0
39
0
210
0
220
0
230
1
0
LINE
5
F7
100
AcDbEntity
8
1
62
256
6
ByLayer
370
13
48
1
60
0
100
AcDbLine
10
218.144499
20
5.42191
30
0
11
218.583229
21
5.444903
31
0
39
0
210
0
220
0
230
1
0
LINE
5
F8
100
AcDbEntity
8
1
62
256
6
ByLayer
370
13
48
1
60
0
100
AcDbLine
10
0.5
20
4.071
30
0
11
5.5
21
4.071
31
0
39
0
210
0
220
0
230
1
0
LINE
5
F9
100
AcDbEntity
8
1
62
256
6
ByLayer
370
13
48
1
60
0
100
AcDbLine
10
0
20
-29.748313
30
0
11
5.5
21
-29.748313
31
0
39
0
210
0
220
0
230
1
0
LINE
5
FA
100
AcDbEntity
8
1
62
256
6
ByLayer
370
13
48
1
60
0
100
AcDbLine
10
230.827493
20
0.847599
30
0
11
230.508512
21
0.713614
31
0
39
0
210
0
220
0
230
1
0
LINE
5
FB
100
AcDbEntity
8
1
62
256
6
ByLayer
370
13
48
1
60
0
100
AcDbLine
10
230.204659
20
0.585985
30
0
11
230.061431
21
0.525823
31
0
39
0
210
0
220
0
230
1
0
LINE
5
FC
100
AcDbEntity
8
1
62
256
6
ByLayer
370
13
48
1
60
0
100
AcDbLine
10
221.12676
20
6.046977
30
0
11
221.83852
21
6.084279
31
0
39
0
210
0
220
0
230
1
0
LINE
5
FD
100
AcDbEntity
8
1
62
256
6
ByLayer
370
13
48
1
60
0
100
AcDbLine
10
230.822127
20
6.077439
30
0
11
230.827493
21
0.847599
31
0
39
0
210
0
220
0
230
1
0
LINE
5
FE
100
AcDbEntity
8
1
62
256
6
ByLayer
370
13
48
1
60
0
100
AcDbLine
10
212.978929
20
9.495213
30
0
11
212.35128
21
13.469468
31
0
39
0
210
0
220
0
230
1
0
LINE
5
FF
100
AcDbEntity
8
1
62
256
6
ByLayer
370
13
48
1
60
0
100
AcDbLine
10
17.8177
20
29.5
30
0
11
17.8177
21
-29.5
31
0
39
0
210
0
220
0
230
1
0
LINE
5
100
100
AcDbEntity
8
1
62
256
6
ByLayer
370
13
48
1
60
0
100
AcDbLine
10
229.716556
20
-21.813759
30
0
11
211.107106
21
-21.813759
31
0
39
0
210
0
220
0
230
1
0
LINE
5
101
100
AcDbEntity
8
1
62
256
6
ByLayer
370
13
48
1
60
0
100
AcDbLine
10
231.079658
20
-7.729245
30
0
11
230.215161
21
-14.255141
31
0
39
0
210
0
220
0
230
1
0
LINE
5
102
100
AcDbEntity
8
1
62
256
6
ByLayer
370
13
48
1
60
0
100
AcDbLine
10
230.504087
20
0.612999
30
0
11
230.479765
21
0.616181
31
0
39
0
210
0
220
0
230
1
0
LINE
5
103
100
AcDbEntity
8
1
62
256
6
ByLayer
370
13
48
1
60
0
100
AcDbLine
10
218.048334
20
7.387702
30
0
11
220.136758
21
7.497152
31
0
39
0
210
0
220
0
230
1
0
LINE
5
104
100
AcDbEntity
8
1
62
256
6
ByLayer
370
13
48
1
60
0
100
AcDbLine
10
228.6054
20
2.177814
30
0
11
230.060771
21
0.652704
31
0
39
0
210
0
220
0
230
1
0
LINE
5
105
100
AcDbEntity
8
1
62
256
6
ByLayer
370
13
48
1
60
0
100
AcDbLine
10
229.286214
20
-4.171423
30
0
11
231.057238
21
-6.027312
31
0
39
0
210
0
220
0
230
1
0
LINE
5
106
100
AcDbEntity
8
1
62
256
6
ByLayer
370
13
48
1
60
0
100
AcDbLine
10
228.3471
20
7.727163
30
0
11
217.707447
21
7.169562
31
0
39
0
210
0
220
0
230
1
0
LINE
5
107
100
AcDbEntity
8
1
62
256
6
ByLayer
370
13
48
1
60
0
100
AcDbLine
10
230.546502
20
6.640782
30
0
11
230.425002
21
6.634414
31
0
39
0
210
0
220
0
230
1
0
LINE
5
108
100
AcDbEntity
8
1
62
256
6
ByLayer
370
13
48
1
60
0
100
AcDbLine
10
213.474018
20
19.96502
30
0
11
212.90081
21
15.585142
31
0
39
0
210
0
220
0
230
1
0
LINE
5
109
100
AcDbEntity
8
1
62
256
6
ByLayer
370
13
48
1
60
0
100
AcDbLine
10
228.577211
20
1.408069
30
0
11
228.68889
21
-0.836627
31
0
39
0
210
0
220
0
230
1
0
LINE
5
10A
100
AcDbEntity
8
1
62
256
6
ByLayer
370
13
48
1
60
0
100
AcDbLine
10
214.550457
20
21.280807
30
0
11
214.590389
21
21.585925
31
0
39
0
210
0
220
0
230
1
0
LINE
5
10B
100
AcDbEntity
8
1
62
256
6
ByLayer
370
13
48
1
60
0
100
AcDbLine
10
52
20
-21.854279
30
0
11
52
21
-21.9375
31
0
39
0
210
0
220
0
230
1
0
LINE
5
10C
100
AcDbEntity
8
1
62
256
6
ByLayer
370
13
48
1
60
0
100
AcDbLine
10
210.12135
20
10.292188
30
0
11
210.12135
21
13.209724
31
0
39
0
210
0
220
0
230
1
0
LINE
5
10D
100
AcDbEntity
8
1
62
256
6
ByLayer
370
13
48
1
60
0
100
AcDbLine
10
230.596044
20
1.122128
30
0
11
230.827493
21
0.847599
31
0
39
0
210
0
220
0
230
1
0
LINE
5
10E
100
AcDbEntity
8
1
62
256
6
ByLayer
370
13
48
1
60
0
100
AcDbLine
10
7.5
20
29.5
30
0
11
7.5
21
-29.5
31
0
39
0
210
0
220
0
230
1
0
LINE
5
10F
100
AcDbEntity
8
1
62
256
6
ByLayer
370
13
48
1
60
0
100
AcDbLine
10
223.366184
20
6.16434
30
0
11
229.128492
21
6.46633
31
0
39
0
210
0
220
0
230
1
0
LINE
5
110
100
AcDbEntity
8
1
62
256
6
ByLayer
370
13
48
1
60
0
100
AcDbLine
10
208.107106
20
-21.590148
30
0
11
208.107106
21
-0.311443
31
0
39
0
210
0
220
0
230
1
0
LINE
5
111
100
AcDbEntity
8
1
62
256
6
ByLayer
370
13
48
1
60
0
100
AcDbLine
10
230.595924
20
5.792975
30
0
11
230.546502
21
6.640782
31
0
39
0
210
0
220
0
230
1
0
LINE
5
112
100
AcDbEntity
8
1
62
256
6
ByLayer
370
13
48
1
60
0
100
AcDbLine
10
230.496301
20
0.622234
30
0
11
230.504087
21
0.612999
31
0
39
0
210
0
220
0
230
1
0
LINE
5
113
100
AcDbEntity
8
1
62
256
6
ByLayer
370
13
48
1
60
0
100
AcDbLine
10
230.597398
20
-15.164478
30
0
11
230.200702
21
-14.816043
31
0
39
0
210
0
220
0
230
1
0
LINE
5
114
100
AcDbEntity
8
1
62
256
6
ByLayer
370
13
48
1
60
0
100
AcDbLine
10
217.419656
20
7.053935
30
0
11
216.8946
21
7.026418
31
0
39
0
210
0
220
0
230
1
0
LINE
5
115
100
AcDbEntity
8
1
62
256
6
ByLayer
370
13
48
1
60
0
100
AcDbLine
10
121
20
-8.47901
30
0
11
121
21
21.699147
31
0
39
0
210
0
220
0
230
1
0
LINE
5
116
100
AcDbEntity
8
1
62
256
6
ByLayer
370
13
48
1
60
0
100
AcDbLine
10
217.698223
20
7.169079
30
0
11
217.707447
21
7.169562
31
0
39
0
210
0
220
0
230
1
0
LINE
5
117
100
AcDbEntity
8
1
62
256
6
ByLayer
370
13
48
1
60
0
100
AcDbLine
10
230.496301
20
0.622234
30
0
11
230.484888
21
0.623727
31
0
39
0
210
0
220
0
230
1
0
LINE
5
118
100
AcDbEntity
8
1
62
256
6
ByLayer
370
13
48
1
60
0
100
AcDbLine
10
0
20
-33.5
30
0
11
0
21
-30.832335
31
0
39
0
210
0
220
0
230
1
0
LINE
5
119
100
AcDbEntity
8
1
62
256
6
ByLayer
370
13
48
1
60
0
100
AcDbLine
10
210.432035
20
10.26129
30
0
11
211.607405
21
10.916711
31
0
39
0
210
0
220
0
230
1
0
LINE
5
11A
100
AcDbEntity
8
1
62
256
6
ByLayer
370
13
48
1
60
0
100
AcDbLine
10
7
20
-34
30
0
11
7
21
34
31
0
39
0
210
0
220
0
230
1
0
LINE
5
11B
100
AcDbEntity
8
1
62
256
6
ByLayer
370
13
48
1
60
0
100
AcDbLine
10
5.5
20
-31.268533
30
0
11
0.5
21
-31.268533
31
0
39
0
210
0
220
0
230
1
0
LINE
5
11C
100
AcDbEntity
8
1
62
256
6
ByLayer
370
13
48
1
60
0
100
AcDbLine
10
230.596044
20
1.122128
30
0
11
230.573169
21
1.125121
31
0
39
0
210
0
220
0
230
1
0
LINE
5
11D
100
AcDbEntity
8
1
62
256
6
ByLayer
370
13
48
1
60
0
100
AcDbLine
10
230.669093
20
5.497563
30
0
11
230.633239
21
5.495684
31
0
39
0
210
0
220
0
230
1
0
LINE
5
11E
100
AcDbEntity
8
1
62
256
6
ByLayer
370
13
48
1
60
0
100
AcDbLine
10
0
20
-26.761335
30
0
11
0
21
-4.071
31
0
39
0
210
0
220
0
230
1
0
LINE
5
11F
100
AcDbEntity
8
1
62
256
6
ByLayer
370
13
48
1
60
0
100
AcDbLine
10
229.128492
20
6.46633
30
0
11
228.6054
21
2.177814
31
0
39
0
210
0
220
0
230
1
0
LINE
5
120
100
AcDbEntity
8
1
62
256
6
ByLayer
370
13
48
1
60
0
100
AcDbLine
10
121
20
-21.67651
30
0
11
121
21
-21.7125
31
0
39
0
210
0
220
0
230
1
0
LINE
5
121
100
AcDbEntity
8
1
62
256
6
ByLayer
370
13
48
1
60
0
100
AcDbLine
10
220.98218
20
7.040772
30
0
11
228.586596
21
7.439303
31
0
39
0
210
0
220
0
230
1
0
LINE
5
122
100
AcDbEntity
8
1
62
256
6
ByLayer
370
13
48
1
60
0
100
AcDbLine
10
204.428981
20
2.691399
30
0
11
204.7592
21
0.852465
31
0
39
0
210
0
220
0
230
1
0
LINE
5
123
100
AcDbEntity
8
1
62
256
6
ByLayer
370
13
48
1
60
0
100
AcDbLine
10
211.107106
20
21.9375
30
0
11
211.107106
21
21.753204
31
0
39
0
210
0
220
0
230
1
0
LINE
5
124
100
AcDbEntity
8
1
62
256
6
ByLayer
370
13
48
1
60
0
100
AcDbLine
10
47
20
21.9375
30
0
11
47
21
-7.860045
31
0
39
0
210
0
220
0
230
1
0
LINE
5
125
100
AcDbEntity
8
1
62
256
6
ByLayer
370
13
48
1
60
0
100
AcDbLine
10
52
20
21.9375
30
0
11
52
21
-7.861343
31
0
39
0
210
0
220
0
230
1
0
LINE
5
126
100
AcDbEntity
8
1
62
256
6
ByLayer
370
13
48
1
60
0
100
AcDbLine
10
5.5
20
-31.268533
30
0
11
5.5
21
-29.748313
31
0
39
0
210
0
220
0
230
1
0
LINE
5
127
100
AcDbEntity
8
1
62
256
6
ByLayer
370
13
48
1
60
0
100
AcDbLine
10
225.804343
20
7.794177
30
0
11
227.892767
21
7.903627
31
0
39
0
210
0
220
0
230
1
0
LINE
5
128
100
AcDbEntity
8
1
62
256
6
ByLayer
370
13
48
1
60
0
100
AcDbLine
10
230.131906
20
-0.221124
30
0
11
231.057238
21
-6.027312
31
0
39
0
210
0
220
0
230
1
0
LINE
5
129
100
AcDbEntity
8
1
62
256
6
ByLayer
370
13
48
1
60
0
100
AcDbLine
10
0.5
20
4.071
30
0
11
0.5
21
34
31
0
39
0
210
0
220
0
230
1
0
LINE
5
12A
100
AcDbEntity
8
1
62
256
6
ByLayer
370
13
48
1
60
0
100
AcDbLine
10
211.107106
20
-21.813759
30
0
11
211.107106
21
-0.574354
31
0
39
0
210
0
220
0
230
1
0
LINE
5
12B
100
AcDbEntity
8
1
62
256
6
ByLayer
370
13
48
1
60
0
100
AcDbLine
10
229.716556
20
-21.813759
30
0
11
230.597398
21
-15.164478
31
0
39
0
210
0
220
0
230
1
0
LINE
5
12C
100
AcDbEntity
8
1
62
256
6
ByLayer
370
13
48
1
60
0
100
AcDbLine
10
47
20
-21.854175
30
0
11
47
21
-21.9375
31
0
39
0
210
0
220
0
230
1
0
LINE
5
12D
100
AcDbEntity
8
1
62
256
6
ByLayer
370
13
48
1
60
0
100
AcDbLine
10
0
20
-30.832335
30
0
11
0
21
-29.748313
31
0
39
0
210
0
220
0
230
1
0
LINE
5
12E
100
AcDbEntity
8
1
62
256
6
ByLayer
370
13
48
1
60
0
100
AcDbLine
10
5.5
20
-27.197361
30
0
11
5.5
21
-29.748313
31
0
39
0
210
0
220
0
230
1
0
LINE
5
12F
100
AcDbEntity
8
1
62
256
6
ByLayer
370
13
48
1
60
0
100
AcDbLine
10
210.793056
20
6.799527
30
0
11
210.325747
21
6.748719
31
0
39
0
210
0
220
0
230
1
0
LINE
5
130
100
AcDbEntity
8
1
62
256
6
ByLayer
370
13
48
1
60
0
100
AcDbLine
10
5.5
20
-4.071
30
0
11
5.5
21
4.071
31
0
39
0
210
0
220
0
230
1
0
LINE
5
131
100
AcDbEntity
8
1
62
256
6
ByLayer
370
13
48
1
60
0
100
AcDbLine
10
6
20
-3.571
30
0
11
6
21
3.571
31
0
39
0
210
0
220
0
230
1
0
LINE
5
132
100
AcDbEntity
8
1
62
256
6
ByLayer
370
13
48
1
60
0
100
AcDbLine
10
0
20
-4.071
30
0
11
0
21
4.071
31
0
39
0
210
0
220
0
230
1
0
LINE
5
133
100
AcDbEntity
8
1
62
256
6
ByLayer
370
13
48
1
60
0
100
AcDbLine
10
0.5
20
-27.197533
30
0
11
5.5
21
-27.197533
31
0
39
0
210
0
220
0
230
1
0
LINE
5
134
100
AcDbEntity
8
1
62
256
6
ByLayer
370
13
48
1
60
0
100
AcDbLine
10
0
20
-29.748313
30
0
11
0
21
-26.761226
31
0
39
0
210
0
220
0
230
1
0
LINE
5
135
100
AcDbEntity
8
1
62
256
6
ByLayer
370
13
48
1
60
0
100
AcDbLine
10
0
20
4.071
30
0
11
0
21
33.5
31
0
39
0
210
0
220
0
230
1
0
LINE
5
136
100
AcDbEntity
8
1
62
256
6
ByLayer
370
13
48
1
60
0
100
AcDbLine
10
231.079658
20
-7.729245
30
0
11
229.373102
21
-5.940914
31
0
39
0
210
0
220
0
230
1
0
LINE
5
137
100
AcDbEntity
8
1
62
256
6
ByLayer
370
13
48
1
60
0
100
AcDbLine
10
208.107106
20
-21.590148
30
0
11
199.329803
21
-21.590148
31
0
39
0
210
0
220
0
230
1
0
LINE
5
138
100
AcDbEntity
8
1
62
256
6
ByLayer
370
13
48
1
60
0
100
AcDbLine
10
211.607405
20
10.916711
30
0
11
210.12135
21
13.209724
31
0
39
0
210
0
220
0
230
1
0
LINE
5
139
100
AcDbEntity
8
1
62
256
6
ByLayer
370
13
48
1
60
0
100
AcDbLine
10
217.658567
20
7.076554
30
0
11
217.424077
21
7.064265
31
0
39
0
210
0
220
0
230
1
0
LINE
5
13A
100
AcDbEntity
8
1
62
256
6
ByLayer
370
13
48
1
60
0
100
AcDbLine
10
230.591938
20
6.520988
30
0
11
230.822127
21
6.077439
31
0
39
0
210
0
220
0
230
1
0
LINE
5
13B
100
AcDbEntity
8
1
62
256
6
ByLayer
370
13
48
1
60
0
100
AcDbLine
10
212.743922
20
15.303311
30
0
11
213.472728
21
20.872111
31
0
39
0
210
0
220
0
230
1
0
LINE
5
13C
100
AcDbEntity
8
1
62
256
6
ByLayer
370
13
48
1
60
0
100
AcDbLine
10
6
20
-31.067508
30
0
11
6
21
-27.496508
31
0
39
0
210
0
220
0
230
1
0
LINE
5
13D
100
AcDbEntity
8
1
62
256
6
ByLayer
370
13
48
1
60
0
100
AcDbLine
10
229.128492
20
6.46633
30
0
11
230.134854
21
6.519071
31
0
39
0
210
0
220
0
230
1
0
LINE
5
13E
100
AcDbEntity
8
1
62
256
6
ByLayer
370
13
48
1
60
0
100
AcDbLine
10
0.5
20
-34
30
0
11
0.5
21
-31.268533
31
0
39
0
210
0
220
0
230
1
0
LINE
5
13F
100
AcDbEntity
8
1
62
256
6
ByLayer
370
13
48
1
60
0
100
AcDbLine
10
230.131906
20
-0.221124
30
0
11
228.577211
21
1.408069
31
0
39
0
210
0
220
0
230
1
0
LINE
5
140
100
AcDbEntity
8
1
62
256
6
ByLayer
370
13
48
1
60
0
100
AcDbLine
10
5.5
20
-4.071
30
0
11
0.5
21
-4.071
31
0
39
0
210
0
220
0
230
1
0
LINE
5
141
100
AcDbEntity
8
1
62
256
6
ByLayer
370
13
48
1
60
0
100
AcDbLine
10
213.472728
20
20.872111
30
0
11
213.42514
21
21.780155
31
0
39
0
210
0
220
0
230
1
0
LINE
5
142
100
AcDbEntity
8
1
62
256
6
ByLayer
370
13
48
1
60
0
100
AcDbLine
10
0.5
20
-27.197533
30
0
11
0.5
21
-4.071
31
0
39
0
210
0
220
0
230
1
0
LINE
5
143
100
AcDbEntity
8
1
62
256
6
ByLayer
370
13
48
1
60
0
100
AcDbLine
10
230.591938
20
6.520988
30
0
11
230.553595
21
6.518979
31
0
39
0
210
0
220
0
230
1
0
LINE
5
144
100
AcDbEntity
8
1
62
256
6
ByLayer
370
13
48
1
60
0
100
AcDbLine
10
225.633043
20
7.752897
30
0
11
225.450907
21
7.743352
31
0
39
0
210
0
220
0
230
1
0
LINE
5
145
100
AcDbEntity
8
1
62
256
6
ByLayer
370
13
48
1
60
0
100
AcDbLine
10
210.29271
20
6.674809
30
0
11
211.928431
21
6.172251
31
0
39
0
210
0
220
0
230
1
0
LINE
5
146
100
AcDbEntity
8
1
62
256
6
ByLayer
370
13
48
1
60
0
100
AcDbLine
10
208.107106
20
21.7125
30
0
11
208.107106
21
21.487626
31
0
39
0
210
0
220
0
230
1
0
LINE
5
147
100
AcDbEntity
8
1
62
256
6
ByLayer
370
13
48
1
60
0
100
AcDbLine
10
230.822127
20
6.077439
30
0
11
230.669093
21
5.497563
31
0
39
0
210
0
220
0
230
1
0
LINE
5
148
100
AcDbEntity
8
4
62
256
6
ByLayer
370
18
48
0.05
60
0
100
AcDbLine
10
232
20
0
30
0
11
0
21
0
31
0
39
0
210
0
220
0
230
1
0
LINE
5
14A
100
AcDbEntity
8
SK4
62
256
6
ByLayer
370
13
48
0.05
60
0
100
AcDbLine
10
232
20
0
30
0
11
-18
21
0
31
0
39
0
210
0
220
0
230
1
0
LINE
5
14C
100
AcDbEntity
8
SK1
62
256
6
ByLayer
370
13
48
1
60
0
100
AcDbLine
10
-9.296888
20
24.65
30
0
11
-10.07646
21
24.65
31
0
39
0
210
0
220
0
230
1
0
LINE
5
14D
100
AcDbEntity
8
SK1
62
256
6
ByLayer
370
13
48
1
60
0
100
AcDbLine
10
-10.07646
20
-24.65
30
0
11
-9.296888
21
-24.65
31
0
39
0
210
0
220
0
230
1
0
LINE
5
14E
100
AcDbEntity
8
SK1
62
256
6
ByLayer
370
13
48
1
60
0
100
AcDbLine
10
-0.3
20
24.8
30
0
11
-1.57646
21
24.8
31
0
39
0
210
0
220
0
230
1
0
LINE
5
14F
100
AcDbEntity
8
SK1
62
256
6
ByLayer
370
13
48
1
60
0
100
AcDbLine
10
-1.57646
20
-24.8
30
0
11
-0.3
21
-24.8
31
0
39
0
210
0
220
0
230
1
0
LINE
5
150
100
AcDbEntity
8
SK1
62
256
6
ByLayer
370
13
48
1
60
0
100
AcDbLine
10
-10.07646
20
24.65
30
0
11
-10.5
21
24.8475
31
0
39
0
210
0
220
0
230
1
0
LINE
5
151
100
AcDbEntity
8
SK1
62
256
6
ByLayer
370
13
48
1
60
0
100
AcDbLine
10
-10.5
20
-24.8475
30
0
11
-10.07646
21
-24.65
31
0
39
0
210
0
220
0
230
1
0
LINE
5
152
100
AcDbEntity
8
SK1
62
256
6
ByLayer
370
13
48
1
60
0
100
AcDbLine
10
-18
20
-24.445576
30
0
11
-16.5
21
-24.8475
31
0
39
0
210
0
220
0
230
1
0
LINE
5
153
100
AcDbEntity
8
SK1
62
256
6
ByLayer
370
13
48
1
60
0
100
AcDbLine
10
-16.5
20
24.8475
30
0
11
-18
21
24.445576
31
0
39
0
210
0
220
0
230
1
0
LINE
5
154
100
AcDbEntity
8
SK1
62
256
6
ByLayer
370
13
48
1
60
0
100
AcDbLine
10
-10.5
20
24.8475
30
0
11
-16.5
21
24.8475
31
0
39
0
210
0
220
0
230
1
0
LINE
5
155
100
AcDbEntity
8
SK1
62
256
6
ByLayer
370
13
48
1
60
0
100
AcDbLine
10
-16.5
20
-24.8475
30
0
11
-10.5
21
-24.8475
31
0
39
0
210
0
220
0
230
1
0
LINE
5
156
100
AcDbEntity
8
SK1
62
256
6
ByLayer
370
13
48
1
60
0
100
AcDbLine
10
-2
20
24.9975
30
0
11
-8
21
24.9975
31
0
39
0
210
0
220
0
230
1
0
LINE
5
157
100
AcDbEntity
8
SK1
62
256
6
ByLayer
370
13
48
1
60
0
100
AcDbLine
10
-8
20
-24.9975
30
0
11
-2
21
-24.9975
31
0
39
0
210
0
220
0
230
1
0
LINE
5
158
100
AcDbEntity
8
SK1
62
256
6
ByLayer
370
13
48
1
60
0
100
AcDbLine
10
-9.296888
20
-24.65
30
0
11
-8
21
-24.9975
31
0
39
0
210
0
220
0
230
1
0
LINE
5
159
100
AcDbEntity
8
SK1
62
256
6
ByLayer
370
13
48
1
60
0
100
AcDbLine
10
-8
20
24.9975
30
0
11
-9.296888
21
24.65
31
0
39
0
210
0
220
0
230
1
0
LINE
5
15A
100
AcDbEntity
8
SK1
62
256
6
ByLayer
370
13
48
1
60
0
100
AcDbLine
10
-1.57646
20
24.8
30
0
11
-2
21
24.9975
31
0
39
0
210
0
220
0
230
1
0
LINE
5
15B
100
AcDbEntity
8
SK1
62
256
6
ByLayer
370
13
48
1
60
0
100
AcDbLine
10
-2
20
-24.9975
30
0
11
-1.57646
21
-24.8
31
0
39
0
210
0
220
0
230
1
0
LINE
5
15C
100
AcDbEntity
8
1
62
256
6
ByLayer
370
13
48
1
60
0
100
AcDbLine
10
108.701637
20
21.752603
30
0
11
82.996512
21
21.836424
31
0
39
0
210
0
220
0
230
1
0
LINE
5
15D
100
AcDbEntity
8
1
62
256
6
ByLayer
370
13
48
1
60
0
100
AcDbLine
10
230.649065
20
7.317051
30
0
11
231.103622
21
8.288447
31
0
39
0
210
0
220
0
230
1
0
LINE
5
15E
100
AcDbEntity
8
1
62
256
6
ByLayer
370
13
48
1
60
0
100
AcDbLine
10
229.729959
20
14.790606
30
0
11
228.743837
21
21.034691
31
0
39
0
210
0
220
0
230
1
0
LINE
5
15F
100
AcDbEntity
8
1
62
256
6
ByLayer
370
13
48
1
60
0
100
AcDbLine
10
228.890641
20
8.156439
30
0
11
229.732618
21
14.589974
31
0
39
0
210
0
220
0
230
1
0
LINE
5
160
100
AcDbEntity
8
1
62
256
6
ByLayer
370
13
48
1
60
0
100
AcDbLine
10
47
20
-21.9375
30
0
11
52
21
-21.9375
31
0
39
0
210
0
220
0
230
1
0
LINE
5
161
100
AcDbEntity
8
1
62
256
6
ByLayer
370
13
48
1
60
0
100
AcDbLine
10
52
20
-21.9375
30
0
11
121
21
-21.7125
31
0
39
0
210
0
220
0
230
1
0
LINE
5
162
100
AcDbEntity
8
1
62
256
6
ByLayer
370
13
48
1
60
0
100
AcDbLine
10
213.173256
20
21.9375
30
0
11
211.107106
21
21.9375
31
0
39
0
210
0
220
0
230
1
0
LINE
5
163
100
AcDbEntity
8
1
62
256
6
ByLayer
370
13
48
1
60
0
100
AcDbLine
10
211.107106
20
21.9375
30
0
11
208.107106
21
21.7125
31
0
39
0
210
0
220
0
230
1
0
LINE
5
164
100
AcDbEntity
8
1
62
256
6
ByLayer
370
13
48
1
60
0
100
AcDbLine
10
121
20
-21.7125
30
0
11
129.601742
21
-21.7125
31
0
39
0
210
0
220
0
230
1
0
LINE
5
165
100
AcDbEntity
8
1
62
256
6
ByLayer
370
13
48
1
60
0
100
AcDbLine
10
208.107106
20
21.7125
30
0
11
198.567524
21
21.7125
31
0
39
0
210
0
220
0
230
1
0
LINE
5
166
100
AcDbEntity
8
1
62
256
6
ByLayer
370
13
48
1
60
0
100
AcDbLine
10
0
20
-33.5
30
0
11
0.5
21
-34
31
0
39
0
210
0
220
0
230
1
0
LINE
5
167
100
AcDbEntity
8
1
62
256
6
ByLayer
370
13
48
1
60
0
100
AcDbLine
10
7.5
20
-29.5
30
0
11
17.8177
21
-29.5
31
0
39
0
210
0
220
0
230
1
0
LINE
5
168
100
AcDbEntity
8
1
62
256
6
ByLayer
370
13
48
1
60
0
100
AcDbLine
10
17.8177
20
29.5
30
0
11
7.5
21
29.5
31
0
39
0
210
0
220
0
230
1
0
LINE
5
169
100
AcDbEntity
8
1
62
256
6
ByLayer
370
13
48
1
60
0
100
AcDbLine
10
0.5
20
34
30
0
11
0
21
33.5
31
0
39
0
210
0
220
0
230
1
0
LINE
5
16A
100
AcDbEntity
8
1
62
256
6
ByLayer
370
13
48
1
60
0
100
AcDbLine
10
7
20
34
30
0
11
0.5
21
34
31
0
39
0
210
0
220
0
230
1
0
LINE
5
16B
100
AcDbEntity
8
1
62
256
6
ByLayer
370
13
48
1
60
0
100
AcDbLine
10
0.5
20
-34
30
0
11
7
21
-34
31
0
39
0
210
0
220
0
230
1
0
LINE
5
16C
100
AcDbEntity
8
1
62
256
6
ByLayer
370
18
48
1
60
0
100
AcDbLine
10
222.069124
20
15.424448
30
0
11
222.193846
21
15.430984
31
0
39
0
210
0
220
0
230
1
0
LINE
5
16D
100
AcDbEntity
8
1
62
256
6
ByLayer
370
18
48
1
60
0
100
AcDbLine
10
222.328904
20
12.853921
30
0
11
222.204182
21
12.847384
31
0
39
0
210
0
220
0
230
1
0
LINE
5
16E
100
AcDbEntity
8
1
62
256
6
ByLayer
370
18
48
1
60
0
100
AcDbLine
10
222.3573
20
11.293569
30
0
11
222.423789
21
11.297053
31
0
39
0
210
0
220
0
230
1
0
LINE
5
16F
100
AcDbEntity
8
1
62
256
6
ByLayer
370
18
48
1
60
0
100
AcDbLine
10
222.125474
20
16.989241
30
0
11
222.058985
21
16.985757
31
0
39
0
210
0
220
0
230
1
0
LINE
5
170
100
AcDbEntity
8
81
62
256
6
ByLayer
370
18
48
1
60
0
100
AcDbLine
10
232
20
0
30
0
11
239
21
0
31
0
39
0
210
0
220
0
230
1
0
LINE
5
171
100
AcDbEntity
8
80
62
256
6
ByLayer
370
18
48
1
60
0
100
AcDbLine
10
0
20
0
30
0
11
-7
21
0
31
0
39
0
210
0
220
0
230
1
0
LINE
5
172
100
AcDbEntity
8
SK2
62
256
6
ByLayer
370
13
48
1
60
0
100
AcDbLine
10
-38.725
20
25
30
0
11
-38.725
21
-25
31
0
39
0
210
0
220
0
230
1
0
LINE
5
174
100
AcDbEntity
8
SK2
62
256
6
ByLayer
370
13
48
1
60
0
100
AcDbLine
10
-19.5875
20
-25
30
0
11
-41.9
21
-25
31
0
39
0
210
0
220
0
230
1
0
LINE
5
175
100
AcDbEntity
8
SK2
62
256
6
ByLayer
370
13
48
1
60
0
100
AcDbLine
10
-19.5875
20
25
30
0
11
-41.9
21
25
31
0
39
0
210
0
220
0
230
1
0
LINE
5
176
100
AcDbEntity
8
1
62
256
6
ByLayer
370
18
48
1
60
1
100
AcDbLine
10
-38.725
20
-25
30
0
11
-39.650575
21
-20.825003
31
0
39
0
210
0
220
0
230
1
0
LINE
5
177
100
AcDbEntity
8
1
62
256
6
ByLayer
370
18
48
1
60
1
100
AcDbLine
10
-39.650575
20
-20.825003
30
0
11
-37.799425
21
-20.824997
31
0
39
0
210
0
220
0
230
1
0
LINE
5
178
100
AcDbEntity
8
1
62
256
6
ByLayer
370
18
48
1
60
1
100
AcDbLine
10
-37.799425
20
-20.824997
30
0
11
-38.725
21
-25
31
0
39
0
210
0
220
0
230
1
0
LINE
5
179
100
AcDbEntity
8
1
62
256
6
ByLayer
370
18
48
1
60
1
100
AcDbLine
10
-38.725
20
25
30
0
11
-37.799425
21
20.825003
31
0
39
0
210
0
220
0
230
1
0
LINE
5
17A
100
AcDbEntity
8
1
62
256
6
ByLayer
370
18
48
1
60
1
100
AcDbLine
10
-37.799425
20
20.825003
30
0
11
-39.650575
21
20.824997
31
0
39
0
210
0
220
0
230
1
0
LINE
5
17B
100
AcDbEntity
8
1
62
256
6
ByLayer
370
18
48
1
60
1
100
AcDbLine
10
-39.650575
20
20.824997
30
0
11
-38.725
21
25
31
0
39
0
210
0
220
0
230
1
0
LINE
5
17C
100
AcDbEntity
8
SK2
62
256
6
ByLayer
370
13
48
1
60
0
100
AcDbLine
10
-48.725
20
-34
30
0
11
-48.725
21
34
31
0
39
0
210
0
220
0
230
1
0
LINE
5
17D
100
AcDbEntity
8
SK2
62
256
6
ByLayer
370
13
48
1
60
0
100
AcDbLine
10
-1.5875
20
34
30
0
11
-51.9
21
34
31
0
39
0
210
0
220
0
230
1
0
LINE
5
17E
100
AcDbEntity
8
SK2
62
256
6
ByLayer
370
13
48
1
60
0
100
AcDbLine
10
-1.5875
20
-34
30
0
11
-51.9
21
-34
31
0
39
0
210
0
220
0
230
1
0
LINE
5
17F
100
AcDbEntity
8
1
62
256
6
ByLayer
370
18
48
1
60
1
100
AcDbLine
10
-48.725
20
34
30
0
11
-47.799425
21
29.825003
31
0
39
0
210
0
220
0
230
1
0
LINE
5
180
100
AcDbEntity
8
1
62
256
6
ByLayer
370
18
48
1
60
1
100
AcDbLine
10
-47.799425
20
29.825003
30
0
11
-49.650575
21
29.824997
31
0
39
0
210
0
220
0
230
1
0
LINE
5
181
100
AcDbEntity
8
1
62
256
6
ByLayer
370
18
48
1
60
1
100
AcDbLine
10
-49.650575
20
29.824997
30
0
11
-48.725
21
34
31
0
39
0
210
0
220
0
230
1
0
LINE
5
182
100
AcDbEntity
8
1
62
256
6
ByLayer
370
18
48
1
60
1
100
AcDbLine
10
-48.725
20
-34
30
0
11
-49.650575
21
-29.825003
31
0
39
0
210
0
220
0
230
1
0
LINE
5
183
100
AcDbEntity
8
1
62
256
6
ByLayer
370
18
48
1
60
1
100
AcDbLine
10
-49.650575
20
-29.825003
30
0
11
-47.799425
21
-29.824997
31
0
39
0
210
0
220
0
230
1
0
LINE
5
184
100
AcDbEntity
8
1
62
256
6
ByLayer
370
18
48
1
60
1
100
AcDbLine
10
-47.799425
20
-29.824997
30
0
11
-48.725
21
-34
31
0
39
0
210
0
220
0
230
1
0
LINE
5
185
100
AcDbEntity
8
2
62
256
6
ByLayer
370
13
48
1
60
0
100
AcDbLine
10
258.975
20
22.5
30
0
11
258.975
21
-22.5
31
0
39
0
210
0
220
0
230
1
0
LINE
5
187
100
AcDbEntity
8
2
62
256
6
ByLayer
370
13
48
1
60
0
100
AcDbLine
10
233.5875
20
-22.5
30
0
11
262.15
21
-22.5
31
0
39
0
210
0
220
0
230
1
0
LINE
5
188
100
AcDbEntity
8
2
62
256
6
ByLayer
370
13
48
1
60
0
100
AcDbLine
10
233.5875
20
22.5
30
0
11
262.15
21
22.5
31
0
39
0
210
0
220
0
230
1
0
LINE
5
189
100
AcDbEntity
8
1
62
256
6
ByLayer
370
18
48
1
60
1
100
AcDbLine
10
258.975
20
-22.5
30
0
11
258.049425
21
-18.325003
31
0
39
0
210
0
220
0
230
1
0
LINE
5
18A
100
AcDbEntity
8
1
62
256
6
ByLayer
370
18
48
1
60
1
100
AcDbLine
10
258.049425
20
-18.325003
30
0
11
259.900575
21
-18.324997
31
0
39
0
210
0
220
0
230
1
0
LINE
5
18B
100
AcDbEntity
8
1
62
256
6
ByLayer
370
18
48
1
60
1
100
AcDbLine
10
259.900575
20
-18.324997
30
0
11
258.975
21
-22.5
31
0
39
0
210
0
220
0
230
1
0
LINE
5
18C
100
AcDbEntity
8
1
62
256
6
ByLayer
370
18
48
1
60
1
100
AcDbLine
10
258.975
20
22.5
30
0
11
259.900575
21
18.325003
31
0
39
0
210
0
220
0
230
1
0
LINE
5
18D
100
AcDbEntity
8
1
62
256
6
ByLayer
370
18
48
1
60
1
100
AcDbLine
10
259.900575
20
18.325003
30
0
11
258.049425
21
18.324997
31
0
39
0
210
0
220
0
230
1
0
LINE
5
18E
100
AcDbEntity
8
1
62
256
6
ByLayer
370
18
48
1
60
1
100
AcDbLine
10
258.049425
20
18.324997
30
0
11
258.975
21
22.5
31
0
39
0
210
0
220
0
230
1
0
LINE
5
342
100
AcDbEntity
8
1
62
256
6
ByLayer
370
18
48
1
60
1
100
AcDbLine
10
-38.725
20
-25
30
0
11
-39.650575
21
-20.825003
31
0
39
0
210
0
220
0
230
1
0
LINE
5
343
100
AcDbEntity
8
1
62
256
6
ByLayer
370
18
48
1
60
1
100
AcDbLine
10
-39.650575
20
-20.825003
30
0
11
-37.799425
21
-20.824997
31
0
39
0
210
0
220
0
230
1
0
LINE
5
344
100
AcDbEntity
8
1
62
256
6
ByLayer
370
18
48
1
60
1
100
AcDbLine
10
-37.799425
20
-20.824997
30
0
11
-38.725
21
-25
31
0
39
0
210
0
220
0
230
1
0
LINE
5
346
100
AcDbEntity
8
1
62
256
6
ByLayer
370
18
48
1
60
1
100
AcDbLine
10
-38.725
20
25
30
0
11
-37.799425
21
20.825003
31
0
39
0
210
0
220
0
230
1
0
LINE
5
347
100
AcDbEntity
8
1
62
256
6
ByLayer
370
18
48
1
60
1
100
AcDbLine
10
-37.799425
20
20.825003
30
0
11
-39.650575
21
20.824997
31
0
39
0
210
0
220
0
230
1
0
LINE
5
348
100
AcDbEntity
8
1
62
256
6
ByLayer
370
18
48
1
60
1
100
AcDbLine
10
-39.650575
20
20.824997
30
0
11
-38.725
21
25
31
0
39
0
210
0
220
0
230
1
0
LINE
5
34C
100
AcDbEntity
8
1
62
256
6
ByLayer
370
18
48
1
60
1
100
AcDbLine
10
-48.725
20
34
30
0
11
-47.799425
21
29.825003
31
0
39
0
210
0
220
0
230
1
0
LINE
5
34D
100
AcDbEntity
8
1
62
256
6
ByLayer
370
18
48
1
60
1
100
AcDbLine
10
-47.799425
20
29.825003
30
0
11
-49.650575
21
29.824997
31
0
39
0
210
0
220
0
230
1
0
LINE
5
34E
100
AcDbEntity
8
1
62
256
6
ByLayer
370
18
48
1
60
1
100
AcDbLine
10
-49.650575
20
29.824997
30
0
11
-48.725
21
34
31
0
39
0
210
0
220
0
230
1
0
LINE
5
350
100
AcDbEntity
8
1
62
256
6
ByLayer
370
18
48
1
60
1
100
AcDbLine
10
-48.725
20
-34
30
0
11
-49.650575
21
-29.825003
31
0
39
0
210
0
220
0
230
1
0
LINE
5
351
100
AcDbEntity
8
1
62
256
6
ByLayer
370
18
48
1
60
1
100
AcDbLine
10
-49.650575
20
-29.825003
30
0
11
-47.799425
21
-29.824997
31
0
39
0
210
0
220
0
230
1
0
LINE
5
352
100
AcDbEntity
8
1
62
256
6
ByLayer
370
18
48
1
60
1
100
AcDbLine
10
-47.799425
20
-29.824997
30
0
11
-48.725
21
-34
31
0
39
0
210
0
220
0
230
1
0
LINE
5
356
100
AcDbEntity
8
1
62
256
6
ByLayer
370
18
48
1
60
1
100
AcDbLine
10
258.975
20
-22.5
30
0
11
258.049425
21
-18.325003
31
0
39
0
210
0
220
0
230
1
0
LINE
5
357
100
AcDbEntity
8
1
62
256
6
ByLayer
370
18
48
1
60
1
100
AcDbLine
10
258.049425
20
-18.325003
30
0
11
259.900575
21
-18.324997
31
0
39
0
210
0
220
0
230
1
0
LINE
5
358
100
AcDbEntity
8
1
62
256
6
ByLayer
370
18
48
1
60
1
100
AcDbLine
10
259.900575
20
-18.324997
30
0
11
258.975
21
-22.5
31
0
39
0
210
0
220
0
230
1
0
LINE
5
35A
100
AcDbEntity
8
1
62
256
6
ByLayer
370
18
48
1
60
1
100
AcDbLine
10
258.975
20
22.5
30
0
11
259.900575
21
18.325003
31
0
39
0
210
0
220
0
230
1
0
LINE
5
35B
100
AcDbEntity
8
1
62
256
6
ByLayer
370
18
48
1
60
1
100
AcDbLine
10
259.900575
20
18.325003
30
0
11
258.049425
21
18.324997
31
0
39
0
210
0
220
0
230
1
0
LINE
5
35C
100
AcDbEntity
8
1
62
256
6
ByLayer
370
18
48
1
60
1
100
AcDbLine
10
258.049425
20
18.324997
30
0
11
258.975
21
22.5
31
0
39
0
210
0
220
0
230
1
0
MTEXT
5
33E
100
AcDbEntity
8
SK2
62
256
6
ByLayer
370
18
48
1
60
0
100
AcDbMText
10
-40.736672
20
-6.949399
30
0
210
0
220
0
230
1
1
%%c
40
4.5
41
0
44
1.084337
50
90
71
7
72
5
7
iso_b_vert
0
MTEXT
5
341
100
AcDbEntity
8
SK2
62
256
6
ByLayer
370
18
48
1
60
0
100
AcDbMText
10
-40.736672
20
4.265444
30
0
210
0
220
0
230
1
1
\W0.6740;50
40
4.5
41
0
44
1.084337
50
90
71
7
72
5
7
iso_b_vert
0
MTEXT
5
34A
100
AcDbEntity
8
SK2
62
256
6
ByLayer
370
18
48
1
60
0
100
AcDbMText
10
-50.736672
20
-6.949399
30
0
210
0
220
0
230
1
1
%%c
40
4.5
41
0
44
1.084337
50
90
71
7
72
5
7
iso_b_vert
0
MTEXT
5
34B
100
AcDbEntity
8
SK2
62
256
6
ByLayer
370
18
48
1
60
0
100
AcDbMText
10
-50.736672
20
4.265444
30
0
210
0
220
0
230
1
1
\W0.6740;68
40
4.5
41
0
44
1.084337
50
90
71
7
72
5
7
iso_b_vert
0
MTEXT
5
354
100
AcDbEntity
8
2
62
256
6
ByLayer
370
18
48
1
60
0
100
AcDbMText
10
256.963328
20
-7.186314
30
0
210
0
220
0
230
1
1
%%c
40
4.5
41
0
44
1.084337
50
90
71
7
72
5
7
iso_b_vert
0
MTEXT
5
355
100
AcDbEntity
8
2
62
256
6
ByLayer
370
18
48
1
60
0
100
AcDbMText
10
256.963328
20
4.02853
30
0
210
0
220
0
230
1
1
\W0.7361;45
40
4.5
41
0
44
1.084337
50
90
71
7
72
5
7
iso_b_vert
0
MTEXT
5
35E
100
AcDbEntity
8
SK6
62
256
6
ByLayer
370
18
48
1
60
0
100
AcDbMText
10
9.308916
20
-94.592562
30
0
210
0
220
0
230
1
1
\W0.7794;DS20-D4500DM50-04
40
3.5
41
0
44
1.084337
50
0
71
7
72
5
7
iso_b_vert
0
HATCH
5
345
100
AcDbEntity
8
SK2
62
256
6
ByLayer
370
13
48
1
60
0
100
AcDbHatch
10
0
20
0
30
0
210
0
220
0
230
1
2
ANSI31
70
0
71
0
91
1
92
5
93
3
72
1
10
-38.7250000000001
20
-25
11
-39.650575216528
21
-20.8250033998276
72
1
10
-39.650575216528
20
-20.8250033998276
11
-37.7994247834721
21
-20.8249966001723
72
1
10
-37.7994247834721
20
-20.8249966001723
11
-38.7250000000001
21
-25
97
0
75
0
76
1
52
0
41
0.0062
77
0
78
1
53
45
43
0
44
0
45
-0.0139193969876572
46
0.0139193969876572
79
0
47
0
98
1
10
0
20
0
0
HATCH
5
349
100
AcDbEntity
8
SK2
62
256
6
ByLayer
370
13
48
1
60
0
100
AcDbHatch
10
0
20
0
30
0
210
0
220
0
230
1
2
ANSI31
70
0
71
0
91
1
92
5
93
3
72
1
10
-38.7250000000001
20
25
11
-37.7994247834721
21
20.8250033998276
72
1
10
-37.7994247834721
20
20.8250033998276
11
-39.650575216528
21
20.8249966001724
72
1
10
-39.650575216528
20
20.8249966001724
11
-38.7250000000001
21
25
97
0
75
0
76
1
52
0
41
0.0062
77
0
78
1
53
45
43
0
44
0
45
-0.0139193969876572
46
0.0139193969876572
79
0
47
0
98
1
10
0
20
0
0
HATCH
5
34F
100
AcDbEntity
8
SK2
62
256
6
ByLayer
370
13
48
1
60
0
100
AcDbHatch
10
0
20
0
30
0
210
0
220
0
230
1
2
ANSI31
70
0
71
0
91
1
92
5
93
3
72
1
10
-48.7250000000001
20
34
11
-47.7994247834721
21
29.8250033998276
72
1
10
-47.7994247834721
20
29.8250033998276
11
-49.650575216528
21
29.8249966001724
72
1
10
-49.650575216528
20
29.8249966001724
11
-48.7250000000001
21
34
97
0
75
0
76
1
52
0
41
0.0062
77
0
78
1
53
45
43
0
44
0
45
-0.0139193969876572
46
0.0139193969876572
79
0
47
0
98
1
10
0
20
0
0
HATCH
5
353
100
AcDbEntity
8
SK2
62
256
6
ByLayer
370
13
48
1
60
0
100
AcDbHatch
10
0
20
0
30
0
210
0
220
0
230
1
2
ANSI31
70
0
71
0
91
1
92
5
93
3
72
1
10
-48.7250000000001
20
-34
11
-49.650575216528
21
-29.8250033998276
72
1
10
-49.650575216528
20
-29.8250033998276
11
-47.7994247834721
21
-29.8249966001724
72
1
10
-47.7994247834721
20
-29.8249966001724
11
-48.7250000000001
21
-34
97
0
75
0
76
1
52
0
41
0.0062
77
0
78
1
53
45
43
0
44
0
45
-0.0139193969876572
46
0.0139193969876572
79
0
47
0
98
1
10
0
20
0
0
HATCH
5
359
100
AcDbEntity
8
2
62
256
6
ByLayer
370
13
48
1
60
0
100
AcDbHatch
10
0
20
0
30
0
210
0
220
0
230
1
2
ANSI31
70
0
71
0
91
1
92
5
93
3
72
1
10
258.975
20
-22.5000000000003
11
258.049424783472
21
-18.3250033998279
72
1
10
258.049424783472
20
-18.3250033998279
11
259.900575216528
21
-18.3249966001726
72
1
10
259.900575216528
20
-18.3249966001726
11
258.975
21
-22.5000000000003
97
0
75
0
76
1
52
0
41
0.0062
77
0
78
1
53
45
43
0
44
0
45
-0.0139193969876572
46
0.0139193969876572
79
0
47
0
98
1
10
0
20
0
0
HATCH
5
35D
100
AcDbEntity
8
2
62
256
6
ByLayer
370
13
48
1
60
0
100
AcDbHatch
10
0
20
0
30
0
210
0
220
0
230
1
2
ANSI31
70
0
71
0
91
1
92
5
93
3
72
1
10
258.975
20
22.4999999999997
11
259.900575216528
21
18.3250033998273
72
1
10
259.900575216528
20
18.3250033998273
11
258.049424783472
21
18.3249966001721
72
1
10
258.049424783472
20
18.3249966001721
11
258.975
21
22.4999999999997
97
0
75
0
76
1
52
0
41
0.0062
77
0
78
1
53
45
43
0
44
0
45
-0.0139193969876572
46
0.0139193969876572
79
0
47
0
98
1
10
0
20
0
0
DIMENSION
5
361
100
AcDbEntity
8
2
62
256
6
ByLayer
370
18
48
1
60
0
100
AcDbDimension
2
_U0
10
232
20
-82.85
30
0
11
116
21
-82.85
31
0
70
32
71
1
72
1
41
1
210
0
220
0
230
1
3
Standard
100
AcDbAlignedDimension
13
0
23
-34
33
0
14
232
24
-22.5
34
0
50
0
100
AcDbRotatedDimension
1001
ACAD
1000
DSTYLE
1002
{
1070
   371
1070
    13
1070
   372
1070
    13
1070
   170
1070
     0
1070
   144
1040
1.0
1070
   277
1070
     2
1070
   284
1070
     8
1070
   278
1070
    46
1070
   146
1040
0.777778
1070
   345
1005
16
1070
   347
1005
16
1070
   346
1005
16
1070
   344
1005
0
1070
   343
1005
0
1070
   172
1070
     1
1070
    76
1070
     0
1070
    75
1070
     0
1070
   282
1070
     0
1070
   281
1070
     0
1070
    71
1070
     0
1070
    74
1070
     0
1070
   279
1070
     0
1070
   173
1070
     1
1070
   340
1005
33F
1070
   271
1070
     1
1070
   272
1070
     2
1070
    77
1070
     1
1070
    73
1070
     1
1070
   171
1070
     3
1070
   274
1070
     4
1070
   177
1070
   150
1070
   176
1070
     9
1070
   178
1070
    43
1070
    78
1070
     8
1070
    48
1040
-0.1
1070
    41
1040
4.175
1070
   147
1040
2.25
1070
    42
1040
1.5875
1070
    44
1040
3.175
1070
   140
1040
4.5
1002
}
1001
ACAD_DSTYLE_DIM_LINETYPE
1070
   380
1005
16
1001
ACAD_DSTYLE_DIM_EXT1_LINETYPE
1070
   381
1005
16
1001
ACAD_DSTYLE_DIM_EXT2_LINETYPE
1070
   382
1005
16
0
DIMENSION
5
37A
100
AcDbEntity
8
SK2
62
256
6
ByLayer
370
18
48
1
60
0
100
AcDbDimension
2
_U1
10
0
20
-82.85
30
0
11
-9
21
-82.85
31
0
70
32
71
1
72
1
41
1
210
0
220
0
230
1
3
Standard
100
AcDbAlignedDimension
13
-18
23
-25
33
0
14
0
24
-34
34
0
50
0
100
AcDbRotatedDimension
1001
ACAD
1000
DSTYLE
1002
{
1070
   371
1070
    13
1070
   372
1070
    13
1070
   170
1070
     0
1070
   144
1040
1.0
1070
   277
1070
     2
1070
   284
1070
     8
1070
   278
1070
    46
1070
   146
1040
0.777778
1070
   345
1005
16
1070
   347
1005
16
1070
   346
1005
16
1070
   344
1005
0
1070
   343
1005
0
1070
   172
1070
     1
1070
    76
1070
     0
1070
    75
1070
     0
1070
   282
1070
     0
1070
   281
1070
     0
1070
    71
1070
     0
1070
    74
1070
     0
1070
   279
1070
     0
1070
   173
1070
     1
1070
   340
1005
33F
1070
   271
1070
     1
1070
   272
1070
     2
1070
    77
1070
     1
1070
    73
1070
     1
1070
   171
1070
     3
1070
   274
1070
     4
1070
   177
1070
   150
1070
   176
1070
     9
1070
   178
1070
    43
1070
    78
1070
     8
1070
    48
1040
-0.1
1070
    41
1040
4.175
1070
   147
1040
2.25
1070
    42
1040
1.5875
1070
    44
1040
3.175
1070
   140
1040
4.5
1002
}
1001
ACAD_DSTYLE_DIM_LINETYPE
1070
   380
1005
16
1001
ACAD_DSTYLE_DIM_EXT1_LINETYPE
1070
   381
1005
16
1001
ACAD_DSTYLE_DIM_EXT2_LINETYPE
1070
   382
1005
16
0
DIMENSION
5
393
100
AcDbEntity
8
SK2
62
256
6
ByLayer
370
18
48
1
60
0
100
AcDbDimension
2
_U2
10
18.3177
20
-72.85
30
0
11
125.15885
21
-72.85
31
0
70
32
71
1
72
1
41
1
210
0
220
0
230
1
3
Standard
100
AcDbAlignedDimension
13
232
23
-22.5
33
0
14
18.3177
24
-34
34
0
50
0
100
AcDbRotatedDimension
1001
ACAD
1000
DSTYLE
1002
{
1070
   371
1070
    13
1070
   372
1070
    13
1070
   170
1070
     0
1070
   144
1040
1.0
1070
   277
1070
     2
1070
   284
1070
     8
1070
   278
1070
    46
1070
   146
1040
0.777778
1070
   345
1005
16
1070
   347
1005
16
1070
   346
1005
16
1070
   344
1005
0
1070
   343
1005
0
1070
   172
1070
     1
1070
    76
1070
     0
1070
    75
1070
     0
1070
   282
1070
     0
1070
   281
1070
     0
1070
    71
1070
     0
1070
    74
1070
     0
1070
   279
1070
     0
1070
   173
1070
     1
1070
   340
1005
33F
1070
   271
1070
     1
1070
   272
1070
     2
1070
    77
1070
     1
1070
    73
1070
     1
1070
   171
1070
     3
1070
   274
1070
     4
1070
   177
1070
   150
1070
   176
1070
     9
1070
   178
1070
    43
1070
    78
1070
     8
1070
    48
1040
-0.1
1070
    41
1040
4.175
1070
   147
1040
2.25
1070
    42
1040
1.5875
1070
    44
1040
3.175
1070
   140
1040
4.5
1002
}
1001
ACAD_DSTYLE_DIM_LINETYPE
1070
   380
1005
16
1001
ACAD_DSTYLE_DIM_EXT1_LINETYPE
1070
   381
1005
16
1001
ACAD_DSTYLE_DIM_EXT2_LINETYPE
1070
   382
1005
16
0
DIMENSION
5
3AB
100
AcDbEntity
8
SK2
62
256
6
ByLayer
370
18
48
1
60
0
100
AcDbDimension
2
_U3
10
232
20
-62.85
30
0
11
139.5
21
-62.85
31
0
70
32
71
1
72
1
41
1
210
0
220
0
230
1
3
Standard
100
AcDbAlignedDimension
13
47
23
-22.5
33
0
14
232
24
-22.5
34
0
50
0
100
AcDbRotatedDimension
1001
ACAD
1000
DSTYLE
1002
{
1070
   371
1070
    13
1070
   372
1070
    13
1070
   170
1070
     0
1070
   144
1040
1.0
1070
   277
1070
     2
1070
   284
1070
     8
1070
   278
1070
    46
1070
   146
1040
0.777778
1070
   345
1005
16
1070
   347
1005
16
1070
   346
1005
16
1070
   344
1005
0
1070
   343
1005
0
1070
   172
1070
     1
1070
    76
1070
     0
1070
    75
1070
     0
1070
   282
1070
     0
1070
   281
1070
     0
1070
    71
1070
     0
1070
    74
1070
     0
1070
   279
1070
     0
1070
   173
1070
     1
1070
   340
1005
33F
1070
   271
1070
     1
1070
   272
1070
     2
1070
    77
1070
     1
1070
    73
1070
     1
1070
   171
1070
     3
1070
   274
1070
     4
1070
   177
1070
   150
1070
   176
1070
     9
1070
   178
1070
    43
1070
    78
1070
     8
1070
    48
1040
-0.1
1070
    41
1040
4.175
1070
   147
1040
2.25
1070
    42
1040
1.5875
1070
    44
1040
3.175
1070
   140
1040
4.5
1002
}
1001
ACAD_DSTYLE_DIM_LINETYPE
1070
   380
1005
16
1001
ACAD_DSTYLE_DIM_EXT1_LINETYPE
1070
   381
1005
16
1001
ACAD_DSTYLE_DIM_EXT2_LINETYPE
1070
   382
1005
16
0
DIMENSION
5
3C3
100
AcDbEntity
8
2
62
256
6
ByLayer
370
18
48
1
60
0
100
AcDbDimension
2
_U4
10
232
20
-52.85
30
0
11
254.029464
21
-52.85
31
0
70
32
71
1
72
1
41
1
210
0
220
0
230
1
3
Standard
100
AcDbAlignedDimension
13
230.7234
23
-11.25
33
0
14
232
24
0
34
0
50
0
100
AcDbRotatedDimension
1001
ACAD
1000
DSTYLE
1002
{
1070
   371
1070
    13
1070
   372
1070
    13
1070
   170
1070
     0
1070
   144
1040
1.0
1070
   277
1070
     2
1070
   284
1070
     8
1070
   278
1070
    46
1070
   146
1040
0.777778
1070
   345
1005
16
1070
   347
1005
16
1070
   346
1005
16
1070
   344
1005
0
1070
   343
1005
0
1070
   172
1070
     1
1070
    76
1070
     0
1070
    75
1070
     0
1070
   282
1070
     0
1070
   281
1070
     0
1070
    71
1070
     0
1070
    74
1070
     0
1070
   279
1070
     0
1070
   173
1070
     1
1070
   340
1005
33F
1070
   271
1070
     2
1070
   272
1070
     2
1070
    77
1070
     1
1070
    73
1070
     1
1070
   171
1070
     3
1070
   274
1070
     4
1070
   177
1070
   150
1070
   176
1070
     9
1070
   178
1070
    43
1070
    78
1070
     8
1070
    48
1040
-0.1
1070
    41
1040
4.175
1070
   147
1040
2.25
1070
    42
1040
1.5875
1070
    44
1040
3.175
1070
   140
1040
4.5
1002
}
1001
ACAD_DSTYLE_DIM_LINETYPE
1070
   380
1005
16
1001
ACAD_DSTYLE_DIM_EXT1_LINETYPE
1070
   381
1005
16
1001
ACAD_DSTYLE_DIM_EXT2_LINETYPE
1070
   382
1005
16
0
ENDSEC
0
SECTION
2
OBJECTS
0
DICTIONARY
5
44d
330
0
100
AcDbDictionary
280
0
281
1
3
ACAD_GROUP
350
44e
3
ACAD_MLINESTYLE
350
44f
0
DICTIONARY
5
44e
330
0
100
AcDbDictionary
280
0
281
1
0
DICTIONARY
5
44f
330
0
100
AcDbDictionary
280
0
281
1
3
Standard
350
18
0
MLINESTYLE
5
18
330
44f
100
AcDbMlineStyle
2
Standard
70
0
3

62
256
51
90
52
90
71
2
49
-0.5
62
256
6
ByLayer
49
0.5
62
256
6
ByLayer
0
RASTERVARIABLES
5
43b
330

100
AcDbRasterVariables
90
0
70
1
71
1
72
1
0
ENDSEC
0
EOF
