0
SECTION
2
HEADER
9
$ACADVER
1
AC1015
9
$DWGCODEPAGE
3
ANSI_1252
9
$HANDSEED
5
458
9
$ANGBASE
50
0
9
$ANGDIR
70
0
9
$ATTMODE
70
1
9
$AUNITS
70
0
9
$AUPREC
70
0
9
$CECOLOR
62
256
9
$CELTSCALE
40
1
9
$CELTYPE
6
ByLayer
9
$CELWEIGHT
370
18
9
$CLAYER
8
0
9
$CMLJUST
70
0
9
$CMLSCALE
40
1
9
$CMLSTYLE
2
Standard
9
$DIMSTYLE
2
Standard
9
$TEXTSIZE
40
0.2
9
$TEXTSTYLE
7
Standard
9
$LUNITS
70
2
9
$LUPREC
70
4
9
$EXTNAMES
290
1
9
$INSUNITS
70
4
9
$LTSCALE
40
1
9
$LWDISPLAY
290
1
9
$PDMODE
70
0
9
$PDSIZE
40
0
9
$PLINEGEN
70
0
0
ENDSEC
0
SECTION
2
CLASSES
0
CLASS
1
RASTERVARIABLES
2
AcDbRasterVariables
3
ISM
90
0
280
0
281
0
0
ENDSEC
0
SECTION
2
TABLES
0
TABLE
2
VPORT
5
44e
100
AcDbSymbolTable
0
VPORT
5
1
100
AcDbSymbolTableRecord
100
AcDbViewportTableRecord
2
*Active
70
0
10
0
20
0
11
1
21
1
12
-1
22
1
13
0
23
0
14
0.5
24
0.5
15
10
25
10
16
0
26
0
36
1
17
0
27
0
37
0
0
ENDTAB
0
TABLE
2
LTYPE
5
44f
100
AcDbSymbolTable
0
LTYPE
5
14
100
AcDbSymbolTableRecord
100
AcDbLinetypeTableRecord
70
0
2
ByBlock
3

72
65
73
0
40
0
0
LTYPE
5
15
100
AcDbSymbolTableRecord
100
AcDbLinetypeTableRecord
70
0
2
ByLayer
3

72
65
73
0
40
0
0
LTYPE
5
16
100
AcDbSymbolTableRecord
100
AcDbLinetypeTableRecord
70
0
2
Continuous
3
Solid line
72
65
73
0
40
0
0
LTYPE
5
6E
100
AcDbSymbolTableRecord
100
AcDbLinetypeTableRecord
70
0
2
CENTER
3
____ _ ____ _ ____ _ ____
72
65
73
4
40
47.5
49
22
74
0
49
-8.5
74
0
49
8.5
74
0
49
-8.5
74
0
0
LTYPE
5
6F
100
AcDbSymbolTableRecord
100
AcDbLinetypeTableRecord
70
0
2
DASHED
3
__ __ __ __ __ __ __ __ __
72
65
73
2
40
25.72
49
12.86
74
0
49
-12.86
74
0
0
ENDTAB
0
TABLE
2
LAYER
5
450
100
AcDbSymbolTable
0
LAYER
5
10
100
AcDbSymbolTableRecord
100
AcDbLayerTableRecord
2
0
70
0
62
7
6
Continuous
290
1
370
-3
390
0
0
LAYER
5
71
100
AcDbSymbolTableRecord
100
AcDbLayerTableRecord
2
1
70
0
62
4
6
Continuous
290
1
370
-3
390
0
0
LAYER
5
73
100
AcDbSymbolTableRecord
100
AcDbLayerTableRecord
2
80
70
0
62
-6
6
Continuous
290
1
370
-3
390
0
0
LAYER
5
75
100
AcDbSymbolTableRecord
100
AcDbLayerTableRecord
2
81
70
0
62
-3
6
Continuous
290
1
370
-3
390
0
0
LAYER
5
147
100
AcDbSymbolTableRecord
100
AcDbLayerTableRecord
2
4
70
0
62
-2
6
CENTER
290
1
370
-3
390
0
0
LAYER
5
183
100
AcDbSymbolTableRecord
100
AcDbLayerTableRecord
2
2
70
0
62
7
6
Continuous
290
1
370
-3
390
0
0
LAYER
5
362
100
AcDbSymbolTableRecord
100
AcDbLayerTableRecord
2
Defpoints
70
0
62
7
6
Continuous
290
0
370
-3
390
0
0
LAYER
5
43a
100
AcDbSymbolTableRecord
100
AcDbLayerTableRecord
2
SK1
70
0
62
4
6
Continuous
290
1
370
-3
390
0
0
LAYER
5
43b
100
AcDbSymbolTableRecord
100
AcDbLayerTableRecord
2
SK4
70
0
62
2
6
CENTER
290
1
370
-3
390
0
0
LAYER
5
43c
100
AcDbSymbolTableRecord
100
AcDbLayerTableRecord
2
SK2
70
0
62
7
6
Continuous
290
1
370
-3
390
0
0
LAYER
5
43d
100
AcDbSymbolTableRecord
100
AcDbLayerTableRecord
2
SK6
70
0
62
5
6
Continuous
290
1
370
-3
390
0
0
ENDTAB
0
TABLE
2
STYLE
5
451
100
AcDbSymbolTable
0
STYLE
5
11
100
AcDbSymbolTableRecord
100
AcDbTextStyleTableRecord
2
Standard
3
txt
70
0
71
0
40
0
41
1
42
0
50
0
0
STYLE
5
33D
100
AcDbSymbolTableRecord
100
AcDbTextStyleTableRecord
2
iso_b_vert
3
simplex.shx
70
0
71
0
40
0
41
1
42
0
50
0
0
STYLE
5
33E
100
AcDbSymbolTableRecord
100
AcDbTextStyleTableRecord
2
DWGDirectTextStyle
3
simplex
70
0
71
0
40
0
41
1
42
0
50
0
0
ENDTAB
0
TABLE
2
DIMSTYLE
5
452
100
AcDbSymbolTable
100
AcDbDimStyleTable
0
DIMSTYLE
105
27
100
AcDbSymbolTableRecord
100
AcDbDimStyleTableRecord
2
Standard
70
0
3
<>
41
0.18
42
0.0625
44
0.18
140
0.18
147
0.09
73
0
74
0
77
1
271
2
275
0
278
52
280
0
340
11
0
ENDTAB
0
TABLE
2
VIEW
5
453
100
AcDbSymbolTable
0
ENDTAB
0
TABLE
2
UCS
5
454
100
AcDbSymbolTable
0
ENDTAB
0
TABLE
2
APPID
5
455
100
AcDbSymbolTable
0
APPID
5
12
100
AcDbSymbolTableRecord
100
AcDbRegAppTableRecord
2
ACAD
70
0
0
APPID
5
35E
100
AcDbSymbolTableRecord
100
AcDbRegAppTableRecord
2
ACAD_DSTYLE_DIMBREAK
70
0
0
APPID
5
3F9
100
AcDbSymbolTableRecord
100
AcDbRegAppTableRecord
2
ACAD_DSTYLE_DIM_LINETYPE
70
0
0
APPID
5
3FA
100
AcDbSymbolTableRecord
100
AcDbRegAppTableRecord
2
ACAD_DSTYLE_DIM_EXT1_LINETYPE
70
0
0
APPID
5
3FB
100
AcDbSymbolTableRecord
100
AcDbRegAppTableRecord
2
ACAD_DSTYLE_DIM_EXT2_LINETYPE
70
0
0
APPID
5
436
100
AcDbSymbolTableRecord
100
AcDbRegAppTableRecord
2
ACAD_MLEADERVER
70
0
0
ENDTAB
0
TABLE
2
BLOCK_RECORD
5
456
100
AcDbSymbolTable
0
BLOCK_RECORD
5
1F
100
AcDbSymbolTableRecord
100
AcDbBlockTableRecord
2
*Model_Space
340
0
70
0
0
BLOCK_RECORD
5
1B
100
AcDbSymbolTableRecord
100
AcDbBlockTableRecord
2
*Paper_Space
340
0
70
0
0
BLOCK_RECORD
5
23
100
AcDbSymbolTableRecord
100
AcDbBlockTableRecord
2
*Paper_Space0
340
0
70
0
0
BLOCK_RECORD
5
363
100
AcDbSymbolTableRecord
100
AcDbBlockTableRecord
2
*D1
340
0
70
0
0
BLOCK_RECORD
5
36F
100
AcDbSymbolTableRecord
100
AcDbBlockTableRecord
2
_U0
340
0
70
0
0
BLOCK_RECORD
5
37B
100
AcDbSymbolTableRecord
100
AcDbBlockTableRecord
2
*D3
340
0
70
0
0
BLOCK_RECORD
5
388
100
AcDbSymbolTableRecord
100
AcDbBlockTableRecord
2
_U1
340
0
70
0
0
BLOCK_RECORD
5
394
100
AcDbSymbolTableRecord
100
AcDbBlockTableRecord
2
*D5
340
0
70
0
0
BLOCK_RECORD
5
3A0
100
AcDbSymbolTableRecord
100
AcDbBlockTableRecord
2
_U2
340
0
70
0
0
BLOCK_RECORD
5
3AC
100
AcDbSymbolTableRecord
100
AcDbBlockTableRecord
2
*D7
340
0
70
0
0
BLOCK_RECORD
5
3B8
100
AcDbSymbolTableRecord
100
AcDbBlockTableRecord
2
_U3
340
0
70
0
0
BLOCK_RECORD
5
3C4
100
AcDbSymbolTableRecord
100
AcDbBlockTableRecord
2
*D9
340
0
70
0
0
BLOCK_RECORD
5
3D2
100
AcDbSymbolTableRecord
100
AcDbBlockTableRecord
2
_U4
340
0
70
0
0
ENDTAB
0
ENDSEC
0
SECTION
2
BLOCKS
0
BLOCK
5
20
100
AcDbEntity
8
0
100
AcDbBlockBegin
2
*Model_Space
70
0
10
0
20
0
30
0
3
*Model_Space
0
ENDBLK
5
21
100
AcDbEntity
8
0
100
AcDbBlockEnd
0
BLOCK
5
1C
100
AcDbEntity
8
0
100
AcDbBlockBegin
2
*Paper_Space
70
0
10
0
20
0
30
0
3
*Paper_Space
0
ENDBLK
5
1D
100
AcDbEntity
8
0
100
AcDbBlockEnd
0
BLOCK
5
24
100
AcDbEntity
8
0
100
AcDbBlockBegin
2
*Paper_Space0
70
0
10
0
20
0
30
0
3
*Paper_Space0
0
ENDBLK
5
25
100
AcDbEntity
8
0
100
AcDbBlockEnd
0
BLOCK
5
364
100
AcDbEntity
8
0
100
AcDbBlockBegin
2
*D1
70
1
10
0
20
0
30
0
3
*D1
0
LINE
5
366
100
AcDbEntity
8
0
62
256
6
ByLayer
370
-2
48
1
60
0
100
AcDbLine
10
0
20
-35.5875
30
0
11
0
21
-86.025
31
0
39
0
210
0
220
0
230
1
0
LINE
5
367
100
AcDbEntity
8
0
62
256
6
ByLayer
370
-2
48
1
60
0
100
AcDbLine
10
253.1618
20
-26.9875
30
0
11
253.1618
21
-86.025
31
0
39
0
210
0
220
0
230
1
0
LINE
5
368
100
AcDbEntity
8
0
62
256
6
ByLayer
370
-2
48
1
60
0
100
AcDbLine
10
4.175
20
-82.85
30
0
11
248.9868
21
-82.85
31
0
39
0
210
0
220
0
230
1
0
SOLID
5
369
100
AcDbEntity
8
0
62
256
6
ByLayer
370
-1
48
1
60
0
100
AcDbTrace
10
4.175
20
-82.154167
30
0
11
4.175
21
-83.545833
31
0
12
0
22
-82.85
32
0
13
0
23
-82.85
33
0
39
0
210
0
220
0
230
1
0
SOLID
5
36A
100
AcDbEntity
8
0
62
256
6
ByLayer
370
-1
48
1
60
0
100
AcDbTrace
10
248.9868
20
-83.545833
30
0
11
248.9868
21
-82.154167
31
0
12
253.1618
22
-82.85
32
0
13
253.1618
23
-82.85
33
0
39
0
210
0
220
0
230
1
0
MTEXT
5
36B
100
AcDbEntity
8
0
62
256
6
ByLayer
370
18
48
1
60
0
100
AcDbMText
10
126.5809
20
-73.45625
30
0
210
0
220
0
230
1
1
\A1;253.2
40
4.5
41
0
44
1
50
0
71
5
72
5
7
iso_b_vert
0
POINT
5
36C
100
AcDbEntity
8
Defpoints
62
0
6
ByLayer
370
-1
48
1
60
0
100
AcDbPoint
10
0
20
-34
30
0
39
0
210
0
220
0
230
1
50
360
0
POINT
5
36D
100
AcDbEntity
8
Defpoints
62
0
6
ByLayer
370
-1
48
1
60
0
100
AcDbPoint
10
253.1618
20
-25.4
30
0
39
0
210
0
220
0
230
1
50
360
0
POINT
5
36E
100
AcDbEntity
8
Defpoints
62
0
6
ByLayer
370
-1
48
1
60
0
100
AcDbPoint
10
253.1618
20
-82.85
30
0
39
0
210
0
220
0
230
1
50
360
0
ENDBLK
5
365
100
AcDbEntity
8
0
100
AcDbBlockEnd
0
BLOCK
5
376
100
AcDbEntity
8
0
100
AcDbBlockBegin
2
_U0
70
0
10
0
20
0
30
0
3
_U0
0
MTEXT
5
370
100
AcDbEntity
8
2
62
256
6
ByLayer
370
18
48
1
60
0
100
AcDbMText
10
119.857344
20
-81.522328
30
0
210
0
220
0
230
1
1
\W0.7468;253.2
40
4.5
41
0
44
1.084337
50
0
71
7
72
5
7
iso_b_vert
0
LINE
5
371
100
AcDbEntity
8
2
62
256
6
ByLayer
370
13
48
1
60
0
100
AcDbLine
10
0
20
-35.5875
30
0
11
0
21
-86.025
31
0
39
0
210
0
220
0
230
1
0
LINE
5
372
100
AcDbEntity
8
2
62
256
6
ByLayer
370
13
48
1
60
0
100
AcDbLine
10
253.1618
20
-26.9875
30
0
11
253.1618
21
-86.025
31
0
39
0
210
0
220
0
230
1
0
LINE
5
373
100
AcDbEntity
8
2
62
256
6
ByLayer
370
13
48
1
60
0
100
AcDbLine
10
0
20
-82.85
30
0
11
253.1618
21
-82.85
31
0
39
0
210
0
220
0
230
1
0
SOLID
5
374
100
AcDbEntity
8
2
62
256
6
ByLayer
370
18
48
1
60
0
100
AcDbTrace
10
0
20
-82.85
30
0
11
4.174997
21
-81.924425
31
0
12
4.175003
22
-83.775575
32
0
13
4.175003
23
-83.775575
33
0
39
0
210
0
220
0
230
1
0
SOLID
5
375
100
AcDbEntity
8
2
62
256
6
ByLayer
370
18
48
1
60
0
100
AcDbTrace
10
253.1618
20
-82.85
30
0
11
248.986803
21
-83.775575
31
0
12
248.986797
22
-81.924425
32
0
13
248.986797
23
-81.924425
33
0
39
0
210
0
220
0
230
1
0
ENDBLK
5
377
100
AcDbEntity
8
0
100
AcDbBlockEnd
0
BLOCK
5
37C
100
AcDbEntity
8
0
100
AcDbBlockBegin
2
*D3
70
1
10
0
20
0
30
0
3
*D3
0
LINE
5
37E
100
AcDbEntity
8
0
62
256
6
ByLayer
370
-2
48
1
60
0
100
AcDbLine
10
-18
20
-26.5875
30
0
11
-18
21
-86.025
31
0
39
0
210
0
220
0
230
1
0
LINE
5
37F
100
AcDbEntity
8
0
62
256
6
ByLayer
370
-2
48
1
60
0
100
AcDbLine
10
0
20
-35.5875
30
0
11
0
21
-86.025
31
0
39
0
210
0
220
0
230
1
0
LINE
5
380
100
AcDbEntity
8
0
62
256
6
ByLayer
370
-2
48
1
60
0
100
AcDbLine
10
-22.175
20
-82.85
30
0
11
-26.35
21
-82.85
31
0
39
0
210
0
220
0
230
1
0
LINE
5
381
100
AcDbEntity
8
0
62
256
6
ByLayer
370
-2
48
1
60
0
100
AcDbLine
10
4.175
20
-82.85
30
0
11
8.35
21
-82.85
31
0
39
0
210
0
220
0
230
1
0
SOLID
5
382
100
AcDbEntity
8
0
62
256
6
ByLayer
370
-1
48
1
60
0
100
AcDbTrace
10
-22.175
20
-83.545833
30
0
11
-22.175
21
-82.154167
31
0
12
-18
22
-82.85
32
0
13
-18
23
-82.85
33
0
39
0
210
0
220
0
230
1
0
SOLID
5
383
100
AcDbEntity
8
0
62
256
6
ByLayer
370
-1
48
1
60
0
100
AcDbTrace
10
4.175
20
-82.154167
30
0
11
4.175
21
-83.545833
31
0
12
0
22
-82.85
32
0
13
0
23
-82.85
33
0
39
0
210
0
220
0
230
1
0
MTEXT
5
384
100
AcDbEntity
8
0
62
256
6
ByLayer
370
18
48
1
60
0
100
AcDbMText
10
-9
20
-73.45625
30
0
210
0
220
0
230
1
1
\A1;18
40
4.5
41
0
44
1
50
0
71
5
72
5
7
iso_b_vert
0
POINT
5
385
100
AcDbEntity
8
Defpoints
62
0
6
ByLayer
370
-1
48
1
60
0
100
AcDbPoint
10
-18
20
-25
30
0
39
0
210
0
220
0
230
1
50
360
0
POINT
5
386
100
AcDbEntity
8
Defpoints
62
0
6
ByLayer
370
-1
48
1
60
0
100
AcDbPoint
10
0
20
-34
30
0
39
0
210
0
220
0
230
1
50
360
0
POINT
5
387
100
AcDbEntity
8
Defpoints
62
0
6
ByLayer
370
-1
48
1
60
0
100
AcDbPoint
10
0
20
-82.85
30
0
39
0
210
0
220
0
230
1
50
360
0
ENDBLK
5
37D
100
AcDbEntity
8
0
100
AcDbBlockEnd
0
BLOCK
5
38F
100
AcDbEntity
8
0
100
AcDbBlockBegin
2
_U1
70
0
10
0
20
0
30
0
3
_U1
0
MTEXT
5
389
100
AcDbEntity
8
SK2
62
256
6
ByLayer
370
18
48
1
60
0
100
AcDbMText
10
-10.886828
20
-81.522328
30
0
210
0
220
0
230
1
1
\W0.5321;18
40
4.5
41
0
44
1.084337
50
0
71
7
72
5
7
iso_b_vert
0
LINE
5
38A
100
AcDbEntity
8
SK2
62
256
6
ByLayer
370
13
48
1
60
0
100
AcDbLine
10
-18
20
-26.5875
30
0
11
-18
21
-86.025
31
0
39
0
210
0
220
0
230
1
0
LINE
5
38B
100
AcDbEntity
8
SK2
62
256
6
ByLayer
370
13
48
1
60
0
100
AcDbLine
10
0
20
-35.5875
30
0
11
0
21
-86.025
31
0
39
0
210
0
220
0
230
1
0
LINE
5
38C
100
AcDbEntity
8
SK2
62
256
6
ByLayer
370
13
48
1
60
0
100
AcDbLine
10
-18
20
-82.85
30
0
11
0
21
-82.85
31
0
39
0
210
0
220
0
230
1
0
SOLID
5
38D
100
AcDbEntity
8
SK2
62
256
6
ByLayer
370
18
48
1
60
0
100
AcDbTrace
10
-18
20
-82.85
30
0
11
-13.825003
21
-81.924425
31
0
12
-13.824997
22
-83.775575
32
0
13
-13.824997
23
-83.775575
33
0
39
0
210
0
220
0
230
1
0
SOLID
5
38E
100
AcDbEntity
8
SK2
62
256
6
ByLayer
370
18
48
1
60
0
100
AcDbTrace
10
0
20
-82.85
30
0
11
-4.174997
21
-83.775575
31
0
12
-4.175003
22
-81.924425
32
0
13
-4.175003
23
-81.924425
33
0
39
0
210
0
220
0
230
1
0
ENDBLK
5
390
100
AcDbEntity
8
0
100
AcDbBlockEnd
0
BLOCK
5
395
100
AcDbEntity
8
0
100
AcDbBlockBegin
2
*D5
70
1
10
0
20
0
30
0
3
*D5
0
LINE
5
397
100
AcDbEntity
8
0
62
256
6
ByLayer
370
-2
48
1
60
0
100
AcDbLine
10
253.1618
20
-26.9875
30
0
11
253.1618
21
-76.025
31
0
39
0
210
0
220
0
230
1
0
LINE
5
398
100
AcDbEntity
8
0
62
256
6
ByLayer
370
-2
48
1
60
0
100
AcDbLine
10
17.5156
20
-35.5875
30
0
11
17.5156
21
-76.025
31
0
39
0
210
0
220
0
230
1
0
LINE
5
399
100
AcDbEntity
8
0
62
256
6
ByLayer
370
-2
48
1
60
0
100
AcDbLine
10
248.9868
20
-72.85
30
0
11
21.6906
21
-72.85
31
0
39
0
210
0
220
0
230
1
0
SOLID
5
39A
100
AcDbEntity
8
0
62
256
6
ByLayer
370
-1
48
1
60
0
100
AcDbTrace
10
248.9868
20
-73.545833
30
0
11
248.9868
21
-72.154167
31
0
12
253.1618
22
-72.85
32
0
13
253.1618
23
-72.85
33
0
39
0
210
0
220
0
230
1
0
SOLID
5
39B
100
AcDbEntity
8
0
62
256
6
ByLayer
370
-1
48
1
60
0
100
AcDbTrace
10
21.6906
20
-72.154167
30
0
11
21.6906
21
-73.545833
31
0
12
17.5156
22
-72.85
32
0
13
17.5156
23
-72.85
33
0
39
0
210
0
220
0
230
1
0
MTEXT
5
39C
100
AcDbEntity
8
0
62
256
6
ByLayer
370
18
48
1
60
0
100
AcDbMText
10
135.3387
20
-63.45625
30
0
210
0
220
0
230
1
1
\A1;235.6
40
4.5
41
0
44
1
50
0
71
5
72
5
7
iso_b_vert
0
POINT
5
39D
100
AcDbEntity
8
Defpoints
62
0
6
ByLayer
370
-1
48
1
60
0
100
AcDbPoint
10
253.1618
20
-25.4
30
0
39
0
210
0
220
0
230
1
50
360
0
POINT
5
39E
100
AcDbEntity
8
Defpoints
62
0
6
ByLayer
370
-1
48
1
60
0
100
AcDbPoint
10
17.5156
20
-34
30
0
39
0
210
0
220
0
230
1
50
360
0
POINT
5
39F
100
AcDbEntity
8
Defpoints
62
0
6
ByLayer
370
-1
48
1
60
0
100
AcDbPoint
10
17.5156
20
-72.85
30
0
39
0
210
0
220
0
230
1
50
360
0
ENDBLK
5
396
100
AcDbEntity
8
0
100
AcDbBlockEnd
0
BLOCK
5
3A7
100
AcDbEntity
8
0
100
AcDbBlockBegin
2
_U2
70
0
10
0
20
0
30
0
3
_U2
0
MTEXT
5
3A1
100
AcDbEntity
8
SK2
62
256
6
ByLayer
370
18
48
1
60
0
100
AcDbMText
10
128.615144
20
-71.522328
30
0
210
0
220
0
230
1
1
\W0.7468;235.6
40
4.5
41
0
44
1.084337
50
0
71
7
72
5
7
iso_b_vert
0
LINE
5
3A2
100
AcDbEntity
8
SK2
62
256
6
ByLayer
370
13
48
1
60
0
100
AcDbLine
10
253.1618
20
-26.9875
30
0
11
253.1618
21
-76.025
31
0
39
0
210
0
220
0
230
1
0
LINE
5
3A3
100
AcDbEntity
8
SK2
62
256
6
ByLayer
370
13
48
1
60
0
100
AcDbLine
10
17.5156
20
-35.5875
30
0
11
17.5156
21
-76.025
31
0
39
0
210
0
220
0
230
1
0
LINE
5
3A4
100
AcDbEntity
8
SK2
62
256
6
ByLayer
370
13
48
1
60
0
100
AcDbLine
10
253.1618
20
-72.85
30
0
11
17.5156
21
-72.85
31
0
39
0
210
0
220
0
230
1
0
SOLID
5
3A5
100
AcDbEntity
8
SK2
62
256
6
ByLayer
370
18
48
1
60
0
100
AcDbTrace
10
253.1618
20
-72.85
30
0
11
248.986803
21
-73.775575
31
0
12
248.986797
22
-71.924425
32
0
13
248.986797
23
-71.924425
33
0
39
0
210
0
220
0
230
1
0
SOLID
5
3A6
100
AcDbEntity
8
SK2
62
256
6
ByLayer
370
18
48
1
60
0
100
AcDbTrace
10
17.5156
20
-72.85
30
0
11
21.690597
21
-71.924425
31
0
12
21.690603
22
-73.775575
32
0
13
21.690603
23
-73.775575
33
0
39
0
210
0
220
0
230
1
0
ENDBLK
5
3A8
100
AcDbEntity
8
0
100
AcDbBlockEnd
0
BLOCK
5
3AD
100
AcDbEntity
8
0
100
AcDbBlockBegin
2
*D7
70
1
10
0
20
0
30
0
3
*D7
0
LINE
5
3AF
100
AcDbEntity
8
0
62
256
6
ByLayer
370
-2
48
1
60
0
100
AcDbLine
10
45.7454
20
-26.9875
30
0
11
45.7454
21
-66.025
31
0
39
0
210
0
220
0
230
1
0
LINE
5
3B0
100
AcDbEntity
8
0
62
256
6
ByLayer
370
-2
48
1
60
0
100
AcDbLine
10
253.1618
20
-26.9875
30
0
11
253.1618
21
-66.025
31
0
39
0
210
0
220
0
230
1
0
LINE
5
3B1
100
AcDbEntity
8
0
62
256
6
ByLayer
370
-2
48
1
60
0
100
AcDbLine
10
49.9204
20
-62.85
30
0
11
248.9868
21
-62.85
31
0
39
0
210
0
220
0
230
1
0
SOLID
5
3B2
100
AcDbEntity
8
0
62
256
6
ByLayer
370
-1
48
1
60
0
100
AcDbTrace
10
49.9204
20
-62.154167
30
0
11
49.9204
21
-63.545833
31
0
12
45.7454
22
-62.85
32
0
13
45.7454
23
-62.85
33
0
39
0
210
0
220
0
230
1
0
SOLID
5
3B3
100
AcDbEntity
8
0
62
256
6
ByLayer
370
-1
48
1
60
0
100
AcDbTrace
10
248.9868
20
-63.545833
30
0
11
248.9868
21
-62.154167
31
0
12
253.1618
22
-62.85
32
0
13
253.1618
23
-62.85
33
0
39
0
210
0
220
0
230
1
0
MTEXT
5
3B4
100
AcDbEntity
8
0
62
256
6
ByLayer
370
18
48
1
60
0
100
AcDbMText
10
149.4536
20
-53.45625
30
0
210
0
220
0
230
1
1
\A1;207.4
40
4.5
41
0
44
1
50
0
71
5
72
5
7
iso_b_vert
0
POINT
5
3B5
100
AcDbEntity
8
Defpoints
62
0
6
ByLayer
370
-1
48
1
60
0
100
AcDbPoint
10
45.7454
20
-25.4
30
0
39
0
210
0
220
0
230
1
50
360
0
POINT
5
3B6
100
AcDbEntity
8
Defpoints
62
0
6
ByLayer
370
-1
48
1
60
0
100
AcDbPoint
10
253.1618
20
-25.4
30
0
39
0
210
0
220
0
230
1
50
360
0
POINT
5
3B7
100
AcDbEntity
8
Defpoints
62
0
6
ByLayer
370
-1
48
1
60
0
100
AcDbPoint
10
253.1618
20
-62.85
30
0
39
0
210
0
220
0
230
1
50
360
0
ENDBLK
5
3AE
100
AcDbEntity
8
0
100
AcDbBlockEnd
0
BLOCK
5
3BF
100
AcDbEntity
8
0
100
AcDbBlockBegin
2
_U3
70
0
10
0
20
0
30
0
3
_U3
0
MTEXT
5
3B9
100
AcDbEntity
8
SK2
62
256
6
ByLayer
370
18
48
1
60
0
100
AcDbMText
10
142.49313
20
-61.522328
30
0
210
0
220
0
230
1
1
\W0.7607;207.4
40
4.5
41
0
44
1.084337
50
0
71
7
72
5
7
iso_b_vert
0
LINE
5
3BA
100
AcDbEntity
8
SK2
62
256
6
ByLayer
370
13
48
1
60
0
100
AcDbLine
10
45.7454
20
-26.9875
30
0
11
45.7454
21
-66.025
31
0
39
0
210
0
220
0
230
1
0
LINE
5
3BB
100
AcDbEntity
8
SK2
62
256
6
ByLayer
370
13
48
1
60
0
100
AcDbLine
10
253.1618
20
-26.9875
30
0
11
253.1618
21
-66.025
31
0
39
0
210
0
220
0
230
1
0
LINE
5
3BC
100
AcDbEntity
8
SK2
62
256
6
ByLayer
370
13
48
1
60
0
100
AcDbLine
10
45.7454
20
-62.85
30
0
11
253.1618
21
-62.85
31
0
39
0
210
0
220
0
230
1
0
SOLID
5
3BD
100
AcDbEntity
8
SK2
62
256
6
ByLayer
370
18
48
1
60
0
100
AcDbTrace
10
45.7454
20
-62.85
30
0
11
49.920397
21
-61.924425
31
0
12
49.920403
22
-63.775575
32
0
13
49.920403
23
-63.775575
33
0
39
0
210
0
220
0
230
1
0
SOLID
5
3BE
100
AcDbEntity
8
SK2
62
256
6
ByLayer
370
18
48
1
60
0
100
AcDbTrace
10
253.1618
20
-62.85
30
0
11
248.986803
21
-63.775575
31
0
12
248.986797
22
-61.924425
32
0
13
248.986797
23
-61.924425
33
0
39
0
210
0
220
0
230
1
0
ENDBLK
5
3C0
100
AcDbEntity
8
0
100
AcDbBlockEnd
0
BLOCK
5
3C5
100
AcDbEntity
8
0
100
AcDbBlockBegin
2
*D9
70
1
10
0
20
0
30
0
3
*D9
0
LINE
5
3C7
100
AcDbEntity
8
0
62
256
6
ByLayer
370
-2
48
1
60
0
100
AcDbLine
10
251.8852
20
-14.2875
30
0
11
251.8852
21
-56.025
31
0
39
0
210
0
220
0
230
1
0
LINE
5
3C8
100
AcDbEntity
8
0
62
256
6
ByLayer
370
-2
48
1
60
0
100
AcDbLine
10
253.1618
20
-1.5875
30
0
11
253.1618
21
-56.025
31
0
39
0
210
0
220
0
230
1
0
LINE
5
3C9
100
AcDbEntity
8
0
62
256
6
ByLayer
370
-2
48
1
60
0
100
AcDbLine
10
253.1618
20
-52.85
30
0
11
288.870729
21
-52.85
31
0
39
0
210
0
220
0
230
1
0
LINE
5
3CA
100
AcDbEntity
8
0
62
256
6
ByLayer
370
-2
48
1
60
0
100
AcDbLine
10
247.7102
20
-52.85
30
0
11
243.5352
21
-52.85
31
0
39
0
210
0
220
0
230
1
0
LINE
5
3CB
100
AcDbEntity
8
0
62
256
6
ByLayer
370
-2
48
1
60
0
100
AcDbLine
10
257.3368
20
-52.85
30
0
11
261.5118
21
-52.85
31
0
39
0
210
0
220
0
230
1
0
SOLID
5
3CC
100
AcDbEntity
8
0
62
256
6
ByLayer
370
-1
48
1
60
0
100
AcDbTrace
10
247.7102
20
-53.545833
30
0
11
247.7102
21
-52.154167
31
0
12
251.8852
22
-52.85
32
0
13
251.8852
23
-52.85
33
0
39
0
210
0
220
0
230
1
0
SOLID
5
3CD
100
AcDbEntity
8
0
62
256
6
ByLayer
370
-1
48
1
60
0
100
AcDbTrace
10
257.3368
20
-52.154167
30
0
11
257.3368
21
-53.545833
31
0
12
253.1618
22
-52.85
32
0
13
253.1618
23
-52.85
33
0
39
0
210
0
220
0
230
1
0
MTEXT
5
3CE
100
AcDbEntity
8
0
62
256
6
ByLayer
370
18
48
1
60
0
100
AcDbMText
10
275.191264
20
-43.45625
30
0
210
0
220
0
230
1
1
\A1;1.28
40
4.5
41
0
44
1
50
0
71
5
72
5
7
iso_b_vert
0
POINT
5
3CF
100
AcDbEntity
8
Defpoints
62
0
6
ByLayer
370
-1
48
1
60
0
100
AcDbPoint
10
251.8852
20
-12.7
30
0
39
0
210
0
220
0
230
1
50
360
0
POINT
5
3D0
100
AcDbEntity
8
Defpoints
62
0
6
ByLayer
370
-1
48
1
60
0
100
AcDbPoint
10
253.1618
20
0
30
0
39
0
210
0
220
0
230
1
50
360
0
POINT
5
3D1
100
AcDbEntity
8
Defpoints
62
0
6
ByLayer
370
-1
48
1
60
0
100
AcDbPoint
10
253.1618
20
-52.85
30
0
39
0
210
0
220
0
230
1
50
360
0
ENDBLK
5
3C6
100
AcDbEntity
8
0
100
AcDbBlockEnd
0
BLOCK
5
3D9
100
AcDbEntity
8
0
100
AcDbBlockBegin
2
_U4
70
0
10
0
20
0
30
0
3
_U4
0
MTEXT
5
3D3
100
AcDbEntity
8
2
62
256
6
ByLayer
370
18
48
1
60
0
100
AcDbMText
10
265.5128
20
-51.522328
30
0
210
0
220
0
230
1
1
\W0.6563;1.28
40
4.5
41
0
44
1.084337
50
0
71
7
72
5
7
iso_b_vert
0
LINE
5
3D4
100
AcDbEntity
8
2
62
256
6
ByLayer
370
13
48
1
60
0
100
AcDbLine
10
251.8852
20
-14.2875
30
0
11
251.8852
21
-56.025
31
0
39
0
210
0
220
0
230
1
0
LINE
5
3D5
100
AcDbEntity
8
2
62
256
6
ByLayer
370
13
48
1
60
0
100
AcDbLine
10
253.1618
20
-1.5875
30
0
11
253.1618
21
-56.025
31
0
39
0
210
0
220
0
230
1
0
LINE
5
3D6
100
AcDbEntity
8
2
62
256
6
ByLayer
370
13
48
1
60
0
100
AcDbLine
10
274.710841
20
-52.85
30
0
11
240.6352
21
-52.85
31
0
39
0
210
0
220
0
230
1
0
SOLID
5
3D7
100
AcDbEntity
8
2
62
256
6
ByLayer
370
18
48
1
60
0
100
AcDbTrace
10
251.8852
20
-52.85
30
0
11
247.710203
21
-53.775575
31
0
12
247.710197
22
-51.924425
32
0
13
247.710197
23
-51.924425
33
0
39
0
210
0
220
0
230
1
0
SOLID
5
3D8
100
AcDbEntity
8
2
62
256
6
ByLayer
370
18
48
1
60
0
100
AcDbTrace
10
253.1618
20
-52.85
30
0
11
257.336797
21
-51.924425
31
0
12
257.336803
22
-53.775575
32
0
13
257.336803
23
-53.775575
33
0
39
0
210
0
220
0
230
1
0
ENDBLK
5
3DA
100
AcDbEntity
8
0
100
AcDbBlockEnd
0
ENDSEC
0
SECTION
2
ENTITIES
0
ARC
5
18C
100
AcDbEntity
8
SK1
62
256
6
ByLayer
370
13
48
1
60
0
100
AcDbCircle
39
0
10
-0.3
20
25.4
30
0
40
0.600000000000001
210
0
220
0
230
1
100
AcDbArc
50
270
51
300
0
ARC
5
18D
100
AcDbEntity
8
SK1
62
256
6
ByLayer
370
13
48
1
60
0
100
AcDbCircle
39
0
10
-0.3
20
-25.4
30
0
40
0.600000000000001
210
0
220
0
230
1
100
AcDbArc
50
60
51
90
0
ARC
5
18E
100
AcDbEntity
8
1
62
256
6
ByLayer
370
13
48
1
60
0
100
AcDbCircle
39
0
10
249.708086
20
23.901171
30
0
40
0.2
210
0
220
0
230
1
100
AcDbArc
50
8.974534
51
93
0
ARC
5
18F
100
AcDbEntity
8
1
62
256
6
ByLayer
370
13
48
1
60
0
100
AcDbCircle
39
0
10
249.854133
20
11.080072
30
0
40
0.2
210
0
220
0
230
1
100
AcDbArc
50
273
51
352.543899
0
ARC
5
190
100
AcDbEntity
8
1
62
256
6
ByLayer
370
13
48
1
60
0
100
AcDbCircle
39
0
10
237.087147
20
23.005167
30
0
40
0.2
210
0
220
0
230
1
100
AcDbArc
50
76.847115
51
93
0
ARC
5
191
100
AcDbEntity
8
1
62
256
6
ByLayer
370
13
48
1
60
0
100
AcDbCircle
39
0
10
237.233193
20
10.184068
30
0
40
0.2
210
0
220
0
230
1
100
AcDbArc
50
273
51
304.880681
0
ARC
5
192
100
AcDbEntity
8
1
62
256
6
ByLayer
370
13
48
1
60
0
100
AcDbCircle
39
0
10
7.5
20
-30
30
0
40
0.5
210
0
220
0
230
1
100
AcDbArc
50
90
51
180
0
ARC
5
193
100
AcDbEntity
8
1
62
256
6
ByLayer
370
13
48
1
60
0
100
AcDbCircle
39
0
10
7.5
20
30
30
0
40
0.5
210
0
220
0
230
1
100
AcDbArc
50
180
51
270
0
ELLIPSE
5
194
100
AcDbEntity
8
1
62
256
6
ByLayer
370
18
48
1
60
0
100
AcDbEllipse
10
243.443737
20
17.041209
30
0
11
0.0877359970456743
21
-1.67410255206257
31
0
210
0
220
0
230
1
40
0.995725
41
-1.5707963267949
42
-0.523598775598308
0
ELLIPSE
5
195
100
AcDbEntity
8
1
62
256
6
ByLayer
370
18
48
1
60
0
100
AcDbEllipse
10
243.436432
20
17.040826
30
0
11
-0.149157475292399
21
2.84609417405054
31
0
210
0
220
0
230
1
40
0.995725
41
0
42
6.28318530717959
0
ELLIPSE
5
196
100
AcDbEntity
8
1
62
256
6
ByLayer
370
18
48
1
60
0
100
AcDbEllipse
10
244.614599
20
16.359904
30
0
11
-0.177667934094705
21
-0.351309387088532
31
0
210
0
220
0
230
1
40
0.48867
41
-2.85504177777521
42
-1.57317835190844
0
ELLIPSE
5
197
100
AcDbEntity
8
1
62
256
6
ByLayer
370
18
48
1
60
0
100
AcDbEllipse
10
243.443737
20
17.041209
30
0
11
0.0877359970456743
21
-1.67410255206257
31
0
210
0
220
0
230
1
40
0.995725
41
0.523598775598308
42
1.5707963267949
0
ELLIPSE
5
198
100
AcDbEntity
8
1
62
256
6
ByLayer
370
18
48
1
60
0
100
AcDbEllipse
10
243.298453
20
17.033595
30
0
11
0.067529084340273
21
-1.28853168869383
31
0
210
0
220
0
230
1
40
0.995725
41
2.09439510239319
42
3.14159265358979
0
ELLIPSE
5
199
100
AcDbEntity
8
1
62
256
6
ByLayer
370
18
48
1
60
0
100
AcDbEllipse
10
243.443737
20
17.041209
30
0
11
0.0877359970456743
21
-1.67410255206257
31
0
210
0
220
0
230
1
40
0.995725
41
1.5707963267949
42
2.61799387799148
0
ELLIPSE
5
19A
100
AcDbEntity
8
1
62
256
6
ByLayer
370
18
48
1
60
0
100
AcDbEllipse
10
243.298453
20
17.033595
30
0
11
0.067529084340273
21
-1.28853168869383
31
0
210
0
220
0
230
1
40
0.995725
41
1.0471975511966
42
2.09439510239319
0
ELLIPSE
5
19B
100
AcDbEntity
8
1
62
256
6
ByLayer
370
18
48
1
60
0
100
AcDbEllipse
10
243.443737
20
17.041209
30
0
11
0.0877359970456743
21
-1.67410255206257
31
0
210
0
220
0
230
1
40
0.995725
41
-0.523598775598308
42
0.523598775598308
0
ELLIPSE
5
19C
100
AcDbEntity
8
1
62
256
6
ByLayer
370
18
48
1
60
0
100
AcDbEllipse
10
243.220823
20
18.514862
30
0
11
-0.391877312290926
21
-0.0205374196872469
31
0
210
0
220
0
230
1
40
0.491826
41
0.288932900935026
42
1.5707963267949
0
ELLIPSE
5
19D
100
AcDbEntity
8
1
62
256
6
ByLayer
370
18
48
1
60
0
100
AcDbEllipse
10
244.536969
20
17.841171
30
0
11
-0.213416480921196
21
0.3308135213852
31
0
210
0
220
0
230
1
40
0.48867
41
0.291314926058162
42
1.57317835193155
0
ELLIPSE
5
19E
100
AcDbEntity
8
1
62
256
6
ByLayer
370
18
48
1
60
0
100
AcDbEllipse
10
243.443737
20
17.041209
30
0
11
-0.0942047212373048
21
1.79753316255823
31
0
210
0
220
0
230
1
40
0.995725
41
0
42
6.28318530717959
0
ELLIPSE
5
19F
100
AcDbEntity
8
1
62
256
6
ByLayer
370
18
48
1
60
0
100
AcDbEllipse
10
243.376083
20
15.552328
30
0
11
-0.391877312291656
21
-0.0205374196895136
31
0
210
0
220
0
230
1
40
0.491826
41
-1.5707963267949
42
-0.288932900934466
0
ELLIPSE
5
1A0
100
AcDbEntity
8
1
62
256
6
ByLayer
370
18
48
1
60
0
100
AcDbEllipse
10
244.536969
20
17.841171
30
0
11
-0.213416480925657
21
0.330813521381408
31
0
210
0
220
0
230
1
40
0.48867
41
1.57317835189857
42
2.85504177777366
0
ELLIPSE
5
1A1
100
AcDbEntity
8
1
62
256
6
ByLayer
370
18
48
1
60
0
100
AcDbEllipse
10
243.443737
20
17.041209
30
0
11
0.0877359970456743
21
-1.67410255206257
31
0
210
0
220
0
230
1
40
0.995725
41
2.61799387799148
42
-2.61799387799148
0
ELLIPSE
5
1A2
100
AcDbEntity
8
1
62
256
6
ByLayer
370
18
48
1
60
0
100
AcDbEllipse
10
244.614599
20
16.359904
30
0
11
-0.177667934094751
21
-0.351309387091344
31
0
210
0
220
0
230
1
40
0.48867
41
-1.57317835191615
42
-0.29131492605553
0
ELLIPSE
5
1A3
100
AcDbEntity
8
1
62
256
6
ByLayer
370
18
48
1
60
0
100
AcDbEllipse
10
243.443737
20
17.041209
30
0
11
0.0877359970456743
21
-1.67410255206257
31
0
210
0
220
0
230
1
40
0.995725
41
-2.61799387799148
42
-1.5707963267949
0
ELLIPSE
5
1A4
100
AcDbEntity
8
1
62
256
6
ByLayer
370
13
48
1
60
0
100
AcDbEllipse
10
236.984328
20
9.815426
30
0
11
0.00523359562429421
21
-0.0998629534754504
31
0
210
0
220
0
230
1
40
0.995725
41
0.761807904942534
42
1.6755160819142
0
ELLIPSE
5
1A5
100
AcDbEntity
8
1
62
256
6
ByLayer
370
13
48
1
60
0
100
AcDbEllipse
10
249.952339
20
24.269571
30
0
11
0.00523359562429421
21
-0.0998629534754504
31
0
210
0
220
0
230
1
40
0.995725
41
-2.37978474864678
42
-1.46607657167445
0
ELLIPSE
5
1A6
100
AcDbEntity
8
1
62
256
6
ByLayer
370
13
48
1
60
0
100
AcDbEllipse
10
252.035955
20
11.286635
30
0
11
0.148731686424782
21
-0.0194649801756987
31
0
210
0
220
0
230
1
40
0.016833
41
-1.66175841710356
42
-0.0909620903140981
0
ELLIPSE
5
1A7
100
AcDbEntity
8
1
62
256
6
ByLayer
370
13
48
1
60
0
100
AcDbEllipse
10
236.247072
20
16.428153
30
0
11
-0.197551554484215
21
-0.0311990916673925
31
0
210
0
220
0
230
1
40
0.009655
41
0.0919985744717376
42
1.66279490126923
0
ELLIPSE
5
1A8
100
AcDbEntity
8
1
62
256
6
ByLayer
370
13
48
1
60
0
100
AcDbEllipse
10
236.988941
20
9.815668
30
0
11
0.00523359562429421
21
-0.0998629534754504
31
0
210
0
220
0
230
1
40
0.995725
41
0.761807904941339
42
1.67551608191419
0
ELLIPSE
5
1A9
100
AcDbEntity
8
1
62
256
6
ByLayer
370
13
48
1
60
0
100
AcDbEllipse
10
250.220935
20
17.579946
30
0
11
-0.0261679781214735
21
0.499314767377287
31
0
210
0
220
0
230
1
40
0.995725
41
-1.75405589825426
42
-1.46607657167521
0
ELLIPSE
5
1AA
100
AcDbEntity
8
1
62
256
6
ByLayer
370
13
48
1
60
0
100
AcDbEllipse
10
248.485475
20
25.64186
30
0
11
0.107288710298038
21
-2.04719054624687
31
0
210
0
220
0
230
1
40
0.995725
41
0.773852857220382
42
1.26193471909893
0
ELLIPSE
5
1AB
100
AcDbEntity
8
1
62
256
6
ByLayer
370
13
48
1
60
0
100
AcDbEllipse
10
250.810867
20
23.420232
30
0
11
-0.0915879234251571
21
1.74760168582051
31
0
210
0
220
0
230
1
40
0.995725
41
-0.0273572726605033
42
-0.0087266462599876
0
ELLIPSE
5
1AC
100
AcDbEntity
8
1
62
256
6
ByLayer
370
13
48
1
60
0
100
AcDbEllipse
10
248.425688
20
25.638727
30
0
11
-1.59242934827228
21
-1.39349696570467
31
0
210
0
220
0
230
1
40
0.74335
41
1.15768450151956
42
1.97984155688919
0
ELLIPSE
5
1AD
100
AcDbEntity
8
1
62
256
6
ByLayer
370
13
48
1
60
0
100
AcDbEllipse
10
236.771449
20
25.027956
30
0
11
-2.2158710732573
21
1.36412258260469
31
0
210
0
220
0
230
1
40
0.479615
41
1.27243139301577
42
1.31166459585795
0
ELLIPSE
5
1AE
100
AcDbEntity
8
1
62
256
6
ByLayer
370
13
48
1
60
0
100
AcDbEllipse
10
250.780749
20
25.1704
30
0
11
-0.00373239490690377
21
0.149953556904326
31
0
210
0
220
0
230
1
40
0.092336
41
0.00253753545375086
42
1.57333386224946
0
ELLIPSE
5
1AF
100
AcDbEntity
8
1
62
256
6
ByLayer
370
13
48
1
60
0
100
AcDbEllipse
10
250.184037
20
17.578013
30
0
11
0.0444855628065039
21
-0.848835104541388
31
0
210
0
220
0
230
1
40
0.995725
41
1.38753675533555
42
1.67551608191461
0
ELLIPSE
5
1B0
100
AcDbEntity
8
1
62
256
6
ByLayer
370
13
48
1
60
0
100
AcDbEllipse
10
252.315211
20
17.606281
30
0
11
0.036635169370062
21
-0.699040674328201
31
0
210
0
220
0
230
1
40
0.995725
41
1.38753675533614
42
1.67551608191529
0
ELLIPSE
5
1B1
100
AcDbEntity
8
1
62
256
6
ByLayer
370
13
48
1
60
0
100
AcDbEllipse
10
234.900712
20
22.798361
30
0
11
0.00785039343644185
21
-0.149794430213186
31
0
210
0
220
0
230
1
40
0.995725
41
-3.036872898472
42
-1.75405589825528
0
ELLIPSE
5
1B2
100
AcDbEntity
8
1
62
256
6
ByLayer
370
13
48
1
60
0
100
AcDbEllipse
10
236.414602
20
8.975625
30
0
11
0.0104671912485892
21
-0.199725906950916
31
0
210
0
220
0
230
1
40
0.995725
41
-0.00872664625955608
42
1.26193471909844
0
ELLIPSE
5
1B3
100
AcDbEntity
8
1
62
256
6
ByLayer
370
13
48
1
60
0
100
AcDbEllipse
10
236.738793
20
16.506259
30
0
11
0.036635169370062
21
-0.699040674328202
31
0
210
0
220
0
230
1
40
0.995725
41
-1.75405589825419
42
-1.46607657167516
0
ELLIPSE
5
1B4
100
AcDbEntity
8
1
62
256
6
ByLayer
370
13
48
1
60
0
100
AcDbEllipse
10
249.854133
20
11.080072
30
0
11
0.0455100421907781
21
0.194753269702446
31
0
210
0
220
0
230
1
40
0.088753
41
-3.11589220193207
42
-1.54509587511456
0
ELLIPSE
5
1B5
100
AcDbEntity
8
1
62
256
6
ByLayer
370
13
48
1
60
0
100
AcDbEllipse
10
236.734181
20
16.506017
30
0
11
-0.0366351693700629
21
0.699040674328202
31
0
210
0
220
0
230
1
40
0.995725
41
1.3875367553356
42
1.67551608191464
0
ELLIPSE
5
1B6
100
AcDbEntity
8
1
62
256
6
ByLayer
370
13
48
1
60
0
100
AcDbEllipse
10
236.458151
20
8.962688
30
0
11
-0.145139532363176
21
0.0378750068699463
31
0
210
0
220
0
230
1
40
0.028078
41
1.48264787473431
42
3.05344420152625
0
ELLIPSE
5
1B7
100
AcDbEntity
8
1
62
256
6
ByLayer
370
13
48
1
60
0
100
AcDbEllipse
10
235.898255
20
16.373237
30
0
11
-0.148163665863161
21
-0.0233993187505443
31
0
210
0
220
0
230
1
40
0.009655
41
-3.04959407911373
42
-1.47879775232153
0
ELLIPSE
5
1B8
100
AcDbEntity
8
1
62
256
6
ByLayer
370
13
48
1
60
0
100
AcDbEllipse
10
250.519882
20
25.159324
30
0
11
-0.00653729335064158
21
0.149857478277354
31
0
210
0
220
0
230
1
40
0.092367
41
0.000809536045784252
42
1.57160586284002
0
ELLIPSE
5
1B9
100
AcDbEntity
8
1
62
256
6
ByLayer
370
13
48
1
60
0
100
AcDbEllipse
10
252.042074
20
11.298682
30
0
11
-0.0435637040515492
21
-0.259139630112452
31
0
210
0
220
0
230
1
40
0.947521
41
0.308152981459664
42
1.60922962167104
0
ELLIPSE
5
1BA
100
AcDbEntity
8
1
62
256
6
ByLayer
370
13
48
1
60
0
100
AcDbEllipse
10
251.000521
20
16.423188
30
0
11
0.465790010562217
21
-8.88780285931571
31
0
210
0
220
0
230
1
40
0.995725
41
3.0642301711306
42
3.11423538092933
0
ELLIPSE
5
1BB
100
AcDbEntity
8
1
62
256
6
ByLayer
370
13
48
1
60
0
100
AcDbEllipse
10
237.565962
20
25.069593
30
0
11
-0.0942047212373044
21
1.79753316255823
31
0
210
0
220
0
230
1
40
0.995725
41
2.74104825906082
42
3.14159265358914
0
ELLIPSE
5
1BC
100
AcDbEntity
8
1
62
256
6
ByLayer
370
13
48
1
60
0
100
AcDbEllipse
10
234.626068
20
16.478958
30
0
11
0.036635169370062
21
-0.699040674328201
31
0
210
0
220
0
230
1
40
0.995725
41
-1.75405589825498
42
-1.46607657167585
0
ELLIPSE
5
1BD
100
AcDbEntity
8
1
62
256
6
ByLayer
370
13
48
1
60
0
100
AcDbEllipse
10
235.895021
20
16.617151
30
0
11
-0.148731686424787
21
0.0194649801756586
31
0
210
0
220
0
230
1
40
0.016833
41
1.47983423648359
42
3.05063056327851
0
ELLIPSE
5
1BE
100
AcDbEntity
8
1
62
256
6
ByLayer
370
13
48
1
60
0
100
AcDbEllipse
10
250.748305
20
25.169288
30
0
11
-0.00653729335064158
21
0.149857478277354
31
0
210
0
220
0
230
1
40
0.092367
41
0.000809536047835613
42
1.57160586284002
0
ELLIPSE
5
1BF
100
AcDbEntity
8
1
62
256
6
ByLayer
370
13
48
1
60
0
100
AcDbEllipse
10
250.526677
20
25.109613
30
0
11
0.0104671912485892
21
-0.199725906950916
31
0
210
0
220
0
230
1
40
0.995725
41
3.13286600733124
42
-1.87965793449016
0
ELLIPSE
5
1C0
100
AcDbEntity
8
1
62
256
6
ByLayer
370
13
48
1
60
0
100
AcDbEllipse
10
237.087147
20
23.005167
30
0
11
-0.0455100421907933
21
-0.194753269702442
31
0
210
0
220
0
230
1
40
0.088753
41
1.5964967784748
42
-3.11589220188712
0
ELLIPSE
5
1C1
100
AcDbEntity
8
1
62
256
6
ByLayer
370
13
48
1
60
0
100
AcDbEllipse
10
235.936146
20
17.661809
30
0
11
0.465790010562217
21
-8.88780285931571
31
0
210
0
220
0
230
1
40
0.995725
41
-0.0773624824598383
42
-0.0273572726611162
0
ELLIPSE
5
1C2
100
AcDbEntity
8
1
62
256
6
ByLayer
370
13
48
1
60
0
100
AcDbEllipse
10
243.795384
20
10.846123
30
0
11
0.010467191248589
21
-0.199725906950915
31
0
210
0
220
0
230
1
40
0.092371
41
0
42
1.5707963267949
0
ELLIPSE
5
1C3
100
AcDbEntity
8
1
62
256
6
ByLayer
370
13
48
1
60
0
100
AcDbEllipse
10
234.60762
20
16.477991
30
0
11
-0.0287847759336208
21
0.549246244115015
31
0
210
0
220
0
230
1
40
0.995725
41
1.38753675533553
42
1.67551608191463
0
ELLIPSE
5
1C4
100
AcDbEntity
8
1
62
256
6
ByLayer
370
13
48
1
60
0
100
AcDbEllipse
10
247.950459
20
25.613821
30
0
11
0.0942047212373021
21
-1.79753316255823
31
0
210
0
220
0
230
1
40
0.995725
41
0
42
0.400544394528985
0
ELLIPSE
5
1C5
100
AcDbEntity
8
1
62
256
6
ByLayer
370
13
48
1
60
0
100
AcDbEllipse
10
250.829316
20
23.421199
30
0
11
0.0994383168615969
21
-1.89739611603369
31
0
210
0
220
0
230
1
40
0.995725
41
3.11423538093005
42
3.13286600733051
0
ELLIPSE
5
1C6
100
AcDbEntity
8
1
62
256
6
ByLayer
370
13
48
1
60
0
100
AcDbEllipse
10
235.917697
20
17.660842
30
0
11
-0.457939617125786
21
8.73800842910252
31
0
210
0
220
0
230
1
40
0.995725
41
3.06423017113066
42
3.11423538092938
0
ELLIPSE
5
1C7
100
AcDbEntity
8
1
62
256
6
ByLayer
370
13
48
1
60
0
100
AcDbEllipse
10
236.24517
20
16.571632
30
0
11
-0.19830891523305
21
0.0259533069008781
31
0
210
0
220
0
230
1
40
0.016833
41
-1.66175841710477
42
-0.0909620903126926
0
ELLIPSE
5
1C8
100
AcDbEntity
8
1
62
256
6
ByLayer
370
13
48
1
60
0
100
AcDbEllipse
10
236.757242
20
16.507226
30
0
11
-0.0261679781214735
21
0.499314767377287
31
0
210
0
220
0
230
1
40
0.995725
41
1.38753675533559
42
1.67551608191464
0
ELLIPSE
5
1C9
100
AcDbEntity
8
1
62
256
6
ByLayer
370
13
48
1
60
0
100
AcDbEllipse
10
250.47272
20
25.123837
30
0
11
0.0127690523125511
21
-0.243648032548531
31
0
210
0
220
0
230
1
40
0.995725
41
-2.96705972838958
42
-1.87965793448983
0
ELLIPSE
5
1CA
100
AcDbEntity
8
1
62
256
6
ByLayer
370
13
48
1
60
0
100
AcDbEllipse
10
250.986685
20
16.422463
30
0
11
-0.457939617125786
21
8.73800842910252
31
0
210
0
220
0
230
1
40
0.995725
41
-0.0773624824591871
42
-0.0273572726604686
0
ELLIPSE
5
1CB
100
AcDbEntity
8
1
62
256
6
ByLayer
370
13
48
1
60
0
100
AcDbEllipse
10
235.321674
20
24.329804
30
0
11
-0.300351321606056
21
0.184900888623871
31
0
210
0
220
0
230
1
40
0.479615
41
-1.8691605827984
42
-0.781758788886831
0
ELLIPSE
5
1CC
100
AcDbEntity
8
1
62
256
6
ByLayer
370
13
48
1
60
0
100
AcDbEllipse
10
243.489088
20
17.043586
30
0
11
0.164592752017139
21
-3.14061679904832
31
0
210
0
220
0
230
1
40
0.995725
41
0
42
6.28318530717959
0
ELLIPSE
5
1CD
100
AcDbEntity
8
1
62
256
6
ByLayer
370
13
48
1
60
0
100
AcDbEllipse
10
249.708086
20
23.901171
30
0
11
-0.114373860316044
21
0.164068949153721
31
0
210
0
220
0
230
1
40
0.07853
41
-1.61960141451352
42
-0.0488050876943707
0
ELLIPSE
5
1CE
100
AcDbEntity
8
1
62
256
6
ByLayer
370
13
48
1
60
0
100
AcDbEllipse
10
250.202486
20
17.57898
30
0
11
0.036635169370062
21
-0.699040674328202
31
0
210
0
220
0
230
1
40
0.995725
41
1.38753675533552
42
1.6755160819146
0
ELLIPSE
5
1CF
100
AcDbEntity
8
1
62
256
6
ByLayer
370
13
48
1
60
0
100
AcDbEllipse
10
236.742323
20
23.091378
30
0
11
-0.0427993177777025
21
-0.158580925153934
31
0
210
0
220
0
230
1
40
0.080206
41
-3.1153776664818
42
-1.5445813396807
0
ELLIPSE
5
1D0
100
AcDbEntity
8
1
62
256
6
ByLayer
370
13
48
1
60
0
100
AcDbEllipse
10
238.437356
20
8.442411
30
0
11
-0.0994383168615992
21
1.89739611603369
31
0
210
0
220
0
230
1
40
0.995725
41
0.761807904942561
42
1.2619347190983
0
ELLIPSE
5
1D1
100
AcDbEntity
8
1
62
256
6
ByLayer
370
13
48
1
60
0
100
AcDbEllipse
10
251.202815
20
24.620483
30
0
11
0.0366351693700617
21
-0.699040674328196
31
0
210
0
220
0
230
1
40
0.995725
41
1.67551608191447
42
3.06423017113064
0
ELLIPSE
5
1D2
100
AcDbEntity
8
1
62
256
6
ByLayer
370
13
48
1
60
0
100
AcDbEllipse
10
238.432744
20
8.442169
30
0
11
-0.0994383168615992
21
1.89739611603369
31
0
210
0
220
0
230
1
40
0.995725
41
0.761807904943255
42
1.26193471909897
0
ELLIPSE
5
1D3
100
AcDbEntity
8
1
62
256
6
ByLayer
370
13
48
1
60
0
100
AcDbEllipse
10
251.207428
20
24.620725
30
0
11
0.0366351693700617
21
-0.699040674328196
31
0
210
0
220
0
230
1
40
0.995725
41
1.67551608191517
42
3.06423017113133
0
ELLIPSE
5
1D4
100
AcDbEntity
8
1
62
256
6
ByLayer
370
13
48
1
60
0
100
AcDbEllipse
10
234.899205
20
22.786556
30
0
11
-0.0435637040549325
21
-0.259139630111466
31
0
210
0
220
0
230
1
40
0.947521
41
-2.83343967211783
42
-1.53236303190484
0
ELLIPSE
5
1D5
100
AcDbEntity
8
1
62
256
6
ByLayer
370
13
48
1
60
0
100
AcDbEllipse
10
252.853584
20
17.534129
30
0
11
0.148731686424782
21
-0.0194649801756987
31
0
210
0
220
0
230
1
40
0.016833
41
-1.66175841710544
42
-0.0909620903056219
0
ELLIPSE
5
1D6
100
AcDbEntity
8
1
62
256
6
ByLayer
370
13
48
1
60
0
100
AcDbEllipse
10
248.503923
20
25.642827
30
0
11
-0.0942047212373044
21
1.79753316255823
31
0
210
0
220
0
230
1
40
0.995725
41
-3.14159265358916
42
-1.87965793449016
0
ELLIPSE
5
1D7
100
AcDbEntity
8
1
62
256
6
ByLayer
370
13
48
1
60
0
100
AcDbEllipse
10
248.503923
20
25.642827
30
0
11
-0.0994383168615992
21
1.89739611603369
31
0
210
0
220
0
230
1
40
0.995725
41
-2.3797847486459
42
-1.87965793449016
0
ELLIPSE
5
1D8
100
AcDbEntity
8
1
62
256
6
ByLayer
370
13
48
1
60
0
100
AcDbEllipse
10
236.720345
20
16.505292
30
0
11
0.0444855628065039
21
-0.848835104541388
31
0
210
0
220
0
230
1
40
0.995725
41
-1.75405589825421
42
-1.46607657167515
0
ELLIPSE
5
1D9
100
AcDbEntity
8
1
62
256
6
ByLayer
370
13
48
1
60
0
100
AcDbEllipse
10
238.418907
20
8.441444
30
0
11
0.107288710298038
21
-2.04719054624687
31
0
210
0
220
0
230
1
40
0.995725
41
-2.36773979636936
42
-1.87965793449081
0
ELLIPSE
5
1DA
100
AcDbEntity
8
1
62
256
6
ByLayer
370
13
48
1
60
0
100
AcDbEllipse
10
251.188979
20
24.619758
30
0
11
-0.0287847759336205
21
0.54924624411501
31
0
210
0
220
0
230
1
40
0.995725
41
-1.46607657167527
42
-0.0773624824590326
0
ELLIPSE
5
1DB
100
AcDbEntity
8
1
62
256
6
ByLayer
370
13
48
1
60
0
100
AcDbEllipse
10
237.233193
20
10.184068
30
0
11
0.197551554484217
21
0.0311990916673789
31
0
210
0
220
0
230
1
40
0.009655
41
-3.04959407911806
42
-1.47879775232057
0
ELLIPSE
5
1DC
100
AcDbEntity
8
1
62
256
6
ByLayer
370
13
48
1
60
0
100
AcDbEllipse
10
243.38576
20
17.038171
30
0
11
0.156043507061198
21
-2.9774874874671
31
0
210
0
220
0
230
1
40
0.995725
41
0
42
6.28318530717959
0
ELLIPSE
5
1DD
100
AcDbEntity
8
1
62
256
6
ByLayer
370
13
48
1
60
0
100
AcDbEllipse
10
248.744973
20
25.655462
30
0
11
-2.06114268082321
21
-1.58827137872145
31
0
210
0
220
0
230
1
40
0.479615
41
1.82992806282784
42
1.86916126545039
0
ELLIPSE
5
1DE
100
AcDbEntity
8
1
62
256
6
ByLayer
370
13
48
1
60
0
100
AcDbEllipse
10
235.733852
20
9.464513
30
0
11
0.0366351693700617
21
-0.699040674328196
31
0
210
0
220
0
230
1
40
0.995725
41
-1.46607657167593
42
-0.0773624824597726
0
ELLIPSE
5
1DF
100
AcDbEntity
8
1
62
256
6
ByLayer
370
13
48
1
60
0
100
AcDbEllipse
10
252.310599
20
17.606039
30
0
11
0.036635169370062
21
-0.699040674328201
31
0
210
0
220
0
230
1
40
0.995725
41
1.38753675533544
42
1.6755160819146
0
ELLIPSE
5
1E0
100
AcDbEntity
8
1
62
256
6
ByLayer
370
13
48
1
60
0
100
AcDbEllipse
10
237.090733
20
25.044687
30
0
11
-1.72936595007411
21
1.21940905088839
31
0
210
0
220
0
230
1
40
0.74335
41
1.1617510967032
42
1.98390815207302
0
ELLIPSE
5
1E1
100
AcDbEntity
8
1
62
256
6
ByLayer
370
13
48
1
60
0
100
AcDbEllipse
10
236.111963
20
10.664039
30
0
11
0.0994383168615969
21
-1.89739611603369
31
0
210
0
220
0
230
1
40
0.995725
41
-0.0273572726611233
42
-0.00872664626063709
0
ELLIPSE
5
1E2
100
AcDbEntity
8
1
62
256
6
ByLayer
370
13
48
1
60
0
100
AcDbEllipse
10
236.742323
20
23.091378
30
0
11
-0.157381426412958
21
-0.0466723701647931
31
0
210
0
220
0
230
1
40
0.019797
41
-3.05943361683503
42
-1.48863729010923
0
ELLIPSE
5
1E3
100
AcDbEntity
8
1
62
256
6
ByLayer
370
13
48
1
60
0
100
AcDbEllipse
10
250.824704
20
23.420957
30
0
11
0.0994383168615969
21
-1.89739611603369
31
0
210
0
220
0
230
1
40
0.995725
41
3.11423538092935
42
3.13286600732985
0
ELLIPSE
5
1E4
100
AcDbEntity
8
1
62
256
6
ByLayer
370
13
48
1
60
0
100
AcDbEllipse
10
249.375317
20
9.015645
30
0
11
-0.0942047212373044
21
1.79753316255823
31
0
210
0
220
0
230
1
40
0.995725
41
-0.400544394527617
42
6.66020457498562E-13
0
ELLIPSE
5
1E5
100
AcDbEntity
8
1
62
256
6
ByLayer
370
13
48
1
60
0
100
AcDbEllipse
10
250.189731
20
10.993377
30
0
11
-0.0427993177762303
21
-0.158580925149821
31
0
210
0
220
0
230
1
40
0.080206
41
-1.54458133971376
42
0.0262149871134127
0
ELLIPSE
5
1E6
100
AcDbEntity
8
1
62
256
6
ByLayer
370
13
48
1
60
0
100
AcDbEllipse
10
243.145895
20
23.239115
30
0
11
0.010467191248589
21
-0.199725906950915
31
0
210
0
220
0
230
1
40
0.092371
41
1.5707963267949
42
3.14159265358825
0
ELLIPSE
5
1E7
100
AcDbEntity
8
1
62
256
6
ByLayer
370
13
48
1
60
0
100
AcDbEllipse
10
236.093515
20
10.663072
30
0
11
-0.0915879234251571
21
1.74760168582051
31
0
210
0
220
0
230
1
40
0.995725
41
3.11423538092939
42
3.13286600732987
0
ELLIPSE
5
1E8
100
AcDbEntity
8
1
62
256
6
ByLayer
370
13
48
1
60
0
100
AcDbEllipse
10
250.259782
20
25.112677
30
0
11
-0.279378559898612
21
-0.215283244302581
31
0
210
0
220
0
230
1
40
0.479615
41
-2.35983386470239
42
-1.2724320708089
0
ELLIPSE
5
1E9
100
AcDbEntity
8
1
62
256
6
ByLayer
370
13
48
1
60
0
100
AcDbEllipse
10
251.216384
20
25.170302
30
0
11
0.00379960965785703
21
0.149951868832795
31
0
210
0
220
0
230
1
40
0.092094
41
0.00716942110835954
42
1.57796574790525
0
ELLIPSE
5
1EA
100
AcDbEntity
8
1
62
256
6
ByLayer
370
13
48
1
60
0
100
AcDbEllipse
10
238.437356
20
8.442411
30
0
11
-0.0942047212373044
21
1.79753316255823
31
0
210
0
220
0
230
1
40
0.995725
41
0
42
1.26193471909831
0
ELLIPSE
5
1EB
100
AcDbEntity
8
1
62
256
6
ByLayer
370
13
48
1
60
0
100
AcDbEllipse
10
250.473904
20
25.122067
30
0
11
0.145139532363175
21
-0.0378750068699502
31
0
210
0
220
0
230
1
40
0.028078
41
3.05344420153006
42
-1.65894477885552
0
ELLIPSE
5
1EC
100
AcDbEntity
8
1
62
256
6
ByLayer
370
13
48
1
60
0
100
AcDbEllipse
10
252.296762
20
17.605314
30
0
11
-0.0287847759336208
21
0.549246244115015
31
0
210
0
220
0
230
1
40
0.995725
41
-1.75405589825432
42
-1.46607657167516
0
ELLIPSE
5
1ED
100
AcDbEntity
8
1
62
256
6
ByLayer
370
13
48
1
60
0
100
AcDbEllipse
10
237.087147
20
23.005167
30
0
11
0.198308915233043
21
-0.0259533069009317
31
0
210
0
220
0
230
1
40
0.016833
41
1.47983423648418
42
3.05063056328346
0
ELLIPSE
5
1EE
100
AcDbEntity
8
1
62
256
6
ByLayer
370
13
48
1
60
0
100
AcDbEllipse
10
251.005133
20
16.42343
30
0
11
0.465790010562217
21
-8.88780285931571
31
0
210
0
220
0
230
1
40
0.995725
41
3.0642301711313
42
3.11423538093003
0
ELLIPSE
5
1EF
100
AcDbEntity
8
1
62
256
6
ByLayer
370
13
48
1
60
0
100
AcDbEllipse
10
236.804986
20
23.151464
30
0
11
0.00523359562429396
21
-0.0998629534754457
31
0
210
0
220
0
230
1
40
0.995725
41
1.38753675533488
42
-3.03687289847123
0
ELLIPSE
5
1F0
100
AcDbEntity
8
1
62
256
6
ByLayer
370
13
48
1
60
0
100
AcDbEllipse
10
236.468559
20
8.961402
30
0
11
0.0127690523125511
21
-0.243648032548531
31
0
210
0
220
0
230
1
40
0.995725
41
0.174532925198808
42
1.2619347190985
0
ELLIPSE
5
1F1
100
AcDbEntity
8
1
62
256
6
ByLayer
370
13
48
1
60
0
100
AcDbEllipse
10
251.743709
20
24.7064
30
0
11
0.148163665863163
21
0.0233993187505342
31
0
210
0
220
0
230
1
40
0.009655
41
0.0919985744686624
42
1.66279490126921
0
ELLIPSE
5
1F2
100
AcDbEntity
8
1
62
256
6
ByLayer
370
13
48
1
60
0
100
AcDbEllipse
10
250.508228
20
25.108646
30
0
11
-0.0026167978121474
21
0.0499314767377296
31
0
210
0
220
0
230
1
40
0.995725
41
-0.00872664625866289
42
1.26193471909935
0
ELLIPSE
5
1F3
100
AcDbEntity
8
1
62
256
6
ByLayer
370
13
48
1
60
0
100
AcDbEllipse
10
236.18375
20
8.915467
30
0
11
0.00653729335064122
21
-0.149857478277354
31
0
210
0
220
0
230
1
40
0.092367
41
-1.56998679074977
42
0.000809536045656042
0
ELLIPSE
5
1F4
100
AcDbEntity
8
1
62
256
6
ByLayer
370
13
48
1
60
0
100
AcDbEllipse
10
250.136294
20
10.933774
30
0
11
0.00523359562429396
21
-0.0998629534754457
31
0
210
0
220
0
230
1
40
0.995725
41
-1.75405589825347
42
0.104719755120577
0
ELLIPSE
5
1F5
100
AcDbEntity
8
1
62
256
6
ByLayer
370
13
48
1
60
0
100
AcDbEllipse
10
235.715403
20
9.463546
30
0
11
-0.0287847759336205
21
0.54924624411501
31
0
210
0
220
0
230
1
40
0.995725
41
1.67551608191458
42
3.06423017113071
0
ELLIPSE
5
1F6
100
AcDbEntity
8
1
62
256
6
ByLayer
370
13
48
1
60
0
100
AcDbEllipse
10
236.396154
20
8.974658
30
0
11
-0.0026167978121474
21
0.0499314767377296
31
0
210
0
220
0
230
1
40
0.995725
41
3.13286600733109
42
-1.87965793449045
0
ELLIPSE
5
1F7
100
AcDbEntity
8
1
62
256
6
ByLayer
370
13
48
1
60
0
100
AcDbEllipse
10
252.035955
20
11.286635
30
0
11
-0.0235312926467614
21
0.148142763125211
31
0
210
0
220
0
230
1
40
0.091865
41
1.56109981835168
42
3.13189614514058
0
ELLIPSE
5
1F8
100
AcDbEntity
8
1
62
256
6
ByLayer
370
13
48
1
60
0
100
AcDbEllipse
10
252.035955
20
11.286635
30
0
11
0.00785039343644185
21
-0.149794430213186
31
0
210
0
220
0
230
1
40
0.995725
41
0.104719755118361
42
1.38753675533529
0
ELLIPSE
5
1F9
100
AcDbEntity
8
1
62
256
6
ByLayer
370
13
48
1
60
0
100
AcDbEllipse
10
252.040568
20
11.286877
30
0
11
0.00785039343644185
21
-0.149794430213186
31
0
210
0
220
0
230
1
40
0.995725
41
0.104719755119883
42
1.38753675533606
0
ELLIPSE
5
1FA
100
AcDbEntity
8
1
62
256
6
ByLayer
370
13
48
1
60
0
100
AcDbEllipse
10
248.900088
20
8.99074
30
0
11
-1.40394107568669
21
-1.50837379634459
31
0
210
0
220
0
230
1
40
0.735668
41
2.56900210139554
42
-2.89202615041374
0
ELLIPSE
5
1FB
100
AcDbEntity
8
1
62
256
6
ByLayer
370
13
48
1
60
0
100
AcDbEllipse
10
252.851492
20
17.691956
30
0
11
0.148163665863163
21
0.0233993187505342
31
0
210
0
220
0
230
1
40
0.009655
41
0.0919985744686624
42
1.66279490126883
0
ELLIPSE
5
1FC
100
AcDbEntity
8
1
62
256
6
ByLayer
370
13
48
1
60
0
100
AcDbEllipse
10
236.218394
20
10.929688
30
0
11
-1.65564192113113
21
-2.05486645213079
31
0
210
0
220
0
230
1
40
0.966608
41
1.54124461168264
42
1.85179471040761
0
ELLIPSE
5
1FD
100
AcDbEntity
8
1
62
256
6
ByLayer
370
13
48
1
60
0
100
AcDbEllipse
10
236.07003
20
16.773298
30
0
11
0.136073486231659
21
-2.59643679036189
31
0
210
0
220
0
230
1
40
0.995725
41
-2.20424198809739
42
-1.46607657167525
0
ELLIPSE
5
1FE
100
AcDbEntity
8
1
62
256
6
ByLayer
370
13
48
1
60
0
100
AcDbEllipse
10
235.708434
20
17.675984
30
0
11
-0.471023606186523
21
8.98766581279117
31
0
210
0
220
0
230
1
40
0.995725
41
-2.91693381338448
42
-2.83440246605356
0
ELLIPSE
5
1FF
100
AcDbEntity
8
1
62
256
6
ByLayer
370
13
48
1
60
0
100
AcDbEllipse
10
235.708434
20
17.675984
30
0
11
-0.471023606186523
21
8.98766581279117
31
0
210
0
220
0
230
1
40
0.995725
41
2.87305307733118
42
3.02206401946906
0
ELLIPSE
5
200
100
AcDbEntity
8
1
62
256
6
ByLayer
370
13
48
1
60
0
100
AcDbEllipse
10
229.1618
20
3.728929
30
0
11
-0.494241123435139
21
13.960537061945
31
0
210
0
220
0
230
1
40
0.356398
41
-0.537165434343255
42
-0.396400412214878
0
ELLIPSE
5
201
100
AcDbEntity
8
1
62
256
6
ByLayer
370
13
48
1
60
0
100
AcDbEllipse
10
251.744427
20
8.861202
30
0
11
-0.00917001857411022
21
0.500202387110716
31
0
210
0
220
0
230
1
40
0.105115
41
1.92344055094256
42
-2.78894842944313
0
ELLIPSE
5
202
100
AcDbEntity
8
1
62
256
6
ByLayer
370
13
48
1
60
0
100
AcDbEllipse
10
1917.14907
20
-0.744539
30
0
11
-1807.22140996678
21
0.815525785803514
31
0
210
0
220
0
230
1
40
0.037596
41
-0.370046954134164
42
-0.365429685397127
0
ELLIPSE
5
203
100
AcDbEntity
8
1
62
256
6
ByLayer
370
13
48
1
60
0
100
AcDbEllipse
10
242.81192
20
-1.041639
30
0
11
-0.52335956242947
21
9.98629534754574
31
0
210
0
220
0
230
1
40
0.995725
41
0
42
0.307190187536248
0
ELLIPSE
5
204
100
AcDbEntity
8
1
62
256
6
ByLayer
370
13
48
1
60
0
100
AcDbEllipse
10
229.1618
20
5.64376
30
0
11
-4.99921741833262
21
0.105863115781373
31
0
210
0
220
0
230
1
40
0.835609
41
1.82658787917431
42
2.12745156283969
0
ELLIPSE
5
205
100
AcDbEntity
8
1
62
256
6
ByLayer
370
13
48
1
60
0
100
AcDbEllipse
10
260.079683
20
0
30
0
11
-49.2282253069842
21
20.3322356769572
31
0
210
0
220
0
230
1
40
0.278073
41
0.844632787190919
42
0.935362572109876
0
ELLIPSE
5
206
100
AcDbEntity
8
1
62
256
6
ByLayer
370
13
48
1
60
0
100
AcDbEllipse
10
876.921049
20
0
30
0
11
-969.58912905746
21
18.0330928262624
31
0
210
0
220
0
230
1
40
0.017506
41
0.843800243143026
42
0.867522306510391
0
ELLIPSE
5
207
100
AcDbEntity
8
1
62
256
6
ByLayer
370
13
48
1
60
0
100
AcDbEllipse
10
238.955737
20
9.255712
30
0
11
0.353010790461905
21
-0.935619250452588
31
0
210
0
220
0
230
1
40
0.088046
41
-1.59884006173132
42
-0.0280437349364471
0
ELLIPSE
5
208
100
AcDbEntity
8
1
62
256
6
ByLayer
370
13
48
1
60
0
100
AcDbEllipse
10
236.416278
20
10.940059
30
0
11
0.136073486231659
21
-2.59643679036189
31
0
210
0
220
0
230
1
40
0.995725
41
-2.08239418575105
42
-1.82115964336721
0
ELLIPSE
5
209
100
AcDbEntity
8
1
62
256
6
ByLayer
370
13
48
1
60
0
100
AcDbEllipse
10
249.126857
20
10.304408
30
0
11
-0.0261679781214734
21
0.499314767377286
31
0
210
0
220
0
230
1
40
0.995725
41
-0.99036210339153
42
-0.927295220885107
0
ELLIPSE
5
20A
100
AcDbEntity
8
1
62
256
6
ByLayer
370
13
48
1
60
0
100
AcDbEllipse
10
251.464134
20
12.129233
30
0
11
-0.0792314057034954
21
2.59924048961195
31
0
210
0
220
0
230
1
40
0.530094
41
2.95732543854043
42
-3.12998927469508
0
ELLIPSE
5
20B
100
AcDbEntity
8
1
62
256
6
ByLayer
370
13
48
1
60
0
100
AcDbEllipse
10
251.618084
20
0
30
0
11
-4.19188431489848
21
24.7623344055819
31
0
210
0
220
0
230
1
40
0.086676
41
1.60800074141829
42
1.72435395344263
0
ELLIPSE
5
20C
100
AcDbEntity
8
1
62
256
6
ByLayer
370
13
48
1
60
0
100
AcDbEllipse
10
253.753611
20
0
30
0
11
-3.02944184297819
21
-24.7625184947451
31
0
210
0
220
0
230
1
40
0.115723
41
-1.31596221136794
42
-0.080014981150269
0
ELLIPSE
5
20D
100
AcDbEntity
8
1
62
256
6
ByLayer
370
13
48
1
60
0
100
AcDbEllipse
10
5.5
20
-29.498313
30
0
11
-0.5
21
5.05319527541181E-16
31
0
210
0
220
0
230
1
40
0.5
41
1.5707963267949
42
3.14159265358979
0
ELLIPSE
5
20E
100
AcDbEntity
8
1
62
256
6
ByLayer
370
13
48
1
60
0
100
AcDbEllipse
10
251.218341
20
10.414018
30
0
11
-0.0183400371505306
21
1.00040477426205
31
0
210
0
220
0
230
1
40
0.105115
41
-3.1380142798415
42
-2.58374331604443
0
ELLIPSE
5
20F
100
AcDbEntity
8
1
62
256
6
ByLayer
370
13
48
1
60
0
100
AcDbEllipse
10
251.615562
20
12.137169
30
0
11
0.136073486231659
21
-2.59643679036189
31
0
210
0
220
0
230
1
40
0.995725
41
-0.990362103391472
42
-0.858139698776717
0
ELLIPSE
5
210
100
AcDbEntity
8
1
62
256
6
ByLayer
370
13
48
1
60
0
100
AcDbEllipse
10
242.719676
20
-1.046474
30
0
11
0.575695518672402
21
-10.9849248823003
31
0
210
0
220
0
230
1
40
0.995725
41
-3.14159265358979
42
-2.83440246605355
0
ELLIPSE
5
211
100
AcDbEntity
8
1
62
256
6
ByLayer
370
13
48
1
60
0
100
AcDbEllipse
10
251.692665
20
-1.990927
30
0
11
-2.20537046305634
21
3.42487214857178
31
0
210
0
220
0
230
1
40
0.402081
41
-0.992563818262247
42
-0.849224129118448
0
ELLIPSE
5
212
100
AcDbEntity
8
1
62
256
6
ByLayer
370
13
48
1
60
0
100
AcDbEllipse
10
236.416278
20
10.940059
30
0
11
0.136073486231659
21
-2.59643679036189
31
0
210
0
220
0
230
1
40
0.995725
41
0.687062733516902
42
1.13806179252794
0
ELLIPSE
5
213
100
AcDbEntity
8
1
62
256
6
ByLayer
370
13
48
1
60
0
100
AcDbEllipse
10
265.443534
20
-4.9E-05
30
0
11
-264.586548165158
21
0.120038073776412
31
0
210
0
220
0
230
1
40
0.092638
41
-1.43360338563969
42
-1.42513877016632
0
ELLIPSE
5
214
100
AcDbEntity
8
1
62
256
6
ByLayer
370
13
48
1
60
0
100
AcDbEllipse
10
250.65122
20
-15.083354
30
0
11
-0.297247055958787
21
-2.48518900683267
31
0
210
0
220
0
230
1
40
0.117663
41
0
42
6.28318530717959
0
ELLIPSE
5
215
100
AcDbEntity
8
1
62
256
6
ByLayer
370
13
48
1
60
0
100
AcDbEllipse
10
246.259469
20
-7.00735
30
0
11
-6.03298395064319
21
-0.0279061466867143
31
0
210
0
220
0
230
1
40
0.989691
41
3.00682234502766
42
-2.98993961776981
0
ELLIPSE
5
216
100
AcDbEntity
8
1
62
256
6
ByLayer
370
13
48
1
60
0
100
AcDbEllipse
10
235.272855
20
9.578351
30
0
11
-3.96879667226576
21
-0.704906652286275
31
0
210
0
220
0
230
1
40
0.015321
41
-3.01817314068081
42
-2.71671453990118
0
ELLIPSE
5
217
100
AcDbEntity
8
1
62
256
6
ByLayer
370
13
48
1
60
0
100
AcDbEllipse
10
265.4432
20
0.0002
30
0
11
-267.327000560383
21
0.121250324603529
31
0
210
0
220
0
230
1
40
0.092637
41
-1.45508408239306
42
-1.44633726282269
0
ELLIPSE
5
218
100
AcDbEntity
8
1
62
256
6
ByLayer
370
13
48
1
60
0
100
AcDbEllipse
10
243.028864
20
9.984826
30
0
11
-3.96879667556287
21
-0.704906652886352
31
0
210
0
220
0
230
1
40
0.015321
41
-3.01817314105639
42
-2.71671454008017
0
ELLIPSE
5
219
100
AcDbEntity
8
1
62
256
6
ByLayer
370
13
48
1
60
0
100
AcDbEllipse
10
239.041162
20
9.775839
30
0
11
-0.318392676592385
21
-0.395166625643262
31
0
210
0
220
0
230
1
40
0.966608
41
-2.1258622820626
42
-1.28979794426212
0
ELLIPSE
5
21A
100
AcDbEntity
8
1
62
256
6
ByLayer
370
13
48
1
60
0
100
AcDbEllipse
10
251.430569
20
-14.357333
30
0
11
-0.0644357758043739
21
-0.516064069499032
31
0
210
0
220
0
230
1
40
0.112235
41
-1.63587441571129
42
-0.0650780889317645
0
ELLIPSE
5
21B
100
AcDbEntity
8
1
62
256
6
ByLayer
370
13
48
1
60
0
100
AcDbEllipse
10
246.797171
20
10.182314
30
0
11
-0.318392262385139
21
-0.39516703174369
31
0
210
0
220
0
230
1
40
0.966608
41
-2.12586341845282
42
-2.06669045002059
0
ELLIPSE
5
21C
100
AcDbEntity
8
1
62
256
6
ByLayer
370
13
48
1
60
0
100
AcDbEllipse
10
233.649008
20
12.314786
30
0
11
-0.0261679781214736
21
0.49931476737729
31
0
210
0
220
0
230
1
40
0.995725
41
-2.08239418575102
42
-1.46607657167526
0
ELLIPSE
5
21D
100
AcDbEntity
8
1
62
256
6
ByLayer
370
13
48
1
60
0
100
AcDbEllipse
10
251.662507
20
0.131756
30
0
11
-0.0103277096898534
21
0.505564929258273
31
0
210
0
220
0
230
1
40
0.102418
41
-0.113325631073222
42
0.232284607575359
0
ELLIPSE
5
21E
100
AcDbEntity
8
1
62
256
6
ByLayer
370
13
48
1
60
0
100
AcDbEllipse
10
251.766657
20
0.142619
30
0
11
-0.0206554193698132
21
1.01112985814471
31
0
210
0
220
0
230
1
40
0.102418
41
-0.113325631093789
42
1.07038027176765
0
ELLIPSE
5
21F
100
AcDbEntity
8
1
62
256
6
ByLayer
370
13
48
1
60
0
100
AcDbEllipse
10
239.282692
20
9.788497
30
0
11
-0.0261679781214735
21
0.499314767377288
31
0
210
0
220
0
230
1
40
0.995725
41
0.927295218001796
42
1.13806179252797
0
ELLIPSE
5
220
100
AcDbEntity
8
1
62
256
6
ByLayer
370
13
48
1
60
0
100
AcDbEllipse
10
257.253275
20
0.665802
30
0
11
-6.0329839502594
21
-0.0279061504630351
31
0
210
0
220
0
230
1
40
0.989691
41
0.0280510482225695
42
0.151653035204875
0
ELLIPSE
5
221
100
AcDbEntity
8
1
62
256
6
ByLayer
370
13
48
1
60
0
100
AcDbEllipse
10
229.1618
20
6.847327
30
0
11
-3
21
3.03191716524709E-15
31
0
210
0
220
0
230
1
40
0.760114
41
-3.10668937920864
42
-1.70532247417867
0
ELLIPSE
5
222
100
AcDbEntity
8
1
62
256
6
ByLayer
370
13
48
1
60
0
100
AcDbEllipse
10
236.416278
20
10.940059
30
0
11
0.136073486231659
21
-2.59643679036189
31
0
210
0
220
0
230
1
40
0.995725
41
-1.28067832734906
42
-0.581932527432304
0
ELLIPSE
5
223
100
AcDbEntity
8
1
62
256
6
ByLayer
370
13
48
1
60
0
100
AcDbEllipse
10
235.55899
20
10.89513
30
0
11
-2.29348548703371
21
1.84790145601193
31
0
210
0
220
0
230
1
40
0.775936
41
3.05283506782345
42
-2.77958348581046
0
ELLIPSE
5
224
100
AcDbEntity
8
1
62
256
6
ByLayer
370
13
48
1
60
0
100
AcDbEllipse
10
242.236224
20
9.943285
30
0
11
0.0523359562429457
21
-0.998629534754574
31
0
210
0
220
0
230
1
40
0.092371
41
-1.5707963267949
42
0
0
ELLIPSE
5
225
100
AcDbEntity
8
1
62
256
6
ByLayer
370
13
48
1
60
0
100
AcDbEllipse
10
255.493411
20
2.299086
30
0
11
-5.8110334214557
21
-2.05387737244229
31
0
210
0
220
0
230
1
40
0.870349
41
-0.380642907654006
42
-0.233090838227177
0
ELLIPSE
5
226
100
AcDbEntity
8
1
62
256
6
ByLayer
370
13
48
1
60
0
100
AcDbEllipse
10
245.653494
20
13.026357
30
0
11
-1.65564191877085
21
-2.05486645285657
31
0
210
0
220
0
230
1
40
0.966608
41
0.713732917057069
42
1.07490334544546
0
ELLIPSE
5
227
100
AcDbEntity
8
1
62
256
6
ByLayer
370
13
48
1
60
0
100
AcDbEllipse
10
251.587517
20
10.327286
30
0
11
-0.0435637040526899
21
-0.259139630112018
31
0
210
0
220
0
230
1
40
0.947521
41
0.308152981464344
42
1.28542437776384
0
ELLIPSE
5
228
100
AcDbEntity
8
1
62
256
6
ByLayer
370
13
48
1
60
0
100
AcDbEllipse
10
251.0338
20
17.711518
30
0
11
0.148163665863163
21
0.0233993187505342
31
0
210
0
220
0
230
1
40
0.009655
41
1.66279490126959
42
2.8560295683096
0
ELLIPSE
5
229
100
AcDbEntity
8
1
62
256
6
ByLayer
370
13
48
1
60
0
100
AcDbEllipse
10
251.037034
20
17.467604
30
0
11
0.148731686424782
21
-0.0194649801756987
31
0
210
0
220
0
230
1
40
0.016833
41
-2.85804977878792
42
-1.66175841710469
0
ELLIPSE
5
22A
100
AcDbEntity
8
1
62
256
6
ByLayer
370
13
48
1
60
0
100
AcDbEllipse
10
250.189731
20
10.993377
30
0
11
-0.157381426419038
21
-0.0466723701661555
31
0
210
0
220
0
230
1
40
0.019797
41
-1.48863728994801
42
0.0821590367406664
0
ELLIPSE
5
22B
100
AcDbEntity
8
1
62
256
6
ByLayer
370
13
48
1
60
0
100
AcDbEllipse
10
250.131681
20
10.933532
30
0
11
0.00523359562429396
21
-0.0998629534754457
31
0
210
0
220
0
230
1
40
0.995725
41
-6.34410640751874E-06
42
0.104719755120861
0
ELLIPSE
5
22C
100
AcDbEntity
8
1
62
256
6
ByLayer
370
13
48
1
60
0
100
AcDbEllipse
10
248.821853
20
8.98664
30
0
11
0.0942047212373021
21
-1.79753316255823
31
0
210
0
220
0
230
1
40
0.995725
41
2.09000694763442
42
2.74715960225125
0
ELLIPSE
5
22D
100
AcDbEntity
8
1
62
256
6
ByLayer
370
13
48
1
60
0
100
AcDbEllipse
10
250.694207
20
17.657086
30
0
11
0.197551554484217
21
0.0311990916673789
31
0
210
0
220
0
230
1
40
0.009655
41
-1.47879775232184
42
0.000129454881608664
0
ELLIPSE
5
22E
100
AcDbEntity
8
1
62
256
6
ByLayer
370
13
48
1
60
0
100
AcDbEllipse
10
249.708086
20
23.901171
30
0
11
-0.197551554484215
21
-0.0311990916673925
31
0
210
0
220
0
230
1
40
0.009655
41
1.66279490126852
42
-3.14146319864931
0
ELLIPSE
5
22F
100
AcDbEntity
8
1
62
256
6
ByLayer
370
13
48
1
60
0
100
AcDbEllipse
10
250.696109
20
17.513606
30
0
11
0.198308915233043
21
-0.0259533069009317
31
0
210
0
220
0
230
1
40
0.016833
41
0.000152472663890408
42
1.47983423648403
0
ELLIPSE
5
230
100
AcDbEntity
8
1
62
256
6
ByLayer
370
13
48
1
60
0
100
AcDbEllipse
10
249.854133
20
11.080072
30
0
11
-0.19830891523305
21
0.0259533069008781
31
0
210
0
220
0
230
1
40
0.016833
41
-3.1414401808953
42
-1.66175841710534
0
ELLIPSE
5
231
100
AcDbEntity
8
1
62
256
6
ByLayer
370
13
48
1
60
0
100
AcDbEllipse
10
243.410851
20
17.039486
30
0
11
0.161488764830073
21
-3.0813891952549
31
0
210
0
220
0
230
1
40
0.995725
41
-0.853733431166165
42
0
0
ELLIPSE
5
232
100
AcDbEntity
8
1
62
256
6
ByLayer
370
13
48
1
60
0
100
AcDbEllipse
10
243.410851
20
17.039486
30
0
11
0.161488764830073
21
-3.0813891952549
31
0
210
0
220
0
230
1
40
0.995725
41
0
42
-2.28787053660729
0
ELLIPSE
5
233
100
AcDbEntity
8
1
62
256
6
ByLayer
370
13
48
1
60
0
100
AcDbEllipse
10
236.800374
20
23.151223
30
0
11
0.00523359562429396
21
-0.0998629534754457
31
0
210
0
220
0
230
1
40
0.995725
41
1.38753675533546
42
3.14158141713651
0
ELLIPSE
5
234
100
AcDbEntity
8
1
62
256
6
ByLayer
370
13
48
1
60
0
100
AcDbEllipse
10
236.412173
20
8.925431
30
0
11
0.00653729335064122
21
-0.149857478277354
31
0
210
0
220
0
230
1
40
0.092367
41
-1.56998679074958
42
-0.0232440763783485
0
ELLIPSE
5
235
100
AcDbEntity
8
1
62
256
6
ByLayer
370
13
48
1
60
0
100
AcDbEllipse
10
236.40999
20
8.975383
30
0
11
0.0104671912485892
21
-0.199725906950916
31
0
210
0
220
0
230
1
40
0.995725
41
0.0114035669056898
42
1.26193471909904
0
ELLIPSE
5
236
100
AcDbEntity
8
1
62
256
6
ByLayer
370
13
48
1
60
0
100
AcDbEllipse
10
236.151306
20
8.914355
30
0
11
0.00373239490690328
21
-0.149953556904326
31
0
210
0
220
0
230
1
40
0.092336
41
-1.56825879134033
42
-0.0414707750414159
0
ELLIPSE
5
237
100
AcDbEntity
8
1
62
256
6
ByLayer
370
13
48
1
60
0
100
AcDbEllipse
10
234.896099
20
22.79812
30
0
11
0.0235312926467694
21
-0.14814276312521
31
0
210
0
220
0
230
1
40
0.091865
41
-3.05123893761437
42
-1.58049283524967
0
ELLIPSE
5
238
100
AcDbEntity
8
1
62
256
6
ByLayer
370
13
48
1
60
0
100
AcDbEllipse
10
235.715671
20
8.914453
30
0
11
-0.00379960965785735
21
-0.149951868832795
31
0
210
0
220
0
230
1
40
0.092094
41
-1.56362690568454
42
-0.0717426686089586
0
ELLIPSE
5
239
100
AcDbEntity
8
1
62
256
6
ByLayer
370
13
48
1
60
0
100
AcDbEllipse
10
234.800298
20
23.728947
30
0
11
-0.043563704058098
21
-0.259139630110485
31
0
210
0
220
0
230
1
40
0.947521
41
-2.83343967210637
42
-2.19739446867767
0
ELLIPSE
5
23A
100
AcDbEntity
8
1
62
256
6
ByLayer
370
13
48
1
60
0
100
AcDbEllipse
10
234.896099
20
22.79812
30
0
11
-0.148731686424787
21
0.0194649801756586
31
0
210
0
220
0
230
1
40
0.016833
41
-0.0909620903084588
42
1.47983423648303
0
ELLIPSE
5
23B
100
AcDbEntity
8
1
62
256
6
ByLayer
370
13
48
1
60
0
100
AcDbEllipse
10
235.188346
20
9.378355
30
0
11
-0.148163665863161
21
-0.0233993187505443
31
0
210
0
220
0
230
1
40
0.009655
41
-1.47879775232123
42
0.0919985744711225
0
ELLIPSE
5
23C
100
AcDbEntity
8
1
62
256
6
ByLayer
370
13
48
1
60
0
100
AcDbEllipse
10
234.07847
20
16.550626
30
0
11
-0.148731686424787
21
0.0194649801756586
31
0
210
0
220
0
230
1
40
0.016833
41
0.263181912491081
42
1.47983423648454
0
ELLIPSE
5
23D
100
AcDbEntity
8
1
62
256
6
ByLayer
370
13
48
1
60
0
100
AcDbEllipse
10
234.080563
20
16.392799
30
0
11
-0.148163665863161
21
-0.0233993187505443
31
0
210
0
220
0
230
1
40
0.009655
41
-1.47879775232059
42
-0.264819008246252
0
ELLIPSE
5
23E
100
AcDbEntity
8
1
62
256
6
ByLayer
370
13
48
1
60
0
100
AcDbEllipse
10
249.708086
20
23.901171
30
0
11
0.010467191248589
21
-0.199725906950915
31
0
210
0
220
0
230
1
40
0.995725
41
3.14157394910468
42
-2.58708947813119
0
ELLIPSE
5
23F
100
AcDbEntity
8
1
62
256
6
ByLayer
370
13
48
1
60
0
100
AcDbEllipse
10
249.854133
20
11.080072
30
0
11
0.010467191248589
21
-0.199725906950915
31
0
210
0
220
0
230
1
40
0.995725
41
-0.280778212086603
42
2.1174765497514E-05
0
ELLIPSE
5
240
100
AcDbEntity
8
1
62
256
6
ByLayer
370
13
48
1
60
0
100
AcDbEllipse
10
237.233193
20
10.184068
30
0
11
0.010467191248589
21
-0.199725906950915
31
0
210
0
220
0
230
1
40
0.995725
41
-1.46607657167589
42
-1.72590775578017E-05
0
ELLIPSE
5
241
100
AcDbEntity
8
1
62
256
6
ByLayer
370
13
48
1
60
0
100
AcDbEllipse
10
237.087147
20
23.005167
30
0
11
0.010467191248589
21
-0.199725906950915
31
0
210
0
220
0
230
1
40
0.995725
41
-3.14157313675553
42
-1.75405589825489
0
ELLIPSE
5
242
100
AcDbEntity
8
1
62
256
6
ByLayer
370
13
48
1
60
0
100
AcDbEllipse
10
237.233193
20
10.184068
30
0
11
0.114373860316045
21
-0.164068949153719
31
0
210
0
220
0
230
1
40
0.07853
41
3.35013654753972E-05
42
1.52199123907656
0
ELLIPSE
5
243
100
AcDbEntity
8
1
62
256
6
ByLayer
370
18
48
1
60
0
100
AcDbEllipse
10
243.298453
20
17.033595
30
0
11
0.067529084340273
21
-1.28853168869383
31
0
210
0
220
0
230
1
40
0.995725
41
3.14159265358979
42
-2.34982975905692
0
ELLIPSE
5
244
100
AcDbEntity
8
1
62
256
6
ByLayer
370
18
48
1
60
0
100
AcDbEllipse
10
243.298453
20
17.033595
30
0
11
0.067529084340273
21
-1.28853168869383
31
0
210
0
220
0
230
1
40
0.995725
41
-0.773927979467124
42
0
0
ELLIPSE
5
245
100
AcDbEntity
8
1
62
256
6
ByLayer
370
18
48
1
60
0
100
AcDbEllipse
10
243.298453
20
17.033595
30
0
11
-0.0675290843402746
21
1.28853168869383
31
0
210
0
220
0
230
1
40
0.995725
41
-3.03890209425327
42
-2.09439510239319
0
ELLIPSE
5
246
100
AcDbEntity
8
1
62
256
6
ByLayer
370
18
48
1
60
0
100
AcDbEllipse
10
243.298453
20
17.033595
30
0
11
0.067529084340273
21
-1.28853168869383
31
0
210
0
220
0
230
1
40
0.995725
41
-1.89415109854867
42
-1.23150380240864
0
ELLIPSE
5
247
100
AcDbEntity
8
1
62
256
6
ByLayer
370
18
48
1
60
0
100
AcDbEllipse
10
244.103204
20
15.789345
30
0
11
-0.328810806110981
21
-0.214953577526578
31
0
210
0
220
0
230
1
40
0.490768
41
0.67340130886769
42
-2.94809584056032
0
ELLIPSE
5
248
100
AcDbEntity
8
1
62
256
6
ByLayer
370
18
48
1
60
0
100
AcDbEllipse
10
243.968736
20
18.355148
30
0
11
-0.349478313243832
21
0.179405951069339
31
0
210
0
220
0
230
1
40
0.490768
41
2.94809584055991
42
-0.625095735375806
0
ELLIPSE
5
249
100
AcDbEntity
8
1
62
256
6
ByLayer
370
18
48
1
60
0
100
AcDbEllipse
10
242.62817
20
15.712042
30
0
11
-0.349478313243813
21
0.17940595106933
31
0
210
0
220
0
230
1
40
0.490768
41
2.51649656479989
42
-2.94329838355343
0
ELLIPSE
5
24A
100
AcDbEntity
8
1
62
256
6
ByLayer
370
18
48
1
60
0
100
AcDbEllipse
10
242.493702
20
18.277845
30
0
11
-0.328810806110978
21
-0.214953577526592
31
0
210
0
220
0
230
1
40
0.490768
41
2.94329838355308
42
-2.46819100314326
0
ELLIPSE
5
24B
100
AcDbEntity
8
1
62
256
6
ByLayer
370
18
48
1
60
0
100
AcDbEllipse
10
243.369942
20
17.037342
30
0
11
-0.149157475292399
21
2.84609417405054
31
0
210
0
220
0
230
1
40
0.995725
41
9.2516345868695E-05
42
3.14158693516111
0
ELLIPSE
5
24C
100
AcDbEntity
8
1
62
256
6
ByLayer
370
18
48
1
60
0
100
AcDbEllipse
10
244.366327
20
-7.056845
30
0
11
-2.35000000000001
21
2.37500177944356E-15
31
0
210
0
220
0
230
1
40
0.995142
41
-0.614770448748239
42
-0.533874561273516
0
ELLIPSE
5
24D
100
AcDbEntity
8
1
62
256
6
ByLayer
370
18
48
1
60
0
100
AcDbEllipse
10
244.366327
20
-6.959525
30
0
11
-2.35000000000001
21
2.37500177944356E-15
31
0
210
0
220
0
230
1
40
0.995142
41
-0.660028920859503
42
-0.490186563936236
0
ELLIPSE
5
24E
100
AcDbEntity
8
1
62
256
6
ByLayer
370
18
48
1
60
0
100
AcDbEllipse
10
244.773487
20
17.110898
30
0
11
-0.0206256003553429
21
0.393559899646764
31
0
210
0
220
0
230
1
40
0.48763
41
-2.94566969474593
42
-0.320422399685658
0
ELLIPSE
5
24F
100
AcDbEntity
8
1
62
256
6
ByLayer
370
18
48
1
60
0
100
AcDbEllipse
10
244.366327
20
-6.217023
30
0
11
-1.5
21
1.51595858262354E-15
31
0
210
0
220
0
230
1
40
0.995142
41
-3.01926682830441
42
0
0
ELLIPSE
5
250
100
AcDbEntity
8
1
62
256
6
ByLayer
370
18
48
1
60
0
100
AcDbEllipse
10
244.366327
20
-6.217023
30
0
11
-1.5
21
1.51595858262354E-15
31
0
210
0
220
0
230
1
40
0.995142
41
0
42
0.212646308771928
0
ELLIPSE
5
251
100
AcDbEntity
8
1
62
256
6
ByLayer
370
18
48
1
60
0
100
AcDbEllipse
10
244.366327
20
-6.26625
30
0
11
2
21
0
31
0
210
0
220
0
230
1
40
0.995142
41
0.449149531096446
42
2.97852423114161
0
ELLIPSE
5
252
100
AcDbEntity
8
1
62
256
6
ByLayer
370
13
48
1
60
0
100
AcDbEllipse
10
251.80367
20
9.891775
30
0
11
-0.0190690707679113
21
-0.501607026758702
31
0
210
0
220
0
230
1
40
0.195483
41
-0.786740978470817
42
-0.331356153712628
0
ELLIPSE
5
253
100
AcDbEntity
8
1
62
256
6
ByLayer
370
13
48
1
60
0
100
AcDbEllipse
10
237.790104
20
10.380632
30
0
11
0.0261679781214729
21
-0.499314767377287
31
0
210
0
220
0
230
1
40
0.092371
41
-1.0059478256034
42
-0.630730776736715
0
ELLIPSE
5
254
100
AcDbEntity
8
1
62
256
6
ByLayer
370
13
48
1
60
0
100
AcDbEllipse
10
235.825916
20
10.909119
30
0
11
-0.109905508110188
21
2.0971220229846
31
0
210
0
220
0
230
1
40
0.995725
41
2.21256348619995
42
2.71619434556237
0
ELLIPSE
5
255
100
AcDbEntity
8
1
62
256
6
ByLayer
370
13
48
1
60
0
100
AcDbEllipse
10
235.825916
20
10.909119
30
0
11
-0.109905508110188
21
2.0971220229846
31
0
210
0
220
0
230
1
40
0.995725
41
-2.74205116610036
42
-2.08304175458191
0
ELLIPSE
5
256
100
AcDbEntity
8
1
62
256
6
ByLayer
370
13
48
1
60
0
100
AcDbEllipse
10
234.766247
20
21.029226
30
0
11
-0.143594274749879
21
2.73994198413537
31
0
210
0
220
0
230
1
40
0.016833
41
0.326127687984762
42
0.836829632722427
0
ELLIPSE
5
257
100
AcDbEntity
8
1
62
256
6
ByLayer
370
13
48
1
60
0
100
AcDbEllipse
10
235.625836
20
0
30
0
11
-1.30912886096675
21
24.764703015413
31
0
210
0
220
0
230
1
40
0.092638
41
-0.115712750125537
42
-0.00489876806628467
0
ELLIPSE
5
258
100
AcDbEntity
8
1
62
256
6
ByLayer
370
13
48
1
60
0
100
AcDbEllipse
10
196.06225
20
0
30
0
11
-267.328104021348
21
0.121274891864012
31
0
210
0
220
0
230
1
40
0.092638
41
-1.77083179882542
42
-1.71976870222187
0
ELLIPSE
5
259
100
AcDbEntity
8
1
62
256
6
ByLayer
370
13
48
1
60
0
100
AcDbEllipse
10
235.872038
20
10.911537
30
0
11
0.136073486231659
21
-2.59643679036189
31
0
210
0
220
0
230
1
40
0.995725
41
0.0555653949272747
42
1.07574208457342
0
ELLIPSE
5
25A
100
AcDbEntity
8
1
62
256
6
ByLayer
370
13
48
1
60
0
100
AcDbEllipse
10
235.800678
20
17.680818
30
0
11
0.523359562429457
21
-9.98629534754574
31
0
210
0
220
0
230
1
40
0.995725
41
8.81218852606812E-07
42
0.307190187536236
0
ELLIPSE
5
25B
100
AcDbEntity
8
1
62
256
6
ByLayer
370
13
48
1
60
0
100
AcDbEllipse
10
244.164589
20
-6.560412
30
0
11
2
21
0
31
0
210
0
220
0
230
1
40
0.995142
41
2.45309301533227
42
2.74908971936637
0
ELLIPSE
5
25C
100
AcDbEntity
8
1
62
256
6
ByLayer
370
13
48
1
60
0
100
AcDbEllipse
10
244.164589
20
-6.077989
30
0
11
2
21
0
31
0
210
0
220
0
230
1
40
0.995142
41
0.748288052688172
42
2.92403706911086
0
ELLIPSE
5
25D
100
AcDbEntity
8
1
62
256
6
ByLayer
370
13
48
1
60
0
100
AcDbEllipse
10
244.164589
20
-6.077989
30
0
11
-2.1
21
2.12234201567296E-15
31
0
210
0
220
0
230
1
40
0.995142
41
-2.75615828226753
42
-0.30542131105643
0
POINT
5
70
100
AcDbEntity
8
1
62
256
6
ByLayer
370
18
48
1
60
0
100
AcDbPoint
10
0
20
0
30
0
39
0
210
0
220
0
230
1
50
360
0
POINT
5
72
100
AcDbEntity
8
80
62
256
6
ByLayer
370
18
48
1
60
0
100
AcDbPoint
10
0
20
0
30
0
39
0
210
0
220
0
230
1
50
360
0
POINT
5
74
100
AcDbEntity
8
81
62
256
6
ByLayer
370
18
48
1
60
0
100
AcDbPoint
10
253.1618
20
0
30
0
39
0
210
0
220
0
230
1
50
360
0
POINT
5
76
100
AcDbEntity
8
1
62
256
6
ByLayer
370
18
48
1
60
1
100
AcDbPoint
10
0
20
-34
30
0
39
0
210
0
220
0
230
1
50
360
0
POINT
5
77
100
AcDbEntity
8
1
62
256
6
ByLayer
370
18
48
1
60
1
100
AcDbPoint
10
253.1618
20
-25.4
30
0
39
0
210
0
220
0
230
1
50
360
0
POINT
5
78
100
AcDbEntity
8
1
62
256
6
ByLayer
370
18
48
1
60
1
100
AcDbPoint
10
-18
20
-25
30
0
39
0
210
0
220
0
230
1
50
360
0
POINT
5
79
100
AcDbEntity
8
1
62
256
6
ByLayer
370
18
48
1
60
1
100
AcDbPoint
10
0
20
-34
30
0
39
0
210
0
220
0
230
1
50
360
0
POINT
5
7A
100
AcDbEntity
8
1
62
256
6
ByLayer
370
18
48
1
60
1
100
AcDbPoint
10
253.1618
20
-25.4
30
0
39
0
210
0
220
0
230
1
50
360
0
POINT
5
7B
100
AcDbEntity
8
1
62
256
6
ByLayer
370
18
48
1
60
1
100
AcDbPoint
10
17.5156
20
-34
30
0
39
0
210
0
220
0
230
1
50
360
0
POINT
5
7C
100
AcDbEntity
8
1
62
256
6
ByLayer
370
18
48
1
60
1
100
AcDbPoint
10
45.7454
20
-25.4
30
0
39
0
210
0
220
0
230
1
50
360
0
POINT
5
7D
100
AcDbEntity
8
1
62
256
6
ByLayer
370
18
48
1
60
1
100
AcDbPoint
10
253.1618
20
-25.4
30
0
39
0
210
0
220
0
230
1
50
360
0
POINT
5
7E
100
AcDbEntity
8
1
62
256
6
ByLayer
370
18
48
1
60
1
100
AcDbPoint
10
251.8852
20
-12.7
30
0
39
0
210
0
220
0
230
1
50
360
0
SPLINE
5
25E
100
AcDbEntity
8
1
62
256
6
ByLayer
370
18
48
1
60
0
100
AcDbSpline
70
4
71
3
72
16
73
12
40
0
40
0
40
0
40
0
40
0.12500000000005
40
0.12500000000005
40
0.2500000000001
40
0.2500000000001
40
0.500000000000067
40
0.500000000000067
40
0.750000000000033
40
0.750000000000033
40
1
40
1
40
1
40
1
41
1
10
243.744470567632
20
18.5043633184678
30
0
41
1
10
243.747161945435
20
18.5237902405904
30
0
41
1
10
243.755155250091
20
18.542425758516
30
0
41
1
10
243.78152457386
20
18.5732393154646
30
0
41
1
10
243.799793288716
20
18.5852733427923
30
0
41
1
10
243.859218652211
20
18.6098435929839
30
0
41
1
10
243.904210862011
20
18.6128592870374
30
0
41
1
10
243.992510243335
20
18.6069937064465
30
0
41
1
10
244.036214328412
20
18.5977852596919
30
0
41
1
10
244.120861690115
20
18.5717642133513
30
0
41
1
10
244.161987401149
20
18.554791153775
30
0
41
1
10
244.201228321854
20
18.5347050197076
30
0
0
SPLINE
5
25F
100
AcDbEntity
8
1
62
256
6
ByLayer
370
18
48
1
60
0
100
AcDbSpline
70
4
71
3
72
16
73
12
40
0
40
0
40
0
40
0
40
0.249999999999972
40
0.249999999999972
40
0.499999999999944
40
0.499999999999944
40
0.749999999999917
40
0.749999999999917
40
0.874999999999958
40
0.874999999999958
40
1
40
1
40
1
40
1
41
1
10
245.110682553313
20
17.1285701306702
30
0
41
1
10
245.108366412887
20
17.1727647227195
30
0
41
1
10
245.102396534785
20
17.2168266257938
30
0
41
1
10
245.082259004514
20
17.3031514105901
30
0
41
1
10
245.068192806204
20
17.3454323156302
30
0
41
1
10
245.02844412474
20
17.4243053735192
30
0
41
1
10
245.002994796913
20
17.4612800554721
30
0
41
1
10
244.95062593644
20
17.4990345584681
30
0
41
1
10
244.930914407438
20
17.5079307214173
30
0
41
1
10
244.890533729648
20
17.5136324972175
30
0
41
1
10
244.870108055582
20
17.5103407407344
30
0
41
1
10
244.851610651724
20
17.5020855898724
30
0
0
SPLINE
5
260
100
AcDbEntity
8
1
62
256
6
ByLayer
370
18
48
1
60
0
100
AcDbSpline
70
4
71
3
72
8
73
4
40
0
40
0
40
0
40
0
40
1
40
1
40
1
40
1
41
1
10
244.871186233796
20
16.7284864386133
30
0
41
1
10
244.878149168566
20
16.7289978296091
30
0
41
1
10
244.885111372122
20
16.7295091628484
30
0
41
1
10
244.892072871665
20
16.7300204404862
30
0
0
SPLINE
5
261
100
AcDbEntity
8
1
62
256
6
ByLayer
370
18
48
1
60
0
100
AcDbSpline
70
4
71
3
72
16
73
12
40
0
40
0
40
0
40
0
40
0.124999999999958
40
0.124999999999958
40
0.249999999999915
40
0.249999999999915
40
0.499999999999943
40
0.499999999999943
40
0.749999999999972
40
0.749999999999972
40
1
40
1
40
1
40
1
41
1
10
242.016714587425
20
16.5793292981661
30
0
41
1
10
242.000203599963
20
16.571151066654
30
0
41
1
10
241.981747411053
20
16.5679664615953
30
0
41
1
10
241.944884703224
20
16.5740191706641
30
0
41
1
10
241.926646040091
20
16.5832402414582
30
0
41
1
10
241.87881308442
20
16.6210662212249
30
0
41
1
10
241.854909645279
20
16.6580706189659
30
0
41
1
10
241.817543223957
20
16.7368966159486
30
0
41
1
10
241.804137108486
20
16.7792405243451
30
0
41
1
10
241.78489916793
20
16.8655129418209
30
0
41
1
10
241.779106575144
20
16.9096843049846
30
0
41
1
10
241.776792036548
20
16.9538483323138
30
0
0
SPLINE
5
262
100
AcDbEntity
8
1
62
256
6
ByLayer
370
18
48
1
60
0
100
AcDbSpline
70
4
71
3
72
8
73
4
40
0
40
0
40
0
40
0
40
1
40
1
40
1
40
1
41
1
10
244.529796584875
20
16.0553906728781
30
0
41
1
10
244.533632270212
20
16.0497362695734
30
0
41
1
10
244.537467639265
20
16.0440826266023
30
0
41
1
10
244.541302703666
20
16.0384297154237
30
0
0
SPLINE
5
263
100
AcDbEntity
8
1
62
256
6
ByLayer
370
18
48
1
60
0
100
AcDbSpline
70
4
71
3
72
8
73
4
40
0
40
0
40
0
40
0
40
1
40
1
40
1
40
1
41
1
10
244.430471123706
20
18.1532222419595
30
0
41
1
10
244.427247958307
20
18.1471994246314
30
0
41
1
10
244.424024566419
20
18.1411758476749
30
0
41
1
10
244.420800939456
20
18.1351514814893
30
0
0
SPLINE
5
264
100
AcDbEntity
8
1
62
256
6
ByLayer
370
18
48
1
60
0
100
AcDbSpline
70
4
71
3
72
16
73
12
40
0
40
0
40
0
40
0
40
0.124999999999995
40
0.124999999999995
40
0.249999999999991
40
0.249999999999991
40
0.499999999999994
40
0.499999999999994
40
0.749999999999997
40
0.749999999999997
40
1
40
1
40
1
40
1
41
1
10
244.892072871665
20
16.7300204404862
30
0
41
1
10
244.911403701477
20
16.7237205990229
30
0
41
1
10
244.932179911955
20
16.7225920768921
30
0
41
1
10
244.971965866619
20
16.7326617721471
30
0
41
1
10
244.99079739937
20
16.743825609585
30
0
41
1
10
245.038413911858
20
16.7866538840117
30
0
41
1
10
245.059885025489
20
16.8260362612994
30
0
41
1
10
245.091083837687
20
16.908455609907
30
0
41
1
10
245.100665890144
20
16.9520042771343
30
0
41
1
10
245.111659798379
20
17.039861078669
30
0
41
1
10
245.112997091909
20
17.084406103341
30
0
41
1
10
245.110682553313
20
17.1285701306702
30
0
0
SPLINE
5
265
100
AcDbEntity
8
1
62
256
6
ByLayer
370
18
48
1
60
0
100
AcDbSpline
70
4
71
3
72
8
73
4
40
0
40
0
40
0
40
0
40
1
40
1
40
1
40
1
41
1
10
243.132258718403
20
15.5946165950278
30
0
41
1
10
243.129456812173
20
15.5887608093365
30
0
41
1
10
243.126655470349
20
15.5829058106987
30
0
41
1
10
243.123854671517
20
15.5770515695706
30
0
0
SPLINE
5
266
100
AcDbEntity
8
1
62
256
6
ByLayer
370
18
48
1
60
0
100
AcDbSpline
70
4
71
3
72
8
73
4
40
0
40
0
40
0
40
0
40
1
40
1
40
1
40
1
41
1
10
243.734021721022
20
18.486691129598
30
0
41
1
10
243.737504936117
20
18.4925826211739
30
0
41
1
10
243.740987881695
20
18.4984733411508
30
0
41
1
10
243.744470567632
20
18.5043633184678
30
0
0
SPLINE
5
267
100
AcDbEntity
8
1
62
256
6
ByLayer
370
18
48
1
60
0
100
AcDbSpline
70
4
71
3
72
8
73
4
40
0
40
0
40
0
40
0
40
1
40
1
40
1
40
1
41
1
10
242.33648385455
20
18.0259170517477
30
0
41
1
10
242.333329478078
20
18.031607160937
30
0
41
1
10
242.330175712779
20
18.0372965252472
30
0
41
1
10
242.327022535483
20
18.0429851726147
30
0
0
SPLINE
5
268
100
AcDbEntity
8
1
62
256
6
ByLayer
370
18
48
1
60
0
100
AcDbSpline
70
4
71
3
72
20
73
16
40
0
40
0
40
0
40
0
40
0.124999999999997
40
0.124999999999997
40
0.249999999999995
40
0.249999999999995
40
0.374999999999992
40
0.374999999999992
40
0.499999999999989
40
0.499999999999989
40
0.749999999999995
40
0.749999999999995
40
0.874999999999997
40
0.874999999999997
40
1
40
1
40
1
40
1
41
1
10
244.529796584875
20
16.0553906728781
30
0
41
1
10
244.511339847223
20
16.0825988062936
30
0
41
1
10
244.502503764332
20
16.1152823092472
30
0
41
1
10
244.495082355908
20
16.1825476565905
30
0
41
1
10
244.496665245712
20
16.2170107639801
30
0
41
1
10
244.506672306323
20
16.2860379114751
30
0
41
1
10
244.515241604393
20
16.3206965475998
30
0
41
1
10
244.537536728929
20
16.38800787415
30
0
41
1
10
244.551338754432
20
16.4210327029052
30
0
41
1
10
244.60055825694
20
16.5183065156538
30
0
41
1
10
244.642623844107
20
16.5789567821822
30
0
41
1
10
244.718650686083
20
16.6545882692402
30
0
41
1
10
244.746216319433
20
16.6772256820182
30
0
41
1
10
244.805804410264
20
16.712824438962
30
0
41
1
10
244.8377747606
20
16.7260325413538
30
0
41
1
10
244.871186233796
20
16.7284864386133
30
0
0
SPLINE
5
269
100
AcDbEntity
8
1
62
256
6
ByLayer
370
18
48
1
60
0
100
AcDbSpline
70
4
71
3
72
8
73
4
40
0
40
0
40
0
40
0
40
1
40
1
40
1
40
1
41
1
10
242.972560871615
20
18.4639092454925
30
0
41
1
10
242.975958262207
20
18.4583798377077
30
0
41
1
10
242.979356271998
20
18.4528497333211
30
0
41
1
10
242.982754925372
20
18.4473189051889
30
0
0
SPLINE
5
26A
100
AcDbEntity
8
1
62
256
6
ByLayer
370
18
48
1
60
0
100
AcDbSpline
70
4
71
3
72
16
73
12
40
0
40
0
40
0
40
0
40
0.250000000000035
40
0.250000000000035
40
0.50000000000007
40
0.50000000000007
40
0.750000000000105
40
0.750000000000105
40
0.875000000000053
40
0.875000000000053
40
1
40
1
40
1
40
1
41
1
10
242.534283063471
20
18.4473441205294
30
0
41
1
10
242.571235001323
20
18.4714386774452
30
0
41
1
10
242.610078567879
20
18.492562055091
30
0
41
1
10
242.690753573387
20
18.5272842252454
30
0
41
1
10
242.732549651169
20
18.5409710721772
30
0
41
1
10
242.817666590762
20
18.5559295337749
30
0
41
1
10
242.861193808063
20
18.557597395499
30
0
41
1
10
242.919252543835
20
18.5388276512791
30
0
41
1
10
242.93673140804
20
18.5286872776094
30
0
41
1
10
242.962168721666
20
18.5006989927311
30
0
41
1
10
242.969918862218
20
18.4829849653201
30
0
41
1
10
242.972560871615
20
18.4639092454925
30
0
0
SPLINE
5
26B
100
AcDbEntity
8
1
62
256
6
ByLayer
370
18
48
1
60
0
100
AcDbSpline
70
4
71
3
72
8
73
4
40
0
40
0
40
0
40
0
40
1
40
1
40
1
40
1
41
1
10
241.976252367484
20
17.3513944475523
30
0
41
1
10
241.982531979922
20
17.3518699890011
30
0
41
1
10
241.988812579724
20
17.3523456009014
30
0
41
1
10
241.995094205629
20
17.3528212860125
30
0
0
SPLINE
5
26C
100
AcDbEntity
8
1
62
256
6
ByLayer
370
18
48
1
60
0
100
AcDbSpline
70
4
71
3
72
18
73
14
40
0
40
0
40
0
40
0
40
0.125000000000027
40
0.125000000000027
40
0.250000000000053
40
0.250000000000053
40
0.500000000000035
40
0.500000000000035
40
0.750000000000018
40
0.750000000000018
40
0.875000000000009
40
0.875000000000009
40
1
40
1
40
1
40
1
41
1
10
241.995094205629
20
17.3528212860125
30
0
41
1
10
242.025186815406
20
17.355100091953
30
0
41
1
10
242.054271722502
20
17.3681328164461
30
0
41
1
10
242.108937616773
20
17.4035061888573
30
0
41
1
10
242.134328552686
20
17.4259664410105
30
0
41
1
10
242.205130933246
20
17.5010585369328
30
0
41
1
10
242.245477285638
20
17.5614773905353
30
0
41
1
10
242.311148867431
20
17.6909848637243
30
0
41
1
10
242.33640403993
20
17.7598044756518
30
0
41
1
10
242.35643294567
20
17.8639425621697
30
0
41
1
10
242.360053326502
20
17.8987863497317
30
0
41
1
10
242.357528255808
20
17.9660833726054
30
0
41
1
10
242.351602531023
20
17.9986448092933
30
0
41
1
10
242.33648385455
20
18.0259170517477
30
0
0
SPLINE
5
26D
100
AcDbEntity
8
1
62
256
6
ByLayer
370
18
48
1
60
0
100
AcDbSpline
70
4
71
3
72
18
73
14
40
0
40
0
40
0
40
0
40
0.124999999999955
40
0.124999999999955
40
0.249999999999909
40
0.249999999999909
40
0.499999999999913
40
0.499999999999913
40
0.749999999999916
40
0.749999999999916
40
0.874999999999958
40
0.874999999999958
40
1
40
1
40
1
40
1
41
1
10
243.883525514053
20
15.6339888194369
30
0
41
1
10
243.863980142611
20
15.660313623236
30
0
41
1
10
243.835954617537
20
15.6802411979194
30
0
41
1
10
243.774239777223
20
15.7120865632986
30
0
41
1
10
243.740561234383
20
15.7237696764851
30
0
41
1
10
243.636509034171
20
15.7498113482793
30
0
41
1
10
243.562900325295
20
15.7553902155121
30
0
41
1
10
243.418360950158
20
15.7478019165686
30
0
41
1
10
243.347689233689
20
15.7347123570515
30
0
41
1
10
243.251741163334
20
15.6981188447227
30
0
41
1
10
243.221492463783
20
15.6830349877387
30
0
41
1
10
243.168571949533
20
15.645246235761
30
0
41
1
10
243.145688032938
20
15.6226829118277
30
0
41
1
10
243.132258718403
20
15.5946165950278
30
0
0
SPLINE
5
26E
100
AcDbEntity
8
1
62
256
6
ByLayer
370
18
48
1
60
0
100
AcDbSpline
70
4
71
3
72
16
73
12
40
0
40
0
40
0
40
0
40
0.124999999999995
40
0.124999999999995
40
0.24999999999999
40
0.24999999999999
40
0.499999999999993
40
0.499999999999993
40
0.749999999999997
40
0.749999999999997
40
1
40
1
40
1
40
1
41
1
10
244.541302703666
20
16.0384297154237
30
0
41
1
10
244.558205463267
20
16.0273426058549
30
0
41
1
10
244.571800714465
20
16.0120558533834
30
0
41
1
10
244.587930895999
20
15.975484999404
30
0
41
1
10
244.5903858152
20
15.9543601330899
30
0
41
1
10
244.584792630811
20
15.8922783091092
30
0
41
1
10
244.566053809444
20
15.8523813729385
30
0
41
1
10
244.518535821998
20
15.7795999276747
30
0
41
1
10
244.489251133537
20
15.7465175698474
30
0
41
1
10
244.425160629917
20
15.6863353202507
30
0
41
1
10
244.390117908498
20
15.6591522357163
30
0
41
1
10
244.35319152639
20
15.6350743424545
30
0
0
SPLINE
5
26F
100
AcDbEntity
8
1
62
256
6
ByLayer
370
18
48
1
60
0
100
AcDbSpline
70
4
71
3
72
16
73
12
40
0
40
0
40
0
40
0
40
0.250000000000004
40
0.250000000000004
40
0.500000000000009
40
0.500000000000009
40
0.750000000000013
40
0.750000000000013
40
0.875000000000007
40
0.875000000000007
40
1
40
1
40
1
40
1
41
1
10
244.201228321854
20
18.5347050197076
30
0
41
1
10
244.240496400131
20
18.5146049845741
30
0
41
1
10
244.278105003901
20
18.4912888694346
30
0
41
1
10
244.348216252344
20
18.4380772685023
30
0
41
1
10
244.380780004685
20
18.4082621865036
30
0
41
1
10
244.435752062777
20
18.3406846237911
30
0
41
1
10
244.458615719027
20
18.30296112946
30
0
41
1
10
244.470562211463
20
18.241275706292
30
0
41
1
10
244.470190102809
20
18.2202706023663
30
0
41
1
10
244.457933539785
20
18.1824888276711
30
0
41
1
10
244.446064189368
20
18.1659678785726
30
0
41
1
10
244.430471123706
20
18.1532222419595
30
0
0
SPLINE
5
270
100
AcDbEntity
8
1
62
256
6
ByLayer
370
18
48
1
60
0
100
AcDbSpline
70
4
71
3
72
16
73
12
40
0
40
0
40
0
40
0
40
0.12500000000005
40
0.12500000000005
40
0.250000000000101
40
0.250000000000101
40
0.500000000000067
40
0.500000000000067
40
0.750000000000034
40
0.750000000000034
40
1
40
1
40
1
40
1
41
1
10
243.123854671517
20
15.5770515695706
30
0
41
1
10
243.123218727008
20
15.5577323681424
30
0
41
1
10
243.117313666982
20
15.5392062904805
30
0
41
1
10
243.094702208196
20
15.5085896748905
30
0
41
1
10
243.078090140621
20
15.4966424687679
30
0
41
1
10
243.022664259417
20
15.4722818225615
30
0
41
1
10
242.979238682478
20
15.4693482322572
30
0
41
1
10
242.893215949525
20
15.4753331269334
30
0
41
1
10
242.850187385211
20
15.484576976231
30
0
41
1
10
242.76641930186
20
15.5106441035973
30
0
41
1
10
242.725487188712
20
15.527627309209
30
0
41
1
10
242.686246268007
20
15.5477134432763
30
0
0
SPLINE
5
271
100
AcDbEntity
8
1
62
256
6
ByLayer
370
18
48
1
60
0
100
AcDbSpline
70
4
71
3
72
18
73
14
40
0
40
0
40
0
40
0
40
0.124999999999989
40
0.124999999999989
40
0.249999999999978
40
0.249999999999978
40
0.499999999999983
40
0.499999999999983
40
0.749999999999988
40
0.749999999999988
40
0.874999999999994
40
0.874999999999994
40
1
40
1
40
1
40
1
41
1
10
242.445479499969
20
15.9461562431365
30
0
41
1
10
242.457658669442
20
15.9748453787629
30
0
41
1
10
242.460162886116
20
16.007881398515
30
0
41
1
10
242.455609249384
20
16.0752309099251
30
0
41
1
10
242.448359945025
20
16.1094286903966
30
0
41
1
10
242.41761299604
20
16.2106936280064
30
0
41
1
10
242.38520345536
20
16.2767360430243
30
0
41
1
10
242.306334512531
20
16.3986551570278
30
0
41
1
10
242.260069232864
20
16.4543407290851
30
0
41
1
10
242.18164167711
20
16.521753844065
30
0
41
1
10
242.153971550623
20
16.5414591758115
30
0
41
1
10
242.096035574726
20
16.570836930848
30
0
41
1
10
242.065783073949
20
16.5807594265459
30
0
41
1
10
242.035602353241
20
16.5798797844626
30
0
0
SPLINE
5
272
100
AcDbEntity
8
1
62
256
6
ByLayer
370
18
48
1
60
0
100
AcDbSpline
70
4
71
3
72
8
73
4
40
0
40
0
40
0
40
0
40
1
40
1
40
1
40
1
41
1
10
242.437854115443
20
15.928192646079
30
0
41
1
10
242.440395393736
20
15.9341797272181
30
0
41
1
10
242.442937181871
20
15.9401675828355
30
0
41
1
10
242.445479499969
20
15.9461562431365
30
0
0
SPLINE
5
273
100
AcDbEntity
8
1
62
256
6
ByLayer
370
18
48
1
60
0
100
AcDbSpline
70
4
71
3
72
16
73
12
40
0
40
0
40
0
40
0
40
0.250000000000029
40
0.250000000000029
40
0.500000000000058
40
0.500000000000058
40
0.750000000000086
40
0.750000000000086
40
0.875000000000043
40
0.875000000000043
40
1
40
1
40
1
40
1
41
1
10
241.776792036548
20
16.9538483323138
30
0
41
1
10
241.774475896122
20
16.9980429243631
30
0
41
1
10
241.775614370227
20
17.0424773603909
30
0
41
1
10
241.78573806668
20
17.1303880688782
30
0
41
1
10
241.794633133387
20
17.1738723228273
30
0
41
1
10
241.823636441895
20
17.2563485198321
30
0
41
1
10
241.843518556935
20
17.2956989220373
30
0
41
1
10
241.887607485412
20
17.3385085635468
30
0
41
1
10
241.904635786187
20
17.3493301793858
30
0
41
1
10
241.940460069136
20
17.3590256879486
30
0
41
1
10
241.959041188744
20
17.357778190899
30
0
41
1
10
241.976252367484
20
17.3513944475523
30
0
0
SPLINE
5
274
100
AcDbEntity
8
1
62
256
6
ByLayer
370
18
48
1
60
0
100
AcDbSpline
70
4
71
3
72
8
73
4
40
0
40
0
40
0
40
0
40
1
40
1
40
1
40
1
41
1
10
243.895764367534
20
15.6175056425459
30
0
41
1
10
243.891685089836
20
15.6229993141418
30
0
41
1
10
243.887605476292
20
15.6284936971894
30
0
41
1
10
243.883525514053
20
15.6339888194369
30
0
0
SPLINE
5
275
100
AcDbEntity
8
1
62
256
6
ByLayer
370
18
48
1
60
0
100
AcDbSpline
70
4
71
3
72
16
73
12
40
0
40
0
40
0
40
0
40
0.250000000000004
40
0.250000000000004
40
0.500000000000003
40
0.500000000000003
40
0.750000000000001
40
0.750000000000001
40
0.875000000000001
40
0.875000000000001
40
1
40
1
40
1
40
1
41
1
10
242.686246268007
20
15.5477134432763
30
0
41
1
10
242.64697818973
20
15.5678134784099
30
0
41
1
10
242.609176608596
20
15.5911194800343
30
0
41
1
10
242.538185238929
20
15.6442849557677
30
0
41
1
10
242.504946969121
20
15.6740646878039
30
0
41
1
10
242.447691765043
20
15.7415225959055
30
0
41
1
10
242.423265216772
20
15.7791641825364
30
0
41
1
10
242.407272094616
20
15.8406375308273
30
0
41
1
10
242.405998859104
20
15.8615564059191
30
0
41
1
10
242.414516234726
20
15.8991422181063
30
0
41
1
10
242.42430884242
20
15.9155543297304
30
0
41
1
10
242.437854115443
20
15.928192646079
30
0
0
SPLINE
5
276
100
AcDbEntity
8
1
62
256
6
ByLayer
370
18
48
1
60
0
100
AcDbSpline
70
4
71
3
72
8
73
4
40
0
40
0
40
0
40
0
40
1
40
1
40
1
40
1
41
1
10
244.851610651724
20
17.5020855898724
30
0
41
1
10
244.844633844938
20
17.5018663918284
30
0
41
1
10
244.837656332184
20
17.5016471754921
30
0
41
1
10
244.830678086184
20
17.5014279401633
30
0
0
SPLINE
5
277
100
AcDbEntity
8
1
62
256
6
ByLayer
370
18
48
1
60
0
100
AcDbSpline
70
4
71
3
72
8
73
4
40
0
40
0
40
0
40
0
40
1
40
1
40
1
40
1
41
1
10
242.035602353241
20
16.5798797844626
30
0
41
1
10
242.029305416106
20
16.5796962550183
30
0
41
1
10
242.023009507106
20
16.5795127600211
30
0
41
1
10
242.016714587425
20
16.5793292981661
30
0
0
SPLINE
5
278
100
AcDbEntity
8
1
62
256
6
ByLayer
370
18
48
1
60
0
100
AcDbSpline
70
4
71
3
72
18
73
14
40
0
40
0
40
0
40
0
40
0.125
40
0.125
40
0.25
40
0.25
40
0.5
40
0.5
40
0.75
40
0.75
40
0.875
40
0.875
40
1
40
1
40
1
40
1
41
1
10
242.982754925372
20
18.447318905189
30
0
41
1
10
242.99903643454
20
18.4208230496162
30
0
41
1
10
243.02417229031
20
18.4007440337817
30
0
41
1
10
243.080896512
20
18.3686371211631
30
0
41
1
10
243.112498449704
20
18.356845177713
30
0
41
1
10
243.211544908582
20
18.3305411661319
30
0
41
1
10
243.28344798585
20
18.3248729105343
30
0
41
1
10
243.427989659956
20
18.3324613299615
30
0
41
1
10
243.500358847821
20
18.3456398501849
30
0
41
1
10
243.601323700454
20
18.3824962809321
30
0
41
1
10
243.63365601554
20
18.3976893355791
30
0
41
1
10
243.691557311698
20
18.4357391192757
30
0
41
1
10
243.717326947086
20
18.4584536773226
30
0
41
1
10
243.734021721022
20
18.486691129598
30
0
0
SPLINE
5
279
100
AcDbEntity
8
1
62
256
6
ByLayer
370
18
48
1
60
0
100
AcDbSpline
70
4
71
3
72
16
73
12
40
0
40
0
40
0
40
0
40
0.250000000000036
40
0.250000000000036
40
0.500000000000072
40
0.500000000000072
40
0.750000000000108
40
0.750000000000108
40
0.875000000000054
40
0.875000000000054
40
1
40
1
40
1
40
1
41
1
10
244.35319152639
20
15.6350743424545
30
0
41
1
10
244.316239588538
20
15.6109797855388
30
0
41
1
10
244.277203044618
20
15.5898462943778
30
0
41
1
10
244.195647917886
20
15.5550779990246
30
0
41
1
10
244.153177322637
20
15.5413558021303
30
0
41
1
10
244.065777237058
20
15.5262776859217
30
0
41
1
10
244.020687127736
20
15.5245279164974
30
0
41
1
10
243.958581762244
20
15.5430855858401
30
0
41
1
10
243.939457553873
20
15.553139730676
30
0
41
1
10
243.910281052846
20
15.5809320530463
30
0
41
1
10
243.900454169569
20
15.598537242983
30
0
41
1
10
243.895764367534
20
15.6175056425459
30
0
0
SPLINE
5
27A
100
AcDbEntity
8
1
62
256
6
ByLayer
370
18
48
1
60
0
100
AcDbSpline
70
4
71
3
72
18
73
14
40
0
40
0
40
0
40
0
40
0.124999999999967
40
0.124999999999967
40
0.249999999999934
40
0.249999999999934
40
0.499999999999948
40
0.499999999999948
40
0.749999999999963
40
0.749999999999963
40
0.874999999999981
40
0.874999999999981
40
1
40
1
40
1
40
1
41
1
10
244.830678086184
20
17.5014279401632
30
0
41
1
10
244.797214151083
20
17.5003766047964
30
0
41
1
10
244.764003594124
20
17.5101661745007
30
0
41
1
10
244.700890266042
20
17.5394218958921
30
0
41
1
10
244.671190834018
20
17.5590274463272
30
0
41
1
10
244.587858967271
20
17.6261498031783
30
0
41
1
10
244.539683760266
20
17.6820166042749
30
0
41
1
10
244.460834981341
20
17.8041121576857
30
0
41
1
10
244.430388518887
20
17.8699064243104
30
0
41
1
10
244.40475343079
20
17.9709540508783
30
0
41
1
10
244.399557487755
20
18.0054441651863
30
0
41
1
10
244.399930198256
20
18.0725904863866
30
0
41
1
10
244.405260427306
20
18.1061091211353
30
0
41
1
10
244.420800939456
20
18.1351514814893
30
0
0
SPLINE
5
27B
100
AcDbEntity
8
1
62
256
6
ByLayer
370
18
48
1
60
0
100
AcDbSpline
70
4
71
3
72
16
73
12
40
0
40
0
40
0
40
0
40
0.124999999999985
40
0.124999999999985
40
0.249999999999969
40
0.249999999999969
40
0.499999999999979
40
0.499999999999979
40
0.74999999999999
40
0.74999999999999
40
1
40
1
40
1
40
1
41
1
10
242.327022535483
20
18.0429851726147
30
0
41
1
10
242.312175209176
20
18.054180002878
30
0
41
1
10
242.300668202608
20
18.069576195613
30
0
41
1
10
242.288295886057
20
18.1063439909511
30
0
41
1
10
242.287497614138
20
18.1275556784703
30
0
41
1
10
242.297090280817
20
18.1898471064361
30
0
41
1
10
242.317395735046
20
18.229826146356
30
0
41
1
10
242.367190370862
20
18.3027269057052
30
0
41
1
10
242.397150580086
20
18.3358446660755
30
0
41
1
10
242.462120362058
20
18.396072996698
30
0
41
1
10
242.497356681363
20
18.4232662272676
30
0
41
1
10
242.534283063471
20
18.4473441205294
30
0
0
SPLINE
5
27C
100
AcDbEntity
8
1
62
256
6
ByLayer
370
18
48
1
60
0
100
AcDbSpline
70
4
71
3
72
12
73
8
40
0
40
0
40
0
40
0
40
0.441018870697372
40
0.441018870697372
40
0.720346493757522
40
0.720346493757522
40
1
40
1
40
1
40
1
41
1
10
251.610510350989
20
-14.9432459295104
30
0
41
1
10
251.596701626727
20
-14.9471866259248
30
0
41
1
10
251.582781169913
20
-14.9507583866907
30
0
41
1
10
251.559908972651
20
-14.9559776970267
30
0
41
1
10
251.551002678652
20
-14.9578515329039
30
0
41
1
10
251.533123227472
20
-14.9612973676134
30
0
41
1
10
251.524147397613
20
-14.9628695142589
30
0
41
1
10
251.515148528106
20
-14.9642885426021
30
0
0
SPLINE
5
27D
100
AcDbEntity
8
1
62
256
6
ByLayer
370
18
48
1
60
0
100
AcDbSpline
70
4
71
1
72
4
73
2
40
0
40
0
40
1
40
1
41
1
10
251.597847913249
20
0.132135405220993
30
0
41
1
10
252.018097980831
20
-0.119660985653923
30
0
0
SPLINE
5
27E
100
AcDbEntity
8
1
62
256
6
ByLayer
370
18
48
1
60
0
100
AcDbSpline
70
4
71
1
72
4
73
2
40
0
40
0
40
1
40
1
41
1
10
253.135866489616
20
-7.10422330637661
30
0
41
1
10
253.097051136555
20
-6.86034345069118
30
0
0
SPLINE
5
27F
100
AcDbEntity
8
1
62
256
6
ByLayer
370
18
48
1
60
0
100
AcDbSpline
70
4
71
2
72
12
73
9
40
0
40
0
40
0
40
0.25
40
0.5
40
0.5
40
0.75
40
0.75
40
0.875
40
1
40
1
40
1
41
1
10
251.581825499429
20
0.187740733502608
30
0
41
1
10
251.567922901693
20
0.235989300780261
30
0
41
1
10
251.513510924064
20
0.321302773073057
30
0
41
1
10
251.474075984145
20
0.355401825971825
30
0
41
1
10
251.43636180105
20
0.38801295526568
30
0
41
1
10
251.388750799267
20
0.409474870851227
30
0
41
1
10
251.36663943006
20
0.419442154076421
30
0
41
1
10
251.317023084213
20
0.433655744157903
30
0
41
1
10
251.291068073128
20
0.437056185002291
30
0
0
SPLINE
5
280
100
AcDbEntity
8
1
62
256
6
ByLayer
370
18
48
1
60
0
100
AcDbSpline
70
4
71
1
72
4
73
2
40
0
40
0
40
1
40
1
41
1
10
252.039332521819
20
-0.214615851379051
30
0
41
1
10
251.618989228964
20
0.037236396191247
30
0
0
SPLINE
5
281
100
AcDbEntity
8
1
62
256
6
ByLayer
370
18
48
1
60
0
100
AcDbSpline
70
4
71
3
72
12
73
8
40
0
40
0
40
0
40
0
40
0.5
40
0.5
40
0.75
40
0.75
40
1
40
1
40
1
40
1
41
1
10
251.626505210939
20
0.479955107412536
30
0
41
1
10
251.693620335418
20
0.471103819466066
30
0
41
1
10
251.757855297975
20
0.44221805272781
30
0
41
1
10
251.834863730658
20
0.376375940986293
30
0
41
1
10
251.857309450634
20
0.350637317470756
30
0
41
1
10
251.893701573894
20
0.293894497230582
30
0
41
1
10
251.907114905141
20
0.262793837014755
30
0
41
1
10
251.917265232708
20
0.230633138884002
30
0
0
SPLINE
5
282
100
AcDbEntity
8
1
62
256
6
ByLayer
370
18
48
1
60
0
100
AcDbSpline
70
4
71
3
72
10
73
6
40
0
40
0
40
0
40
0
40
0.536426920123405
40
0.536426920123405
40
1
40
1
40
1
40
1
41
1
10
251.91718699613
20
0.230545645655013
30
0
41
1
10
251.935230434665
20
0.167925750022135
30
0
41
1
10
251.953275272666
20
0.105305086458003
30
0
41
1
10
251.986912087342
20
-0.0114303584561526
30
0
41
1
10
252.002504172114
20
-0.0655451992603275
30
0
41
1
10
252.018097980831
20
-0.119660985654122
30
0
0
SPLINE
5
283
100
AcDbEntity
8
1
62
256
6
ByLayer
370
18
48
1
60
0
100
AcDbSpline
70
4
71
1
72
4
73
2
40
0
40
0
40
1
40
1
41
1
10
251.515168705901
20
-14.9644537294656
30
0
41
1
10
251.421980841397
20
-14.2015652389793
30
0
0
SPLINE
5
284
100
AcDbEntity
8
1
62
256
6
ByLayer
370
18
48
1
60
0
100
AcDbSpline
70
4
71
1
72
4
73
2
40
0
40
0
40
1
40
1
41
1
10
253.047952637146
20
-8.24269445294121
30
0
41
1
10
253.108271987887
20
-7.78674945183454
30
0
0
SPLINE
5
285
100
AcDbEntity
8
1
62
256
6
ByLayer
370
18
48
1
60
0
100
AcDbSpline
70
4
71
1
72
4
73
2
40
0
40
0
40
1
40
1
41
1
10
251.517343154019
20
-14.1805266351876
30
0
41
1
10
251.610510350982
20
-14.9432459295125
30
0
0
SPLINE
5
286
100
AcDbEntity
8
1
62
256
6
ByLayer
370
18
48
1
60
0
100
AcDbSpline
70
4
71
2
72
6
73
3
40
0
40
0
40
0
40
1
40
1
40
1
41
1
10
251.618989228964
20
0.0372363961913038
30
0
41
1
10
251.611334875562
20
0.0853292887742612
30
0
41
1
10
251.597847913249
20
0.132135405220936
30
0
0
SPLINE
5
287
100
AcDbEntity
8
1
62
256
6
ByLayer
370
18
48
1
60
0
100
AcDbSpline
70
4
71
1
72
4
73
2
40
0
40
0
40
1
40
1
41
1
10
253.097051136555
20
-6.86034345069118
30
0
41
1
10
253.025760106267
20
-6.41241641133757
30
0
0
SPLINE
5
288
100
AcDbEntity
8
1
62
256
6
ByLayer
370
18
48
1
60
0
100
AcDbSpline
70
4
71
1
72
4
73
2
40
0
40
0
40
1
40
1
41
1
10
253.108271987887
20
-7.78674945183454
30
0
41
1
10
253.14112900492
20
-7.53838814682084
30
0
0
SPLINE
5
289
100
AcDbEntity
8
1
62
256
6
ByLayer
370
18
48
1
60
0
100
AcDbSpline
70
4
71
1
72
4
73
2
40
0
40
0
40
1
40
1
41
1
10
251.823752578269
20
-13.8752372392582
30
0
41
1
10
252.213045754528
20
-14.553631405092
30
0
0
SPLINE
5
28A
100
AcDbEntity
8
1
62
256
6
ByLayer
370
18
48
1
60
0
100
AcDbSpline
70
4
71
1
72
4
73
2
40
0
40
0
40
1
40
1
41
1
10
251.96251312759
20
-14.8429762297391
30
0
41
1
10
251.573219951317
20
-14.1645820639029
30
0
0
SPLINE
5
28B
100
AcDbEntity
8
1
62
256
6
ByLayer
370
18
48
1
60
0
100
AcDbSpline
70
4
71
1
72
4
73
2
40
0
40
0
40
1
40
1
41
1
10
253.151960650638
20
-7.20534416082762
30
0
41
1
10
253.135866489616
20
-7.10422330637661
30
0
0
SPLINE
5
28C
100
AcDbEntity
8
1
62
256
6
ByLayer
370
18
48
1
60
0
100
AcDbSpline
70
4
71
2
72
6
73
3
40
0
40
0
40
0
40
1
40
1
40
1
41
1
10
251.421980841397
20
-14.2015652389793
30
0
41
1
10
251.470308526823
20
-14.1939480730992
30
0
41
1
10
251.517343154019
20
-14.1805266351876
30
0
0
SPLINE
5
28D
100
AcDbEntity
8
1
62
256
6
ByLayer
370
18
48
1
60
0
100
AcDbSpline
70
4
71
3
72
12
73
8
40
0
40
0
40
0
40
0
40
0.499999999999862
40
0.499999999999862
40
0.749999999999931
40
0.749999999999931
40
1
40
1
40
1
40
1
41
1
10
252.21305085516
20
-14.553552712463
30
0
41
1
10
252.204156361308
20
-14.6203417747702
30
0
41
1
10
252.175131276538
20
-14.6842663573466
30
0
41
1
10
252.108966936325
20
-14.7608998771494
30
0
41
1
10
252.083102936059
20
-14.7832368275807
30
0
41
1
10
252.026083768533
20
-14.8194528169782
30
0
41
1
10
251.99483153472
20
-14.832801242281
30
0
41
1
10
251.962514090601
20
-14.8429025194944
30
0
0
SPLINE
5
28E
100
AcDbEntity
8
1
62
256
6
ByLayer
370
18
48
1
60
0
100
AcDbSpline
70
4
71
1
72
4
73
2
40
0
40
0
40
1
40
1
41
1
10
252.213045754528
20
-14.5536314050919
30
0
41
1
10
253.047952637146
20
-8.24269445294121
30
0
0
SPLINE
5
28F
100
AcDbEntity
8
1
62
256
6
ByLayer
370
18
48
1
60
0
100
AcDbSpline
70
4
71
1
72
4
73
2
40
0
40
0
40
1
40
1
41
1
10
253.14112900492
20
-7.53838814682084
30
0
41
1
10
253.154965867283
20
-7.43379736214115
30
0
0
SPLINE
5
290
100
AcDbEntity
8
1
62
256
6
ByLayer
370
18
48
1
60
0
100
AcDbSpline
70
4
71
1
72
4
73
2
40
0
40
0
40
1
40
1
41
1
10
251.291068073127
20
0.437056185002348
30
0
41
1
10
251.626504534156
20
0.479870665447748
30
0
0
SPLINE
5
291
100
AcDbEntity
8
1
62
256
6
ByLayer
370
18
48
1
60
0
100
AcDbSpline
70
4
71
1
72
4
73
2
40
0
40
0
40
1
40
1
41
1
10
251.917261960465
20
0.230555213961708
30
0
41
1
10
251.581825499429
20
0.187740733502551
30
0
0
SPLINE
5
292
100
AcDbEntity
8
1
62
256
6
ByLayer
370
18
48
1
60
0
100
AcDbSpline
70
4
71
2
72
12
73
9
40
0
40
0
40
0
40
0.25
40
0.5
40
0.5
40
0.75
40
0.75
40
0.875
40
1
40
1
40
1
41
1
10
251.573219951317
20
-14.1645820639028
30
0
41
1
10
251.621704071466
20
-14.1507470098677
30
0
41
1
10
251.70743405009
20
-14.0965993847301
30
0
41
1
10
251.74169957695
20
-14.0573560335902
30
0
41
1
10
251.774469916055
20
-14.0198250792375
30
0
41
1
10
251.796036610213
20
-13.972445388418
30
0
41
1
10
251.806052554409
20
-13.9504414440099
30
0
41
1
10
251.820335536233
20
-13.9010661517924
30
0
41
1
10
251.823752578269
20
-13.8752372392586
30
0
0
SPLINE
5
293
100
AcDbEntity
8
1
62
256
6
ByLayer
370
18
48
1
60
0
100
AcDbSpline
70
4
71
1
72
4
73
2
40
0
40
0
40
1
40
1
41
1
10
252.717758110732
20
-6.86641319558038
30
0
41
1
10
253.151960650638
20
-7.20534416082774
30
0
0
SPLINE
5
294
100
AcDbEntity
8
1
62
256
6
ByLayer
370
18
48
1
60
0
100
AcDbSpline
70
4
71
3
72
8
73
4
40
0
40
0
40
0
40
0
40
1
40
1
40
1
40
1
41
1
10
253.152922535731
20
-7.2109927343293
30
0
41
1
10
253.157795704892
20
-7.2470177755508
30
0
41
1
10
253.161265411161
20
-7.28314424766157
30
0
41
1
10
253.161743169459
20
-7.31946289819044
30
0
0
SPLINE
5
295
100
AcDbEntity
8
1
62
256
6
ByLayer
370
18
48
1
60
0
100
AcDbSpline
70
4
71
3
72
12
73
8
40
0
40
0
40
0
40
0
40
0.44101887071289
40
0.44101887071289
40
0.720346493766465
40
0.720346493766465
40
1
40
1
40
1
40
1
41
1
10
252.018097981018
20
-0.119660986305263
30
0
41
1
10
252.022057764632
20
-0.133402773749793
30
0
41
1
10
252.025646796134
20
-0.147255766128865
30
0
41
1
10
252.030891215534
20
-0.170017212378667
30
0
41
1
10
252.032774030584
20
-0.178880404673208
30
0
41
1
10
252.036236273071
20
-0.196673404201988
30
0
41
1
10
252.037815848845
20
-0.205605871321694
30
0
41
1
10
252.039241505753
20
-0.2145613189372
30
0
0
SPLINE
5
296
100
AcDbEntity
8
1
62
256
6
ByLayer
370
18
48
1
60
0
100
AcDbSpline
70
4
71
3
72
10
73
6
40
0
40
0
40
0
40
0
40
0.538204176815395
40
0.538204176815395
40
1
40
1
40
1
40
1
41
1
10
251.964577493716
20
-14.8422107412705
30
0
41
1
10
251.90105722159
20
-14.8603357410637
30
0
41
1
10
251.837537414311
20
-14.878463706083
30
0
41
1
10
251.71951498386
20
-14.9121417865233
30
0
41
1
10
251.665012419204
20
-14.9276922765631
30
0
41
1
10
251.610510350982
20
-14.9432459295125
30
0
0
SPLINE
5
297
100
AcDbEntity
8
1
62
256
6
ByLayer
370
18
48
1
60
0
100
AcDbSpline
70
4
71
2
72
7
73
4
40
0
40
0
40
0
40
0.5
40
1
40
1
40
1
41
1
10
252.720763327373
20
-7.09486639689294
30
0
41
1
10
252.72825546708
20
-7.03823442717771
30
0
41
1
10
252.726829418027
20
-6.92340891861181
30
0
41
1
10
252.717758110732
20
-6.86641319558029
30
0
0
SPLINE
5
298
100
AcDbEntity
8
1
62
256
6
ByLayer
370
18
48
1
60
0
100
AcDbSpline
70
4
71
3
72
8
73
4
40
0
40
0
40
0
40
0
40
1
40
1
40
1
40
1
41
1
10
253.161743169459
20
-7.31946289819044
30
0
41
1
10
253.162215193704
20
-7.35534565247411
30
0
41
1
10
253.159784280209
20
-7.39111689250049
30
0
41
1
10
253.155956289472
20
-7.42682412394845
30
0
0
SPLINE
5
299
100
AcDbEntity
8
1
62
256
6
ByLayer
370
18
48
1
60
0
100
AcDbSpline
70
4
71
1
72
4
73
2
40
0
40
0
40
1
40
1
41
1
10
253.025760106267
20
-6.41241641133757
30
0
41
1
10
252.039332521819
20
-0.214615851379108
30
0
0
SPLINE
5
29A
100
AcDbEntity
8
1
62
256
6
ByLayer
370
18
48
1
60
0
100
AcDbSpline
70
4
71
1
72
4
73
2
40
0
40
0
40
1
40
1
41
1
10
253.154965867283
20
-7.43379736214104
30
0
41
1
10
252.720763327373
20
-7.09486639689285
30
0
0
SPLINE
5
29B
100
AcDbEntity
8
1
62
256
6
ByLayer
370
13
48
1
60
0
100
AcDbSpline
70
4
71
3
72
20
73
16
40
0
40
0
40
0
40
0
40
0.0625000000000008
40
0.0625000000000008
40
0.125000000000001
40
0.125000000000001
40
0.156250000000002
40
0.156250000000002
40
0.187500000000002
40
0.187500000000002
40
0.250000000000003
40
0.250000000000003
40
0.500000000000006
40
0.500000000000006
40
1
40
1
40
1
40
1
41
1
10
249.726534605263
20
23.9021375178895
30
0
41
1
10
249.610306570563
20
23.8211139660585
30
0
41
1
10
249.48786487107
20
23.7529875598023
30
0
41
1
10
249.230964927891
20
23.6416764081189
30
0
41
1
10
249.094857379848
20
23.5983344507266
30
0
41
1
10
248.890322236347
20
23.5549985141968
30
0
41
1
10
248.821879443699
20
23.5440330277723
30
0
41
1
10
248.684476653961
20
23.5289087992504
30
0
41
1
10
248.615439969231
20
23.5257593159777
30
0
41
1
10
248.408436586544
20
23.514907000327
30
0
41
1
10
248.27043210436
20
23.5077014327667
30
0
41
1
10
247.580419370441
20
23.4715462393893
30
0
41
1
10
247.028413176067
20
23.4425692594884
30
0
41
1
10
245.37238386711
20
23.3557811906966
30
0
41
1
10
244.268363333235
20
23.2979414578156
30
0
41
1
10
243.164343820049
20
23.2400822468444
30
0
0
SPLINE
5
29C
100
AcDbEntity
8
1
62
256
6
ByLayer
370
13
48
1
60
0
100
AcDbSpline
70
4
71
3
72
8
73
4
40
0
40
0
40
0
40
0
40
1
40
1
40
1
40
1
41
1
10
250.495618721817
20
25.3829689418397
30
0
41
1
10
250.547017998335
20
25.3937358795091
30
0
41
1
10
250.598458819135
20
25.4045129500536
30
0
41
1
10
250.649813299256
20
25.4152689618277
30
0
0
SPLINE
5
29D
100
AcDbEntity
8
1
62
256
6
ByLayer
370
13
48
1
60
0
100
AcDbSpline
70
4
71
3
72
12
73
8
40
0
40
0
40
0
40
0
40
0.25
40
0.25
40
0.5
40
0.5
40
1
40
1
40
1
40
1
41
1
10
234.974016260919
20
24.3500951206017
30
0
41
1
10
234.997550278049
20
24.3507733739765
30
0
41
1
10
235.020171628458
20
24.3505791370935
30
0
41
1
10
235.065743630179
20
24.3505054496486
30
0
41
1
10
235.088580881132
20
24.3505150511071
30
0
41
1
10
235.15703971584
20
24.3504958986295
30
0
41
1
10
235.202642564287
20
24.3504501703693
30
0
41
1
10
235.248264128798
20
24.3504213966257
30
0
0
SPLINE
5
29E
100
AcDbEntity
8
1
62
256
6
ByLayer
370
13
48
1
60
0
100
AcDbSpline
70
4
71
2
72
6
73
3
40
0
40
0
40
0
40
1
40
1
40
1
41
1
10
233.829549863994
20
16.4686647390747
30
0
41
0.997409491337352
10
233.828784981349
20
16.5263548727629
30
0
41
1
10
233.836270876453
20
16.5835545099124
30
0
0
SPLINE
5
29F
100
AcDbEntity
8
1
62
256
6
ByLayer
370
13
48
1
60
0
100
AcDbSpline
70
4
71
3
72
18
73
14
40
0
40
0
40
0
40
0
40
0.499999999999986
40
0.499999999999986
40
0.749999999999986
40
0.749999999999986
40
0.874999999999993
40
0.874999999999993
40
0.906249999999995
40
0.906249999999995
40
0.937499999999997
40
0.937499999999997
40
1
40
1
40
1
40
1
41
1
10
243.813833037024
20
10.8470897205401
30
0
41
1
10
244.823178679422
20
10.8999872841872
30
0
41
1
10
245.832524644462
20
10.9528768446001
30
0
41
1
10
247.346543156715
20
11.0322260735919
30
0
41
1
10
247.851215260369
20
11.0586987117321
30
0
41
1
10
248.608225226087
20
11.0983511853125
30
0
41
1
10
248.860560955618
20
11.1115975607712
30
0
41
1
10
249.175981635759
20
11.1281237590257
30
0
41
1
10
249.239049875818
20
11.131924990108
30
0
41
1
10
249.3652564965
20
11.1373389025134
30
0
41
1
10
249.428450398501
20
11.1372191868783
30
0
41
1
10
249.618309662806
20
11.1281995711399
30
0
41
1
10
249.745247624131
20
11.1107939434483
30
0
41
1
10
249.872581382332
20
11.0810385266744
30
0
0
SPLINE
5
2A0
100
AcDbEntity
8
1
62
256
6
ByLayer
370
13
48
1
60
0
100
AcDbSpline
70
4
71
2
72
6
73
3
40
0
40
0
40
0
40
1
40
1
40
1
41
0.998835603708714
10
233.607364656396
20
16.5257067853061
30
0
41
0.998293048640331
10
233.604484590943
20
16.4903293711162
30
0
41
1
10
233.604955184393
20
16.454835561444
30
0
0
SPLINE
5
2A1
100
AcDbEntity
8
1
62
256
6
ByLayer
370
13
48
1
60
0
100
AcDbSpline
70
4
71
2
72
6
73
3
40
0
40
0
40
0
40
1
40
1
40
1
41
1
10
233.611236262944
20
16.5622050507421
30
0
41
0.999116442697021
10
233.608854215957
20
16.5440038575111
30
0
41
0.998835603708714
10
233.607364656396
20
16.5257067853061
30
0
0
SPLINE
5
2A2
100
AcDbEntity
8
1
62
256
6
ByLayer
370
13
48
1
60
0
100
AcDbSpline
70
4
71
1
72
4
73
2
40
0
40
0
40
1
40
1
41
1
10
233.836270876453
20
16.5835545099124
30
0
41
1
10
233.611236262944
20
16.5622050507421
30
0
0
SPLINE
5
2A3
100
AcDbEntity
8
1
62
256
6
ByLayer
370
13
48
1
60
0
100
AcDbSpline
70
4
71
2
72
6
73
3
40
0
40
0
40
0
40
1
40
1
40
1
41
1
10
233.614080732668
20
16.3476651604499
30
0
41
0.997409491337352
10
233.605670000502
20
16.4009216216178
30
0
41
1
10
233.604955184393
20
16.454835561444
30
0
0
SPLINE
5
2A4
100
AcDbEntity
8
1
62
256
6
ByLayer
370
13
48
1
60
0
100
AcDbSpline
70
4
71
1
72
4
73
2
40
0
40
0
40
1
40
1
41
1
10
233.604955184393
20
16.454835561444
30
0
41
1
10
233.829549863994
20
16.4686647390747
30
0
0
SPLINE
5
2A5
100
AcDbEntity
8
1
62
256
6
ByLayer
370
13
48
1
60
0
100
AcDbSpline
70
4
71
2
72
6
73
3
40
0
40
0
40
0
40
1
40
1
40
1
41
1
10
253.111729394373
20
17.6165735071008
30
0
41
0.997409491337352
10
253.110964511728
20
17.6742636407902
30
0
41
1
10
253.101964682284
20
17.7312502452623
30
0
0
SPLINE
5
2A6
100
AcDbEntity
8
1
62
256
6
ByLayer
370
13
48
1
60
0
100
AcDbSpline
70
4
71
2
72
6
73
3
40
0
40
0
40
0
40
1
40
1
40
1
41
1
10
253.111729394373
20
17.6165735071008
30
0
41
0.997409491337352
10
253.112494277017
20
17.5588833734125
30
0
41
1
10
253.105008381914
20
17.501683736263
30
0
0
SPLINE
5
2A7
100
AcDbEntity
8
1
62
256
6
ByLayer
370
13
48
1
60
0
100
AcDbSpline
70
4
71
3
72
8
73
4
40
0
40
0
40
0
40
0
40
1
40
1
40
1
40
1
41
1
10
250.975740881606
20
25.4232867167749
30
0
41
1
10
250.910187093587
20
25.4231043852036
30
0
41
1
10
250.844634259758
20
25.4221788470692
30
0
41
1
10
250.779082313948
20
25.4205616442952
30
0
0
SPLINE
5
2A8
100
AcDbEntity
8
1
62
256
6
ByLayer
370
13
48
1
60
0
100
AcDbSpline
70
4
71
3
72
22
73
18
40
0
40
0
40
0
40
0
40
0.125
40
0.125
40
0.25
40
0.25
40
0.375
40
0.375
40
0.5
40
0.5
40
0.625
40
0.625
40
0.75
40
0.75
40
0.875
40
0.875
40
1
40
1
40
1
40
1
41
1
10
251.994181499117
20
24.7456945181702
30
0
41
1
10
251.985522805411
20
24.8023239251309
30
0
41
1
10
251.971413252836
20
24.8570401619078
30
0
41
1
10
251.931152918802
20
24.9622463436741
30
0
41
1
10
251.904913707507
20
25.0134532555897
30
0
41
1
10
251.842415312498
20
25.1083007447258
30
0
41
1
10
251.806670287779
20
25.1519562031662
30
0
41
1
10
251.725675515224
20
25.2313005068842
30
0
41
1
10
251.680443391064
20
25.2669161480801
30
0
41
1
10
251.585127506443
20
25.327013435799
30
0
41
1
10
251.534405223137
20
25.3519762522111
30
0
41
1
10
251.427096634571
20
25.3910781584301
30
0
41
1
10
251.372374939983
20
25.4047991405157
30
0
41
1
10
251.260823469467
20
25.420727099059
30
0
41
1
10
251.20365540394
20
25.4211641579043
30
0
41
1
10
251.089697041924
20
25.4230828728136
30
0
41
1
10
251.032718627442
20
25.4234451949077
30
0
41
1
10
250.975740881606
20
25.4232867167749
30
0
0
SPLINE
5
2A9
100
AcDbEntity
8
1
62
256
6
ByLayer
370
13
48
1
60
0
100
AcDbSpline
70
4
71
3
72
8
73
4
40
0
40
0
40
0
40
0
40
1
40
1
40
1
40
1
41
1
10
235.058876176785
20
24.5739635456905
30
0
41
1
10
235.006633019433
20
24.5792988135613
30
0
41
1
10
234.95434748621
20
24.5846398162383
30
0
41
1
10
234.902150021923
20
24.5899689005656
30
0
0
SPLINE
5
2AA
100
AcDbEntity
8
1
62
256
6
ByLayer
370
13
48
1
60
0
100
AcDbSpline
70
4
71
3
72
22
73
18
40
0
40
0
40
0
40
0
40
0.12500000000002
40
0.12500000000002
40
0.25000000000004
40
0.25000000000004
40
0.37500000000006
40
0.37500000000006
40
0.50000000000008
40
0.50000000000008
40
0.625000000000099
40
0.625000000000099
40
0.687500000000083
40
0.687500000000083
40
0.750000000000066
40
0.750000000000066
40
1
40
1
40
1
40
1
41
1
10
234.94709775925
20
9.33954372800517
30
0
41
1
10
234.957001698277
20
9.27477019370758
30
0
41
1
10
234.974118017319
20
9.21252809724891
30
0
41
1
10
235.023959481661
20
9.09352236960058
30
0
41
1
10
235.056982632014
20
9.03613046006978
30
0
41
1
10
235.134434385724
20
8.93264239561748
30
0
41
1
10
235.179521445689
20
8.88563557613929
30
0
41
1
10
235.280723289095
20
8.80344817979213
30
0
41
1
10
235.335254745558
20
8.76911182529017
30
0
41
1
10
235.452196355781
20
8.7139841091666
30
0
41
1
10
235.514808430358
20
8.69338853069166
30
0
41
1
10
235.609482786984
20
8.67414647986939
30
0
41
1
10
235.641390878701
20
8.66964395893555
30
0
41
1
10
235.705898935601
20
8.66441782030134
30
0
41
1
10
235.738578362978
20
8.66410646274028
30
0
41
1
10
235.901512603733
20
8.66119686638089
30
0
41
1
10
236.031856668703
20
8.66146103515919
30
0
41
1
10
236.162196944418
20
8.66467660188022
30
0
0
SPLINE
5
2AB
100
AcDbEntity
8
1
62
256
6
ByLayer
370
13
48
1
60
0
100
AcDbSpline
70
4
71
2
72
6
73
3
40
0
40
0
40
0
40
1
40
1
40
1
41
1
10
233.595433523856
20
16.7034751006441
30
0
41
0.997409491337352
10
233.592635682605
20
16.6496312230345
30
0
41
1
10
233.597560323612
20
16.5959379107824
30
0
0
SPLINE
5
2AC
100
AcDbEntity
8
1
62
256
6
ByLayer
370
13
48
1
60
0
100
AcDbSpline
70
4
71
3
72
20
73
16
40
0
40
0
40
0
40
0
40
0.500000000000014
40
0.500000000000014
40
0.750000000000014
40
0.750000000000014
40
0.875000000000014
40
0.875000000000014
40
0.906250000000014
40
0.906250000000014
40
0.921875000000014
40
0.921875000000014
40
0.937500000000014
40
0.937500000000014
40
1
40
1
40
1
40
1
41
1
10
243.135427829447
20
23.4388412931907
30
0
41
1
10
242.135529378172
20
23.3864388358508
30
0
41
1
10
241.135630528068
20
23.3340439883703
30
0
41
1
10
239.635782967457
20
23.2554380834901
30
0
41
1
10
239.135834899191
20
23.2292147172444
30
0
41
1
10
238.385910216734
20
23.1899290626496
30
0
41
1
10
238.135934892148
20
23.176842311989
30
0
41
1
10
237.823468345746
20
23.1604325426043
30
0
41
1
10
237.760971416731
20
23.1572217965896
30
0
41
1
10
237.667233647574
20
23.1522556901
30
0
41
1
10
237.635987009471
20
23.1506143878603
30
0
41
1
10
237.573389610527
20
23.1493800988472
30
0
41
1
10
237.542051490081
20
23.1495384486774
30
0
41
1
10
237.38516286121
20
23.1542258027035
30
0
41
1
10
237.25902433459
20
23.1703223743573
30
0
41
1
10
237.132197504812
20
23.1999593318418
30
0
0
SPLINE
5
2AD
100
AcDbEntity
8
1
62
256
6
ByLayer
370
13
48
1
60
0
100
AcDbSpline
70
4
71
3
72
10
73
6
40
0
40
0
40
0
40
0
40
0.5
40
0.5
40
1
40
1
40
1
40
1
41
1
10
237.082672678488
20
9.83104704643156
30
0
41
1
10
237.078996037691
20
9.83085436185218
30
0
41
1
10
237.058724840166
20
9.83076288919054
30
0
41
1
10
236.997624240236
20
9.83076740778597
30
0
41
1
10
236.956713050694
20
9.83085559854376
30
0
41
1
10
236.917515336685
20
9.83097943332055
30
0
0
SPLINE
5
2AE
100
AcDbEntity
8
1
62
256
6
ByLayer
370
13
48
1
60
0
100
AcDbSpline
70
4
71
1
72
4
73
2
40
0
40
0
40
1
40
1
41
1
10
235.248264128798
20
24.3504213966257
30
0
41
1
10
235.058876176785
20
24.5739635456905
30
0
0
SPLINE
5
2AF
100
AcDbEntity
8
1
62
256
6
ByLayer
370
13
48
1
60
0
100
AcDbSpline
70
4
71
3
72
9
73
5
40
0
40
0
40
0
40
0
40
0.513495271764337
40
1
40
1
40
1
40
1
41
1
10
234.773035920453
20
24.5817202977108
30
0
41
1
10
234.795110610094
20
24.5834863743717
30
0
41
1
10
234.838164855248
20
24.5860229177645
30
0
41
1
10
234.881208567368
20
24.5886812282925
30
0
41
1
10
234.902150021924
20
24.5899689005639
30
0
0
SPLINE
5
2B0
100
AcDbEntity
8
1
62
256
6
ByLayer
370
13
48
1
60
0
100
AcDbSpline
70
4
71
1
72
4
73
2
40
0
40
0
40
1
40
1
41
1
10
234.94709775925
20
9.33954372800517
30
0
41
1
10
234.917066580128
20
9.33870068260958
30
0
0
SPLINE
5
2B1
100
AcDbEntity
8
1
62
256
6
ByLayer
370
13
48
1
60
0
100
AcDbSpline
70
4
71
3
72
9
73
5
40
0
40
0
40
0
40
0
40
0.513495271764228
40
1
40
1
40
1
40
1
41
1
10
250.779082313948
20
25.4205616442952
30
0
41
1
10
250.756943946488
20
25.4200106128181
30
0
41
1
10
250.713860416011
20
25.4180328666778
30
0
41
1
10
250.670774632735
20
25.4161773216213
30
0
41
1
10
250.649813299255
20
25.4152689618259
30
0
0
SPLINE
5
2B2
100
AcDbEntity
8
1
62
256
6
ByLayer
370
13
48
1
60
0
100
AcDbSpline
70
4
71
2
72
6
73
3
40
0
40
0
40
0
40
1
40
1
40
1
41
0.998835603708968
10
233.6073646564
20
16.5257067852895
30
0
41
0.998293048639933
10
233.600802421505
20
16.5605893494949
30
0
41
1
10
233.597560323612
20
16.5959379107824
30
0
0
SPLINE
5
2B3
100
AcDbEntity
8
1
62
256
6
ByLayer
370
13
48
1
60
0
100
AcDbSpline
70
4
71
3
72
24
73
20
40
0
40
0
40
0
40
0
40
0.0312499999999903
40
0.0312499999999903
40
0.0624999999999806
40
0.0624999999999806
40
0.124999999999961
40
0.124999999999961
40
0.156249999999958
40
0.156249999999958
40
0.171874999999962
40
0.171874999999962
40
0.187499999999967
40
0.187499999999967
40
0.249999999999972
40
0.249999999999972
40
0.499999999999982
40
0.499999999999982
40
1
40
1
40
1
40
1
41
1
10
237.346802552891
20
10.0197558194851
30
0
41
1
10
237.402541765447
20
10.0586120987747
30
0
41
1
10
237.460876861928
20
10.0948171404022
30
0
41
1
10
237.580936670878
20
10.1606248619583
30
0
41
1
10
237.642238572575
20
10.1900394028745
30
0
41
1
10
237.829852967105
20
10.268109415565
30
0
41
1
10
237.959904138341
20
10.3067550141154
30
0
41
1
10
238.162355931851
20
10.3437487365125
30
0
41
1
10
238.230060888866
20
10.3523160235101
30
0
41
1
10
238.331932018079
20
10.3598249155895
30
0
41
1
10
238.365949665075
20
10.3612958266689
30
0
41
1
10
238.433947402945
20
10.3648772098321
30
0
41
1
10
238.467947359057
20
10.3666493873392
30
0
41
1
10
238.637945367687
20
10.3755404500039
30
0
41
1
10
238.77394319463
20
10.3826631765506
30
0
41
1
10
239.453930782979
20
10.4183031431177
30
0
41
1
10
239.997918650561
20
10.4468526339502
30
0
41
1
10
241.629889506709
20
10.5323775848493
30
0
41
1
10
242.717870945629
20
10.5893783119521
30
0
41
1
10
243.805851428919
20
10.6463969529846
30
0
0
SPLINE
5
2B4
100
AcDbEntity
8
1
62
256
6
ByLayer
370
13
48
1
60
0
100
AcDbSpline
70
4
71
1
72
4
73
2
40
0
40
0
40
1
40
1
41
1
10
233.839314576083
20
16.3539880009131
30
0
41
1
10
233.614080732668
20
16.3476651604499
30
0
0
SPLINE
5
2B5
100
AcDbEntity
8
1
62
256
6
ByLayer
370
13
48
1
60
0
100
AcDbSpline
70
4
71
2
72
6
73
3
40
0
40
0
40
0
40
1
40
1
40
1
41
1
10
233.829549863994
20
16.4686647390747
30
0
41
0.997409491337352
10
233.830314746639
20
16.4109746053852
30
0
41
1
10
233.839314576083
20
16.3539880009131
30
0
0
SPLINE
5
2B6
100
AcDbEntity
8
1
62
256
6
ByLayer
370
13
48
1
60
0
100
AcDbSpline
70
4
71
1
72
4
73
2
40
0
40
0
40
1
40
1
41
1
10
234.773035920453
20
24.5817202977107
30
0
41
1
10
234.974016260919
20
24.3500951206017
30
0
0
SPLINE
5
2B7
100
AcDbEntity
8
1
62
256
6
ByLayer
370
13
48
1
60
0
100
AcDbSpline
70
4
71
3
72
24
73
20
40
0
40
0
40
0
40
0
40
0.0312499999999992
40
0.0312499999999992
40
0.0624999999999984
40
0.0624999999999984
40
0.125000000000008
40
0.125000000000008
40
0.156250000000014
40
0.156250000000014
40
0.17187500000001
40
0.17187500000001
40
0.187500000000006
40
0.187500000000006
40
0.250000000000004
40
0.250000000000004
40
0.500000000000007
40
0.500000000000007
40
1
40
1
40
1
40
1
41
1
10
249.594476705474
20
24.065482426689
30
0
41
1
10
249.538737492917
20
24.0266261473994
30
0
41
1
10
249.480402396436
20
23.9904211057718
30
0
41
1
10
249.360342587486
20
23.9246133842159
30
0
41
1
10
249.299040685789
20
23.8951988432996
30
0
41
1
10
249.111426291259
20
23.8171288306093
30
0
41
1
10
248.981375120022
20
23.778483232059
30
0
41
1
10
248.778923326511
20
23.7414895096622
30
0
41
1
10
248.711218369496
20
23.7329222226649
30
0
41
1
10
248.609347240283
20
23.7254133305857
30
0
41
1
10
248.575329593287
20
23.7239424195063
30
0
41
1
10
248.507331855418
20
23.7203610363431
30
0
41
1
10
248.473331899305
20
23.7185888588359
30
0
41
1
10
248.303333890675
20
23.7096977961712
30
0
41
1
10
248.167336063731
20
23.7025750696245
30
0
41
1
10
247.487348475381
20
23.6669351030573
30
0
41
1
10
246.943360607798
20
23.6383856122248
30
0
41
1
10
245.311389751646
20
23.5528606613254
30
0
41
1
10
244.22340831274
20
23.4958599342235
30
0
41
1
10
243.135427829447
20
23.4388412931908
30
0
0
SPLINE
5
2B8
100
AcDbEntity
8
1
62
256
6
ByLayer
370
13
48
1
60
0
100
AcDbSpline
70
4
71
3
72
10
73
6
40
0
40
0
40
0
40
0
40
0.5
40
0.5
40
1
40
1
40
1
40
1
41
1
10
237.056749215285
20
9.74676303031788
30
0
41
1
10
237.053073613589
20
9.74657040019545
30
0
41
1
10
237.035777397777
20
9.75587759651583
30
0
41
1
10
236.984389639776
20
9.78721602954334
30
0
41
1
10
236.950197109554
20
9.80924835529268
30
0
41
1
10
236.917515336685
20
9.83097943332058
30
0
0
SPLINE
5
2B9
100
AcDbEntity
8
1
62
256
6
ByLayer
370
13
48
1
60
0
100
AcDbSpline
70
4
71
3
72
8
73
4
40
0
40
0
40
0
40
0
40
1
40
1
40
1
40
1
41
1
10
251.418901456474
20
9.70102603716174
30
0
41
1
10
251.352058317072
20
9.69780427819839
30
0
41
1
10
251.287149328787
20
9.69648660702475
30
0
41
1
10
251.223823229892
20
9.69618109832552
30
0
0
SPLINE
5
2BA
100
AcDbEntity
8
1
62
256
6
ByLayer
370
13
48
1
60
0
100
AcDbSpline
70
4
71
3
72
20
73
16
40
0
40
0
40
0
40
0
40
0.500000000000007
40
0.500000000000007
40
0.75000000000001
40
0.75000000000001
40
0.875000000000012
40
0.875000000000012
40
0.906250000000012
40
0.906250000000012
40
0.921875000000013
40
0.921875000000013
40
0.937500000000013
40
0.937500000000013
40
1
40
1
40
1
40
1
41
1
10
243.805851428919
20
10.6463969529847
30
0
41
1
10
244.805749880195
20
10.6987994103246
30
0
41
1
10
245.805648730299
20
10.7511942578051
30
0
41
1
10
247.30549629091
20
10.8298001626853
30
0
41
1
10
247.805444359176
20
10.8560235289311
30
0
41
1
10
248.555369041633
20
10.8953091835258
30
0
41
1
10
248.805344366219
20
10.9083959341864
30
0
41
1
10
249.117810912621
20
10.9248057035711
30
0
41
1
10
249.180307841636
20
10.9280164495858
30
0
41
1
10
249.274045610792
20
10.9329825560753
30
0
41
1
10
249.305292248897
20
10.9346238583152
30
0
41
1
10
249.36788964784
20
10.9358581473282
30
0
41
1
10
249.399227768286
20
10.935699797498
30
0
41
1
10
249.556116397157
20
10.9310124434719
30
0
41
1
10
249.682254923777
20
10.9149158718182
30
0
41
1
10
249.809081753555
20
10.8852789143337
30
0
0
SPLINE
5
2BB
100
AcDbEntity
8
1
62
256
6
ByLayer
370
13
48
1
60
0
100
AcDbSpline
70
4
71
3
72
9
73
5
40
0
40
0
40
0
40
0
40
0.513495271764262
40
1
40
1
40
1
40
1
41
1
10
236.162196944418
20
8.66467660188019
30
0
41
1
10
236.184335311879
20
8.66522763335729
30
0
41
1
10
236.227418842356
20
8.66720537949763
30
0
41
1
10
236.270504625631
20
8.66906092455415
30
0
41
1
10
236.291465959112
20
8.66996928434955
30
0
0
SPLINE
5
2BC
100
AcDbEntity
8
1
62
256
6
ByLayer
370
13
48
1
60
0
100
AcDbSpline
70
4
71
3
72
20
73
16
40
0
40
0
40
0
40
0
40
0.0625000000000001
40
0.0625000000000001
40
0.125
40
0.125
40
0.15625
40
0.15625
40
0.1875
40
0.1875
40
0.25
40
0.25
40
0.5
40
0.5
40
1
40
1
40
1
40
1
41
1
10
237.25164225181
20
10.185034449495
30
0
41
1
10
237.367870286511
20
10.266058001326
30
0
41
1
10
237.490311986004
20
10.3341844075822
30
0
41
1
10
237.747211929183
20
10.4454955592657
30
0
41
1
10
237.883319477226
20
10.4888375166579
30
0
41
1
10
238.087854620727
20
10.5321734531877
30
0
41
1
10
238.156297413374
20
10.5431389396122
30
0
41
1
10
238.293700203113
20
10.5582631681342
30
0
41
1
10
238.362736887842
20
10.5614126514068
30
0
41
1
10
238.569740270529
20
10.5722649670575
30
0
41
1
10
238.707744752713
20
10.5794705346178
30
0
41
1
10
239.397757486632
20
10.6156257279952
30
0
41
1
10
239.949763681006
20
10.6446027078961
30
0
41
1
10
241.605792989964
20
10.7313907766879
30
0
41
1
10
242.709813523838
20
10.7892305095688
30
0
41
1
10
243.813833037024
20
10.84708972054
30
0
0
SPLINE
5
2BD
100
AcDbEntity
8
1
62
256
6
ByLayer
370
13
48
1
60
0
100
AcDbSpline
70
4
71
3
72
18
73
14
40
0
40
0
40
0
40
0
40
0.500000000000014
40
0.500000000000014
40
0.750000000000014
40
0.750000000000014
40
0.875000000000007
40
0.875000000000007
40
0.906250000000005
40
0.906250000000005
40
0.937500000000003
40
0.937500000000003
40
1
40
1
40
1
40
1
41
1
10
243.164343820049
20
23.2400822468444
30
0
41
1
10
242.154998177651
20
23.1871846831973
30
0
41
1
10
241.145652212612
20
23.1342951227844
30
0
41
1
10
239.631633700359
20
23.0549458937926
30
0
41
1
10
239.126961596705
20
23.0284732556524
30
0
41
1
10
238.369951630987
20
22.988820782072
30
0
41
1
10
238.117615901456
20
22.9755744066133
30
0
41
1
10
237.802195221315
20
22.9590482083588
30
0
41
1
10
237.739126981255
20
22.9552469772765
30
0
41
1
10
237.612920360573
20
22.9498330648711
30
0
41
1
10
237.549726458573
20
22.9499527805062
30
0
41
1
10
237.359867194268
20
22.9589723962447
30
0
41
1
10
237.232929232943
20
22.9763780239363
30
0
41
1
10
237.105595474741
20
23.0061334407101
30
0
0
SPLINE
5
2BE
100
AcDbEntity
8
1
62
256
6
ByLayer
370
13
48
1
60
0
100
AcDbSpline
70
4
71
3
72
12
73
8
40
0
40
0
40
0
40
0
40
0.249999999999882
40
0.249999999999882
40
0.499999999999763
40
0.499999999999763
40
1
40
1
40
1
40
1
41
1
10
251.223823229892
20
9.69618109832552
30
0
41
1
10
251.202056839814
20
9.69559548235907
30
0
41
1
10
251.181623381595
20
9.69590438181305
30
0
41
1
10
251.140275538296
20
9.69619944802011
30
0
41
1
10
251.119528239269
20
9.69629937630097
30
0
41
1
10
251.057362107812
20
9.69664831538168
30
0
41
1
10
251.015970097097
20
9.69691472429619
30
0
41
1
10
250.974551293586
20
9.69716375541074
30
0
0
SPLINE
5
2BF
100
AcDbEntity
8
1
62
256
6
ByLayer
370
13
48
1
60
0
100
AcDbSpline
70
4
71
3
72
26
73
22
40
0
40
0
40
0
40
0
40
0.250000000000199
40
0.250000000000199
40
0.375000000000299
40
0.375000000000299
40
0.500000000000398
40
0.500000000000398
40
0.625000000000498
40
0.625000000000498
40
0.687500000000548
40
0.687500000000548
40
0.718750000000573
40
0.718750000000573
40
0.750000000000598
40
0.750000000000598
40
0.812500000000449
40
0.812500000000449
40
0.875000000000299
40
0.875000000000299
40
1
40
1
40
1
40
1
41
1
10
252.077958767461
20
9.84756712025526
30
0
41
1
10
252.040753800936
20
9.82644432921504
30
0
41
1
10
251.999116701715
20
9.80542821621805
30
0
41
1
10
251.925338804946
20
9.77548675517926
30
0
41
1
10
251.899264535296
20
9.76596078544284
30
0
41
1
10
251.842718707225
20
9.74825778851528
30
0
41
1
10
251.812340920247
20
9.74011825377477
30
0
41
1
10
251.749750996528
20
9.72696468497674
30
0
41
1
10
251.717960712592
20
9.72221840535488
30
0
41
1
10
251.672400920773
20
9.71826945705882
30
0
41
1
10
251.657529706953
20
9.71738247740871
30
0
41
1
10
251.635578572274
20
9.71626590843681
30
0
41
1
10
251.628266216563
20
9.71589782990952
30
0
41
1
10
251.613937332757
20
9.7154210330678
30
0
41
1
10
251.606917974332
20
9.71531557373436
30
0
41
1
10
251.584625730754
20
9.71385361090944
30
0
41
1
10
251.568175777069
20
9.71139036880723
30
0
41
1
10
251.537479333172
20
9.70852882824931
30
0
41
1
10
251.522640085431
20
9.70757503573418
30
0
41
1
10
251.477717310781
20
9.7043340888878
30
0
41
1
10
251.448043223906
20
9.70243063531899
30
0
41
1
10
251.418901456474
20
9.70102603716174
30
0
0
SPLINE
5
2C0
100
AcDbEntity
8
1
62
256
6
ByLayer
370
13
48
1
60
0
100
AcDbSpline
70
4
71
3
72
40
73
36
40
0
40
0
40
0
40
0
40
0.124999999999999
40
0.124999999999999
40
0.187499999999999
40
0.187499999999999
40
0.218749999999999
40
0.218749999999999
40
0.249999999999998
40
0.249999999999998
40
0.374999999999998
40
0.374999999999998
40
0.406249999999998
40
0.406249999999998
40
0.437499999999998
40
0.437499999999998
40
0.499999999999998
40
0.499999999999998
40
0.562499999999998
40
0.562499999999998
40
0.624999999999999
40
0.624999999999999
40
0.749999999999998
40
0.749999999999998
40
0.781249999999998
40
0.781249999999998
40
0.812499999999998
40
0.812499999999998
40
0.874999999999999
40
0.874999999999999
40
0.906249999999999
40
0.906249999999999
40
0.937499999999999
40
0.937499999999999
40
1
40
1
40
1
40
1
41
1
10
26.9232278275821
20
-11.8359604283201
30
0
41
1
10
26.2438651678989
20
-11.9327599024509
30
0
41
1
10
25.581581404437
20
-12.0929539994223
30
0
41
1
10
24.6104170330691
20
-12.4166217084228
30
0
41
1
10
24.2904476730726
20
-12.5385690771796
30
0
41
1
10
23.8160395749564
20
-12.7424290879315
30
0
41
1
10
23.6584524514202
20
-12.8140745399849
30
0
41
1
10
23.3481466825225
20
-12.9629522036662
30
0
41
1
10
23.1951978520393
20
-13.0402885127571
30
0
41
1
10
22.4411058315775
20
-13.4408704187898
30
0
41
1
10
21.871355638902
20
-13.8051001138254
30
0
41
1
10
21.2022287910693
20
-14.3148769381061
30
0
41
1
10
21.0705754398911
20
-14.4195793340899
30
0
41
1
10
20.8117334321446
20
-14.6345820444064
30
0
41
1
10
20.6849832605686
20
-14.7445463760771
30
0
41
1
10
20.3160112739243
20
-15.078738086467
30
0
41
1
10
20.0837882463372
20
-15.3084349495815
30
0
41
1
10
19.6471757662973
20
-15.7811832677009
30
0
41
1
10
19.4427646895158
20
-16.0242241571035
30
0
41
1
10
19.0632779664859
20
-16.5237929497352
30
0
41
1
10
18.8880474176592
20
-16.7805409566455
30
0
41
1
10
18.4119857289204
20
-17.5710171071546
30
0
41
1
10
18.1735573799851
20
-18.1016892858394
30
0
41
1
10
17.9837507769296
20
-18.7678901325571
30
0
41
1
10
17.9512486456189
20
-18.9017968996676
30
0
41
1
10
17.8981661426704
20
-19.1673973537686
30
0
41
1
10
17.8776370390957
20
-19.2985877164862
30
0
41
1
10
17.8339061348439
20
-19.6873672256286
30
0
41
1
10
17.8287510450865
20
-19.9401498083918
30
0
41
1
10
17.8577844023476
20
-20.3096557333224
30
0
41
1
10
17.873550744391
20
-20.4312159565612
30
0
41
1
10
17.9174498395805
20
-20.671091602407
30
0
41
1
10
17.9457270131731
20
-20.789833378989
30
0
41
1
10
18.0484252998597
20
-21.1370557744468
30
0
41
1
10
18.1404217307144
20
-21.3569025021348
30
0
41
1
10
18.2557061594653
20
-21.5656432802862
30
0
0
SPLINE
5
2C1
100
AcDbEntity
8
1
62
256
6
ByLayer
370
13
48
1
60
0
100
AcDbSpline
70
4
71
3
72
18
73
14
40
0
40
0
40
0
40
0
40
0.125
40
0.125
40
0.25
40
0.25
40
0.375
40
0.375
40
0.5
40
0.5
40
0.75
40
0.75
40
1
40
1
40
1
40
1
41
1
10
237.716349027962
20
8.89675756398341
30
0
41
1
10
237.70338787575
20
8.88397685433958
30
0
41
1
10
237.695033985656
20
8.87493608314344
30
0
41
1
10
237.690153281614
20
8.86600452993869
30
0
41
1
10
237.693528357926
20
8.86594765338188
30
0
41
1
10
237.709859610003
20
8.8735011601222
30
0
41
1
10
237.722899549352
20
8.88112398880506
30
0
41
1
10
237.754859509066
20
8.90182286383026
30
0
41
1
10
237.774063314154
20
8.91507856127197
30
0
41
1
10
237.83712858426
20
8.9612779334503
30
0
41
1
10
237.885158883469
20
8.99958883758239
30
0
41
1
10
237.987962336557
20
9.09104593825953
30
0
41
1
10
238.040028599887
20
9.14179257983326
30
0
41
1
10
238.091756732343
20
9.19808565381541
30
0
0
SPLINE
5
2C2
100
AcDbEntity
8
1
62
256
6
ByLayer
370
13
48
1
60
0
100
AcDbSpline
70
4
71
3
72
10
73
6
40
0
40
0
40
0
40
0
40
0.246432795276287
40
0.246432795276287
40
1
40
1
40
1
40
1
41
1
10
0
20
4.071
30
0
41
1
10
0.0410698531254923
20
4.071
30
0
41
1
10
0.0821402764839974
20
4.071
30
0
41
1
10
0.248802294970289
20
4.071
30
0
41
1
10
0.374398598796674
20
4.071
30
0
41
1
10
0.5
20
4.071
30
0
0
SPLINE
5
2C3
100
AcDbEntity
8
1
62
256
6
ByLayer
370
13
48
1
60
0
100
AcDbSpline
70
4
71
3
72
20
73
16
40
0
40
0
40
0
40
0
40
0.125
40
0.125
40
0.250000000000001
40
0.250000000000001
40
0.375000000000001
40
0.375000000000001
40
0.500000000000001
40
0.500000000000001
40
0.625000000000002
40
0.625000000000002
40
0.750000000000002
40
0.750000000000002
40
1
40
1
40
1
40
1
41
1
10
6
20
-3.571
30
0
41
1
10
6
20
-3.60393322509643
30
0
41
1
10
5.99677802951547
20
-3.63631595001573
30
0
41
1
10
5.98415574729458
20
-3.70002633954874
30
0
41
1
10
5.97460706229406
20
-3.73167708988237
30
0
41
1
10
5.94964138722897
20
-3.79211448094432
30
0
41
1
10
5.93436036703305
20
-3.82078736336274
30
0
41
1
10
5.89825058475375
20
-3.87507092443721
30
0
41
1
10
5.87720587398627
20
-3.90081594433366
30
0
41
1
10
5.83118489707979
20
-3.94700451121324
30
0
41
1
10
5.80606785289076
20
-3.96773917479186
30
0
41
1
10
5.75151945639119
20
-4.00437912552908
30
0
41
1
10
5.72235822232544
20
-4.02002157401955
30
0
41
1
10
5.63204318454247
20
-4.05764032847557
30
0
41
1
10
5.56624413343685
20
-4.071
30
0
41
1
10
5.5
20
-4.071
30
0
0
SPLINE
5
2C4
100
AcDbEntity
8
1
62
256
6
ByLayer
370
13
48
1
60
0
100
AcDbSpline
70
4
71
3
72
10
73
6
40
0
40
0
40
0
40
0
40
0.5
40
0.5
40
1
40
1
40
1
40
1
41
1
10
250.13820913588
20
-4.14657968034922
30
0
41
1
10
250.191895298653
20
-4.43976096997059
30
0
41
1
10
250.224674370533
20
-4.73275901174614
30
0
41
1
10
250.250598416036
20
-5.31825959665744
30
0
41
1
10
250.243738643323
20
-5.61076249478768
30
0
41
1
10
250.21689468139
20
-5.90300344145319
30
0
0
SPLINE
5
2C5
100
AcDbEntity
8
1
62
256
6
ByLayer
370
13
48
1
60
0
100
AcDbSpline
70
4
71
3
72
14
73
10
40
0
40
0
40
0
40
0
40
0.125
40
0.125
40
0.249999999999999
40
0.249999999999999
40
0.499999999999999
40
0.499999999999999
40
1
40
1
40
1
40
1
41
1
10
245.924508723844
20
10.4369919261542
30
0
41
1
10
245.961134960781
20
10.4389114258955
30
0
41
1
10
245.998463465276
20
10.4417360501251
30
0
41
1
10
246.0723441693
20
10.4490914507726
30
0
41
1
10
246.109118261127
20
10.4536268204617
30
0
41
1
10
246.219013947035
20
10.4697877662806
30
0
41
1
10
246.291708900443
20
10.4839594974879
30
0
41
1
10
246.508635960251
20
10.5368303208082
30
0
41
1
10
246.651643189205
20
10.5856679282042
30
0
41
1
10
246.794842717521
20
10.6505763334551
30
0
0
SPLINE
5
2C6
100
AcDbEntity
8
1
62
256
6
ByLayer
370
13
48
1
60
0
100
AcDbSpline
70
4
71
3
72
10
73
6
40
0
40
0
40
0
40
0
40
0.5
40
0.5
40
1
40
1
40
1
40
1
41
1
10
239.602934522374
20
8.3351354436999
30
0
41
1
10
240.149845758626
20
8.53011546843746
30
0
41
1
10
240.690784281108
20
8.67446127119888
30
0
41
1
10
241.762233510184
20
8.88201726479772
30
0
41
1
10
242.292678335865
20
8.94487171099019
30
0
41
1
10
242.815825068919
20
8.97228866950869
30
0
0
SPLINE
5
2C7
100
AcDbEntity
8
1
62
256
6
ByLayer
370
13
48
1
60
0
100
AcDbSpline
70
4
71
3
72
10
73
6
40
0
40
0
40
0
40
0
40
0.5
40
0.5
40
1
40
1
40
1
40
1
41
1
10
241.298558314409
20
10.3948306073218
30
0
41
1
10
241.329137119694
20
10.3964331745999
30
0
41
1
10
241.360075052232
20
10.3951626306601
30
0
41
1
10
241.420256623205
20
10.3873421079181
30
0
41
1
10
241.449665549188
20
10.3808352356915
30
0
41
1
10
241.478366613709
20
10.3719516272429
30
0
0
SPLINE
5
2C8
100
AcDbEntity
8
1
62
256
6
ByLayer
370
13
48
1
60
0
100
AcDbSpline
70
4
71
3
72
8
73
4
40
0
40
0
40
0
40
0
40
1
40
1
40
1
40
1
41
1
10
237.69991832917
20
9.97663425036927
30
0
41
1
10
237.727710625821
20
9.97756130221794
30
0
41
1
10
237.756132477489
20
9.97737160949737
30
0
41
1
10
237.784037410308
20
9.97596172687093
30
0
0
SPLINE
5
2C9
100
AcDbEntity
8
1
62
256
6
ByLayer
370
13
48
1
60
0
100
AcDbSpline
70
4
71
3
72
8
73
4
40
0
40
0
40
0
40
0
40
1
40
1
40
1
40
1
41
1
10
226.101622534115
20
2.44254572939027
30
0
41
1
10
226.081834379358
20
2.45204046576453
30
0
41
1
10
226.06204713187
20
2.46153945988442
30
0
41
1
10
226.04226079699
20
2.47104270525509
30
0
0
SPLINE
5
2CA
100
AcDbEntity
8
1
62
256
6
ByLayer
370
13
48
1
60
0
100
AcDbSpline
70
4
71
3
72
10
73
6
40
0
40
0
40
0
40
0
40
0.5
40
0.5
40
1
40
1
40
1
40
1
41
1
10
233.877833142449
20
11.4520742837752
30
0
41
1
10
233.860999221436
20
11.5947684301788
30
0
41
1
10
233.830387068617
20
11.7337923205677
30
0
41
1
10
233.737414830442
20
12.0033830625914
30
0
41
1
10
233.674066778697
20
12.1350267839937
30
0
41
1
10
233.59535839621
20
12.2568732612229
30
0
0
SPLINE
5
2CB
100
AcDbEntity
8
1
62
256
6
ByLayer
370
13
48
1
60
0
100
AcDbSpline
70
4
71
3
72
8
73
4
40
0
40
0
40
0
40
0
40
1
40
1
40
1
40
1
41
1
10
229.371998938027
20
8.30472406237158
30
0
41
1
10
229.440624859363
20
8.57149401004111
30
0
41
1
10
229.503900188965
20
8.83905726164849
30
0
41
1
10
229.564162264179
20
9.1070672725474
30
0
0
SPLINE
5
2CC
100
AcDbEntity
8
1
62
256
6
ByLayer
370
13
48
1
60
0
100
AcDbSpline
70
4
71
3
72
20
73
16
40
0
40
0
40
0
40
0
40
0.125000000000001
40
0.125000000000001
40
0.250000000000001
40
0.250000000000001
40
0.375000000000002
40
0.375000000000002
40
0.500000000000002
40
0.500000000000002
40
0.625000000000002
40
0.625000000000002
40
0.750000000000003
40
0.750000000000003
40
1
40
1
40
1
40
1
41
1
10
5.99999999999996
20
-31.0675076027925
30
0
41
1
10
5.99999999999997
20
-31.080962010327
30
0
41
1
10
5.99677802951543
20
-31.09414941444
30
0
41
1
10
5.98415574729455
20
-31.1200169935347
30
0
41
1
10
5.97460706229403
20
-31.132827336719
30
0
41
1
10
5.94964138722892
20
-31.1572191139859
30
0
41
1
10
5.93436036703302
20
-31.1687556935702
30
0
41
1
10
5.89825058475371
20
-31.1905426353914
30
0
41
1
10
5.87720587398624
20
-31.2008461165011
30
0
41
1
10
5.83118489707975
20
-31.2192929262407
30
0
41
1
10
5.80606785289073
20
-31.2275533431178
30
0
41
1
10
5.75151945639116
20
-31.242127423306
30
0
41
1
10
5.72235822232541
20
-31.248336483291
30
0
41
1
10
5.63204318454244
20
-31.2632543930297
30
0
41
1
10
5.56624413343683
20
-31.268533014896
30
0
41
1
10
5.49999999999996
20
-31.268533014896
30
0
0
SPLINE
5
2CD
100
AcDbEntity
8
1
62
256
6
ByLayer
370
13
48
1
60
0
100
AcDbSpline
70
4
71
3
72
18
73
14
40
0
40
0
40
0
40
0
40
0.124999999999999
40
0.124999999999999
40
0.249999999999999
40
0.249999999999999
40
0.374999999999998
40
0.374999999999998
40
0.499999999999998
40
0.499999999999998
40
0.749999999999999
40
0.749999999999999
40
1
40
1
40
1
40
1
41
1
10
5.5
20
4.071
30
0
41
1
10
5.53311836198864
20
4.071
30
0
41
1
10
5.56567694370484
20
4.06774205109016
30
0
41
1
10
5.62972133566619
20
4.05498192252259
30
0
41
1
10
5.66154354218742
20
4.04532095818553
30
0
41
1
10
5.72214649856305
20
4.02014098073175
30
0
41
1
10
5.7508789788518
20
4.00473867431307
30
0
41
1
10
5.80523848848543
20
3.96836502711199
30
0
41
1
10
5.83093052062637
20
3.94722698913094
30
0
41
1
10
5.89997612824277
20
3.87802788825485
30
0
41
1
10
5.93710206073186
20
3.82231798197651
30
0
41
1
10
5.98680620220954
20
3.70229608162887
30
0
41
1
10
6
20
3.63685881207022
30
0
41
1
10
6
20
3.571
30
0
0
SPLINE
5
2CE
100
AcDbEntity
8
1
62
256
6
ByLayer
370
13
48
1
60
0
100
AcDbSpline
70
4
71
3
72
8
73
4
40
0
40
0
40
0
40
0
40
1
40
1
40
1
40
1
41
1
10
230.655887078893
20
-0.516069911069906
30
0
41
1
10
231.193521373184
20
-0.576622177437628
30
0
41
1
10
231.731194873719
20
-0.636978944676429
30
0
41
1
10
232.268906212144
20
-0.697147035990042
30
0
0
SPLINE
5
2CF
100
AcDbEntity
8
1
62
256
6
ByLayer
370
13
48
1
60
0
100
AcDbSpline
70
4
71
3
72
17
73
13
40
0
40
0
40
0
40
0
40
0.5
40
0.5
40
0.750000000000001
40
0.750000000000001
40
0.812500000000001
40
0.812500000000001
40
0.843750000000001
40
0.843750000000001
40
0.875000000000001
40
1
40
1
40
1
40
1
41
1
10
26.9232297117708
20
-27.558255075478
30
0
41
1
10
29.2010553485189
20
-27.1778716678065
30
0
41
1
10
31.4715936746327
20
-26.7679077069014
30
0
41
1
10
34.8661548314703
20
-26.1073108047221
30
0
41
1
10
35.9956696496375
20
-25.8795258710305
30
0
41
1
10
37.4059335155873
20
-25.584921047084
30
0
41
1
10
37.6878975457469
20
-25.5255074986188
30
0
41
1
10
38.1107096245405
20
-25.4356435717865
30
0
41
1
10
38.2515903512345
20
-25.4053745786935
30
0
41
1
10
38.5337540936621
20
-25.3470695680218
30
0
41
1
10
39.2399185632079
20
-25.2054984304655
30
0
41
1
10
39.9498559538356
20
-25.0848695497593
30
0
41
1
10
40.520232580793
20
-25.0018363472459
30
0
0
SPLINE
5
2D0
100
AcDbEntity
8
1
62
256
6
ByLayer
370
13
48
1
60
0
100
AcDbSpline
70
4
71
3
72
8
73
4
40
0
40
0
40
0
40
0
40
1
40
1
40
1
40
1
41
1
10
50.7454000000001
20
24.760215695236
30
0
41
1
10
49.0787333422102
20
24.7602119143646
30
0
41
1
10
47.4120666688902
20
24.7602106173924
30
0
41
1
10
45.7454000000001
20
24.7602106173924
30
0
0
SPLINE
5
2D1
100
AcDbEntity
8
1
62
256
6
ByLayer
370
13
48
1
60
0
100
AcDbSpline
70
4
71
3
72
18
73
14
40
0
40
0
40
0
40
0
40
0.24999999999998
40
0.24999999999998
40
0.374999999999978
40
0.374999999999978
40
0.499999999999977
40
0.499999999999977
40
0.750000000000041
40
0.750000000000041
40
0.87500000000002
40
0.87500000000002
40
1
40
1
40
1
40
1
41
1
10
238.860022874135
20
10.0667579109944
30
0
41
1
10
238.854702324299
20
10.066479072793
30
0
41
1
10
238.855966268519
20
10.0767375249247
30
0
41
1
10
238.871231364178
20
10.1051558557887
30
0
41
1
10
238.87859001865
20
10.1166603645629
30
0
41
1
10
238.898532277838
20
10.142158724141
30
0
41
1
10
238.911383358605
20
10.1564035090369
30
0
41
1
10
238.957466620205
20
10.1988705177837
30
0
41
1
10
238.999654314269
20
10.2275632569108
30
0
41
1
10
239.072943279662
20
10.2587485257923
30
0
41
1
10
239.099455393448
20
10.2674265080699
30
0
41
1
10
239.153600116221
20
10.2799080461254
30
0
41
1
10
239.181465439588
20
10.2838628684804
30
0
41
1
10
239.210133783921
20
10.2853808790945
30
0
0
SPLINE
5
2D2
100
AcDbEntity
8
1
62
256
6
ByLayer
370
13
48
1
60
0
100
AcDbSpline
70
4
71
3
72
8
73
4
40
0
40
0
40
0
40
0
40
1
40
1
40
1
40
1
41
1
10
229.564162264179
20
9.10706727254743
30
0
41
1
10
229.564560237447
20
9.10883722187884
30
0
41
1
10
229.56499357549
20
9.11059972595842
30
0
41
1
10
229.56546141318
20
9.11235497570257
30
0
0
SPLINE
5
2D3
100
AcDbEntity
8
1
62
256
6
ByLayer
370
13
48
1
60
0
100
AcDbSpline
70
4
71
3
72
18
73
14
40
0
40
0
40
0
40
0
40
0.249999999999999
40
0.249999999999999
40
0.374999999999999
40
0.374999999999999
40
0.499999999999999
40
0.499999999999999
40
0.75
40
0.75
40
0.875
40
0.875
40
1
40
1
40
1
40
1
41
1
10
249.054567032725
20
10.8013058003486
30
0
41
1
10
249.111943375315
20
10.8043127670471
30
0
41
1
10
249.16970019997
20
10.7971381874769
30
0
41
1
10
249.250998500554
20
10.7737620297003
30
0
41
1
10
249.276880972485
20
10.7639908225483
30
0
41
1
10
249.325028505424
20
10.7420464062511
30
0
41
1
10
249.347682986987
20
10.7296551354961
30
0
41
1
10
249.407671405469
20
10.6927309460074
30
0
41
1
10
249.438491628691
20
10.6678629888423
30
0
41
1
10
249.470702401286
20
10.6422232960364
30
0
41
1
10
249.479375045891
20
10.6353977632079
30
0
41
1
10
249.492458044537
20
10.6264613003936
30
0
41
1
10
249.497015172145
20
10.624219055584
30
0
41
1
10
249.499675860782
20
10.6243584963667
30
0
0
SPLINE
5
2D4
100
AcDbEntity
8
1
62
256
6
ByLayer
370
13
48
1
60
0
100
AcDbSpline
70
4
71
3
72
8
73
4
40
0
40
0
40
0
40
0
40
1
40
1
40
1
40
1
41
1
10
50.7454
20
-8.8583447620008
30
0
41
1
10
49.0787332895401
20
-8.85792950414469
30
0
41
1
10
47.4120666065878
20
-8.85739105702515
30
0
41
1
10
45.7454
20
-8.8567022864527
30
0
0
SPLINE
5
2D5
100
AcDbEntity
8
1
62
256
6
ByLayer
370
13
48
1
60
0
100
AcDbSpline
70
4
71
3
72
23
73
19
40
0
40
0
40
0
40
0
40
0.124999999999997
40
0.124999999999997
40
0.249999999999994
40
0.249999999999994
40
0.374999999999991
40
0.374999999999991
40
0.499999999999988
40
0.624999999999985
40
0.624999999999985
40
0.749999999999982
40
0.749999999999982
40
0.874999999999979
40
0.874999999999979
40
0.937499999999989
40
0.937499999999989
40
1
40
1
40
1
40
1
41
1
10
238.161276950794
20
9.01865984482077
30
0
41
1
10
238.06033093784
20
8.92620452086567
30
0
41
1
10
237.952819925729
20
8.84191128185415
30
0
41
1
10
237.723641690486
20
8.69006525096088
30
0
41
1
10
237.604309459987
20
8.62410040595663
30
0
41
1
10
237.357084459864
20
8.51202756821186
30
0
41
1
10
237.228559108206
20
8.46566524183939
30
0
41
1
10
236.963310842866
20
8.39373967230938
30
0
41
1
10
236.695251423994
20
8.34394124833213
30
0
41
1
10
236.42154126077
20
8.33673733073556
30
0
41
1
10
236.145021481745
20
8.35165621764017
30
0
41
1
10
236.008228035536
20
8.37009110098626
30
0
41
1
10
235.740322947979
20
8.42777182728847
30
0
41
1
10
235.60874923978
20
8.4670393635389
30
0
41
1
10
235.415210457198
20
8.54218878463047
30
0
41
1
10
235.351549884026
20
8.56991047199639
30
0
41
1
10
235.227904068819
20
8.62976960518515
30
0
41
1
10
235.167637835592
20
8.66201187532545
30
0
41
1
10
235.108951413127
20
8.69651888912972
30
0
0
SPLINE
5
2D6
100
AcDbEntity
8
1
62
256
6
ByLayer
370
13
48
1
60
0
100
AcDbSpline
70
4
71
3
72
16
73
12
40
0
40
0
40
0
40
0
40
0.250000000000006
40
0.250000000000006
40
0.500000000000013
40
0.500000000000013
40
0.625000000000009
40
0.625000000000009
40
0.750000000000006
40
0.750000000000006
40
1
40
1
40
1
40
1
41
1
10
234.439353356133
20
7.77544357305433
30
0
41
1
10
234.881400870099
20
7.71836892694623
30
0
41
1
10
235.321106236123
20
7.68892474203614
30
0
41
1
10
236.196054673142
20
7.68168277580955
30
0
41
1
10
236.6312949064
20
7.70390992349937
30
0
41
1
10
237.280603617054
20
7.7751848216453
30
0
41
1
10
237.496444381026
20
7.80528256278907
30
0
41
1
10
237.926858506072
20
7.87821045469866
30
0
41
1
10
238.141733976066
20
7.92113520149735
30
0
41
1
10
238.778835716848
20
8.06786381180436
30
0
41
1
10
239.195202118575
20
8.18977424263343
30
0
41
1
10
239.602934522374
20
8.33513544369984
30
0
0
SPLINE
5
2D7
100
AcDbEntity
8
1
62
256
6
ByLayer
370
13
48
1
60
0
100
AcDbSpline
70
4
71
3
72
10
73
6
40
0
40
0
40
0
40
0
40
0.5
40
0.5
40
1
40
1
40
1
40
1
41
1
10
233.788130505833
20
8.88600204396511
30
0
41
1
10
233.840495289289
20
9.07959709344945
30
0
41
1
10
233.8836798915
20
9.27466104293543
30
0
41
1
10
233.948353727516
20
9.66826036865061
30
0
41
1
10
233.969883059494
20
9.86678932886218
30
0
41
1
10
233.977908542911
20
10.0674790092864
30
0
0
SPLINE
5
2D8
100
AcDbEntity
8
1
62
256
6
ByLayer
370
13
48
1
60
0
100
AcDbSpline
70
4
71
3
72
14
73
10
40
0
40
0
40
0
40
0
40
0.499999999999961
40
0.499999999999961
40
0.74999999999998
40
0.74999999999998
40
0.87499999999999
40
0.87499999999999
40
1
40
1
40
1
40
1
41
1
10
241.478366613709
20
10.3719516272429
30
0
41
1
10
241.636970997127
20
10.3228600947849
30
0
41
1
10
241.795313164593
20
10.2898155400437
30
0
41
1
10
242.034155969918
20
10.260830603219
30
0
41
1
10
242.113980872772
20
10.254652098975
30
0
41
1
10
242.234206325107
20
10.2505512909775
30
0
41
1
10
242.274362798394
20
10.2500476813651
30
0
41
1
10
242.354868354884
20
10.2507833217829
30
0
41
1
10
242.395457432867
20
10.2520421850181
30
0
41
1
10
242.435190009808
20
10.2541244811407
30
0
0
SPLINE
5
2D9
100
AcDbEntity
8
1
62
256
6
ByLayer
370
13
48
1
60
0
100
AcDbSpline
70
4
71
3
72
10
73
6
40
0
40
0
40
0
40
0
40
0.5
40
0.5
40
1
40
1
40
1
40
1
41
1
10
232.159972827662
20
6.9269022217679
30
0
41
1
10
231.72245533735
20
7.19287721340248
30
0
41
1
10
231.268958868083
20
7.43746159242215
30
0
41
1
10
230.337717024472
20
7.89416901883996
30
0
41
1
10
229.859897253569
20
8.10619247364372
30
0
41
1
10
229.371998938027
20
8.30472406237161
30
0
0
SPLINE
5
2DA
100
AcDbEntity
8
1
62
256
6
ByLayer
370
13
48
1
60
0
100
AcDbSpline
70
4
71
3
72
8
73
4
40
0
40
0
40
0
40
0
40
1
40
1
40
1
40
1
41
1
10
46.1954
20
-24.0261010103079
30
0
41
1
10
46.0487333326857
20
-24.0261534814672
30
0
41
1
10
45.9020666659983
20
-24.0262072567825
30
0
41
1
10
45.7554
20
-24.0262623644585
30
0
0
SPLINE
5
2DB
100
AcDbEntity
8
1
62
256
6
ByLayer
370
13
48
1
60
0
100
AcDbSpline
70
4
71
3
72
16
73
12
40
0
40
0
40
0
40
0
40
0.250000000000004
40
0.250000000000004
40
0.500000000000008
40
0.500000000000008
40
0.625000000000007
40
0.625000000000007
40
0.750000000000006
40
0.750000000000006
40
1
40
1
40
1
40
1
41
1
10
43.9903981388635
20
-24.0404711858119
30
0
41
1
10
43.6785000836865
20
-24.0405885748977
30
0
41
1
10
43.3713253885346
20
-24.0627276642592
30
0
41
1
10
42.7657930657368
20
-24.1481136172466
30
0
41
1
10
42.467438396037
20
-24.211374271705
30
0
41
1
10
42.0263413238089
20
-24.3362668094966
30
0
41
1
10
41.8799354670941
20
-24.3831028478936
30
0
41
1
10
41.5936824699894
20
-24.4851067629556
30
0
41
1
10
41.4533638214512
20
-24.5403742800004
30
0
41
1
10
41.0403209690177
20
-24.7181980465599
30
0
41
1
10
40.7754809027087
20
-24.8527315234617
30
0
41
1
10
40.520232580793
20
-25.0018363472459
30
0
0
SPLINE
5
2DC
100
AcDbEntity
8
1
62
256
6
ByLayer
370
13
48
1
60
0
100
AcDbSpline
70
4
71
3
72
30
73
26
40
0
40
0
40
0
40
0
40
0.0624999999999998
40
0.0624999999999998
40
0.0937499999999998
40
0.0937499999999998
40
0.125
40
0.125
40
0.1875
40
0.1875
40
0.249999999999999
40
0.249999999999999
40
0.312499999999999
40
0.312499999999999
40
0.374999999999999
40
0.374999999999999
40
0.499999999999999
40
0.499999999999999
40
0.624999999999999
40
0.624999999999999
40
0.75
40
0.75
40
0.875
40
0.875
40
1
40
1
40
1
40
1
41
1
10
128.71196
20
24.4858025115689
30
0
41
1
10
127.094381684806
20
24.4984540957955
30
0
41
1
10
125.474901143732
20
24.5083055437113
30
0
41
1
10
123.042486709105
20
24.5208141217463
30
0
41
1
10
122.231139076009
20
24.5245964823628
30
0
41
1
10
120.607356056309
20
24.5316410206571
30
0
41
1
10
119.794929050465
20
24.5349102595768
30
0
41
1
10
117.358087771359
20
24.5442668903471
30
0
41
1
10
115.733458381621
20
24.5499255772824
30
0
41
1
10
112.484128745451
20
24.5608786864234
30
0
41
1
10
110.859430050396
20
24.5661581528476
30
0
41
1
10
107.610023823444
20
24.5766722656016
30
0
41
1
10
105.985312596347
20
24.5818831411106
30
0
41
1
10
102.735888713782
20
24.5922923546113
30
0
41
1
10
101.111175821161
20
24.597489547843
30
0
41
1
10
96.2370396763776
20
24.6130907422537
30
0
41
1
10
92.9876207130726
20
24.6235150801997
30
0
41
1
10
86.4888096097072
20
24.6445329183818
30
0
41
1
10
83.2394090568194
20
24.6551022461558
30
0
41
1
10
76.7406026456613
20
24.6762228100452
30
0
41
1
10
73.491199626762
20
24.6867778474416
30
0
41
1
10
66.9923960358562
20
24.707815835
30
0
41
1
10
63.7429971364764
20
24.7182920386738
30
0
41
1
10
57.244199874422
20
24.7392408968737
30
0
41
1
10
53.9948004527804
20
24.7497226279922
30
0
41
1
10
50.7454000000001
20
24.760215695236
30
0
0
SPLINE
5
2DD
100
AcDbEntity
8
1
62
256
6
ByLayer
370
13
48
1
60
0
100
AcDbSpline
70
4
71
3
72
24
73
20
40
0
40
0
40
0
40
0
40
0.125000000000016
40
0.125000000000016
40
0.250000000000033
40
0.250000000000033
40
0.375000000000049
40
0.375000000000049
40
0.500000000000066
40
0.500000000000066
40
0.562500000000073
40
0.562500000000073
40
0.625000000000081
40
0.625000000000081
40
0.750000000000054
40
0.750000000000054
40
0.875000000000027
40
0.875000000000027
40
1
40
1
40
1
40
1
41
1
10
233.638741218132
20
7.32656548405109
30
0
41
1
10
233.59792120309
20
7.26364775281843
30
0
41
1
10
233.553176206665
20
7.20331796315838
30
0
41
1
10
233.454327446527
20
7.08887676100343
30
0
41
1
10
233.401241660743
20
7.03598730563149
30
0
41
1
10
233.287441425925
20
6.94072023379263
30
0
41
1
10
233.225983689386
20
6.89786745058564
30
0
41
1
10
233.096775857805
20
6.82674972961738
30
0
41
1
10
233.029810117189
20
6.79875718354049
30
0
41
1
10
232.925535623446
20
6.76933112312528
30
0
41
1
10
232.889952574603
20
6.76162504395305
30
0
41
1
10
232.819378533073
20
6.75093982264022
30
0
41
1
10
232.784190831181
20
6.74788267554695
30
0
41
1
10
232.678919938436
20
6.74527293911618
30
0
41
1
10
232.608321912577
20
6.75251495692174
30
0
41
1
10
232.472465945379
20
6.7819239389238
30
0
41
1
10
232.407222209629
20
6.80379232558417
30
0
41
1
10
232.280635273687
20
6.85822263952395
30
0
41
1
10
232.21902402328
20
6.89100390545264
30
0
41
1
10
232.159972827662
20
6.92690222176776
30
0
0
SPLINE
5
2DE
100
AcDbEntity
8
1
62
256
6
ByLayer
370
13
48
1
60
0
100
AcDbSpline
70
4
71
3
72
14
73
10
40
0
40
0
40
0
40
0
40
0.25
40
0.25
40
0.5
40
0.5
40
0.75
40
0.75
40
1
40
1
40
1
40
1
41
1
10
238.056399543143
20
9.92409705006077
30
0
41
1
10
238.084015734161
20
9.91684422071759
30
0
41
1
10
238.108846305561
20
9.90829856080393
30
0
41
1
10
238.150586643865
20
9.88948495813506
30
0
41
1
10
238.16808097267
20
9.87893298664252
30
0
41
1
10
238.194367483605
20
9.85686827289476
30
0
41
1
10
238.203320024573
20
9.84538932169841
30
0
41
1
10
238.213401406737
20
9.82159766651736
30
0
41
1
10
238.214374349004
20
9.80927340498036
30
0
41
1
10
238.211632509096
20
9.79724803402422
30
0
0
SPLINE
5
2DF
100
AcDbEntity
8
1
62
256
6
ByLayer
370
13
48
1
60
0
100
AcDbSpline
70
4
71
3
72
8
73
4
40
0
40
0
40
0
40
0
40
1
40
1
40
1
40
1
41
1
10
238.091756732343
20
9.19808565381524
30
0
41
1
10
238.113191865019
20
9.22141240953249
30
0
41
1
10
238.134235739481
20
9.24516460366482
30
0
41
1
10
238.154858048494
20
9.26931390905446
30
0
0
SPLINE
5
2E0
100
AcDbEntity
8
1
62
256
6
ByLayer
370
13
48
1
60
0
100
AcDbSpline
70
4
71
3
72
8
73
4
40
0
40
0
40
0
40
0
40
1
40
1
40
1
40
1
41
1
10
231.728028242387
20
2.04110882479594
30
0
41
1
10
232.834999161672
20
1.79747552369707
30
0
41
1
10
233.950684062971
20
1.57489293532296
30
0
41
1
10
235.082542498526
20
1.39138139653923
30
0
0
SPLINE
5
2E1
100
AcDbEntity
8
1
62
256
6
ByLayer
370
13
48
1
60
0
100
AcDbSpline
70
4
71
3
72
10
73
6
40
0
40
0
40
0
40
0
40
0.5
40
0.5
40
1
40
1
40
1
40
1
41
1
10
223.164321930513
20
3.26506883393881
30
0
41
1
10
223.64667689881
20
3.11634849522187
30
0
41
1
10
224.128315426812
20
2.97503988898748
30
0
41
1
10
225.087830102569
20
2.70968208824314
30
0
41
1
10
225.565961106934
20
2.58555024092726
30
0
41
1
10
226.04226079699
20
2.47104270525509
30
0
0
SPLINE
5
2E2
100
AcDbEntity
8
1
62
256
6
ByLayer
370
13
48
1
60
0
100
AcDbSpline
70
4
71
3
72
18
73
14
40
0
40
0
40
0
40
0
40
0.124999999999996
40
0.124999999999996
40
0.249999999999992
40
0.249999999999992
40
0.499999999999994
40
0.499999999999994
40
0.749999999999995
40
0.749999999999995
40
0.874999999999998
40
0.874999999999998
40
1
40
1
40
1
40
1
41
1
10
229.56546141318
20
9.11235497570257
30
0
41
1
10
229.583309388599
20
9.17931763168801
30
0
41
1
10
229.600640950977
20
9.25003063322919
30
0
41
1
10
229.634591455267
20
9.39900174448201
30
0
41
1
10
229.651308326961
20
9.47782049743296
30
0
41
1
10
229.699404303344
20
9.71934758324213
30
0
41
1
10
229.729067255787
20
9.88831807960702
30
0
41
1
10
229.785910698211
20
10.2421917380451
30
0
41
1
10
229.811772067465
20
10.4197571518784
30
0
41
1
10
229.850310278594
20
10.6849458091006
30
0
41
1
10
229.863215218685
20
10.7737635197945
30
0
41
1
10
229.889960038151
20
10.946493268299
30
0
41
1
10
229.903715825603
20
11.0308152026693
30
0
41
1
10
229.920060450341
20
11.1126591833108
30
0
0
SPLINE
5
2E3
100
AcDbEntity
8
1
62
256
6
ByLayer
370
13
48
1
60
0
100
AcDbSpline
70
4
71
3
72
14
73
10
40
0
40
0
40
0
40
0
40
0.25
40
0.25
40
0.5
40
0.5
40
0.75
40
0.75
40
1
40
1
40
1
40
1
41
1
10
233.97790854291
20
10.0674790092861
30
0
41
1
10
233.948546391146
20
10.1420872051072
30
0
41
1
10
233.922341099288
20
10.2200901708156
30
0
41
1
10
233.87770512765
20
10.3834374457242
30
0
41
1
10
233.860007508915
20
10.4661211832566
30
0
41
1
10
233.833884915739
20
10.6334825997744
30
0
41
1
10
233.82545913402
20
10.7181601910018
30
0
41
1
10
233.818159494734
20
10.8895327712277
30
0
41
1
10
233.81938503998
20
10.9737158729741
30
0
41
1
10
233.824956023527
20
11.0565346036681
30
0
0
SPLINE
5
2E4
100
AcDbEntity
8
1
62
256
6
ByLayer
370
13
48
1
60
0
100
AcDbSpline
70
4
71
3
72
26
73
22
40
0
40
0
40
0
40
0
40
0.062499999999999
40
0.062499999999999
40
0.093749999999999
40
0.093749999999999
40
0.124999999999999
40
0.124999999999999
40
0.156249999999999
40
0.156249999999999
40
0.187499999999999
40
0.187499999999999
40
0.249999999999999
40
0.249999999999999
40
0.312499999999999
40
0.312499999999999
40
0.374999999999999
40
0.374999999999999
40
0.499999999999999
40
0.499999999999999
40
1
40
1
40
1
40
1
41
1
10
128.71196
20
-24.4590956846403
30
0
41
1
10
127.09358623903
20
-24.454700546713
30
0
41
1
10
125.473555221566
20
-24.4507210175801
30
0
41
1
10
123.040742693093
20
-24.4475717029687
30
0
41
1
10
122.229335975855
20
-24.4469970982319
30
0
41
1
10
120.605578517048
20
-24.4470199334246
30
0
41
1
10
119.793238115482
20
-24.4475964149156
30
0
41
1
10
118.168773734794
20
-24.4497395908267
30
0
41
1
10
117.356513914111
20
-24.4512986663945
30
0
41
1
10
115.731962856701
20
-24.4549970655607
30
0
41
1
10
114.919672346069
20
-24.4571211295032
30
0
41
1
10
112.48276827054
20
-24.4641046336393
30
0
41
1
10
110.858121997848
20
-24.4695790506131
30
0
41
1
10
107.608801555608
20
-24.481051699024
30
0
41
1
10
105.984126694382
20
-24.4870600066597
30
0
41
1
10
102.734798298256
20
-24.4986720660783
30
0
41
1
10
101.11013317329
20
-24.504293286308
30
0
41
1
10
96.2361306871106
20
-24.5208506498838
30
0
41
1
10
92.986790305916
20
-24.5315239324097
30
0
41
1
10
76.7400983025971
20
-24.5855581343573
30
0
41
1
10
63.7427529558098
20
-24.6293558076889
30
0
41
1
10
50.7454
20
-24.6725744992096
30
0
0
SPLINE
5
2E5
100
AcDbEntity
8
1
62
256
6
ByLayer
370
13
48
1
60
0
100
AcDbSpline
70
4
71
3
72
14
73
10
40
0
40
0
40
0
40
0
40
0.25
40
0.25
40
0.5
40
0.5
40
0.75
40
0.75
40
1
40
1
40
1
40
1
41
1
10
251.222571020929
20
0.611446119031655
30
0
41
1
10
251.223684132076
20
0.662180150693672
30
0
41
1
10
251.225667579427
20
0.709524127661155
30
0
41
1
10
251.231257990679
20
0.793948014181922
30
0
41
1
10
251.234789103002
20
0.830117665088608
30
0
41
1
10
251.243248292473
20
0.888954489241513
30
0
41
1
10
251.247985173324
20
0.910414389297642
30
0
41
1
10
251.258494535813
20
0.937087260793732
30
0
41
1
10
251.264004881332
20
0.941598870214364
30
0
41
1
10
251.269738066767
20
0.937161523197318
30
0
0
SPLINE
5
2E6
100
AcDbEntity
8
1
62
256
6
ByLayer
370
13
48
1
60
0
100
AcDbSpline
70
4
71
3
72
56
73
52
40
0
40
0
40
0
40
0
40
0.0625000000000057
40
0.0625000000000057
40
0.0781250000000069
40
0.0781250000000069
40
0.0937500000000081
40
0.0937500000000081
40
0.12500000000001
40
0.12500000000001
40
0.156250000000013
40
0.156250000000013
40
0.171875000000014
40
0.171875000000014
40
0.179687500000014
40
0.179687500000014
40
0.187500000000014
40
0.187500000000014
40
0.203125000000014
40
0.203125000000014
40
0.218750000000014
40
0.218750000000014
40
0.250000000000014
40
0.250000000000014
40
0.312500000000014
40
0.312500000000014
40
0.343750000000013
40
0.343750000000013
40
0.375000000000013
40
0.375000000000013
40
0.437500000000011
40
0.437500000000011
40
0.46875000000001
40
0.46875000000001
40
0.500000000000009
40
0.500000000000009
40
0.625000000000006
40
0.625000000000006
40
0.687500000000005
40
0.687500000000005
40
0.750000000000004
40
0.750000000000004
40
0.781250000000004
40
0.781250000000004
40
0.812500000000003
40
0.812500000000003
40
0.875000000000002
40
0.875000000000002
40
0.937500000000001
40
0.937500000000001
40
1
40
1
40
1
40
1
41
1
10
222.646071554001
20
-24.4025012156332
30
0
41
1
10
220.61369395332
20
-24.3757983003442
30
0
41
1
10
218.571069867084
20
-24.3542651848665
30
0
41
1
10
216.019264689417
20
-24.323893117832
30
0
41
1
10
215.50896902832
20
-24.3175978050704
30
0
41
1
10
214.489002144838
20
-24.3039320102621
30
0
41
1
10
213.979279406511
20
-24.2965589716974
30
0
41
1
10
212.454801356651
20
-24.2717004881859
30
0
41
1
10
211.444082073963
20
-24.2515811347635
30
0
41
1
10
209.443445471143
20
-24.1959752931877
30
0
41
1
10
208.453463809932
20
-24.1606608010349
30
0
41
1
10
206.992263831707
20
-24.0854368383312
30
0
41
1
10
206.509128818524
20
-24.0566337466688
30
0
41
1
10
205.792313288205
20
-24.0050261385099
30
0
41
1
10
205.554699917664
20
-23.9864030077411
30
0
41
1
10
205.081925816556
20
-23.9461546944313
30
0
41
1
10
204.846751630056
20
-23.9245266724234
30
0
41
1
10
204.142012627693
20
-23.8571081922113
30
0
41
1
10
203.673360877686
20
-23.8086961590656
30
0
41
1
10
202.735979892578
20
-23.706706785502
30
0
41
1
10
202.267275454855
20
-23.653110890968
30
0
41
1
10
200.860740605949
20
-23.4852647840255
30
0
41
1
10
199.922550281317
20
-23.3639343677781
30
0
41
1
10
197.109610577643
20
-22.9698646142339
30
0
41
1
10
195.236233721969
20
-22.6670064930907
30
0
41
1
10
192.425828014646
20
-22.1544119800608
30
0
41
1
10
191.48892820077
20
-21.9738629556658
30
0
41
1
10
189.613566335789
20
-21.5948197621253
30
0
41
1
10
188.67523152396
20
-21.3963403340989
30
0
41
1
10
185.859330822988
20
-20.7774311133217
30
0
41
1
10
183.979566549282
20
-20.3332327848231
30
0
41
1
10
181.144632036753
20
-19.6403768407439
30
0
41
1
10
180.19718504431
20
-19.4049796952535
30
0
41
1
10
178.296447712042
20
-18.9280036451398
30
0
41
1
10
177.34282347469
20
-18.6863574305573
30
0
41
1
10
172.562627619558
20
-17.4707487139361
30
0
41
1
10
168.701620007557
20
-16.4738690750872
30
0
41
1
10
162.836911316062
20
-15.0419505728311
30
0
41
1
10
160.872493150266
20
-14.5758687577376
30
0
41
1
10
156.924915105407
20
-13.682666106156
30
0
41
1
10
154.941261576755
20
-13.2556109000089
30
0
41
1
10
151.949327248314
20
-12.6556412115181
30
0
41
1
10
150.948998979606
20
-12.4621536644068
30
0
41
1
10
148.945813714495
20
-12.0889919512956
30
0
41
1
10
147.942760229028
20
-11.909286702664
30
0
41
1
10
144.929393364022
20
-11.3907604265154
30
0
41
1
10
142.914923871496
20
-11.0722828507764
30
0
41
1
10
138.875749851788
20
-10.4887709893203
30
0
41
1
10
136.850954552453
20
-10.224229343594
30
0
41
1
10
132.790241976386
20
-9.75698844544252
30
0
41
1
10
130.75427507544
20
-9.55457885297065
30
0
41
1
10
128.71196
20
-9.38912507338631
30
0
0
SPLINE
5
2E7
100
AcDbEntity
8
1
62
256
6
ByLayer
370
13
48
1
60
0
100
AcDbSpline
70
4
71
3
72
14
73
10
40
0
40
0
40
0
40
0
40
0.25
40
0.25
40
0.5
40
0.5
40
0.75
40
0.75
40
1
40
1
40
1
40
1
41
1
10
231.593835412463
20
11.1424473328555
30
0
41
1
10
231.793495484682
20
11.1046285955576
30
0
41
1
10
231.987526626438
20
11.078287634432
30
0
41
1
10
232.368861605049
20
11.0418095769037
30
0
41
1
10
232.556123761006
20
11.0315828510562
30
0
41
1
10
232.92618999811
20
11.0223530545448
30
0
41
1
10
233.109248633303
20
11.0233940771032
30
0
41
1
10
233.47082472264
20
11.034009859458
30
0
41
1
10
233.64890305104
20
11.0435738893901
30
0
41
1
10
233.824956023527
20
11.0565346036681
30
0
0
SPLINE
5
2E8
100
AcDbEntity
8
1
62
256
6
ByLayer
370
13
48
1
60
0
100
AcDbSpline
70
4
71
3
72
8
73
4
40
0
40
0
40
0
40
0
40
1
40
1
40
1
40
1
41
1
10
231.332354987787
20
11.1641475835608
30
0
41
1
10
231.418987844911
20
11.1646047392264
30
0
41
1
10
231.50656359208
20
11.1599268646283
30
0
41
1
10
231.593835412463
20
11.1424473328548
30
0
0
SPLINE
5
2E9
100
AcDbEntity
8
1
62
256
6
ByLayer
370
13
48
1
60
0
100
AcDbSpline
70
4
71
3
72
8
73
4
40
0
40
0
40
0
40
0
40
1
40
1
40
1
40
1
41
1
10
230.137764041224
20
11.2345812335794
30
0
41
1
10
230.535396798126
20
11.24792922153
30
0
41
1
10
230.917121704359
20
11.2279068910464
30
0
41
1
10
231.283149742153
20
11.173514830225
30
0
0
SPLINE
5
2EA
100
AcDbEntity
8
1
62
256
6
ByLayer
370
13
48
1
60
0
100
AcDbSpline
70
4
71
3
72
8
73
4
40
0
40
0
40
0
40
0
40
1
40
1
40
1
40
1
41
1
10
45.7454
20
-24.6724602846373
30
0
41
1
10
45.1596869691302
20
-24.6724432578243
30
0
41
1
10
44.5746872956945
20
-24.6878559254234
30
0
41
1
10
43.9903981435208
20
-24.718637178536
30
0
0
SPLINE
5
2EB
100
AcDbEntity
8
1
62
256
6
ByLayer
370
13
48
1
60
0
100
AcDbSpline
70
4
71
3
72
8
73
4
40
0
40
0
40
0
40
0
40
1
40
1
40
1
40
1
41
1
10
251.223438806781
20
0.470441950893445
30
0
41
1
10
251.221854151758
20
0.518490032355402
30
0
41
1
10
251.221582916749
20
0.566409728096147
30
0
41
1
10
251.222571020929
20
0.611446119031655
30
0
0
SPLINE
5
2EC
100
AcDbEntity
8
1
62
256
6
ByLayer
370
13
48
1
60
0
100
AcDbSpline
70
4
71
3
72
10
73
6
40
0
40
0
40
0
40
0
40
0.5
40
0.5
40
1
40
1
40
1
40
1
41
1
10
233.824956023528
20
11.0565346036681
30
0
41
1
10
233.827969389717
20
11.123215379465
30
0
41
1
10
233.83394791785
20
11.1897632644765
30
0
41
1
10
233.851790023986
20
11.322594661836
30
0
41
1
10
233.863605231999
20
11.3882686573471
30
0
41
1
10
233.877833142457
20
11.4520742837776
30
0
0
SPLINE
5
2ED
100
AcDbEntity
8
1
62
256
6
ByLayer
370
13
48
1
60
0
100
AcDbSpline
70
4
71
3
72
26
73
22
40
0
40
0
40
0
40
0
40
0.0624999999999999
40
0.0624999999999999
40
0.125
40
0.125
40
0.1875
40
0.1875
40
0.249999999999999
40
0.249999999999999
40
0.312499999999999
40
0.312499999999999
40
0.374999999999999
40
0.374999999999999
40
0.499999999999999
40
0.499999999999999
40
0.625
40
0.625
40
0.75
40
0.75
40
1
40
1
40
1
40
1
41
1
10
128.71196
20
-9.38912507338631
30
0
41
1
10
127.09296424145
20
-9.2582875268333
30
0
41
1
10
125.472393428335
20
-9.15079835480492
30
0
41
1
10
122.227810609326
20
-8.98792713229696
30
0
41
1
10
120.603419481962
20
-8.93207522000966
30
0
41
1
10
117.354500694753
20
-8.85932363768799
30
0
41
1
10
115.7299566309
20
-8.8429575615863
30
0
41
1
10
112.480787810055
20
-8.82948069979349
30
0
41
1
10
110.856166916574
20
-8.83142814565406
30
0
41
1
10
107.606912029682
20
-8.83844753582252
30
0
41
1
10
105.982277204803
20
-8.84371503892328
30
0
41
1
10
102.733023438242
20
-8.85046653502724
30
0
41
1
10
101.108401373434
20
-8.85269474607261
30
0
41
1
10
96.2345482993334
20
-8.85625526093438
30
0
41
1
10
92.9853268717359
20
-8.85530527836065
30
0
41
1
10
86.486877775013
20
-8.85488841142077
30
0
41
1
10
83.2376531603244
20
-8.85468201088077
30
0
41
1
10
76.7392026093392
20
-8.8553622371268
30
0
41
1
10
73.4899768398033
20
-8.85609939112655
30
0
41
1
10
63.7422997604928
20
-8.85811979136486
30
0
41
1
10
57.2438487209564
20
-8.85917971795988
30
0
41
1
10
50.7454
20
-8.85834476200085
30
0
0
SPLINE
5
2EE
100
AcDbEntity
8
1
62
256
6
ByLayer
370
13
48
1
60
0
100
AcDbSpline
70
4
71
3
72
10
73
6
40
0
40
0
40
0
40
0
40
0.5
40
0.5
40
1
40
1
40
1
40
1
41
1
10
226.311129210669
20
1.05060318504749
30
0
41
1
10
226.764155338371
20
0.744681167892395
30
0
41
1
10
227.23636714658
20
0.482798590710416
30
0
41
1
10
228.221094994098
20
0.0517045639217883
30
0
41
1
10
228.733528655023
20
-0.117696603411446
30
0
41
1
10
229.268906212139
20
-0.234285160375094
30
0
0
SPLINE
5
2EF
100
AcDbEntity
8
1
62
256
6
ByLayer
370
13
48
1
60
0
100
AcDbSpline
70
4
71
3
72
8
73
4
40
0
40
0
40
0
40
0
40
1
40
1
40
1
40
1
41
1
10
-2.84E-14
20
-26.7613352297609
30
0
41
1
10
0.166657416166501
20
-26.9067424437056
30
0
41
1
10
0.333324220354257
20
-27.0521415880536
30
0
41
1
10
0.499999999999972
20
-27.197533014896
30
0
0
SPLINE
5
2F0
100
AcDbEntity
8
1
62
256
6
ByLayer
370
13
48
1
60
0
100
AcDbSpline
70
4
71
3
72
8
73
4
40
0
40
0
40
0
40
0
40
1
40
1
40
1
40
1
41
1
10
232.268906212144
20
-24.6552697137672
30
0
41
1
10
231.268906211417
20
-24.5710135562744
30
0
41
1
10
230.268906211409
20
-24.4867573903184
30
0
41
1
10
229.268906212144
20
-24.4025012156333
30
0
0
SPLINE
5
2F1
100
AcDbEntity
8
1
62
256
6
ByLayer
370
13
48
1
60
0
100
AcDbSpline
70
4
71
3
72
18
73
14
40
0
40
0
40
0
40
0
40
0.250000000000045
40
0.250000000000045
40
0.375000000000025
40
0.375000000000025
40
0.500000000000005
40
0.500000000000005
40
0.749999999999966
40
0.749999999999966
40
0.874999999999983
40
0.874999999999983
40
1
40
1
40
1
40
1
41
1
10
251.289567655581
20
9.56629978721679
30
0
41
1
10
251.144875923815
20
9.58651145362518
30
0
41
1
10
251.004751795338
20
9.61751029839712
30
0
41
1
10
250.797974626111
20
9.68034738061999
30
0
41
1
10
250.729420958909
20
9.70415462990195
30
0
41
1
10
250.594982567084
20
9.75695740951153
30
0
41
1
10
250.528990461893
20
9.78596353080468
30
0
41
1
10
250.334441665857
20
9.88107939549707
30
0
41
1
10
250.209278085842
20
9.95514589563066
30
0
41
1
10
250.028160708664
20
10.0853589345997
30
0
41
1
10
249.968773934691
20
10.1321511686152
30
0
41
1
10
249.855173860774
20
10.2305407371953
30
0
41
1
10
249.800610565145
20
10.2823633433123
30
0
41
1
10
249.748396423833
20
10.3369816849389
30
0
0
SPLINE
5
2F2
100
AcDbEntity
8
1
62
256
6
ByLayer
370
13
48
1
60
0
100
AcDbSpline
70
4
71
3
72
10
73
6
40
0
40
0
40
0
40
0
40
0.484702838500759
40
0.484702838500759
40
1
40
1
40
1
40
1
41
1
10
46.1954
20
-24.0261010664786
30
0
41
1
10
46.1954
20
-22.3790467088127
30
0
41
1
10
46.1954
20
-20.7319923545261
30
0
41
1
10
46.1954
20
-17.3339219904163
30
0
41
1
10
46.1954
20
-15.5829059810329
30
0
41
1
10
46.1954
20
-13.8318899754643
30
0
0
SPLINE
5
2F3
100
AcDbEntity
8
1
62
256
6
ByLayer
370
13
48
1
60
0
100
AcDbSpline
70
4
71
3
72
10
73
6
40
0
40
0
40
0
40
0
40
0.5
40
0.5
40
1
40
1
40
1
40
1
41
1
10
246.794842717521
20
10.6505763334551
30
0
41
1
10
246.820706601916
20
10.6622997204616
30
0
41
1
10
246.848619114751
20
10.6719519995525
30
0
41
1
10
246.906010755748
20
10.6858636761023
30
0
41
1
10
246.93561721553
20
10.690239735003
30
0
41
1
10
246.966142502323
20
10.6918560721258
30
0
0
SPLINE
5
2F4
100
AcDbEntity
8
1
62
256
6
ByLayer
370
13
48
1
60
0
100
AcDbSpline
70
4
71
3
72
8
73
4
40
0
40
0
40
0
40
0
40
1
40
1
40
1
40
1
41
1
10
45.7554
20
-24.0398069132046
30
0
41
1
10
45.1670660461609
20
-24.0400280895164
30
0
41
1
10
44.578732092572
20
-24.0402497545338
30
0
41
1
10
43.9903981388635
20
-24.0404711858119
30
0
0
SPLINE
5
2F5
100
AcDbEntity
8
1
62
256
6
ByLayer
370
13
48
1
60
0
100
AcDbSpline
70
4
71
3
72
8
73
4
40
0
40
0
40
0
40
0
40
1
40
1
40
1
40
1
41
1
10
226.26425930347
20
22.8920141925571
30
0
41
1
10
226.534037410106
20
23.3466849434807
30
0
41
1
10
226.796243030473
20
23.8056838874091
30
0
41
1
10
227.051636334883
20
24.2685765351001
30
0
0
SPLINE
5
2F6
100
AcDbEntity
8
1
62
256
6
ByLayer
370
13
48
1
60
0
100
AcDbSpline
70
4
71
3
72
18
73
14
40
0
40
0
40
0
40
0
40
0.125
40
0.125
40
0.25
40
0.25
40
0.375
40
0.375
40
0.5
40
0.5
40
0.75
40
0.75
40
1
40
1
40
1
40
1
41
1
10
5.49999999999997
20
-27.197533014896
30
0
41
1
10
5.5331183619886
20
-27.197533014896
30
0
41
1
10
5.56567694370481
20
-27.1995026580579
30
0
41
1
10
5.62972133566616
20
-27.2072122555809
30
0
41
1
10
5.66154354218739
20
-27.2130480694634
30
0
41
1
10
5.72214649856302
20
-27.2282429091525
30
0
41
1
10
5.75087897885176
20
-27.2375315286339
30
0
41
1
10
5.8052384884854
20
-27.259437487858
30
0
41
1
10
5.83093052062634
20
-27.272154639518
30
0
41
1
10
5.89997612824273
20
-27.3137174239843
30
0
41
1
10
5.93710206073182
20
-27.3470902458003
30
0
41
1
10
5.98680620220951
20
-27.4186740847385
30
0
41
1
10
5.99999999999997
20
-27.4575544853432
30
0
41
1
10
5.99999999999997
20
-27.4965076027926
30
0
0
SPLINE
5
2F7
100
AcDbEntity
8
1
62
256
6
ByLayer
370
13
48
1
60
0
100
AcDbSpline
70
4
71
3
72
8
73
4
40
0
40
0
40
0
40
0
40
1
40
1
40
1
40
1
41
1
10
227.228120834702
20
1.92756628457948
30
0
41
1
10
226.846869712398
20
2.09417651373502
30
0
41
1
10
226.471080059086
20
2.26527291926095
30
0
41
1
10
226.101622534115
20
2.44254572939022
30
0
0
SPLINE
5
2F8
100
AcDbEntity
8
1
62
256
6
ByLayer
370
13
48
1
60
0
100
AcDbSpline
70
4
71
3
72
16
73
12
40
0
40
0
40
0
40
0
40
0.25
40
0.25
40
0.375
40
0.375
40
0.5
40
0.5
40
0.75
40
0.75
40
1
40
1
40
1
40
1
41
1
10
227.228579867102
20
1.92736570840688
30
0
41
1
10
227.47532144132
20
1.81956445921412
30
0
41
1
10
227.727059767116
20
1.73127182489421
30
0
41
1
10
228.112238199456
20
1.62742510863171
30
0
41
1
10
228.241897332006
20
1.59759816148446
30
0
41
1
10
228.503816080223
20
1.54768016535166
30
0
41
1
10
228.636644926918
20
1.52753386853416
30
0
41
1
10
229.034674655871
20
1.4826669688361
30
0
41
1
10
229.298298950897
20
1.47334413568564
30
0
41
1
10
229.822249804168
20
1.49436785132565
30
0
41
1
10
230.082575753548
20
1.52472140108026
30
0
41
1
10
230.341076432668
20
1.57550224835029
30
0
0
SPLINE
5
2F9
100
AcDbEntity
8
1
62
256
6
ByLayer
370
13
48
1
60
0
100
AcDbSpline
70
4
71
1
72
4
73
2
40
0
40
0
40
1
40
1
41
1
10
46.1954
20
-13.8318899756554
30
0
41
1
10
45.7554
20
-13.8318899756554
30
0
0
SPLINE
5
2FA
100
AcDbEntity
8
1
62
256
6
ByLayer
370
13
48
1
60
0
100
AcDbSpline
70
4
71
3
72
8
73
4
40
0
40
0
40
0
40
0
40
1
40
1
40
1
40
1
41
1
10
50.7454
20
-24.6725744992096
30
0
41
1
10
49.0787333075527
20
-24.6725460685153
30
0
41
1
10
47.4120666305875
20
-24.6725087350209
30
0
41
1
10
45.7454
20
-24.6724602846372
30
0
0
SPLINE
5
2FB
100
AcDbEntity
8
1
62
256
6
ByLayer
370
13
48
1
60
0
100
AcDbSpline
70
4
71
1
72
4
73
2
40
0
40
0
40
1
40
1
41
1
10
45.7553999987075
20
-24.0262623644586
30
0
41
1
10
45.7554000012925
20
-24.0398069131898
30
0
0
SPLINE
5
2FC
100
AcDbEntity
8
1
62
256
6
ByLayer
370
13
48
1
60
0
100
AcDbSpline
70
4
71
3
72
8
73
4
40
0
40
0
40
0
40
0
40
1
40
1
40
1
40
1
41
1
10
229.268906212143
20
-0.234285160375322
30
0
41
1
10
229.726305421407
20
-0.369043251772695
30
0
41
1
10
230.188614948386
20
-0.463442340967219
30
0
41
1
10
230.655887078893
20
-0.516069911070502
30
0
0
SPLINE
5
2FD
100
AcDbEntity
8
1
62
256
6
ByLayer
370
13
48
1
60
0
100
AcDbSpline
70
4
71
3
72
8
73
4
40
0
40
0
40
0
40
0
40
1
40
1
40
1
40
1
41
1
10
0.499999999999957
20
-31.268533014896
30
0
41
1
10
0.333324220354243
20
-31.1231415880536
30
0
41
1
10
0.166657416166501
20
-30.9777424437056
30
0
41
1
10
-2.84E-14
20
-30.8323352297609
30
0
0
SPLINE
5
2FE
100
AcDbEntity
8
1
62
256
6
ByLayer
370
13
48
1
60
0
100
AcDbSpline
70
4
71
3
72
18
73
14
40
0
40
0
40
0
40
0
40
0.125000000000001
40
0.125000000000001
40
0.156250000000001
40
0.156250000000001
40
0.187500000000001
40
0.187500000000001
40
0.250000000000002
40
0.250000000000002
40
0.500000000000002
40
0.500000000000002
40
1
40
1
40
1
40
1
41
1
10
40.5087439848265
20
-9.6561969247777
30
0
41
1
10
39.938898200818
20
-9.72713503723833
30
0
41
1
10
39.3714683796869
20
-9.80954606362499
30
0
41
1
10
38.6651863430059
20
-9.92683111588309
30
0
41
1
10
38.5240802749904
20
-9.95100205704185
30
0
41
1
10
38.2421687638158
20
-10.0007715453604
30
0
41
1
10
38.1014102691572
20
-10.0265930413536
30
0
41
1
10
37.6789517801548
20
-10.1031884758649
30
0
41
1
10
37.3972238655822
20
-10.1538298269222
30
0
41
1
10
35.9881425088246
20
-10.404938640788
30
0
41
1
10
34.859570953828
20
-10.5990988685106
30
0
41
1
10
31.4678200304552
20
-11.162199907806
30
0
41
1
10
29.1991636313574
20
-11.5116783517767
30
0
41
1
10
26.9232278275821
20
-11.8359604283202
30
0
0
SPLINE
5
2FF
100
AcDbEntity
8
1
62
256
6
ByLayer
370
13
48
1
60
0
100
AcDbSpline
70
4
71
3
72
10
73
6
40
0
40
0
40
0
40
0
40
0.753567204723711
40
0.753567204723711
40
1
40
1
40
1
40
1
41
1
10
0.5
20
-4.071
30
0
41
1
10
0.374398598796674
20
-4.071
30
0
41
1
10
0.248802294970275
20
-4.071
30
0
41
1
10
0.0821402764839974
20
-4.071
30
0
41
1
10
0.0410698531254923
20
-4.071
30
0
41
1
10
0
20
-4.071
30
0
0
SPLINE
5
300
100
AcDbEntity
8
1
62
256
6
ByLayer
370
13
48
1
60
0
100
AcDbSpline
70
4
71
3
72
12
73
8
40
0
40
0
40
0
40
0
40
0.500000000000003
40
0.500000000000003
40
0.750000000000001
40
0.750000000000001
40
1
40
1
40
1
40
1
41
1
10
43.9903981435207
20
-24.718637178536
30
0
41
1
10
43.3872889621567
20
-24.750409899794
30
0
41
1
10
42.7952998277292
20
-24.7921524656072
30
0
41
1
10
41.9233076392678
20
-24.8657670771657
30
0
41
1
10
41.6350596279528
20
-24.8921085527136
30
0
41
1
10
41.0652110667174
20
-24.9467782262472
30
0
41
1
10
40.7886728491363
20
-24.9746052383183
30
0
41
1
10
40.520232580793
20
-25.0018363472459
30
0
0
SPLINE
5
301
100
AcDbEntity
8
1
62
256
6
ByLayer
370
13
48
1
60
0
100
AcDbSpline
70
4
71
3
72
20
73
16
40
0
40
0
40
0
40
0
40
0.249999999999998
40
0.249999999999998
40
0.374999999999998
40
0.374999999999998
40
0.499999999999998
40
0.499999999999998
40
0.624999999999998
40
0.624999999999998
40
0.687499999999998
40
0.687499999999998
40
0.749999999999999
40
0.749999999999999
40
1
40
1
40
1
40
1
41
1
10
18.2557061594653
20
-21.5656432802862
30
0
41
1
10
18.0634539017381
20
-21.8964464697304
30
0
41
1
10
17.9162133774689
20
-22.2241523988442
30
0
41
1
10
17.7651176459982
20
-22.7092738878426
30
0
41
1
10
17.7264217388698
20
-22.8708322648983
30
0
41
1
10
17.6751931280321
20
-23.1846149274246
30
0
41
1
10
17.6623568033843
20
-23.3373566763229
30
0
41
1
10
17.6622944019557
20
-23.6345902255529
30
0
41
1
10
17.6750158877789
20
-23.7790886892965
30
0
41
1
10
17.7127506863054
20
-23.9897314498701
30
0
41
1
10
17.7284533199
20
-24.0589259242547
30
0
41
1
10
17.766217813915
20
-24.1952596547545
30
0
41
1
10
17.7883606977814
20
-24.2625921513135
30
0
41
1
10
17.9143904228476
20
-24.5910898700905
30
0
41
1
10
18.0628637931604
20
-24.8283695325201
30
0
41
1
10
18.2556717416413
20
-25.0429118279438
30
0
0
SPLINE
5
302
100
AcDbEntity
8
1
62
256
6
ByLayer
370
13
48
1
60
0
100
AcDbSpline
70
4
71
3
72
8
73
4
40
0
40
0
40
0
40
0
40
1
40
1
40
1
40
1
41
1
10
233.638741218134
20
7.32656548405481
30
0
41
1
10
233.768346059918
20
7.50684007247801
30
0
41
1
10
233.896040048533
20
7.68685371458085
30
0
41
1
10
234.022532607484
20
7.86605764117058
30
0
0
SPLINE
5
303
100
AcDbEntity
8
1
62
256
6
ByLayer
370
13
48
1
60
0
100
AcDbSpline
70
4
71
3
72
26
73
22
40
0
40
0
40
0
40
0
40
0.124999999999999
40
0.124999999999999
40
0.249999999999997
40
0.249999999999997
40
0.374999999999996
40
0.374999999999996
40
0.437499999999995
40
0.437499999999995
40
0.499999999999994
40
0.499999999999994
40
0.624999999999992
40
0.624999999999992
40
0.687499999999993
40
0.687499999999993
40
0.749999999999995
40
0.749999999999995
40
0.874999999999998
40
0.874999999999998
40
1
40
1
40
1
40
1
41
1
10
231.332354987784
20
11.1641475835754
30
0
41
1
10
231.513589381566
20
11.0454375547912
30
0
41
1
10
231.688599385978
20
10.913309021318
30
0
41
1
10
232.012112293032
20
10.6347974168274
30
0
41
1
10
232.162228578853
20
10.4877164439443
30
0
41
1
10
232.441900923266
20
10.1812465425751
30
0
41
1
10
232.571461731047
20
10.0218651825392
30
0
41
1
10
232.751620770073
20
9.77526731533442
30
0
41
1
10
232.809427556736
20
9.69158490691294
30
0
41
1
10
232.918810040001
20
9.52445684844366
30
0
41
1
10
232.97060466427
20
9.44073873584816
30
0
41
1
10
233.11786371229
20
9.18931889210728
30
0
41
1
10
233.205345675147
20
9.02145697003249
30
0
41
1
10
233.320688892166
20
8.768591928669
30
0
41
1
10
233.356453528775
20
8.68409743406258
30
0
41
1
10
233.422270967223
20
8.51433132635844
30
0
41
1
10
233.452397301112
20
8.42880015230199
30
0
41
1
10
233.532912802044
20
8.17229550893703
30
0
41
1
10
233.573114919524
20
8.00244756047664
30
0
41
1
10
233.626212602977
20
7.66364837042855
30
0
41
1
10
233.639155635611
20
7.49474282919678
30
0
41
1
10
233.638741218167
20
7.32656548406078
30
0
0
SPLINE
5
304
100
AcDbEntity
8
1
62
256
6
ByLayer
370
13
48
1
60
0
100
AcDbSpline
70
4
71
3
72
54
73
50
40
0
40
0
40
0
40
0
40
0.0625000000000109
40
0.0625000000000109
40
0.0937500000000164
40
0.0937500000000164
40
0.125000000000022
40
0.125000000000022
40
0.250000000000036
40
0.250000000000036
40
0.281250000000039
40
0.281250000000039
40
0.312500000000041
40
0.312500000000041
40
0.37500000000005
40
0.37500000000005
40
0.437500000000059
40
0.437500000000059
40
0.468750000000062
40
0.468750000000062
40
0.484375000000061
40
0.484375000000061
40
0.500000000000061
40
0.500000000000061
40
0.562500000000052
40
0.562500000000052
40
0.593750000000048
40
0.593750000000048
40
0.625000000000045
40
0.625000000000045
40
0.687500000000038
40
0.687500000000038
40
0.718750000000034
40
0.718750000000034
40
0.734375000000032
40
0.734375000000032
40
0.75000000000003
40
0.75000000000003
40
0.812500000000023
40
0.812500000000023
40
0.84375000000002
40
0.84375000000002
40
0.875000000000016
40
0.875000000000016
40
0.937500000000008
40
0.937500000000008
40
0.968750000000004
40
0.968750000000004
40
1
40
1
40
1
40
1
41
1
10
235.092945231527
20
1.38969596903985
30
0
41
1
10
235.535097160147
20
1.33109062047342
30
0
41
1
10
235.980302304264
20
1.28141505099242
30
0
41
1
10
236.65353683766
20
1.22277357969463
30
0
41
1
10
236.878854245345
20
1.20587591003053
30
0
41
1
10
237.33146498543
20
1.17785958341989
30
0
41
1
10
237.558547229218
20
1.16676882782218
30
0
41
1
10
238.690099377766
20
1.12723252596274
30
0
41
1
10
239.589785617203
20
1.14559109569845
30
0
41
1
10
240.705560978393
20
1.2480126440478
30
0
41
1
10
240.928270403387
20
1.2725068400965
30
0
41
1
10
241.372729525984
20
1.33013075690434
30
0
41
1
10
241.593635938525
20
1.36317613355624
30
0
41
1
10
242.247042219804
20
1.47469225715332
30
0
41
1
10
242.672309587829
20
1.5657590334983
30
0
41
1
10
243.500596728798
20
1.78388428787164
30
0
41
1
10
243.903634506444
20
1.9109136382632
30
0
41
1
10
244.489576146295
20
2.13157267099675
30
0
41
1
10
244.681778048231
20
2.2101601759247
30
0
41
1
10
244.965052762403
20
2.33617585272887
30
0
41
1
10
245.058628570588
20
2.37954474622174
30
0
41
1
10
245.242361820404
20
2.46826636095844
30
0
41
1
10
245.3327351767
20
2.51371254429873
30
0
41
1
10
245.777099758872
20
2.74639640281845
30
0
41
1
10
246.108691316761
20
2.94991518188783
30
0
41
1
10
246.568328847721
20
3.2826316371478
30
0
41
1
10
246.715229121773
20
3.3981251444545
30
0
41
1
10
246.995787759657
20
3.63873698547616
30
0
41
1
10
247.129561828848
20
3.76410533053439
30
0
41
1
10
247.502756415113
20
4.14766019428066
30
0
41
1
10
247.717023069723
20
4.41549394249361
30
0
41
1
10
247.98675318243
20
4.83539650317425
30
0
41
1
10
248.068018538361
20
4.97840095247912
30
0
41
1
10
248.176652308701
20
5.19756744265391
30
0
41
1
10
248.210650592121
20
5.27140037033877
30
0
41
1
10
248.274142768223
20
5.42064864548786
30
0
41
1
10
248.303589769533
20
5.49599045600496
30
0
41
1
10
248.438144234822
20
5.87288257796104
30
0
41
1
10
248.506706339383
20
6.17789360819472
30
0
41
1
10
248.553989448013
20
6.64038212576835
30
0
41
1
10
248.56045023068
20
6.7953772284973
30
0
41
1
10
248.554839562744
20
7.10702585132555
30
0
41
1
10
248.542641719812
20
7.2643149903169
30
0
41
1
10
248.479118244293
20
7.73182197316092
30
0
41
1
10
248.401309230692
20
8.0388439540406
30
0
41
1
10
248.235883719435
20
8.49299005378731
30
0
41
1
10
248.172588285286
20
8.64330302834287
30
0
41
1
10
248.030083836223
20
8.94184246867388
30
0
41
1
10
247.950686293376
20
9.09035942342709
30
0
41
1
10
247.864053382626
20
9.23685510473703
30
0
0
SPLINE
5
305
100
AcDbEntity
8
1
62
256
6
ByLayer
370
13
48
1
60
0
100
AcDbSpline
70
4
71
3
72
8
73
4
40
0
40
0
40
0
40
0
40
1
40
1
40
1
40
1
41
1
10
45.7454000000001
20
24.7602106173924
30
0
41
1
10
45.4119838917882
20
24.7602106173924
30
0
41
1
10
45.0786505720185
20
24.7650466129505
30
0
41
1
10
44.7453999999994
20
24.774716227038
30
0
0
SPLINE
5
306
100
AcDbEntity
8
1
62
256
6
ByLayer
370
13
48
1
60
0
100
AcDbSpline
70
4
71
3
72
22
73
18
40
0
40
0
40
0
40
0
40
0.125
40
0.125
40
0.25
40
0.25
40
0.375
40
0.375
40
0.5
40
0.5
40
0.625
40
0.625
40
0.75
40
0.75
40
0.875
40
0.875
40
1
40
1
40
1
40
1
41
1
10
234.022532607496
20
7.86605764119457
30
0
41
1
10
233.993345955362
20
7.88255774455416
30
0
41
1
10
233.965559411386
20
7.90313911938776
30
0
41
1
10
233.914342802978
20
7.95186391283835
30
0
41
1
10
233.891020326239
20
7.97979425972949
30
0
41
1
10
233.848759392665
20
8.04294957258648
30
0
41
1
10
233.829817739731
20
8.07816816265563
30
0
41
1
10
233.796516884371
20
8.15662314605547
30
0
41
1
10
233.782512836699
20
8.19912934494513
30
0
41
1
10
233.760200199238
20
8.289331924252
30
0
41
1
10
233.751795659659
20
8.33723389403733
30
0
41
1
10
233.740962144165
20
8.43911397181421
30
0
41
1
10
233.738651192347
20
8.49282415599481
30
0
41
1
10
233.740734066074
20
8.60164745721963
30
0
41
1
10
233.745049253049
20
8.65731900979335
30
0
41
1
10
233.761051963824
20
8.77130610460623
30
0
41
1
10
233.772721666854
20
8.82903484678437
30
0
41
1
10
233.788130505832
20
8.88600204396522
30
0
0
SPLINE
5
307
100
AcDbEntity
8
1
62
256
6
ByLayer
370
13
48
1
60
0
100
AcDbSpline
70
4
71
3
72
10
73
6
40
0
40
0
40
0
40
0
40
0.5
40
0.5
40
1
40
1
40
1
40
1
41
1
10
237.784037410308
20
9.97596172686755
30
0
41
1
10
237.834352968057
20
9.97341955874373
30
0
41
1
10
237.882780192396
20
9.96602206102193
30
0
41
1
10
237.974985285844
20
9.94623875639527
30
0
41
1
10
238.01777552944
20
9.93424085952867
30
0
41
1
10
238.056399543143
20
9.92409705006023
30
0
0
SPLINE
5
308
100
AcDbEntity
8
1
62
256
6
ByLayer
370
13
48
1
60
0
100
AcDbSpline
70
4
71
3
72
8
73
4
40
0
40
0
40
0
40
0
40
1
40
1
40
1
40
1
41
1
10
234.022532607495
20
7.86605764119446
30
0
41
1
10
234.159196290323
20
7.82382322056051
30
0
41
1
10
234.298745459168
20
7.79359806031127
30
0
41
1
10
234.439353356133
20
7.77544357305433
30
0
0
SPLINE
5
309
100
AcDbEntity
8
1
62
256
6
ByLayer
370
13
48
1
60
0
100
AcDbSpline
70
4
71
3
72
10
73
6
40
0
40
0
40
0
40
0
40
0.5
40
0.5
40
1
40
1
40
1
40
1
41
1
10
242.815825068919
20
8.97228866950869
30
0
41
1
10
243.740389427487
20
9.02074303434549
30
0
41
1
10
244.627225959535
20
9.06722016757723
30
0
41
1
10
246.314639715094
20
9.15565377523771
30
0
41
1
10
247.115315444255
20
9.1976154121289
30
0
41
1
10
247.864053382631
20
9.23685510474417
30
0
0
SPLINE
5
30A
100
AcDbEntity
8
1
62
256
6
ByLayer
370
13
48
1
60
0
100
AcDbSpline
70
4
71
3
72
10
73
6
40
0
40
0
40
0
40
0
40
0.5
40
0.5
40
1
40
1
40
1
40
1
41
1
10
226.264259303474
20
22.8920141925635
30
0
41
1
10
226.865854714288
20
21.7724625543074
30
0
41
1
10
227.524324271239
20
20.6905647865374
30
0
41
1
10
228.973141702218
20
18.6140800839217
30
0
41
1
10
229.763578449042
20
17.6195519878458
30
0
41
1
10
230.627861394098
20
16.6739142114136
30
0
0
SPLINE
5
30B
100
AcDbEntity
8
1
62
256
6
ByLayer
370
13
48
1
60
0
100
AcDbSpline
70
4
71
3
72
8
73
4
40
0
40
0
40
0
40
0
40
1
40
1
40
1
40
1
41
1
10
45.7454
20
-8.85670228645267
30
0
41
1
10
45.1596757533104
20
-8.85646022866911
30
0
41
1
10
44.5746761626422
20
-8.85677346314202
30
0
41
1
10
43.9903982611137
20
-8.85763828710685
30
0
0
SPLINE
5
30C
100
AcDbEntity
8
1
62
256
6
ByLayer
370
13
48
1
60
0
100
AcDbSpline
70
2053
71
3
72
95
73
91
40
0
40
0
40
0
40
0
40
0.0312499999999963
40
0.0312499999999963
40
0.0468749999999945
40
0.0468749999999945
40
0.0624999999999926
40
0.0624999999999926
40
0.093749999999989
40
0.093749999999989
40
0.109374999999987
40
0.109374999999987
40
0.124999999999985
40
0.124999999999985
40
0.156249999999982
40
0.156249999999982
40
0.187499999999978
40
0.187499999999978
40
0.203124999999976
40
0.203124999999976
40
0.218749999999973
40
0.218749999999973
40
0.249999999999967
40
0.249999999999967
40
0.265624999999964
40
0.265624999999964
40
0.281249999999961
40
0.281249999999961
40
0.312499999999957
40
0.312499999999957
40
0.328124999999956
40
0.328124999999956
40
0.343749999999954
40
0.343749999999954
40
0.374999999999955
40
0.374999999999955
40
0.406249999999956
40
0.406249999999956
40
0.421874999999956
40
0.421874999999956
40
0.437499999999957
40
0.437499999999957
40
0.468749999999958
40
0.468749999999958
40
0.484374999999961
40
0.484374999999961
40
0.499999999999964
40
0.499999999999964
40
0.531249999999965
40
0.531249999999965
40
0.546874999999968
40
0.546874999999968
40
0.562499999999972
40
0.578124999999975
40
0.578124999999975
40
0.593749999999978
40
0.593749999999978
40
0.624999999999985
40
0.624999999999985
40
0.640624999999988
40
0.640624999999988
40
0.656249999999991
40
0.656249999999991
40
0.687499999999994
40
0.687499999999994
40
0.718749999999996
40
0.718749999999996
40
0.734374999999997
40
0.734374999999997
40
0.749999999999998
40
0.749999999999998
40
0.781249999999999
40
0.781249999999999
40
0.796874999999999
40
0.796874999999999
40
0.812499999999999
40
0.812499999999999
40
0.843749999999999
40
0.843749999999999
40
0.874999999999999
40
0.874999999999999
40
0.90625
40
0.90625
40
0.921875
40
0.921875
40
0.9375
40
0.9375
40
0.96875
40
0.96875
40
1
40
1
40
1
40
1
41
1
10
244.16458911349
20
-2.66405212253349
30
0
41
1
10
244.306583292588
20
-2.66405212253349
30
0
41
1
10
244.446090337197
20
-2.67852903708342
30
0
41
1
10
244.651776460842
20
-2.72103815264094
30
0
41
1
10
244.719738048687
20
-2.7387006729308
30
0
41
1
10
244.854430240377
20
-2.78118128327461
30
0
41
1
10
244.921059955364
20
-2.80602267492017
30
0
41
1
10
245.114539591975
20
-2.88955366421032
30
0
41
1
10
245.236612536952
20
-2.95761515354394
30
0
41
1
10
245.40941363335
20
-3.07810242666309
30
0
41
1
10
245.465563658153
20
-3.12161925697066
30
0
41
1
10
245.572242420293
20
-3.21324764690249
30
0
41
1
10
245.622923426886
20
-3.26141371290859
30
0
41
1
10
245.767228613474
20
-3.41273915966633
30
0
41
1
10
245.853378797278
20
-3.52296846693298
30
0
41
1
10
246.003873073991
20
-3.76060408977779
30
0
41
1
10
246.066230452232
20
-3.88473384455261
30
0
41
1
10
246.141493966662
20
-4.07838932018731
30
0
41
1
10
246.163513949211
20
-4.14419409832232
30
0
41
1
10
246.201336644079
20
-4.27833371666361
30
0
41
1
10
246.217077890132
20
-4.34661105203818
30
0
41
1
10
246.254103038177
20
-4.55100556813886
30
0
41
1
10
246.265707071084
20
-4.68807358900568
30
0
41
1
10
246.263904346053
20
-4.89483649987707
30
0
41
1
10
246.260045539845
20
-4.96425016664307
30
0
41
1
10
246.245843854346
20
-5.10203142082491
30
0
41
1
10
246.235566936028
20
-5.17007359778412
30
0
41
1
10
246.195504146867
20
-5.37174075022915
30
0
41
1
10
246.15657239266
20
-5.5029275285757
30
0
41
1
10
246.079432908757
20
-5.69476991767218
30
0
41
1
10
246.050467681351
20
-5.75802106524966
30
0
41
1
10
245.987337137908
20
-5.88029235411875
30
0
41
1
10
245.953061060611
20
-5.93963442091422
30
0
41
1
10
245.842175973056
20
-6.11235703879382
30
0
41
1
10
245.757596527511
20
-6.2204892093277
30
0
41
1
10
245.56558099466
20
-6.42187912776609
30
0
41
1
10
245.460611451071
20
-6.51239731176165
30
0
41
1
10
245.291468446033
20
-6.63157735989716
30
0
41
1
10
245.233038738931
20
-6.66860925697142
30
0
41
1
10
245.111922900422
20
-6.73709740992271
30
0
41
1
10
245.048841880912
20
-6.76871862682168
30
0
41
1
10
244.855882922038
20
-6.85334301840206
30
0
41
1
10
244.723217886781
20
-6.89603699634557
30
0
41
1
10
244.518170430051
20
-6.93955176157132
30
0
41
1
10
244.448805895144
20
-6.95061105324467
30
0
41
1
10
244.307951965934
20
-6.96552795360549
30
0
41
1
10
244.237124858219
20
-6.96927938133351
30
0
41
1
10
244.026465031435
20
-6.96951979914101
30
0
41
1
10
243.887200613702
20
-6.95524334542725
30
0
41
1
10
243.680079411787
20
-6.91198895789884
30
0
41
1
10
243.611369611343
20
-6.89385161030555
30
0
41
1
10
243.477795596801
20
-6.85115292357403
30
0
41
1
10
243.347213867319
20
-6.80187992370622
30
0
41
1
10
243.222441317806
20
-6.73980882197196
30
0
41
1
10
243.100572105969
20
-6.67132013906999
30
0
41
1
10
243.040933860008
20
-6.63371533354965
30
0
41
1
10
242.870041828536
20
-6.51369505166855
30
0
41
1
10
242.765487891742
20
-6.42354533734002
30
0
41
1
10
242.62210834329
20
-6.27363530796765
30
0
41
1
10
242.576364265098
20
-6.22091534993291
30
0
41
1
10
242.490739102261
20
-6.11205090504589
30
0
41
1
10
242.45083955217
20
-6.0559548559863
30
0
41
1
10
242.339557617474
20
-5.88282978424388
30
0
41
1
10
242.276512712382
20
-5.76100862290363
30
0
41
1
10
242.173007008471
20
-5.50425119645672
30
0
41
1
10
242.133799844372
20
-5.3721727750771
30
0
41
1
10
242.093733086625
20
-5.17078651837383
30
0
41
1
10
242.08347756357
20
-5.10299406099421
30
0
41
1
10
242.069275514928
20
-4.96605387910657
30
0
41
1
10
242.065330605256
20
-4.89657136215817
30
0
41
1
10
242.063393171062
20
-4.68853732604506
30
0
41
1
10
242.075073589251
20
-4.55142893331933
30
0
41
1
10
242.111788762533
20
-4.34812643696426
30
0
41
1
10
242.1272477464
20
-4.28075525720436
30
0
41
1
10
242.164832262646
20
-4.14684111540188
30
0
41
1
10
242.187078591643
20
-4.08007595241423
30
0
41
1
10
242.262605541122
20
-3.88536188169371
30
0
41
1
10
242.324866102295
20
-3.76162607629516
30
0
41
1
10
242.473372921192
20
-3.52647757268832
30
0
41
1
10
242.560754717316
20
-3.41414371927269
30
0
41
1
10
242.753378921387
20
-3.21184722979356
30
0
41
1
10
242.858974243611
20
-3.12082012463583
30
0
41
1
10
243.031654488153
20
-2.99992752871344
30
0
41
1
10
243.091946971464
20
-2.96209938431446
30
0
41
1
10
243.214882960182
20
-2.89342029305979
30
0
41
1
10
243.277715892053
20
-2.86239154360484
30
0
41
1
10
243.470234270093
20
-2.77906767455622
30
0
41
1
10
243.604237078109
20
-2.73636259708204
30
0
41
1
10
243.882052686824
20
-2.67854355915915
30
0
41
1
10
244.022594934391
20
-2.66405212253349
30
0
41
1
10
244.16458911349
20
-2.66405212253349
30
0
0
SPLINE
5
30D
100
AcDbEntity
8
1
62
256
6
ByLayer
370
13
48
1
60
0
100
AcDbSpline
70
4
71
3
72
8
73
4
40
0
40
0
40
0
40
0
40
1
40
1
40
1
40
1
41
1
10
230.137791878225
20
11.2345776128469
30
0
41
1
10
230.307093310405
20
13.0504902210313
30
0
41
1
10
230.471083831471
20
14.8635253508651
30
0
41
1
10
230.627897169276
20
16.674327323889
30
0
0
SPLINE
5
30E
100
AcDbEntity
8
1
62
256
6
ByLayer
370
13
48
1
60
0
100
AcDbSpline
70
4
71
3
72
8
73
4
40
0
40
0
40
0
40
0
40
1
40
1
40
1
40
1
41
1
10
234.062609752592
20
18.4828209615194
30
0
41
1
10
234.048740997104
20
18.4560807251966
30
0
41
1
10
234.033397586549
20
18.4320203124395
30
0
41
1
10
234.01746143541
20
18.4105169374668
30
0
0
SPLINE
5
30F
100
AcDbEntity
8
1
62
256
6
ByLayer
370
13
48
1
60
0
100
AcDbSpline
70
4
71
3
72
8
73
4
40
0
40
0
40
0
40
0
40
1
40
1
40
1
40
1
41
1
10
231.332354987786
20
11.1641475835836
30
0
41
1
10
231.31603345882
20
11.1677732098439
30
0
41
1
10
231.299633681401
20
11.1709079900915
30
0
41
1
10
231.283149742153
20
11.1735148302249
30
0
0
SPLINE
5
310
100
AcDbEntity
8
1
62
256
6
ByLayer
370
13
48
1
60
0
100
AcDbSpline
70
4
71
3
72
12
73
8
40
0
40
0
40
0
40
0
40
0.25
40
0.25
40
0.5
40
0.5
40
1
40
1
40
1
40
1
41
1
10
40.5087439848272
20
-9.65619692477927
30
0
41
1
10
40.7777822326554
20
-9.52652800367153
30
0
41
1
10
41.0538345869973
20
-9.4118398467663
30
0
41
1
10
41.620131866507
20
-9.21291743477522
30
0
41
1
10
41.9118988093919
20
-9.12844916331267
30
0
41
1
10
42.7911852985216
20
-8.92673047436477
30
0
41
1
10
43.3862451903997
20
-8.85853252947516
30
0
41
1
10
43.9903982611135
20
-8.85763828710685
30
0
0
SPLINE
5
311
100
AcDbEntity
8
1
62
256
6
ByLayer
370
13
48
1
60
0
100
AcDbSpline
70
4
71
3
72
56
73
52
40
0
40
0
40
0
40
0
40
0.0312499999999996
40
0.0312499999999996
40
0.0624999999999991
40
0.0624999999999991
40
0.124999999999998
40
0.124999999999998
40
0.156249999999998
40
0.156249999999998
40
0.187499999999998
40
0.187499999999998
40
0.249999999999999
40
0.249999999999999
40
0.3125
40
0.3125
40
0.375
40
0.375
40
0.437500000000001
40
0.437500000000001
40
0.468750000000001
40
0.468750000000001
40
0.500000000000001
40
0.500000000000001
40
0.531250000000001
40
0.531250000000001
40
0.562500000000001
40
0.562500000000001
40
0.593750000000001
40
0.593750000000001
40
0.625000000000001
40
0.625000000000001
40
0.656250000000001
40
0.656250000000001
40
0.687500000000001
40
0.687500000000001
40
0.75
40
0.75
40
0.78125
40
0.78125
40
0.8125
40
0.8125
40
0.84375
40
0.84375
40
0.875
40
0.875
40
0.90625
40
0.90625
40
0.9375
40
0.9375
40
1
40
1
40
1
40
1
41
1
10
223.164321930513
20
3.26506883393881
30
0
41
1
10
222.204897092473
20
3.69321770493821
30
0
41
1
10
221.24496143976
20
4.11987420329831
30
0
41
1
10
219.326054264767
20
4.96828286366045
30
0
41
1
10
218.367059463244
20
5.39004651819536
30
0
41
1
10
215.490839532742
20
6.64671261180712
30
0
41
1
10
213.574380813219
20
7.4729931250576
30
0
41
1
10
210.698720783191
20
8.68984693731824
30
0
41
1
10
209.740004827979
20
9.09170264614062
30
0
41
1
10
207.821827025328
20
9.88699891642017
30
0
41
1
10
206.862099664054
20
10.280546535335
30
0
41
1
10
203.982984528144
20
11.4465049886537
30
0
41
1
10
202.065943776983
20
12.2033822244177
30
0
41
1
10
198.232855370157
20
13.6690501812624
30
0
41
1
10
196.316799896619
20
14.3778169544833
30
0
41
1
10
192.481493195507
20
15.73955625412
30
0
41
1
10
190.560960421774
20
16.3929579114715
30
0
41
1
10
186.725362776345
20
17.6354370677206
30
0
41
1
10
184.809340268094
20
18.2250270304008
30
0
41
1
10
181.935766645343
20
19.058319094888
30
0
41
1
10
180.977909071734
20
19.327446311389
30
0
41
1
10
179.06113597411
20
19.8469773014891
30
0
41
1
10
178.102408531812
20
20.0976099289346
30
0
41
1
10
176.181638287596
20
20.5774606066852
30
0
41
1
10
175.21958463504
20
20.8063487405645
30
0
41
1
10
173.290817668977
20
21.2371966844612
30
0
41
1
10
172.323501013353
20
21.4389955445032
30
0
41
1
10
170.380671699627
20
21.8149887990477
30
0
41
1
10
169.40528208319
20
21.9893505861327
30
0
41
1
10
167.445054717322
20
22.3119638854268
30
0
41
1
10
166.460045926674
20
22.4600635564111
30
0
41
1
10
164.480902904351
20
22.7334295178565
30
0
41
1
10
163.486818754415
20
22.8587491585101
30
0
41
1
10
161.490655101329
20
23.0900205311542
30
0
41
1
10
160.488320061844
20
23.1959948433942
30
0
41
1
10
157.475250981989
20
23.4881898561433
30
0
41
1
10
155.456888884116
20
23.6490490937743
30
0
41
1
10
152.417527207099
20
23.8523586593241
30
0
41
1
10
151.402466287756
20
23.9137746636349
30
0
41
1
10
149.36877140255
20
24.0254468787714
30
0
41
1
10
148.350043355481
20
24.0756061243687
30
0
41
1
10
146.30775862446
20
24.1652244104034
30
0
41
1
10
145.283810397814
20
24.2046963333914
30
0
41
1
10
143.23214339038
20
24.2738508844695
30
0
41
1
10
142.204538791151
20
24.3035366575534
30
0
41
1
10
140.145048114521
20
24.3544391936986
30
0
41
1
10
139.113102271282
20
24.3756274625498
30
0
41
1
10
137.044534070903
20
24.411242293648
30
0
41
1
10
136.007972435132
20
24.4257148910038
30
0
41
1
10
132.891803488641
20
24.4617615572519
30
0
41
1
10
130.805709466225
20
24.4761142955014
30
0
41
1
10
128.71196
20
24.4858025115689
30
0
0
SPLINE
5
312
100
AcDbEntity
8
1
62
256
6
ByLayer
370
13
48
1
60
0
100
AcDbSpline
70
4
71
3
72
8
73
4
40
0
40
0
40
0
40
0
40
1
40
1
40
1
40
1
41
1
10
43.9903981388635
20
-24.04047118579
30
0
41
1
10
43.9903981403951
20
-24.2665265167206
30
0
41
1
10
43.9903981419475
20
-24.4925818476358
30
0
41
1
10
43.9903981435207
20
-24.7186371785355
30
0
0
SPLINE
5
313
100
AcDbEntity
8
1
62
256
6
ByLayer
370
13
48
1
60
0
100
AcDbSpline
70
4
71
3
72
42
73
38
40
0
40
0
40
0
40
0
40
0.0624999999999994
40
0.0624999999999994
40
0.124999999999999
40
0.124999999999999
40
0.187499999999998
40
0.187499999999998
40
0.249999999999998
40
0.249999999999998
40
0.281249999999998
40
0.281249999999998
40
0.312499999999997
40
0.312499999999997
40
0.374999999999998
40
0.374999999999998
40
0.437499999999998
40
0.437499999999998
40
0.499999999999998
40
0.499999999999998
40
0.562499999999998
40
0.562499999999998
40
0.624999999999999
40
0.624999999999999
40
0.687499999999999
40
0.687499999999999
40
0.718749999999999
40
0.718749999999999
40
0.749999999999999
40
0.749999999999999
40
0.874999999999999
40
0.874999999999999
40
0.937499999999999
40
0.937499999999999
40
0.96875
40
0.96875
40
1
40
1
40
1
40
1
41
1
10
18.2556717416413
20
-25.0429118279438
30
0
41
1
10
18.1409622279717
20
-25.2260510209429
30
0
41
1
10
18.0498548709859
20
-25.4042776798788
30
0
41
1
10
17.9139822933768
20
-25.7501779547222
30
0
41
1
10
17.8692112745053
20
-25.9178558943805
30
0
41
1
10
17.8286489065027
20
-26.2416860005963
30
0
41
1
10
17.833659309251
20
-26.3936563406672
30
0
41
1
10
17.8908451570624
20
-26.6785048622273
30
0
41
1
10
17.942623025814
20
-26.8115038670753
30
0
41
1
10
18.0553308455115
20
-26.9970712272893
30
0
41
1
10
18.0989227752958
20
-27.0567317821363
30
0
41
1
10
18.1962746737871
20
-27.1698370003215
30
0
41
1
10
18.2501650688222
20
-27.2234824894146
30
0
41
1
10
18.4268451321628
20
-27.3761785151182
30
0
41
1
10
18.5645145353678
20
-27.4670347619217
30
0
41
1
10
18.8775105542484
20
-27.6287944089159
30
0
41
1
10
19.0539294231144
20
-27.6998422932646
30
0
41
1
10
19.4351973877507
20
-27.8205803461696
30
0
41
1
10
19.6406867608061
20
-27.8707585977359
30
0
41
1
10
20.0797218606569
20
-27.9531340834233
30
0
41
1
10
20.3132832195632
20
-27.9853198828655
30
0
41
1
10
20.8080823192751
20
-28.0333108488588
30
0
41
1
10
21.0655195319661
20
-28.0487645654575
30
0
41
1
10
21.5991931375751
20
-28.0648546006151
30
0
41
1
10
21.8754219402863
20
-28.0655256864373
30
0
41
1
10
22.3038198072047
20
-28.0566142780597
30
0
41
1
10
22.4489562114491
20
-28.0519910598437
30
0
41
1
10
22.7439017182709
20
-28.0396020532806
30
0
41
1
10
22.8939813014346
20
-28.0318191015129
30
0
41
1
10
23.6533008946676
20
-27.9854643213751
30
0
41
1
10
24.2801824993582
20
-27.9255002796532
30
0
41
1
10
25.250085903398
20
-27.8081471795424
30
0
41
1
10
25.578390138109
20
-27.7643652960711
30
0
41
1
10
26.0788774275052
20
-27.6918728845981
30
0
41
1
10
26.2472795623595
20
-27.6665273174557
30
0
41
1
10
26.5845498679953
20
-27.6138933892787
30
0
41
1
10
26.7536499619865
20
-27.5865739718944
30
0
41
1
10
26.9232297117708
20
-27.558255075478
30
0
0
SPLINE
5
314
100
AcDbEntity
8
1
62
256
6
ByLayer
370
13
48
1
60
0
100
AcDbSpline
70
4
71
3
72
14
73
10
40
0
40
0
40
0
40
0
40
0.25
40
0.25
40
0.5
40
0.5
40
0.75
40
0.75
40
1
40
1
40
1
40
1
41
1
10
229.920060450341
20
11.1126591833108
30
0
41
1
10
229.924393931997
20
11.1343586346232
30
0
41
1
10
229.936257223419
20
11.1534881928795
30
0
41
1
10
229.96697324192
20
11.1843380648092
30
0
41
1
10
229.985932778546
20
11.196483370937
30
0
41
1
10
230.026449220206
20
11.2152871299996
30
0
41
1
10
230.04809293307
20
11.2220021345119
30
0
41
1
10
230.092071738278
20
11.2312281604645
30
0
41
1
10
230.114645499133
20
11.2338022474291
30
0
41
1
10
230.137735764995
20
11.2345802808632
30
0
0
SPLINE
5
315
100
AcDbEntity
8
1
62
256
6
ByLayer
370
13
48
1
60
0
100
AcDbSpline
70
4
71
3
72
18
73
14
40
0
40
0
40
0
40
0
40
0.25
40
0.25
40
0.375
40
0.375
40
0.5
40
0.625
40
0.625
40
0.75
40
0.875
40
0.875
40
1
40
1
40
1
40
1
41
1
10
45.7503999187736
20
-13.8360454451164
30
0
41
1
10
43.7137651797827
20
-14.2404188821538
30
0
41
1
10
41.6853563600315
20
-14.853073521174
30
0
41
1
10
38.7847881250126
20
-16.0820227377025
30
0
41
1
10
37.8417309069769
20
-16.5439138139846
30
0
41
1
10
36.0237972458906
20
-17.5661900383884
30
0
41
1
10
34.2737880014761
20
-18.6856283122864
30
0
41
1
10
32.6987425691691
20
-19.9767554393952
30
0
41
1
10
31.2307364627235
20
-21.3424093230422
30
0
41
1
10
29.8697561827519
20
-22.7825805605235
30
0
41
1
10
28.7406747326461
20
-24.3343371410723
30
0
41
1
10
27.7364662860666
20
-25.9231617112188
30
0
41
1
10
27.297589317907
20
-26.7360791569754
30
0
41
1
10
26.9232297117708
20
-27.558255075478
30
0
0
SPLINE
5
316
100
AcDbEntity
8
1
62
256
6
ByLayer
370
13
48
1
60
0
100
AcDbSpline
70
4
71
3
72
8
73
4
40
0
40
0
40
0
40
0
40
1
40
1
40
1
40
1
41
1
10
251.238989863086
20
0.599902002386131
30
0
41
1
10
251.373382296405
20
0.618965658245457
30
0
41
1
10
251.506877968682
20
0.626329555993266
30
0
41
1
10
251.640537105243
20
0.623499856930238
30
0
0
SPLINE
5
317
100
AcDbEntity
8
1
62
256
6
ByLayer
370
13
48
1
60
0
100
AcDbSpline
70
4
71
3
72
8
73
4
40
0
40
0
40
0
40
0
40
1
40
1
40
1
40
1
41
1
10
234.590935371895
20
24.5652066742858
30
0
41
1
10
234.651571464643
20
24.5713286160848
30
0
41
1
10
234.712270382595
20
24.5768453424249
30
0
41
1
10
234.773035920453
20
24.5817202977107
30
0
0
SPLINE
5
318
100
AcDbEntity
8
1
62
256
6
ByLayer
370
13
48
1
60
0
100
AcDbSpline
70
4
71
1
72
4
73
2
40
0
40
0
40
1
40
1
41
1
10
233.517272024303
20
16.4818368452577
30
0
41
1
10
233.605361292368
20
16.4890242492225
30
0
0
SPLINE
5
319
100
AcDbEntity
8
1
62
256
6
ByLayer
370
13
48
1
60
0
100
AcDbSpline
70
4
71
1
72
4
73
2
40
0
40
0
40
1
40
1
41
1
10
233.525285305688
20
16.7009681629101
30
0
41
1
10
233.595433523856
20
16.7034751006441
30
0
0
SPLINE
5
31A
100
AcDbEntity
8
1
62
256
6
ByLayer
370
13
48
1
60
0
100
AcDbSpline
70
4
71
3
72
10
73
6
40
0
40
0
40
0
40
0
40
0.437251963454462
40
0.437251963454462
40
1
40
1
40
1
40
1
41
1
10
249.87486616853
20
24.3364827656095
30
0
41
1
10
249.876659036323
20
24.3331690260938
30
0
41
1
10
249.886329750398
20
24.3245612653687
30
0
41
1
10
249.922944948735
20
24.2962432518665
30
0
41
1
10
249.954184550106
20
24.2740561696737
30
0
41
1
10
249.986866322975
20
24.2523250916457
30
0
0
SPLINE
5
31B
100
AcDbEntity
8
1
62
256
6
ByLayer
370
13
48
1
60
0
100
AcDbSpline
70
4
71
3
72
14
73
10
40
0
40
0
40
0
40
0
40
0.0288455662585376
40
0.0288455662585376
40
0.190704638548852
40
0.190704638548852
40
0.352563710839166
40
0.352563710839166
40
1
40
1
40
1
40
1
41
1
10
234.603828669473
20
24.3332251956148
30
0
41
1
10
234.607548379305
20
24.333662349207
30
0
41
1
10
234.611261339979
20
24.334087687047
30
0
41
1
10
234.63561151606
20
24.3365547060036
30
0
41
1
10
234.655760038659
20
24.3377408325077
30
0
41
1
10
234.696342350641
20
24.3406125021392
30
0
41
1
10
234.716570465361
20
24.3419379705871
30
0
41
1
10
234.817102617011
20
24.3475001483767
30
0
41
1
10
234.89623250404
20
24.3493993712636
30
0
41
1
10
234.974016260919
20
24.3500951206017
30
0
0
SPLINE
5
31C
100
AcDbEntity
8
1
62
256
6
ByLayer
370
13
48
1
60
0
100
AcDbSpline
70
4
71
3
72
24
73
20
40
0
40
0
40
0
40
0
40
0.0453611707759757
40
0.0453611707759757
40
0.0907223415519515
40
0.0907223415519515
40
0.136083512327927
40
0.136083512327927
40
0.181444683103903
40
0.181444683103903
40
0.272167024655854
40
0.272167024655854
40
0.362889366207804
40
0.362889366207804
40
0.544334049311705
40
0.544334049311705
40
0.725778732415607
40
0.725778732415607
40
1
40
1
40
1
40
1
41
1
10
234.917066580128
20
9.33870068260958
30
0
41
1
10
234.920232244832
20
9.3214509777018
30
0
41
1
10
234.923897186215
20
9.30280362876283
30
0
41
1
10
234.931904366523
20
9.26608445517169
30
0
41
1
10
234.936190075552
20
9.24835344215728
30
0
41
1
10
234.944126701985
20
9.21770774762501
30
0
41
1
10
234.947836490569
20
9.20444353165553
30
0
41
1
10
234.954844770945
20
9.18060229030039
30
0
41
1
10
234.958109300747
20
9.17014871390404
30
0
41
1
10
234.96747596902
20
9.14140186226621
30
0
41
1
10
234.973071534883
20
9.12592987284825
30
0
41
1
10
234.983559245769
20
9.09874710755645
30
0
41
1
10
234.988448953398
20
9.08711151010408
30
0
41
1
10
235.002351813962
20
9.05609452223945
30
0
41
1
10
235.010662495896
20
9.0403981309307
30
0
41
1
10
235.026237475179
20
9.0141698766636
30
0
41
1
10
235.033482255677
20
9.0037854632337
30
0
41
1
10
235.05069762864
20
8.98243581440565
30
0
41
1
10
235.060199787515
20
8.97379959675905
30
0
41
1
10
235.069105561337
20
8.96799614193247
30
0
0
SPLINE
5
31D
100
AcDbEntity
8
1
62
256
6
ByLayer
370
13
48
1
60
0
100
AcDbSpline
70
4
71
3
72
12
73
8
40
0
40
0
40
0
40
0
40
0.0600912939942832
40
0.0600912939942832
40
0.549034980086507
40
0.549034980086507
40
1
40
1
40
1
40
1
41
1
10
251.986175736984
20
9.73907103500898
30
0
41
1
10
251.980704515955
20
9.73324032405793
30
0
41
1
10
251.975139795177
20
9.72748739749386
30
0
41
1
10
251.923454647337
20
9.67565677148184
30
0
41
1
10
251.872811046268
20
9.63580842577861
30
0
41
1
10
251.766565507918
20
9.57136300878724
30
0
41
1
10
251.711466022979
20
9.54596939882882
30
0
41
1
10
251.655015817845
20
9.52702483817325
30
0
0
SPLINE
5
31E
100
AcDbEntity
8
1
62
256
6
ByLayer
370
18
48
1
60
0
100
AcDbSpline
70
4
71
1
72
4
73
2
40
0
40
0
40
1
40
1
41
1
10
251.626504534156
20
0.47987066544772
30
0
41
1
10
251.222515889236
20
0.53279838273366
30
0
0
SPLINE
5
31F
100
AcDbEntity
8
1
62
256
6
ByLayer
370
18
48
1
60
0
100
AcDbSpline
70
4
71
3
72
30
73
26
40
0
40
0
40
0
40
0
40
0.0050411899482472
40
0.0127259312090861
40
0.028095413730764
40
0.0588343787741197
40
0.120312308860831
40
0.243268169034254
40
0.366224029207677
40
0.48533751875068
40
0.4891798893811
40
0.496864630641938
40
0.504549371902777
40
0.519918854424455
40
0.550657819467811
40
0.612135749554522
40
0.735091609727945
40
0.858047469901368
40
0.919525399988079
40
0.950264365031435
40
0.965633847553113
40
0.981003330074791
40
0.98868807133563
40
0.996372812596468
40
1
40
1
40
1
40
1
41
1
10
251.406973343198
20
-14.0048441263117
30
0
41
1
10
251.434970732279
20
-13.9936476799418
30
0
41
1
10
251.505437882052
20
-13.9588536484687
30
0
41
1
10
251.642186952633
20
-13.8231304212136
30
0
41
1
10
251.685109450737
20
-13.520919693404
30
0
41
1
10
251.750262061974
20
-13.016119959066
30
0
41
1
10
251.886704343616
20
-11.9929784368455
30
0
41
1
10
252.076659173729
20
-10.5381371736688
30
0
41
1
10
252.313747525555
20
-8.8096551955698
30
0
41
1
10
252.467295032151
20
-7.64336252329136
30
0
41
1
10
252.546381729114
20
-7.01384896023154
30
0
41
1
10
252.541828996095
20
-6.90346767467892
30
0
41
1
10
252.509241572926
20
-6.7525680512797
30
0
41
1
10
252.474506497592
20
-6.50163745306998
30
0
41
1
10
252.390142488665
20
-5.99259443711009
30
0
41
1
10
252.230780504794
20
-4.97732853689209
30
0
41
1
10
251.999204971426
20
-3.52592748602473
30
0
41
1
10
251.766228430213
20
-2.07566776212789
30
0
41
1
10
251.608919657055
20
-1.05835719841502
30
0
41
1
10
251.521396941709
20
-0.553803823321118
30
0
41
1
10
251.486468124436
20
-0.263253470188715
30
0
41
1
10
251.458925794983
20
-0.066157358795607
30
0
41
1
10
251.387925568118
20
0.107483453248364
30
0
41
1
10
251.295708567833
20
0.199496864818201
30
0
41
1
10
251.236405482434
20
0.231811087259331
30
0
41
1
10
251.217107613504
20
0.240394184148784
30
0
0
SPLINE
5
320
100
AcDbEntity
8
1
62
256
6
ByLayer
370
18
48
1
60
0
100
AcDbSpline
70
4
71
3
72
27
73
23
40
0
40
0
40
0
40
0
40
0.0030234363634993
40
0.0187704757469346
40
0.0502645545138051
40
0.113252712047546
40
0.239229027115028
40
0.365205342182511
40
0.487244897404134
40
0.491181657249993
40
0.49905517694171
40
0.506928696633428
40
0.522675736016863
40
0.554169814783734
40
0.617157972317475
40
0.743134287384957
40
0.869110602452439
40
0.93209875998618
40
0.963592838753051
40
0.979339878136486
40
0.995086917519921
40
1
40
1
40
1
40
1
41
1
10
251.452927507549
20
-13.7934192446536
30
0
41
1
10
251.461365068244
20
-13.7840775908277
30
0
41
1
10
251.508682939191
20
-13.7218865349943
30
0
41
1
10
251.54151799762
20
-13.4906999232295
30
0
41
1
10
251.606592430017
20
-12.9865059153033
30
0
41
1
10
251.743048714968
20
-11.9632593862905
30
0
41
1
10
251.933038301757
20
-10.5081519258942
30
0
41
1
10
252.170137074308
20
-8.7795939759645
30
0
41
1
10
252.323578378096
20
-7.61410798273815
30
0
41
1
10
252.40112222987
20
-6.99687514462804
30
0
41
1
10
252.397570288885
20
-6.91075812208851
30
0
41
1
10
252.366447893567
20
-6.76664247021145
30
0
41
1
10
252.331235670454
20
-6.51226489581884
30
0
41
1
10
252.247084583357
20
-6.0045066264216
30
0
41
1
10
252.087655621702
20
-4.98881402305395
30
0
41
1
10
251.856120665631
20
-3.53766729064162
30
0
41
1
10
251.623089455866
20
-2.08706725952328
30
0
41
1
10
251.465917483048
20
-1.07064137902739
30
0
41
1
10
251.377980357965
20
-0.56369900319541
30
0
41
1
10
251.342769511578
20
-0.270802631360652
30
0
41
1
10
251.319777539698
20
-0.106269407734686
30
0
41
1
10
251.287626090573
20
-0.0199357424799871
30
0
41
1
10
251.278324162908
20
-0.0006462432122589
30
0
0
SPLINE
5
321
100
AcDbEntity
8
1
62
256
6
ByLayer
370
13
48
1
60
0
100
AcDbSpline
70
4
71
3
72
8
73
4
40
0
40
0
40
0
40
0
40
1
40
1
40
1
40
1
41
1
10
237.699918329171
20
9.97663425037271
30
0
41
1
10
237.651734455335
20
9.97502700826982
30
0
41
1
10
237.603592969858
20
9.97414953580778
30
0
41
1
10
237.555531423846
20
9.97442917881466
30
0
0
SPLINE
5
322
100
AcDbEntity
8
1
62
256
6
ByLayer
370
13
48
1
60
0
100
AcDbSpline
70
4
71
3
72
34
73
30
40
0
40
0
40
0
40
0
40
0.0508832040143052
40
0.0508832040143052
40
0.103611914902399
40
0.103611914902399
40
0.156340625790493
40
0.156340625790493
40
0.209069336678587
40
0.209069336678587
40
0.261798047566682
40
0.261798047566682
40
0.314526758454776
40
0.314526758454776
40
0.340891113898823
40
0.340891113898823
40
0.36725546934287
40
0.36725546934287
40
0.419984180230964
40
0.419984180230964
40
0.472712891119058
40
0.472712891119058
40
0.578170312895246
40
0.578170312895246
40
0.683627734671435
40
0.683627734671435
40
0.789085156447623
40
0.789085156447623
40
1
40
1
40
1
40
1
41
1
10
152.537065297221
20
-12.8014878701183
30
0
41
1
10
150.760888680597
20
-12.9244417986555
30
0
41
1
10
148.982824942527
20
-13.0381163332093
30
0
41
1
10
145.357604822761
20
-13.2463556583671
30
0
41
1
10
143.510262892495
20
-13.3399585605603
30
0
41
1
10
139.809789832126
20
-13.4985348389748
30
0
41
1
10
137.956569859397
20
-13.5628260654565
30
0
41
1
10
134.244112728826
20
-13.6646956394467
30
0
41
1
10
132.384938137578
20
-13.7028668996819
30
0
41
1
10
128.66127664838
20
-13.7619849885555
30
0
41
1
10
126.796829976039
20
-13.7831759318672
30
0
41
1
10
123.062935074818
20
-13.8137437220306
30
0
41
1
10
121.193398849533
20
-13.8225947136931
30
0
41
1
10
118.385250449274
20
-13.8296751211803
30
0
41
1
10
117.448514034498
20
-13.8311550912633
30
0
41
1
10
115.574176025456
20
-13.8321497055019
30
0
41
1
10
114.636672536121
20
-13.831613571643
30
0
41
1
10
111.824199045485
20
-13.8310634913052
30
0
41
1
10
109.949057885319
20
-13.8317427708764
30
0
41
1
10
106.198843080102
20
-13.8318642195368
30
0
41
1
10
104.323735829082
20
-13.83187186136
30
0
41
1
10
98.6984136566162
20
-13.8319792162104
30
0
41
1
10
94.9481985406509
20
-13.8319660938651
30
0
41
1
10
87.4477680968225
20
-13.8318163866312
30
0
41
1
10
83.697552794771
20
-13.8316979077616
30
0
41
1
10
76.1971222417073
20
-13.8317096708282
30
0
41
1
10
72.4469069620968
20
-13.8318258030805
30
0
41
1
10
61.1962611184954
20
-13.8320012008896
30
0
41
1
10
53.6958305500235
20
-13.8319277986364
30
0
41
1
10
46.1954000000001
20
-13.8318899754643
30
0
0
SPLINE
5
323
100
AcDbEntity
8
1
62
256
6
ByLayer
370
13
48
1
60
0
100
AcDbSpline
70
4
71
3
72
18
73
14
40
0
40
0
40
0
40
0
40
0.175897638459012
40
0.175897638459012
40
0.351795276918024
40
0.351795276918024
40
0.527692915377036
40
0.527692915377036
40
0.703590553836048
40
0.703590553836048
40
0.87948819229506
40
0.87948819229506
40
1
40
1
40
1
40
1
41
1
10
45.7554
20
-13.8318899754643
30
0
41
1
10
45.7554
20
-13.5677462983007
30
0
41
1
10
45.7554
20
-13.2931792704294
30
0
41
1
10
45.7554
20
-12.724067552414
30
0
41
1
10
45.7554
20
-12.4272119078479
30
0
41
1
10
45.7554
20
-11.8230019157637
30
0
41
1
10
45.7554
20
-11.5199078915228
30
0
41
1
10
45.7554
20
-10.911793555024
30
0
41
1
10
45.7554
20
-10.6036175911198
30
0
41
1
10
45.7554
20
-10.0035263877599
30
0
41
1
10
45.7554
20
-9.71180820104735
30
0
41
1
10
45.7554
20
-9.23411150531294
30
0
41
1
10
45.7554
20
-9.04276817784233
30
0
41
1
10
45.7554
20
-8.8583759754878
30
0
0
SPLINE
5
324
100
AcDbEntity
8
1
62
256
6
ByLayer
370
13
48
1
60
0
100
AcDbSpline
70
4
71
3
72
10
73
6
40
0
40
0
40
0
40
0
40
0.806108221290959
40
0.806108221290959
40
1
40
1
40
1
40
1
41
1
10
234.01746143541
20
18.4105169374668
30
0
41
1
10
233.98105528529
20
18.361392460012
30
0
41
1
10
233.949421083916
20
18.3136202181575
30
0
41
1
10
233.920182811686
20
18.2636170844362
30
0
41
1
10
233.914994300718
20
18.2543678109838
30
0
41
1
10
233.91047345325
20
18.2458982426798
30
0
0
SPLINE
5
325
100
AcDbEntity
8
1
62
256
6
ByLayer
370
13
48
1
60
0
100
AcDbSpline
70
4
71
3
72
8
73
4
40
0
40
0
40
0
40
0
40
1
40
1
40
1
40
1
41
1
10
235.75072400195
20
24.4724123700821
30
0
41
1
10
235.660316715576
20
24.4655734937717
30
0
41
1
10
235.567780349052
20
24.4597107306405
30
0
41
1
10
235.473161709965
20
24.4548871689843
30
0
0
SPLINE
5
326
100
AcDbEntity
8
1
62
256
6
ByLayer
370
13
48
1
60
0
100
AcDbSpline
70
4
71
3
72
20
73
16
40
0
40
0
40
0
40
0
40
0.0646054560654773
40
0.0646054560654773
40
0.298454092049108
40
0.298454092049108
40
0.532302728032738
40
0.532302728032738
40
0.590764887028646
40
0.590764887028646
40
0.649227046024553
40
0.649227046024553
40
0.766151364016369
40
0.766151364016369
40
1
40
1
40
1
40
1
41
1
10
27.2219929468185
20
-11.7648411526065
30
0
41
1
10
26.9296934800306
20
-11.9930910861608
30
0
41
1
10
26.6422013172901
20
-12.2266832755118
30
0
41
1
10
25.3366583003067
20
-13.3307380176709
30
0
41
1
10
24.4016826309973
20
-14.2484871366894
30
0
41
1
10
22.6955526207194
20
-16.1829564037911
30
0
41
1
10
21.9241562008573
20
-17.1992566645241
30
0
41
1
10
21.0663266301444
20
-18.5326151901667
30
0
41
1
10
20.8999748712596
20
-18.8027754470914
30
0
41
1
10
20.5804062069353
20
-19.3460083783521
30
0
41
1
10
20.4269485773538
20
-19.6195218396297
30
0
41
1
10
19.9849633305832
20
-20.4457630008688
30
0
41
1
10
19.714736493021
20
-21.00408234533
30
0
41
1
10
18.9731774203047
20
-22.7000207379934
30
0
41
1
10
18.5702837349519
20
-23.858430852318
30
0
41
1
10
18.2556717416413
20
-25.0429118279438
30
0
0
SPLINE
5
327
100
AcDbEntity
8
1
62
256
6
ByLayer
370
13
48
1
60
0
100
AcDbSpline
70
4
71
3
72
34
73
30
40
0
40
0
40
0
40
0
40
0.0154681164157428
40
0.0154681164157428
40
0.0672855839728088
40
0.0672855839728088
40
0.119103051529875
40
0.119103051529875
40
0.170920519086941
40
0.170920519086941
40
0.222737986644007
40
0.222737986644007
40
0.274555454201072
40
0.274555454201072
40
0.378190389315204
40
0.378190389315204
40
0.481825324429336
40
0.481825324429336
40
0.585460259543468
40
0.585460259543468
40
0.6890951946576
40
0.6890951946576
40
0.740912662214667
40
0.740912662214667
40
0.792730129771733
40
0.792730129771733
40
0.896365064885867
40
0.896365064885867
40
1
40
1
40
1
40
1
41
1
10
184.457910431413
20
-20.4343766647184
30
0
41
1
10
184.18277329
20
-20.5014425026737
30
0
41
1
10
183.907681066096
20
-20.5678141790959
30
0
41
1
10
182.711306908587
20
-20.8534862425728
30
0
41
1
10
181.790627772032
20
-21.0654050828068
30
0
41
1
10
179.948180093886
20
-21.4702729609867
30
0
41
1
10
179.026408758507
20
-21.6632153293584
30
0
41
1
10
177.179122731567
20
-22.0279137421121
30
0
41
1
10
176.253381804614
20
-22.19969699443
30
0
41
1
10
174.397792412536
20
-22.5202483526528
30
0
41
1
10
173.467645096867
20
-22.6690007484729
30
0
41
1
10
171.60052459061
20
-22.9434797585465
30
0
41
1
10
170.66371926387
20
-23.0694070658238
30
0
41
1
10
167.843150486709
20
-23.4163186634304
30
0
41
1
10
165.949079859014
20
-23.6063700063724
30
0
41
1
10
162.132721158946
20
-23.9203777761404
30
0
41
1
10
160.2094194309
20
-24.0443168861422
30
0
41
1
10
156.347979388944
20
-24.2411354331085
30
0
41
1
10
154.408539284591
20
-24.314217233578
30
0
41
1
10
150.512670369805
20
-24.4227950882182
30
0
41
1
10
148.55646427133
20
-24.4582527295328
30
0
41
1
10
145.607706966895
20
-24.4911613451988
30
0
41
1
10
144.622181994982
20
-24.4987501016012
30
0
41
1
10
142.64874819633
20
-24.5085402189612
30
0
41
1
10
141.660513473973
20
-24.5107475091452
30
0
41
1
10
138.690853376993
20
-24.5114432898737
30
0
41
1
10
136.704309568096
20
-24.5041327973276
30
0
41
1
10
132.717919846029
20
-24.4840240777289
30
0
41
1
10
130.718112121797
20
-24.4712149994932
30
0
41
1
10
128.71196
20
-24.4590956846403
30
0
0
SPLINE
5
328
100
AcDbEntity
8
1
62
256
6
ByLayer
370
13
48
1
60
0
100
AcDbSpline
70
4
71
3
72
30
73
26
40
0
40
0
40
0
40
0
40
0.0664959930813805
40
0.0664959930813805
40
0.132991986162761
40
0.132991986162761
40
0.265983972325524
40
0.265983972325524
40
0.398975958488286
40
0.398975958488286
40
0.465471951569668
40
0.465471951569668
40
0.53196794465105
40
0.53196794465105
40
0.664959930813815
40
0.664959930813815
40
0.731455923895198
40
0.731455923895198
40
0.79795191697658
40
0.79795191697658
40
0.930943903139346
40
0.930943903139346
40
0.997439896220728
40
0.997439896220728
40
1
40
1
40
1
40
1
41
1
10
227.051636334876
20
24.2685765350875
30
0
41
1
10
226.055298973148
20
24.3315904459222
30
0
41
1
10
225.059167486037
20
24.3823953086995
30
0
41
1
10
223.066745934631
20
24.459397316699
30
0
41
1
10
222.070153830073
20
24.4855970438845
30
0
41
1
10
219.08169063259
20
24.5270571108014
30
0
41
1
10
217.091704285995
20
24.5051867070399
30
0
41
1
10
213.11202099912
20
24.3630350664174
30
0
41
1
10
211.122318815148
20
24.2427709171959
30
0
41
1
10
208.135010981329
20
23.9893610106255
30
0
41
1
10
207.138370633545
20
23.8926750598563
30
0
41
1
10
205.146026448709
20
23.675373845434
30
0
41
1
10
204.150421399182
20
23.5547825364888
30
0
41
1
10
201.164606418477
20
23.1576741395485
30
0
41
1
10
199.175385404461
20
22.8458368100994
30
0
41
1
10
196.190908878091
20
22.309236902025
30
0
41
1
10
195.195980123401
20
22.1188908942023
30
0
41
1
10
193.205450899013
20
21.7155523078131
30
0
41
1
10
192.209550985498
20
21.5023268728909
30
0
41
1
10
189.222406384825
20
20.8316409685615
30
0
41
1
10
187.231567503217
20
20.3431592509461
30
0
41
1
10
184.234664275969
20
19.5669893454252
30
0
41
1
10
183.23389388752
20
19.3011371417893
30
0
41
1
10
182.19171938635
20
19.0197250686631
30
0
41
1
10
182.153078932182
20
19.0092847888041
30
0
41
1
10
182.114434358646
20
18.9988370160606
30
0
0
SPLINE
5
329
100
AcDbEntity
8
1
62
256
6
ByLayer
370
13
48
1
60
0
100
AcDbSpline
70
4
71
3
72
12
73
8
40
0
40
0
40
0
40
0
40
0.297540813179006
40
0.297540813179006
40
0.648770406589503
40
0.648770406589503
40
1
40
1
40
1
40
1
41
1
10
46.1953903167697
20
-8.84871698494976
30
0
41
1
10
46.1953315306861
20
-9.30231163077372
30
0
41
1
10
46.1952809465238
20
-9.79466501740671
30
0
41
1
10
46.1951939447253
20
-10.9022882458453
30
0
41
1
10
46.195161758455
20
-11.5233482934529
30
0
41
1
10
46.1951314533772
20
-12.7265209137881
30
0
41
1
10
46.1951333436266
20
-13.3082739138629
30
0
41
1
10
46.195152152207
20
-13.8318899742144
30
0
0
SPLINE
5
32A
100
AcDbEntity
8
1
62
256
6
ByLayer
370
13
48
1
60
0
100
AcDbSpline
70
4
71
3
72
60
73
56
40
0
40
0
40
0
40
0
40
0.0398847890713902
40
0.0398847890713902
40
0.0598871892990706
40
0.0598871892990706
40
0.0798895895267509
40
0.0798895895267509
40
0.119894389982111
40
0.119894389982111
40
0.139896790209791
40
0.139896790209791
40
0.159899190437471
40
0.159899190437471
40
0.199903990892831
40
0.199903990892831
40
0.23990879134819
40
0.23990879134819
40
0.25991119157587
40
0.25991119157587
40
0.27991359180355
40
0.27991359180355
40
0.31991839225891
40
0.31991839225891
40
0.359923192714269
40
0.359923192714269
40
0.379925592941949
40
0.379925592941949
40
0.399927993169629
40
0.399927993169629
40
0.439932793624988
40
0.439932793624988
40
0.459935193852667
40
0.459935193852667
40
0.479937594080347
40
0.479937594080347
40
0.489938794194186
40
0.489938794194186
40
0.499939994308025
40
0.499939994308025
40
0.519942394535704
40
0.519942394535704
40
0.559947194991062
40
0.559947194991062
40
0.579949595218741
40
0.579949595218741
40
0.59995199544642
40
0.59995199544642
40
0.679961596357136
40
0.679961596357136
40
0.759971197267852
40
0.759971197267852
40
0.839980798178568
40
0.839980798178568
40
1
40
1
40
1
40
1
41
1
10
183.876405900445
20
-20.3152348718985
30
0
41
1
10
182.167621678048
20
-20.7173022281509
30
0
41
1
10
180.458724903142
20
-21.0972952501635
30
0
41
1
10
177.890566115184
20
-21.5975349470195
30
0
41
1
10
177.032227032603
20
-21.7520901028566
30
0
41
1
10
175.309606210504
20
-22.0493236591626
30
0
41
1
10
174.445371010765
20
-22.1911323416652
30
0
41
1
10
171.844237881887
20
-22.5881681457202
30
0
41
1
10
170.098866027612
20
-22.8145655711318
30
0
41
1
10
167.462834214341
20
-23.1036469185549
30
0
41
1
10
166.580871000595
20
-23.1915141775039
30
0
41
1
10
164.81275179666
20
-23.3520960749085
30
0
41
1
10
163.926494315556
20
-23.4249226673495
30
0
41
1
10
161.261076052176
20
-23.6234222225615
30
0
41
1
10
159.475279958484
20
-23.7284070478076
30
0
41
1
10
155.887037290253
20
-23.8957088554198
30
0
41
1
10
154.084647607581
20
-23.9583549421125
30
0
41
1
10
151.368958405907
20
-24.0264626154921
30
0
41
1
10
150.461553371746
20
-24.0449549499888
30
0
41
1
10
148.644448888609
20
-24.0757690477469
30
0
41
1
10
147.734526736917
20
-24.0880132186482
30
0
41
1
10
145.000244618375
20
-24.1176071530707
30
0
41
1
10
143.171385854634
20
-24.1277786709882
30
0
41
1
10
139.500023073255
20
-24.1321979739434
30
0
41
1
10
137.657382973424
20
-24.1253731297486
30
0
41
1
10
134.882585003634
20
-24.1121826653919
30
0
41
1
10
133.955907036677
20
-24.1072487340501
30
0
41
1
10
132.101846961108
20
-24.096843274076
30
0
41
1
10
131.174113436866
20
-24.0913703288097
30
0
41
1
10
128.388852498094
20
-24.0749353326164
30
0
41
1
10
126.529313982339
20
-24.0647157262446
30
0
41
1
10
123.735822996356
20
-24.0481529950134
30
0
41
1
10
122.803948052515
20
-24.0424446025769
30
0
41
1
10
120.938695066915
20
-24.0310312788275
30
0
41
1
10
120.005325165406
20
-24.025536954302
30
0
41
1
10
118.604267172807
20
-24.0220410074748
30
0
41
1
10
118.137080899254
20
-24.0217841368984
30
0
41
1
10
117.202806919676
20
-24.0237183958282
30
0
41
1
10
116.735666269435
20
-24.0256782028308
30
0
41
1
10
115.334237683336
20
-24.0320580014785
30
0
41
1
10
114.399943746136
20
-24.0355359826928
30
0
41
1
10
111.597047062435
20
-24.0393380039444
30
0
41
1
10
109.728428713043
20
-24.0359087184451
30
0
41
1
10
106.925495756853
20
-24.0306253431158
30
0
41
1
10
105.991183745345
20
-24.0287641571515
30
0
41
1
10
104.122561365265
20
-24.0259833489835
30
0
41
1
10
103.188251268534
20
-24.0251471166991
30
0
41
1
10
98.5167061888246
20
-24.0225402765142
30
0
41
1
10
94.779469877358
20
-24.0255830529142
30
0
41
1
10
87.3049975114311
20
-24.0255398787595
30
0
41
1
10
83.5677614427076
20
-24.023767739598
30
0
41
1
10
76.0932891693387
20
-24.0224749449959
30
0
41
1
10
72.3560529664765
20
-24.0227416859983
30
0
41
1
10
61.1443445405635
20
-24.0242436479922
30
0
41
1
10
53.6698723648838
20
-24.026255436826
30
0
41
1
10
46.1954
20
-24.0261010664786
30
0
0
SPLINE
5
32B
100
AcDbEntity
8
1
62
256
6
ByLayer
370
13
48
1
60
0
100
AcDbSpline
70
4
71
3
72
32
73
28
40
0
40
0
40
0
40
0
40
0.124711605411685
40
0.124711605411685
40
0.249423210823369
40
0.249423210823369
40
0.374134816235054
40
0.374134816235054
40
0.436490618940896
40
0.436490618940896
40
0.498846421646738
40
0.498846421646738
40
0.623558027058423
40
0.623558027058423
40
0.748269632470107
40
0.748269632470107
40
0.81062543517595
40
0.81062543517595
40
0.872981237881792
40
0.872981237881792
40
0.935337040587634
40
0.935337040587634
40
0.966514941940556
40
0.966514941940556
40
0.997692843293478
40
0.997692843293478
40
1
40
1
40
1
40
1
41
1
10
226.264259303457
20
22.8920141925646
30
0
41
1
10
224.482283636672
20
23.0065172608911
30
0
41
1
10
222.700997540874
20
23.0840387547231
30
0
41
1
10
219.137033739562
20
23.1648178431186
30
0
41
1
10
217.35605495811
20
23.168020659042
30
0
41
1
10
213.796467098751
20
23.1001421011401
30
0
41
1
10
212.017373940128
20
23.0290755646948
30
0
41
1
10
209.347802608398
20
22.8666854109396
30
0
41
1
10
208.457790100164
20
22.803209678056
30
0
41
1
10
206.677105238394
20
22.6578203618356
30
0
41
1
10
205.786185943027
20
22.5758994554453
30
0
41
1
10
203.113695971226
20
22.3032787724625
30
0
41
1
10
201.333694471381
20
22.0859024391116
30
0
41
1
10
197.774343307331
20
21.5833686534217
30
0
41
1
10
195.995030900911
20
21.2993186666542
30
0
41
1
10
193.324786311895
20
20.8143527465952
30
0
41
1
10
192.434474131337
20
20.6422879454722
30
0
41
1
10
190.652918136275
20
20.2804476963748
30
0
41
1
10
189.761595016072
20
20.0911958946533
30
0
41
1
10
187.979565061057
20
19.7030485528569
30
0
41
1
10
187.088588139273
20
19.5042291429398
30
0
41
1
10
185.752060695404
20
19.2023420899984
30
0
41
1
10
185.306533907657
20
19.1009305320156
30
0
41
1
10
184.41405785107
20
18.892080047427
30
0
41
1
10
183.967256998253
20
18.7852853751274
30
0
41
1
10
183.486801427153
20
18.6687160515013
30
0
41
1
10
183.453694482075
20
18.6606750399068
30
0
41
1
10
183.42058451495
20
18.652624950983
30
0
0
SPLINE
5
32C
100
AcDbEntity
8
1
62
256
6
ByLayer
370
13
48
1
60
0
100
AcDbSpline
70
4
71
3
72
14
73
10
40
0
40
0
40
0
40
0
40
0.0329988999350249
40
0.0329988999350249
40
0.516499449967514
40
0.516499449967514
40
0.758249724983757
40
0.758249724983757
40
1
40
1
40
1
40
1
41
1
10
206.444677973433
20
10.4376678489346
30
0
41
1
10
206.702839161066
20
10.456226725218
30
0
41
1
10
206.960994964023
20
10.4744348215671
30
0
41
1
10
211.001586628916
20
10.7539007795313
30
0
41
1
10
214.783081516432
20
10.9396058766716
30
0
41
1
10
220.458814095276
20
11.0967145315152
30
0
41
1
10
222.351436951254
20
11.1288523187
30
0
41
1
10
226.135712789143
20
11.1518138550892
30
0
41
1
10
228.027732429593
20
11.1426501998264
30
0
41
1
10
229.920060450341
20
11.1126591833108
30
0
0
SPLINE
5
32D
100
AcDbEntity
8
1
62
256
6
ByLayer
370
13
48
1
60
0
100
AcDbSpline
70
4
71
3
72
10
73
6
40
0
40
0
40
0
40
0
40
0.58988358332143
40
0.58988358332143
40
1
40
1
40
1
40
1
41
1
10
229.56546141318
20
9.11235497570257
30
0
41
1
10
225.77461470875
20
9.19400858180802
30
0
41
1
10
221.986711975666
20
9.20706248380043
30
0
41
1
10
215.566309660274
20
9.11507535262055
30
0
41
1
10
212.933483366018
20
9.04485907596583
30
0
41
1
10
210.300197404677
20
8.94330453459449
30
0
0
SPLINE
5
32E
100
AcDbEntity
8
1
62
256
6
ByLayer
370
13
48
1
60
0
100
AcDbSpline
70
4
71
3
72
46
73
42
40
0
40
0
40
0
40
0
40
0.074881754179641
40
0.155475999972065
40
0.241939551488102
40
0.334363271897083
40
0.432777781453244
40
0.537148897046936
40
0.546449397300715
40
0.556040760178654
40
0.565923686484372
40
0.576098857864527
40
0.586566934797716
40
0.59732855435795
40
0.608384327768133
40
0.61973483775645
40
0.631380635726657
40
0.643322238751822
40
0.655560126399983
40
0.668094737399415
40
0.680926466150716
40
0.694055659092573
40
0.707482610928018
40
0.721207560717964
40
0.735230687849025
40
0.749552107882914
40
0.764171868295096
40
0.779089944110888
40
0.794306233447788
40
0.80982055297346
40
0.825632633289558
40
0.84174211425238
40
0.858148540242205
40
0.874851355394134
40
0.891849898804225
40
0.909143399725766
40
0.926730972771665
40
0.944611613140073
40
0.962784191881558
40
0.981247451227414
40
1
40
1
40
1
40
1
41
1
10
42.2982669398826
20
-8.97678535193751
30
0
41
1
10
42.3536237416132
20
-9.0980714028081
30
0
41
1
10
42.4746466110276
20
-9.35293362817063
30
0
41
1
10
42.6815298782017
20
-9.75803490883476
30
0
41
1
10
42.9252693474567
20
-10.1991202659144
30
0
41
1
10
43.2099226047684
20
-10.6743213408099
30
0
41
1
10
43.5380299967487
20
-11.1801962694968
30
0
41
1
10
43.7905238278835
20
-11.5403802525755
30
0
41
1
10
43.9413549632338
20
-11.7474077654514
30
0
41
1
10
43.9766865771043
20
-11.7956809142106
30
0
41
1
10
44.0132413302138
20
-11.8453359487634
30
0
41
1
10
44.0510376772119
20
-11.896359560792
30
0
41
1
10
44.0900979533156
20
-11.9487327558055
30
0
41
1
10
44.1304427533236
20
-12.0024364361877
30
0
41
1
10
44.1720923701243
20
-12.0574497577991
30
0
41
1
10
44.2150662518203
20
-12.1137505089169
30
0
41
1
10
44.2593830073197
20
-12.1713149236966
30
0
41
1
10
44.3050602532756
20
-12.2301176537191
30
0
41
1
10
44.3521144998358
20
-12.2901316958446
30
0
41
1
10
44.4005610201713
20
-12.351328332919
30
0
41
1
10
44.4504137191909
20
-12.4136770718513
30
0
41
1
10
44.5016849972518
20
-12.4771455836583
30
0
41
1
10
44.5543856101583
20
-12.5416996444989
30
0
41
1
10
44.6085245252484
20
-12.6073030782811
30
0
41
1
10
44.6641087738141
20
-12.6739177010033
30
0
41
1
10
44.7211433000135
20
-12.7415032671224
30
0
41
1
10
44.7796308064903
20
-12.8100174182095
30
0
41
1
10
44.8395715969466
20
-12.8794156342013
30
0
41
1
10
44.9009634159328
20
-12.9496511874446
30
0
41
1
10
44.9638012861915
20
-13.0206751001966
30
0
41
1
10
45.0280773438032
20
-13.0924361044827
30
0
41
1
10
45.0937806718705
20
-13.1648806100233
30
0
41
1
10
45.1608971317987
20
-13.237952659825
30
0
41
1
10
45.2294091978529
20
-13.3115939532566
30
0
41
1
10
45.299295775471
20
-13.3857436321434
30
0
41
1
10
45.370532080593
20
-13.4603389982033
30
0
41
1
10
45.4430892867587
20
-13.535312688664
30
0
41
1
10
45.5169350654259
20
-13.6106034353788
30
0
41
1
10
45.592030716433
20
-13.6861148848317
30
0
41
1
10
45.6683413479623
20
-13.7618730556149
30
0
41
1
10
45.7195810156496
20
-13.8118536326483
30
0
41
1
10
45.7454
20
-13.8370381780307
30
0
0
SPLINE
5
32F
100
AcDbEntity
8
1
62
256
6
ByLayer
370
13
48
1
60
0
100
AcDbSpline
70
4
71
3
72
10
73
6
40
0
40
0
40
0
40
0
40
0.470344360250113
40
0.470344360250113
40
1
40
1
40
1
40
1
41
1
10
249.848771248823
20
24.2536397029054
30
0
41
1
10
249.848790114174
20
24.2534513665662
30
0
41
1
10
249.861636311939
20
24.2531995429611
30
0
41
1
10
249.90971045542
20
24.2526918792391
30
0
41
1
10
249.947668608966
20
24.2524489264225
30
0
41
1
10
249.986866322975
20
24.2523250916458
30
0
0
SPLINE
5
330
100
AcDbEntity
8
1
62
256
6
ByLayer
370
13
48
1
60
0
100
AcDbSpline
70
4
71
3
72
14
73
10
40
0
40
0
40
0
40
0
40
0.341770838585864
40
0.341770838585864
40
0.683541677171729
40
0.683541677171729
40
0.854427096464661
40
0.854427096464661
40
1
40
1
40
1
40
1
41
1
10
44.7454000000001
20
24.7747162270379
30
0
41
1
10
44.4852237081742
20
24.7822655144148
30
0
41
1
10
44.2284117059463
20
24.7931206677202
30
0
41
1
10
43.7212507416972
20
24.8207413732005
30
0
41
1
10
43.4709021747986
20
24.8375112931397
30
0
41
1
10
43.1003905459178
20
24.8661737894895
30
0
41
1
10
42.9782386839625
20
24.8762726024783
30
0
41
1
10
42.7575550960447
20
24.8954674178481
30
0
41
1
10
42.6578444454189
20
24.9045178930874
30
0
41
1
10
42.5599148680832
20
24.913691204123
30
0
0
SPLINE
5
331
100
AcDbEntity
8
1
62
256
6
ByLayer
370
13
48
1
60
0
100
AcDbSpline
70
4
71
3
72
34
73
30
40
0
40
0
40
0
40
0
40
0.1086218995633
40
0.1086218995633
40
0.217243799126601
40
0.217243799126601
40
0.325865698689901
40
0.325865698689901
40
0.380176648471549
40
0.380176648471549
40
0.434487598253196
40
0.434487598253196
40
0.543109497816491
40
0.543109497816491
40
0.651731397379786
40
0.651731397379786
40
0.706042347161434
40
0.706042347161434
40
0.760353296943081
40
0.760353296943081
40
0.868975196506376
40
0.868975196506376
40
0.923286146288023
40
0.923286146288023
40
0.950441621178847
40
0.950441621178847
40
0.977597096069671
40
0.977597096069671
40
1
40
1
40
1
40
1
41
1
10
229.371998938027
20
8.30472406237189
30
0
41
1
10
228.860844326063
20
8.42426267388512
30
0
41
1
10
228.344543027274
20
8.52175780912208
30
0
41
1
10
227.302657449375
20
8.67986932510283
30
0
41
1
10
226.777058394482
20
8.74041478542335
30
0
41
1
10
225.716473792081
20
8.82784119509591
30
0
41
1
10
225.181484365044
20
8.85469262197861
30
0
41
1
10
224.371285148806
20
8.87038769486068
30
0
41
1
10
224.099926936468
20
8.87150648573163
30
0
41
1
10
223.554440712502
20
8.86545827172526
30
0
41
1
10
223.279748561233
20
8.85825621882796
30
0
41
1
10
222.458084442526
20
8.82431652810365
30
0
41
1
10
221.91208167243
20
8.78534153386124
30
0
41
1
10
220.823542513766
20
8.67500579817826
30
0
41
1
10
220.281004388059
20
8.60366253984105
30
0
41
1
10
219.46986178176
20
8.47139582209178
30
0
41
1
10
219.199926429666
20
8.42308459706462
30
0
41
1
10
218.660981815361
20
8.31762285181907
30
0
41
1
10
218.391619589219
20
8.26035957979627
30
0
41
1
10
217.59585325672
20
8.07706887536952
30
0
41
1
10
217.078265850803
20
7.93908456921898
30
0
41
1
10
216.324387168431
20
7.70622556104826
30
0
41
1
10
216.07686568146
20
7.62426170350821
30
0
41
1
10
215.711946199297
20
7.49407681159542
30
0
41
1
10
215.591083982458
20
7.44935878350628
30
0
41
1
10
215.353345951369
20
7.35798071973448
30
0
41
1
10
215.236476596206
20
7.31133357256263
30
0
41
1
10
215.026989439539
20
7.2243738803291
30
0
41
1
10
214.933701475735
20
7.1843856482038
30
0
41
1
10
214.841892457275
20
7.1436773878539
30
0
0
SPLINE
5
332
100
AcDbEntity
8
1
62
256
6
ByLayer
370
13
48
1
60
0
100
AcDbSpline
70
4
71
3
72
12
73
8
40
0
40
0
40
0
40
0
40
0.120363522791581
40
0.120363522791581
40
0.413575681861054
40
0.413575681861054
40
1
40
1
40
1
40
1
41
1
10
207.819104247776
20
9.8933154093217
30
0
41
1
10
208.550067750954
20
9.61228026232399
30
0
41
1
10
209.281153811354
20
9.32862145204552
30
0
41
1
10
211.793914152755
20
8.34548040735189
30
0
41
1
10
213.577295662416
20
7.63352527836255
30
0
41
1
10
218.92104800513
20
5.46681580617664
30
0
41
1
10
222.479253101742
20
3.97983056954993
30
0
41
1
10
226.04226079699
20
2.47104270525509
30
0
0
SPLINE
5
333
100
AcDbEntity
8
1
62
256
6
ByLayer
370
13
48
1
60
0
100
AcDbSpline
70
4
71
3
72
24
73
20
40
0
40
0
40
0
40
0
40
0.0514081714716195
40
0.0514081714716195
40
0.102816342943239
40
0.102816342943239
40
0.154224514414859
40
0.154224514414859
40
0.205632685886479
40
0.205632685886479
40
0.308449028829735
40
0.308449028829735
40
0.41126537177299
40
0.41126537177299
40
0.616898057659502
40
0.616898057659502
40
0.822530743546014
40
0.822530743546014
40
1
40
1
40
1
40
1
41
1
10
252.229170085222
20
10.2459895820298
30
0
41
1
10
252.227824847507
20
10.2285034707438
30
0
41
1
10
252.226129161785
20
10.2095751832428
30
0
41
1
10
252.222004044437
20
10.1722201828738
30
0
41
1
10
252.219595208512
20
10.1541383236251
30
0
41
1
10
252.214905407104
20
10.1228309060493
30
0
41
1
10
252.212602429243
20
10.1092515743432
30
0
41
1
10
252.208124629281
20
10.0848083730249
30
0
41
1
10
252.205970679191
20
10.0740708261302
30
0
41
1
10
252.199660186733
20
10.0445023693126
30
0
41
1
10
252.195712537243
20
10.028530241171
30
0
41
1
10
252.188123651817
20
10.0004001216097
30
0
41
1
10
252.184476981639
20
9.98831715155316
30
0
41
1
10
252.173892440476
20
9.95601683334374
30
0
41
1
10
252.167268004991
20
9.93953772569762
30
0
41
1
10
252.154519946186
20
9.91182512390179
30
0
41
1
10
252.148400320131
20
9.90074031160302
30
0
41
1
10
252.137354508393
20
9.88365373320153
30
0
41
1
10
252.1323723344
20
9.87713377068829
30
0
41
1
10
252.127503257891
20
9.87174854202033
30
0
0
SPLINE
5
334
100
AcDbEntity
8
1
62
256
6
ByLayer
370
13
48
1
60
0
100
AcDbSpline
70
4
71
3
72
10
73
6
40
0
40
0
40
0
40
0
40
0.196352315229258
40
0.196352315229258
40
1
40
1
40
1
40
1
41
1
10
252.116712744821
20
9.86142305685689
30
0
41
1
10
252.11404517467
20
9.85925595942601
30
0
41
1
10
252.111408654433
20
9.85738989424101
30
0
41
1
10
252.098119302198
20
9.84917850983084
30
0
41
1
10
252.087890674719
20
9.84693956683961
30
0
41
1
10
252.077958767461
20
9.84756712025538
30
0
0
SPLINE
5
335
100
AcDbEntity
8
1
62
256
6
ByLayer
370
13
48
1
60
0
100
AcDbSpline
70
4
71
3
72
16
73
12
40
0
40
0
40
0
40
0
40
0.403896025651652
40
0.403896025651652
40
0.504870032064564
40
0.504870032064564
40
0.605844038477477
40
0.605844038477477
40
0.807792051303302
40
0.807792051303302
40
1
40
1
40
1
40
1
41
1
10
18.2557061594653
20
-21.5656432802862
30
0
41
1
10
18.5709280181432
20
-20.4301546663951
30
0
41
1
10
18.9753406086306
20
-19.3129055107706
30
0
41
1
10
19.5978621297828
20
-17.9392957810984
30
0
41
1
10
19.7282719616294
20
-17.6657332663109
30
0
41
1
10
20.0012589374739
20
-17.120976639371
30
0
41
1
10
20.1440735719105
20
-16.8493706338501
30
0
41
1
10
20.5889991293982
20
-16.0425134684502
30
0
41
1
10
20.9080450338398
20
-15.5146536970618
30
0
41
1
10
21.5734351481999
20
-14.504636691302
30
0
41
1
10
21.9173894865823
20
-14.0212099800255
30
0
41
1
10
22.2806272729216
20
-13.5467116142039
30
0
0
SPLINE
5
336
100
AcDbEntity
8
1
62
256
6
ByLayer
370
13
48
1
60
0
100
AcDbSpline
70
4
71
1
72
4
73
2
40
0
40
0
40
1
40
1
41
1
10
251.160142877342
20
9.59795163775448
30
0
41
1
10
251.223823229892
20
9.69618109832552
30
0
0
SPLINE
5
337
100
AcDbEntity
8
1
62
256
6
ByLayer
370
13
48
1
60
0
100
AcDbSpline
70
4
71
2
72
6
73
3
40
0
40
0
40
0
40
1
40
1
40
1
41
1
10
207.818336419919
20
9.89361005221755
30
0
41
1
10
207.576916413777
20
9.98596443461997
30
0
41
1
10
207.335560437793
20
10.0857534723612
30
0
0
SPLINE
5
338
100
AcDbEntity
8
1
62
256
6
ByLayer
370
13
48
1
60
0
100
AcDbSpline
70
4
71
3
72
14
73
10
40
0
40
0
40
0
40
0
40
0.0869074777459544
40
0.191617638694153
40
0.296392278166345
40
0.401183264959593
40
0.505984683881034
40
0.753018562739089
40
1
40
1
40
1
40
1
41
1
10
42.5655689712465
20
24.9286123415688
30
0
41
1
10
41.8145247530458
20
24.9919231230468
30
0
41
1
10
40.166675968097
20
25.180939155229
30
0
41
1
10
37.6572143623326
20
25.7285299244792
30
0
41
1
10
35.0032200295554
20
26.3207248115195
30
0
41
1
10
32.3388488452861
20
26.8741812204915
30
0
41
1
10
28.4618176113173
20
27.640946721848
30
0
41
1
10
23.3591175884717
20
28.5542716147962
30
0
41
1
10
19.1329712927593
20
29.2024143888173
30
0
41
1
10
17.0156
20
29.4999999999999
30
0
0
SPLINE
5
339
100
AcDbEntity
8
1
62
256
6
ByLayer
370
13
48
1
60
0
100
AcDbSpline
70
4
71
2
72
6
73
3
40
0
40
0
40
0
40
1
40
1
40
1
41
1
10
251.983010170497
20
9.73575452739351
30
0
41
1
10
252.050938076597
20
9.80674624499679
30
0
41
1
10
252.120180134285
20
9.86262113527556
30
0
0
SPLINE
5
33A
100
AcDbEntity
8
1
62
256
6
ByLayer
370
13
48
1
60
0
100
AcDbSpline
70
4
71
2
72
6
73
3
40
0
40
0
40
0
40
1
40
1
40
1
41
1
10
235.065532387315
20
8.96882492040226
30
0
41
1
10
235.140235646182
20
8.92049388450238
30
0
41
1
10
235.215212091251
20
8.8569914665938
30
0
0
SPLINE
5
33B
100
AcDbEntity
8
1
62
256
6
ByLayer
370
13
48
1
60
0
100
AcDbSpline
70
4
71
3
72
13
73
9
40
0
40
0
40
0
40
0
40
0.280006683887555
40
0.560058530649021
40
0.670064133289346
40
0.780006318946544
40
0.890049659299837
40
1
40
1
40
1
40
1
41
1
10
17.0156
20
-29.5
30
0
41
1
10
19.7108897759958
20
-29.121179467159
30
0
41
1
10
25.0871223342172
20
-28.2804507042038
30
0
41
1
10
31.4838046943797
20
-27.058339857162
30
0
41
1
10
36.2387773869671
20
-26.0614022227864
30
0
41
1
10
39.3582940900258
20
-25.3155639090661
30
0
41
1
10
42.5399046541715
20
-24.8652082779828
30
0
41
1
10
44.6735297057908
20
-24.7652199952331
30
0
41
1
10
45.7454
20
-24.765
30
0
0
LINE
5
7F
100
AcDbEntity
8
1
62
256
6
ByLayer
370
18
48
1
60
0
100
AcDbLine
10
244.871186
20
16.728486
30
0
11
244.736499
21
16.721428
31
0
39
0
210
0
220
0
230
1
0
LINE
5
80
100
AcDbEntity
8
1
62
256
6
ByLayer
370
18
48
1
60
0
100
AcDbLine
10
242.982755
20
18.447319
30
0
11
242.848068
21
18.44026
31
0
39
0
210
0
220
0
230
1
0
LINE
5
81
100
AcDbEntity
8
1
62
256
6
ByLayer
370
18
48
1
60
0
100
AcDbLine
10
242.848068
20
18.44026
30
0
11
242.836851
21
18.456797
31
0
39
0
210
0
220
0
230
1
0
LINE
5
82
100
AcDbEntity
8
1
62
256
6
ByLayer
370
18
48
1
60
0
100
AcDbLine
10
243.132259
20
15.594617
30
0
11
242.997571
21
15.587558
31
0
39
0
210
0
220
0
230
1
0
LINE
5
83
100
AcDbEntity
8
1
62
256
6
ByLayer
370
18
48
1
60
0
100
AcDbLine
10
244.430471
20
18.153222
30
0
11
244.294762
21
18.14611
31
0
39
0
210
0
220
0
230
1
0
LINE
5
84
100
AcDbEntity
8
1
62
256
6
ByLayer
370
18
48
1
60
0
100
AcDbLine
10
244.286114
20
18.128093
30
0
11
244.294762
21
18.14611
31
0
39
0
210
0
220
0
230
1
0
LINE
5
85
100
AcDbEntity
8
1
62
256
6
ByLayer
370
18
48
1
60
0
100
AcDbLine
10
244.736499
20
16.721428
30
0
11
244.756363
21
16.722908
31
0
39
0
210
0
220
0
230
1
0
LINE
5
86
100
AcDbEntity
8
1
62
256
6
ByLayer
370
18
48
1
60
0
100
AcDbLine
10
244.529797
20
16.055391
30
0
11
244.395109
21
16.048332
31
0
39
0
210
0
220
0
230
1
0
LINE
5
87
100
AcDbEntity
8
1
62
256
6
ByLayer
370
18
48
1
60
0
100
AcDbLine
10
242.988145
20
15.569939
30
0
11
242.997571
21
15.587558
31
0
39
0
210
0
220
0
230
1
0
LINE
5
88
100
AcDbEntity
8
1
62
256
6
ByLayer
370
18
48
1
60
0
100
AcDbLine
10
244.715901
20
17.494973
30
0
11
244.695991
21
17.494369
31
0
39
0
210
0
220
0
230
1
0
LINE
5
89
100
AcDbEntity
8
1
62
256
6
ByLayer
370
18
48
1
60
0
100
AcDbLine
10
244.541303
20
16.03843
30
0
11
244.405593
21
16.031317
31
0
39
0
210
0
220
0
230
1
0
LINE
5
8A
100
AcDbEntity
8
1
62
256
6
ByLayer
370
18
48
1
60
0
100
AcDbLine
10
244.405593
20
16.031317
30
0
11
244.395109
21
16.048332
31
0
39
0
210
0
220
0
230
1
0
LINE
5
8B
100
AcDbEntity
8
1
62
256
6
ByLayer
370
18
48
1
60
0
100
AcDbLine
10
244.420801
20
18.135151
30
0
11
244.286114
21
18.128093
31
0
39
0
210
0
220
0
230
1
0
LINE
5
8C
100
AcDbEntity
8
1
62
256
6
ByLayer
370
18
48
1
60
0
100
AcDbLine
10
243.123855
20
15.577052
30
0
11
242.988145
21
15.569939
31
0
39
0
210
0
220
0
230
1
0
LINE
5
8D
100
AcDbEntity
8
1
62
256
6
ByLayer
370
18
48
1
60
0
100
AcDbLine
10
242.972561
20
18.463909
30
0
11
242.836851
21
18.456797
31
0
39
0
210
0
220
0
230
1
0
LINE
5
8E
100
AcDbEntity
8
1
62
256
6
ByLayer
370
18
48
1
60
0
100
AcDbLine
10
244.830678
20
17.501428
30
0
11
244.695991
21
17.494369
31
0
39
0
210
0
220
0
230
1
0
LINE
5
8F
100
AcDbEntity
8
1
62
256
6
ByLayer
370
18
48
1
60
0
100
AcDbLine
10
252.720763
20
-7.094866
30
0
11
251.823753
21
-13.875237
31
0
39
0
210
0
220
0
230
1
0
LINE
5
90
100
AcDbEntity
8
1
62
256
6
ByLayer
370
18
48
1
60
0
100
AcDbLine
10
251.57322
20
-14.164582
30
0
11
251.517343
21
-14.180527
31
0
39
0
210
0
220
0
230
1
0
LINE
5
91
100
AcDbEntity
8
1
62
256
6
ByLayer
370
18
48
1
60
0
100
AcDbLine
10
251.581825
20
0.187741
30
0
11
251.597848
21
0.132135
31
0
39
0
210
0
220
0
230
1
0
LINE
5
92
100
AcDbEntity
8
1
62
256
6
ByLayer
370
18
48
1
60
0
100
AcDbLine
10
251.618989
20
0.037236
30
0
11
252.717758
21
-6.866413
31
0
39
0
210
0
220
0
230
1
0
LINE
5
93
100
AcDbEntity
8
1
62
256
6
ByLayer
370
13
48
1
60
0
100
AcDbLine
10
236.523263
20
8.723663
30
0
11
236.291466
21
8.669969
31
0
39
0
210
0
220
0
230
1
0
LINE
5
94
100
AcDbEntity
8
1
62
256
6
ByLayer
370
13
48
1
60
0
100
AcDbLine
10
251.895837
20
24.730073
30
0
11
251.891225
21
24.729832
31
0
39
0
210
0
220
0
230
1
0
LINE
5
95
100
AcDbEntity
8
1
62
256
6
ByLayer
370
13
48
1
60
0
100
AcDbLine
10
250.495619
20
25.382969
30
0
11
250.385305
21
25.359861
31
0
39
0
210
0
220
0
230
1
0
LINE
5
96
100
AcDbEntity
8
1
62
256
6
ByLayer
370
13
48
1
60
0
100
AcDbLine
10
250.746368
20
25.319387
30
0
11
250.741756
21
25.319145
31
0
39
0
210
0
220
0
230
1
0
LINE
5
97
100
AcDbEntity
8
1
62
256
6
ByLayer
370
13
48
1
60
0
100
AcDbLine
10
237.087285
20
9.831289
30
0
11
237.082673
21
9.831047
31
0
39
0
210
0
220
0
230
1
0
LINE
5
98
100
AcDbEntity
8
1
62
256
6
ByLayer
370
13
48
1
60
0
100
AcDbLine
10
250.175895
20
10.992652
30
0
11
252.022119
21
11.28591
31
0
39
0
210
0
220
0
230
1
0
LINE
5
99
100
AcDbEntity
8
1
62
256
6
ByLayer
370
13
48
1
60
0
100
AcDbLine
10
250.151892
20
10.835003
30
0
11
250.14728
21
10.834761
31
0
39
0
210
0
220
0
230
1
0
LINE
5
9A
100
AcDbEntity
8
1
62
256
6
ByLayer
370
13
48
1
60
0
100
AcDbLine
10
251.224697
20
25.320494
30
0
11
251.220084
21
25.320252
31
0
39
0
210
0
220
0
230
1
0
LINE
5
9B
100
AcDbEntity
8
1
62
256
6
ByLayer
370
13
48
1
60
0
100
AcDbLine
10
236.050384
20
16.39691
30
0
11
236.045772
21
16.396669
31
0
39
0
210
0
220
0
230
1
0
LINE
5
9C
100
AcDbEntity
8
1
62
256
6
ByLayer
370
13
48
1
60
0
100
AcDbLine
10
250.712656
20
17.658052
30
0
11
249.726535
21
23.902138
31
0
39
0
210
0
220
0
230
1
0
LINE
5
9D
100
AcDbEntity
8
1
62
256
6
ByLayer
370
13
48
1
60
0
100
AcDbLine
10
234.882263
20
22.797394
30
0
11
234.064634
21
16.549901
31
0
39
0
210
0
220
0
230
1
0
LINE
5
9E
100
AcDbEntity
8
1
62
256
6
ByLayer
370
13
48
1
60
0
100
AcDbLine
10
253.006284
20
17.514758
30
0
11
253.001671
21
17.514517
31
0
39
0
210
0
220
0
230
1
0
LINE
5
9F
100
AcDbEntity
8
1
62
256
6
ByLayer
370
13
48
1
60
0
100
AcDbLine
10
234.767337
20
23.988399
30
0
11
234.866244
21
23.046009
31
0
39
0
210
0
220
0
230
1
0
LINE
5
A0
100
AcDbEntity
8
1
62
256
6
ByLayer
370
13
48
1
60
0
100
AcDbLine
10
249.986866
20
24.252325
30
0
11
251.019963
21
17.710793
31
0
39
0
210
0
220
0
230
1
0
LINE
5
A1
100
AcDbEntity
8
1
62
256
6
ByLayer
370
13
48
1
60
0
100
AcDbLine
10
236.047721
20
16.597781
30
0
11
236.889697
21
23.031316
31
0
39
0
210
0
220
0
230
1
0
LINE
5
A2
100
AcDbEntity
8
1
62
256
6
ByLayer
370
13
48
1
60
0
100
AcDbLine
10
252.022119
20
11.28591
30
0
11
252.839748
21
17.533403
31
0
39
0
210
0
220
0
230
1
0
LINE
5
A3
100
AcDbEntity
8
1
62
256
6
ByLayer
370
13
48
1
60
0
100
AcDbLine
10
250.781594
20
25.320594
30
0
11
250.776982
21
25.320352
31
0
39
0
210
0
220
0
230
1
0
LINE
5
A4
100
AcDbEntity
8
1
62
256
6
ByLayer
370
13
48
1
60
0
100
AcDbLine
10
249.872581
20
11.081039
30
0
11
250.714558
21
17.514573
31
0
39
0
210
0
220
0
230
1
0
LINE
5
A5
100
AcDbEntity
8
1
62
256
6
ByLayer
370
13
48
1
60
0
100
AcDbLine
10
235.57124
20
24.350218
30
0
11
235.248264
21
24.350421
31
0
39
0
210
0
220
0
230
1
0
LINE
5
A6
100
AcDbEntity
8
1
62
256
6
ByLayer
370
13
48
1
60
0
100
AcDbLine
10
237.105595
20
23.006133
30
0
11
236.263619
21
16.572599
31
0
39
0
210
0
220
0
230
1
0
LINE
5
A7
100
AcDbEntity
8
1
62
256
6
ByLayer
370
13
48
1
60
0
100
AcDbLine
10
250.517946
20
25.309422
30
0
11
250.513333
21
25.309181
31
0
39
0
210
0
220
0
230
1
0
LINE
5
A8
100
AcDbEntity
8
1
62
256
6
ByLayer
370
13
48
1
60
0
100
AcDbLine
10
252.188655
20
11.267265
30
0
11
252.184043
21
11.267023
31
0
39
0
210
0
220
0
230
1
0
LINE
5
A9
100
AcDbEntity
8
1
62
256
6
ByLayer
370
13
48
1
60
0
100
AcDbLine
10
235.058876
20
24.573964
30
0
11
235.171001
21
24.562513
31
0
39
0
210
0
220
0
230
1
0
LINE
5
AA
100
AcDbEntity
8
1
62
256
6
ByLayer
370
13
48
1
60
0
100
AcDbLine
10
251.620478
20
10.067833
30
0
11
252.075035
21
11.039229
31
0
39
0
210
0
220
0
230
1
0
LINE
5
AB
100
AcDbEntity
8
1
62
256
6
ByLayer
370
13
48
1
60
0
100
AcDbLine
10
237.036505
20
10.152825
30
0
11
236.050384
21
16.39691
31
0
39
0
210
0
220
0
230
1
0
LINE
5
AC
100
AcDbEntity
8
1
62
256
6
ByLayer
370
13
48
1
60
0
100
AcDbLine
10
252.059354
20
11.138478
30
0
11
250.14728
21
10.834761
31
0
39
0
210
0
220
0
230
1
0
LINE
5
AD
100
AcDbEntity
8
1
62
256
6
ByLayer
370
13
48
1
60
0
100
AcDbLine
10
237.061361
20
9.747005
30
0
11
237.056749
21
9.746763
31
0
39
0
210
0
220
0
230
1
0
LINE
5
AE
100
AcDbEntity
8
1
62
256
6
ByLayer
370
13
48
1
60
0
100
AcDbLine
10
249.986466
20
10.707477
30
0
11
251.732429
21
10.984809
31
0
39
0
210
0
220
0
230
1
0
LINE
5
AF
100
AcDbEntity
8
1
62
256
6
ByLayer
370
13
48
1
60
0
100
AcDbLine
10
251.732429
20
10.984809
30
0
11
251.418901
21
9.701026
31
0
39
0
210
0
220
0
230
1
0
LINE
5
B0
100
AcDbEntity
8
1
62
256
6
ByLayer
370
13
48
1
60
0
100
AcDbLine
10
236.728487
20
23.090652
30
0
11
234.882263
21
22.797394
31
0
39
0
210
0
220
0
230
1
0
LINE
5
B1
100
AcDbEntity
8
1
62
256
6
ByLayer
370
13
48
1
60
0
100
AcDbLine
10
236.265521
20
16.42912
30
0
11
237.251642
21
10.185034
31
0
39
0
210
0
220
0
230
1
0
LINE
5
B2
100
AcDbEntity
8
1
62
256
6
ByLayer
370
13
48
1
60
0
100
AcDbLine
10
237.660167
20
23.27206
30
0
11
248.598128
21
23.845294
31
0
39
0
210
0
220
0
230
1
0
LINE
5
B3
100
AcDbEntity
8
1
62
256
6
ByLayer
370
13
48
1
60
0
100
AcDbLine
10
233.836271
20
16.583555
30
0
11
234.652172
21
22.817846
31
0
39
0
210
0
220
0
230
1
0
LINE
5
B4
100
AcDbEntity
8
1
62
256
6
ByLayer
370
13
48
1
60
0
100
AcDbLine
10
252.837655
20
17.69123
30
0
11
251.729872
21
24.705675
31
0
39
0
210
0
220
0
230
1
0
LINE
5
B5
100
AcDbEntity
8
1
62
256
6
ByLayer
370
13
48
1
60
0
100
AcDbLine
10
253.006284
20
17.514758
30
0
11
252.188655
21
11.267265
31
0
39
0
210
0
220
0
230
1
0
LINE
5
B6
100
AcDbEntity
8
1
62
256
6
ByLayer
370
13
48
1
60
0
100
AcDbLine
10
237.087285
20
9.831289
30
0
11
237.036505
21
10.152825
31
0
39
0
210
0
220
0
230
1
0
LINE
5
B7
100
AcDbEntity
8
1
62
256
6
ByLayer
370
13
48
1
60
0
100
AcDbLine
10
251.620478
20
10.067833
30
0
11
252.043035
21
10.134953
31
0
39
0
210
0
220
0
230
1
0
LINE
5
B8
100
AcDbEntity
8
1
62
256
6
ByLayer
370
13
48
1
60
0
100
AcDbLine
10
253.101965
20
17.73125
30
0
11
251.994181
21
24.745695
31
0
39
0
210
0
220
0
230
1
0
LINE
5
B9
100
AcDbEntity
8
1
62
256
6
ByLayer
370
13
48
1
60
0
100
AcDbLine
10
252.063966
20
11.13872
30
0
11
252.059354
21
11.138478
31
0
39
0
210
0
220
0
230
1
0
LINE
5
BA
100
AcDbEntity
8
1
62
256
6
ByLayer
370
13
48
1
60
0
100
AcDbLine
10
250.418017
20
25.361575
30
0
11
250.649813
21
25.415269
31
0
39
0
210
0
220
0
230
1
0
LINE
5
BB
100
AcDbEntity
8
1
62
256
6
ByLayer
370
13
48
1
60
0
100
AcDbLine
10
233.934996
20
16.57048
30
0
11
234.752625
21
22.817973
31
0
39
0
210
0
220
0
230
1
0
LINE
5
BC
100
AcDbEntity
8
1
62
256
6
ByLayer
370
13
48
1
60
0
100
AcDbLine
10
236.917515
20
9.830979
30
0
11
235.884419
21
16.372512
31
0
39
0
210
0
220
0
230
1
0
LINE
5
BD
100
AcDbEntity
8
1
62
256
6
ByLayer
370
13
48
1
60
0
100
AcDbLine
10
233.66899
20
15.999982
30
0
11
233.614081
21
16.347665
31
0
39
0
210
0
220
0
230
1
0
LINE
5
BE
100
AcDbEntity
8
1
62
256
6
ByLayer
370
13
48
1
60
0
100
AcDbLine
10
253.105008
20
17.501684
30
0
11
252.289107
21
11.267392
31
0
39
0
210
0
220
0
230
1
0
LINE
5
BF
100
AcDbEntity
8
1
62
256
6
ByLayer
370
13
48
1
60
0
100
AcDbLine
10
235.881185
20
16.616426
30
0
11
236.728487
21
23.090652
31
0
39
0
210
0
220
0
230
1
0
LINE
5
C0
100
AcDbEntity
8
1
62
256
6
ByLayer
370
13
48
1
60
0
100
AcDbLine
10
251.732429
20
10.984809
30
0
11
252.075035
21
11.039229
31
0
39
0
210
0
220
0
230
1
0
LINE
5
C1
100
AcDbEntity
8
1
62
256
6
ByLayer
370
13
48
1
60
0
100
AcDbLine
10
251.023197
20
17.466878
30
0
11
250.175895
21
10.992652
31
0
39
0
210
0
220
0
230
1
0
LINE
5
C2
100
AcDbEntity
8
1
62
256
6
ByLayer
370
13
48
1
60
0
100
AcDbLine
10
250.517946
20
25.309422
30
0
11
250.746368
21
25.319387
31
0
39
0
210
0
220
0
230
1
0
LINE
5
C3
100
AcDbEntity
8
1
62
256
6
ByLayer
370
13
48
1
60
0
100
AcDbLine
10
236.607246
20
8.924843
30
0
11
236.602633
21
8.924601
31
0
39
0
210
0
220
0
230
1
0
LINE
5
C4
100
AcDbEntity
8
1
62
256
6
ByLayer
370
13
48
1
60
0
100
AcDbLine
10
253.00362
20
17.715629
30
0
11
252.999008
21
17.715387
31
0
39
0
210
0
220
0
230
1
0
LINE
5
C5
100
AcDbEntity
8
1
62
256
6
ByLayer
370
13
48
1
60
0
100
AcDbLine
10
236.899098
20
23.138148
30
0
11
236.043108
21
16.597539
31
0
39
0
210
0
220
0
230
1
0
LINE
5
C6
100
AcDbEntity
8
1
62
256
6
ByLayer
370
13
48
1
60
0
100
AcDbLine
10
250.734468
20
25.168563
30
0
11
250.506045
21
25.158599
31
0
39
0
210
0
220
0
230
1
0
LINE
5
C7
100
AcDbEntity
8
1
62
256
6
ByLayer
370
13
48
1
60
0
100
AcDbLine
10
250.078965
20
25.177467
30
0
11
250.237712
21
25.185787
31
0
39
0
210
0
220
0
230
1
0
LINE
5
C8
100
AcDbEntity
8
1
62
256
6
ByLayer
370
13
48
1
60
0
100
AcDbLine
10
234.877313
20
22.946518
30
0
11
236.789387
21
23.250236
31
0
39
0
210
0
220
0
230
1
0
LINE
5
C9
100
AcDbEntity
8
1
62
256
6
ByLayer
370
13
48
1
60
0
100
AcDbLine
10
236.90371
20
23.13839
30
0
11
236.899098
21
23.138148
31
0
39
0
210
0
220
0
230
1
0
LINE
5
CA
100
AcDbEntity
8
1
62
256
6
ByLayer
370
13
48
1
60
0
100
AcDbLine
10
233.613699
20
17.054993
30
0
11
233.595434
21
16.703475
31
0
39
0
210
0
220
0
230
1
0
LINE
5
CB
100
AcDbEntity
8
1
62
256
6
ByLayer
370
13
48
1
60
0
100
AcDbLine
10
250.385305
20
25.359861
30
0
11
250.418017
21
25.361575
31
0
39
0
210
0
220
0
230
1
0
LINE
5
CC
100
AcDbEntity
8
1
62
256
6
ByLayer
370
13
48
1
60
0
100
AcDbLine
10
233.66899
20
15.999982
30
0
11
234.917067
21
9.338701
31
0
39
0
210
0
220
0
230
1
0
LINE
5
CD
100
AcDbEntity
8
1
62
256
6
ByLayer
370
13
48
1
60
0
100
AcDbLine
10
249.281112
20
10.813179
30
0
11
238.343151
21
10.239944
31
0
39
0
210
0
220
0
230
1
0
LINE
5
CE
100
AcDbEntity
8
1
62
256
6
ByLayer
370
13
48
1
60
0
100
AcDbLine
10
236.423334
20
8.775816
30
0
11
236.194911
21
8.765851
31
0
39
0
210
0
220
0
230
1
0
LINE
5
CF
100
AcDbEntity
8
1
62
256
6
ByLayer
370
13
48
1
60
0
100
AcDbLine
10
236.169914
20
8.914741
30
0
11
236.398336
21
8.924706
31
0
39
0
210
0
220
0
230
1
0
LINE
5
D0
100
AcDbEntity
8
1
62
256
6
ByLayer
370
13
48
1
60
0
100
AcDbLine
10
251.895837
20
24.730073
30
0
11
253.00362
21
17.715629
31
0
39
0
210
0
220
0
230
1
0
LINE
5
D1
100
AcDbEntity
8
1
62
256
6
ByLayer
370
13
48
1
60
0
100
AcDbLine
10
236.954814
20
23.377761
30
0
11
234.866244
21
23.046009
31
0
39
0
210
0
220
0
230
1
0
LINE
5
D2
100
AcDbEntity
8
1
62
256
6
ByLayer
370
13
48
1
60
0
100
AcDbLine
10
252.077959
20
9.847567
30
0
11
252.043035
21
10.134953
31
0
39
0
210
0
220
0
230
1
0
LINE
5
D3
100
AcDbEntity
8
1
62
256
6
ByLayer
370
13
48
1
60
0
100
AcDbLine
10
236.047721
20
16.597781
30
0
11
236.043108
21
16.597539
31
0
39
0
210
0
220
0
230
1
0
LINE
5
D4
100
AcDbEntity
8
1
62
256
6
ByLayer
370
13
48
1
60
0
100
AcDbLine
10
236.045772
20
16.396669
30
0
11
237.082673
21
9.831047
31
0
39
0
210
0
220
0
230
1
0
LINE
5
D5
100
AcDbEntity
8
1
62
256
6
ByLayer
370
13
48
1
60
0
100
AcDbLine
10
234.066726
20
16.392074
30
0
11
235.17451
21
9.37763
31
0
39
0
210
0
220
0
230
1
0
LINE
5
D6
100
AcDbEntity
8
1
62
256
6
ByLayer
370
13
48
1
60
0
100
AcDbLine
10
253.001671
20
17.514517
30
0
11
252.184043
21
11.267023
31
0
39
0
210
0
220
0
230
1
0
LINE
5
D7
100
AcDbEntity
8
1
62
256
6
ByLayer
370
13
48
1
60
0
100
AcDbLine
10
252.063966
20
11.13872
30
0
11
250.151892
21
10.835003
31
0
39
0
210
0
220
0
230
1
0
LINE
5
D8
100
AcDbEntity
8
1
62
256
6
ByLayer
370
13
48
1
60
0
100
AcDbLine
10
236.889697
20
23.031316
30
0
11
236.90371
21
23.13839
31
0
39
0
210
0
220
0
230
1
0
LINE
5
D9
100
AcDbEntity
8
1
62
256
6
ByLayer
370
13
48
1
60
0
100
AcDbLine
10
233.839315
20
16.353988
30
0
11
234.947098
21
9.339544
31
0
39
0
210
0
220
0
230
1
0
LINE
5
DA
100
AcDbEntity
8
1
62
256
6
ByLayer
370
13
48
1
60
0
100
AcDbLine
10
251.891225
20
24.729832
30
0
11
252.999008
21
17.715387
31
0
39
0
210
0
220
0
230
1
0
LINE
5
DB
100
AcDbEntity
8
1
62
256
6
ByLayer
370
13
48
1
60
0
100
AcDbLine
10
235.045442
20
9.355165
30
0
11
233.937659
21
16.369609
31
0
39
0
210
0
220
0
230
1
0
LINE
5
DC
100
AcDbEntity
8
1
62
256
6
ByLayer
370
13
48
1
60
0
100
AcDbLine
10
251.658101
20
0.634198
30
0
11
251.665887
21
0.625893
31
0
39
0
210
0
220
0
230
1
0
LINE
5
DD
100
AcDbEntity
8
1
62
256
6
ByLayer
370
13
48
1
60
0
100
AcDbLine
10
233.595358
20
12.256873
30
0
11
231.28315
21
15.813435
31
0
39
0
210
0
220
0
230
1
0
LINE
5
DE
100
AcDbEntity
8
1
62
256
6
ByLayer
370
13
48
1
60
0
100
AcDbLine
10
251.698251
20
8.687537
30
0
11
251.649873
21
9.535399
31
0
39
0
210
0
220
0
230
1
0
LINE
5
DF
100
AcDbEntity
8
1
62
256
6
ByLayer
370
13
48
1
60
0
100
AcDbLine
10
251.945763
20
9.048655
30
0
11
251.771193
21
8.392113
31
0
39
0
210
0
220
0
230
1
0
LINE
5
E0
100
AcDbEntity
8
1
62
256
6
ByLayer
370
13
48
1
60
0
100
AcDbLine
10
5.5
20
-4.071
30
0
11
5.5
21
4.071
31
0
39
0
210
0
220
0
230
1
0
LINE
5
E1
100
AcDbEntity
8
1
62
256
6
ByLayer
370
13
48
1
60
0
100
AcDbLine
10
250.504817
20
-24.65527
30
0
11
232.268906
21
-24.65527
31
0
39
0
210
0
220
0
230
1
0
LINE
5
E2
100
AcDbEntity
8
1
62
256
6
ByLayer
370
13
48
1
60
0
100
AcDbLine
10
251.945763
20
9.048655
30
0
11
251.946838
21
0.945917
31
0
39
0
210
0
220
0
230
1
0
LINE
5
E3
100
AcDbEntity
8
1
62
256
6
ByLayer
370
13
48
1
60
0
100
AcDbLine
10
6
20
-31.067508
30
0
11
6
21
-27.496508
31
0
39
0
210
0
220
0
230
1
0
LINE
5
E4
100
AcDbEntity
8
1
62
256
6
ByLayer
370
13
48
1
60
0
100
AcDbLine
10
242.14398
20
9.938451
30
0
11
249.748396
21
10.336982
31
0
39
0
210
0
220
0
230
1
0
LINE
5
E5
100
AcDbEntity
8
1
62
256
6
ByLayer
370
13
48
1
60
0
100
AcDbLine
10
252.241458
20
-7.781948
30
0
11
250.216895
21
-5.903003
31
0
39
0
210
0
220
0
230
1
0
LINE
5
E6
100
AcDbEntity
8
1
62
256
6
ByLayer
370
13
48
1
60
0
100
AcDbLine
10
246.966143
20
10.691856
30
0
11
249.054567
21
10.801306
31
0
39
0
210
0
220
0
230
1
0
LINE
5
E7
100
AcDbEntity
8
1
62
256
6
ByLayer
370
13
48
1
60
0
100
AcDbLine
10
0
20
-26.761335
30
0
11
0
21
-4.071
31
0
39
0
210
0
220
0
230
1
0
LINE
5
E8
100
AcDbEntity
8
1
62
256
6
ByLayer
370
13
48
1
60
0
100
AcDbLine
10
249.5089
20
10.624842
30
0
11
238.869247
21
10.067241
31
0
39
0
210
0
220
0
230
1
0
LINE
5
E9
100
AcDbEntity
8
1
62
256
6
ByLayer
370
13
48
1
60
0
100
AcDbLine
10
251.757844
20
1.147502
30
0
11
251.946838
21
0.945917
31
0
39
0
210
0
220
0
230
1
0
LINE
5
EA
100
AcDbEntity
8
1
62
256
6
ByLayer
370
13
48
1
60
0
100
AcDbLine
10
231.593835
20
11.142447
30
0
11
233.595358
21
12.256873
31
0
39
0
210
0
220
0
230
1
0
LINE
5
EB
100
AcDbEntity
8
1
62
256
6
ByLayer
370
13
48
1
60
0
100
AcDbLine
10
128.71196
20
-9.389125
30
0
11
128.71196
21
24.485803
31
0
39
0
210
0
220
0
230
1
0
LINE
5
EC
100
AcDbEntity
8
1
62
256
6
ByLayer
370
13
48
1
60
0
100
AcDbLine
10
0
20
-4.071
30
0
11
0
21
4.071
31
0
39
0
210
0
220
0
230
1
0
LINE
5
ED
100
AcDbEntity
8
1
62
256
6
ByLayer
370
13
48
1
60
0
100
AcDbLine
10
238.820367
20
9.974233
30
0
11
238.585877
21
9.961944
31
0
39
0
210
0
220
0
230
1
0
LINE
5
EE
100
AcDbEntity
8
1
62
256
6
ByLayer
370
13
48
1
60
0
100
AcDbLine
10
232.268906
20
-24.65527
30
0
11
232.268906
21
-0.697147
31
0
39
0
210
0
220
0
230
1
0
LINE
5
EF
100
AcDbEntity
8
1
62
256
6
ByLayer
370
13
48
1
60
0
100
AcDbLine
10
242.28856
20
8.944656
30
0
11
242.815825
21
8.972289
31
0
39
0
210
0
220
0
230
1
0
LINE
5
F0
100
AcDbEntity
8
1
62
256
6
ByLayer
370
13
48
1
60
0
100
AcDbLine
10
251.293706
20
-0.263805
30
0
11
252.219038
21
-6.077743
31
0
39
0
210
0
220
0
230
1
0
LINE
5
F1
100
AcDbEntity
8
1
62
256
6
ByLayer
370
13
48
1
60
0
100
AcDbLine
10
247.864053
20
9.236855
30
0
11
250.081889
21
9.353087
31
0
39
0
210
0
220
0
230
1
0
LINE
5
F2
100
AcDbEntity
8
1
62
256
6
ByLayer
370
13
48
1
60
0
100
AcDbLine
10
251.649873
20
9.535399
30
0
11
251.559347
21
9.530654
31
0
39
0
210
0
220
0
230
1
0
LINE
5
F3
100
AcDbEntity
8
1
62
256
6
ByLayer
370
13
48
1
60
0
100
AcDbLine
10
238.860023
20
10.066758
30
0
11
238.869247
21
10.067241
31
0
39
0
210
0
220
0
230
1
0
LINE
5
F4
100
AcDbEntity
8
1
62
256
6
ByLayer
370
13
48
1
60
0
100
AcDbLine
10
5.5
20
-4.071
30
0
11
0.5
21
-4.071
31
0
39
0
210
0
220
0
230
1
0
LINE
5
F5
100
AcDbEntity
8
1
62
256
6
ByLayer
370
13
48
1
60
0
100
AcDbLine
10
0.5
20
-27.197533
30
0
11
0.5
21
-4.071
31
0
39
0
210
0
220
0
230
1
0
LINE
5
F6
100
AcDbEntity
8
1
62
256
6
ByLayer
370
13
48
1
60
0
100
AcDbLine
10
0
20
-29.748313
30
0
11
5.5
21
-29.748313
31
0
39
0
210
0
220
0
230
1
0
LINE
5
F7
100
AcDbEntity
8
1
62
256
6
ByLayer
370
13
48
1
60
0
100
AcDbLine
10
231.28315
20
11.173515
30
0
11
231.28315
21
15.813435
31
0
39
0
210
0
220
0
230
1
0
LINE
5
F8
100
AcDbEntity
8
1
62
256
6
ByLayer
370
13
48
1
60
0
100
AcDbLine
10
6
20
-3.571
30
0
11
6
21
3.571
31
0
39
0
210
0
220
0
230
1
0
LINE
5
F9
100
AcDbEntity
8
1
62
256
6
ByLayer
370
13
48
1
60
0
100
AcDbLine
10
249.434176
20
2.271209
30
0
11
251.222571
21
0.611446
31
0
39
0
210
0
220
0
230
1
0
LINE
5
FA
100
AcDbEntity
8
1
62
256
6
ByLayer
370
13
48
1
60
0
100
AcDbLine
10
250.081889
20
9.353087
30
0
11
249.434176
21
2.271209
31
0
39
0
210
0
220
0
230
1
0
LINE
5
FB
100
AcDbEntity
8
1
62
256
6
ByLayer
370
13
48
1
60
0
100
AcDbLine
10
251.293706
20
-0.263805
30
0
11
249.426617
21
1.468992
31
0
39
0
210
0
220
0
230
1
0
LINE
5
FC
100
AcDbEntity
8
1
62
256
6
ByLayer
370
13
48
1
60
0
100
AcDbLine
10
251.753738
20
9.418667
30
0
11
251.945763
21
9.048655
31
0
39
0
210
0
220
0
230
1
0
LINE
5
FD
100
AcDbEntity
8
1
62
256
6
ByLayer
370
13
48
1
60
0
100
AcDbLine
10
239.306299
20
8.319589
30
0
11
239.602935
21
8.335135
31
0
39
0
210
0
220
0
230
1
0
LINE
5
FE
100
AcDbEntity
8
1
62
256
6
ByLayer
370
13
48
1
60
0
100
AcDbLine
10
239.210134
20
10.285381
30
0
11
241.298558
21
10.394831
31
0
39
0
210
0
220
0
230
1
0
LINE
5
FF
100
AcDbEntity
8
1
62
256
6
ByLayer
370
13
48
1
60
0
100
AcDbLine
10
234.140729
20
12.392892
30
0
11
233.51308
21
16.367147
31
0
39
0
210
0
220
0
230
1
0
LINE
5
100
100
AcDbEntity
8
1
62
256
6
ByLayer
370
13
48
1
60
0
100
AcDbLine
10
0.5
20
-27.197533
30
0
11
5.5
21
-27.197533
31
0
39
0
210
0
220
0
230
1
0
LINE
5
101
100
AcDbEntity
8
1
62
256
6
ByLayer
370
13
48
1
60
0
100
AcDbLine
10
229.268906
20
-24.402501
30
0
11
222.646072
21
-24.402501
31
0
39
0
210
0
220
0
230
1
0
LINE
5
102
100
AcDbEntity
8
1
62
256
6
ByLayer
370
13
48
1
60
0
100
AcDbLine
10
5.5
20
-31.268533
30
0
11
0.5
21
-31.268533
31
0
39
0
210
0
220
0
230
1
0
LINE
5
103
100
AcDbEntity
8
1
62
256
6
ByLayer
370
13
48
1
60
0
100
AcDbLine
10
230.341076
20
1.575502
30
0
11
230.655887
21
-0.51607
31
0
39
0
210
0
220
0
230
1
0
LINE
5
104
100
AcDbEntity
8
1
62
256
6
ByLayer
370
13
48
1
60
0
100
AcDbLine
10
250.504817
20
-24.65527
30
0
11
251.759198
21
-15.173587
31
0
39
0
210
0
220
0
230
1
0
LINE
5
105
100
AcDbEntity
8
1
62
256
6
ByLayer
370
13
48
1
60
0
100
AcDbLine
10
249.426617
20
1.468992
30
0
11
249.629191
21
-1.28414
31
0
39
0
210
0
220
0
230
1
0
LINE
5
106
100
AcDbEntity
8
1
62
256
6
ByLayer
370
13
48
1
60
0
100
AcDbLine
10
251.759198
20
-15.173587
30
0
11
251.362502
21
-14.871834
31
0
39
0
210
0
220
0
230
1
0
LINE
5
107
100
AcDbEntity
8
1
62
256
6
ByLayer
370
13
48
1
60
0
100
AcDbLine
10
45.7554
20
-13.83189
30
0
11
45.7554
21
-24.026262
31
0
39
0
210
0
220
0
230
1
0
LINE
5
108
100
AcDbEntity
8
1
62
256
6
ByLayer
370
13
48
1
60
0
100
AcDbLine
10
50.7454
20
-8.858345
30
0
11
50.7454
21
24.760216
31
0
39
0
210
0
220
0
230
1
0
LINE
5
109
100
AcDbEntity
8
1
62
256
6
ByLayer
370
13
48
1
60
0
100
AcDbLine
10
252.241458
20
-7.781948
30
0
11
251.376961
21
-14.316556
31
0
39
0
210
0
220
0
230
1
0
LINE
5
10A
100
AcDbEntity
8
1
62
256
6
ByLayer
370
13
48
1
60
0
100
AcDbLine
10
234.635818
20
22.862699
30
0
11
234.06261
21
18.482821
31
0
39
0
210
0
220
0
230
1
0
LINE
5
10B
100
AcDbEntity
8
1
62
256
6
ByLayer
370
13
48
1
60
0
100
AcDbLine
10
0.5
20
4.071
30
0
11
5.5
21
4.071
31
0
39
0
210
0
220
0
230
1
0
LINE
5
10C
100
AcDbEntity
8
1
62
256
6
ByLayer
370
13
48
1
60
0
100
AcDbLine
10
45.7454
20
-8.856702
30
0
11
45.7454
21
24.760211
31
0
39
0
210
0
220
0
230
1
0
LINE
5
10D
100
AcDbEntity
8
1
62
256
6
ByLayer
370
13
48
1
60
0
100
AcDbLine
10
250.138209
20
-4.14658
30
0
11
252.219038
21
-6.077743
31
0
39
0
210
0
220
0
230
1
0
LINE
5
10E
100
AcDbEntity
8
1
62
256
6
ByLayer
370
13
48
1
60
0
100
AcDbLine
10
226.101623
20
2.442546
30
0
11
226.311129
21
1.050603
31
0
39
0
210
0
220
0
230
1
0
LINE
5
10F
100
AcDbEntity
8
1
62
256
6
ByLayer
370
13
48
1
60
0
100
AcDbLine
10
246.794843
20
10.650576
30
0
11
246.612707
21
10.641031
31
0
39
0
210
0
220
0
230
1
0
LINE
5
110
100
AcDbEntity
8
1
62
256
6
ByLayer
370
13
48
1
60
0
100
AcDbLine
10
250.081889
20
9.353087
30
0
11
251.237058
21
9.413627
31
0
39
0
210
0
220
0
230
1
0
LINE
5
111
100
AcDbEntity
8
1
62
256
6
ByLayer
370
13
48
1
60
0
100
AcDbLine
10
233.905722
20
18.20099
30
0
11
234.634528
21
23.76979
31
0
39
0
210
0
220
0
230
1
0
LINE
5
112
100
AcDbEntity
8
1
62
256
6
ByLayer
370
13
48
1
60
0
100
AcDbLine
10
229.268906
20
-24.402501
30
0
11
229.268906
21
-0.234285
31
0
39
0
210
0
220
0
230
1
0
LINE
5
113
100
AcDbEntity
8
1
62
256
6
ByLayer
370
13
48
1
60
0
100
AcDbLine
10
0
20
-30.832335
30
0
11
0
21
-29.748313
31
0
39
0
210
0
220
0
230
1
0
LINE
5
114
100
AcDbEntity
8
1
62
256
6
ByLayer
370
13
48
1
60
0
100
AcDbLine
10
5.5
20
-31.268533
30
0
11
5.5
21
-29.748313
31
0
39
0
210
0
220
0
230
1
0
LINE
5
115
100
AcDbEntity
8
1
62
256
6
ByLayer
370
13
48
1
60
0
100
AcDbLine
10
234.634528
20
23.76979
30
0
11
234.590332
21
24.613097
31
0
39
0
210
0
220
0
230
1
0
LINE
5
116
100
AcDbEntity
8
1
62
256
6
ByLayer
370
13
48
1
60
0
100
AcDbLine
10
252.122426
20
10.880589
30
0
11
252.043035
21
10.134953
31
0
39
0
210
0
220
0
230
1
0
LINE
5
117
100
AcDbEntity
8
1
62
256
6
ByLayer
370
13
48
1
60
0
100
AcDbLine
10
233.906305
20
13.877278
30
0
11
234.645692
21
10.787079
31
0
39
0
210
0
220
0
230
1
0
LINE
5
118
100
AcDbEntity
8
1
62
256
6
ByLayer
370
13
48
1
60
0
100
AcDbLine
10
233.613699
20
17.054993
30
0
11
233.619101
21
17.61191
31
0
39
0
210
0
220
0
230
1
0
LINE
5
119
100
AcDbEntity
8
1
62
256
6
ByLayer
370
13
48
1
60
0
100
AcDbLine
10
233.613699
20
17.054993
30
0
11
233.693673
21
17.806101
31
0
39
0
210
0
220
0
230
1
0
LINE
5
11A
100
AcDbEntity
8
1
62
256
6
ByLayer
370
13
48
1
60
0
100
AcDbLine
10
250.513947
20
25.309207
30
0
11
250.741756
21
25.319145
31
0
39
0
210
0
220
0
230
1
0
LINE
5
11B
100
AcDbEntity
8
1
62
256
6
ByLayer
370
13
48
1
60
0
100
AcDbLine
10
250.748967
20
9.69852
30
0
11
250.974551
21
9.697164
31
0
39
0
210
0
220
0
230
1
0
LINE
5
11C
100
AcDbEntity
8
1
62
256
6
ByLayer
370
13
48
1
60
0
100
AcDbLine
10
234.767337
20
23.988399
30
0
11
234.624262
21
23.965673
31
0
39
0
210
0
220
0
230
1
0
LINE
5
11D
100
AcDbEntity
8
1
62
256
6
ByLayer
370
13
48
1
60
0
100
AcDbLine
10
234.652172
20
22.817846
30
0
11
234.629782
21
23.03118
31
0
39
0
210
0
220
0
230
1
0
LINE
5
11E
100
AcDbEntity
8
1
62
256
6
ByLayer
370
13
48
1
60
0
100
AcDbLine
10
233.803425
20
18.030716
30
0
11
233.611236
21
16.562205
31
0
39
0
210
0
220
0
230
1
0
LINE
5
11F
100
AcDbEntity
8
1
62
256
6
ByLayer
370
13
48
1
60
0
100
AcDbLine
10
249.853994
20
24.253949
30
0
11
249.901935
21
23.950389
31
0
39
0
210
0
220
0
230
1
0
LINE
5
120
100
AcDbEntity
8
1
62
256
6
ByLayer
370
13
48
1
60
0
100
AcDbLine
10
250.049264
20
11.036212
30
0
11
250.037569
21
10.946848
31
0
39
0
210
0
220
0
230
1
0
LINE
5
121
100
AcDbEntity
8
1
62
256
6
ByLayer
370
18
48
1
60
0
100
AcDbLine
10
242.016715
20
16.579329
30
0
11
241.9484
21
16.575749
31
0
39
0
210
0
220
0
230
1
0
LINE
5
122
100
AcDbEntity
8
1
62
256
6
ByLayer
370
18
48
1
60
0
100
AcDbLine
10
241.976252
20
17.351394
30
0
11
241.908527
21
17.347845
31
0
39
0
210
0
220
0
230
1
0
LINE
5
123
100
AcDbEntity
8
1
62
256
6
ByLayer
370
18
48
1
60
0
100
AcDbLine
10
251.421981
20
-14.201565
30
0
11
251.391522
21
-14.206366
31
0
39
0
210
0
220
0
230
1
0
LINE
5
124
100
AcDbEntity
8
1
62
256
6
ByLayer
370
18
48
1
60
0
100
AcDbLine
10
251.224211
20
0.445815
30
0
11
251.291068
21
0.437056
31
0
39
0
210
0
220
0
230
1
0
LINE
5
125
100
AcDbEntity
8
1
62
256
6
ByLayer
370
13
48
1
60
0
100
AcDbLine
10
251.753738
20
9.418667
30
0
11
251.656818
21
9.413588
31
0
39
0
210
0
220
0
230
1
0
LINE
5
126
100
AcDbEntity
8
1
62
256
6
ByLayer
370
13
48
1
60
0
100
AcDbLine
10
251.771193
20
8.392113
30
0
11
251.735246
21
8.39023
31
0
39
0
210
0
220
0
230
1
0
LINE
5
127
100
AcDbEntity
8
1
62
256
6
ByLayer
370
13
48
1
60
0
100
AcDbLine
10
251.946838
20
0.945917
30
0
11
251.678313
21
0.849781
31
0
39
0
210
0
220
0
230
1
0
LINE
5
128
100
AcDbEntity
8
1
62
256
6
ByLayer
370
13
48
1
60
0
100
AcDbLine
10
238.581456
20
9.951614
30
0
11
238.0564
21
9.924097
31
0
39
0
210
0
220
0
230
1
0
LINE
5
129
100
AcDbEntity
8
1
62
256
6
ByLayer
370
13
48
1
60
0
100
AcDbLine
10
251.757844
20
1.147502
30
0
11
251.737434
21
1.150176
31
0
39
0
210
0
220
0
230
1
0
LINE
5
12A
100
AcDbEntity
8
1
62
256
6
ByLayer
370
13
48
1
60
0
100
AcDbLine
10
235.712262
20
24.178524
30
0
11
235.750724
21
24.472412
31
0
39
0
210
0
220
0
230
1
0
LINE
5
12B
100
AcDbEntity
8
1
62
256
6
ByLayer
370
13
48
1
60
0
100
AcDbLine
10
50.7454
20
-24.672574
30
0
11
50.7454
21
-24.765
31
0
39
0
210
0
220
0
230
1
0
LINE
5
12C
100
AcDbEntity
8
1
62
256
6
ByLayer
370
13
48
1
60
0
100
AcDbLine
10
232.268906
20
24.765
30
0
11
232.268906
21
24.588201
31
0
39
0
210
0
220
0
230
1
0
LINE
5
12D
100
AcDbEntity
8
1
62
256
6
ByLayer
370
13
48
1
60
0
100
AcDbLine
10
251.658101
20
0.634198
30
0
11
251.647914
21
0.635533
31
0
39
0
210
0
220
0
230
1
0
LINE
5
12E
100
AcDbEntity
8
1
62
256
6
ByLayer
370
13
48
1
60
0
100
AcDbLine
10
251.665887
20
0.625893
30
0
11
251.643009
21
0.628891
31
0
39
0
210
0
220
0
230
1
0
LINE
5
12F
100
AcDbEntity
8
1
62
256
6
ByLayer
370
13
48
1
60
0
100
AcDbLine
10
128.71196
20
-24.459096
30
0
11
128.71196
21
-24.511
31
0
39
0
210
0
220
0
230
1
0
LINE
5
130
100
AcDbEntity
8
1
62
256
6
ByLayer
370
13
48
1
60
0
100
AcDbLine
10
229.268906
20
24.511
30
0
11
229.268906
21
24.296815
31
0
39
0
210
0
220
0
230
1
0
LINE
5
131
100
AcDbEntity
8
1
62
256
6
ByLayer
370
13
48
1
60
0
100
AcDbLine
10
252.347662
20
11.714834
30
0
11
252.22917
21
10.24599
31
0
39
0
210
0
220
0
230
1
0
LINE
5
132
100
AcDbEntity
8
1
62
256
6
ByLayer
370
13
48
1
60
0
100
AcDbLine
10
0
20
-33.5
30
0
11
0
21
-30.832335
31
0
39
0
210
0
220
0
230
1
0
LINE
5
133
100
AcDbEntity
8
1
62
256
6
ByLayer
370
13
48
1
60
0
100
AcDbLine
10
5.5
20
-27.197361
30
0
11
5.5
21
-29.748313
31
0
39
0
210
0
220
0
230
1
0
LINE
5
134
100
AcDbEntity
8
SK1
62
256
6
ByLayer
370
13
48
1
60
0
100
AcDbLine
10
-16.5
20
-24.8475
30
0
11
-16.5
21
24.8475
31
0
39
0
210
0
220
0
230
1
0
LINE
5
136
100
AcDbEntity
8
SK1
62
256
6
ByLayer
370
13
48
1
60
0
100
AcDbLine
10
-18
20
-24.445576
30
0
11
-18
21
24.445576
31
0
39
0
210
0
220
0
230
1
0
LINE
5
137
100
AcDbEntity
8
SK1
62
256
6
ByLayer
370
13
48
1
60
0
100
AcDbLine
10
-10.07646
20
-24.65
30
0
11
-10.07646
21
24.65
31
0
39
0
210
0
220
0
230
1
0
LINE
5
138
100
AcDbEntity
8
SK1
62
256
6
ByLayer
370
13
48
1
60
0
100
AcDbLine
10
-10.5
20
-24.8475
30
0
11
-10.5
21
24.8475
31
0
39
0
210
0
220
0
230
1
0
LINE
5
139
100
AcDbEntity
8
SK1
62
256
6
ByLayer
370
13
48
1
60
0
100
AcDbLine
10
-9.296888
20
-24.65
30
0
11
-9.296888
21
24.65
31
0
39
0
210
0
220
0
230
1
0
LINE
5
13A
100
AcDbEntity
8
SK1
62
256
6
ByLayer
370
13
48
1
60
0
100
AcDbLine
10
-8
20
-24.9975
30
0
11
-8
21
24.9975
31
0
39
0
210
0
220
0
230
1
0
LINE
5
13B
100
AcDbEntity
8
SK1
62
256
6
ByLayer
370
13
48
1
60
0
100
AcDbLine
10
-1.57646
20
-24.8
30
0
11
-1.57646
21
24.8
31
0
39
0
210
0
220
0
230
1
0
LINE
5
13C
100
AcDbEntity
8
SK1
62
256
6
ByLayer
370
13
48
1
60
0
100
AcDbLine
10
-2
20
-24.9975
30
0
11
-2
21
24.9975
31
0
39
0
210
0
220
0
230
1
0
LINE
5
13D
100
AcDbEntity
8
SK1
62
256
6
ByLayer
370
13
48
1
60
0
100
AcDbLine
10
-0.3
20
-24.8
30
0
11
-0.3
21
24.8
31
0
39
0
210
0
220
0
230
1
0
LINE
5
13E
100
AcDbEntity
8
1
62
256
6
ByLayer
370
13
48
1
60
0
100
AcDbLine
10
0
20
-29.748313
30
0
11
0
21
-26.749378
31
0
39
0
210
0
220
0
230
1
0
LINE
5
13F
100
AcDbEntity
8
1
62
256
6
ByLayer
370
13
48
1
60
0
100
AcDbLine
10
45.7454
20
-24.67246
30
0
11
45.7454
21
-24.765
31
0
39
0
210
0
220
0
230
1
0
LINE
5
140
100
AcDbEntity
8
1
62
256
6
ByLayer
370
13
48
1
60
0
100
AcDbLine
10
17.0156
20
29.5
30
0
11
17.0156
21
-29.5
31
0
39
0
210
0
220
0
230
1
0
LINE
5
141
100
AcDbEntity
8
1
62
256
6
ByLayer
370
13
48
1
60
0
100
AcDbLine
10
7.5
20
29.5
30
0
11
7.5
21
-29.5
31
0
39
0
210
0
220
0
230
1
0
LINE
5
142
100
AcDbEntity
8
1
62
256
6
ByLayer
370
13
48
1
60
0
100
AcDbLine
10
0
20
4.071
30
0
11
0
21
33.5
31
0
39
0
210
0
220
0
230
1
0
LINE
5
143
100
AcDbEntity
8
1
62
256
6
ByLayer
370
13
48
1
60
0
100
AcDbLine
10
7
20
-34
30
0
11
7
21
34
31
0
39
0
210
0
220
0
230
1
0
LINE
5
144
100
AcDbEntity
8
1
62
256
6
ByLayer
370
13
48
1
60
0
100
AcDbLine
10
0.5
20
4.071
30
0
11
0.5
21
34
31
0
39
0
210
0
220
0
230
1
0
LINE
5
145
100
AcDbEntity
8
1
62
256
6
ByLayer
370
13
48
1
60
0
100
AcDbLine
10
0.5
20
-34
30
0
11
0.5
21
-31.268533
31
0
39
0
210
0
220
0
230
1
0
LINE
5
146
100
AcDbEntity
8
4
62
256
6
ByLayer
370
18
48
0.05
60
0
100
AcDbLine
10
253.1618
20
0
30
0
11
0
21
0
31
0
39
0
210
0
220
0
230
1
0
LINE
5
148
100
AcDbEntity
8
SK4
62
256
6
ByLayer
370
13
48
0.05
60
0
100
AcDbLine
10
253.1618
20
0
30
0
11
-18
21
0
31
0
39
0
210
0
220
0
230
1
0
LINE
5
14A
100
AcDbEntity
8
SK1
62
256
6
ByLayer
370
13
48
1
60
0
100
AcDbLine
10
-9.296888
20
24.65
30
0
11
-10.07646
21
24.65
31
0
39
0
210
0
220
0
230
1
0
LINE
5
14B
100
AcDbEntity
8
SK1
62
256
6
ByLayer
370
13
48
1
60
0
100
AcDbLine
10
-10.07646
20
-24.65
30
0
11
-9.296888
21
-24.65
31
0
39
0
210
0
220
0
230
1
0
LINE
5
14C
100
AcDbEntity
8
SK1
62
256
6
ByLayer
370
13
48
1
60
0
100
AcDbLine
10
-0.3
20
24.8
30
0
11
-1.57646
21
24.8
31
0
39
0
210
0
220
0
230
1
0
LINE
5
14D
100
AcDbEntity
8
SK1
62
256
6
ByLayer
370
13
48
1
60
0
100
AcDbLine
10
-1.57646
20
-24.8
30
0
11
-0.3
21
-24.8
31
0
39
0
210
0
220
0
230
1
0
LINE
5
14E
100
AcDbEntity
8
SK1
62
256
6
ByLayer
370
13
48
1
60
0
100
AcDbLine
10
-18
20
-24.445576
30
0
11
-16.5
21
-24.8475
31
0
39
0
210
0
220
0
230
1
0
LINE
5
14F
100
AcDbEntity
8
SK1
62
256
6
ByLayer
370
13
48
1
60
0
100
AcDbLine
10
-16.5
20
24.8475
30
0
11
-18
21
24.445576
31
0
39
0
210
0
220
0
230
1
0
LINE
5
150
100
AcDbEntity
8
SK1
62
256
6
ByLayer
370
13
48
1
60
0
100
AcDbLine
10
-10.5
20
24.8475
30
0
11
-16.5
21
24.8475
31
0
39
0
210
0
220
0
230
1
0
LINE
5
151
100
AcDbEntity
8
SK1
62
256
6
ByLayer
370
13
48
1
60
0
100
AcDbLine
10
-16.5
20
-24.8475
30
0
11
-10.5
21
-24.8475
31
0
39
0
210
0
220
0
230
1
0
LINE
5
152
100
AcDbEntity
8
SK1
62
256
6
ByLayer
370
13
48
1
60
0
100
AcDbLine
10
-10.07646
20
24.65
30
0
11
-10.5
21
24.8475
31
0
39
0
210
0
220
0
230
1
0
LINE
5
153
100
AcDbEntity
8
SK1
62
256
6
ByLayer
370
13
48
1
60
0
100
AcDbLine
10
-10.5
20
-24.8475
30
0
11
-10.07646
21
-24.65
31
0
39
0
210
0
220
0
230
1
0
LINE
5
154
100
AcDbEntity
8
SK1
62
256
6
ByLayer
370
13
48
1
60
0
100
AcDbLine
10
-2
20
24.9975
30
0
11
-8
21
24.9975
31
0
39
0
210
0
220
0
230
1
0
LINE
5
155
100
AcDbEntity
8
SK1
62
256
6
ByLayer
370
13
48
1
60
0
100
AcDbLine
10
-8
20
-24.9975
30
0
11
-2
21
-24.9975
31
0
39
0
210
0
220
0
230
1
0
LINE
5
156
100
AcDbEntity
8
SK1
62
256
6
ByLayer
370
13
48
1
60
0
100
AcDbLine
10
-1.57646
20
24.8
30
0
11
-2
21
24.9975
31
0
39
0
210
0
220
0
230
1
0
LINE
5
157
100
AcDbEntity
8
SK1
62
256
6
ByLayer
370
13
48
1
60
0
100
AcDbLine
10
-2
20
-24.9975
30
0
11
-1.57646
21
-24.8
31
0
39
0
210
0
220
0
230
1
0
LINE
5
158
100
AcDbEntity
8
SK1
62
256
6
ByLayer
370
13
48
1
60
0
100
AcDbLine
10
-9.296888
20
-24.65
30
0
11
-8
21
-24.9975
31
0
39
0
210
0
220
0
230
1
0
LINE
5
159
100
AcDbEntity
8
SK1
62
256
6
ByLayer
370
13
48
1
60
0
100
AcDbLine
10
-8
20
24.9975
30
0
11
-9.296888
21
24.65
31
0
39
0
210
0
220
0
230
1
0
LINE
5
15A
100
AcDbEntity
8
1
62
256
6
ByLayer
370
13
48
1
60
0
100
AcDbLine
10
128.71196
20
-24.511
30
0
11
140.438012
21
-24.511
31
0
39
0
210
0
220
0
230
1
0
LINE
5
15B
100
AcDbEntity
8
1
62
256
6
ByLayer
370
13
48
1
60
0
100
AcDbLine
10
251.810865
20
10.21473
30
0
11
252.265422
21
11.186126
31
0
39
0
210
0
220
0
230
1
0
LINE
5
15C
100
AcDbEntity
8
1
62
256
6
ByLayer
370
13
48
1
60
0
100
AcDbLine
10
250.891759
20
17.688285
30
0
11
249.905637
21
23.93237
31
0
39
0
210
0
220
0
230
1
0
LINE
5
15D
100
AcDbEntity
8
1
62
256
6
ByLayer
370
13
48
1
60
0
100
AcDbLine
10
250.052441
20
11.054118
30
0
11
250.894418
21
17.487653
31
0
39
0
210
0
220
0
230
1
0
LINE
5
15E
100
AcDbEntity
8
1
62
256
6
ByLayer
370
18
48
1
60
0
100
AcDbLine
10
243.230924
20
18.322127
30
0
11
243.355646
21
18.328663
31
0
39
0
210
0
220
0
230
1
0
LINE
5
15F
100
AcDbEntity
8
1
62
256
6
ByLayer
370
18
48
1
60
0
100
AcDbLine
10
243.490704
20
15.7516
30
0
11
243.365982
21
15.745064
31
0
39
0
210
0
220
0
230
1
0
LINE
5
160
100
AcDbEntity
8
1
62
256
6
ByLayer
370
18
48
1
60
0
100
AcDbLine
10
243.5191
20
14.191248
30
0
11
243.585589
21
14.194732
31
0
39
0
210
0
220
0
230
1
0
LINE
5
161
100
AcDbEntity
8
1
62
256
6
ByLayer
370
18
48
1
60
0
100
AcDbLine
10
243.287274
20
19.886921
30
0
11
243.220785
21
19.883436
31
0
39
0
210
0
220
0
230
1
0
LINE
5
162
100
AcDbEntity
8
1
62
256
6
ByLayer
370
13
48
1
60
0
100
AcDbLine
10
45.7454
20
-24.765
30
0
11
50.7454
21
-24.765
31
0
39
0
210
0
220
0
230
1
0
LINE
5
163
100
AcDbEntity
8
1
62
256
6
ByLayer
370
13
48
1
60
0
100
AcDbLine
10
50.7454
20
-24.765
30
0
11
128.71196
21
-24.511
31
0
39
0
210
0
220
0
230
1
0
LINE
5
164
100
AcDbEntity
8
1
62
256
6
ByLayer
370
13
48
1
60
0
100
AcDbLine
10
234.327958
20
24.765
30
0
11
232.268906
21
24.765
31
0
39
0
210
0
220
0
230
1
0
LINE
5
165
100
AcDbEntity
8
1
62
256
6
ByLayer
370
13
48
1
60
0
100
AcDbLine
10
232.268906
20
24.765
30
0
11
229.268906
21
24.511
31
0
39
0
210
0
220
0
230
1
0
LINE
5
166
100
AcDbEntity
8
1
62
256
6
ByLayer
370
13
48
1
60
0
100
AcDbLine
10
229.268906
20
24.511
30
0
11
219.404361
21
24.511
31
0
39
0
210
0
220
0
230
1
0
LINE
5
167
100
AcDbEntity
8
1
62
256
6
ByLayer
370
13
48
1
60
0
100
AcDbLine
10
0
20
-33.5
30
0
11
0.5
21
-34
31
0
39
0
210
0
220
0
230
1
0
LINE
5
168
100
AcDbEntity
8
1
62
256
6
ByLayer
370
13
48
1
60
0
100
AcDbLine
10
7.5
20
-29.5
30
0
11
17.0156
21
-29.5
31
0
39
0
210
0
220
0
230
1
0
LINE
5
169
100
AcDbEntity
8
1
62
256
6
ByLayer
370
13
48
1
60
0
100
AcDbLine
10
17.0156
20
29.5
30
0
11
7.5
21
29.5
31
0
39
0
210
0
220
0
230
1
0
LINE
5
16A
100
AcDbEntity
8
1
62
256
6
ByLayer
370
13
48
1
60
0
100
AcDbLine
10
0.5
20
34
30
0
11
0
21
33.5
31
0
39
0
210
0
220
0
230
1
0
LINE
5
16B
100
AcDbEntity
8
1
62
256
6
ByLayer
370
13
48
1
60
0
100
AcDbLine
10
7
20
34
30
0
11
0.5
21
34
31
0
39
0
210
0
220
0
230
1
0
LINE
5
16C
100
AcDbEntity
8
1
62
256
6
ByLayer
370
13
48
1
60
0
100
AcDbLine
10
0.5
20
-34
30
0
11
7
21
-34
31
0
39
0
210
0
220
0
230
1
0
LINE
5
16D
100
AcDbEntity
8
81
62
256
6
ByLayer
370
18
48
1
60
0
100
AcDbLine
10
253.1618
20
0
30
0
11
260.1618
21
0
31
0
39
0
210
0
220
0
230
1
0
LINE
5
16E
100
AcDbEntity
8
80
62
256
6
ByLayer
370
18
48
1
60
0
100
AcDbLine
10
0
20
0
30
0
11
-7
21
0
31
0
39
0
210
0
220
0
230
1
0
LINE
5
16F
100
AcDbEntity
8
SK2
62
256
6
ByLayer
370
13
48
1
60
0
100
AcDbLine
10
-38.725
20
25
30
0
11
-38.725
21
-25
31
0
39
0
210
0
220
0
230
1
0
LINE
5
171
100
AcDbEntity
8
SK2
62
256
6
ByLayer
370
13
48
1
60
0
100
AcDbLine
10
-19.5875
20
-25
30
0
11
-41.9
21
-25
31
0
39
0
210
0
220
0
230
1
0
LINE
5
172
100
AcDbEntity
8
SK2
62
256
6
ByLayer
370
13
48
1
60
0
100
AcDbLine
10
-19.5875
20
25
30
0
11
-41.9
21
25
31
0
39
0
210
0
220
0
230
1
0
LINE
5
173
100
AcDbEntity
8
1
62
256
6
ByLayer
370
18
48
1
60
1
100
AcDbLine
10
-38.725
20
-25
30
0
11
-39.650575
21
-20.825003
31
0
39
0
210
0
220
0
230
1
0
LINE
5
174
100
AcDbEntity
8
1
62
256
6
ByLayer
370
18
48
1
60
1
100
AcDbLine
10
-39.650575
20
-20.825003
30
0
11
-37.799425
21
-20.824997
31
0
39
0
210
0
220
0
230
1
0
LINE
5
175
100
AcDbEntity
8
1
62
256
6
ByLayer
370
18
48
1
60
1
100
AcDbLine
10
-37.799425
20
-20.824997
30
0
11
-38.725
21
-25
31
0
39
0
210
0
220
0
230
1
0
LINE
5
176
100
AcDbEntity
8
1
62
256
6
ByLayer
370
18
48
1
60
1
100
AcDbLine
10
-38.725
20
25
30
0
11
-37.799425
21
20.825003
31
0
39
0
210
0
220
0
230
1
0
LINE
5
177
100
AcDbEntity
8
1
62
256
6
ByLayer
370
18
48
1
60
1
100
AcDbLine
10
-37.799425
20
20.825003
30
0
11
-39.650575
21
20.824997
31
0
39
0
210
0
220
0
230
1
0
LINE
5
178
100
AcDbEntity
8
1
62
256
6
ByLayer
370
18
48
1
60
1
100
AcDbLine
10
-39.650575
20
20.824997
30
0
11
-38.725
21
25
31
0
39
0
210
0
220
0
230
1
0
LINE
5
179
100
AcDbEntity
8
SK2
62
256
6
ByLayer
370
13
48
1
60
0
100
AcDbLine
10
-48.725
20
-34
30
0
11
-48.725
21
34
31
0
39
0
210
0
220
0
230
1
0
LINE
5
17A
100
AcDbEntity
8
SK2
62
256
6
ByLayer
370
13
48
1
60
0
100
AcDbLine
10
-1.5875
20
34
30
0
11
-51.9
21
34
31
0
39
0
210
0
220
0
230
1
0
LINE
5
17B
100
AcDbEntity
8
SK2
62
256
6
ByLayer
370
13
48
1
60
0
100
AcDbLine
10
-1.5875
20
-34
30
0
11
-51.9
21
-34
31
0
39
0
210
0
220
0
230
1
0
LINE
5
17C
100
AcDbEntity
8
1
62
256
6
ByLayer
370
18
48
1
60
1
100
AcDbLine
10
-48.725
20
34
30
0
11
-47.799425
21
29.825003
31
0
39
0
210
0
220
0
230
1
0
LINE
5
17D
100
AcDbEntity
8
1
62
256
6
ByLayer
370
18
48
1
60
1
100
AcDbLine
10
-47.799425
20
29.825003
30
0
11
-49.650575
21
29.824997
31
0
39
0
210
0
220
0
230
1
0
LINE
5
17E
100
AcDbEntity
8
1
62
256
6
ByLayer
370
18
48
1
60
1
100
AcDbLine
10
-49.650575
20
29.824997
30
0
11
-48.725
21
34
31
0
39
0
210
0
220
0
230
1
0
LINE
5
17F
100
AcDbEntity
8
1
62
256
6
ByLayer
370
18
48
1
60
1
100
AcDbLine
10
-48.725
20
-34
30
0
11
-49.650575
21
-29.825003
31
0
39
0
210
0
220
0
230
1
0
LINE
5
180
100
AcDbEntity
8
1
62
256
6
ByLayer
370
18
48
1
60
1
100
AcDbLine
10
-49.650575
20
-29.825003
30
0
11
-47.799425
21
-29.824997
31
0
39
0
210
0
220
0
230
1
0
LINE
5
181
100
AcDbEntity
8
1
62
256
6
ByLayer
370
18
48
1
60
1
100
AcDbLine
10
-47.799425
20
-29.824997
30
0
11
-48.725
21
-34
31
0
39
0
210
0
220
0
230
1
0
LINE
5
182
100
AcDbEntity
8
2
62
256
6
ByLayer
370
13
48
1
60
0
100
AcDbLine
10
280.1368
20
25.4
30
0
11
280.1368
21
-25.4
31
0
39
0
210
0
220
0
230
1
0
LINE
5
184
100
AcDbEntity
8
2
62
256
6
ByLayer
370
13
48
1
60
0
100
AcDbLine
10
254.7493
20
-25.4
30
0
11
283.3118
21
-25.4
31
0
39
0
210
0
220
0
230
1
0
LINE
5
185
100
AcDbEntity
8
2
62
256
6
ByLayer
370
13
48
1
60
0
100
AcDbLine
10
254.7493
20
25.4
30
0
11
283.3118
21
25.4
31
0
39
0
210
0
220
0
230
1
0
LINE
5
186
100
AcDbEntity
8
1
62
256
6
ByLayer
370
18
48
1
60
1
100
AcDbLine
10
280.1368
20
-25.4
30
0
11
279.211225
21
-21.225003
31
0
39
0
210
0
220
0
230
1
0
LINE
5
187
100
AcDbEntity
8
1
62
256
6
ByLayer
370
18
48
1
60
1
100
AcDbLine
10
279.211225
20
-21.225003
30
0
11
281.062375
21
-21.224997
31
0
39
0
210
0
220
0
230
1
0
LINE
5
188
100
AcDbEntity
8
1
62
256
6
ByLayer
370
18
48
1
60
1
100
AcDbLine
10
281.062375
20
-21.224997
30
0
11
280.1368
21
-25.4
31
0
39
0
210
0
220
0
230
1
0
LINE
5
189
100
AcDbEntity
8
1
62
256
6
ByLayer
370
18
48
1
60
1
100
AcDbLine
10
280.1368
20
25.4
30
0
11
281.062375
21
21.225003
31
0
39
0
210
0
220
0
230
1
0
LINE
5
18A
100
AcDbEntity
8
1
62
256
6
ByLayer
370
18
48
1
60
1
100
AcDbLine
10
281.062375
20
21.225003
30
0
11
279.211225
21
21.224997
31
0
39
0
210
0
220
0
230
1
0
LINE
5
18B
100
AcDbEntity
8
1
62
256
6
ByLayer
370
18
48
1
60
1
100
AcDbLine
10
279.211225
20
21.224997
30
0
11
280.1368
21
25.4
31
0
39
0
210
0
220
0
230
1
0
LINE
5
340
100
AcDbEntity
8
1
62
256
6
ByLayer
370
18
48
1
60
1
100
AcDbLine
10
-38.725
20
-25
30
0
11
-39.650575
21
-20.825003
31
0
39
0
210
0
220
0
230
1
0
LINE
5
341
100
AcDbEntity
8
1
62
256
6
ByLayer
370
18
48
1
60
1
100
AcDbLine
10
-39.650575
20
-20.825003
30
0
11
-37.799425
21
-20.824997
31
0
39
0
210
0
220
0
230
1
0
LINE
5
342
100
AcDbEntity
8
1
62
256
6
ByLayer
370
18
48
1
60
1
100
AcDbLine
10
-37.799425
20
-20.824997
30
0
11
-38.725
21
-25
31
0
39
0
210
0
220
0
230
1
0
LINE
5
344
100
AcDbEntity
8
1
62
256
6
ByLayer
370
18
48
1
60
1
100
AcDbLine
10
-38.725
20
25
30
0
11
-37.799425
21
20.825003
31
0
39
0
210
0
220
0
230
1
0
LINE
5
345
100
AcDbEntity
8
1
62
256
6
ByLayer
370
18
48
1
60
1
100
AcDbLine
10
-37.799425
20
20.825003
30
0
11
-39.650575
21
20.824997
31
0
39
0
210
0
220
0
230
1
0
LINE
5
346
100
AcDbEntity
8
1
62
256
6
ByLayer
370
18
48
1
60
1
100
AcDbLine
10
-39.650575
20
20.824997
30
0
11
-38.725
21
25
31
0
39
0
210
0
220
0
230
1
0
LINE
5
34A
100
AcDbEntity
8
1
62
256
6
ByLayer
370
18
48
1
60
1
100
AcDbLine
10
-48.725
20
34
30
0
11
-47.799425
21
29.825003
31
0
39
0
210
0
220
0
230
1
0
LINE
5
34B
100
AcDbEntity
8
1
62
256
6
ByLayer
370
18
48
1
60
1
100
AcDbLine
10
-47.799425
20
29.825003
30
0
11
-49.650575
21
29.824997
31
0
39
0
210
0
220
0
230
1
0
LINE
5
34C
100
AcDbEntity
8
1
62
256
6
ByLayer
370
18
48
1
60
1
100
AcDbLine
10
-49.650575
20
29.824997
30
0
11
-48.725
21
34
31
0
39
0
210
0
220
0
230
1
0
LINE
5
34E
100
AcDbEntity
8
1
62
256
6
ByLayer
370
18
48
1
60
1
100
AcDbLine
10
-48.725
20
-34
30
0
11
-49.650575
21
-29.825003
31
0
39
0
210
0
220
0
230
1
0
LINE
5
34F
100
AcDbEntity
8
1
62
256
6
ByLayer
370
18
48
1
60
1
100
AcDbLine
10
-49.650575
20
-29.825003
30
0
11
-47.799425
21
-29.824997
31
0
39
0
210
0
220
0
230
1
0
LINE
5
350
100
AcDbEntity
8
1
62
256
6
ByLayer
370
18
48
1
60
1
100
AcDbLine
10
-47.799425
20
-29.824997
30
0
11
-48.725
21
-34
31
0
39
0
210
0
220
0
230
1
0
LINE
5
354
100
AcDbEntity
8
1
62
256
6
ByLayer
370
18
48
1
60
1
100
AcDbLine
10
280.1368
20
-25.4
30
0
11
279.211225
21
-21.225003
31
0
39
0
210
0
220
0
230
1
0
LINE
5
355
100
AcDbEntity
8
1
62
256
6
ByLayer
370
18
48
1
60
1
100
AcDbLine
10
279.211225
20
-21.225003
30
0
11
281.062375
21
-21.224997
31
0
39
0
210
0
220
0
230
1
0
LINE
5
356
100
AcDbEntity
8
1
62
256
6
ByLayer
370
18
48
1
60
1
100
AcDbLine
10
281.062375
20
-21.224997
30
0
11
280.1368
21
-25.4
31
0
39
0
210
0
220
0
230
1
0
LINE
5
358
100
AcDbEntity
8
1
62
256
6
ByLayer
370
18
48
1
60
1
100
AcDbLine
10
280.1368
20
25.4
30
0
11
281.062375
21
21.225003
31
0
39
0
210
0
220
0
230
1
0
LINE
5
359
100
AcDbEntity
8
1
62
256
6
ByLayer
370
18
48
1
60
1
100
AcDbLine
10
281.062375
20
21.225003
30
0
11
279.211225
21
21.224997
31
0
39
0
210
0
220
0
230
1
0
LINE
5
35A
100
AcDbEntity
8
1
62
256
6
ByLayer
370
18
48
1
60
1
100
AcDbLine
10
279.211225
20
21.224997
30
0
11
280.1368
21
25.4
31
0
39
0
210
0
220
0
230
1
0
MTEXT
5
33C
100
AcDbEntity
8
SK2
62
256
6
ByLayer
370
18
48
1
60
0
100
AcDbMText
10
-40.736672
20
-6.949399
30
0
210
0
220
0
230
1
1
%%c
40
4.5
41
0
44
1.084337
50
90
71
7
72
5
7
iso_b_vert
0
MTEXT
5
33F
100
AcDbEntity
8
SK2
62
256
6
ByLayer
370
18
48
1
60
0
100
AcDbMText
10
-40.736672
20
4.265444
30
0
210
0
220
0
230
1
1
\W0.6740;50
40
4.5
41
0
44
1.084337
50
90
71
7
72
5
7
iso_b_vert
0
MTEXT
5
348
100
AcDbEntity
8
SK2
62
256
6
ByLayer
370
18
48
1
60
0
100
AcDbMText
10
-50.736672
20
-6.949399
30
0
210
0
220
0
230
1
1
%%c
40
4.5
41
0
44
1.084337
50
90
71
7
72
5
7
iso_b_vert
0
MTEXT
5
349
100
AcDbEntity
8
SK2
62
256
6
ByLayer
370
18
48
1
60
0
100
AcDbMText
10
-50.736672
20
4.265444
30
0
210
0
220
0
230
1
1
\W0.6740;68
40
4.5
41
0
44
1.084337
50
90
71
7
72
5
7
iso_b_vert
0
MTEXT
5
352
100
AcDbEntity
8
2
62
256
6
ByLayer
370
18
48
1
60
0
100
AcDbMText
10
278.125128
20
-9.541655
30
0
210
0
220
0
230
1
1
%%c
40
4.5
41
0
44
1.084337
50
90
71
7
72
5
7
iso_b_vert
0
MTEXT
5
353
100
AcDbEntity
8
2
62
256
6
ByLayer
370
18
48
1
60
0
100
AcDbMText
10
278.125128
20
1.673189
30
0
210
0
220
0
230
1
1
\W0.7346;50.8
40
4.5
41
0
44
1.084337
50
90
71
7
72
5
7
iso_b_vert
0
MTEXT
5
35C
100
AcDbEntity
8
SK6
62
256
6
ByLayer
370
18
48
1
60
0
100
AcDbMText
10
9.308916
20
-94.592562
30
0
210
0
220
0
230
1
1
\W0.7730;DS20-D5080DM50-04
40
3.5
41
0
44
1.084337
50
0
71
7
72
5
7
iso_b_vert
0
HATCH
5
343
100
AcDbEntity
8
SK2
62
256
6
ByLayer
370
13
48
1
60
0
100
AcDbHatch
10
0
20
0
30
0
210
0
220
0
230
1
2
ANSI31
70
0
71
0
91
1
92
5
93
3
72
1
10
-38.7250000000001
20
-25
11
-39.650575216528
21
-20.8250033998276
72
1
10
-39.650575216528
20
-20.8250033998276
11
-37.7994247834721
21
-20.8249966001723
72
1
10
-37.7994247834721
20
-20.8249966001723
11
-38.7250000000001
21
-25
97
0
75
0
76
1
52
0
41
0.0062
77
0
78
1
53
45
43
0
44
0
45
-0.0139193969876572
46
0.0139193969876572
79
0
47
0
98
1
10
0
20
0
0
HATCH
5
347
100
AcDbEntity
8
SK2
62
256
6
ByLayer
370
13
48
1
60
0
100
AcDbHatch
10
0
20
0
30
0
210
0
220
0
230
1
2
ANSI31
70
0
71
0
91
1
92
5
93
3
72
1
10
-38.7250000000001
20
25
11
-37.7994247834721
21
20.8250033998276
72
1
10
-37.7994247834721
20
20.8250033998276
11
-39.650575216528
21
20.8249966001724
72
1
10
-39.650575216528
20
20.8249966001724
11
-38.7250000000001
21
25
97
0
75
0
76
1
52
0
41
0.0062
77
0
78
1
53
45
43
0
44
0
45
-0.0139193969876572
46
0.0139193969876572
79
0
47
0
98
1
10
0
20
0
0
HATCH
5
34D
100
AcDbEntity
8
SK2
62
256
6
ByLayer
370
13
48
1
60
0
100
AcDbHatch
10
0
20
0
30
0
210
0
220
0
230
1
2
ANSI31
70
0
71
0
91
1
92
5
93
3
72
1
10
-48.7250000000001
20
34
11
-47.7994247834721
21
29.8250033998276
72
1
10
-47.7994247834721
20
29.8250033998276
11
-49.650575216528
21
29.8249966001724
72
1
10
-49.650575216528
20
29.8249966001724
11
-48.7250000000001
21
34
97
0
75
0
76
1
52
0
41
0.0062
77
0
78
1
53
45
43
0
44
0
45
-0.0139193969876572
46
0.0139193969876572
79
0
47
0
98
1
10
0
20
0
0
HATCH
5
351
100
AcDbEntity
8
SK2
62
256
6
ByLayer
370
13
48
1
60
0
100
AcDbHatch
10
0
20
0
30
0
210
0
220
0
230
1
2
ANSI31
70
0
71
0
91
1
92
5
93
3
72
1
10
-48.7250000000001
20
-34
11
-49.650575216528
21
-29.8250033998276
72
1
10
-49.650575216528
20
-29.8250033998276
11
-47.7994247834721
21
-29.8249966001723
72
1
10
-47.7994247834721
20
-29.8249966001723
11
-48.7250000000001
21
-34
97
0
75
0
76
1
52
0
41
0.0062
77
0
78
1
53
45
43
0
44
0
45
-0.0139193969876572
46
0.0139193969876572
79
0
47
0
98
1
10
0
20
0
0
HATCH
5
357
100
AcDbEntity
8
2
62
256
6
ByLayer
370
13
48
1
60
0
100
AcDbHatch
10
0
20
0
30
0
210
0
220
0
230
1
2
ANSI31
70
0
71
0
91
1
92
5
93
3
72
1
10
280.1368
20
-25.4000000000003
11
279.211224783472
21
-21.2250033998279
72
1
10
279.211224783472
20
-21.2250033998279
11
281.062375216528
21
-21.2249966001727
72
1
10
281.062375216528
20
-21.2249966001727
11
280.1368
21
-25.4000000000003
97
0
75
0
76
1
52
0
41
0.0062
77
0
78
1
53
45
43
0
44
0
45
-0.0139193969876572
46
0.0139193969876572
79
0
47
0
98
1
10
0
20
0
0
HATCH
5
35B
100
AcDbEntity
8
2
62
256
6
ByLayer
370
13
48
1
60
0
100
AcDbHatch
10
0
20
0
30
0
210
0
220
0
230
1
2
ANSI31
70
0
71
0
91
1
92
5
93
3
72
1
10
280.1368
20
25.3999999999997
11
281.062375216528
21
21.2250033998273
72
1
10
281.062375216528
20
21.2250033998273
11
279.211224783472
21
21.2249966001721
72
1
10
279.211224783472
20
21.2249966001721
11
280.1368
21
25.3999999999997
97
0
75
0
76
1
52
0
41
0.0062
77
0
78
1
53
45
43
0
44
0
45
-0.0139193969876572
46
0.0139193969876572
79
0
47
0
98
1
10
0
20
0
0
DIMENSION
5
35F
100
AcDbEntity
8
2
62
256
6
ByLayer
370
18
48
1
60
0
100
AcDbDimension
2
_U0
10
253.1618
20
-82.85
30
0
11
126.5809
21
-82.85
31
0
70
32
71
1
72
1
41
1
210
0
220
0
230
1
3
Standard
100
AcDbAlignedDimension
13
0
23
-34
33
0
14
253.1618
24
-25.4
34
0
50
0
100
AcDbRotatedDimension
1001
ACAD
1000
DSTYLE
1002
{
1070
   371
1070
    13
1070
   372
1070
    13
1070
   170
1070
     0
1070
   144
1040
1.0
1070
   277
1070
     2
1070
   284
1070
     8
1070
   278
1070
    46
1070
   146
1040
0.777778
1070
   345
1005
16
1070
   347
1005
16
1070
   346
1005
16
1070
   344
1005
0
1070
   343
1005
0
1070
   172
1070
     1
1070
    76
1070
     0
1070
    75
1070
     0
1070
   282
1070
     0
1070
   281
1070
     0
1070
    71
1070
     0
1070
    74
1070
     0
1070
   279
1070
     0
1070
   173
1070
     1
1070
   340
1005
33D
1070
   271
1070
     1
1070
   272
1070
     2
1070
    77
1070
     1
1070
    73
1070
     1
1070
   171
1070
     3
1070
   274
1070
     4
1070
   177
1070
   150
1070
   176
1070
     9
1070
   178
1070
    43
1070
    78
1070
     8
1070
    48
1040
-0.1
1070
    41
1040
4.175
1070
   147
1040
2.25
1070
    42
1040
1.5875
1070
    44
1040
3.175
1070
   140
1040
4.5
1002
}
1001
ACAD_DSTYLE_DIM_LINETYPE
1070
   380
1005
16
1001
ACAD_DSTYLE_DIM_EXT1_LINETYPE
1070
   381
1005
16
1001
ACAD_DSTYLE_DIM_EXT2_LINETYPE
1070
   382
1005
16
0
DIMENSION
5
378
100
AcDbEntity
8
SK2
62
256
6
ByLayer
370
18
48
1
60
0
100
AcDbDimension
2
_U1
10
0
20
-82.85
30
0
11
-9
21
-82.85
31
0
70
32
71
1
72
1
41
1
210
0
220
0
230
1
3
Standard
100
AcDbAlignedDimension
13
-18
23
-25
33
0
14
0
24
-34
34
0
50
0
100
AcDbRotatedDimension
1001
ACAD
1000
DSTYLE
1002
{
1070
   371
1070
    13
1070
   372
1070
    13
1070
   170
1070
     0
1070
   144
1040
1.0
1070
   277
1070
     2
1070
   284
1070
     8
1070
   278
1070
    46
1070
   146
1040
0.777778
1070
   345
1005
16
1070
   347
1005
16
1070
   346
1005
16
1070
   344
1005
0
1070
   343
1005
0
1070
   172
1070
     1
1070
    76
1070
     0
1070
    75
1070
     0
1070
   282
1070
     0
1070
   281
1070
     0
1070
    71
1070
     0
1070
    74
1070
     0
1070
   279
1070
     0
1070
   173
1070
     1
1070
   340
1005
33D
1070
   271
1070
     1
1070
   272
1070
     2
1070
    77
1070
     1
1070
    73
1070
     1
1070
   171
1070
     3
1070
   274
1070
     4
1070
   177
1070
   150
1070
   176
1070
     9
1070
   178
1070
    43
1070
    78
1070
     8
1070
    48
1040
-0.1
1070
    41
1040
4.175
1070
   147
1040
2.25
1070
    42
1040
1.5875
1070
    44
1040
3.175
1070
   140
1040
4.5
1002
}
1001
ACAD_DSTYLE_DIM_LINETYPE
1070
   380
1005
16
1001
ACAD_DSTYLE_DIM_EXT1_LINETYPE
1070
   381
1005
16
1001
ACAD_DSTYLE_DIM_EXT2_LINETYPE
1070
   382
1005
16
0
DIMENSION
5
391
100
AcDbEntity
8
SK2
62
256
6
ByLayer
370
18
48
1
60
0
100
AcDbDimension
2
_U2
10
17.5156
20
-72.85
30
0
11
135.3387
21
-72.85
31
0
70
32
71
1
72
1
41
1
210
0
220
0
230
1
3
Standard
100
AcDbAlignedDimension
13
253.1618
23
-25.4
33
0
14
17.5156
24
-34
34
0
50
0
100
AcDbRotatedDimension
1001
ACAD
1000
DSTYLE
1002
{
1070
   371
1070
    13
1070
   372
1070
    13
1070
   170
1070
     0
1070
   144
1040
1.0
1070
   277
1070
     2
1070
   284
1070
     8
1070
   278
1070
    46
1070
   146
1040
0.777778
1070
   345
1005
16
1070
   347
1005
16
1070
   346
1005
16
1070
   344
1005
0
1070
   343
1005
0
1070
   172
1070
     1
1070
    76
1070
     0
1070
    75
1070
     0
1070
   282
1070
     0
1070
   281
1070
     0
1070
    71
1070
     0
1070
    74
1070
     0
1070
   279
1070
     0
1070
   173
1070
     1
1070
   340
1005
33D
1070
   271
1070
     1
1070
   272
1070
     2
1070
    77
1070
     1
1070
    73
1070
     1
1070
   171
1070
     3
1070
   274
1070
     4
1070
   177
1070
   150
1070
   176
1070
     9
1070
   178
1070
    43
1070
    78
1070
     8
1070
    48
1040
-0.1
1070
    41
1040
4.175
1070
   147
1040
2.25
1070
    42
1040
1.5875
1070
    44
1040
3.175
1070
   140
1040
4.5
1002
}
1001
ACAD_DSTYLE_DIM_LINETYPE
1070
   380
1005
16
1001
ACAD_DSTYLE_DIM_EXT1_LINETYPE
1070
   381
1005
16
1001
ACAD_DSTYLE_DIM_EXT2_LINETYPE
1070
   382
1005
16
0
DIMENSION
5
3A9
100
AcDbEntity
8
SK2
62
256
6
ByLayer
370
18
48
1
60
0
100
AcDbDimension
2
_U3
10
253.1618
20
-62.85
30
0
11
149.4536
21
-62.85
31
0
70
32
71
1
72
1
41
1
210
0
220
0
230
1
3
Standard
100
AcDbAlignedDimension
13
45.7454
23
-25.4
33
0
14
253.1618
24
-25.4
34
0
50
0
100
AcDbRotatedDimension
1001
ACAD
1000
DSTYLE
1002
{
1070
   371
1070
    13
1070
   372
1070
    13
1070
   170
1070
     0
1070
   144
1040
1.0
1070
   277
1070
     2
1070
   284
1070
     8
1070
   278
1070
    46
1070
   146
1040
0.777778
1070
   345
1005
16
1070
   347
1005
16
1070
   346
1005
16
1070
   344
1005
0
1070
   343
1005
0
1070
   172
1070
     1
1070
    76
1070
     0
1070
    75
1070
     0
1070
   282
1070
     0
1070
   281
1070
     0
1070
    71
1070
     0
1070
    74
1070
     0
1070
   279
1070
     0
1070
   173
1070
     1
1070
   340
1005
33D
1070
   271
1070
     1
1070
   272
1070
     2
1070
    77
1070
     1
1070
    73
1070
     1
1070
   171
1070
     3
1070
   274
1070
     4
1070
   177
1070
   150
1070
   176
1070
     9
1070
   178
1070
    43
1070
    78
1070
     8
1070
    48
1040
-0.1
1070
    41
1040
4.175
1070
   147
1040
2.25
1070
    42
1040
1.5875
1070
    44
1040
3.175
1070
   140
1040
4.5
1002
}
1001
ACAD_DSTYLE_DIM_LINETYPE
1070
   380
1005
16
1001
ACAD_DSTYLE_DIM_EXT1_LINETYPE
1070
   381
1005
16
1001
ACAD_DSTYLE_DIM_EXT2_LINETYPE
1070
   382
1005
16
0
DIMENSION
5
3C1
100
AcDbEntity
8
2
62
256
6
ByLayer
370
18
48
1
60
0
100
AcDbDimension
2
_U4
10
253.1618
20
-52.85
30
0
11
275.191264
21
-52.85
31
0
70
32
71
1
72
1
41
1
210
0
220
0
230
1
3
Standard
100
AcDbAlignedDimension
13
251.8852
23
-12.7
33
0
14
253.1618
24
0
34
0
50
0
100
AcDbRotatedDimension
1001
ACAD
1000
DSTYLE
1002
{
1070
   371
1070
    13
1070
   372
1070
    13
1070
   170
1070
     0
1070
   144
1040
1.0
1070
   277
1070
     2
1070
   284
1070
     8
1070
   278
1070
    46
1070
   146
1040
0.777778
1070
   345
1005
16
1070
   347
1005
16
1070
   346
1005
16
1070
   344
1005
0
1070
   343
1005
0
1070
   172
1070
     1
1070
    76
1070
     0
1070
    75
1070
     0
1070
   282
1070
     0
1070
   281
1070
     0
1070
    71
1070
     0
1070
    74
1070
     0
1070
   279
1070
     0
1070
   173
1070
     1
1070
   340
1005
33D
1070
   271
1070
     2
1070
   272
1070
     2
1070
    77
1070
     1
1070
    73
1070
     1
1070
   171
1070
     3
1070
   274
1070
     4
1070
   177
1070
   150
1070
   176
1070
     9
1070
   178
1070
    43
1070
    78
1070
     8
1070
    48
1040
-0.1
1070
    41
1040
4.175
1070
   147
1040
2.25
1070
    42
1040
1.5875
1070
    44
1040
3.175
1070
   140
1040
4.5
1002
}
1001
ACAD_DSTYLE_DIM_LINETYPE
1070
   380
1005
16
1001
ACAD_DSTYLE_DIM_EXT1_LINETYPE
1070
   381
1005
16
1001
ACAD_DSTYLE_DIM_EXT2_LINETYPE
1070
   382
1005
16
0
ENDSEC
0
SECTION
2
OBJECTS
0
DICTIONARY
5
44b
330
0
100
AcDbDictionary
280
0
281
1
3
ACAD_GROUP
350
44c
3
ACAD_MLINESTYLE
350
44d
0
DICTIONARY
5
44c
330
0
100
AcDbDictionary
280
0
281
1
0
DICTIONARY
5
44d
330
0
100
AcDbDictionary
280
0
281
1
3
Standard
350
18
0
MLINESTYLE
5
18
330
44d
100
AcDbMlineStyle
2
Standard
70
0
3

62
256
51
90
52
90
71
2
49
-0.5
62
256
6
ByLayer
49
0.5
62
256
6
ByLayer
0
RASTERVARIABLES
5
439
330

100
AcDbRasterVariables
90
0
70
1
71
1
72
1
0
ENDSEC
0
EOF
