0
SECTION
2
HEADER
9
$ACADVER
1
AC1015
9
$DWGCODEPAGE
3
ANSI_1252
9
$HANDSEED
5
45b
9
$ANGBASE
50
0
9
$ANGDIR
70
0
9
$ATTMODE
70
1
9
$AUNITS
70
0
9
$AUPREC
70
0
9
$CECOLOR
62
256
9
$CELTSCALE
40
1
9
$CELTYPE
6
ByLayer
9
$CELWEIGHT
370
18
9
$CLAYER
8
0
9
$CMLJUST
70
0
9
$CMLSCALE
40
1
9
$CMLSTYLE
2
Standard
9
$DIMSTYLE
2
Standard
9
$TEXTSIZE
40
0.2
9
$TEXTSTYLE
7
Standard
9
$LUNITS
70
2
9
$LUPREC
70
4
9
$EXTNAMES
290
1
9
$INSUNITS
70
4
9
$LTSCALE
40
1
9
$LWDISPLAY
290
1
9
$PDMODE
70
0
9
$PDSIZE
40
0
9
$PLINEGEN
70
0
0
ENDSEC
0
SECTION
2
CLASSES
0
CLASS
1
RASTERVARIABLES
2
AcDbRasterVariables
3
ISM
90
0
280
0
281
0
0
ENDSEC
0
SECTION
2
TABLES
0
TABLE
2
VPORT
5
451
100
AcDbSymbolTable
0
VPORT
5
1
100
AcDbSymbolTableRecord
100
AcDbViewportTableRecord
2
*Active
70
0
10
0
20
0
11
1
21
1
12
-1
22
1
13
0
23
0
14
0.5
24
0.5
15
10
25
10
16
0
26
0
36
1
17
0
27
0
37
0
0
ENDTAB
0
TABLE
2
LTYPE
5
452
100
AcDbSymbolTable
0
LTYPE
5
14
100
AcDbSymbolTableRecord
100
AcDbLinetypeTableRecord
70
0
2
ByBlock
3

72
65
73
0
40
0
0
LTYPE
5
15
100
AcDbSymbolTableRecord
100
AcDbLinetypeTableRecord
70
0
2
ByLayer
3

72
65
73
0
40
0
0
LTYPE
5
16
100
AcDbSymbolTableRecord
100
AcDbLinetypeTableRecord
70
0
2
Continuous
3
Solid line
72
65
73
0
40
0
0
LTYPE
5
6E
100
AcDbSymbolTableRecord
100
AcDbLinetypeTableRecord
70
0
2
CENTER
3
____ _ ____ _ ____ _ ____
72
65
73
4
40
47.5
49
22
74
0
49
-8.5
74
0
49
8.5
74
0
49
-8.5
74
0
0
LTYPE
5
6F
100
AcDbSymbolTableRecord
100
AcDbLinetypeTableRecord
70
0
2
DASHED
3
__ __ __ __ __ __ __ __ __
72
65
73
2
40
25.72
49
12.86
74
0
49
-12.86
74
0
0
ENDTAB
0
TABLE
2
LAYER
5
453
100
AcDbSymbolTable
0
LAYER
5
10
100
AcDbSymbolTableRecord
100
AcDbLayerTableRecord
2
0
70
0
62
7
6
Continuous
290
1
370
-3
390
0
0
LAYER
5
71
100
AcDbSymbolTableRecord
100
AcDbLayerTableRecord
2
1
70
0
62
4
6
Continuous
290
1
370
-3
390
0
0
LAYER
5
73
100
AcDbSymbolTableRecord
100
AcDbLayerTableRecord
2
80
70
0
62
-6
6
Continuous
290
1
370
-3
390
0
0
LAYER
5
75
100
AcDbSymbolTableRecord
100
AcDbLayerTableRecord
2
81
70
0
62
-3
6
Continuous
290
1
370
-3
390
0
0
LAYER
5
14A
100
AcDbSymbolTableRecord
100
AcDbLayerTableRecord
2
4
70
0
62
-2
6
CENTER
290
1
370
-3
390
0
0
LAYER
5
187
100
AcDbSymbolTableRecord
100
AcDbLayerTableRecord
2
2
70
0
62
7
6
Continuous
290
1
370
-3
390
0
0
LAYER
5
365
100
AcDbSymbolTableRecord
100
AcDbLayerTableRecord
2
Defpoints
70
0
62
7
6
Continuous
290
0
370
-3
390
0
0
LAYER
5
43d
100
AcDbSymbolTableRecord
100
AcDbLayerTableRecord
2
SK1
70
0
62
4
6
Continuous
290
1
370
-3
390
0
0
LAYER
5
43e
100
AcDbSymbolTableRecord
100
AcDbLayerTableRecord
2
SK4
70
0
62
2
6
CENTER
290
1
370
-3
390
0
0
LAYER
5
43f
100
AcDbSymbolTableRecord
100
AcDbLayerTableRecord
2
SK2
70
0
62
7
6
Continuous
290
1
370
-3
390
0
0
LAYER
5
440
100
AcDbSymbolTableRecord
100
AcDbLayerTableRecord
2
SK6
70
0
62
5
6
Continuous
290
1
370
-3
390
0
0
ENDTAB
0
TABLE
2
STYLE
5
454
100
AcDbSymbolTable
0
STYLE
5
11
100
AcDbSymbolTableRecord
100
AcDbTextStyleTableRecord
2
Standard
3
txt
70
0
71
0
40
0
41
1
42
0
50
0
0
STYLE
5
340
100
AcDbSymbolTableRecord
100
AcDbTextStyleTableRecord
2
iso_b_vert
3
simplex.shx
70
0
71
0
40
0
41
1
42
0
50
0
0
STYLE
5
341
100
AcDbSymbolTableRecord
100
AcDbTextStyleTableRecord
2
DWGDirectTextStyle
3
simplex
70
0
71
0
40
0
41
1
42
0
50
0
0
ENDTAB
0
TABLE
2
DIMSTYLE
5
455
100
AcDbSymbolTable
100
AcDbDimStyleTable
0
DIMSTYLE
105
27
100
AcDbSymbolTableRecord
100
AcDbDimStyleTableRecord
2
Standard
70
0
3
<>
41
0.18
42
0.0625
44
0.18
140
0.18
147
0.09
73
0
74
0
77
1
271
2
275
0
278
52
280
0
340
11
0
ENDTAB
0
TABLE
2
VIEW
5
456
100
AcDbSymbolTable
0
ENDTAB
0
TABLE
2
UCS
5
457
100
AcDbSymbolTable
0
ENDTAB
0
TABLE
2
APPID
5
458
100
AcDbSymbolTable
0
APPID
5
12
100
AcDbSymbolTableRecord
100
AcDbRegAppTableRecord
2
ACAD
70
0
0
APPID
5
361
100
AcDbSymbolTableRecord
100
AcDbRegAppTableRecord
2
ACAD_DSTYLE_DIMBREAK
70
0
0
APPID
5
3FC
100
AcDbSymbolTableRecord
100
AcDbRegAppTableRecord
2
ACAD_DSTYLE_DIM_LINETYPE
70
0
0
APPID
5
3FD
100
AcDbSymbolTableRecord
100
AcDbRegAppTableRecord
2
ACAD_DSTYLE_DIM_EXT1_LINETYPE
70
0
0
APPID
5
3FE
100
AcDbSymbolTableRecord
100
AcDbRegAppTableRecord
2
ACAD_DSTYLE_DIM_EXT2_LINETYPE
70
0
0
APPID
5
439
100
AcDbSymbolTableRecord
100
AcDbRegAppTableRecord
2
ACAD_MLEADERVER
70
0
0
ENDTAB
0
TABLE
2
BLOCK_RECORD
5
459
100
AcDbSymbolTable
0
BLOCK_RECORD
5
1F
100
AcDbSymbolTableRecord
100
AcDbBlockTableRecord
2
*Model_Space
340
0
70
0
0
BLOCK_RECORD
5
1B
100
AcDbSymbolTableRecord
100
AcDbBlockTableRecord
2
*Paper_Space
340
0
70
0
0
BLOCK_RECORD
5
23
100
AcDbSymbolTableRecord
100
AcDbBlockTableRecord
2
*Paper_Space0
340
0
70
0
0
BLOCK_RECORD
5
366
100
AcDbSymbolTableRecord
100
AcDbBlockTableRecord
2
*D1
340
0
70
0
0
BLOCK_RECORD
5
372
100
AcDbSymbolTableRecord
100
AcDbBlockTableRecord
2
_U0
340
0
70
0
0
BLOCK_RECORD
5
37E
100
AcDbSymbolTableRecord
100
AcDbBlockTableRecord
2
*D3
340
0
70
0
0
BLOCK_RECORD
5
38B
100
AcDbSymbolTableRecord
100
AcDbBlockTableRecord
2
_U1
340
0
70
0
0
BLOCK_RECORD
5
397
100
AcDbSymbolTableRecord
100
AcDbBlockTableRecord
2
*D5
340
0
70
0
0
BLOCK_RECORD
5
3A3
100
AcDbSymbolTableRecord
100
AcDbBlockTableRecord
2
_U2
340
0
70
0
0
BLOCK_RECORD
5
3AF
100
AcDbSymbolTableRecord
100
AcDbBlockTableRecord
2
*D7
340
0
70
0
0
BLOCK_RECORD
5
3BB
100
AcDbSymbolTableRecord
100
AcDbBlockTableRecord
2
_U3
340
0
70
0
0
BLOCK_RECORD
5
3C7
100
AcDbSymbolTableRecord
100
AcDbBlockTableRecord
2
*D9
340
0
70
0
0
BLOCK_RECORD
5
3D5
100
AcDbSymbolTableRecord
100
AcDbBlockTableRecord
2
_U4
340
0
70
0
0
ENDTAB
0
ENDSEC
0
SECTION
2
BLOCKS
0
BLOCK
5
20
100
AcDbEntity
8
0
100
AcDbBlockBegin
2
*Model_Space
70
0
10
0
20
0
30
0
3
*Model_Space
0
ENDBLK
5
21
100
AcDbEntity
8
0
100
AcDbBlockEnd
0
BLOCK
5
1C
100
AcDbEntity
8
0
100
AcDbBlockBegin
2
*Paper_Space
70
0
10
0
20
0
30
0
3
*Paper_Space
0
ENDBLK
5
1D
100
AcDbEntity
8
0
100
AcDbBlockEnd
0
BLOCK
5
24
100
AcDbEntity
8
0
100
AcDbBlockBegin
2
*Paper_Space0
70
0
10
0
20
0
30
0
3
*Paper_Space0
0
ENDBLK
5
25
100
AcDbEntity
8
0
100
AcDbBlockEnd
0
BLOCK
5
367
100
AcDbEntity
8
0
100
AcDbBlockBegin
2
*D1
70
1
10
0
20
0
30
0
3
*D1
0
LINE
5
369
100
AcDbEntity
8
0
62
256
6
ByLayer
370
-2
48
1
60
0
100
AcDbLine
10
0
20
-32.8375
30
0
11
0
21
-83.275
31
0
39
0
210
0
220
0
230
1
0
LINE
5
36A
100
AcDbEntity
8
0
62
256
6
ByLayer
370
-2
48
1
60
0
100
AcDbLine
10
222
20
-23.0875
30
0
11
222
21
-83.275
31
0
39
0
210
0
220
0
230
1
0
LINE
5
36B
100
AcDbEntity
8
0
62
256
6
ByLayer
370
-2
48
1
60
0
100
AcDbLine
10
4.175
20
-80.1
30
0
11
217.825
21
-80.1
31
0
39
0
210
0
220
0
230
1
0
SOLID
5
36C
100
AcDbEntity
8
0
62
256
6
ByLayer
370
-1
48
1
60
0
100
AcDbTrace
10
4.175
20
-79.404167
30
0
11
4.175
21
-80.795833
31
0
12
0
22
-80.1
32
0
13
0
23
-80.1
33
0
39
0
210
0
220
0
230
1
0
SOLID
5
36D
100
AcDbEntity
8
0
62
256
6
ByLayer
370
-1
48
1
60
0
100
AcDbTrace
10
217.825
20
-80.795833
30
0
11
217.825
21
-79.404167
31
0
12
222
22
-80.1
32
0
13
222
23
-80.1
33
0
39
0
210
0
220
0
230
1
0
MTEXT
5
36E
100
AcDbEntity
8
0
62
256
6
ByLayer
370
18
48
1
60
0
100
AcDbMText
10
111
20
-70.70625
30
0
210
0
220
0
230
1
1
\A1;222
40
4.5
41
0
44
1
50
0
71
5
72
5
7
iso_b_vert
0
POINT
5
36F
100
AcDbEntity
8
Defpoints
62
0
6
ByLayer
370
-1
48
1
60
0
100
AcDbPoint
10
0
20
-31.25
30
0
39
0
210
0
220
0
230
1
50
360
0
POINT
5
370
100
AcDbEntity
8
Defpoints
62
0
6
ByLayer
370
-1
48
1
60
0
100
AcDbPoint
10
222
20
-21.5
30
0
39
0
210
0
220
0
230
1
50
360
0
POINT
5
371
100
AcDbEntity
8
Defpoints
62
0
6
ByLayer
370
-1
48
1
60
0
100
AcDbPoint
10
222
20
-80.1
30
0
39
0
210
0
220
0
230
1
50
360
0
ENDBLK
5
368
100
AcDbEntity
8
0
100
AcDbBlockEnd
0
BLOCK
5
379
100
AcDbEntity
8
0
100
AcDbBlockBegin
2
_U0
70
0
10
0
20
0
30
0
3
_U0
0
MTEXT
5
373
100
AcDbEntity
8
2
62
256
6
ByLayer
370
18
48
1
60
0
100
AcDbMText
10
106.869387
20
-78.772328
30
0
210
0
220
0
230
1
1
\W0.7138;222
40
4.5
41
0
44
1.084337
50
0
71
7
72
5
7
iso_b_vert
0
LINE
5
374
100
AcDbEntity
8
2
62
256
6
ByLayer
370
13
48
1
60
0
100
AcDbLine
10
0
20
-32.8375
30
0
11
0
21
-83.275
31
0
39
0
210
0
220
0
230
1
0
LINE
5
375
100
AcDbEntity
8
2
62
256
6
ByLayer
370
13
48
1
60
0
100
AcDbLine
10
222
20
-23.0875
30
0
11
222
21
-83.275
31
0
39
0
210
0
220
0
230
1
0
LINE
5
376
100
AcDbEntity
8
2
62
256
6
ByLayer
370
13
48
1
60
0
100
AcDbLine
10
0
20
-80.1
30
0
11
222
21
-80.1
31
0
39
0
210
0
220
0
230
1
0
SOLID
5
377
100
AcDbEntity
8
2
62
256
6
ByLayer
370
18
48
1
60
0
100
AcDbTrace
10
0
20
-80.1
30
0
11
4.174997
21
-79.174425
31
0
12
4.175003
22
-81.025575
32
0
13
4.175003
23
-81.025575
33
0
39
0
210
0
220
0
230
1
0
SOLID
5
378
100
AcDbEntity
8
2
62
256
6
ByLayer
370
18
48
1
60
0
100
AcDbTrace
10
222
20
-80.1
30
0
11
217.825003
21
-81.025575
31
0
12
217.824997
22
-79.174425
32
0
13
217.824997
23
-79.174425
33
0
39
0
210
0
220
0
230
1
0
ENDBLK
5
37A
100
AcDbEntity
8
0
100
AcDbBlockEnd
0
BLOCK
5
37F
100
AcDbEntity
8
0
100
AcDbBlockBegin
2
*D3
70
1
10
0
20
0
30
0
3
*D3
0
LINE
5
381
100
AcDbEntity
8
0
62
256
6
ByLayer
370
-2
48
1
60
0
100
AcDbLine
10
-15
20
-21.5875
30
0
11
-15
21
-83.275
31
0
39
0
210
0
220
0
230
1
0
LINE
5
382
100
AcDbEntity
8
0
62
256
6
ByLayer
370
-2
48
1
60
0
100
AcDbLine
10
0
20
-32.8375
30
0
11
0
21
-83.275
31
0
39
0
210
0
220
0
230
1
0
LINE
5
383
100
AcDbEntity
8
0
62
256
6
ByLayer
370
-2
48
1
60
0
100
AcDbLine
10
-19.175
20
-80.1
30
0
11
-23.35
21
-80.1
31
0
39
0
210
0
220
0
230
1
0
LINE
5
384
100
AcDbEntity
8
0
62
256
6
ByLayer
370
-2
48
1
60
0
100
AcDbLine
10
4.175
20
-80.1
30
0
11
8.35
21
-80.1
31
0
39
0
210
0
220
0
230
1
0
SOLID
5
385
100
AcDbEntity
8
0
62
256
6
ByLayer
370
-1
48
1
60
0
100
AcDbTrace
10
-19.175
20
-80.795833
30
0
11
-19.175
21
-79.404167
31
0
12
-15
22
-80.1
32
0
13
-15
23
-80.1
33
0
39
0
210
0
220
0
230
1
0
SOLID
5
386
100
AcDbEntity
8
0
62
256
6
ByLayer
370
-1
48
1
60
0
100
AcDbTrace
10
4.175
20
-79.404167
30
0
11
4.175
21
-80.795833
31
0
12
0
22
-80.1
32
0
13
0
23
-80.1
33
0
39
0
210
0
220
0
230
1
0
MTEXT
5
387
100
AcDbEntity
8
0
62
256
6
ByLayer
370
18
48
1
60
0
100
AcDbMText
10
-7.5
20
-70.70625
30
0
210
0
220
0
230
1
1
\A1;15
40
4.5
41
0
44
1
50
0
71
5
72
5
7
iso_b_vert
0
POINT
5
388
100
AcDbEntity
8
Defpoints
62
0
6
ByLayer
370
-1
48
1
60
0
100
AcDbPoint
10
-15
20
-20
30
0
39
0
210
0
220
0
230
1
50
360
0
POINT
5
389
100
AcDbEntity
8
Defpoints
62
0
6
ByLayer
370
-1
48
1
60
0
100
AcDbPoint
10
0
20
-31.25
30
0
39
0
210
0
220
0
230
1
50
360
0
POINT
5
38A
100
AcDbEntity
8
Defpoints
62
0
6
ByLayer
370
-1
48
1
60
0
100
AcDbPoint
10
0
20
-80.1
30
0
39
0
210
0
220
0
230
1
50
360
0
ENDBLK
5
380
100
AcDbEntity
8
0
100
AcDbBlockEnd
0
BLOCK
5
392
100
AcDbEntity
8
0
100
AcDbBlockBegin
2
_U1
70
0
10
0
20
0
30
0
3
_U1
0
MTEXT
5
38C
100
AcDbEntity
8
SK2
62
256
6
ByLayer
370
18
48
1
60
0
100
AcDbMText
10
-9.386828
20
-78.772328
30
0
210
0
220
0
230
1
1
\W0.5321;15
40
4.5
41
0
44
1.084337
50
0
71
7
72
5
7
iso_b_vert
0
LINE
5
38D
100
AcDbEntity
8
SK2
62
256
6
ByLayer
370
13
48
1
60
0
100
AcDbLine
10
-15
20
-21.5875
30
0
11
-15
21
-83.275
31
0
39
0
210
0
220
0
230
1
0
LINE
5
38E
100
AcDbEntity
8
SK2
62
256
6
ByLayer
370
13
48
1
60
0
100
AcDbLine
10
0
20
-32.8375
30
0
11
0
21
-83.275
31
0
39
0
210
0
220
0
230
1
0
LINE
5
38F
100
AcDbEntity
8
SK2
62
256
6
ByLayer
370
13
48
1
60
0
100
AcDbLine
10
-26.25
20
-80.1
30
0
11
11.25
21
-80.1
31
0
39
0
210
0
220
0
230
1
0
SOLID
5
390
100
AcDbEntity
8
SK2
62
256
6
ByLayer
370
18
48
1
60
0
100
AcDbTrace
10
-15
20
-80.1
30
0
11
-19.174997
21
-81.025575
31
0
12
-19.175003
22
-79.174425
32
0
13
-19.175003
23
-79.174425
33
0
39
0
210
0
220
0
230
1
0
SOLID
5
391
100
AcDbEntity
8
SK2
62
256
6
ByLayer
370
18
48
1
60
0
100
AcDbTrace
10
0
20
-80.1
30
0
11
4.174997
21
-79.174425
31
0
12
4.175003
22
-81.025575
32
0
13
4.175003
23
-81.025575
33
0
39
0
210
0
220
0
230
1
0
ENDBLK
5
393
100
AcDbEntity
8
0
100
AcDbBlockEnd
0
BLOCK
5
398
100
AcDbEntity
8
0
100
AcDbBlockBegin
2
*D5
70
1
10
0
20
0
30
0
3
*D5
0
LINE
5
39A
100
AcDbEntity
8
0
62
256
6
ByLayer
370
-2
48
1
60
0
100
AcDbLine
10
222
20
-23.0875
30
0
11
222
21
-73.275
31
0
39
0
210
0
220
0
230
1
0
LINE
5
39B
100
AcDbEntity
8
0
62
256
6
ByLayer
370
-2
48
1
60
0
100
AcDbLine
10
17.7986
20
-32.8375
30
0
11
17.7986
21
-73.275
31
0
39
0
210
0
220
0
230
1
0
LINE
5
39C
100
AcDbEntity
8
0
62
256
6
ByLayer
370
-2
48
1
60
0
100
AcDbLine
10
217.825
20
-70.1
30
0
11
21.9736
21
-70.1
31
0
39
0
210
0
220
0
230
1
0
SOLID
5
39D
100
AcDbEntity
8
0
62
256
6
ByLayer
370
-1
48
1
60
0
100
AcDbTrace
10
217.825
20
-70.795833
30
0
11
217.825
21
-69.404167
31
0
12
222
22
-70.1
32
0
13
222
23
-70.1
33
0
39
0
210
0
220
0
230
1
0
SOLID
5
39E
100
AcDbEntity
8
0
62
256
6
ByLayer
370
-1
48
1
60
0
100
AcDbTrace
10
21.9736
20
-69.404167
30
0
11
21.9736
21
-70.795833
31
0
12
17.7986
22
-70.1
32
0
13
17.7986
23
-70.1
33
0
39
0
210
0
220
0
230
1
0
MTEXT
5
39F
100
AcDbEntity
8
0
62
256
6
ByLayer
370
18
48
1
60
0
100
AcDbMText
10
119.8993
20
-60.70625
30
0
210
0
220
0
230
1
1
\A1;204.2
40
4.5
41
0
44
1
50
0
71
5
72
5
7
iso_b_vert
0
POINT
5
3A0
100
AcDbEntity
8
Defpoints
62
0
6
ByLayer
370
-1
48
1
60
0
100
AcDbPoint
10
222
20
-21.5
30
0
39
0
210
0
220
0
230
1
50
360
0
POINT
5
3A1
100
AcDbEntity
8
Defpoints
62
0
6
ByLayer
370
-1
48
1
60
0
100
AcDbPoint
10
17.7986
20
-31.25
30
0
39
0
210
0
220
0
230
1
50
360
0
POINT
5
3A2
100
AcDbEntity
8
Defpoints
62
0
6
ByLayer
370
-1
48
1
60
0
100
AcDbPoint
10
17.7986
20
-70.1
30
0
39
0
210
0
220
0
230
1
50
360
0
ENDBLK
5
399
100
AcDbEntity
8
0
100
AcDbBlockEnd
0
BLOCK
5
3AA
100
AcDbEntity
8
0
100
AcDbBlockBegin
2
_U2
70
0
10
0
20
0
30
0
3
_U2
0
MTEXT
5
3A4
100
AcDbEntity
8
SK2
62
256
6
ByLayer
370
18
48
1
60
0
100
AcDbMText
10
112.93883
20
-68.772328
30
0
210
0
220
0
230
1
1
\W0.7694;204.2
40
4.5
41
0
44
1.084337
50
0
71
7
72
5
7
iso_b_vert
0
LINE
5
3A5
100
AcDbEntity
8
SK2
62
256
6
ByLayer
370
13
48
1
60
0
100
AcDbLine
10
222
20
-23.0875
30
0
11
222
21
-73.275
31
0
39
0
210
0
220
0
230
1
0
LINE
5
3A6
100
AcDbEntity
8
SK2
62
256
6
ByLayer
370
13
48
1
60
0
100
AcDbLine
10
17.7986
20
-32.8375
30
0
11
17.7986
21
-73.275
31
0
39
0
210
0
220
0
230
1
0
LINE
5
3A7
100
AcDbEntity
8
SK2
62
256
6
ByLayer
370
13
48
1
60
0
100
AcDbLine
10
222
20
-70.1
30
0
11
17.7986
21
-70.1
31
0
39
0
210
0
220
0
230
1
0
SOLID
5
3A8
100
AcDbEntity
8
SK2
62
256
6
ByLayer
370
18
48
1
60
0
100
AcDbTrace
10
222
20
-70.1
30
0
11
217.825003
21
-71.025575
31
0
12
217.824997
22
-69.174425
32
0
13
217.824997
23
-69.174425
33
0
39
0
210
0
220
0
230
1
0
SOLID
5
3A9
100
AcDbEntity
8
SK2
62
256
6
ByLayer
370
18
48
1
60
0
100
AcDbTrace
10
17.7986
20
-70.1
30
0
11
21.973597
21
-69.174425
31
0
12
21.973603
22
-71.025575
32
0
13
21.973603
23
-71.025575
33
0
39
0
210
0
220
0
230
1
0
ENDBLK
5
3AB
100
AcDbEntity
8
0
100
AcDbBlockEnd
0
BLOCK
5
3B0
100
AcDbEntity
8
0
100
AcDbBlockBegin
2
*D7
70
1
10
0
20
0
30
0
3
*D7
0
LINE
5
3B2
100
AcDbEntity
8
0
62
256
6
ByLayer
370
-2
48
1
60
0
100
AcDbLine
10
45
20
-23.0875
30
0
11
45
21
-63.275
31
0
39
0
210
0
220
0
230
1
0
LINE
5
3B3
100
AcDbEntity
8
0
62
256
6
ByLayer
370
-2
48
1
60
0
100
AcDbLine
10
222
20
-23.0875
30
0
11
222
21
-63.275
31
0
39
0
210
0
220
0
230
1
0
LINE
5
3B4
100
AcDbEntity
8
0
62
256
6
ByLayer
370
-2
48
1
60
0
100
AcDbLine
10
49.175
20
-60.1
30
0
11
217.825
21
-60.1
31
0
39
0
210
0
220
0
230
1
0
SOLID
5
3B5
100
AcDbEntity
8
0
62
256
6
ByLayer
370
-1
48
1
60
0
100
AcDbTrace
10
49.175
20
-59.404167
30
0
11
49.175
21
-60.795833
31
0
12
45
22
-60.1
32
0
13
45
23
-60.1
33
0
39
0
210
0
220
0
230
1
0
SOLID
5
3B6
100
AcDbEntity
8
0
62
256
6
ByLayer
370
-1
48
1
60
0
100
AcDbTrace
10
217.825
20
-60.795833
30
0
11
217.825
21
-59.404167
31
0
12
222
22
-60.1
32
0
13
222
23
-60.1
33
0
39
0
210
0
220
0
230
1
0
MTEXT
5
3B7
100
AcDbEntity
8
0
62
256
6
ByLayer
370
18
48
1
60
0
100
AcDbMText
10
133.5
20
-50.70625
30
0
210
0
220
0
230
1
1
\A1;177
40
4.5
41
0
44
1
50
0
71
5
72
5
7
iso_b_vert
0
POINT
5
3B8
100
AcDbEntity
8
Defpoints
62
0
6
ByLayer
370
-1
48
1
60
0
100
AcDbPoint
10
45
20
-21.5
30
0
39
0
210
0
220
0
230
1
50
360
0
POINT
5
3B9
100
AcDbEntity
8
Defpoints
62
0
6
ByLayer
370
-1
48
1
60
0
100
AcDbPoint
10
222
20
-21.5
30
0
39
0
210
0
220
0
230
1
50
360
0
POINT
5
3BA
100
AcDbEntity
8
Defpoints
62
0
6
ByLayer
370
-1
48
1
60
0
100
AcDbPoint
10
222
20
-60.1
30
0
39
0
210
0
220
0
230
1
50
360
0
ENDBLK
5
3B1
100
AcDbEntity
8
0
100
AcDbBlockEnd
0
BLOCK
5
3C2
100
AcDbEntity
8
0
100
AcDbBlockBegin
2
_U3
70
0
10
0
20
0
30
0
3
_U3
0
MTEXT
5
3BC
100
AcDbEntity
8
SK2
62
256
6
ByLayer
370
18
48
1
60
0
100
AcDbMText
10
129.931801
20
-58.772328
30
0
210
0
220
0
230
1
1
\W0.6217;177
40
4.5
41
0
44
1.084337
50
0
71
7
72
5
7
iso_b_vert
0
LINE
5
3BD
100
AcDbEntity
8
SK2
62
256
6
ByLayer
370
13
48
1
60
0
100
AcDbLine
10
45
20
-23.0875
30
0
11
45
21
-63.275
31
0
39
0
210
0
220
0
230
1
0
LINE
5
3BE
100
AcDbEntity
8
SK2
62
256
6
ByLayer
370
13
48
1
60
0
100
AcDbLine
10
222
20
-23.0875
30
0
11
222
21
-63.275
31
0
39
0
210
0
220
0
230
1
0
LINE
5
3BF
100
AcDbEntity
8
SK2
62
256
6
ByLayer
370
13
48
1
60
0
100
AcDbLine
10
45
20
-60.1
30
0
11
222
21
-60.1
31
0
39
0
210
0
220
0
230
1
0
SOLID
5
3C0
100
AcDbEntity
8
SK2
62
256
6
ByLayer
370
18
48
1
60
0
100
AcDbTrace
10
45
20
-60.1
30
0
11
49.174997
21
-59.174425
31
0
12
49.175003
22
-61.025575
32
0
13
49.175003
23
-61.025575
33
0
39
0
210
0
220
0
230
1
0
SOLID
5
3C1
100
AcDbEntity
8
SK2
62
256
6
ByLayer
370
18
48
1
60
0
100
AcDbTrace
10
222
20
-60.1
30
0
11
217.825003
21
-61.025575
31
0
12
217.824997
22
-59.174425
32
0
13
217.824997
23
-59.174425
33
0
39
0
210
0
220
0
230
1
0
ENDBLK
5
3C3
100
AcDbEntity
8
0
100
AcDbBlockEnd
0
BLOCK
5
3C8
100
AcDbEntity
8
0
100
AcDbBlockBegin
2
*D9
70
1
10
0
20
0
30
0
3
*D9
0
LINE
5
3CA
100
AcDbEntity
8
0
62
256
6
ByLayer
370
-2
48
1
60
0
100
AcDbLine
10
220.7234
20
-12.3375
30
0
11
220.7234
21
-53.275
31
0
39
0
210
0
220
0
230
1
0
LINE
5
3CB
100
AcDbEntity
8
0
62
256
6
ByLayer
370
-2
48
1
60
0
100
AcDbLine
10
222
20
-1.5875
30
0
11
222
21
-53.275
31
0
39
0
210
0
220
0
230
1
0
LINE
5
3CC
100
AcDbEntity
8
0
62
256
6
ByLayer
370
-2
48
1
60
0
100
AcDbLine
10
222
20
-50.1
30
0
11
257.708929
21
-50.1
31
0
39
0
210
0
220
0
230
1
0
LINE
5
3CD
100
AcDbEntity
8
0
62
256
6
ByLayer
370
-2
48
1
60
0
100
AcDbLine
10
216.5484
20
-50.1
30
0
11
212.3734
21
-50.1
31
0
39
0
210
0
220
0
230
1
0
LINE
5
3CE
100
AcDbEntity
8
0
62
256
6
ByLayer
370
-2
48
1
60
0
100
AcDbLine
10
226.175
20
-50.1
30
0
11
230.35
21
-50.1
31
0
39
0
210
0
220
0
230
1
0
SOLID
5
3CF
100
AcDbEntity
8
0
62
256
6
ByLayer
370
-1
48
1
60
0
100
AcDbTrace
10
216.5484
20
-50.795833
30
0
11
216.5484
21
-49.404167
31
0
12
220.7234
22
-50.1
32
0
13
220.7234
23
-50.1
33
0
39
0
210
0
220
0
230
1
0
SOLID
5
3D0
100
AcDbEntity
8
0
62
256
6
ByLayer
370
-1
48
1
60
0
100
AcDbTrace
10
226.175
20
-49.404167
30
0
11
226.175
21
-50.795833
31
0
12
222
22
-50.1
32
0
13
222
23
-50.1
33
0
39
0
210
0
220
0
230
1
0
MTEXT
5
3D1
100
AcDbEntity
8
0
62
256
6
ByLayer
370
18
48
1
60
0
100
AcDbMText
10
244.029464
20
-40.70625
30
0
210
0
220
0
230
1
1
\A1;1.28
40
4.5
41
0
44
1
50
0
71
5
72
5
7
iso_b_vert
0
POINT
5
3D2
100
AcDbEntity
8
Defpoints
62
0
6
ByLayer
370
-1
48
1
60
0
100
AcDbPoint
10
220.7234
20
-10.75
30
0
39
0
210
0
220
0
230
1
50
360
0
POINT
5
3D3
100
AcDbEntity
8
Defpoints
62
0
6
ByLayer
370
-1
48
1
60
0
100
AcDbPoint
10
222
20
0
30
0
39
0
210
0
220
0
230
1
50
360
0
POINT
5
3D4
100
AcDbEntity
8
Defpoints
62
0
6
ByLayer
370
-1
48
1
60
0
100
AcDbPoint
10
222
20
-50.1
30
0
39
0
210
0
220
0
230
1
50
360
0
ENDBLK
5
3C9
100
AcDbEntity
8
0
100
AcDbBlockEnd
0
BLOCK
5
3DC
100
AcDbEntity
8
0
100
AcDbBlockBegin
2
_U4
70
0
10
0
20
0
30
0
3
_U4
0
MTEXT
5
3D6
100
AcDbEntity
8
2
62
256
6
ByLayer
370
18
48
1
60
0
100
AcDbMText
10
234.351
20
-48.772328
30
0
210
0
220
0
230
1
1
\W0.6563;1.28
40
4.5
41
0
44
1.084337
50
0
71
7
72
5
7
iso_b_vert
0
LINE
5
3D7
100
AcDbEntity
8
2
62
256
6
ByLayer
370
13
48
1
60
0
100
AcDbLine
10
220.7234
20
-12.3375
30
0
11
220.7234
21
-53.275
31
0
39
0
210
0
220
0
230
1
0
LINE
5
3D8
100
AcDbEntity
8
2
62
256
6
ByLayer
370
13
48
1
60
0
100
AcDbLine
10
222
20
-1.5875
30
0
11
222
21
-53.275
31
0
39
0
210
0
220
0
230
1
0
LINE
5
3D9
100
AcDbEntity
8
2
62
256
6
ByLayer
370
13
48
1
60
0
100
AcDbLine
10
243.549041
20
-50.1
30
0
11
209.4734
21
-50.1
31
0
39
0
210
0
220
0
230
1
0
SOLID
5
3DA
100
AcDbEntity
8
2
62
256
6
ByLayer
370
18
48
1
60
0
100
AcDbTrace
10
220.7234
20
-50.1
30
0
11
216.548403
21
-51.025575
31
0
12
216.548397
22
-49.174425
32
0
13
216.548397
23
-49.174425
33
0
39
0
210
0
220
0
230
1
0
SOLID
5
3DB
100
AcDbEntity
8
2
62
256
6
ByLayer
370
18
48
1
60
0
100
AcDbTrace
10
222
20
-50.1
30
0
11
226.174997
21
-49.174425
31
0
12
226.175003
22
-51.025575
32
0
13
226.175003
23
-51.025575
33
0
39
0
210
0
220
0
230
1
0
ENDBLK
5
3DD
100
AcDbEntity
8
0
100
AcDbBlockEnd
0
ENDSEC
0
SECTION
2
ENTITIES
0
ARC
5
190
100
AcDbEntity
8
SK1
62
256
6
ByLayer
370
13
48
1
60
0
100
AcDbCircle
39
0
10
-0.3
20
20.4
30
0
40
0.600000000000001
210
0
220
0
230
1
100
AcDbArc
50
270
51
300
0
ARC
5
191
100
AcDbEntity
8
SK1
62
256
6
ByLayer
370
13
48
1
60
0
100
AcDbCircle
39
0
10
-0.3
20
-20.4
30
0
40
0.600000000000001
210
0
220
0
230
1
100
AcDbArc
50
60
51
90
0
ARC
5
192
100
AcDbEntity
8
1
62
256
6
ByLayer
370
13
48
1
60
0
100
AcDbCircle
39
0
10
6.5
20
-28.5
30
0
40
0.5
210
0
220
0
230
1
100
AcDbArc
50
90
51
180
0
ARC
5
193
100
AcDbEntity
8
1
62
256
6
ByLayer
370
13
48
1
60
0
100
AcDbCircle
39
0
10
6.5
20
28.5
30
0
40
0.5
210
0
220
0
230
1
100
AcDbArc
50
180
51
270
0
ARC
5
194
100
AcDbEntity
8
1
62
256
6
ByLayer
370
13
48
1
60
0
100
AcDbCircle
39
0
10
218.546286
20
20.004292
30
0
40
0.2
210
0
220
0
230
1
100
AcDbArc
50
8.974534
51
93
0
ARC
5
195
100
AcDbEntity
8
1
62
256
6
ByLayer
370
13
48
1
60
0
100
AcDbCircle
39
0
10
218.692333
20
7.183193
30
0
40
0.2
210
0
220
0
230
1
100
AcDbArc
50
273
51
352.543899
0
ARC
5
196
100
AcDbEntity
8
1
62
256
6
ByLayer
370
13
48
1
60
0
100
AcDbCircle
39
0
10
205.925347
20
19.108288
30
0
40
0.2
210
0
220
0
230
1
100
AcDbArc
50
76.847115
51
93
0
ARC
5
197
100
AcDbEntity
8
1
62
256
6
ByLayer
370
13
48
1
60
0
100
AcDbCircle
39
0
10
206.071393
20
6.287189
30
0
40
0.2
210
0
220
0
230
1
100
AcDbArc
50
273
51
304.880681
0
ELLIPSE
5
198
100
AcDbEntity
8
1
62
256
6
ByLayer
370
13
48
1
60
0
100
AcDbEllipse
10
204.989506
20
5.017476
30
0
11
0.00373239490690328
21
-0.149953556904326
31
0
210
0
220
0
230
1
40
0.092336
41
-1.56825879134052
42
-0.0414707750422488
0
ELLIPSE
5
199
100
AcDbEntity
8
1
62
256
6
ByLayer
370
13
48
1
60
0
100
AcDbEllipse
10
204.733221
20
12.720273
30
0
11
-0.148731686424787
21
0.0194649801756605
31
0
210
0
220
0
230
1
40
0.016833
41
1.47983423648447
42
3.05063056328133
0
ELLIPSE
5
19A
100
AcDbEntity
8
1
62
256
6
ByLayer
370
13
48
1
60
0
100
AcDbEllipse
10
219.097982
20
21.215798
30
0
11
-0.279378559899522
21
-0.215283244303803
31
0
210
0
220
0
230
1
40
0.479615
41
-2.35983386470128
42
-1.27243207081246
0
ELLIPSE
5
19B
100
AcDbEntity
8
1
62
256
6
ByLayer
370
13
48
1
60
0
100
AcDbEllipse
10
206.071393
20
6.287189
30
0
11
0.114373860315996
21
-0.164068949153753
31
0
210
0
220
0
230
1
40
0.07853
41
3.35013637223391E-05
42
1.52199123907656
0
ELLIPSE
5
19C
100
AcDbEntity
8
1
62
256
6
ByLayer
370
13
48
1
60
0
100
AcDbEllipse
10
204.026546
20
5.481476
30
0
11
-0.148163665863162
21
-0.0233993187505401
31
0
210
0
220
0
230
1
40
0.009655
41
-1.47879775232166
42
0.0919985744705118
0
ELLIPSE
5
19D
100
AcDbEntity
8
1
62
256
6
ByLayer
370
13
48
1
60
0
100
AcDbEllipse
10
206.404162
20
21.172714
30
0
11
-0.0942047212387731
21
1.79753316255816
31
0
210
0
220
0
230
1
40
0.995725
41
2.74104825906053
42
3.14159265358894
0
ELLIPSE
5
19E
100
AcDbEntity
8
1
62
256
6
ByLayer
370
13
48
1
60
0
100
AcDbEllipse
10
219.586505
20
21.272409
30
0
11
-0.00653729335064158
21
0.149857478277354
31
0
210
0
220
0
230
1
40
0.092367
41
0.000809536043732892
42
1.57160586284002
0
ELLIPSE
5
19F
100
AcDbEntity
8
1
62
256
6
ByLayer
370
13
48
1
60
0
100
AcDbEllipse
10
219.667516
20
19.52432
30
0
11
0.0994383168600329
21
-1.89739611603377
31
0
210
0
220
0
230
1
40
0.995725
41
3.11423538093023
42
3.13286600733066
0
ELLIPSE
5
1A0
100
AcDbEntity
8
1
62
256
6
ByLayer
370
13
48
1
60
0
100
AcDbEllipse
10
204.736455
20
12.476358
30
0
11
-0.148163665863162
21
-0.0233993187505401
31
0
210
0
220
0
230
1
40
0.009655
41
-3.04959407911743
42
-1.47879775231991
0
ELLIPSE
5
1A1
100
AcDbEntity
8
1
62
256
6
ByLayer
370
13
48
1
60
0
100
AcDbEllipse
10
217.263888
20
21.741848
30
0
11
-1.59242934827338
21
-1.39349696570787
31
0
210
0
220
0
230
1
40
0.74335
41
1.15768450151914
42
1.97984155688755
0
ELLIPSE
5
1A2
100
AcDbEntity
8
1
62
256
6
ByLayer
370
13
48
1
60
0
100
AcDbEllipse
10
220.874155
20
7.389756
30
0
11
-0.0235312926467612
21
0.148142763125211
31
0
210
0
220
0
230
1
40
0.091865
41
1.56109981834732
42
3.13189614514258
0
ELLIPSE
5
1A3
100
AcDbEntity
8
1
62
256
6
ByLayer
370
13
48
1
60
0
100
AcDbEllipse
10
218.546286
20
20.004292
30
0
11
-0.11437386031599
21
0.164068949153758
31
0
210
0
220
0
230
1
40
0.07853
41
-1.61960141451367
42
-0.0488050877192856
0
ELLIPSE
5
1A4
100
AcDbEntity
8
1
62
256
6
ByLayer
370
13
48
1
60
0
100
AcDbEllipse
10
206.071393
20
6.287189
30
0
11
0.197551554484216
21
0.0311990916673858
31
0
210
0
220
0
230
1
40
0.009655
41
-3.04959407911205
42
-1.47879775232118
0
ELLIPSE
5
1A5
100
AcDbEntity
8
1
62
256
6
ByLayer
370
13
48
1
60
0
100
AcDbEllipse
10
205.250373
20
5.028552
30
0
11
0.00653729335064122
21
-0.149857478277354
31
0
210
0
220
0
230
1
40
0.092367
41
-1.56998679074977
42
-0.0232440763763574
0
ELLIPSE
5
1A6
100
AcDbEntity
8
1
62
256
6
ByLayer
370
13
48
1
60
0
100
AcDbEllipse
10
219.843333
20
12.526551
30
0
11
0.465790010554891
21
-8.88780285931609
31
0
210
0
220
0
230
1
40
0.995725
41
3.06423017113143
42
3.11423538093015
0
ELLIPSE
5
1A7
100
AcDbEntity
8
1
62
256
6
ByLayer
370
13
48
1
60
0
100
AcDbEllipse
10
218.546286
20
20.004292
30
0
11
0.0104671912484245
21
-0.199725906950923
31
0
210
0
220
0
230
1
40
0.995725
41
3.14157394909765
42
-2.58708947813822
0
ELLIPSE
5
1A8
100
AcDbEntity
8
1
62
256
6
ByLayer
370
13
48
1
60
0
100
AcDbEllipse
10
217.583175
20
21.758582
30
0
11
-2.06114073926097
21
-1.58827064376067
31
0
210
0
220
0
230
1
40
0.479615
41
1.8299277542115
42
1.86916098472868
0
ELLIPSE
5
1A9
100
AcDbEntity
8
1
62
256
6
ByLayer
370
13
48
1
60
0
100
AcDbEllipse
10
204.774346
20
13.76493
30
0
11
0.465790010554891
21
-8.88780285931609
31
0
210
0
220
0
230
1
40
0.995725
41
-0.077362482460005
42
-0.0273572726612831
0
ELLIPSE
5
1AA
100
AcDbEntity
8
1
62
256
6
ByLayer
370
13
48
1
60
0
100
AcDbEllipse
10
218.974494
20
7.036895
30
0
11
0.00523359562421164
21
-0.0998629534754499
31
0
210
0
220
0
230
1
40
0.995725
41
-1.7540558982526
42
0.104719755119726
0
ELLIPSE
5
1AB
100
AcDbEntity
8
1
62
256
6
ByLayer
370
13
48
1
60
0
100
AcDbEllipse
10
221.689692
20
13.795077
30
0
11
0.148163665863162
21
0.0233993187505394
31
0
210
0
220
0
230
1
40
0.009655
41
0.0919985744748214
42
1.66279490126875
0
ELLIPSE
5
1AC
100
AcDbEntity
8
1
62
256
6
ByLayer
370
13
48
1
60
0
100
AcDbEllipse
10
205.085272
20
12.531274
30
0
11
-0.197551554484216
21
-0.0311990916673867
31
0
210
0
220
0
230
1
40
0.009655
41
0.0919985744717376
42
1.66279490126824
0
ELLIPSE
5
1AD
100
AcDbEntity
8
1
62
256
6
ByLayer
370
13
48
1
60
0
100
AcDbEllipse
10
205.234354
20
5.07778
30
0
11
-0.002616797812188
21
0.0499314767377239
31
0
210
0
220
0
230
1
40
0.995725
41
3.13286600732938
42
-1.87965793449107
0
ELLIPSE
5
1AE
100
AcDbEntity
8
1
62
256
6
ByLayer
370
13
48
1
60
0
100
AcDbEllipse
10
221.148799
20
13.70916
30
0
11
0.0366351693694858
21
-0.699040674328231
31
0
210
0
220
0
230
1
40
0.995725
41
1.38753675533544
42
1.67551608191455
0
ELLIPSE
5
1AF
100
AcDbEntity
8
1
62
256
6
ByLayer
370
13
48
1
60
0
100
AcDbEllipse
10
207.275556
20
4.545532
30
0
11
-0.0942047212387726
21
1.79753316255815
31
0
210
0
220
0
230
1
40
0.995725
41
0
42
1.26193471909808
0
ELLIPSE
5
1B0
100
AcDbEntity
8
1
62
256
6
ByLayer
370
13
48
1
60
0
100
AcDbEllipse
10
211.984095
20
19.342237
30
0
11
0.0104671912484245
21
-0.199725906950923
31
0
210
0
220
0
230
1
40
0.092371
41
1.5707963267949
42
3.14159265358979
0
ELLIPSE
5
1B1
100
AcDbEntity
8
1
62
256
6
ByLayer
370
13
48
1
60
0
100
AcDbEllipse
10
219.364877
20
21.212734
30
0
11
0.0104671912484244
21
-0.199725906950921
31
0
210
0
220
0
230
1
40
0.995725
41
3.13286600733038
42
-1.87965793448986
0
ELLIPSE
5
1B2
100
AcDbEntity
8
1
62
256
6
ByLayer
370
13
48
1
60
0
100
AcDbEllipse
10
221.134962
20
13.708435
30
0
11
-0.0287847759340694
21
0.549246244114991
31
0
210
0
220
0
230
1
40
0.995725
41
-1.75405589825437
42
-1.46607657167522
0
ELLIPSE
5
1B3
100
AcDbEntity
8
1
62
256
6
ByLayer
370
13
48
1
60
0
100
AcDbEllipse
10
221.153411
20
13.709402
30
0
11
0.0366351693694858
21
-0.699040674328231
31
0
210
0
220
0
230
1
40
0.995725
41
1.38753675533626
42
1.67551608191537
0
ELLIPSE
5
1B4
100
AcDbEntity
8
1
62
256
6
ByLayer
370
13
48
1
60
0
100
AcDbEllipse
10
205.576993
20
12.60938
30
0
11
0.0366351693694858
21
-0.699040674328232
31
0
210
0
220
0
230
1
40
0.995725
41
-1.75405589825427
42
-1.4660765716752
0
ELLIPSE
5
1B5
100
AcDbEntity
8
1
62
256
6
ByLayer
370
13
48
1
60
0
100
AcDbEllipse
10
205.24819
20
5.078505
30
0
11
0.0104671912484244
21
-0.199725906950921
31
0
210
0
220
0
230
1
40
0.995725
41
0.0114035669056809
42
1.26193471909918
0
ELLIPSE
5
1B6
100
AcDbEntity
8
1
62
256
6
ByLayer
370
13
48
1
60
0
100
AcDbEllipse
10
205.643186
20
19.254586
30
0
11
0.00523359562421164
21
-0.0998629534754499
31
0
210
0
220
0
230
1
40
0.995725
41
1.38753675533546
42
-3.03687289847095
0
ELLIPSE
5
1B7
100
AcDbEntity
8
1
62
256
6
ByLayer
370
13
48
1
60
0
100
AcDbEllipse
10
205.580523
20
19.194499
30
0
11
-0.157381426385121
21
-0.0466723701560259
31
0
210
0
220
0
230
1
40
0.019797
41
-3.05943361685112
42
-1.48863728991847
0
ELLIPSE
5
1B8
100
AcDbEntity
8
1
62
256
6
ByLayer
370
13
48
1
60
0
100
AcDbEllipse
10
203.464268
20
12.582079
30
0
11
0.0366351693694858
21
-0.699040674328231
31
0
210
0
220
0
230
1
40
0.995725
41
-1.75405589825518
42
-1.46607657167606
0
ELLIPSE
5
1B9
100
AcDbEntity
8
1
62
256
6
ByLayer
370
13
48
1
60
0
100
AcDbEllipse
10
217.342123
20
21.745948
30
0
11
-0.0994383168631493
21
1.89739611603361
31
0
210
0
220
0
230
1
40
0.995725
41
-2.37978474864572
42
-1.87965793449003
0
ELLIPSE
5
1BA
100
AcDbEntity
8
1
62
256
6
ByLayer
370
13
48
1
60
0
100
AcDbEllipse
10
205.925347
20
19.108288
30
0
11
0.0104671912484245
21
-0.199725906950923
31
0
210
0
220
0
230
1
40
0.995725
41
-3.14157313675573
42
-1.75405589825518
0
ELLIPSE
5
1BB
100
AcDbEntity
8
1
62
256
6
ByLayer
370
13
48
1
60
0
100
AcDbEllipse
10
220.880274
20
7.401803
30
0
11
-0.0435637040558149
21
-0.259139630111278
31
0
210
0
220
0
230
1
40
0.947521
41
0.30815298147481
42
1.60922962168831
0
ELLIPSE
5
1BC
100
AcDbEntity
8
1
62
256
6
ByLayer
370
13
48
1
60
0
100
AcDbEllipse
10
204.950163
20
6.767161
30
0
11
0.0994383168600329
21
-1.89739611603377
31
0
210
0
220
0
230
1
40
0.995725
41
-0.0273572726612275
42
-0.00872664626078684
0
ELLIPSE
5
1BD
100
AcDbEntity
8
1
62
256
6
ByLayer
370
13
48
1
60
0
100
AcDbEllipse
10
217.323675
20
21.744982
30
0
11
0.10728871029635
21
-2.04719054624697
31
0
210
0
220
0
230
1
40
0.995725
41
0.773852857220385
42
1.26193471909894
0
ELLIPSE
5
1BE
100
AcDbEntity
8
1
62
256
6
ByLayer
370
13
48
1
60
0
100
AcDbEllipse
10
218.790539
20
20.372692
30
0
11
0.00523359562421177
21
-0.0998629534754523
31
0
210
0
220
0
230
1
40
0.995725
41
-2.37978474864525
42
-1.46607657167445
0
ELLIPSE
5
1BF
100
AcDbEntity
8
1
62
256
6
ByLayer
370
13
48
1
60
0
100
AcDbEllipse
10
219.662904
20
19.524079
30
0
11
0.0994383168600329
21
-1.89739611603377
31
0
210
0
220
0
230
1
40
0.995725
41
3.11423538092936
42
3.13286600732983
0
ELLIPSE
5
1C0
100
AcDbEntity
8
1
62
256
6
ByLayer
370
13
48
1
60
0
100
AcDbEllipse
10
205.638574
20
19.254344
30
0
11
0.00523359562421164
21
-0.0998629534754499
31
0
210
0
220
0
230
1
40
0.995725
41
1.38753675533633
42
3.1415814171374
0
ELLIPSE
5
1C1
100
AcDbEntity
8
1
62
256
6
ByLayer
370
13
48
1
60
0
100
AcDbEllipse
10
212.22396
20
13.141292
30
0
11
0.156043507058745
21
-2.97748748746725
31
0
210
0
220
0
230
1
40
0.995725
41
0
42
6.28318530717959
0
ELLIPSE
5
1C2
100
AcDbEntity
8
1
62
256
6
ByLayer
370
13
48
1
60
0
100
AcDbEllipse
10
205.306759
20
5.064523
30
0
11
0.0127690523123461
21
-0.243648032548462
31
0
210
0
220
0
230
1
40
0.995725
41
0.174532925198388
42
1.26193471909876
0
ELLIPSE
5
1C3
100
AcDbEntity
8
1
62
256
6
ByLayer
370
13
48
1
60
0
100
AcDbEllipse
10
212.249051
20
13.142607
30
0
11
0.161488764827533
21
-3.08138919525504
31
0
210
0
220
0
230
1
40
0.995725
41
-0.853733431166166
42
0
0
ELLIPSE
5
1C4
100
AcDbEntity
8
1
62
256
6
ByLayer
370
13
48
1
60
0
100
AcDbEllipse
10
212.249051
20
13.142607
30
0
11
0.161488764827533
21
-3.08138919525504
31
0
210
0
220
0
230
1
40
0.995725
41
0
42
-2.28787053660728
0
ELLIPSE
5
1C5
100
AcDbEntity
8
1
62
256
6
ByLayer
370
13
48
1
60
0
100
AcDbEllipse
10
219.838721
20
12.526309
30
0
11
0.465790010554891
21
-8.88780285931609
31
0
210
0
220
0
230
1
40
0.995725
41
3.06423017113061
42
3.11423538092933
0
ELLIPSE
5
1C6
100
AcDbEntity
8
1
62
256
6
ByLayer
370
13
48
1
60
0
100
AcDbEllipse
10
219.022237
20
13.681134
30
0
11
0.0444855628058042
21
-0.848835104541425
31
0
210
0
220
0
230
1
40
0.995725
41
1.38753675533555
42
1.67551608191457
0
ELLIPSE
5
1C7
100
AcDbEntity
8
1
62
256
6
ByLayer
370
13
48
1
60
0
100
AcDbEllipse
10
217.660053
20
5.089761
30
0
11
0.0942047212358207
21
-1.79753316255831
31
0
210
0
220
0
230
1
40
0.995725
41
2.06338748458709
42
2.74715904466472
0
ELLIPSE
5
1C8
100
AcDbEntity
8
1
62
256
6
ByLayer
370
13
48
1
60
0
100
AcDbEllipse
10
205.928933
20
21.147808
30
0
11
-1.72936595006509
21
1.2194090508829
31
0
210
0
220
0
230
1
40
0.74335
41
1.1617510967014
42
1.98390815207558
0
ELLIPSE
5
1C9
100
AcDbEntity
8
1
62
256
6
ByLayer
370
13
48
1
60
0
100
AcDbEllipse
10
205.925347
20
19.108288
30
0
11
-0.0455100421908498
21
-0.194753269702429
31
0
210
0
220
0
230
1
40
0.088753
41
1.59649677847495
42
-3.11589220188552
0
ELLIPSE
5
1CA
100
AcDbEntity
8
1
62
256
6
ByLayer
370
13
48
1
60
0
100
AcDbEllipse
10
218.692333
20
7.183193
30
0
11
0.0455100421908601
21
0.194753269702427
31
0
210
0
220
0
230
1
40
0.088753
41
-3.11589220193367
42
-1.54509587511471
0
ELLIPSE
5
1CB
100
AcDbEntity
8
1
62
256
6
ByLayer
370
13
48
1
60
0
100
AcDbEllipse
10
205.827141
20
5.918789
30
0
11
0.00523359562421177
21
-0.0998629534754523
31
0
210
0
220
0
230
1
40
0.995725
41
0.761807904942911
42
1.67551608191363
0
ELLIPSE
5
1CC
100
AcDbEntity
8
1
62
256
6
ByLayer
370
13
48
1
60
0
100
AcDbEllipse
10
205.822528
20
5.918547
30
0
11
0.00523359562421177
21
-0.0998629534754523
31
0
210
0
220
0
230
1
40
0.995725
41
0.761807904943813
42
1.6755160819142
0
ELLIPSE
5
1CD
100
AcDbEntity
8
1
62
256
6
ByLayer
370
13
48
1
60
0
100
AcDbEllipse
10
204.755897
20
13.763963
30
0
11
-0.457939617132924
21
8.73800842910214
31
0
210
0
220
0
230
1
40
0.995725
41
3.0642301711306
42
3.11423538092932
0
ELLIPSE
5
1CE
100
AcDbEntity
8
1
62
256
6
ByLayer
370
13
48
1
60
0
100
AcDbEllipse
10
218.213517
20
5.118767
30
0
11
-0.0942047212387731
21
1.79753316255816
31
0
210
0
220
0
230
1
40
0.995725
41
-0.400544394527605
42
8.23110104096065E-13
0
ELLIPSE
5
1CF
100
AcDbEntity
8
1
62
256
6
ByLayer
370
13
48
1
60
0
100
AcDbEllipse
10
217.738288
20
5.093861
30
0
11
-1.40394107567013
21
-1.50837379633458
31
0
210
0
220
0
230
1
40
0.735668
41
2.5690021013909
42
-2.89202615041453
0
ELLIPSE
5
1D0
100
AcDbEntity
8
1
62
256
6
ByLayer
370
13
48
1
60
0
100
AcDbEllipse
10
220.425717
20
6.430407
30
0
11
-0.0435637040584945
21
-0.25913963011038
31
0
210
0
220
0
230
1
40
0.947521
41
0.308152981484868
42
1.28542437778701
0
ELLIPSE
5
1D1
100
AcDbEntity
8
1
62
256
6
ByLayer
370
13
48
1
60
0
100
AcDbEllipse
10
218.692333
20
7.183193
30
0
11
0.0104671912484245
21
-0.199725906950923
31
0
210
0
220
0
230
1
40
0.995725
41
-0.280778212086409
42
2.11747656313128E-05
0
ELLIPSE
5
1D2
100
AcDbEntity
8
1
62
256
6
ByLayer
370
13
48
1
60
0
100
AcDbEllipse
10
204.159874
20
20.432925
30
0
11
-0.30035132160707
21
0.184900888625126
31
0
210
0
220
0
230
1
40
0.479615
41
-1.86916058279411
42
-0.781758788887184
0
ELLIPSE
5
1D3
100
AcDbEntity
8
1
62
256
6
ByLayer
370
13
48
1
60
0
100
AcDbEllipse
10
221.691784
20
13.63725
30
0
11
0.148731686424787
21
-0.0194649801756591
31
0
210
0
220
0
230
1
40
0.016833
41
-1.66175841710551
42
-0.0909620903091595
0
ELLIPSE
5
1D4
100
AcDbEntity
8
1
62
256
6
ByLayer
370
13
48
1
60
0
100
AcDbEllipse
10
219.618949
20
21.273521
30
0
11
-0.00373239490690377
21
0.149953556904326
31
0
210
0
220
0
230
1
40
0.092336
41
0.00253753545169881
42
1.57333386224946
0
ELLIPSE
5
1D5
100
AcDbEntity
8
1
62
256
6
ByLayer
370
13
48
1
60
0
100
AcDbEllipse
10
219.346428
20
21.211767
30
0
11
-0.002616797812188
21
0.0499314767377239
31
0
210
0
220
0
230
1
40
0.995725
41
-0.0087266462609463
42
1.26193471909933
0
ELLIPSE
5
1D6
100
AcDbEntity
8
1
62
256
6
ByLayer
370
13
48
1
60
0
100
AcDbEllipse
10
219.059135
20
13.683068
30
0
11
-0.0261679781218814
21
0.499314767377266
31
0
210
0
220
0
230
1
40
0.995725
41
-1.75405589825426
42
-1.46607657167521
0
ELLIPSE
5
1D7
100
AcDbEntity
8
1
62
256
6
ByLayer
370
13
48
1
60
0
100
AcDbEllipse
10
219.027931
20
7.096499
30
0
11
-0.0427993177759421
21
-0.158580925149003
31
0
210
0
220
0
230
1
40
0.080206
41
-1.54458133971882
42
0.0262149871141553
0
ELLIPSE
5
1D8
100
AcDbEntity
8
1
62
256
6
ByLayer
370
13
48
1
60
0
100
AcDbEllipse
10
202.918763
20
12.495921
30
0
11
-0.148163665863162
21
-0.0233993187505401
31
0
210
0
220
0
230
1
40
0.009655
41
-1.47879775232123
42
-0.264819008250052
0
ELLIPSE
5
1D9
100
AcDbEntity
8
1
62
256
6
ByLayer
370
13
48
1
60
0
100
AcDbEllipse
10
204.572052
20
5.567635
30
0
11
0.0366351693694855
21
-0.699040674328226
31
0
210
0
220
0
230
1
40
0.995725
41
-1.46607657167605
42
-0.077362482459979
0
ELLIPSE
5
1DA
100
AcDbEntity
8
1
62
256
6
ByLayer
370
13
48
1
60
0
100
AcDbEllipse
10
219.872
20
13.814639
30
0
11
0.148163665863162
21
0.0233993187505394
31
0
210
0
220
0
230
1
40
0.009655
41
1.66279490126857
42
2.85602956830447
0
ELLIPSE
5
1DB
100
AcDbEntity
8
1
62
256
6
ByLayer
370
13
48
1
60
0
100
AcDbEllipse
10
203.737405
20
18.889678
30
0
11
-0.0435637040658156
21
-0.259139630108146
31
0
210
0
220
0
230
1
40
0.947521
41
-2.83343967207815
42
-1.53236303185873
0
ELLIPSE
5
1DC
100
AcDbEntity
8
1
62
256
6
ByLayer
370
13
48
1
60
0
100
AcDbEllipse
10
217.342123
20
21.745948
30
0
11
-0.0942047212387726
21
1.79753316255815
31
0
210
0
220
0
230
1
40
0.995725
41
-3.14159265358905
42
-1.87965793449008
0
ELLIPSE
5
1DD
100
AcDbEntity
8
1
62
256
6
ByLayer
370
13
48
1
60
0
100
AcDbEllipse
10
203.44582
20
12.581112
30
0
11
-0.0287847759340694
21
0.549246244114991
31
0
210
0
220
0
230
1
40
0.995725
41
1.38753675533543
42
1.67551608191458
0
ELLIPSE
5
1DE
100
AcDbEntity
8
1
62
256
6
ByLayer
370
13
48
1
60
0
100
AcDbEllipse
10
219.824885
20
12.525584
30
0
11
-0.457939617132924
21
8.73800842910214
31
0
210
0
220
0
230
1
40
0.995725
41
-0.0773624824591942
42
-0.0273572726604668
0
ELLIPSE
5
1DF
100
AcDbEntity
8
1
62
256
6
ByLayer
370
13
48
1
60
0
100
AcDbEllipse
10
219.534309
20
13.616728
30
0
11
0.198308915233049
21
-0.0259533069008789
31
0
210
0
220
0
230
1
40
0.016833
41
0.000152472705574061
42
1.47983423648474
0
ELLIPSE
5
1E0
100
AcDbEntity
8
1
62
256
6
ByLayer
370
13
48
1
60
0
100
AcDbEllipse
10
205.558545
20
12.608413
30
0
11
0.0444855628058042
21
-0.848835104541425
31
0
210
0
220
0
230
1
40
0.995725
41
-1.75405589825425
42
-1.46607657167522
0
ELLIPSE
5
1E1
100
AcDbEntity
8
1
62
256
6
ByLayer
370
13
48
1
60
0
100
AcDbEllipse
10
203.738912
20
18.901483
30
0
11
0.00785039343631842
21
-0.149794430213193
31
0
210
0
220
0
230
1
40
0.995725
41
-3.03687289847183
42
-1.75405589825508
0
ELLIPSE
5
1E2
100
AcDbEntity
8
1
62
256
6
ByLayer
370
13
48
1
60
0
100
AcDbEllipse
10
219.875234
20
13.570725
30
0
11
0.148731686424787
21
-0.0194649801756591
31
0
210
0
220
0
230
1
40
0.016833
41
-2.85804977879307
42
-1.66175841710626
0
ELLIPSE
5
1E3
100
AcDbEntity
8
1
62
256
6
ByLayer
370
13
48
1
60
0
100
AcDbEllipse
10
220.054584
20
21.273423
30
0
11
0.00379960965785709
21
0.149951868832795
31
0
210
0
220
0
230
1
40
0.092094
41
0.00716942111247568
42
1.57796574790525
0
ELLIPSE
5
1E4
100
AcDbEntity
8
1
62
256
6
ByLayer
370
13
48
1
60
0
100
AcDbEllipse
10
216.788659
20
21.716943
30
0
11
0.0942047212358207
21
-1.79753316255831
31
0
210
0
220
0
230
1
40
0.995725
41
0
42
0.400544394529216
0
ELLIPSE
5
1E5
100
AcDbEntity
8
1
62
256
6
ByLayer
370
13
48
1
60
0
100
AcDbEllipse
10
207.275556
20
4.545532
30
0
11
-0.0994383168631493
21
1.89739611603361
31
0
210
0
220
0
230
1
40
0.995725
41
0.761807904942428
42
1.26193471909813
0
ELLIPSE
5
1E6
100
AcDbEntity
8
1
62
256
6
ByLayer
370
13
48
1
60
0
100
AcDbEllipse
10
220.045628
20
20.723846
30
0
11
0.0366351693694855
21
-0.699040674328226
31
0
210
0
220
0
230
1
40
0.995725
41
1.67551608191537
42
3.06423017113149
0
ELLIPSE
5
1E7
100
AcDbEntity
8
1
62
256
6
ByLayer
370
13
48
1
60
0
100
AcDbEllipse
10
219.532407
20
13.760207
30
0
11
0.197551554484216
21
0.0311990916673858
31
0
210
0
220
0
230
1
40
0.009655
41
-1.47879775232043
42
0.000129455026955312
0
ELLIPSE
5
1E8
100
AcDbEntity
8
1
62
256
6
ByLayer
370
13
48
1
60
0
100
AcDbEllipse
10
203.638498
20
19.832068
30
0
11
-0.0435637040547677
21
-0.259139630111488
31
0
210
0
220
0
230
1
40
0.947521
41
-2.83343967211897
42
-2.19739446869102
0
ELLIPSE
5
1E9
100
AcDbEntity
8
1
62
256
6
ByLayer
370
13
48
1
60
0
100
AcDbEllipse
10
204.553871
20
5.017574
30
0
11
-0.00379960965785735
21
-0.149951868832795
31
0
210
0
220
0
230
1
40
0.092094
41
-1.56362690568454
42
-0.071742668609357
0
ELLIPSE
5
1EA
100
AcDbEntity
8
1
62
256
6
ByLayer
370
13
48
1
60
0
100
AcDbEllipse
10
205.296351
20
5.065809
30
0
11
-0.145139532363182
21
0.037875006869925
31
0
210
0
220
0
230
1
40
0.028078
41
1.48264787473431
42
3.05344420152795
0
ELLIPSE
5
1EB
100
AcDbEntity
8
1
62
256
6
ByLayer
370
13
48
1
60
0
100
AcDbEllipse
10
219.027931
20
7.096499
30
0
11
-0.1573814263965
21
-0.0466723701598827
31
0
210
0
220
0
230
1
40
0.019797
41
-1.48863729008047
42
-0.271936942504016
0
ELLIPSE
5
1EC
100
AcDbEntity
8
1
62
256
6
ByLayer
370
13
48
1
60
0
100
AcDbEllipse
10
220.027179
20
20.722879
30
0
11
-0.0287847759340692
21
0.549246244114986
31
0
210
0
220
0
230
1
40
0.995725
41
-1.46607657167522
42
-0.0773624824592436
0
ELLIPSE
5
1ED
100
AcDbEntity
8
1
62
256
6
ByLayer
370
13
48
1
60
0
100
AcDbEllipse
10
219.312104
20
21.225188
30
0
11
0.14513953236318
21
-0.0378750068699306
31
0
210
0
220
0
230
1
40
0.028078
41
3.05344420152922
42
-1.65894477885533
0
ELLIPSE
5
1EE
100
AcDbEntity
8
1
62
256
6
ByLayer
370
13
48
1
60
0
100
AcDbEllipse
10
220.874155
20
7.389756
30
0
11
0.148731686424787
21
-0.0194649801756591
31
0
210
0
220
0
230
1
40
0.016833
41
-1.6617584171051
42
-0.0909620903112785
0
ELLIPSE
5
1EF
100
AcDbEntity
8
1
62
256
6
ByLayer
370
13
48
1
60
0
100
AcDbEllipse
10
204.931715
20
6.766194
30
0
11
-0.0915879234265848
21
1.74760168582043
31
0
210
0
220
0
230
1
40
0.995725
41
3.11423538092937
42
3.13286600732984
0
ELLIPSE
5
1F0
100
AcDbEntity
8
1
62
256
6
ByLayer
370
13
48
1
60
0
100
AcDbEllipse
10
218.692333
20
7.183193
30
0
11
-0.198308915233049
21
0.0259533069008807
31
0
210
0
220
0
230
1
40
0.016833
41
-3.14144018090559
42
-1.66175841710548
0
ELLIPSE
5
1F1
100
AcDbEntity
8
1
62
256
6
ByLayer
370
13
48
1
60
0
100
AcDbEllipse
10
220.874155
20
7.389756
30
0
11
0.00785039343631842
21
-0.149794430213193
31
0
210
0
220
0
230
1
40
0.995725
41
0.104719755118911
42
1.38753675533548
0
ELLIPSE
5
1F2
100
AcDbEntity
8
1
62
256
6
ByLayer
370
13
48
1
60
0
100
AcDbEllipse
10
205.572381
20
12.609138
30
0
11
-0.0366351693706339
21
0.699040674328172
31
0
210
0
220
0
230
1
40
0.995725
41
1.38753675533552
42
1.67551608191455
0
ELLIPSE
5
1F3
100
AcDbEntity
8
1
62
256
6
ByLayer
370
13
48
1
60
0
100
AcDbEllipse
10
220.581909
20
20.809521
30
0
11
0.148163665863162
21
0.0233993187505394
31
0
210
0
220
0
230
1
40
0.009655
41
0.0919985744760602
42
1.66279490126902
0
ELLIPSE
5
1F4
100
AcDbEntity
8
1
62
256
6
ByLayer
370
13
48
1
60
0
100
AcDbEllipse
10
205.925347
20
19.108288
30
0
11
0.198308915233049
21
-0.0259533069008789
31
0
210
0
220
0
230
1
40
0.016833
41
1.4798342364846
42
3.05063056328134
0
ELLIPSE
5
1F5
100
AcDbEntity
8
1
62
256
6
ByLayer
370
13
48
1
60
0
100
AcDbEllipse
10
220.878768
20
7.389998
30
0
11
0.00785039343631842
21
-0.149794430213193
31
0
210
0
220
0
230
1
40
0.995725
41
0.104719755119327
42
1.38753675533625
0
ELLIPSE
5
1F6
100
AcDbEntity
8
1
62
256
6
ByLayer
370
13
48
1
60
0
100
AcDbEllipse
10
207.257107
20
4.544566
30
0
11
0.10728871029635
21
-2.04719054624697
31
0
210
0
220
0
230
1
40
0.995725
41
-2.36773979636943
42
-1.87965793449084
0
ELLIPSE
5
1F7
100
AcDbEntity
8
1
62
256
6
ByLayer
370
13
48
1
60
0
100
AcDbEllipse
10
203.734299
20
18.901241
30
0
11
-0.148731686424787
21
0.0194649801756605
31
0
210
0
220
0
230
1
40
0.016833
41
0.263130755736509
42
1.47983423648435
0
ELLIPSE
5
1F8
100
AcDbEntity
8
1
62
256
6
ByLayer
370
13
48
1
60
0
100
AcDbEllipse
10
205.595442
20
12.610347
30
0
11
-0.0261679781218814
21
0.499314767377266
31
0
210
0
220
0
230
1
40
0.995725
41
1.38753675533554
42
1.67551608191459
0
ELLIPSE
5
1F9
100
AcDbEntity
8
1
62
256
6
ByLayer
370
13
48
1
60
0
100
AcDbEllipse
10
206.071393
20
6.287189
30
0
11
0.0104671912484245
21
-0.199725906950923
31
0
210
0
220
0
230
1
40
0.995725
41
-1.46607657167604
42
-1.72590776871405E-05
0
ELLIPSE
5
1FA
100
AcDbEntity
8
1
62
256
6
ByLayer
370
13
48
1
60
0
100
AcDbEllipse
10
205.08337
20
12.674753
30
0
11
-0.198308915233049
21
0.0259533069008807
31
0
210
0
220
0
230
1
40
0.016833
41
-1.6617584171059
42
-0.0909620903105779
0
ELLIPSE
5
1FB
100
AcDbEntity
8
1
62
256
6
ByLayer
370
13
48
1
60
0
100
AcDbEllipse
10
212.327288
20
13.146707
30
0
11
0.164592752014554
21
-3.14061679904847
31
0
210
0
220
0
230
1
40
0.995725
41
0
42
6.28318530717959
0
ELLIPSE
5
1FC
100
AcDbEntity
8
1
62
256
6
ByLayer
370
13
48
1
60
0
100
AcDbEllipse
10
205.02195
20
5.018588
30
0
11
0.00653729335064122
21
-0.149857478277354
31
0
210
0
220
0
230
1
40
0.092367
41
-1.56998679074977
42
0.000809536045656042
0
ELLIPSE
5
1FD
100
AcDbEntity
8
1
62
256
6
ByLayer
370
13
48
1
60
0
100
AcDbEllipse
10
220.041015
20
20.723604
30
0
11
0.0366351693694855
21
-0.699040674328226
31
0
210
0
220
0
230
1
40
0.995725
41
1.67551608191456
42
3.06423017113064
0
ELLIPSE
5
1FE
100
AcDbEntity
8
1
62
256
6
ByLayer
370
13
48
1
60
0
100
AcDbEllipse
10
218.546286
20
20.004292
30
0
11
-0.197551554484216
21
-0.0311990916673867
31
0
210
0
220
0
230
1
40
0.009655
41
1.66279490126894
42
-3.14146319860331
0
ELLIPSE
5
1FF
100
AcDbEntity
8
1
62
256
6
ByLayer
370
13
48
1
60
0
100
AcDbEllipse
10
205.580523
20
19.194499
30
0
11
-0.0427993177766304
21
-0.15858092514905
31
0
210
0
220
0
230
1
40
0.080206
41
-3.11537766648181
42
-1.54458133964945
0
ELLIPSE
5
200
100
AcDbEntity
8
1
62
256
6
ByLayer
370
13
48
1
60
0
100
AcDbEllipse
10
204.553603
20
5.566668
30
0
11
-0.0287847759340692
21
0.549246244114986
31
0
210
0
220
0
230
1
40
0.995725
41
1.67551608191458
42
3.06423017113055
0
ELLIPSE
5
201
100
AcDbEntity
8
1
62
256
6
ByLayer
370
13
48
1
60
0
100
AcDbEllipse
10
207.270944
20
4.545291
30
0
11
-0.0994383168631493
21
1.89739611603361
31
0
210
0
220
0
230
1
40
0.995725
41
0.761807904943252
42
1.26193471909893
0
ELLIPSE
5
202
100
AcDbEntity
8
1
62
256
6
ByLayer
370
13
48
1
60
0
100
AcDbEllipse
10
219.040686
20
13.682101
30
0
11
0.0366351693694858
21
-0.699040674328232
31
0
210
0
220
0
230
1
40
0.995725
41
1.38753675533552
42
1.6755160819146
0
ELLIPSE
5
203
100
AcDbEntity
8
1
62
256
6
ByLayer
370
13
48
1
60
0
100
AcDbEllipse
10
205.609648
20
21.131077
30
0
11
-2.21586992247986
21
1.3641222729127
31
0
210
0
220
0
230
1
40
0.479615
41
1.27243154781932
42
1.31166476676103
0
ELLIPSE
5
204
100
AcDbEntity
8
1
62
256
6
ByLayer
370
13
48
1
60
0
100
AcDbEllipse
10
203.734299
20
18.901241
30
0
11
0.0235312926467694
21
-0.14814276312521
31
0
210
0
220
0
230
1
40
0.091865
41
-3.05123893757865
42
-1.58049283524512
0
ELLIPSE
5
205
100
AcDbEntity
8
1
62
256
6
ByLayer
370
13
48
1
60
0
100
AcDbEllipse
10
219.649067
20
19.523353
30
0
11
-0.0915879234265848
21
1.74760168582043
31
0
210
0
220
0
230
1
40
0.995725
41
-0.0273572726603892
42
-0.00872664625992236
0
ELLIPSE
5
206
100
AcDbEntity
8
1
62
256
6
ByLayer
370
13
48
1
60
0
100
AcDbEllipse
10
219.358082
20
21.262445
30
0
11
-0.00653729335064158
21
0.149857478277354
31
0
210
0
220
0
230
1
40
0.092367
41
0.000809536047835613
42
1.57160586284002
0
ELLIPSE
5
207
100
AcDbEntity
8
1
62
256
6
ByLayer
370
13
48
1
60
0
100
AcDbEllipse
10
212.633584
20
6.949244
30
0
11
0.0104671912484245
21
-0.199725906950923
31
0
210
0
220
0
230
1
40
0.092371
41
0
42
1.5707963267949
0
ELLIPSE
5
208
100
AcDbEntity
8
1
62
256
6
ByLayer
370
13
48
1
60
0
100
AcDbEllipse
10
205.252802
20
5.078746
30
0
11
0.0104671912484244
21
-0.199725906950921
31
0
210
0
220
0
230
1
40
0.995725
41
-0.00872664626098322
42
1.26193471909814
0
ELLIPSE
5
209
100
AcDbEntity
8
1
62
256
6
ByLayer
370
13
48
1
60
0
100
AcDbEllipse
10
219.31092
20
21.226958
30
0
11
0.0127690523123461
21
-0.243648032548462
31
0
210
0
220
0
230
1
40
0.995725
41
-2.96705972838952
42
-1.87965793448944
0
ELLIPSE
5
20A
100
AcDbEntity
8
1
62
256
6
ByLayer
370
13
48
1
60
0
100
AcDbEllipse
10
202.91667
20
12.653747
30
0
11
-0.148731686424787
21
0.0194649801756605
31
0
210
0
220
0
230
1
40
0.016833
41
0.263181912491081
42
1.47983423648428
0
ELLIPSE
5
20B
100
AcDbEntity
8
1
62
256
6
ByLayer
370
18
48
1
60
0
100
AcDbEllipse
10
212.136653
20
13.136716
30
0
11
0.0675290843392107
21
-1.28853168869388
31
0
210
0
220
0
230
1
40
0.995725
41
1.0471975511966
42
2.0943951023932
0
ELLIPSE
5
20C
100
AcDbEntity
8
1
62
256
6
ByLayer
370
18
48
1
60
0
100
AcDbEllipse
10
213.452799
20
12.463025
30
0
11
-0.177667934091998
21
-0.351309387089465
31
0
210
0
220
0
230
1
40
0.48867
41
-1.57317835192526
42
-0.291314926057409
0
ELLIPSE
5
20D
100
AcDbEntity
8
1
62
256
6
ByLayer
370
18
48
1
60
0
100
AcDbEllipse
10
212.281937
20
13.14433
30
0
11
0.0877359970442944
21
-1.67410255206264
31
0
210
0
220
0
230
1
40
0.995725
41
1.5707963267949
42
2.61799387799148
0
ELLIPSE
5
20E
100
AcDbEntity
8
1
62
256
6
ByLayer
370
18
48
1
60
0
100
AcDbEllipse
10
212.281937
20
13.14433
30
0
11
0.0877359970442944
21
-1.67410255206264
31
0
210
0
220
0
230
1
40
0.995725
41
0.523598775598285
42
1.5707963267949
0
ELLIPSE
5
20F
100
AcDbEntity
8
1
62
256
6
ByLayer
370
18
48
1
60
0
100
AcDbEllipse
10
212.136653
20
13.136716
30
0
11
0.0675290843392107
21
-1.28853168869388
31
0
210
0
220
0
230
1
40
0.995725
41
2.09439510239317
42
-3.14159265358977
0
ELLIPSE
5
210
100
AcDbEntity
8
1
62
256
6
ByLayer
370
18
48
1
60
0
100
AcDbEllipse
10
212.281937
20
13.14433
30
0
11
0.0877359970442944
21
-1.67410255206264
31
0
210
0
220
0
230
1
40
0.995725
41
-2.61799387799148
42
-1.5707963267949
0
ELLIPSE
5
211
100
AcDbEntity
8
1
62
256
6
ByLayer
370
18
48
1
60
0
100
AcDbEllipse
10
213.452799
20
12.463025
30
0
11
-0.177667934094642
21
-0.351309387096103
31
0
210
0
220
0
230
1
40
0.48867
41
-2.85504177777902
42
-1.57317835192897
0
ELLIPSE
5
212
100
AcDbEntity
8
1
62
256
6
ByLayer
370
18
48
1
60
0
100
AcDbEllipse
10
212.208142
20
13.140463
30
0
11
-0.149157475294724
21
2.84609417405041
31
0
210
0
220
0
230
1
40
0.995725
41
9.25163458686959E-05
42
3.1415869351611
0
ELLIPSE
5
213
100
AcDbEntity
8
1
62
256
6
ByLayer
370
18
48
1
60
0
100
AcDbEllipse
10
213.611687
20
13.21402
30
0
11
-0.0206256003553439
21
0.39355989964678
31
0
210
0
220
0
230
1
40
0.48763
41
-2.94566969474601
42
-0.320422399685693
0
ELLIPSE
5
214
100
AcDbEntity
8
1
62
256
6
ByLayer
370
18
48
1
60
0
100
AcDbEllipse
10
212.136653
20
13.136716
30
0
11
-0.067529084341327
21
1.28853168869377
31
0
210
0
220
0
230
1
40
0.995725
41
-3.03890209425327
42
-2.0943951023932
0
ELLIPSE
5
215
100
AcDbEntity
8
1
62
256
6
ByLayer
370
18
48
1
60
0
100
AcDbEllipse
10
212.214283
20
11.655449
30
0
11
-0.391877312294718
21
-0.0205374196879873
31
0
210
0
220
0
230
1
40
0.491826
41
-1.5707963267949
42
-0.288932900933717
0
ELLIPSE
5
216
100
AcDbEntity
8
1
62
256
6
ByLayer
370
18
48
1
60
0
100
AcDbEllipse
10
213.375169
20
13.944292
30
0
11
-0.213416480927758
21
0.330813521388847
31
0
210
0
220
0
230
1
40
0.48867
41
0.291314926054769
42
1.5731783519113
0
ELLIPSE
5
217
100
AcDbEntity
8
1
62
256
6
ByLayer
370
18
48
1
60
0
100
AcDbEllipse
10
211.46637
20
11.815163
30
0
11
-0.3494783132438
21
0.179405951069349
31
0
210
0
220
0
230
1
40
0.490768
41
2.51649656479994
42
-2.94329838355323
0
ELLIPSE
5
218
100
AcDbEntity
8
1
62
256
6
ByLayer
370
18
48
1
60
0
100
AcDbEllipse
10
212.806936
20
14.45827
30
0
11
-0.349478313243808
21
0.179405951069364
31
0
210
0
220
0
230
1
40
0.490768
41
2.94809584056019
42
-0.625095735375629
0
ELLIPSE
5
219
100
AcDbEntity
8
1
62
256
6
ByLayer
370
18
48
1
60
0
100
AcDbEllipse
10
212.281937
20
13.14433
30
0
11
0.0877359970442944
21
-1.67410255206264
31
0
210
0
220
0
230
1
40
0.995725
41
-1.5707963267949
42
-0.523598775598285
0
ELLIPSE
5
21A
100
AcDbEntity
8
1
62
256
6
ByLayer
370
18
48
1
60
0
100
AcDbEllipse
10
213.375169
20
13.944292
30
0
11
-0.21341648092621
21
0.330813521387778
31
0
210
0
220
0
230
1
40
0.48867
41
1.57317835191571
42
2.85504177777632
0
ELLIPSE
5
21B
100
AcDbEntity
8
1
62
256
6
ByLayer
370
18
48
1
60
0
100
AcDbEllipse
10
212.136653
20
13.136716
30
0
11
0.0675290843392107
21
-1.28853168869388
31
0
210
0
220
0
230
1
40
0.995725
41
3.14159265358977
42
-2.34982975905695
0
ELLIPSE
5
21C
100
AcDbEntity
8
1
62
256
6
ByLayer
370
18
48
1
60
0
100
AcDbEllipse
10
212.281937
20
13.14433
30
0
11
-0.0942047212387731
21
1.79753316255816
31
0
210
0
220
0
230
1
40
0.995725
41
0
42
6.28318530717959
0
ELLIPSE
5
21D
100
AcDbEntity
8
1
62
256
6
ByLayer
370
18
48
1
60
0
100
AcDbEllipse
10
211.331902
20
14.380966
30
0
11
-0.328810806110978
21
-0.214953577526581
31
0
210
0
220
0
230
1
40
0.490768
41
2.94329838355321
42
-2.46819100314317
0
ELLIPSE
5
21E
100
AcDbEntity
8
1
62
256
6
ByLayer
370
18
48
1
60
0
100
AcDbEllipse
10
212.274632
20
13.143948
30
0
11
-0.149157475294724
21
2.84609417405041
31
0
210
0
220
0
230
1
40
0.995725
41
0
42
6.28318530717959
0
ELLIPSE
5
21F
100
AcDbEntity
8
1
62
256
6
ByLayer
370
18
48
1
60
0
100
AcDbEllipse
10
212.281937
20
13.14433
30
0
11
0.0877359970442944
21
-1.67410255206264
31
0
210
0
220
0
230
1
40
0.995725
41
2.6179938779915
42
-2.61799387799148
0
ELLIPSE
5
220
100
AcDbEntity
8
1
62
256
6
ByLayer
370
18
48
1
60
0
100
AcDbEllipse
10
212.941404
20
11.892467
30
0
11
-0.328810806110991
21
-0.214953577526561
31
0
210
0
220
0
230
1
40
0.490768
41
0.673401308867785
42
-2.94809584056023
0
ELLIPSE
5
221
100
AcDbEntity
8
1
62
256
6
ByLayer
370
18
48
1
60
0
100
AcDbEllipse
10
212.059023
20
14.617984
30
0
11
-0.391877312291993
21
-0.0205374196878485
31
0
210
0
220
0
230
1
40
0.491826
41
0.288932900934763
42
1.5707963267949
0
ELLIPSE
5
222
100
AcDbEntity
8
1
62
256
6
ByLayer
370
18
48
1
60
0
100
AcDbEllipse
10
212.136653
20
13.136716
30
0
11
0.0675290843392107
21
-1.28853168869388
31
0
210
0
220
0
230
1
40
0.995725
41
-0.773927979467091
42
2.21217808980824E-14
0
ELLIPSE
5
223
100
AcDbEntity
8
1
62
256
6
ByLayer
370
18
48
1
60
0
100
AcDbEllipse
10
212.136653
20
13.136716
30
0
11
0.0675290843392107
21
-1.28853168869388
31
0
210
0
220
0
230
1
40
0.995725
41
-1.8941510985487
42
-1.23150380240866
0
ELLIPSE
5
224
100
AcDbEntity
8
1
62
256
6
ByLayer
370
18
48
1
60
0
100
AcDbEllipse
10
212.281937
20
13.14433
30
0
11
0.0877359970442944
21
-1.67410255206264
31
0
210
0
220
0
230
1
40
0.995725
41
-0.523598775598285
42
0.523598775598285
0
ELLIPSE
5
225
100
AcDbEntity
8
1
62
256
6
ByLayer
370
18
48
1
60
0
100
AcDbEllipse
10
213.204527
20
-6.02393
30
0
11
-1.5
21
1.51595858262354E-15
31
0
210
0
220
0
230
1
40
0.993321
41
-3.14159247143985
42
0
0
ELLIPSE
5
226
100
AcDbEntity
8
1
62
256
6
ByLayer
370
18
48
1
60
0
100
AcDbEllipse
10
213.204527
20
-6.02393
30
0
11
-1.5
21
1.51595858262354E-15
31
0
210
0
220
0
230
1
40
0.993321
41
0
42
0.480368885354297
0
ELLIPSE
5
227
100
AcDbEntity
8
1
62
256
6
ByLayer
370
18
48
1
60
0
100
AcDbEllipse
10
213.204527
20
-6.02393
30
0
11
-1.5
21
1.51595858262354E-15
31
0
210
0
220
0
230
1
40
0.993321
41
3.06413248647284
42
3.14159216459021
0
ELLIPSE
5
228
100
AcDbEntity
8
1
62
256
6
ByLayer
370
18
48
1
60
0
100
AcDbEllipse
10
213.204527
20
-6.081624
30
0
11
2
21
0
31
0
210
0
220
0
230
1
40
0.993321
41
0.40781798306411
42
3.08288398269506
0
ELLIPSE
5
229
100
AcDbEntity
8
1
62
256
6
ByLayer
370
18
48
1
60
0
100
AcDbEllipse
10
213.204527
20
-7.008196
30
0
11
-2.35000000000001
21
2.37500177944356E-15
31
0
210
0
220
0
230
1
40
0.993321
41
-0.577267658562601
42
-0.5032440380914
0
ELLIPSE
5
22A
100
AcDbEntity
8
1
62
256
6
ByLayer
370
18
48
1
60
0
100
AcDbEllipse
10
213.204527
20
-6.894138
30
0
11
-2.35000000000001
21
2.37500177944356E-15
31
0
210
0
220
0
230
1
40
0.993321
41
-0.606523797138771
42
-0.455334854436812
0
ELLIPSE
5
22B
100
AcDbEntity
8
1
62
256
6
ByLayer
370
13
48
1
60
0
100
AcDbEllipse
10
222.593543
20
0
30
0
11
-2.52265672737929
21
-20.9603939888954
31
0
210
0
220
0
230
1
40
0.117787
41
-1.26767886288423
42
-0.0962218070809074
0
ELLIPSE
5
22C
100
AcDbEntity
8
1
62
256
6
ByLayer
370
13
48
1
60
0
100
AcDbEllipse
10
206.628304
20
6.483753
30
0
11
0.0261679781210613
21
-0.499314767377309
31
0
210
0
220
0
230
1
40
0.092371
41
-1.00594782560259
42
-0.630730776735567
0
ELLIPSE
5
22D
100
AcDbEntity
8
1
62
256
6
ByLayer
370
13
48
1
60
0
100
AcDbEllipse
10
220.453762
20
8.24029
30
0
11
0.136073486229519
21
-2.596436790362
31
0
210
0
220
0
230
1
40
0.995725
41
-0.990362103391471
42
-0.858139698776689
0
ELLIPSE
5
22E
100
AcDbEntity
8
1
62
256
6
ByLayer
370
13
48
1
60
0
100
AcDbEllipse
10
232.39353
20
-2.3E-05
30
0
11
-226.281792390993
21
0.102657146395491
31
0
210
0
220
0
230
1
40
0.092638
41
-1.44237782195691
42
-1.43204683851085
0
ELLIPSE
5
22F
100
AcDbEntity
8
1
62
256
6
ByLayer
370
13
48
1
60
0
100
AcDbEllipse
10
220.268769
20
-14.282687
30
0
11
-0.0634724266873921
21
-0.515865840932035
31
0
210
0
220
0
230
1
40
0.114322
41
-1.65235630958164
42
-0.0815599827825003
0
ELLIPSE
5
230
100
AcDbEntity
8
1
62
256
6
ByLayer
370
13
48
1
60
0
100
AcDbEllipse
10
205.056594
20
7.03281
30
0
11
-1.65564191835527
21
-2.05486645331017
31
0
210
0
220
0
230
1
40
0.966608
41
1.54124461053576
42
1.85179470935701
0
ELLIPSE
5
231
100
AcDbEntity
8
1
62
256
6
ByLayer
370
13
48
1
60
0
100
AcDbEllipse
10
202.487208
20
8.417907
30
0
11
-0.0261679781218815
21
0.499314767377269
31
0
210
0
220
0
230
1
40
0.995725
41
-2.08239418575115
42
-1.46607657167532
0
ELLIPSE
5
232
100
AcDbEntity
8
1
62
256
6
ByLayer
370
13
48
1
60
0
100
AcDbEllipse
10
163.012287
20
0
30
0
11
-226.281662261364
21
0.102653965160386
31
0
210
0
220
0
230
1
40
0.092638
41
-1.81608253137541
42
-1.75554912647617
0
ELLIPSE
5
233
100
AcDbEntity
8
1
62
256
6
ByLayer
370
13
48
1
60
0
100
AcDbEllipse
10
220.136682
20
6.521339
30
0
11
-0.020143210842107
21
1.0003109733916
31
0
210
0
220
0
230
1
40
0.104771
41
-3.13821518113912
42
-2.61124487438924
0
ELLIPSE
5
234
100
AcDbEntity
8
1
62
256
6
ByLayer
370
13
48
1
60
0
100
AcDbEllipse
10
198
20
4.536854
30
0
11
-3.99996214230581
21
0.022473752349831
31
0
210
0
220
0
230
1
40
0.775299
41
1.71451627479162
42
1.77602304355139
0
ELLIPSE
5
235
100
AcDbEntity
8
1
62
256
6
ByLayer
370
13
48
1
60
0
100
AcDbEllipse
10
204.274301
20
0
30
0
11
-1.10812088711675
21
20.962248633372
31
0
210
0
220
0
230
1
40
0.092638
41
-0.128418426402479
42
-0.00489787426989642
0
ELLIPSE
5
236
100
AcDbEntity
8
1
62
256
6
ByLayer
370
13
48
1
60
0
100
AcDbEllipse
10
220.338005
20
8.234223
30
0
11
-0.0822111437474915
21
2.59910270691387
31
0
210
0
220
0
230
1
40
0.529269
41
2.98674618655662
42
-3.13061456184683
0
ELLIPSE
5
237
100
AcDbEntity
8
1
62
256
6
ByLayer
370
13
48
1
60
0
100
AcDbEllipse
10
226.091475
20
0.721514
30
0
11
-6.03300170272426
21
-0.0237147021763187
31
0
210
0
220
0
230
1
40
0.98788
41
0.0287457586858633
42
0.152347745433079
0
ELLIPSE
5
238
100
AcDbEntity
8
1
62
256
6
ByLayer
370
13
48
1
60
0
100
AcDbEllipse
10
204.664116
20
7.012241
30
0
11
-0.109905508111901
21
2.09712202298451
31
0
210
0
220
0
230
1
40
0.995725
41
2.21256348620481
42
2.71619434556724
0
ELLIPSE
5
239
100
AcDbEntity
8
1
62
256
6
ByLayer
370
13
48
1
60
0
100
AcDbEllipse
10
204.664116
20
7.012241
30
0
11
-0.109905508111901
21
2.09712202298451
31
0
210
0
220
0
230
1
40
0.995725
41
-2.74205116609549
42
-2.08304175457705
0
ELLIPSE
5
23A
100
AcDbEntity
8
1
62
256
6
ByLayer
370
13
48
1
60
0
100
AcDbEllipse
10
1621.247033
20
-1.1E-05
30
0
11
-2710.93888507172
21
17.4628550286591
31
0
210
0
220
0
230
1
40
0.004278
41
1.01945307578044
42
1.02709639106691
0
ELLIPSE
5
23B
100
AcDbEntity
8
1
62
256
6
ByLayer
370
13
48
1
60
0
100
AcDbEllipse
10
198
20
3.473826
30
0
11
-0.395143420473458
21
11.217062572332
31
0
210
0
220
0
230
1
40
0.354855
41
-0.537307545913774
42
-0.394603039956393
0
ELLIPSE
5
23C
100
AcDbEntity
8
1
62
256
6
ByLayer
370
13
48
1
60
0
100
AcDbEllipse
10
204.90823
20
12.876419
30
0
11
0.136073486229519
21
-2.596436790362
31
0
210
0
220
0
230
1
40
0.995725
41
-2.20424198809738
42
-1.46607657167525
0
ELLIPSE
5
23D
100
AcDbEntity
8
1
62
256
6
ByLayer
370
13
48
1
60
0
100
AcDbEllipse
10
204.111055
20
5.681472
30
0
11
-3.96879667227308
21
-0.704906652288651
31
0
210
0
220
0
230
1
40
0.015321
41
-3.01817314073943
42
-2.71671453990148
0
ELLIPSE
5
23E
100
AcDbEntity
8
1
62
256
6
ByLayer
370
13
48
1
60
0
100
AcDbEllipse
10
215.097669
20
-6.937597
30
0
11
-6.03300168301667
21
-0.0237146232772773
31
0
210
0
220
0
230
1
40
0.98788
41
3.00751706782629
42
-2.98924489499703
0
ELLIPSE
5
23F
100
AcDbEntity
8
1
62
256
6
ByLayer
370
13
48
1
60
0
100
AcDbEllipse
10
220.530865
20
-2.004125
30
0
11
-2.24948989175623
21
3.75203239804365
31
0
210
0
220
0
230
1
40
0.347482
41
-1.02547547529869
42
-0.882135787283597
0
ELLIPSE
5
240
100
AcDbEntity
8
1
62
256
6
ByLayer
370
13
48
1
60
0
100
AcDbEllipse
10
213.002789
20
-5.895277
30
0
11
-2.1
21
2.12234201567296E-15
31
0
210
0
220
0
230
1
40
0.993321
41
-2.75321309299915
42
-0.242196834367294
0
ELLIPSE
5
241
100
AcDbEntity
8
1
62
256
6
ByLayer
370
13
48
1
60
0
100
AcDbEllipse
10
202.020675
20
5.177885
30
0
11
-0.29369042064903
21
-0.95590058940195
31
0
210
0
220
0
230
1
40
0.0868
41
-1.53907871771949
42
-1.39194541100094E-05
0
ELLIPSE
5
242
100
AcDbEntity
8
1
62
256
6
ByLayer
370
13
48
1
60
0
100
AcDbEllipse
10
715.000828
20
-0.217036
30
0
11
-623.836142589565
21
0.281529513513586
31
0
210
0
220
0
230
1
40
0.058701
41
-0.60275135317759
42
-0.594215915548516
0
ELLIPSE
5
243
100
AcDbEntity
8
1
62
256
6
ByLayer
370
13
48
1
60
0
100
AcDbEllipse
10
220.500707
20
0.116569
30
0
11
-0.0112057466719651
21
0.505660947530007
31
0
210
0
220
0
230
1
40
0.102037
41
-0.130312682585357
42
0.215297556243072
0
ELLIPSE
5
244
100
AcDbEntity
8
1
62
256
6
ByLayer
370
13
48
1
60
0
100
AcDbEllipse
10
207.879362
20
5.878961
30
0
11
-0.318392676608084
21
-0.395166625623688
31
0
210
0
220
0
230
1
40
0.966608
41
-2.12586228201891
42
-1.28979794420916
0
ELLIPSE
5
245
100
AcDbEntity
8
1
62
256
6
ByLayer
370
13
48
1
60
0
100
AcDbEllipse
10
204.710238
20
7.014658
30
0
11
0.136073486229519
21
-2.596436790362
31
0
210
0
220
0
230
1
40
0.995725
41
0.0555653949272936
42
1.07574208457343
0
ELLIPSE
5
246
100
AcDbEntity
8
1
62
256
6
ByLayer
370
13
48
1
60
0
100
AcDbEllipse
10
207.793937
20
5.358834
30
0
11
0.353010790461904
21
-0.935619250452587
31
0
210
0
220
0
230
1
40
0.088046
41
-1.59884006173132
42
-0.0280437349367605
0
ELLIPSE
5
247
100
AcDbEntity
8
1
62
256
6
ByLayer
370
13
48
1
60
0
100
AcDbEllipse
10
211.867064
20
6.087947
30
0
11
-3.9687966754503
21
-0.704906652865574
31
0
210
0
220
0
230
1
40
0.015321
41
-3.01817314118142
42
-2.71671454007465
0
ELLIPSE
5
248
100
AcDbEntity
8
1
62
256
6
ByLayer
370
13
48
1
60
0
100
AcDbEllipse
10
198
20
6.32238
30
0
11
-2
21
2.02127811016473E-15
31
0
210
0
220
0
230
1
40
0.75903
41
-2.96797868306584
42
-1.70954348793243
0
ELLIPSE
5
249
100
AcDbEntity
8
1
62
256
6
ByLayer
370
13
48
1
60
0
100
AcDbEllipse
10
218.158585
20
0
30
0
11
-43.7371771842673
21
18.6911737758391
31
0
210
0
220
0
230
1
40
0.2059
41
0.780115559216717
42
1.09314827580364
0
ELLIPSE
5
24A
100
AcDbEntity
8
1
62
256
6
ByLayer
370
13
48
1
60
0
100
AcDbEllipse
10
215.635371
20
6.285436
30
0
11
-0.318392744920929
21
-0.395166558631118
31
0
210
0
220
0
230
1
40
0.966608
41
-2.12586209462333
42
-2.06668912010317
0
ELLIPSE
5
24B
100
AcDbEntity
8
1
62
256
6
ByLayer
370
13
48
1
60
0
100
AcDbEllipse
10
204.39719
20
6.998252
30
0
11
-2.29348548714145
21
1.84790145606016
31
0
210
0
220
0
230
1
40
0.775936
41
3.05283506781719
42
-2.77958348582547
0
ELLIPSE
5
24C
100
AcDbEntity
8
1
62
256
6
ByLayer
370
13
48
1
60
0
100
AcDbEllipse
10
214.491694
20
9.129478
30
0
11
-1.6556419180531
21
-2.05486645355907
31
0
210
0
220
0
230
1
40
0.966608
41
0.713732916682117
42
1.07490334506112
0
ELLIPSE
5
24D
100
AcDbEntity
8
1
62
256
6
ByLayer
370
13
48
1
60
0
100
AcDbEllipse
10
213.002789
20
-6.460672
30
0
11
2
21
0
31
0
210
0
220
0
230
1
40
0.993321
41
2.54714453663905
42
2.81565230368592
0
ELLIPSE
5
24E
100
AcDbEntity
8
1
62
256
6
ByLayer
370
13
48
1
60
0
100
AcDbEllipse
10
219.705527
20
-13.88674
30
0
11
-0.292578021882349
21
-2.48685741708746
31
0
210
0
220
0
230
1
40
0.118893
41
0
42
6.28318530717959
0
ELLIPSE
5
24F
100
AcDbEntity
8
1
62
256
6
ByLayer
370
13
48
1
60
0
100
AcDbEllipse
10
204.638878
20
13.78394
30
0
11
0.523359562421226
21
-9.98629534754617
31
0
210
0
220
0
230
1
40
0.995725
41
-9.46300583153429E-06
42
0.307190187536233
0
ELLIPSE
5
250
100
AcDbEntity
8
1
62
256
6
ByLayer
370
13
48
1
60
0
100
AcDbEllipse
10
205.254478
20
7.04318
30
0
11
0.136073486229519
21
-2.596436790362
31
0
210
0
220
0
230
1
40
0.995725
41
0.687062733516922
42
1.13806179252794
0
ELLIPSE
5
251
100
AcDbEntity
8
1
62
256
6
ByLayer
370
13
48
1
60
0
100
AcDbEllipse
10
217.965057
20
6.407529
30
0
11
-0.0261679781218813
21
0.499314767377265
31
0
210
0
220
0
230
1
40
0.995725
41
-0.990362103391594
42
-0.927295220885181
0
ELLIPSE
5
252
100
AcDbEntity
8
1
62
256
6
ByLayer
370
13
48
1
60
0
100
AcDbEllipse
10
204.546634
20
13.779105
30
0
11
-0.471023606193865
21
8.98766581279078
31
0
210
0
220
0
230
1
40
0.995725
41
2.79252680319577
42
3.02206401946903
0
ELLIPSE
5
253
100
AcDbEntity
8
1
62
256
6
ByLayer
370
13
48
1
60
0
100
AcDbEllipse
10
204.546634
20
13.779105
30
0
11
-0.471023606193865
21
8.98766581279078
31
0
210
0
220
0
230
1
40
0.995725
41
-2.91693381338448
42
-2.83440246605356
0
ELLIPSE
5
254
100
AcDbEntity
8
1
62
256
6
ByLayer
370
13
48
1
60
0
100
AcDbEllipse
10
224.793373
20
2.135414
30
0
11
-5.88856475792325
21
-1.89689065898288
31
0
210
0
220
0
230
1
40
0.812292
41
-0.370383206641555
42
-0.222831137500348
0
ELLIPSE
5
255
100
AcDbEntity
8
1
62
256
6
ByLayer
370
13
48
1
60
0
100
AcDbEllipse
10
220.604857
20
0.110298
30
0
11
-0.0224114933588686
21
1.01132189562728
31
0
210
0
220
0
230
1
40
0.102037
41
-0.130312682548895
42
1.05339322031252
0
ELLIPSE
5
256
100
AcDbEntity
8
1
62
256
6
ByLayer
370
13
48
1
60
0
100
AcDbEllipse
10
208.120892
20
5.891619
30
0
11
-0.0261679781218814
21
0.499314767377266
31
0
210
0
220
0
230
1
40
0.995725
41
0.927295218001652
42
1.13806179252791
0
ELLIPSE
5
257
100
AcDbEntity
8
1
62
256
6
ByLayer
370
13
48
1
60
0
100
AcDbEllipse
10
211.557876
20
-4.943353
30
0
11
0.57569551866335
21
-10.9849248823008
31
0
210
0
220
0
230
1
40
0.995725
41
-3.14159265358978
42
-2.83440246605355
0
ELLIPSE
5
258
100
AcDbEntity
8
1
62
256
6
ByLayer
370
13
48
1
60
0
100
AcDbEllipse
10
4.5
20
-25.168186
30
0
11
-0.5
21
5.05319527541181E-16
31
0
210
0
220
0
230
1
40
0.5
41
1.5707963267949
42
3.14159265358979
0
ELLIPSE
5
259
100
AcDbEntity
8
1
62
256
6
ByLayer
370
13
48
1
60
0
100
AcDbEllipse
10
203.604447
20
17.132347
30
0
11
-0.143594274787663
21
2.73994198476822
31
0
210
0
220
0
230
1
40
0.016833
41
0.32612768794657
42
0.836829632619596
0
ELLIPSE
5
25A
100
AcDbEntity
8
1
62
256
6
ByLayer
370
13
48
1
60
0
100
AcDbEllipse
10
213.002789
20
-5.895277
30
0
11
2
21
0
31
0
210
0
220
0
230
1
40
0.993321
41
0.752706085908711
42
2.99079657026456
0
ELLIPSE
5
25B
100
AcDbEntity
8
1
62
256
6
ByLayer
370
13
48
1
60
0
100
AcDbEllipse
10
232.393905
20
-0.000239
30
0
11
-223.962162237115
21
0.10163945880107
31
0
210
0
220
0
230
1
40
0.092638
41
-1.41705795726537
42
-1.40806619186699
0
ELLIPSE
5
25C
100
AcDbEntity
8
1
62
256
6
ByLayer
370
13
48
1
60
0
100
AcDbEllipse
10
220.663893
20
4.968582
30
0
11
-0.0100716054250644
21
0.500155486780253
31
0
210
0
220
0
230
1
40
0.104771
41
1.92323964963928
42
-2.78914933073916
0
ELLIPSE
5
25D
100
AcDbEntity
8
1
62
256
6
ByLayer
370
13
48
1
60
0
100
AcDbEllipse
10
211.074424
20
6.046407
30
0
11
0.0523359562421226
21
-0.998629534754617
31
0
210
0
220
0
230
1
40
0.092371
41
-1.5707963267949
42
0
0
ELLIPSE
5
25E
100
AcDbEntity
8
1
62
256
6
ByLayer
370
13
48
1
60
0
100
AcDbEllipse
10
220.64187
20
5.994896
30
0
11
-0.0190690707678621
21
-0.50160702675837
31
0
210
0
220
0
230
1
40
0.195483
41
-0.578829498688588
42
-0.331356153711754
0
ELLIPSE
5
25F
100
AcDbEntity
8
1
62
256
6
ByLayer
370
13
48
1
60
0
100
AcDbEllipse
10
220.454201
20
0
30
0
11
-3.57804024009826
21
20.9603533580228
31
0
210
0
220
0
230
1
40
0.083842
41
1.59896904589007
42
1.7581091165246
0
ELLIPSE
5
260
100
AcDbEntity
8
1
62
256
6
ByLayer
370
13
48
1
60
0
100
AcDbEllipse
10
205.254478
20
7.04318
30
0
11
0.136073486229519
21
-2.596436790362
31
0
210
0
220
0
230
1
40
0.995725
41
-2.08239418575105
42
-0.581932527432382
0
ELLIPSE
5
261
100
AcDbEntity
8
1
62
256
6
ByLayer
370
13
48
1
60
0
100
AcDbEllipse
10
211.65012
20
-4.938518
30
0
11
-0.523359562437627
21
9.98629534754531
31
0
210
0
220
0
230
1
40
0.995725
41
0
42
0.307190187536242
0
POINT
5
70
100
AcDbEntity
8
1
62
256
6
ByLayer
370
18
48
1
60
0
100
AcDbPoint
10
0
20
0
30
0
39
0
210
0
220
0
230
1
50
360
0
POINT
5
72
100
AcDbEntity
8
80
62
256
6
ByLayer
370
18
48
1
60
0
100
AcDbPoint
10
0
20
0
30
0
39
0
210
0
220
0
230
1
50
360
0
POINT
5
74
100
AcDbEntity
8
81
62
256
6
ByLayer
370
18
48
1
60
0
100
AcDbPoint
10
222
20
0
30
0
39
0
210
0
220
0
230
1
50
360
0
POINT
5
76
100
AcDbEntity
8
1
62
256
6
ByLayer
370
18
48
1
60
1
100
AcDbPoint
10
0
20
-31.25
30
0
39
0
210
0
220
0
230
1
50
360
0
POINT
5
77
100
AcDbEntity
8
1
62
256
6
ByLayer
370
18
48
1
60
1
100
AcDbPoint
10
222
20
-21.5
30
0
39
0
210
0
220
0
230
1
50
360
0
POINT
5
78
100
AcDbEntity
8
1
62
256
6
ByLayer
370
18
48
1
60
1
100
AcDbPoint
10
-15
20
-20
30
0
39
0
210
0
220
0
230
1
50
360
0
POINT
5
79
100
AcDbEntity
8
1
62
256
6
ByLayer
370
18
48
1
60
1
100
AcDbPoint
10
0
20
-31.25
30
0
39
0
210
0
220
0
230
1
50
360
0
POINT
5
7A
100
AcDbEntity
8
1
62
256
6
ByLayer
370
18
48
1
60
1
100
AcDbPoint
10
222
20
-21.5
30
0
39
0
210
0
220
0
230
1
50
360
0
POINT
5
7B
100
AcDbEntity
8
1
62
256
6
ByLayer
370
18
48
1
60
1
100
AcDbPoint
10
17.7986
20
-31.25
30
0
39
0
210
0
220
0
230
1
50
360
0
POINT
5
7C
100
AcDbEntity
8
1
62
256
6
ByLayer
370
18
48
1
60
1
100
AcDbPoint
10
45
20
-21.5
30
0
39
0
210
0
220
0
230
1
50
360
0
POINT
5
7D
100
AcDbEntity
8
1
62
256
6
ByLayer
370
18
48
1
60
1
100
AcDbPoint
10
222
20
-21.5
30
0
39
0
210
0
220
0
230
1
50
360
0
POINT
5
7E
100
AcDbEntity
8
1
62
256
6
ByLayer
370
18
48
1
60
1
100
AcDbPoint
10
220.7234
20
-10.75
30
0
39
0
210
0
220
0
230
1
50
360
0
SPLINE
5
262
100
AcDbEntity
8
1
62
256
6
ByLayer
370
13
48
1
60
0
100
AcDbSpline
70
4
71
1
72
4
73
2
40
0
40
0
40
1
40
1
41
1
10
219.998340701445
20
5.70106952019052
30
0
41
1
10
220.062023229893
20
5.79930233716908
30
0
0
SPLINE
5
263
100
AcDbEntity
8
1
62
256
6
ByLayer
370
13
48
1
60
0
100
AcDbSpline
70
4
71
3
72
14
73
10
40
0
40
0
40
0
40
0
40
0.0288455662635508
40
0.0288455662635508
40
0.190704638552994
40
0.190704638552994
40
0.352563710842438
40
0.352563710842438
40
1
40
1
40
1
40
1
41
1
10
203.442028669471
20
20.4363464344581
30
0
41
1
10
203.445748379303
20
20.4367835880504
30
0
41
1
10
203.449461339978
20
20.4372089258905
30
0
41
1
10
203.473811516059
20
20.4396759448471
30
0
41
1
10
203.493960038659
20
20.4408620713513
30
0
41
1
10
203.534542350641
20
20.4437337409828
30
0
41
1
10
203.554770465361
20
20.4450592094307
30
0
41
1
10
203.65530261701
20
20.4506213872203
30
0
41
1
10
203.73443250404
20
20.4525206101072
30
0
41
1
10
203.812216260919
20
20.4532163594452
30
0
0
SPLINE
5
264
100
AcDbEntity
8
1
62
256
6
ByLayer
370
13
48
1
60
0
100
AcDbSpline
70
4
71
3
72
24
73
20
40
0
40
0
40
0
40
0
40
0.0312500000000026
40
0.0312500000000026
40
0.0625000000000051
40
0.0625000000000051
40
0.12500000000001
40
0.12500000000001
40
0.156250000000013
40
0.156250000000013
40
0.171875000000014
40
0.171875000000014
40
0.187500000000015
40
0.187500000000015
40
0.25000000000002
40
0.25000000000002
40
0.500000000000013
40
0.500000000000013
40
1
40
1
40
1
40
1
41
1
10
218.432676705478
20
20.1686036655352
30
0
41
1
10
218.376937492921
20
20.1297473862455
30
0
41
1
10
218.318602396441
20
20.093542344618
30
0
41
1
10
218.19854258749
20
20.0277346230617
30
0
41
1
10
218.137240685794
20
19.9983200821453
30
0
41
1
10
217.949626291264
20
19.9202500694545
30
0
41
1
10
217.819575120029
20
19.881604470904
30
0
41
1
10
217.617123326518
20
19.8446107485065
30
0
41
1
10
217.549418369503
20
19.836043461509
30
0
41
1
10
217.44754724029
20
19.8285345694294
30
0
41
1
10
217.413529593294
20
19.8270636583501
30
0
41
1
10
217.345531855424
20
19.8234822751868
30
0
41
1
10
217.311531899312
20
19.8217100976797
30
0
41
1
10
217.141533890682
20
19.8128190350149
30
0
41
1
10
217.005536063739
20
19.8056963084682
30
0
41
1
10
216.325548475389
20
19.7700563419011
30
0
41
1
10
215.781560607806
20
19.7415068510686
30
0
41
1
10
214.149589751657
20
19.6559819001694
30
0
41
1
10
213.061608312739
20
19.5989811730668
30
0
41
1
10
211.973627829447
20
19.5419625320342
30
0
0
SPLINE
5
265
100
AcDbEntity
8
1
62
256
6
ByLayer
370
13
48
1
60
0
100
AcDbSpline
70
4
71
1
72
4
73
2
40
0
40
0
40
1
40
1
41
1
10
202.363485305688
20
12.804089401754
30
0
41
1
10
202.433633523856
20
12.8065963394881
30
0
0
SPLINE
5
266
100
AcDbEntity
8
1
62
256
6
ByLayer
370
13
48
1
60
0
100
AcDbSpline
70
4
71
1
72
4
73
2
40
0
40
0
40
1
40
1
41
1
10
202.443155184393
20
12.5579568002875
30
0
41
1
10
202.667749863994
20
12.5717859779183
30
0
0
SPLINE
5
267
100
AcDbEntity
8
1
62
256
6
ByLayer
370
13
48
1
60
0
100
AcDbSpline
70
4
71
3
72
24
73
20
40
0
40
0
40
0
40
0
40
0.0453611707755438
40
0.0453611707755438
40
0.0907223415510875
40
0.0907223415510875
40
0.136083512326631
40
0.136083512326631
40
0.181444683102175
40
0.181444683102175
40
0.272167024653252
40
0.272167024653252
40
0.362889366204329
40
0.362889366204329
40
0.544334049306491
40
0.544334049306491
40
0.725778732408653
40
0.725778732408653
40
1
40
1
40
1
40
1
41
1
10
203.755266580129
20
5.44182192145317
30
0
41
1
10
203.758432244833
20
5.42457221654539
30
0
41
1
10
203.762097186215
20
5.40592486760653
30
0
41
1
10
203.770104366523
20
5.36920569401559
30
0
41
1
10
203.774390075552
20
5.35147468100138
30
0
41
1
10
203.782326701986
20
5.32082898646851
30
0
41
1
10
203.786036490569
20
5.30756477049889
30
0
41
1
10
203.793044770945
20
5.28372352914383
30
0
41
1
10
203.796309300748
20
5.27326995274757
30
0
41
1
10
203.80567596902
20
5.24452310110976
30
0
41
1
10
203.811271534883
20
5.22905111169197
30
0
41
1
10
203.821759245769
20
5.20186834640012
30
0
41
1
10
203.826648953398
20
5.19023274894764
30
0
41
1
10
203.840551813963
20
5.15921576108286
30
0
41
1
10
203.848862495896
20
5.14351936977417
30
0
41
1
10
203.86443747518
20
5.11729111550713
30
0
41
1
10
203.871682255677
20
5.10690670207725
30
0
41
1
10
203.888897628641
20
5.08555705324883
30
0
41
1
10
203.898399787516
20
5.0769208356021
30
0
41
1
10
203.907305561338
20
5.07111738077552
30
0
0
SPLINE
5
268
100
AcDbEntity
8
1
62
256
6
ByLayer
370
13
48
1
60
0
100
AcDbSpline
70
4
71
3
72
8
73
4
40
0
40
0
40
0
40
0
40
1
40
1
40
1
40
1
41
1
10
220.257101456475
20
5.80414727600529
30
0
41
1
10
220.190258317072
20
5.80092551704189
30
0
41
1
10
220.125349328787
20
5.79960784586831
30
0
41
1
10
220.062023229893
20
5.79930233716908
30
0
0
SPLINE
5
269
100
AcDbEntity
8
1
62
256
6
ByLayer
370
13
48
1
60
0
100
AcDbSpline
70
4
71
3
72
20
73
16
40
0
40
0
40
0
40
0
40
0.0625000000000023
40
0.0625000000000023
40
0.125000000000005
40
0.125000000000005
40
0.156250000000006
40
0.156250000000006
40
0.187500000000007
40
0.187500000000007
40
0.250000000000009
40
0.250000000000009
40
0.500000000000006
40
0.500000000000006
40
1
40
1
40
1
40
1
41
1
10
218.564734605263
20
20.0052587567329
30
0
41
1
10
218.448506570563
20
19.9242352049019
30
0
41
1
10
218.32606487107
20
19.8561087986456
30
0
41
1
10
218.06916492789
20
19.7447976469622
30
0
41
1
10
217.933057379847
20
19.7014556895699
30
0
41
1
10
217.728522236346
20
19.6581197530401
30
0
41
1
10
217.660079443699
20
19.6471542666157
30
0
41
1
10
217.522676653961
20
19.6320300380937
30
0
41
1
10
217.453639969231
20
19.6288805548211
30
0
41
1
10
217.246636586544
20
19.6180282391703
30
0
41
1
10
217.10863210436
20
19.61082267161
30
0
41
1
10
216.418619370441
20
19.5746674782327
30
0
41
1
10
215.866613176067
20
19.5456904983317
30
0
41
1
10
214.21058386711
20
19.45890242954
30
0
41
1
10
213.106563333235
20
19.401062696659
30
0
41
1
10
212.002543820049
20
19.3432034856878
30
0
0
SPLINE
5
26A
100
AcDbEntity
8
1
62
256
6
ByLayer
370
13
48
1
60
0
100
AcDbSpline
70
4
71
3
72
10
73
6
40
0
40
0
40
0
40
0
40
0.437251963453382
40
0.437251963453382
40
1
40
1
40
1
40
1
41
1
10
218.71306616853
20
20.439604004453
30
0
41
1
10
218.714859036323
20
20.4362902649373
30
0
41
1
10
218.724529750398
20
20.4276825042121
30
0
41
1
10
218.761144948735
20
20.3993644907099
30
0
41
1
10
218.792384550106
20
20.3771774085162
30
0
41
1
10
218.825066322975
20
20.3554463304892
30
0
0
SPLINE
5
26B
100
AcDbEntity
8
1
62
256
6
ByLayer
370
13
48
1
60
0
100
AcDbSpline
70
4
71
3
72
8
73
4
40
0
40
0
40
0
40
0
40
1
40
1
40
1
40
1
41
1
10
219.813940881606
20
21.5264079556184
30
0
41
1
10
219.748387093587
20
21.5262256240472
30
0
41
1
10
219.682834259758
20
21.5253000859127
30
0
41
1
10
219.617282313949
20
21.5236828831388
30
0
0
SPLINE
5
26C
100
AcDbEntity
8
1
62
256
6
ByLayer
370
13
48
1
60
0
100
AcDbSpline
70
4
71
3
72
10
73
6
40
0
40
0
40
0
40
0
40
0.5
40
0.5
40
1
40
1
40
1
40
1
41
1
10
205.894949215285
20
5.84988426916141
30
0
41
1
10
205.891273613589
20
5.84969163903898
30
0
41
1
10
205.873977397777
20
5.85899883535947
30
0
41
1
10
205.822589639776
20
5.89033726838699
30
0
41
1
10
205.788397109555
20
5.91236959413743
30
0
41
1
10
205.755715336686
20
5.93410067216425
30
0
0
SPLINE
5
26D
100
AcDbEntity
8
1
62
256
6
ByLayer
370
13
48
1
60
0
100
AcDbSpline
70
4
71
3
72
8
73
4
40
0
40
0
40
0
40
0
40
1
40
1
40
1
40
1
41
1
10
203.429135371889
20
20.6683279131288
30
0
41
1
10
203.48977146464
20
20.6744498549281
30
0
41
1
10
203.550470382594
20
20.6799665812683
30
0
41
1
10
203.611235920454
20
20.6848415365543
30
0
0
SPLINE
5
26E
100
AcDbEntity
8
1
62
256
6
ByLayer
370
13
48
1
60
0
100
AcDbSpline
70
4
71
2
72
6
73
3
40
0
40
0
40
0
40
1
40
1
40
1
41
1
10
202.449436262944
20
12.6653262895861
30
0
41
0.999116442697013
10
202.447054215958
20
12.6471250963549
30
0
41
0.998835603708709
10
202.445564656396
20
12.6288280241497
30
0
0
SPLINE
5
26F
100
AcDbEntity
8
1
62
256
6
ByLayer
370
13
48
1
60
0
100
AcDbSpline
70
4
71
1
72
4
73
2
40
0
40
0
40
1
40
1
41
1
10
203.611235920454
20
20.6848415365543
30
0
41
1
10
203.812216260919
20
20.4532163594452
30
0
0
SPLINE
5
270
100
AcDbEntity
8
1
62
256
6
ByLayer
370
13
48
1
60
0
100
AcDbSpline
70
4
71
3
72
24
73
20
40
0
40
0
40
0
40
0
40
0.0312499999999996
40
0.0312499999999996
40
0.0624999999999992
40
0.0624999999999992
40
0.124999999999987
40
0.124999999999987
40
0.15624999999998
40
0.15624999999998
40
0.171874999999984
40
0.171874999999984
40
0.187499999999987
40
0.187499999999987
40
0.249999999999987
40
0.249999999999987
40
0.499999999999987
40
0.499999999999987
40
1
40
1
40
1
40
1
41
1
10
206.185002552886
20
6.12287705832571
30
0
41
1
10
206.240741765442
20
6.16173333761537
30
0
41
1
10
206.299076861923
20
6.19793837924291
30
0
41
1
10
206.419136670873
20
6.26374610079924
30
0
41
1
10
206.480438572569
20
6.2931606417157
30
0
41
1
10
206.668052967098
20
6.37123065440665
30
0
41
1
10
206.798104138334
20
6.40987625295739
30
0
41
1
10
207.000555931844
20
6.44686997535527
30
0
41
1
10
207.068260888859
20
6.45543726235303
30
0
41
1
10
207.170132018072
20
6.46294615443281
30
0
41
1
10
207.204149665068
20
6.46441706551221
30
0
41
1
10
207.272147402937
20
6.46799844867542
30
0
41
1
10
207.30614735905
20
6.46977062618257
30
0
41
1
10
207.476145367679
20
6.47866168884727
30
0
41
1
10
207.612143194622
20
6.48578441539397
30
0
41
1
10
208.29213078297
20
6.521424381961
30
0
41
1
10
208.836118650551
20
6.5499738727934
30
0
41
1
10
210.468089506696
20
6.63549882369244
30
0
41
1
10
211.556070945631
20
6.69249955079593
30
0
41
1
10
212.64405142892
20
6.74951819182837
30
0
0
SPLINE
5
271
100
AcDbEntity
8
1
62
256
6
ByLayer
370
13
48
1
60
0
100
AcDbSpline
70
4
71
3
72
20
73
16
40
0
40
0
40
0
40
0
40
0.500000000000014
40
0.500000000000014
40
0.750000000000014
40
0.750000000000014
40
0.875000000000014
40
0.875000000000014
40
0.906250000000014
40
0.906250000000014
40
0.921875000000014
40
0.921875000000014
40
0.937500000000014
40
0.937500000000014
40
1
40
1
40
1
40
1
41
1
10
212.64405142892
20
6.7495181918282
30
0
41
1
10
213.643949880195
20
6.80192064916813
30
0
41
1
10
214.643848730299
20
6.85431549664864
30
0
41
1
10
216.14369629091
20
6.93292140152883
30
0
41
1
10
216.643644359176
20
6.95914476777457
30
0
41
1
10
217.393569041633
20
6.99843042236935
30
0
41
1
10
217.643544366219
20
7.01151717302997
30
0
41
1
10
217.956010912621
20
7.02792694241467
30
0
41
1
10
218.018507841635
20
7.03113768842928
30
0
41
1
10
218.112245610792
20
7.03610379491886
30
0
41
1
10
218.143492248897
20
7.03774509715871
30
0
41
1
10
218.20608964784
20
7.03897938617172
30
0
41
1
10
218.237427768285
20
7.03882103634157
30
0
41
1
10
218.394316397157
20
7.03413368231543
30
0
41
1
10
218.520454923777
20
7.01803711066177
30
0
41
1
10
218.647281753555
20
6.98840015317725
30
0
0
SPLINE
5
272
100
AcDbEntity
8
1
62
256
6
ByLayer
370
13
48
1
60
0
100
AcDbSpline
70
4
71
2
72
6
73
3
40
0
40
0
40
0
40
1
40
1
40
1
41
1
10
202.433633523856
20
12.8065963394881
30
0
41
0.997409491337352
10
202.430835682605
20
12.7527524618785
30
0
41
1
10
202.435760323613
20
12.699059149626
30
0
0
SPLINE
5
273
100
AcDbEntity
8
1
62
256
6
ByLayer
370
13
48
1
60
0
100
AcDbSpline
70
4
71
3
72
12
73
8
40
0
40
0
40
0
40
0
40
0.0590320357873931
40
0.0590320357873931
40
0.539356876067075
40
0.539356876067075
40
1
40
1
40
1
40
1
41
1
10
220.824375736975
20
5.8421922738433
30
0
41
1
10
220.818904515949
20
5.83636156289523
30
0
41
1
10
220.813339795173
20
5.83060863633412
30
0
41
1
10
220.761654647336
20
5.77877801032491
30
0
41
1
10
220.711011046268
20
5.73892966462168
30
0
41
1
10
220.602737175675
20
5.6732539209815
30
0
41
1
10
220.545274705527
20
5.64707857750716
30
0
41
1
10
220.486471158397
20
5.62791536798011
30
0
0
SPLINE
5
274
100
AcDbEntity
8
1
62
256
6
ByLayer
370
13
48
1
60
0
100
AcDbSpline
70
4
71
3
72
18
73
14
40
0
40
0
40
0
40
0
40
0.499999999999986
40
0.499999999999986
40
0.749999999999986
40
0.749999999999986
40
0.874999999999993
40
0.874999999999993
40
0.906249999999995
40
0.906249999999995
40
0.937499999999997
40
0.937499999999997
40
1
40
1
40
1
40
1
41
1
10
212.652033037024
20
6.95021095938367
30
0
41
1
10
213.661378679422
20
7.00310852303076
30
0
41
1
10
214.670724644462
20
7.05599808344363
30
0
41
1
10
216.184743156715
20
7.1353473124355
30
0
41
1
10
216.689415260369
20
7.16181995057568
30
0
41
1
10
217.446425226087
20
7.20147242415604
30
0
41
1
10
217.698760955618
20
7.21471879961473
30
0
41
1
10
218.014181635759
20
7.23124499786925
30
0
41
1
10
218.077249875818
20
7.23504622895155
30
0
41
1
10
218.203456496501
20
7.24046014135692
30
0
41
1
10
218.266650398501
20
7.24034042572185
30
0
41
1
10
218.456509662806
20
7.23132080998337
30
0
41
1
10
218.583447624131
20
7.21391518229183
30
0
41
1
10
218.710781382333
20
7.18415976551793
30
0
0
SPLINE
5
275
100
AcDbEntity
8
1
62
256
6
ByLayer
370
13
48
1
60
0
100
AcDbSpline
70
4
71
2
72
6
73
3
40
0
40
0
40
0
40
1
40
1
40
1
41
1
10
221.949929394373
20
13.7196947459443
30
0
41
0.997409491337352
10
221.949164511728
20
13.7773848796338
30
0
41
1
10
221.940164682284
20
13.8343714841059
30
0
0
SPLINE
5
276
100
AcDbEntity
8
1
62
256
6
ByLayer
370
13
48
1
60
0
100
AcDbSpline
70
4
71
3
72
20
73
16
40
0
40
0
40
0
40
0
40
0.500000000000014
40
0.500000000000014
40
0.750000000000014
40
0.750000000000014
40
0.875000000000014
40
0.875000000000014
40
0.906250000000014
40
0.906250000000014
40
0.921875000000014
40
0.921875000000014
40
0.937500000000014
40
0.937500000000014
40
1
40
1
40
1
40
1
41
1
10
211.973627829448
20
19.5419625320343
30
0
41
1
10
210.973729378172
20
19.4895600746944
30
0
41
1
10
209.973830528068
20
19.4371652272139
30
0
41
1
10
208.473982967457
20
19.3585593223337
30
0
41
1
10
207.974034899191
20
19.3323359560879
30
0
41
1
10
207.224110216734
20
19.2930503014932
30
0
41
1
10
206.974134892148
20
19.2799635508326
30
0
41
1
10
206.661668345746
20
19.2635537814479
30
0
41
1
10
206.599171416731
20
19.2603430354332
30
0
41
1
10
206.505433647574
20
19.2553769289436
30
0
41
1
10
206.474187009471
20
19.2537356267038
30
0
41
1
10
206.411589610528
20
19.2525013376908
30
0
41
1
10
206.380251490082
20
19.252659687521
30
0
41
1
10
206.22336286121
20
19.2573470415471
30
0
41
1
10
206.09722433459
20
19.2734436132008
30
0
41
1
10
205.970397504812
20
19.3030805706853
30
0
0
SPLINE
5
277
100
AcDbEntity
8
1
62
256
6
ByLayer
370
13
48
1
60
0
100
AcDbSpline
70
4
71
1
72
4
73
2
40
0
40
0
40
1
40
1
41
1
10
204.086464128798
20
20.4535426354692
30
0
41
1
10
203.897076176785
20
20.677084784534
30
0
0
SPLINE
5
278
100
AcDbEntity
8
1
62
256
6
ByLayer
370
13
48
1
60
0
100
AcDbSpline
70
4
71
1
72
4
73
2
40
0
40
0
40
1
40
1
41
1
10
202.355472024303
20
12.5849580841009
30
0
41
1
10
202.443561292368
20
12.5921454880656
30
0
0
SPLINE
5
279
100
AcDbEntity
8
1
62
256
6
ByLayer
370
13
48
1
60
0
100
AcDbSpline
70
4
71
2
72
6
73
3
40
0
40
0
40
0
40
1
40
1
40
1
41
1
10
202.667749863994
20
12.5717859779182
30
0
41
0.997409491337352
10
202.666984981349
20
12.6294761116065
30
0
41
1
10
202.674470876453
20
12.686675748756
30
0
0
SPLINE
5
27A
100
AcDbEntity
8
1
62
256
6
ByLayer
370
13
48
1
60
0
100
AcDbSpline
70
4
71
3
72
26
73
22
40
0
40
0
40
0
40
0
40
0.250000000000112
40
0.250000000000112
40
0.375000000000211
40
0.375000000000211
40
0.500000000000309
40
0.500000000000309
40
0.625000000000408
40
0.625000000000408
40
0.687500000000406
40
0.687500000000406
40
0.718750000000405
40
0.718750000000405
40
0.750000000000404
40
0.750000000000404
40
0.812500000000303
40
0.812500000000303
40
0.875000000000202
40
0.875000000000202
40
1
40
1
40
1
40
1
41
1
10
220.916158767461
20
5.95068835909882
30
0
41
1
10
220.878953800937
20
5.92956556805862
30
0
41
1
10
220.837316701716
20
5.90854945506163
30
0
41
1
10
220.763538804946
20
5.87860799402284
30
0
41
1
10
220.737464535297
20
5.86908202428643
30
0
41
1
10
220.680918707225
20
5.85137902735892
30
0
41
1
10
220.650540920247
20
5.84323949261832
30
0
41
1
10
220.587950996529
20
5.83008592382023
30
0
41
1
10
220.556160712592
20
5.82533964419841
30
0
41
1
10
220.510600920774
20
5.82139069590238
30
0
41
1
10
220.495729706953
20
5.82050371625226
30
0
41
1
10
220.473778572274
20
5.81938714728039
30
0
41
1
10
220.466466216564
20
5.81901906875308
30
0
41
1
10
220.452137332757
20
5.81854227191133
30
0
41
1
10
220.445117974333
20
5.81843681257791
30
0
41
1
10
220.422825730755
20
5.81697484975302
30
0
41
1
10
220.406375777069
20
5.81451160765082
30
0
41
1
10
220.375679333172
20
5.81165006709287
30
0
41
1
10
220.360840085431
20
5.81069627457774
30
0
41
1
10
220.315917310782
20
5.80745532773136
30
0
41
1
10
220.286243223907
20
5.80555187416257
30
0
41
1
10
220.257101456475
20
5.80414727600529
30
0
0
SPLINE
5
27B
100
AcDbEntity
8
1
62
256
6
ByLayer
370
13
48
1
60
0
100
AcDbSpline
70
4
71
3
72
9
73
5
40
0
40
0
40
0
40
0
40
0.513495271766791
40
1
40
1
40
1
40
1
41
1
10
203.611235920454
20
20.6848415365543
30
0
41
1
10
203.633310610094
20
20.6866076132152
30
0
41
1
10
203.676364855248
20
20.6891441566081
30
0
41
1
10
203.719408567368
20
20.691802467136
30
0
41
1
10
203.740350021924
20
20.6930901394074
30
0
0
SPLINE
5
27C
100
AcDbEntity
8
1
62
256
6
ByLayer
370
13
48
1
60
0
100
AcDbSpline
70
4
71
3
72
9
73
5
40
0
40
0
40
0
40
0
40
0.513495271766448
40
1
40
1
40
1
40
1
41
1
10
219.617282313949
20
21.5236828831388
30
0
41
1
10
219.595143946488
20
21.5231318516616
30
0
41
1
10
219.552060416011
20
21.5211541055213
30
0
41
1
10
219.508974632736
20
21.5192985604648
30
0
41
1
10
219.488013299255
20
21.5183902006694
30
0
0
SPLINE
5
27D
100
AcDbEntity
8
1
62
256
6
ByLayer
370
13
48
1
60
0
100
AcDbSpline
70
4
71
2
72
6
73
3
40
0
40
0
40
0
40
1
40
1
40
1
41
0.998835603708697
10
202.445564656396
20
12.6288280241501
30
0
41
0.998293048640358
10
202.439002421504
20
12.663710588347
30
0
41
1
10
202.435760323613
20
12.699059149626
30
0
0
SPLINE
5
27E
100
AcDbEntity
8
1
62
256
6
ByLayer
370
13
48
1
60
0
100
AcDbSpline
70
4
71
3
72
22
73
18
40
0
40
0
40
0
40
0
40
0.125
40
0.125
40
0.25
40
0.25
40
0.375
40
0.375
40
0.5
40
0.5
40
0.625
40
0.625
40
0.75
40
0.75
40
0.875
40
0.875
40
1
40
1
40
1
40
1
41
1
10
220.832381499117
20
20.8488157570138
30
0
41
1
10
220.823722805411
20
20.9054451639746
30
0
41
1
10
220.809613252836
20
20.9601614007513
30
0
41
1
10
220.769352918802
20
21.0653675825176
30
0
41
1
10
220.743113707507
20
21.1165744944334
30
0
41
1
10
220.680615312498
20
21.2114219835697
30
0
41
1
10
220.644870287778
20
21.2550774420101
30
0
41
1
10
220.563875515223
20
21.334421745728
30
0
41
1
10
220.518643391063
20
21.3700373869239
30
0
41
1
10
220.423327506442
20
21.4301346746429
30
0
41
1
10
220.372605223136
20
21.4550974910547
30
0
41
1
10
220.265296634571
20
21.4941993972739
30
0
41
1
10
220.210574939982
20
21.5079203793595
30
0
41
1
10
220.099023469466
20
21.5238483379026
30
0
41
1
10
220.041855403939
20
21.5242853967478
30
0
41
1
10
219.927897041924
20
21.5262041116573
30
0
41
1
10
219.870918627441
20
21.5265664337513
30
0
41
1
10
219.813940881606
20
21.5264079556184
30
0
0
SPLINE
5
27F
100
AcDbEntity
8
1
62
256
6
ByLayer
370
13
48
1
60
0
100
AcDbSpline
70
4
71
3
72
20
73
16
40
0
40
0
40
0
40
0
40
0.0625000000000016
40
0.0625000000000016
40
0.125000000000003
40
0.125000000000003
40
0.156250000000004
40
0.156250000000004
40
0.187500000000005
40
0.187500000000005
40
0.250000000000006
40
0.250000000000006
40
0.5
40
0.5
40
1
40
1
40
1
40
1
41
1
10
206.089842251811
20
6.28815568833872
30
0
41
1
10
206.206070286511
20
6.36917924016979
30
0
41
1
10
206.328511986004
20
6.43730564642601
30
0
41
1
10
206.585411929183
20
6.54861679810946
30
0
41
1
10
206.721519477226
20
6.59195875550179
30
0
41
1
10
206.926054620727
20
6.63529469203155
30
0
41
1
10
206.994497413374
20
6.64626017845598
30
0
41
1
10
207.131900203113
20
6.66138440697793
30
0
41
1
10
207.200936887843
20
6.66453389025054
30
0
41
1
10
207.40794027053
20
6.6753862059013
30
0
41
1
10
207.545944752714
20
6.68259177346161
30
0
41
1
10
208.235957486633
20
6.71874696683898
30
0
41
1
10
208.787963681006
20
6.74772394673988
30
0
41
1
10
210.443992989964
20
6.83451201553166
30
0
41
1
10
211.548013523839
20
6.89235174841264
30
0
41
1
10
212.652033037024
20
6.95021095938384
30
0
0
SPLINE
5
280
100
AcDbEntity
8
1
62
256
6
ByLayer
370
13
48
1
60
0
100
AcDbSpline
70
4
71
1
72
4
73
2
40
0
40
0
40
1
40
1
41
1
10
202.674470876453
20
12.686675748756
30
0
41
1
10
202.449436262944
20
12.6653262895861
30
0
0
SPLINE
5
281
100
AcDbEntity
8
1
62
256
6
ByLayer
370
13
48
1
60
0
100
AcDbSpline
70
4
71
3
72
18
73
14
40
0
40
0
40
0
40
0
40
0.499999999999993
40
0.499999999999993
40
0.74999999999999
40
0.74999999999999
40
0.874999999999995
40
0.874999999999995
40
0.906249999999996
40
0.906249999999996
40
0.937499999999997
40
0.937499999999997
40
1
40
1
40
1
40
1
41
1
10
212.00254382005
20
19.343203485688
30
0
41
1
10
210.993198177651
20
19.2903059220409
30
0
41
1
10
209.983852212612
20
19.237416361628
30
0
41
1
10
208.469833700359
20
19.1580671326361
30
0
41
1
10
207.965161596705
20
19.131594494496
30
0
41
1
10
207.208151630987
20
19.0919420209156
30
0
41
1
10
206.955815901456
20
19.0786956454569
30
0
41
1
10
206.640395221315
20
19.0621694472024
30
0
41
1
10
206.577326981256
20
19.0583682161201
30
0
41
1
10
206.451120360573
20
19.0529543037148
30
0
41
1
10
206.387926458573
20
19.0530740193498
30
0
41
1
10
206.198067194268
20
19.0620936350883
30
0
41
1
10
206.071129232943
20
19.0794992627798
30
0
41
1
10
205.943795474741
20
19.1092546795537
30
0
0
SPLINE
5
282
100
AcDbEntity
8
1
62
256
6
ByLayer
370
13
48
1
60
0
100
AcDbSpline
70
4
71
3
72
12
73
8
40
0
40
0
40
0
40
0
40
0.249999999999935
40
0.249999999999935
40
0.499999999999869
40
0.499999999999869
40
1
40
1
40
1
40
1
41
1
10
203.812216260919
20
20.4532163594452
30
0
41
1
10
203.835750278049
20
20.45389461282
30
0
41
1
10
203.858371628458
20
20.4537003759371
30
0
41
1
10
203.903943630179
20
20.4536266884922
30
0
41
1
10
203.926780881132
20
20.4536362899506
30
0
41
1
10
203.99523971584
20
20.453617137473
30
0
41
1
10
204.040842564287
20
20.4535714092129
30
0
41
1
10
204.086464128798
20
20.4535426354692
30
0
0
SPLINE
5
283
100
AcDbEntity
8
1
62
256
6
ByLayer
370
13
48
1
60
0
100
AcDbSpline
70
4
71
1
72
4
73
2
40
0
40
0
40
1
40
1
41
1
10
202.677514576083
20
12.4571092397567
30
0
41
1
10
202.452280732669
20
12.450786399293
30
0
0
SPLINE
5
284
100
AcDbEntity
8
1
62
256
6
ByLayer
370
13
48
1
60
0
100
AcDbSpline
70
4
71
2
72
6
73
3
40
0
40
0
40
0
40
1
40
1
40
1
41
1
10
202.667749863994
20
12.5717859779183
30
0
41
0.997409491337352
10
202.668514746639
20
12.5140958442288
30
0
41
1
10
202.677514576083
20
12.4571092397567
30
0
0
SPLINE
5
285
100
AcDbEntity
8
1
62
256
6
ByLayer
370
13
48
1
60
0
100
AcDbSpline
70
4
71
3
72
8
73
4
40
0
40
0
40
0
40
0
40
1
40
1
40
1
40
1
41
1
10
203.897076176785
20
20.677084784534
30
0
41
1
10
203.844833019433
20
20.6824200524049
30
0
41
1
10
203.792547486209
20
20.6877610550819
30
0
41
1
10
203.740350021922
20
20.6930901394092
30
0
0
SPLINE
5
286
100
AcDbEntity
8
1
62
256
6
ByLayer
370
13
48
1
60
0
100
AcDbSpline
70
4
71
3
72
9
73
5
40
0
40
0
40
0
40
0
40
0.513495271766359
40
1
40
1
40
1
40
1
41
1
10
205.000396944418
20
4.7677978407238
30
0
41
1
10
205.022535311879
20
4.7683488722009
30
0
41
1
10
205.065618842356
20
4.77032661834122
30
0
41
1
10
205.108704625631
20
4.7721821633977
30
0
41
1
10
205.129665959112
20
4.7730905231931
30
0
0
SPLINE
5
287
100
AcDbEntity
8
1
62
256
6
ByLayer
370
13
48
1
60
0
100
AcDbSpline
70
4
71
3
72
10
73
6
40
0
40
0
40
0
40
0
40
0.470344360217454
40
0.470344360217454
40
1
40
1
40
1
40
1
41
1
10
218.686971248823
20
20.3567609417489
30
0
41
1
10
218.686990114178
20
20.3565726054097
30
0
41
1
10
218.699836311942
20
20.3563207818045
30
0
41
1
10
218.74791045542
20
20.3558131180825
30
0
41
1
10
218.785868608966
20
20.3555701652651
30
0
41
1
10
218.825066322975
20
20.3554463304892
30
0
0
SPLINE
5
288
100
AcDbEntity
8
1
62
256
6
ByLayer
370
13
48
1
60
0
100
AcDbSpline
70
4
71
3
72
22
73
18
40
0
40
0
40
0
40
0
40
0.125000000000013
40
0.125000000000013
40
0.250000000000026
40
0.250000000000026
40
0.375000000000039
40
0.375000000000039
40
0.500000000000052
40
0.500000000000052
40
0.625000000000065
40
0.625000000000065
40
0.687500000000045
40
0.687500000000045
40
0.750000000000026
40
0.750000000000026
40
1
40
1
40
1
40
1
41
1
10
203.785297759251
20
5.44266496684875
30
0
41
1
10
203.795201698278
20
5.37789143255108
30
0
41
1
10
203.812318017319
20
5.31564933609243
30
0
41
1
10
203.862159481662
20
5.19664360844391
30
0
41
1
10
203.895182632015
20
5.139251698913
30
0
41
1
10
203.972634385725
20
5.03576363446066
30
0
41
1
10
204.017721445689
20
4.98875681498259
30
0
41
1
10
204.118923289096
20
4.9065694186354
30
0
41
1
10
204.173454745559
20
4.8722330641333
30
0
41
1
10
204.290396355781
20
4.81710534800999
30
0
41
1
10
204.353008430359
20
4.79650976953496
30
0
41
1
10
204.447682786985
20
4.77726771871278
30
0
41
1
10
204.479590878702
20
4.77276519777908
30
0
41
1
10
204.544098935602
20
4.7675390591449
30
0
41
1
10
204.576778362979
20
4.76722770158383
30
0
41
1
10
204.739712603734
20
4.76431810522439
30
0
41
1
10
204.870056668704
20
4.76458227400278
30
0
41
1
10
205.000396944418
20
4.7677978407238
30
0
0
SPLINE
5
289
100
AcDbEntity
8
1
62
256
6
ByLayer
370
13
48
1
60
0
100
AcDbSpline
70
4
71
2
72
6
73
3
40
0
40
0
40
0
40
1
40
1
40
1
41
1
10
221.949929394373
20
13.7196947459443
30
0
41
0.997409491337352
10
221.950694277018
20
13.662004612256
30
0
41
1
10
221.943208381914
20
13.6048049751066
30
0
0
SPLINE
5
28A
100
AcDbEntity
8
1
62
256
6
ByLayer
370
13
48
1
60
0
100
AcDbSpline
70
4
71
1
72
4
73
2
40
0
40
0
40
1
40
1
41
1
10
203.785297759251
20
5.44266496684875
30
0
41
1
10
203.755266580128
20
5.44182192145317
30
0
0
SPLINE
5
28B
100
AcDbEntity
8
1
62
256
6
ByLayer
370
13
48
1
60
0
100
AcDbSpline
70
4
71
2
72
6
73
3
40
0
40
0
40
0
40
1
40
1
40
1
41
0.998835603708709
10
202.445564656397
20
12.6288280241497
30
0
41
0.998293048640339
10
202.442684590944
20
12.5934506099599
30
0
41
1
10
202.443155184393
20
12.5579568002875
30
0
0
SPLINE
5
28C
100
AcDbEntity
8
1
62
256
6
ByLayer
370
13
48
1
60
0
100
AcDbSpline
70
4
71
3
72
8
73
4
40
0
40
0
40
0
40
0
40
1
40
1
40
1
40
1
41
1
10
219.333818721818
20
21.4860901806832
30
0
41
1
10
219.385217998336
20
21.4968571183527
30
0
41
1
10
219.436658819136
20
21.5076341888972
30
0
41
1
10
219.488013299256
20
21.5183902006714
30
0
0
SPLINE
5
28D
100
AcDbEntity
8
1
62
256
6
ByLayer
370
13
48
1
60
0
100
AcDbSpline
70
4
71
3
72
12
73
8
40
0
40
0
40
0
40
0
40
0.24999999999994
40
0.24999999999994
40
0.49999999999988
40
0.49999999999988
40
1
40
1
40
1
40
1
41
1
10
220.062023229893
20
5.79930233716908
30
0
41
1
10
220.040256839814
20
5.7987167212026
30
0
41
1
10
220.019823381595
20
5.79902562065658
30
0
41
1
10
219.978475538296
20
5.79932068686367
30
0
41
1
10
219.957728239269
20
5.7994206151445
30
0
41
1
10
219.895562107812
20
5.79976955422521
30
0
41
1
10
219.854170097097
20
5.80003596313978
30
0
41
1
10
219.812751293587
20
5.8002849942543
30
0
0
SPLINE
5
28E
100
AcDbEntity
8
1
62
256
6
ByLayer
370
13
48
1
60
0
100
AcDbSpline
70
4
71
3
72
10
73
6
40
0
40
0
40
0
40
0
40
0.5
40
0.5
40
1
40
1
40
1
40
1
41
1
10
205.920872678488
20
5.93416828527515
30
0
41
1
10
205.917196037691
20
5.93397560069576
30
0
41
1
10
205.896924840166
20
5.93388412803418
30
0
41
1
10
205.835824240236
20
5.93388864662961
30
0
41
1
10
205.794913050694
20
5.93397683738829
30
0
41
1
10
205.755715336686
20
5.93410067216425
30
0
0
SPLINE
5
28F
100
AcDbEntity
8
1
62
256
6
ByLayer
370
13
48
1
60
0
100
AcDbSpline
70
4
71
3
72
24
73
20
40
0
40
0
40
0
40
0
40
0.0514081714714294
40
0.0514081714714294
40
0.102816342942859
40
0.102816342942859
40
0.154224514414288
40
0.154224514414288
40
0.205632685885718
40
0.205632685885718
40
0.308449028828569
40
0.308449028828569
40
0.411265371771419
40
0.411265371771419
40
0.616898057657118
40
0.616898057657118
40
0.822530743542818
40
0.822530743542818
40
1
40
1
40
1
40
1
41
1
10
221.067370085223
20
6.34911082087331
30
0
41
1
10
221.066024847507
20
6.33162470958717
30
0
41
1
10
221.064329161785
20
6.31269642208594
30
0
41
1
10
221.060204044437
20
6.27534142171731
30
0
41
1
10
221.057795208513
20
6.25725956246876
30
0
41
1
10
221.053105407105
20
6.22595214489252
30
0
41
1
10
221.050802429243
20
6.21237281318619
30
0
41
1
10
221.046324629281
20
6.1879296118679
30
0
41
1
10
221.044170679191
20
6.17719206497344
30
0
41
1
10
221.037860186733
20
6.14762360815632
30
0
41
1
10
221.033912537243
20
6.13165148001474
30
0
41
1
10
221.026323651817
20
6.10352136045316
30
0
41
1
10
221.022676981639
20
6.0914383903966
30
0
41
1
10
221.012092440476
20
6.05913807218687
30
0
41
1
10
221.00546800499
20
6.04265896454098
30
0
41
1
10
220.992719946186
20
6.01494636274512
30
0
41
1
10
220.986600320131
20
6.00386155044649
30
0
41
1
10
220.975554508393
20
5.98677497204488
30
0
41
1
10
220.9705723344
20
5.98025500953153
30
0
41
1
10
220.965703257891
20
5.97486978086351
30
0
0
SPLINE
5
290
100
AcDbEntity
8
1
62
256
6
ByLayer
370
13
48
1
60
0
100
AcDbSpline
70
4
71
3
72
10
73
6
40
0
40
0
40
0
40
0
40
0.196352315135267
40
0.196352315135267
40
1
40
1
40
1
40
1
41
1
10
220.954912744816
20
5.96454429569653
30
0
41
1
10
220.952245174667
20
5.96237719826732
30
0
41
1
10
220.949608654432
20
5.9605111330836
30
0
41
1
10
220.936319302199
20
5.95229974867434
30
0
41
1
10
220.926090674719
20
5.95006080568308
30
0
41
1
10
220.916158767461
20
5.95068835909885
30
0
0
SPLINE
5
291
100
AcDbEntity
8
1
62
256
6
ByLayer
370
13
48
1
60
0
100
AcDbSpline
70
4
71
2
72
6
73
3
40
0
40
0
40
0
40
1
40
1
40
1
41
1
10
202.452280732669
20
12.450786399293
30
0
41
0.997409491337352
10
202.443870000502
20
12.5040428604609
30
0
41
1
10
202.443155184393
20
12.5579568002875
30
0
0
SPLINE
5
292
100
AcDbEntity
8
1
62
256
6
ByLayer
370
18
48
1
60
0
100
AcDbSpline
70
4
71
3
72
16
73
12
40
0
40
0
40
0
40
0
40
0.125000000000048
40
0.125000000000048
40
0.250000000000096
40
0.250000000000096
40
0.500000000000064
40
0.500000000000064
40
0.750000000000032
40
0.750000000000032
40
1
40
1
40
1
40
1
41
1
10
211.962054671517
20
11.6801728084141
30
0
41
1
10
211.961418727008
20
11.660853606986
30
0
41
1
10
211.955513666982
20
11.6423275293241
30
0
41
1
10
211.932902208196
20
11.6117109137341
30
0
41
1
10
211.916290140621
20
11.5997637076115
30
0
41
1
10
211.860864259418
20
11.575403061405
30
0
41
1
10
211.817438682479
20
11.5724694711007
30
0
41
1
10
211.731415949525
20
11.5784543657769
30
0
41
1
10
211.688387385212
20
11.5876982150746
30
0
41
1
10
211.60461930186
20
11.6137653424409
30
0
41
1
10
211.563687188712
20
11.6307485480525
30
0
41
1
10
211.524446268007
20
11.6508346821199
30
0
0
SPLINE
5
293
100
AcDbEntity
8
1
62
256
6
ByLayer
370
18
48
1
60
0
100
AcDbSpline
70
4
71
3
72
16
73
12
40
0
40
0
40
0
40
0
40
0.250000000000036
40
0.250000000000036
40
0.500000000000072
40
0.500000000000072
40
0.750000000000108
40
0.750000000000108
40
0.875000000000054
40
0.875000000000054
40
1
40
1
40
1
40
1
41
1
10
213.19139152639
20
11.7381955812981
30
0
41
1
10
213.154439588538
20
11.7141010243823
30
0
41
1
10
213.115403044618
20
11.6929675332214
30
0
41
1
10
213.033847917886
20
11.6581992378681
30
0
41
1
10
212.991377322637
20
11.6444770409738
30
0
41
1
10
212.903977237058
20
11.6293989247652
30
0
41
1
10
212.858887127736
20
11.627649155341
30
0
41
1
10
212.796781762244
20
11.6462068246837
30
0
41
1
10
212.777657553873
20
11.6562609695195
30
0
41
1
10
212.748481052846
20
11.6840532918898
30
0
41
1
10
212.738654169569
20
11.7016584818265
30
0
41
1
10
212.733964367534
20
11.7206268813894
30
0
0
SPLINE
5
294
100
AcDbEntity
8
1
62
256
6
ByLayer
370
18
48
1
60
0
100
AcDbSpline
70
4
71
3
72
18
73
14
40
0
40
0
40
0
40
0
40
0.125
40
0.125
40
0.250000000000001
40
0.250000000000001
40
0.500000000000001
40
0.500000000000001
40
0.750000000000002
40
0.750000000000002
40
0.875000000000001
40
0.875000000000001
40
1
40
1
40
1
40
1
41
1
10
211.820954925372
20
14.5504401440325
30
0
41
1
10
211.83723643454
20
14.5239442884598
30
0
41
1
10
211.862372290311
20
14.5038652726252
30
0
41
1
10
211.919096512
20
14.4717583600067
30
0
41
1
10
211.950698449704
20
14.4599664165565
30
0
41
1
10
212.049744908583
20
14.4336624049755
30
0
41
1
10
212.12164798585
20
14.4279941493778
30
0
41
1
10
212.266189659956
20
14.4355825688051
30
0
41
1
10
212.338558847821
20
14.4487610890285
30
0
41
1
10
212.439523700454
20
14.4856175197756
30
0
41
1
10
212.47185601554
20
14.5008105744226
30
0
41
1
10
212.529757311698
20
14.5388603581193
30
0
41
1
10
212.555526947086
20
14.5615749161661
30
0
41
1
10
212.572221721022
20
14.5898123684416
30
0
0
SPLINE
5
295
100
AcDbEntity
8
1
62
256
6
ByLayer
370
18
48
1
60
0
100
AcDbSpline
70
4
71
3
72
16
73
12
40
0
40
0
40
0
40
0
40
0.124999999999991
40
0.124999999999991
40
0.249999999999983
40
0.249999999999983
40
0.499999999999989
40
0.499999999999989
40
0.749999999999994
40
0.749999999999994
40
1
40
1
40
1
40
1
41
1
10
211.165222535483
20
14.1461064114583
30
0
41
1
10
211.150375209176
20
14.1573012417215
30
0
41
1
10
211.138868202608
20
14.1726974344566
30
0
41
1
10
211.126495886057
20
14.2094652297947
30
0
41
1
10
211.125697614139
20
14.2306769173139
30
0
41
1
10
211.135290280817
20
14.2929683452797
30
0
41
1
10
211.155595735046
20
14.3329473851996
30
0
41
1
10
211.205390370863
20
14.4058481445487
30
0
41
1
10
211.235350580086
20
14.4389659049191
30
0
41
1
10
211.300320362058
20
14.4991942355415
30
0
41
1
10
211.335556681363
20
14.5263874661112
30
0
41
1
10
211.372483063471
20
14.550465359373
30
0
0
SPLINE
5
296
100
AcDbEntity
8
1
62
256
6
ByLayer
370
18
48
1
60
0
100
AcDbSpline
70
4
71
3
72
8
73
4
40
0
40
0
40
0
40
0
40
1
40
1
40
1
40
1
41
1
10
211.276054115443
20
12.0313138849225
30
0
41
1
10
211.278595393736
20
12.0373009660617
30
0
41
1
10
211.281137181871
20
12.0432888216791
30
0
41
1
10
211.283679499969
20
12.0492774819801
30
0
0
SPLINE
5
297
100
AcDbEntity
8
1
62
256
6
ByLayer
370
18
48
1
60
0
100
AcDbSpline
70
4
71
3
72
16
73
12
40
0
40
0
40
0
40
0
40
0.249999999999968
40
0.249999999999968
40
0.499999999999936
40
0.499999999999936
40
0.749999999999904
40
0.749999999999904
40
0.874999999999952
40
0.874999999999952
40
1
40
1
40
1
40
1
41
1
10
213.948882553313
20
13.2316913695138
30
0
41
1
10
213.946566412887
20
13.2758859615631
30
0
41
1
10
213.940596534786
20
13.3199478646374
30
0
41
1
10
213.920459004514
20
13.4062726494336
30
0
41
1
10
213.906392806205
20
13.4485535544738
30
0
41
1
10
213.86664412474
20
13.5274266123628
30
0
41
1
10
213.841194796913
20
13.5644012943156
30
0
41
1
10
213.78882593644
20
13.6021557973117
30
0
41
1
10
213.769114407438
20
13.6110519602609
30
0
41
1
10
213.728733729648
20
13.616753736061
30
0
41
1
10
213.708308055582
20
13.6134619795779
30
0
41
1
10
213.689810651724
20
13.6052068287159
30
0
0
SPLINE
5
298
100
AcDbEntity
8
1
62
256
6
ByLayer
370
18
48
1
60
0
100
AcDbSpline
70
4
71
3
72
8
73
4
40
0
40
0
40
0
40
0
40
1
40
1
40
1
40
1
41
1
10
211.810760871616
20
14.5670304843361
30
0
41
1
10
211.814158262207
20
14.5615010765513
30
0
41
1
10
211.817556271998
20
14.5559709721646
30
0
41
1
10
211.820954925372
20
14.5504401440325
30
0
0
SPLINE
5
299
100
AcDbEntity
8
1
62
256
6
ByLayer
370
18
48
1
60
0
100
AcDbSpline
70
4
71
3
72
16
73
12
40
0
40
0
40
0
40
0
40
0.250000000000002
40
0.250000000000002
40
0.500000000000005
40
0.500000000000005
40
0.750000000000007
40
0.750000000000007
40
0.875000000000003
40
0.875000000000003
40
1
40
1
40
1
40
1
41
1
10
213.039428321854
20
14.6378262585512
30
0
41
1
10
213.078696400131
20
14.6177262234176
30
0
41
1
10
213.116305003902
20
14.5944101082781
30
0
41
1
10
213.186416252344
20
14.5411985073459
30
0
41
1
10
213.218980004685
20
14.5113834253472
30
0
41
1
10
213.273952062777
20
14.4438058626346
30
0
41
1
10
213.296815719027
20
14.4060823683036
30
0
41
1
10
213.308762211463
20
14.3443969451356
30
0
41
1
10
213.308390102809
20
14.3233918412098
30
0
41
1
10
213.296133539786
20
14.2856100665146
30
0
41
1
10
213.284264189368
20
14.2690891174162
30
0
41
1
10
213.268671123706
20
14.256343480803
30
0
0
SPLINE
5
29A
100
AcDbEntity
8
1
62
256
6
ByLayer
370
18
48
1
60
0
100
AcDbSpline
70
4
71
3
72
18
73
14
40
0
40
0
40
0
40
0
40
0.125000000000025
40
0.125000000000025
40
0.25000000000005
40
0.25000000000005
40
0.500000000000033
40
0.500000000000033
40
0.750000000000016
40
0.750000000000016
40
0.875000000000008
40
0.875000000000008
40
1
40
1
40
1
40
1
41
1
10
210.833294205629
20
13.4559425248561
30
0
41
1
10
210.863386815406
20
13.4582213307966
30
0
41
1
10
210.892471722503
20
13.4712540552896
30
0
41
1
10
210.947137616773
20
13.5066274277009
30
0
41
1
10
210.972528552686
20
13.5290876798541
30
0
41
1
10
211.043330933246
20
13.6041797757763
30
0
41
1
10
211.083677285638
20
13.6645986293789
30
0
41
1
10
211.149348867431
20
13.7941061025678
30
0
41
1
10
211.17460403993
20
13.8629257144954
30
0
41
1
10
211.19463294567
20
13.9670638010133
30
0
41
1
10
211.198253326502
20
14.0019075885753
30
0
41
1
10
211.195728255809
20
14.0692046114489
30
0
41
1
10
211.189802531023
20
14.1017660481369
30
0
41
1
10
211.17468385455
20
14.1290382905913
30
0
0
SPLINE
5
29B
100
AcDbEntity
8
1
62
256
6
ByLayer
370
18
48
1
60
0
100
AcDbSpline
70
4
71
3
72
16
73
12
40
0
40
0
40
0
40
0
40
0.250000000000034
40
0.250000000000034
40
0.500000000000068
40
0.500000000000068
40
0.750000000000101
40
0.750000000000101
40
0.875000000000051
40
0.875000000000051
40
1
40
1
40
1
40
1
41
1
10
211.372483063471
20
14.550465359373
30
0
41
1
10
211.409435001323
20
14.5745599162887
30
0
41
1
10
211.44827856788
20
14.5956832939346
30
0
41
1
10
211.528953573387
20
14.630405464089
30
0
41
1
10
211.570749651169
20
14.6440923110207
30
0
41
1
10
211.655866590762
20
14.6590507726184
30
0
41
1
10
211.699393808063
20
14.6607186343426
30
0
41
1
10
211.757452543835
20
14.6419488901227
30
0
41
1
10
211.77493140804
20
14.6318085164529
30
0
41
1
10
211.800368721666
20
14.6038202315746
30
0
41
1
10
211.808118862218
20
14.5861062041636
30
0
41
1
10
211.810760871616
20
14.5670304843361
30
0
0
SPLINE
5
29C
100
AcDbEntity
8
1
62
256
6
ByLayer
370
18
48
1
60
0
100
AcDbSpline
70
4
71
3
72
16
73
12
40
0
40
0
40
0
40
0
40
0.25
40
0.25
40
0.5
40
0.5
40
0.75
40
0.75
40
0.875
40
0.875
40
1
40
1
40
1
40
1
41
1
10
211.524446268007
20
11.6508346821199
30
0
41
1
10
211.48517818973
20
11.6709347172534
30
0
41
1
10
211.447376608596
20
11.6942407188778
30
0
41
1
10
211.376385238929
20
11.7474061946112
30
0
41
1
10
211.343146969121
20
11.7771859266474
30
0
41
1
10
211.285891765043
20
11.844643834749
30
0
41
1
10
211.261465216772
20
11.88228542138
30
0
41
1
10
211.245472094616
20
11.9437587696708
30
0
41
1
10
211.244198859104
20
11.9646776447626
30
0
41
1
10
211.252716234726
20
12.0022634569498
30
0
41
1
10
211.26250884242
20
12.018675568574
30
0
41
1
10
211.276054115443
20
12.0313138849225
30
0
0
SPLINE
5
29D
100
AcDbEntity
8
1
62
256
6
ByLayer
370
18
48
1
60
0
100
AcDbSpline
70
4
71
3
72
8
73
4
40
0
40
0
40
0
40
0
40
1
40
1
40
1
40
1
41
1
10
210.814452367484
20
13.4545156863958
30
0
41
1
10
210.820731979922
20
13.4549912278446
30
0
41
1
10
210.827012579724
20
13.4554668397449
30
0
41
1
10
210.833294205629
20
13.4559425248561
30
0
0
SPLINE
5
29E
100
AcDbEntity
8
1
62
256
6
ByLayer
370
18
48
1
60
0
100
AcDbSpline
70
4
71
3
72
16
73
12
40
0
40
0
40
0
40
0
40
0.250000000000024
40
0.250000000000024
40
0.500000000000049
40
0.500000000000049
40
0.750000000000073
40
0.750000000000073
40
0.875000000000036
40
0.875000000000036
40
1
40
1
40
1
40
1
41
1
10
210.614992036548
20
13.0569695711573
30
0
41
1
10
210.612675896122
20
13.1011641632067
30
0
41
1
10
210.613814370227
20
13.1455985992344
30
0
41
1
10
210.62393806668
20
13.2335093077217
30
0
41
1
10
210.632833133387
20
13.2769935616708
30
0
41
1
10
210.661836441895
20
13.3594697586756
30
0
41
1
10
210.681718556935
20
13.3988201608808
30
0
41
1
10
210.725807485412
20
13.4416298023903
30
0
41
1
10
210.742835786187
20
13.4524514182293
30
0
41
1
10
210.778660069136
20
13.4621469267922
30
0
41
1
10
210.797241188744
20
13.4608994297425
30
0
41
1
10
210.814452367484
20
13.4545156863958
30
0
0
SPLINE
5
29F
100
AcDbEntity
8
1
62
256
6
ByLayer
370
18
48
1
60
0
100
AcDbSpline
70
4
71
3
72
8
73
4
40
0
40
0
40
0
40
0
40
1
40
1
40
1
40
1
41
1
10
210.873802353241
20
12.6830010233061
30
0
41
1
10
210.867505416107
20
12.6828174938619
30
0
41
1
10
210.861209507106
20
12.6826339988647
30
0
41
1
10
210.854914587425
20
12.6824505370096
30
0
0
SPLINE
5
2A0
100
AcDbEntity
8
1
62
256
6
ByLayer
370
18
48
1
60
0
100
AcDbSpline
70
4
71
3
72
16
73
12
40
0
40
0
40
0
40
0
40
0.124999999999955
40
0.124999999999955
40
0.249999999999911
40
0.249999999999911
40
0.499999999999941
40
0.499999999999941
40
0.74999999999997
40
0.74999999999997
40
1
40
1
40
1
40
1
41
1
10
210.854914587425
20
12.6824505370096
30
0
41
1
10
210.838403599963
20
12.6742723054975
30
0
41
1
10
210.819947411053
20
12.6710877004389
30
0
41
1
10
210.783084703225
20
12.6771404095076
30
0
41
1
10
210.764846040091
20
12.6863614803017
30
0
41
1
10
210.71701308442
20
12.7241874600685
30
0
41
1
10
210.693109645279
20
12.7611918578094
30
0
41
1
10
210.655743223957
20
12.8400178547921
30
0
41
1
10
210.642337108486
20
12.8823617631886
30
0
41
1
10
210.62309916793
20
12.9686341806645
30
0
41
1
10
210.617306575145
20
13.0128055438282
30
0
41
1
10
210.614992036548
20
13.0569695711573
30
0
0
SPLINE
5
2A1
100
AcDbEntity
8
1
62
256
6
ByLayer
370
18
48
1
60
0
100
AcDbSpline
70
4
71
3
72
8
73
4
40
0
40
0
40
0
40
0
40
1
40
1
40
1
40
1
41
1
10
211.17468385455
20
14.1290382905913
30
0
41
1
10
211.171529478078
20
14.1347283997806
30
0
41
1
10
211.168375712779
20
14.1404177640908
30
0
41
1
10
211.165222535483
20
14.1461064114583
30
0
0
SPLINE
5
2A2
100
AcDbEntity
8
1
62
256
6
ByLayer
370
18
48
1
60
0
100
AcDbSpline
70
4
71
3
72
18
73
14
40
0
40
0
40
0
40
0
40
0.12499999999997
40
0.12499999999997
40
0.249999999999941
40
0.249999999999941
40
0.499999999999955
40
0.499999999999955
40
0.749999999999969
40
0.749999999999969
40
0.874999999999984
40
0.874999999999984
40
1
40
1
40
1
40
1
41
1
10
213.668878086185
20
13.6045491790068
30
0
41
1
10
213.635414151083
20
13.6034978436399
30
0
41
1
10
213.602203594124
20
13.6132874133443
30
0
41
1
10
213.539090266042
20
13.6425431347357
30
0
41
1
10
213.509390834018
20
13.6621486851708
30
0
41
1
10
213.426058967271
20
13.7292710420219
30
0
41
1
10
213.377883760266
20
13.7851378431184
30
0
41
1
10
213.299034981341
20
13.9072333965293
30
0
41
1
10
213.268588518887
20
13.973027663154
30
0
41
1
10
213.242953430791
20
14.0740752897218
30
0
41
1
10
213.237757487755
20
14.1085654040299
30
0
41
1
10
213.238130198256
20
14.1757117252301
30
0
41
1
10
213.243460427306
20
14.2092303599789
30
0
41
1
10
213.259000939456
20
14.2382727203329
30
0
0
SPLINE
5
2A3
100
AcDbEntity
8
1
62
256
6
ByLayer
370
18
48
1
60
0
100
AcDbSpline
70
4
71
3
72
20
73
16
40
0
40
0
40
0
40
0
40
0.125000000000001
40
0.125000000000001
40
0.250000000000001
40
0.250000000000001
40
0.375000000000002
40
0.375000000000002
40
0.500000000000002
40
0.500000000000002
40
0.750000000000003
40
0.750000000000003
40
0.875000000000002
40
0.875000000000002
40
1
40
1
40
1
40
1
41
1
10
213.367996584875
20
12.1585119117217
30
0
41
1
10
213.349539847223
20
12.1857200451372
30
0
41
1
10
213.340703764333
20
12.2184035480908
30
0
41
1
10
213.333282355908
20
12.285668895434
30
0
41
1
10
213.334865245712
20
12.3201320028237
30
0
41
1
10
213.344872306323
20
12.3891591503186
30
0
41
1
10
213.353441604393
20
12.4238177864433
30
0
41
1
10
213.375736728929
20
12.4911291129936
30
0
41
1
10
213.389538754432
20
12.5241539417488
30
0
41
1
10
213.43875825694
20
12.6214277544973
30
0
41
1
10
213.480823844107
20
12.6820780210258
30
0
41
1
10
213.556850686083
20
12.7577095080838
30
0
41
1
10
213.584416319433
20
12.7803469208617
30
0
41
1
10
213.644004410264
20
12.8159456778055
30
0
41
1
10
213.6759747606
20
12.8291537801974
30
0
41
1
10
213.709386233797
20
12.8316076774568
30
0
0
SPLINE
5
2A4
100
AcDbEntity
8
1
62
256
6
ByLayer
370
18
48
1
60
0
100
AcDbSpline
70
4
71
3
72
8
73
4
40
0
40
0
40
0
40
0
40
1
40
1
40
1
40
1
41
1
10
213.709386233797
20
12.8316076774568
30
0
41
1
10
213.716349168566
20
12.8321190684526
30
0
41
1
10
213.723311372122
20
12.832630401692
30
0
41
1
10
213.730272871665
20
12.8331416793297
30
0
0
SPLINE
5
2A5
100
AcDbEntity
8
1
62
256
6
ByLayer
370
18
48
1
60
0
100
AcDbSpline
70
4
71
3
72
16
73
12
40
0
40
0
40
0
40
0
40
0.124999999999998
40
0.124999999999998
40
0.249999999999997
40
0.249999999999997
40
0.499999999999998
40
0.499999999999998
40
0.749999999999999
40
0.749999999999999
40
1
40
1
40
1
40
1
41
1
10
213.379502703666
20
12.1415509542673
30
0
41
1
10
213.396405463267
20
12.1304638446984
30
0
41
1
10
213.410000714465
20
12.115177092227
30
0
41
1
10
213.426130895999
20
12.0786062382475
30
0
41
1
10
213.4285858152
20
12.0574813719334
30
0
41
1
10
213.422992630811
20
11.9953995479528
30
0
41
1
10
213.404253809444
20
11.9555026117821
30
0
41
1
10
213.356735821998
20
11.8827211665182
30
0
41
1
10
213.327451133537
20
11.8496388086909
30
0
41
1
10
213.263360629917
20
11.7894565590942
30
0
41
1
10
213.228317908498
20
11.7622734745599
30
0
41
1
10
213.19139152639
20
11.7381955812981
30
0
0
SPLINE
5
2A6
100
AcDbEntity
8
1
62
256
6
ByLayer
370
18
48
1
60
0
100
AcDbSpline
70
4
71
3
72
8
73
4
40
0
40
0
40
0
40
0
40
1
40
1
40
1
40
1
41
1
10
213.689810651724
20
13.6052068287159
30
0
41
1
10
213.682833844938
20
13.604987630672
30
0
41
1
10
213.675856332184
20
13.6047684143357
30
0
41
1
10
213.668878086185
20
13.6045491790068
30
0
0
SPLINE
5
2A7
100
AcDbEntity
8
1
62
256
6
ByLayer
370
18
48
1
60
0
100
AcDbSpline
70
4
71
3
72
8
73
4
40
0
40
0
40
0
40
0
40
1
40
1
40
1
40
1
41
1
10
211.970458718403
20
11.6977378338713
30
0
41
1
10
211.967656812173
20
11.69188204818
30
0
41
1
10
211.964855470349
20
11.6860270495422
30
0
41
1
10
211.962054671517
20
11.6801728084141
30
0
0
SPLINE
5
2A8
100
AcDbEntity
8
1
62
256
6
ByLayer
370
18
48
1
60
0
100
AcDbSpline
70
4
71
3
72
8
73
4
40
0
40
0
40
0
40
0
40
1
40
1
40
1
40
1
41
1
10
213.367996584875
20
12.1585119117217
30
0
41
1
10
213.371832270212
20
12.152857508417
30
0
41
1
10
213.375667639265
20
12.1472038654459
30
0
41
1
10
213.379502703666
20
12.1415509542673
30
0
0
SPLINE
5
2A9
100
AcDbEntity
8
1
62
256
6
ByLayer
370
18
48
1
60
0
100
AcDbSpline
70
4
71
3
72
18
73
14
40
0
40
0
40
0
40
0
40
0.12499999999999
40
0.12499999999999
40
0.249999999999981
40
0.249999999999981
40
0.499999999999988
40
0.499999999999988
40
0.749999999999996
40
0.749999999999996
40
0.874999999999998
40
0.874999999999998
40
1
40
1
40
1
40
1
41
1
10
211.283679499969
20
12.0492774819801
30
0
41
1
10
211.295858669442
20
12.0779666176064
30
0
41
1
10
211.298362886116
20
12.1110026373585
30
0
41
1
10
211.293809249384
20
12.1783521487686
30
0
41
1
10
211.286559945025
20
12.2125499292401
30
0
41
1
10
211.25581299604
20
12.31381486685
30
0
41
1
10
211.22340345536
20
12.3798572818678
30
0
41
1
10
211.144534512532
20
12.5017763958714
30
0
41
1
10
211.098269232864
20
12.5574619679287
30
0
41
1
10
211.01984167711
20
12.6248750829086
30
0
41
1
10
210.992171550623
20
12.6445804146551
30
0
41
1
10
210.934235574726
20
12.6739581696916
30
0
41
1
10
210.903983073949
20
12.6838806653895
30
0
41
1
10
210.873802353241
20
12.6830010233061
30
0
0
SPLINE
5
2AA
100
AcDbEntity
8
1
62
256
6
ByLayer
370
18
48
1
60
0
100
AcDbSpline
70
4
71
3
72
16
73
12
40
0
40
0
40
0
40
0
40
0.125
40
0.125
40
0.25
40
0.25
40
0.5
40
0.5
40
0.75
40
0.75
40
1
40
1
40
1
40
1
41
1
10
213.730272871665
20
12.8331416793297
30
0
41
1
10
213.749603701477
20
12.8268418378665
30
0
41
1
10
213.770379911955
20
12.8257133157357
30
0
41
1
10
213.810165866619
20
12.8357830109906
30
0
41
1
10
213.82899739937
20
12.8469468484286
30
0
41
1
10
213.876613911858
20
12.8897751228553
30
0
41
1
10
213.89808502549
20
12.929157500143
30
0
41
1
10
213.929283837687
20
13.0115768487505
30
0
41
1
10
213.938865890144
20
13.0551255159779
30
0
41
1
10
213.949859798379
20
13.1429823175126
30
0
41
1
10
213.95119709191
20
13.1875273421846
30
0
41
1
10
213.948882553313
20
13.2316913695138
30
0
0
SPLINE
5
2AB
100
AcDbEntity
8
1
62
256
6
ByLayer
370
18
48
1
60
0
100
AcDbSpline
70
4
71
3
72
18
73
14
40
0
40
0
40
0
40
0
40
0.124999999999956
40
0.124999999999956
40
0.249999999999911
40
0.249999999999911
40
0.499999999999913
40
0.499999999999913
40
0.749999999999914
40
0.749999999999914
40
0.874999999999957
40
0.874999999999957
40
1
40
1
40
1
40
1
41
1
10
212.721725514053
20
11.7371100582805
30
0
41
1
10
212.702180142611
20
11.7634348620795
30
0
41
1
10
212.674154617537
20
11.783362436763
30
0
41
1
10
212.612439777223
20
11.8152078021422
30
0
41
1
10
212.578761234383
20
11.8268909153287
30
0
41
1
10
212.474709034171
20
11.8529325871228
30
0
41
1
10
212.401100325295
20
11.8585114543556
30
0
41
1
10
212.256560950158
20
11.8509231554122
30
0
41
1
10
212.185889233689
20
11.837833595895
30
0
41
1
10
212.089941163334
20
11.8012400835662
30
0
41
1
10
212.059692463783
20
11.7861562265822
30
0
41
1
10
212.006771949533
20
11.7483674746045
30
0
41
1
10
211.983888032938
20
11.7258041506712
30
0
41
1
10
211.970458718403
20
11.6977378338713
30
0
0
SPLINE
5
2AC
100
AcDbEntity
8
1
62
256
6
ByLayer
370
18
48
1
60
0
100
AcDbSpline
70
4
71
3
72
8
73
4
40
0
40
0
40
0
40
0
40
1
40
1
40
1
40
1
41
1
10
212.733964367534
20
11.7206268813894
30
0
41
1
10
212.729885089836
20
11.7261205529853
30
0
41
1
10
212.725805476292
20
11.7316149360329
30
0
41
1
10
212.721725514053
20
11.7371100582805
30
0
0
SPLINE
5
2AD
100
AcDbEntity
8
1
62
256
6
ByLayer
370
18
48
1
60
0
100
AcDbSpline
70
4
71
3
72
16
73
12
40
0
40
0
40
0
40
0
40
0.124999999999947
40
0.124999999999947
40
0.249999999999894
40
0.249999999999894
40
0.49999999999993
40
0.49999999999993
40
0.749999999999965
40
0.749999999999965
40
1
40
1
40
1
40
1
41
1
10
212.582670567632
20
14.6074845573114
30
0
41
1
10
212.585361945435
20
14.626911479434
30
0
41
1
10
212.593355250091
20
14.6455469973595
30
0
41
1
10
212.61972457386
20
14.6763605543082
30
0
41
1
10
212.637993288717
20
14.6883945816359
30
0
41
1
10
212.697418652211
20
14.7129648318274
30
0
41
1
10
212.742410862011
20
14.7159805258809
30
0
41
1
10
212.830710243336
20
14.7101149452901
30
0
41
1
10
212.874414328412
20
14.7009064985354
30
0
41
1
10
212.959061690115
20
14.6748854521949
30
0
41
1
10
213.000187401149
20
14.6579123926185
30
0
41
1
10
213.039428321854
20
14.6378262585512
30
0
0
SPLINE
5
2AE
100
AcDbEntity
8
1
62
256
6
ByLayer
370
18
48
1
60
0
100
AcDbSpline
70
4
71
3
72
8
73
4
40
0
40
0
40
0
40
0
40
1
40
1
40
1
40
1
41
1
10
213.268671123706
20
14.256343480803
30
0
41
1
10
213.265447958307
20
14.250320663475
30
0
41
1
10
213.262224566419
20
14.2442970865185
30
0
41
1
10
213.259000939456
20
14.2382727203329
30
0
0
SPLINE
5
2AF
100
AcDbEntity
8
1
62
256
6
ByLayer
370
18
48
1
60
0
100
AcDbSpline
70
4
71
3
72
8
73
4
40
0
40
0
40
0
40
0
40
1
40
1
40
1
40
1
41
1
10
212.572221721022
20
14.5898123684416
30
0
41
1
10
212.575704936117
20
14.5957038600175
30
0
41
1
10
212.579187881695
20
14.6015945799944
30
0
41
1
10
212.582670567632
20
14.6074845573114
30
0
0
SPLINE
5
2B0
100
AcDbEntity
8
1
62
256
6
ByLayer
370
18
48
1
60
0
100
AcDbSpline
70
4
71
3
72
12
73
8
40
0
40
0
40
0
40
0
40
0.500000000000078
40
0.500000000000078
40
0.750000000000039
40
0.750000000000039
40
1
40
1
40
1
40
1
41
1
10
220.464705210955
20
0.467567225302275
30
0
41
1
10
220.531820335428
20
0.458732133236453
30
0
41
1
10
220.596055297985
20
0.429898929994266
30
0
41
1
10
220.673063730663
20
0.364177438679462
30
0
41
1
10
220.695509450639
20
0.338485865883115
30
0
41
1
10
220.7319015739
20
0.281846763033059
30
0
41
1
10
220.745314905151
20
0.250802968861393
30
0
41
1
10
220.75546523272
20
0.218701076065457
30
0
0
SPLINE
5
2B1
100
AcDbEntity
8
1
62
256
6
ByLayer
370
18
48
1
60
0
100
AcDbSpline
70
4
71
3
72
10
73
6
40
0
40
0
40
0
40
0
40
0.538209726046596
40
0.538209726046596
40
1
40
1
40
1
40
1
41
1
10
220.802773775863
20
-14.826561932289
30
0
41
1
10
220.739253515859
20
-14.8446537123097
30
0
41
1
10
220.675733720596
20
-14.8627486864374
30
0
41
1
10
220.55771252942
20
-14.8963647944452
30
0
41
1
10
220.503211191998
20
-14.9118863317778
30
0
41
1
10
220.448710350996
20
-14.9274112768487
30
0
0
SPLINE
5
2B2
100
AcDbEntity
8
1
62
256
6
ByLayer
370
18
48
1
60
0
100
AcDbSpline
70
4
71
1
72
4
73
2
40
0
40
0
40
1
40
1
41
1
10
220.353368705916
20
-14.9485935526823
30
0
41
1
10
220.260180841393
20
-14.1272039236421
30
0
0
SPLINE
5
2B3
100
AcDbEntity
8
1
62
256
6
ByLayer
370
18
48
1
60
0
100
AcDbSpline
70
4
71
1
72
4
73
2
40
0
40
0
40
1
40
1
41
1
10
221.886152638676
20
-8.23913446894039
30
0
41
1
10
221.946471987415
20
-7.78402382055424
30
0
0
SPLINE
5
2B4
100
AcDbEntity
8
1
62
256
6
ByLayer
370
18
48
1
60
0
100
AcDbSpline
70
4
71
3
72
12
73
8
40
0
40
0
40
0
40
0
40
0.497245432902461
40
0.497245432902461
40
0.812185185797489
40
0.812185185797489
40
1
40
1
40
1
40
1
41
1
10
220.448710350873
20
-14.9274112768837
30
0
41
1
10
220.434901626018
20
-14.9313447885653
30
0
41
1
10
220.420981168602
20
-14.9349100423303
30
0
41
1
10
220.398108971028
20
-14.940119866158
30
0
41
1
10
220.389202677329
20
-14.9419903022429
30
0
41
1
10
220.374940052197
20
-14.9447341078505
30
0
41
1
10
220.369600980604
20
-14.9457053655679
30
0
41
1
10
220.36425260759
20
-14.9466225905605
30
0
0
SPLINE
5
2B5
100
AcDbEntity
8
1
62
256
6
ByLayer
370
18
48
1
60
0
100
AcDbSpline
70
4
71
1
72
4
73
2
40
0
40
0
40
1
40
1
41
1
10
221.86396010817
20
-6.41220569192794
30
0
41
1
10
220.877532521818
20
-0.22574652776845
30
0
0
SPLINE
5
2B6
100
AcDbEntity
8
1
62
256
6
ByLayer
370
18
48
1
60
0
100
AcDbSpline
70
4
71
1
72
4
73
2
40
0
40
0
40
1
40
1
41
1
10
221.946471987415
20
-7.78402382055424
30
0
41
1
10
221.979329005083
20
-7.5361169892077
30
0
0
SPLINE
5
2B7
100
AcDbEntity
8
1
62
256
6
ByLayer
370
18
48
1
60
0
100
AcDbSpline
70
4
71
1
72
4
73
2
40
0
40
0
40
1
40
1
41
1
10
221.05124575454
20
-14.5385229955588
30
0
41
1
10
221.886152638676
20
-8.23913446894039
30
0
0
SPLINE
5
2B8
100
AcDbEntity
8
1
62
256
6
ByLayer
370
18
48
1
60
0
100
AcDbSpline
70
4
71
1
72
4
73
2
40
0
40
0
40
1
40
1
41
1
10
221.979329005083
20
-7.5361169892077
30
0
41
1
10
221.993165867288
20
-7.43171759727909
30
0
0
SPLINE
5
2B9
100
AcDbEntity
8
1
62
256
6
ByLayer
370
18
48
1
60
0
100
AcDbSpline
70
4
71
3
72
12
73
8
40
0
40
0
40
0
40
0
40
0.500000000000067
40
0.500000000000067
40
0.750000000000033
40
0.750000000000033
40
1
40
1
40
1
40
1
41
1
10
221.051250855172
20
-14.5384306512891
30
0
41
1
10
221.042356361313
20
-14.6050974968828
30
0
41
1
10
221.013331276535
20
-14.6689053981337
30
0
41
1
10
220.947166936319
20
-14.7453985502197
30
0
41
1
10
220.921302936054
20
-14.767694674684
30
0
41
1
10
220.864283768529
20
-14.8038445089193
30
0
41
1
10
220.833031534717
20
-14.8171685531474
30
0
41
1
10
220.8007140906
20
-14.827251391753
30
0
0
SPLINE
5
2BA
100
AcDbEntity
8
1
62
256
6
ByLayer
370
18
48
1
60
0
100
AcDbSpline
70
4
71
3
72
27
73
23
40
0
40
0
40
0
40
0
40
0.003149218283943
40
0.0188952660616962
40
0.0503873616172027
40
0.113371552728216
40
0.239339934950241
40
0.365308317172267
40
0.487340187449855
40
0.491276699394293
40
0.49914972328317
40
0.507022747172046
40
0.522768794949799
40
0.554260890505306
40
0.617245081616319
40
0.743213463838345
40
0.869181846060371
40
0.932166037171383
40
0.96365813272689
40
0.979404180504643
40
0.995150228282396
40
1
40
1
40
1
40
1
41
1
10
220.290068538419
20
-13.7190642598689
30
0
41
1
10
220.298928330279
20
-13.7094098046267
30
0
41
1
10
220.346800643267
20
-13.6470787335292
30
0
41
1
10
220.379717997632
20
-13.4157367993389
30
0
41
1
10
220.444792430029
20
-12.912465420298
30
0
41
1
10
220.58124871498
20
-11.8910913387748
30
0
41
1
10
220.77123830177
20
-10.438646591844
30
0
41
1
10
221.008337074321
20
-8.71325174474674
30
0
41
1
10
221.161778378108
20
-7.54989848421036
30
0
41
1
10
221.239322229882
20
-6.93379512569828
30
0
41
1
10
221.235770288898
20
-6.84783568942751
30
0
41
1
10
221.204647893579
20
-6.70398375600212
30
0
41
1
10
221.169435670466
20
-6.45007166928747
30
0
41
1
10
221.08528458337
20
-5.94324255104766
30
0
41
1
10
220.925855621714
20
-4.92940857217715
30
0
41
1
10
220.694320665643
20
-3.48091730546062
30
0
41
1
10
220.461289455878
20
-2.0329717396248
30
0
41
1
10
220.30411748306
20
-1.01840582545606
30
0
41
1
10
220.216180357978
20
-0.512391107771066
30
0
41
1
10
220.180969511591
20
-0.22003070948773
30
0
41
1
10
220.158017329058
20
-0.0560827827570733
30
0
41
1
10
220.126022011784
20
0.029851445911163
30
0
41
1
10
220.116881210691
20
0.0488899604027893
30
0
0
SPLINE
5
2BB
100
AcDbEntity
8
1
62
256
6
ByLayer
370
18
48
1
60
0
100
AcDbSpline
70
4
71
2
72
6
73
3
40
0
40
0
40
0
40
1
40
1
40
1
41
1
10
220.457189228955
20
0.0855420079583098
30
0
41
1
10
220.449534875552
20
0.133546894937609
30
0
41
1
10
220.436047913224
20
0.180267360485345
30
0
0
SPLINE
5
2BC
100
AcDbEntity
8
1
62
256
6
ByLayer
370
18
48
1
60
0
100
AcDbSpline
70
4
71
1
72
4
73
2
40
0
40
0
40
1
40
1
41
1
10
220.129268073131
20
0.484630163020739
30
0
41
1
10
220.464704534172
20
0.46746914221751
30
0
0
SPLINE
5
2BD
100
AcDbEntity
8
1
62
256
6
ByLayer
370
18
48
1
60
0
100
AcDbSpline
70
4
71
2
72
6
73
3
40
0
40
0
40
0
40
1
40
1
40
1
41
1
10
220.260180841393
20
-14.1272039236421
30
0
41
1
10
220.308508526881
20
-14.1196006964751
30
0
41
1
10
220.355543154014
20
-14.1062038185721
30
0
0
SPLINE
5
2BE
100
AcDbEntity
8
1
62
256
6
ByLayer
370
18
48
1
60
0
100
AcDbSpline
70
4
71
3
72
12
73
8
40
0
40
0
40
0
40
0
40
0.115854048105886
40
0.268293172484593
40
0.4207322968633
40
0.496951859052654
40
1
40
1
40
1
40
1
41
1
10
221.096209147642
20
-6.62961496261156
30
0
41
1
10
221.100577937012
20
-6.65706697937142
30
0
41
1
10
221.111291064569
20
-6.72016156056378
30
0
41
1
10
221.132038650369
20
-6.81605971688117
30
0
41
1
10
221.134870955086
20
-6.88460345616767
30
0
41
1
10
221.113289493861
20
-7.05607302387338
30
0
41
1
10
221.09593657646
20
-7.19237369002656
30
0
41
1
10
221.080693444831
20
-7.31106801970935
30
0
0
SPLINE
5
2BF
100
AcDbEntity
8
1
62
256
6
ByLayer
370
18
48
1
60
0
100
AcDbSpline
70
4
71
2
72
12
73
9
40
0
40
0
40
0
40
0.25
40
0.5
40
0.5
40
0.75
40
0.75
40
0.875
40
1
40
1
40
1
41
1
10
220.411419951318
20
-14.0902884243914
30
0
41
1
10
220.459904071467
20
-14.0764786872395
30
0
41
1
10
220.545634050092
20
-14.0224301473008
30
0
41
1
10
220.579899576956
20
-13.9832586079006
30
0
41
1
10
220.612669916063
20
-13.9457963317582
30
0
41
1
10
220.634236610221
20
-13.8985033414374
30
0
41
1
10
220.644252554422
20
-13.8765396622232
30
0
41
1
10
220.658535536245
20
-13.827254722274
30
0
41
1
10
220.661952578281
20
-13.8014730742934
30
0
0
SPLINE
5
2C0
100
AcDbEntity
8
1
62
256
6
ByLayer
370
18
48
1
60
0
100
AcDbSpline
70
4
71
1
72
4
73
2
40
0
40
0
40
1
40
1
41
1
10
220.661952578281
20
-13.8014730742929
30
0
41
1
10
221.05124575454
20
-14.5385229955589
30
0
0
SPLINE
5
2C1
100
AcDbEntity
8
1
62
256
6
ByLayer
370
18
48
1
60
0
100
AcDbSpline
70
4
71
1
72
4
73
2
40
0
40
0
40
1
40
1
41
1
10
221.974066489817
20
-7.102746632997
30
0
41
1
10
221.93525113596
20
-6.85931305013833
30
0
0
SPLINE
5
2C2
100
AcDbEntity
8
1
62
256
6
ByLayer
370
18
48
1
60
0
100
AcDbSpline
70
4
71
3
72
8
73
4
40
0
40
0
40
0
40
0
40
1
40
1
40
1
40
1
41
1
10
221.991122535675
20
-7.20932068107098
30
0
41
1
10
221.995995704866
20
-7.24527979990378
30
0
41
1
10
221.999465411159
20
-7.28134016401643
30
0
41
1
10
221.999943169459
20
-7.31759235487726
30
0
0
SPLINE
5
2C3
100
AcDbEntity
8
1
62
256
6
ByLayer
370
18
48
1
60
0
100
AcDbSpline
70
4
71
3
72
8
73
4
40
0
40
0
40
0
40
0
40
1
40
1
40
1
40
1
41
1
10
221.999943169459
20
-7.31759235487726
30
0
41
1
10
222.000415193705
20
-7.35340944712209
30
0
41
1
10
221.997984280193
20
-7.3891152291674
30
0
41
1
10
221.994156289434
20
-7.42475711976326
30
0
0
SPLINE
5
2C4
100
AcDbEntity
8
1
62
256
6
ByLayer
370
18
48
1
60
0
100
AcDbSpline
70
4
71
1
72
4
73
2
40
0
40
0
40
1
40
1
41
1
10
220.436047913224
20
0.180267360485317
30
0
41
1
10
220.856297980816
20
-0.130952136544551
30
0
0
SPLINE
5
2C5
100
AcDbEntity
8
1
62
256
6
ByLayer
370
18
48
1
60
0
100
AcDbSpline
70
4
71
3
72
10
73
6
40
0
40
0
40
0
40
0
40
0.772767251800105
40
0.772767251800105
40
1
40
1
40
1
40
1
41
1
10
220.755386996142
20
0.218613750384321
30
0
41
1
10
220.781380058521
20
0.128569744105363
30
0
41
1
10
220.80737501796
20
0.0385244234399522
30
0
41
1
10
220.841011020493
20
-0.0779968512561879
30
0
41
1
10
220.848654258274
20
-0.104474326117867
30
0
41
1
10
220.856297980816
20
-0.130952136544863
30
0
0
SPLINE
5
2C6
100
AcDbEntity
8
1
62
256
6
ByLayer
370
18
48
1
60
0
100
AcDbSpline
70
4
71
2
72
7
73
4
40
0
40
0
40
0
40
0.5
40
1
40
1
40
1
41
1
10
221.558963327384
20
-7.03350968996267
30
0
41
1
10
221.566455467078
20
-6.97698135156531
30
0
41
1
10
221.565029418035
20
-6.86236596316718
30
0
41
1
10
221.555958110745
20
-6.80547453709283
30
0
0
SPLINE
5
2C7
100
AcDbEntity
8
1
62
256
6
ByLayer
370
18
48
1
60
0
100
AcDbSpline
70
4
71
1
72
4
73
2
40
0
40
0
40
1
40
1
41
1
10
220.877532521818
20
-0.225746527768337
30
0
41
1
10
220.457189228955
20
0.0855420079583382
30
0
0
SPLINE
5
2C8
100
AcDbEntity
8
1
62
256
6
ByLayer
370
18
48
1
60
0
100
AcDbSpline
70
4
71
1
72
4
73
2
40
0
40
0
40
1
40
1
41
1
10
220.464704534172
20
0.46746914221751
30
0
41
1
10
220.064382102921
20
0.519820564344769
30
0
0
SPLINE
5
2C9
100
AcDbEntity
8
1
62
256
6
ByLayer
370
18
48
1
60
0
100
AcDbSpline
70
4
71
1
72
4
73
2
40
0
40
0
40
1
40
1
41
1
10
221.555958110745
20
-6.80547453709292
30
0
41
1
10
221.99016065066
20
-7.20368244441488
30
0
0
SPLINE
5
2CA
100
AcDbEntity
8
1
62
256
6
ByLayer
370
18
48
1
60
0
100
AcDbSpline
70
4
71
1
72
4
73
2
40
0
40
0
40
1
40
1
41
1
10
220.800713127589
20
-14.8273383456656
30
0
41
1
10
220.411419951319
20
-14.0902884243917
30
0
0
SPLINE
5
2CB
100
AcDbEntity
8
1
62
256
6
ByLayer
370
18
48
1
60
0
100
AcDbSpline
70
4
71
1
72
4
73
2
40
0
40
0
40
1
40
1
41
1
10
221.993165867288
20
-7.43171759727906
30
0
41
1
10
221.558963327384
20
-7.03350968996256
30
0
0
SPLINE
5
2CC
100
AcDbEntity
8
1
62
256
6
ByLayer
370
18
48
1
60
0
100
AcDbSpline
70
4
71
3
72
12
73
8
40
0
40
0
40
0
40
0
40
0.441018889555354
40
0.441018889555354
40
0.720346503203029
40
0.720346503203029
40
1
40
1
40
1
40
1
41
1
10
220.856297980714
20
-0.130952136193372
30
0
41
1
10
220.860257764507
20
-0.144668804224295
30
0
41
1
10
220.863846796172
20
-0.158496476345391
30
0
41
1
10
220.869091215624
20
-0.181216335877252
30
0
41
1
10
220.870974030609
20
-0.190063338281419
30
0
41
1
10
220.874436272986
20
-0.207823849441411
30
0
41
1
10
220.876015848723
20
-0.216740013246835
30
0
41
1
10
220.877441505587
20
-0.225679124672695
30
0
0
SPLINE
5
2CD
100
AcDbEntity
8
1
62
256
6
ByLayer
370
18
48
1
60
0
100
AcDbSpline
70
4
71
1
72
4
73
2
40
0
40
0
40
1
40
1
41
1
10
220.755461960478
20
0.218609915187869
30
0
41
1
10
220.420025499437
20
0.235770935991212
30
0
0
SPLINE
5
2CE
100
AcDbEntity
8
1
62
256
6
ByLayer
370
18
48
1
60
0
100
AcDbSpline
70
4
71
2
72
12
73
9
40
0
40
0
40
0
40
0.25
40
0.5
40
0.5
40
0.75
40
0.75
40
0.875
40
1
40
1
40
1
41
1
10
220.420025499437
20
0.23577093599124
30
0
41
1
10
220.406122901699
20
0.28393121280655
30
0
41
1
10
220.351710924067
20
0.369088569247481
30
0
41
1
10
220.312275984147
20
0.403125223998899
30
0
41
1
10
220.274561801054
20
0.435676677906855
30
0
41
1
10
220.226950799269
20
0.457099320151485
30
0
41
1
10
220.204839430063
20
0.467048364159837
30
0
41
1
10
220.155223084215
20
0.481235944671852
30
0
41
1
10
220.129268073131
20
0.484630163020682
30
0
0
SPLINE
5
2CF
100
AcDbEntity
8
1
62
256
6
ByLayer
370
18
48
1
60
0
100
AcDbSpline
70
4
71
1
72
4
73
2
40
0
40
0
40
1
40
1
41
1
10
221.93525113596
20
-6.85931305013833
30
0
41
1
10
221.86396010817
20
-6.41220569192794
30
0
0
SPLINE
5
2D0
100
AcDbEntity
8
1
62
256
6
ByLayer
370
18
48
1
60
0
100
AcDbSpline
70
4
71
1
72
4
73
2
40
0
40
0
40
1
40
1
41
1
10
220.355543154014
20
-14.1062038185721
30
0
41
1
10
220.448710350996
20
-14.9274112768487
30
0
0
SPLINE
5
2D1
100
AcDbEntity
8
1
62
256
6
ByLayer
370
18
48
1
60
0
100
AcDbSpline
70
4
71
3
72
30
73
26
40
0
40
0
40
0
40
0
40
0.005163804378109
40
0.0128480731223254
40
0.0282166106107581
40
0.0589536855876234
40
0.120427835541354
40
0.243376135448816
40
0.366324435356277
40
0.48543060089163
40
0.489272735263738
40
0.496957004007955
40
0.504641272752171
40
0.520009810240604
40
0.550746885217469
40
0.6122210351712
40
0.735169335078661
40
0.858117634986123
40
0.919591784939854
40
0.950328859916719
40
0.965697397405152
40
0.981065934893584
40
0.988750203637801
40
0.996434472382017
40
1
40
1
40
1
40
1
41
1
10
220.243125022217
20
-13.9316558037631
30
0
41
1
10
220.271808517282
20
-13.9203353370627
30
0
41
1
10
220.343039534186
20
-13.8855292456996
30
0
41
1
10
220.480386952645
20
-13.7494616069517
30
0
41
1
10
220.52330945075
20
-13.4478038971125
30
0
41
1
10
220.588462061986
20
-12.9439279000837
30
0
41
1
10
220.724904343629
20
-11.9226586332
30
0
41
1
10
220.914859173741
20
-10.4704795963722
30
0
41
1
10
221.151947525567
20
-8.74516058208417
30
0
41
1
10
221.305495032163
20
-7.58100211864456
30
0
41
1
10
221.384581729126
20
-6.95264050778539
30
0
41
1
10
221.380028996107
20
-6.84246120988195
30
0
41
1
10
221.347441572939
20
-6.69183771898128
30
0
41
1
10
221.312706497604
20
-6.44136630079859
30
0
41
1
10
221.228342488677
20
-5.93325478696474
30
0
41
1
10
221.068980504806
20
-4.9198467304162
30
0
41
1
10
220.837404971438
20
-3.47110161062415
30
0
41
1
10
220.604428430225
20
-2.02349572927875
30
0
41
1
10
220.447119657067
20
-1.00804675078234
30
0
41
1
10
220.359596941721
20
-0.504416662182763
30
0
41
1
10
220.324668124448
20
-0.214397989602247
30
0
41
1
10
220.297125794996
20
-0.0176625460526338
30
0
41
1
10
220.22612556813
20
0.155660519198676
30
0
41
1
10
220.13420682338
20
0.247208502151011
30
0
41
1
10
220.07524956019
20
0.2794095972599
30
0
41
1
10
220.056288023306
20
0.287891138627487
30
0
0
SPLINE
5
2D2
100
AcDbEntity
8
1
62
256
6
ByLayer
370
18
48
1
60
0
100
AcDbSpline
70
4
71
1
72
4
73
2
40
0
40
0
40
1
40
1
41
1
10
221.99016065066
20
-7.20368244441482
30
0
41
1
10
221.974066489817
20
-7.102746632997
30
0
0
SPLINE
5
2D3
100
AcDbEntity
8
1
62
256
6
ByLayer
370
13
48
1
60
0
100
AcDbSpline
70
4
71
3
72
8
73
4
40
0
40
0
40
0
40
0
40
1
40
1
40
1
40
1
41
1
10
220.061638806783
20
0.526511572391854
30
0
41
1
10
220.060054023807
20
0.574475602770519
30
0
41
1
10
220.059782749163
20
0.622178612183518
30
0
41
1
10
220.060771020931
20
0.666913126667424
30
0
0
SPLINE
5
2D4
100
AcDbEntity
8
1
62
256
6
ByLayer
370
13
48
1
60
0
100
AcDbSpline
70
4
71
3
72
18
73
14
40
0
40
0
40
0
40
0
40
0.125000000000012
40
0.125000000000012
40
0.250000000000024
40
0.250000000000024
40
0.375000000000036
40
0.375000000000036
40
0.500000000000048
40
0.500000000000048
40
0.750000000000024
40
0.750000000000024
40
1
40
1
40
1
40
1
41
1
10
206.554549027962
20
4.99987880282669
30
0
41
1
10
206.54158787575
20
4.98709809318285
30
0
41
1
10
206.533233985656
20
4.97805732198671
30
0
41
1
10
206.528353281614
20
4.96912576878196
30
0
41
1
10
206.531728357926
20
4.96906889222515
30
0
41
1
10
206.548059610003
20
4.9766223989655
30
0
41
1
10
206.561099549352
20
4.98424522764839
30
0
41
1
10
206.593059509066
20
5.00494410267359
30
0
41
1
10
206.612263314154
20
5.01819980011533
30
0
41
1
10
206.67532858426
20
5.06439917229369
30
0
41
1
10
206.723358883469
20
5.10271007642581
30
0
41
1
10
206.826162336558
20
5.194167177103
30
0
41
1
10
206.878228599887
20
5.24491381867676
30
0
41
1
10
206.929956732343
20
5.30120689265894
30
0
0
SPLINE
5
2D5
100
AcDbEntity
8
1
62
256
6
ByLayer
370
13
48
1
60
0
100
AcDbSpline
70
4
71
3
72
14
73
10
40
0
40
0
40
0
40
0
40
0.499999999999961
40
0.499999999999961
40
0.74999999999998
40
0.74999999999998
40
0.87499999999999
40
0.87499999999999
40
1
40
1
40
1
40
1
41
1
10
210.316566613709
20
6.47507286608641
30
0
41
1
10
210.475170997126
20
6.42598133362844
30
0
41
1
10
210.633513164593
20
6.39293677888722
30
0
41
1
10
210.872355969918
20
6.36395184206256
30
0
41
1
10
210.952180872772
20
6.3577733378186
30
0
41
1
10
211.072406325107
20
6.3536725298211
30
0
41
1
10
211.112562798394
20
6.35316892020867
30
0
41
1
10
211.193068354884
20
6.35390456062646
30
0
41
1
10
211.23365743287
20
6.35516342386177
30
0
41
1
10
211.273390009808
20
6.35724571998429
30
0
0
SPLINE
5
2D6
100
AcDbEntity
8
1
62
256
6
ByLayer
370
13
48
1
60
0
100
AcDbSpline
70
4
71
3
72
20
73
16
40
0
40
0
40
0
40
0
40
0.124999999999999
40
0.124999999999999
40
0.249999999999998
40
0.249999999999998
40
0.374999999999997
40
0.374999999999997
40
0.499999999999996
40
0.499999999999996
40
0.749999999999998
40
0.749999999999998
40
0.874999999999999
40
0.874999999999999
40
1
40
1
40
1
40
1
41
1
10
198.278125613045
20
7.83151383917721
30
0
41
1
10
198.297645758138
20
7.89817581987583
30
0
41
1
10
198.316701241302
20
7.96917160835247
30
0
41
1
10
198.354041764294
20
8.11898803530104
30
0
41
1
10
198.371992000687
20
8.1964561451662
30
0
41
1
10
198.406808690913
20
8.3562816555021
30
0
41
1
10
198.42367054921
20
8.43864009145281
30
0
41
1
10
198.456554241264
20
8.60829124807972
30
0
41
1
10
198.472631583666
20
8.69598205824138
30
0
41
1
10
198.518625948743
20
8.9587505988965
30
0
41
1
10
198.546729050717
20
9.13631443831343
30
0
41
1
10
198.587946036444
20
9.40368180655477
30
0
41
1
10
198.601261902792
20
9.49113883899116
30
0
41
1
10
198.628422191708
20
9.66258650463251
30
0
41
1
10
198.642146255716
20
9.74660045192005
30
0
41
1
10
198.657881791388
20
9.82851391861155
30
0
0
SPLINE
5
2D7
100
AcDbEntity
8
1
62
256
6
ByLayer
370
13
48
1
60
0
100
AcDbSpline
70
4
71
3
72
24
73
20
40
0
40
0
40
0
40
0
40
0.0624999999999977
40
0.0624999999999977
40
0.124999999999995
40
0.124999999999995
40
0.187499999999993
40
0.187499999999993
40
0.249999999999991
40
0.249999999999991
40
0.374999999999987
40
0.374999999999987
40
0.499999999999984
40
0.499999999999984
40
0.62499999999998
40
0.62499999999998
40
0.749999999999976
40
0.749999999999976
40
1
40
1
40
1
40
1
41
1
10
200.054294674266
20
5.74885976897201
30
0
41
1
10
200.029511924818
20
5.71138958923143
30
0
41
1
10
200.008473521736
20
5.67119118327165
30
0
41
1
10
199.976493029853
20
5.58687922123571
30
0
41
1
10
199.965994214042
20
5.54416917106033
30
0
41
1
10
199.955391463358
20
5.45771108427039
30
0
41
1
10
199.95545836973
20
5.41392134823687
30
0
41
1
10
199.96483288946
20
5.32979834825935
30
0
41
1
10
199.974174412495
20
5.28848678172165
30
0
41
1
10
200.012405903906
20
5.17074444270278
30
0
41
1
10
200.05118568489
20
5.09944669399914
30
0
41
1
10
200.144201871874
20
4.9685835250871
30
0
41
1
10
200.19751050128
20
4.91031171650815
30
0
41
1
10
200.313271142259
20
4.80343135267955
30
0
41
1
10
200.376225311802
20
4.7546580782643
30
0
41
1
10
200.507233120262
20
4.66645859936722
30
0
41
1
10
200.575219947847
20
4.62699801704048
30
0
41
1
10
200.78519938356
20
4.51984520261752
30
0
41
1
10
200.933253121442
20
4.46315287114675
30
0
41
1
10
201.087713926931
20
4.41892013236151
30
0
0
SPLINE
5
2D8
100
AcDbEntity
8
1
62
256
6
ByLayer
370
13
48
1
60
0
100
AcDbSpline
70
4
71
3
72
18
73
14
40
0
40
0
40
0
40
0
40
0.168990263378666
40
0.168990263378666
40
0.337980526757332
40
0.337980526757332
40
0.506970790135998
40
0.506970790135998
40
0.675961053514664
40
0.675961053514664
40
0.84495131689333
40
0.84495131689333
40
1
40
1
40
1
40
1
41
1
10
45.01
20
-11.5420082355351
30
0
41
1
10
45.01
20
-11.3306918665435
30
0
41
1
10
45.01
20
-11.1110367206195
30
0
41
1
10
45.01
20
-10.6557441135363
30
0
41
1
10
45.01
20
-10.4182577670683
30
0
41
1
10
45.01
20
-9.93488656788332
30
0
41
1
10
45.01
20
-9.69240974744986
30
0
41
1
10
45.01
20
-9.20591507727218
30
0
41
1
10
45.01
20
-8.95937265793981
30
0
41
1
10
45.01
20
-8.47929733299543
30
0
41
1
10
45.01
20
-8.24592168773498
30
0
41
1
10
45.01
20
-7.81106352866323
30
0
41
1
10
45.01
20
-7.60711398421427
30
0
41
1
10
45.01
20
-7.41512123552903
30
0
0
SPLINE
5
2D9
100
AcDbEntity
8
1
62
256
6
ByLayer
370
13
48
1
60
0
100
AcDbSpline
70
4
71
3
72
38
73
34
40
0
40
0
40
0
40
0
40
0.130368826916797
40
0.225597144694967
40
0.329696586554466
40
0.442780673866673
40
0.564824885453086
40
0.575953194263522
40
0.587524199204702
40
0.599539138647074
40
0.611999202574237
40
0.624905526863586
40
0.6382591867299
40
0.652061189404598
40
0.666312466109714
40
0.681013863375972
40
0.696166133747613
40
0.711769925912456
40
0.727825774293165
40
0.744334088134868
40
0.761295140124636
40
0.778709054579682
40
0.796575795243452
40
0.814895152731855
40
0.833666731675603
40
0.852889937609003
40
0.872563963660451
40
0.892687777105381
40
0.91326010584822
40
0.934279424906406
40
0.955743942976192
40
0.977651589167173
40
1
40
1
40
1
40
1
41
1
10
42.4332619810196
20
-7.52962457249745
30
0
41
1
10
42.5014472314363
20
-7.69976993936948
30
0
41
1
10
42.6320257996586
20
-8.00170622240353
30
0
41
1
10
42.8513463696683
20
-8.45741657255903
30
0
41
1
10
43.0841008891061
20
-8.89696859802064
30
0
41
1
10
43.3641353982003
20
-9.37714967993441
30
0
41
1
10
43.5860228321756
20
-9.72346010175298
30
0
41
1
10
43.7207327090426
20
-9.92438985910661
30
0
41
1
10
43.7531707370357
20
-9.97251147778701
30
0
41
1
10
43.7870232375605
20
-10.0223691817739
30
0
41
1
10
43.822317680193
20
-10.0739408843165
30
0
41
1
10
43.8590862644808
20
-10.1271963023845
30
0
41
1
10
43.8973583451927
20
-10.182104030438
30
0
41
1
10
43.9371622381744
20
-10.2386293373345
30
0
41
1
10
43.978524355768
20
-10.2967345874364
30
0
41
1
10
44.0214690801329
20
-10.3563789209788
30
0
41
1
10
44.0660184123456
20
-10.4175181447003
30
0
41
1
10
44.1121916687312
20
-10.4801045657334
30
0
41
1
10
44.1600051484217
20
-10.544086844993
30
0
41
1
10
44.2094717940271
20
-10.6094098498263
30
0
41
1
10
44.2606008399489
20
-10.6760145127313
30
0
41
1
10
44.3133974507334
20
-10.7438376958789
30
0
41
1
10
44.3678623497024
20
-10.8128120614317
30
0
41
1
10
44.4239914393894
20
-10.8828659545583
30
0
41
1
10
44.4817754132064
20
-10.9539232773068
30
0
41
1
10
44.5411993660697
20
-11.0259034435992
30
0
41
1
10
44.6022423805775
20
-11.0987210718867
30
0
41
1
10
44.6648771864959
20
-11.1722867488119
30
0
41
1
10
44.7290695242584
20
-11.2465037211541
30
0
41
1
10
44.79477864643
20
-11.3212803641383
30
0
41
1
10
44.8619534392633
20
-11.3964819167968
30
0
41
1
10
44.9305454299242
20
-11.4721161998842
30
0
41
1
10
44.9766952681071
20
-11.52195701538
30
0
41
1
10
45
20
-11.5471256159253
30
0
0
SPLINE
5
2DA
100
AcDbEntity
8
1
62
256
6
ByLayer
370
13
48
1
60
0
100
AcDbSpline
70
4
71
3
72
8
73
4
40
0
40
0
40
0
40
0
40
1
40
1
40
1
40
1
41
1
10
198.276604848745
20
7.82585108762581
30
0
41
1
10
198.277068275803
20
7.82774808803799
30
0
41
1
10
198.277575615061
20
7.82963557675339
30
0
41
1
10
198.278125613045
20
7.83151383917721
30
0
0
SPLINE
5
2DB
100
AcDbEntity
8
1
62
256
6
ByLayer
370
13
48
1
60
0
100
AcDbSpline
70
4
71
3
72
8
73
4
40
0
40
0
40
0
40
0
40
1
40
1
40
1
40
1
41
1
10
198.173024066088
20
7.4197468492541
30
0
41
1
10
198.209124805373
20
7.55485818419584
30
0
41
1
10
198.243479301385
20
7.69025439335334
30
0
41
1
10
198.276604848745
20
7.82585108762581
30
0
0
SPLINE
5
2DC
100
AcDbEntity
8
1
62
256
6
ByLayer
370
13
48
1
60
0
100
AcDbSpline
70
4
71
3
72
12
73
8
40
0
40
0
40
0
40
0
40
0.5
40
0.5
40
0.75
40
0.75
40
1
40
1
40
1
40
1
41
1
10
198.831243715952
20
9.93638056868903
30
0
41
1
10
198.97918152719
20
9.94207621077913
30
0
41
1
10
199.125959710037
20
9.94229640195874
30
0
41
1
10
199.344324079352
20
9.93390283928235
30
0
41
1
10
199.416696553453
20
9.9296386653304
30
0
41
1
10
199.55883329016
20
9.91827985127364
30
0
41
1
10
199.62884681673
20
9.91117784469768
30
0
41
1
10
199.697821530204
20
9.90265916850697
30
0
0
SPLINE
5
2DD
100
AcDbEntity
8
1
62
256
6
ByLayer
370
13
48
1
60
0
100
AcDbSpline
70
4
71
3
72
56
73
52
40
0
40
0
40
0
40
0
40
0.0296759877338148
40
0.0296759877338148
40
0.0397835295282542
40
0.0397835295282542
40
0.0498910713226937
40
0.0498910713226937
40
0.0599986131171331
40
0.0599986131171331
40
0.0701061549115725
40
0.0701061549115725
40
0.11053632208933
40
0.11053632208933
40
0.130751405678209
40
0.130751405678209
40
0.150966489267087
40
0.150966489267087
40
0.191396656444845
40
0.191396656444845
40
0.231826823622603
40
0.231826823622603
40
0.272256990800361
40
0.272256990800361
40
0.312687157978118
40
0.312687157978118
40
0.353117325155876
40
0.353117325155876
40
0.393547492333634
40
0.393547492333634
40
0.433977659511392
40
0.433977659511392
40
0.474407826689149
40
0.474407826689149
40
0.494622910278028
40
0.494622910278028
40
0.514837993866907
40
0.514837993866907
40
0.535053077455786
40
0.535053077455786
40
0.555268161044665
40
0.555268161044665
40
0.595698328222422
40
0.595698328222422
40
0.676558662577938
40
0.676558662577938
40
0.757418996933453
40
0.757418996933453
40
0.838279331288969
40
0.838279331288969
40
1
40
1
40
1
40
1
41
1
10
159.922587745331
20
-17.1561124518819
30
0
41
1
10
158.864773956321
20
-17.4040384625974
30
0
41
1
10
157.806888932395
20
-17.6402919265768
30
0
41
1
10
156.389293102097
20
-17.9324554064009
30
0
41
1
10
156.029127432987
20
-18.0045630132294
30
0
41
1
10
155.308641664547
20
-18.1438980461424
30
0
41
1
10
154.948307394406
20
-18.2111564683759
30
0
41
1
10
154.226962074438
20
-18.3418677802888
30
0
41
1
10
153.865942772374
20
-18.4053651673461
30
0
41
1
10
153.142798002386
20
-18.5295631178259
30
0
41
1
10
152.780698642444
20
-18.590139193393
30
0
41
1
10
150.967238953272
20
-18.8838948305732
30
0
41
1
10
149.506434035049
20
-19.0872338709859
30
0
41
1
10
147.299256904623
20
-19.3510457241003
30
0
41
1
10
146.560906499489
20
-19.4321329118414
30
0
41
1
10
145.078890628003
20
-19.5816760816511
30
0
41
1
10
144.334942593259
20
-19.6501545983583
30
0
41
1
10
142.097014880112
20
-19.8381583808418
30
0
41
1
10
140.598317744446
20
-19.9395250204698
30
0
41
1
10
137.588176511263
20
-20.1025166711821
30
0
41
1
10
136.076749748176
20
-20.1643331172026
30
0
41
1
10
133.041987833818
20
-20.2577170642535
30
0
41
1
10
131.518892611765
20
-20.2891714966353
30
0
41
1
10
128.459361856155
20
-20.333650099338
30
0
41
1
10
126.922376108206
20
-20.3471357588752
30
0
41
1
10
123.842075265191
20
-20.3601157193913
30
0
41
1
10
122.297671802717
20
-20.3586256082269
30
0
41
1
10
119.199681626217
20
-20.3490138618503
30
0
41
1
10
117.646106762765
20
-20.3421538925026
30
0
41
1
10
114.529986781084
20
-20.3250764702216
30
0
41
1
10
112.966838756667
20
-20.3143711155375
30
0
41
1
10
109.834409994827
20
-20.291262172105
30
0
41
1
10
108.266841888505
20
-20.2786556259596
30
0
41
1
10
105.913508030903
20
-20.2709956854774
30
0
41
1
10
105.128734739388
20
-20.2703790627927
30
0
41
1
10
103.558546606273
20
-20.2754362526068
30
0
41
1
10
102.773209878708
20
-20.2809905525501
30
0
41
1
10
101.202718414407
20
-20.2858012240089
30
0
41
1
10
100.417470460473
20
-20.2852500220934
30
0
41
1
10
98.8469726545999
20
-20.2829145745488
30
0
41
1
10
98.0617229276441
20
-20.281426004649
30
0
41
1
10
95.7059727846793
20
-20.277574081761
30
0
41
1
10
94.1354714633707
20
-20.2759525403217
30
0
41
1
10
89.423970743818
20
-20.2746841426949
30
0
41
1
10
86.2829732294231
20
-20.2749612734103
30
0
41
1
10
80.0009774233017
20
-20.2738536760801
30
0
41
1
10
76.8599796736122
20
-20.2728218265761
30
0
41
1
10
70.5779838923877
20
-20.2728126401517
30
0
41
1
10
67.4369859027918
20
-20.2738947523059
30
0
41
1
10
58.0139920305057
20
-20.2755943459389
30
0
41
1
10
51.7319960082627
20
-20.2749526296628
30
0
41
1
10
45.4499999999999
20
-20.2747330138239
30
0
0
SPLINE
5
2DE
100
AcDbEntity
8
1
62
256
6
ByLayer
370
13
48
1
60
0
100
AcDbSpline
70
4
71
3
72
10
73
6
40
0
40
0
40
0
40
0
40
0.5
40
0.5
40
1
40
1
40
1
40
1
41
1
10
194.246632880478
20
2.61786891974245
30
0
41
1
10
193.055262475674
20
3.14870952134621
30
0
41
1
10
191.868285799437
20
3.69442990873557
30
0
41
1
10
189.502262328242
20
4.81272599169529
30
0
41
1
10
188.323220336566
20
5.38531795404492
30
0
41
1
10
187.147887183026
20
5.97047025464028
30
0
0
SPLINE
5
2DF
100
AcDbEntity
8
1
62
256
6
ByLayer
370
13
48
1
60
0
100
AcDbSpline
70
4
71
3
72
8
73
4
40
0
40
0
40
0
40
0
40
1
40
1
40
1
40
1
41
1
10
199.969933823941
20
6.58461394569565
30
0
41
1
10
199.394532471403
20
6.89455050141811
30
0
41
1
10
198.793210879475
20
7.16977918536958
30
0
41
1
10
198.173024066081
20
7.41974684924421
30
0
0
SPLINE
5
2E0
100
AcDbEntity
8
1
62
256
6
ByLayer
370
13
48
1
60
0
100
AcDbSpline
70
4
71
3
72
8
73
4
40
0
40
0
40
0
40
0
40
1
40
1
40
1
40
1
41
1
10
201.087713926931
20
4.41892013236151
30
0
41
1
10
201.317282228204
20
4.35317895827254
30
0
41
1
10
201.544969624287
20
4.28813302917459
30
0
41
1
10
201.770718497109
20
4.22380364261949
30
0
0
SPLINE
5
2E1
100
AcDbEntity
8
1
62
256
6
ByLayer
370
13
48
1
60
0
100
AcDbSpline
70
4
71
3
72
8
73
4
40
0
40
0
40
0
40
0
40
1
40
1
40
1
40
1
41
1
10
202.900809752592
20
14.585942200363
30
0
41
1
10
202.886940997104
20
14.5592019640403
30
0
41
1
10
202.871597586549
20
14.535141551283
30
0
41
1
10
202.85566143541
20
14.5136381763104
30
0
0
SPLINE
5
2E2
100
AcDbEntity
8
1
62
256
6
ByLayer
370
13
48
1
60
0
100
AcDbSpline
70
4
71
3
72
10
73
6
40
0
40
0
40
0
40
0
40
0.5
40
0.5
40
1
40
1
40
1
40
1
41
1
10
219.393892195738
20
-4.19796479944358
30
0
41
1
10
219.449483676779
20
-4.49508087665822
30
0
41
1
10
219.483997802654
20
-4.79161837405289
30
0
41
1
10
219.513616157324
20
-5.38334936318407
30
0
41
1
10
219.508711758895
20
-5.67854352254309
30
0
41
1
10
219.484226762355
20
-5.97302438850483
30
0
0
SPLINE
5
2E3
100
AcDbEntity
8
1
62
256
6
ByLayer
370
13
48
1
60
0
100
AcDbSpline
70
4
71
3
72
8
73
4
40
0
40
0
40
0
40
0
40
1
40
1
40
1
40
1
41
1
10
195.402965146887
20
19.2703758137549
30
0
41
1
10
195.648270588667
20
19.672693969811
30
0
41
1
10
195.886569680397
20
20.0793387552168
30
0
41
1
10
196.118442822558
20
20.4896154922742
30
0
0
SPLINE
5
2E4
100
AcDbEntity
8
1
62
256
6
ByLayer
370
13
48
1
60
0
100
AcDbSpline
70
4
71
3
72
10
73
6
40
0
40
0
40
0
40
0
40
0.5
40
0.5
40
1
40
1
40
1
40
1
41
1
10
196.565395438816
20
1.70189114732142
30
0
41
1
10
196.173888841159
20
1.84126386314799
30
0
41
1
10
195.784262992752
20
1.98565459231011
30
0
41
1
10
195.010676011106
20
2.28929060649239
30
0
41
1
10
194.626708058212
20
2.44851828354291
30
0
41
1
10
194.246632880457
20
2.61786891975203
30
0
0
SPLINE
5
2E5
100
AcDbEntity
8
1
62
256
6
ByLayer
370
13
48
1
60
0
100
AcDbSpline
70
4
71
3
72
28
73
24
40
0
40
0
40
0
40
0
40
0.123823709910752
40
0.123823709910752
40
0.247647419821505
40
0.247647419821505
40
0.371471129732257
40
0.371471129732257
40
0.49529483964301
40
0.49529483964301
40
0.619118549553762
40
0.619118549553762
40
0.742942259464514
40
0.742942259464514
40
0.804854114419892
40
0.804854114419892
40
0.866765969375269
40
0.866765969375269
40
0.928677824330646
40
0.928677824330646
40
0.990589679286023
40
0.990589679286023
40
1
40
1
40
1
40
1
41
1
10
195.402965146875
20
19.2703758137616
30
0
41
1
10
193.918903028105
20
19.3783199433755
30
0
41
1
10
192.435525846767
20
19.4563381556086
30
0
41
1
10
189.468044074298
20
19.5492443303855
30
0
41
1
10
187.983815527407
20
19.5637966441592
30
0
41
1
10
185.017048285175
20
19.531803986993
30
0
41
1
10
183.533889504574
20
19.4853282461762
30
0
41
1
10
180.565848707084
20
19.3341941743503
30
0
41
1
10
179.083202833707
20
19.2298576217776
30
0
41
1
10
176.119688592531
20
18.9624045843114
30
0
41
1
10
174.638678848095
20
18.7992350612891
30
0
41
1
10
171.676043533138
20
18.412731296178
30
0
41
1
10
170.194425662647
20
18.189570848205
30
0
41
1
10
167.969737339115
20
17.8072317557586
30
0
41
1
10
167.227511928757
20
17.6714483347907
30
0
41
1
10
165.743387593211
20
17.3860951854141
30
0
41
1
10
165.001607290797
20
17.2368655895328
30
0
41
1
10
163.518148571194
20
16.9295394625525
30
0
41
1
10
162.776473361398
20
16.7713989104401
30
0
41
1
10
161.293041136275
20
16.450100850747
30
0
41
1
10
160.551336910247
20
16.2868119132024
30
0
41
1
10
159.694310762151
20
16.0902050915881
30
0
41
1
10
159.581173279071
20
16.0640876998054
30
0
41
1
10
159.467980325232
20
16.0378159352536
30
0
0
SPLINE
5
2E6
100
AcDbEntity
8
1
62
256
6
ByLayer
370
13
48
1
60
0
100
AcDbSpline
70
4
71
3
72
10
73
6
40
0
40
0
40
0
40
0
40
0.5
40
0.5
40
1
40
1
40
1
40
1
41
1
10
195.40296514689
20
19.2703758137605
30
0
41
1
10
195.919349775871
20
18.2995579334283
30
0
41
1
10
196.485692054772
20
17.361544673941
30
0
41
1
10
197.73484606715
20
15.5619976591742
30
0
41
1
10
198.417742224999
20
14.7005193410404
30
0
41
1
10
199.166122012853
20
13.8820407568265
30
0
0
SPLINE
5
2E7
100
AcDbEntity
8
1
62
256
6
ByLayer
370
13
48
1
60
0
100
AcDbSpline
70
4
71
3
72
8
73
4
40
0
40
0
40
0
40
0
40
1
40
1
40
1
40
1
41
1
10
220.03777973603
20
0.583767106443048
30
0
41
1
10
220.185503406759
20
0.606299165999076
30
0
41
1
10
220.332021776336
20
0.614460846964818
30
0
41
1
10
220.478737105242
20
0.610311584116147
30
0
0
SPLINE
5
2E8
100
AcDbEntity
8
1
62
256
6
ByLayer
370
13
48
1
60
0
100
AcDbSpline
70
4
71
3
72
14
73
10
40
0
40
0
40
0
40
0
40
0.25
40
0.25
40
0.5
40
0.5
40
0.75
40
0.75
40
1
40
1
40
1
40
1
41
1
10
220.060771020931
20
0.666913126667424
30
0
41
1
10
220.061884163744
20
0.717299978621355
30
0
41
1
10
220.063866141437
20
0.764134595902107
30
0
41
1
10
220.069456479146
20
0.84737581668017
30
0
41
1
10
220.072984409912
20
0.882823786277214
30
0
41
1
10
220.081443956602
20
0.940098670058063
30
0
41
1
10
220.086179942138
20
0.960709323137621
30
0
41
1
10
220.096683341927
20
0.985575708074265
30
0
41
1
10
220.102199477881
20
0.989189443400022
30
0
41
1
10
220.107938066768
20
0.983820354217443
30
0
0
SPLINE
5
2E9
100
AcDbEntity
8
1
62
256
6
ByLayer
370
13
48
1
60
0
100
AcDbSpline
70
4
71
3
72
18
73
14
40
0
40
0
40
0
40
0
40
0.250000000000043
40
0.250000000000043
40
0.375000000000053
40
0.375000000000053
40
0.500000000000063
40
0.500000000000063
40
0.750000000000084
40
0.750000000000084
40
0.875000000000042
40
0.875000000000042
40
1
40
1
40
1
40
1
41
1
10
207.698222874135
20
6.16987914983798
30
0
41
1
10
207.692902324299
20
6.16960031163651
30
0
41
1
10
207.69416626852
20
6.17985876376926
30
0
41
1
10
207.70943136418
20
6.20827709463541
30
0
41
1
10
207.716790018653
20
6.21978160341058
30
0
41
1
10
207.736732277843
20
6.24527996299048
30
0
41
1
10
207.749583358612
20
6.25952474788724
30
0
41
1
10
207.795666620216
20
6.30199175663603
30
0
41
1
10
207.837854314285
20
6.33068449576348
30
0
41
1
10
207.911143279684
20
6.36186976464342
30
0
41
1
10
207.937655393471
20
6.37054774692021
30
0
41
1
10
207.991800116248
20
6.38302928497353
30
0
41
1
10
208.019665439616
20
6.38698410732715
30
0
41
1
10
208.048333783951
20
6.38850211793957
30
0
0
SPLINE
5
2EA
100
AcDbEntity
8
1
62
256
6
ByLayer
370
13
48
1
60
0
100
AcDbSpline
70
4
71
3
72
12
73
8
40
0
40
0
40
0
40
0
40
0.322981077902005
40
0.322981077902005
40
0.661490538951003
40
0.661490538951003
40
1
40
1
40
1
40
1
41
1
10
45.4501096576315
20
-7.41948223884268
30
0
41
1
10
45.4500405700473
20
-7.81903352257069
30
0
41
1
10
45.4499743034058
20
-8.26088383283761
30
0
41
1
10
45.4498525369181
20
-9.19831052224265
30
0
41
1
10
45.4497977451437
20
-9.69516187491186
30
0
41
1
10
45.4497104182458
20
-10.6577067081783
30
0
41
1
10
45.4496779092211
20
-11.1231125211866
30
0
41
1
10
45.4496586950984
20
-11.5420082117527
30
0
0
SPLINE
5
2EB
100
AcDbEntity
8
1
62
256
6
ByLayer
370
13
48
1
60
0
100
AcDbSpline
70
4
71
3
72
8
73
4
40
0
40
0
40
0
40
0
40
1
40
1
40
1
40
1
41
1
10
198.107106212144
20
-0.522017980192828
30
0
41
1
10
198.389362336078
20
-0.56509026323647
30
0
41
1
10
198.671691058938
20
-0.594490748987909
30
0
41
1
10
198.954080042419
20
-0.610250382000459
30
0
0
SPLINE
5
2EC
100
AcDbEntity
8
1
62
256
6
ByLayer
370
13
48
1
60
0
100
AcDbSpline
70
2053
71
3
72
94
73
90
40
0
40
0
40
0
40
0
40
0.031250000000011
40
0.031250000000011
40
0.0468750000000134
40
0.0468750000000134
40
0.0625000000000159
40
0.0625000000000159
40
0.0937500000000152
40
0.0937500000000152
40
0.109375000000017
40
0.109375000000017
40
0.125000000000019
40
0.140625000000022
40
0.140625000000022
40
0.156250000000024
40
0.156250000000024
40
0.187500000000025
40
0.187500000000025
40
0.218750000000025
40
0.218750000000025
40
0.250000000000026
40
0.250000000000026
40
0.265625000000026
40
0.265625000000026
40
0.281250000000026
40
0.281250000000026
40
0.312500000000027
40
0.312500000000027
40
0.328125000000028
40
0.328125000000028
40
0.343750000000028
40
0.343750000000028
40
0.375000000000032
40
0.375000000000032
40
0.406250000000036
40
0.406250000000036
40
0.421875000000038
40
0.421875000000038
40
0.43750000000004
40
0.43750000000004
40
0.468750000000044
40
0.468750000000044
40
0.484375000000049
40
0.484375000000049
40
0.500000000000054
40
0.500000000000054
40
0.531250000000058
40
0.531250000000058
40
0.54687500000006
40
0.54687500000006
40
0.562500000000062
40
0.578125000000064
40
0.578125000000064
40
0.593750000000066
40
0.593750000000066
40
0.625000000000069
40
0.625000000000069
40
0.640625000000069
40
0.640625000000069
40
0.656250000000069
40
0.656250000000069
40
0.687500000000066
40
0.687500000000066
40
0.718750000000062
40
0.718750000000062
40
0.73437500000006
40
0.73437500000006
40
0.750000000000058
40
0.750000000000058
40
0.781250000000053
40
0.781250000000053
40
0.796875000000051
40
0.796875000000051
40
0.812500000000049
40
0.812500000000049
40
0.843750000000045
40
0.843750000000045
40
0.875000000000041
40
0.875000000000041
40
0.906250000000038
40
0.906250000000038
40
0.921875000000033
40
0.921875000000033
40
0.937500000000029
40
0.937500000000029
40
0.968750000000014
40
0.968750000000014
40
1
40
1
40
1
40
1
41
1
10
213.00278911351
20
-2.70786978129056
30
0
41
1
10
213.146233174848
20
-2.70786978129056
30
0
41
1
10
213.287113712012
20
-2.72273383099324
30
0
41
1
10
213.494751823054
20
-2.76636507031782
30
0
41
1
10
213.563345757575
20
-2.78449323057848
30
0
41
1
10
213.699263816408
20
-2.82809778484216
30
0
41
1
10
213.766321553779
20
-2.8535389946874
30
0
41
1
10
213.96101017072
20
-2.93906104139316
30
0
41
1
10
214.083720362097
20
-3.00870415060669
30
0
41
1
10
214.257211009219
20
-3.13194213678429
30
0
41
1
10
214.31345870006
20
-3.17638616802617
30
0
41
1
10
214.419993391847
20
-3.26968559577017
30
0
41
1
10
214.521141775465
20
-3.36773343018544
30
0
41
1
10
214.611827606089
20
-3.47496901872503
30
0
41
1
10
214.697288416644
20
-3.58677503104462
30
0
41
1
10
214.737589245468
20
-3.64527157343798
30
0
41
1
10
214.849010468135
20
-3.82538361962773
30
0
41
1
10
214.910423884829
20
-3.95075170592193
30
0
41
1
10
215.008905029156
20
-4.21136954297123
30
0
41
1
10
215.046035112248
20
-4.34790924151727
30
0
41
1
10
215.093508017834
20
-4.62118509899753
30
0
41
1
10
215.104368891902
20
-4.75864187137816
30
0
41
1
10
215.101724542594
20
-4.9659990087666
30
0
41
1
10
215.09761813118
20
-5.035647119998
30
0
41
1
10
215.083133708573
20
-5.17317368016816
30
0
41
1
10
215.072790940972
20
-5.24113577515558
30
0
41
1
10
215.032721720442
20
-5.44269485518592
30
0
41
1
10
214.994039123357
20
-5.57398389024394
30
0
41
1
10
214.917564305288
20
-5.76624342875462
30
0
41
1
10
214.88894697211
20
-5.82950550452219
30
0
41
1
10
214.826600055778
20
-5.95194614983342
30
0
41
1
10
214.792749986815
20
-6.0114531427599
30
0
41
1
10
214.683198543167
20
-6.18489091074659
30
0
41
1
10
214.599585561722
20
-6.29379269756521
30
0
41
1
10
214.409382441537
20
-6.49724642817719
30
0
41
1
10
214.30512360932
20
-6.58912693065921
30
0
41
1
10
214.136791493549
20
-6.71042047652037
30
0
41
1
10
214.07857833326
20
-6.74818261826192
30
0
41
1
10
213.95774988507
20
-6.8181532875727
30
0
41
1
10
213.894834718074
20
-6.85049548300518
30
0
41
1
10
213.701014576863
20
-6.93766264092616
30
0
41
1
10
213.567620379913
20
-6.98173706656016
30
0
41
1
10
213.361207071464
20
-7.02677174772938
30
0
41
1
10
213.291341577575
20
-7.0382449028223
30
0
41
1
10
213.149382694312
20
-7.05377559758981
30
0
41
1
10
213.077564129797
20
-7.05774288739212
30
0
41
1
10
212.86453563757
20
-7.05814410376712
30
0
41
1
10
212.723891626572
20
-7.04342904070344
30
0
41
1
10
212.51498559086
20
-6.99885619107297
30
0
41
1
10
212.445746780394
20
-6.98016892750729
30
0
41
1
10
212.311327087404
20
-6.93624156097832
30
0
41
1
10
212.180075259376
20
-6.88560041696661
30
0
41
1
10
212.054931980928
20
-6.82195950560958
30
0
41
1
10
211.932822057731
20
-6.75183068117425
30
0
41
1
10
211.873364034352
20
-6.71351302589164
30
0
41
1
10
211.703156862703
20
-6.59146462887446
30
0
41
1
10
211.599147592438
20
-6.49998125707316
30
0
41
1
10
211.456610039628
20
-6.34813771623135
30
0
41
1
10
211.411256887461
20
-6.2948863591526
30
0
41
1
10
211.326678864985
20
-6.18548001303515
30
0
41
1
10
211.28723593153
20
-6.12912108848747
30
0
41
1
10
211.177141140193
20
-5.95521142485677
30
0
41
1
10
211.114519965914
20
-5.83255524283908
30
0
41
1
10
211.011957553714
20
-5.57535639041055
30
0
41
1
10
210.973164841844
20
-5.4438613212761
30
0
41
1
10
210.932993795431
20
-5.2423642642095
30
0
41
1
10
210.922628281624
20
-5.17448501449203
30
0
41
1
10
210.908085343783
20
-5.0372606403871
30
0
41
1
10
210.903915882631
20
-4.96755861374317
30
0
41
1
10
210.901138251428
20
-4.75960641022715
30
0
41
1
10
210.9119902131
20
-4.62221683086912
30
0
41
1
10
210.947312928647
20
-4.41803103157946
30
0
41
1
10
210.962281816037
20
-4.35028803752101
30
0
41
1
10
210.998870399104
20
-4.2154776175631
30
0
41
1
10
211.020600231293
20
-4.1482169076952
30
0
41
1
10
211.09460075305
20
-3.9518887553715
30
0
41
1
10
211.155892856531
20
-3.82683451750969
30
0
41
1
10
211.302765722208
20
-3.5887025263836
30
0
41
1
10
211.389553222835
20
-3.47457031516893
30
0
41
1
10
211.581685938436
20
-3.26855934402891
30
0
41
1
10
211.687252744559
20
-3.17572786014557
30
0
41
1
10
211.860259806191
20
-3.05228183852796
30
0
41
1
10
211.920773111226
20
-3.01358821006974
30
0
41
1
10
212.044472486406
20
-2.94320256236486
30
0
41
1
10
212.107729574156
20
-2.91139806048849
30
0
41
1
10
212.301642207001
20
-2.82597355263022
30
0
41
1
10
212.436583224604
20
-2.78219538944407
30
0
41
1
10
212.717256582928
20
-2.72276318666144
30
0
41
1
10
212.859345052172
20
-2.70786978129056
30
0
41
1
10
213.00278911351
20
-2.70786978129056
30
0
0
SPLINE
5
2ED
100
AcDbEntity
8
1
62
256
6
ByLayer
370
13
48
1
60
0
100
AcDbSpline
70
4
71
3
72
32
73
28
40
0
40
0
40
0
40
0
40
0.036504220528736
40
0.036504220528736
40
0.143559307136656
40
0.143559307136656
40
0.197086850440616
40
0.197086850440616
40
0.250614393744575
40
0.250614393744575
40
0.304141937048535
40
0.304141937048535
40
0.357669480352495
40
0.357669480352495
40
0.464724566960412
40
0.464724566960412
40
0.571779653568329
40
0.571779653568329
40
0.625307196872288
40
0.625307196872288
40
0.678834740176246
40
0.678834740176246
40
0.785889826784164
40
0.785889826784164
40
0.892944913392082
40
0.892944913392082
40
1
40
1
40
1
40
1
41
1
10
160.489193036506
20
-17.2819508157931
30
0
41
1
10
159.967962507048
20
-17.4094601055473
30
0
41
1
10
159.446855268992
20
-17.5339647700642
30
0
41
1
10
157.398571247234
20
-18.0103191653213
30
0
41
1
10
155.872398970323
20
-18.3365597979281
30
0
41
1
10
153.573796716213
20
-18.7724344696387
30
0
41
1
10
152.805949456181
20
-18.9087938227112
30
0
41
1
10
151.264549361752
20
-19.1625768852102
30
0
41
1
10
150.490866787996
20
-19.2799118460229
30
0
41
1
10
148.937247318961
20
-19.4969437767643
30
0
41
1
10
148.157332449442
20
-19.5966615043115
30
0
41
1
10
146.591146436928
20
-19.7800437748394
30
0
41
1
10
145.804589702868
20
-19.8637349871139
30
0
41
1
10
143.437135824475
20
-20.0927742190304
30
0
41
1
10
141.850481792442
20
-20.2158375817432
30
0
41
1
10
138.660123572628
20
-20.4158112598483
30
0
41
1
10
137.056593504366
20
-20.4928782949718
30
0
41
1
10
134.63973508964
20
-20.5827459712184
30
0
41
1
10
133.832189586623
20
-20.6083913048207
30
0
41
1
10
132.213408645709
20
-20.6522629893464
30
0
41
1
10
131.402004410652
20
-20.6704813553686
30
0
41
1
10
128.96277771834
20
-20.7154268535551
30
0
41
1
10
127.33184472302
20
-20.7323986290536
30
0
41
1
10
124.058348474834
20
-20.7491099421512
30
0
41
1
10
122.415648849259
20
-20.748900899737
30
0
41
1
10
119.11736288832
20
-20.7401497500113
30
0
41
1
10
117.461884732109
20
-20.7316318073344
30
0
41
1
10
115.8
20
-20.7224260692389
30
0
0
SPLINE
5
2EE
100
AcDbEntity
8
1
62
256
6
ByLayer
370
13
48
1
60
0
100
AcDbSpline
70
4
71
3
72
18
73
14
40
0
40
0
40
0
40
0
40
0.249999999999996
40
0.249999999999996
40
0.499999999999992
40
0.499999999999992
40
0.562499999999993
40
0.562499999999993
40
0.624999999999994
40
0.624999999999994
40
0.749999999999996
40
0.749999999999996
40
1
40
1
40
1
40
1
41
1
10
201.770718497109
20
4.2238036426194
30
0
41
1
10
202.341945421728
20
4.06102684916507
30
0
41
1
10
202.914777743432
20
3.94719965383234
30
0
41
1
10
204.064685466757
20
3.80834923462959
30
0
41
1
10
204.641754329364
20
3.78340477665768
30
0
41
1
10
205.366376628387
20
3.80762802828502
30
0
41
1
10
205.511641474061
20
3.81528033936866
30
0
41
1
10
205.800945620218
20
3.83610095720448
30
0
41
1
10
205.945128695239
20
3.84926727179925
30
0
41
1
10
206.376298420614
20
3.89696647820321
30
0
41
1
10
206.661909202309
20
3.93968579167162
30
0
41
1
10
207.513322845387
20
4.10057827797274
30
0
41
1
10
208.073776184431
20
4.25125821545751
30
0
41
1
10
208.626556986783
20
4.44797426213623
30
0
0
SPLINE
5
2EF
100
AcDbEntity
8
1
62
256
6
ByLayer
370
13
48
1
60
0
100
AcDbSpline
70
4
71
3
72
16
73
12
40
0
40
0
40
0
40
0
40
0.25
40
0.25
40
0.5
40
0.5
40
0.75
40
0.75
40
0.875
40
0.875
40
1
40
1
40
1
40
1
41
1
10
208.626556986783
20
4.44797426213629
30
0
41
1
10
208.933710348638
20
4.5572797857927
30
0
41
1
10
209.231460929589
20
4.64755102890294
30
0
41
1
10
209.8109552353
20
4.79926107392478
30
0
41
1
10
210.092647372695
20
4.86060823450697
30
0
41
1
10
210.640469141075
20
4.96028633248756
30
0
41
1
10
210.90657881944
20
4.9985788969434
30
0
41
1
10
211.293518389656
20
5.04214972844062
30
0
41
1
10
211.420396123402
20
5.05434153284622
30
0
41
1
10
211.668414806645
20
5.0745163944346
30
0
41
1
10
211.789757741661
20
5.08252335630667
30
0
41
1
10
211.908409439064
20
5.08874162827584
30
0
0
SPLINE
5
2F0
100
AcDbEntity
8
1
62
256
6
ByLayer
370
13
48
1
60
0
100
AcDbSpline
70
4
71
3
72
8
73
4
40
0
40
0
40
0
40
0
40
1
40
1
40
1
40
1
41
1
10
206.538118329176
20
6.07975548921266
30
0
41
1
10
206.565910625824
20
6.08068254106112
30
0
41
1
10
206.594332477491
20
6.08049284834047
30
0
41
1
10
206.622237410308
20
6.07908296571415
30
0
0
SPLINE
5
2F1
100
AcDbEntity
8
1
62
256
6
ByLayer
370
13
48
1
60
0
100
AcDbSpline
70
4
71
3
72
58
73
54
40
0
40
0
40
0
40
0
40
0.0312500000000032
40
0.0312500000000032
40
0.0625000000000063
40
0.0625000000000063
40
0.0937500000000095
40
0.0937500000000095
40
0.109375000000011
40
0.109375000000011
40
0.125000000000012
40
0.125000000000012
40
0.140625000000013
40
0.140625000000013
40
0.156250000000014
40
0.156250000000014
40
0.171875000000015
40
0.171875000000015
40
0.179687500000015
40
0.179687500000015
40
0.187500000000015
40
0.187500000000015
40
0.218750000000014
40
0.218750000000014
40
0.250000000000013
40
0.250000000000013
40
0.281250000000012
40
0.281250000000012
40
0.312500000000012
40
0.312500000000012
40
0.37500000000001
40
0.37500000000001
40
0.437500000000008
40
0.437500000000008
40
0.500000000000007
40
0.500000000000007
40
0.562500000000005
40
0.562500000000005
40
0.593750000000005
40
0.593750000000005
40
0.625000000000005
40
0.625000000000005
40
0.687500000000003
40
0.687500000000003
40
0.718750000000002
40
0.718750000000002
40
0.750000000000001
40
0.750000000000001
40
0.812500000000001
40
0.812500000000001
40
0.875
40
0.875
40
1
40
1
40
1
40
1
41
1
10
191.165729576648
20
-20.6213226848159
30
0
41
1
10
190.349481288351
20
-20.6113187805551
30
0
41
1
10
189.531877461412
20
-20.6021609040464
30
0
41
1
10
187.896125932814
20
-20.5837263121678
30
0
41
1
10
187.077948917849
20
-20.5744816770604
30
0
41
1
10
185.443374991816
20
-20.5529285533357
30
0
41
1
10
184.627021321901
20
-20.5405965408375
30
0
41
1
10
183.406025444882
20
-20.51605435271
30
0
41
1
10
182.999274769874
20
-20.5068427750053
30
0
41
1
10
182.189413483338
20
-20.4855874694077
30
0
41
1
10
181.786281189185
20
-20.4735654168274
30
0
41
1
10
180.984688287615
20
-20.4455542274545
30
0
41
1
10
180.58623398506
20
-20.4295663970068
30
0
41
1
10
179.795270703625
20
-20.3919701286024
30
0
41
1
10
179.402863746384
20
-20.3702872314439
30
0
41
1
10
178.624599147236
20
-20.3196477700438
30
0
41
1
10
178.238395212458
20
-20.2907473871708
30
0
41
1
10
177.664825914082
20
-20.2408280082405
30
0
41
1
10
177.475119532365
20
-20.2230402844472
30
0
41
1
10
177.097613576452
20
-20.185525426856
30
0
41
1
10
176.909440324015
20
-20.1659892128406
30
0
41
1
10
175.967092441104
20
-20.0667030030556
30
0
41
1
10
175.213731567575
20
-19.9793568195302
30
0
41
1
10
173.706189371743
20
-19.7900225455241
30
0
41
1
10
172.952218265102
20
-19.6879429741695
30
0
41
1
10
171.444640711129
20
-19.4684364327446
30
0
41
1
10
170.690946180408
20
-19.351060325317
30
0
41
1
10
169.183602485146
20
-19.1010462045049
30
0
41
1
10
168.429716798441
20
-18.9683222818914
30
0
41
1
10
166.169925941309
20
-18.547843561801
30
0
41
1
10
164.665819499168
20
-18.2379692523093
30
0
41
1
10
161.652759268178
20
-17.5721656587897
30
0
41
1
10
160.143731956004
20
-17.2163405451103
30
0
41
1
10
157.111033400354
20
-16.4777308959923
30
0
41
1
10
155.587623965445
20
-16.0947716543553
30
0
41
1
10
152.523608162752
20
-15.313935022948
30
0
41
1
10
150.98302429541
20
-14.916007316697
30
0
41
1
10
148.656826565115
20
-14.3181532403665
30
0
41
1
10
147.879117465188
20
-14.1187844428644
30
0
41
1
10
146.320551867479
20
-13.7221946310919
30
0
41
1
10
145.539424473522
20
-13.5249058261894
30
0
41
1
10
143.189895616954
20
-12.9388627245466
30
0
41
1
10
141.615375500587
20
-12.5558673562983
30
0
41
1
10
139.23975415005
20
-12.0022450592379
30
0
41
1
10
138.445434547678
20
-11.8211576631047
30
0
41
1
10
136.853666811585
20
-11.4679219022273
30
0
41
1
10
136.056025785284
20
-11.295727157658
30
0
41
1
10
133.657474687695
20
-10.79477024701
30
0
41
1
10
132.050953859313
20
-10.4816495708009
30
0
41
1
10
128.824886553063
20
-9.89496395553715
30
0
41
1
10
127.205331490804
20
-9.62139128130386
30
0
41
1
10
122.338040054621
20
-8.85710583042058
30
0
41
1
10
119.078766891573
20
-8.42117561496931
30
0
41
1
10
115.8
20
-8.09854813278568
30
0
0
SPLINE
5
2F2
100
AcDbEntity
8
1
62
256
6
ByLayer
370
13
48
1
60
0
100
AcDbSpline
70
4
71
3
72
18
73
14
40
0
40
0
40
0
40
0
40
0.124999999999999
40
0.124999999999999
40
0.249999999999998
40
0.249999999999998
40
0.374999999999997
40
0.374999999999997
40
0.499999999999996
40
0.499999999999996
40
0.749999999999998
40
0.749999999999998
40
1
40
1
40
1
40
1
41
1
10
4.5
20
4.071
30
0
41
1
10
4.53313786373266
20
4.071
30
0
41
1
10
4.56571437152503
20
4.06773825503476
30
0
41
1
10
4.62979178235618
20
4.0549642196203
30
0
41
1
10
4.66163009287776
20
4.0452922126251
30
0
41
1
10
4.72224769381357
20
4.02009169717891
30
0
41
1
10
4.75098493959378
20
4.0046780359489
30
0
41
1
10
4.80534965726011
20
3.9682803362596
30
0
41
1
10
4.83103465192988
20
3.94713512033869
30
0
41
1
10
4.90005538657958
20
3.87792338749412
30
0
41
1
10
4.93715614492459
20
3.82221744830628
30
0
41
1
10
4.98681993674636
20
3.70223281055104
30
0
41
1
10
5
20
3.63682791353096
30
0
41
1
10
5
20
3.571
30
0
0
SPLINE
5
2F3
100
AcDbEntity
8
1
62
256
6
ByLayer
370
13
48
1
60
0
100
AcDbSpline
70
4
71
1
72
4
73
2
40
0
40
0
40
1
40
1
41
1
10
45.0099999984366
20
-20.2748858511943
30
0
41
1
10
45.0100000015633
20
-20.2884360437012
30
0
0
SPLINE
5
2F4
100
AcDbEntity
8
1
62
256
6
ByLayer
370
13
48
1
60
0
100
AcDbSpline
70
4
71
3
72
8
73
4
40
0
40
0
40
0
40
0
40
1
40
1
40
1
40
1
41
1
10
45
20
20.9624999998046
30
0
41
1
10
44.8213363991205
20
20.9624999998046
30
0
41
1
10
44.6427036075008
20
20.9646595873857
30
0
41
1
10
44.4641016151372
20
20.9689780612611
30
0
0
SPLINE
5
2F5
100
AcDbEntity
8
1
62
256
6
ByLayer
370
13
48
1
60
0
100
AcDbSpline
70
4
71
3
72
8
73
4
40
0
40
0
40
0
40
0
40
1
40
1
40
1
40
1
41
1
10
50
20
-7.42515168673151
30
0
41
1
10
48.3333326495525
20
-7.42489107871776
30
0
41
1
10
46.666665866044
20
-7.42390378423929
30
0
41
1
10
45
20
-7.42174028807753
30
0
0
SPLINE
5
2F6
100
AcDbEntity
8
1
62
256
6
ByLayer
370
13
48
1
60
0
100
AcDbSpline
70
4
71
3
72
23
73
19
40
0
40
0
40
0
40
0
40
0.124999999999999
40
0.124999999999999
40
0.1875
40
0.1875
40
0.25
40
0.25
40
0.312500000000001
40
0.312500000000001
40
0.375000000000001
40
0.375000000000001
40
0.500000000000001
40
0.625
40
0.625
40
0.75
40
0.75
40
1
40
1
40
1
40
1
41
1
10
41.3944621842489
20
-8.11275420822747
30
0
41
1
10
40.7051575596013
20
-8.20412115589636
30
0
41
1
10
40.022209669033
20
-8.32135225878793
30
0
41
1
10
39.0072625891147
20
-8.53574961465245
30
0
41
1
10
38.6705283765671
20
-8.6136500979018
30
0
41
1
10
38.0002428243088
20
-8.7824014751113
30
0
41
1
10
37.6664583017025
20
-8.87334626689201
30
0
41
1
10
37.006709106252
20
-9.06690551373231
30
0
41
1
10
36.6801755413984
20
-9.16965082184711
30
0
41
1
10
36.0337139367961
20
-9.38693613795914
30
0
41
1
10
35.709615008748
20
-9.49402868720736
30
0
41
1
10
34.7338248143917
20
-9.80906856817904
30
0
41
1
10
33.4242710387864
20
-10.2139439776229
30
0
41
1
10
32.0979563366653
20
-10.588891395746
30
0
41
1
10
30.7633347070542
20
-10.9490061222764
30
0
41
1
10
30.0919800523263
20
-11.1216068962464
30
0
41
1
10
28.0695854948075
20
-11.6163288270055
30
0
41
1
10
26.7089130537962
20
-11.915762244716
30
0
41
1
10
25.3359943664468
20
-12.1852139055668
30
0
0
SPLINE
5
2F7
100
AcDbEntity
8
1
62
256
6
ByLayer
370
13
48
1
60
0
100
AcDbSpline
70
4
71
3
72
8
73
4
40
0
40
0
40
0
40
0
40
1
40
1
40
1
40
1
41
1
10
45.45
20
-20.2747329719254
30
0
41
1
10
45.3033333320438
20
-20.2747811277649
30
0
41
1
10
45.1566666652869
20
-20.2748320528579
30
0
41
1
10
45.01
20
-20.2748858511942
30
0
0
SPLINE
5
2F8
100
AcDbEntity
8
1
62
256
6
ByLayer
370
13
48
1
60
0
100
AcDbSpline
70
4
71
3
72
26
73
22
40
0
40
0
40
0
40
0
40
0.249999999999999
40
0.249999999999999
40
0.312499999999998
40
0.312499999999998
40
0.374999999999997
40
0.374999999999997
40
0.499999999999995
40
0.499999999999995
40
0.562499999999996
40
0.562499999999996
40
0.624999999999996
40
0.624999999999996
40
0.749999999999997
40
0.749999999999997
40
0.812499999999998
40
0.812499999999998
40
0.874999999999998
40
0.874999999999998
40
1
40
1
40
1
40
1
41
1
10
18.8425138032909
20
-20.262389408025
30
0
41
1
10
18.5619812256537
20
-20.6005799279413
30
0
41
1
10
18.3430264626994
20
-20.9420781518467
30
0
41
1
10
18.1538498128788
20
-21.3720213410344
30
0
41
1
10
18.1202386223022
20
-21.4583212204316
30
0
41
1
10
18.0627986314761
20
-21.6282500796774
30
0
41
1
10
18.0387940534735
20
-21.7122345902947
30
0
41
1
10
17.980858209104
20
-21.9612447839273
30
0
41
1
10
17.9609063329721
20
-22.1233389160869
30
0
41
1
10
17.9604390894513
20
-22.360394982066
30
0
41
1
10
17.96518087129
20
-22.4383987576294
30
0
41
1
10
17.9846345411068
20
-22.5923259534247
30
0
41
1
10
17.9992555538226
20
-22.6674163506465
30
0
41
1
10
18.0570133768632
20
-22.8863232031042
30
0
41
1
10
18.1140208502549
20
-23.0242468573195
30
0
41
1
10
18.226246277594
20
-23.2196929880028
30
0
41
1
10
18.2681275716456
20
-23.2829280347293
30
0
41
1
10
18.3608983336913
20
-23.4055873931658
30
0
41
1
10
18.4118948128788
20
-23.4650796720837
30
0
41
1
10
18.5764640490764
20
-23.6357044162722
30
0
41
1
10
18.701855772365
20
-23.7398765986529
30
0
41
1
10
18.8421907875233
20
-23.8351173085036
30
0
0
SPLINE
5
2F9
100
AcDbEntity
8
1
62
256
6
ByLayer
370
13
48
1
60
0
100
AcDbSpline
70
4
71
3
72
14
73
10
40
0
40
0
40
0
40
0
40
0.25
40
0.25
40
0.5
40
0.5
40
0.75
40
0.75
40
1
40
1
40
1
40
1
41
1
10
198.657881791353
20
9.82851391861377
30
0
41
1
10
198.661329799048
20
9.84646299066259
30
0
41
1
10
198.670022016536
20
9.86263964158371
30
0
41
1
10
198.693401622742
20
9.88965887335033
30
0
41
1
10
198.708188811134
20
9.90072544914364
30
0
41
1
10
198.740134399001
20
9.91796109343863
30
0
41
1
10
198.757729747032
20
9.92438548518737
30
0
41
1
10
198.793722302523
20
9.9331827899114
30
0
41
1
10
198.812255088238
20
9.9356495890363
30
0
41
1
10
198.831271336667
20
9.93638163202957
30
0
0
SPLINE
5
2FA
100
AcDbEntity
8
1
62
256
6
ByLayer
370
13
48
1
60
0
100
AcDbSpline
70
4
71
3
72
12
73
8
40
0
40
0
40
0
40
0
40
0.25
40
0.25
40
0.5
40
0.5
40
1
40
1
40
1
40
1
41
1
10
199.980651232454
20
9.8734499755077
30
0
41
1
10
200.124521451145
20
9.83584487750042
30
0
41
1
10
200.265612763202
20
9.80620619088802
30
0
41
1
10
200.544392582034
20
9.76020072177585
30
0
41
1
10
200.682515548354
20
9.74366868946765
30
0
41
1
10
201.089067626414
20
9.70912982920242
30
0
41
1
10
201.350843102043
20
9.70533985785335
30
0
41
1
10
201.608010412853
20
9.71313865547231
30
0
0
SPLINE
5
2FB
100
AcDbEntity
8
1
62
256
6
ByLayer
370
13
48
1
60
0
100
AcDbSpline
70
4
71
3
72
14
73
10
40
0
40
0
40
0
40
0
40
0.499999999999996
40
0.499999999999996
40
0.624999999999997
40
0.624999999999997
40
0.749999999999998
40
0.749999999999998
40
1
40
1
40
1
40
1
41
1
10
44.1961524935426
20
-20.9058686377332
30
0
41
1
10
43.7090418179208
20
-20.9239629636052
30
0
41
1
10
43.231737695818
20
-20.9532870219785
30
0
41
1
10
42.6468909389166
20
-21.000555090849
30
0
41
1
10
42.5305183164083
20
-21.0105228096631
30
0
41
1
10
42.2989852323538
20
-21.0313286325056
30
0
41
1
10
42.1834825833954
20
-21.0422020777825
30
0
41
1
10
41.84313549009
20
-21.0754062210385
30
0
41
1
10
41.6234257021675
20
-21.098410771512
30
0
41
1
10
41.4107126712499
20
-21.1212081457896
30
0
0
SPLINE
5
2FC
100
AcDbEntity
8
1
62
256
6
ByLayer
370
13
48
1
60
0
100
AcDbSpline
70
4
71
3
72
24
73
20
40
0
40
0
40
0
40
0
40
0.0625
40
0.0625
40
0.125
40
0.125
40
0.25
40
0.25
40
0.3125
40
0.3125
40
0.375
40
0.375
40
0.5
40
0.5
40
0.625
40
0.625
40
0.75
40
0.75
40
1
40
1
40
1
40
1
41
1
10
115.8
20
-8.09854813278568
30
0
41
1
10
114.435887613022
20
-7.96464431442658
30
0
41
1
10
113.070105375444
20
-7.85063202331469
30
0
41
1
10
110.335101840575
20
-7.66463911188004
30
0
41
1
10
108.965789825146
20
-7.59356892806579
30
0
41
1
10
104.853565814887
20
-7.43488891871831
30
0
41
1
10
102.111303592615
20
-7.4008305246478
30
0
41
1
10
97.9974870284512
20
-7.38938731448431
30
0
41
1
10
96.6261444417433
20
-7.39212290372279
30
0
41
1
10
93.8834435410817
20
-7.39905828946286
30
0
41
1
10
92.512084817378
20
-7.40329907679063
30
0
41
1
10
88.3980114597538
20
-7.41573717914369
30
0
41
1
10
85.6552962012755
20
-7.42298234100636
30
0
41
1
10
80.1698691997404
20
-7.42606464223382
30
0
41
1
10
77.4271569419723
20
-7.42361373942364
30
0
41
1
10
71.9417319973484
20
-7.41982669115171
30
0
41
1
10
69.1990189774092
20
-7.41827363445867
30
0
41
1
10
60.9708730772891
20
-7.41793781326564
30
0
41
1
10
55.4854328878867
20
-7.42535105997859
30
0
41
1
10
50
20
-7.42515168673151
30
0
0
SPLINE
5
2FD
100
AcDbEntity
8
1
62
256
6
ByLayer
370
13
48
1
60
0
100
AcDbSpline
70
4
71
3
72
8
73
4
40
0
40
0
40
0
40
0
40
1
40
1
40
1
40
1
41
1
10
45
20
-7.42174028807753
30
0
41
1
10
44.7318311894044
20
-7.42139217859486
30
0
41
1
10
44.4638826776178
20
-7.42122362219013
30
0
41
1
10
44.1961537633653
20
-7.42123325762941
30
0
0
SPLINE
5
2FE
100
AcDbEntity
8
1
62
256
6
ByLayer
370
13
48
1
60
0
100
AcDbSpline
70
4
71
3
72
48
73
44
40
0
40
0
40
0
40
0
40
0.125
40
0.125
40
0.250000000000001
40
0.250000000000001
40
0.312500000000001
40
0.312500000000001
40
0.375000000000001
40
0.375000000000001
40
0.437500000000002
40
0.437500000000002
40
0.468750000000002
40
0.468750000000002
40
0.500000000000002
40
0.500000000000002
40
0.562499999999998
40
0.562499999999998
40
0.593749999999996
40
0.593749999999996
40
0.609374999999995
40
0.609374999999995
40
0.624999999999994
40
0.624999999999994
40
0.687499999999991
40
0.687499999999991
40
0.71874999999999
40
0.71874999999999
40
0.734374999999989
40
0.734374999999989
40
0.749999999999988
40
0.749999999999988
40
0.812499999999991
40
0.812499999999991
40
0.843749999999993
40
0.843749999999993
40
0.874999999999994
40
0.874999999999994
40
0.906249999999996
40
0.906249999999996
40
0.937499999999997
40
0.937499999999997
40
1
40
1
40
1
40
1
41
1
10
198.798090523566
20
1.49618653900595
30
0
41
1
10
199.543366790048
20
1.37453498135775
30
0
41
1
10
200.29245501087
20
1.26379056056672
30
0
41
1
10
201.803468108941
20
1.07903121674633
30
0
41
1
10
202.565351084993
20
1.0048964019133
30
0
41
1
10
203.723038436208
20
0.936221327059371
30
0
41
1
10
204.111875875256
20
0.920456965768039
30
0
41
1
10
204.893906737173
20
0.906773201772381
30
0
41
1
10
205.283442607923
20
0.908912647719887
30
0
41
1
10
206.059031478929
20
0.934333499185783
30
0
41
1
10
206.445088176623
20
0.957592460258269
30
0
41
1
10
207.021045959198
20
1.01146423427261
30
0
41
1
10
207.213102854954
20
1.03267665382242
30
0
41
1
10
207.592917689252
20
1.08172054086313
30
0
41
1
10
207.78037119946
20
1.10948870531365
30
0
41
1
10
208.334965903738
20
1.20306644399591
30
0
41
1
10
208.694386773996
20
1.27908906923167
30
0
41
1
10
209.215811063511
20
1.41654723910406
30
0
41
1
10
209.386658292139
20
1.46628349775366
30
0
41
1
10
209.638080646422
20
1.54730184752438
30
0
41
1
10
209.72107892271
20
1.57537840457422
30
0
41
1
10
209.885373447419
20
1.6337830948826
30
0
41
1
10
209.966637106327
20
1.66410997650877
30
0
41
1
10
210.36419631051
20
1.81990722557794
30
0
41
1
10
210.657881047908
20
1.9590087189047
30
0
41
1
10
211.059413129251
20
2.19081166972171
30
0
41
1
10
211.186733027327
20
2.2719525891024
30
0
41
1
10
211.367330660818
20
2.39982771923869
30
0
41
1
10
211.425702347376
20
2.44343052630808
30
0
41
1
10
211.537586317188
20
2.53168122549371
30
0
41
1
10
211.591273797274
20
2.57645034467095
30
0
41
1
10
211.84857045092
20
2.80347715971646
30
0
41
1
10
212.018968531025
20
2.99521822046481
30
0
41
1
10
212.221373372656
20
3.29801876604841
30
0
41
1
10
212.280165469982
20
3.40209864725145
30
0
41
1
10
212.377759209097
20
3.61153224380862
30
0
41
1
10
212.416788352623
20
3.71701448625726
30
0
41
1
10
212.47632331781
20
3.9294305442933
30
0
41
1
10
212.496826209316
20
4.03636458950109
30
0
41
1
10
212.519921636777
20
4.25163621818115
30
0
41
1
10
212.522499485997
20
4.36017529623677
30
0
41
1
10
212.503886334885
20
4.68657256451729
30
0
41
1
10
212.456914522103
20
4.9012732105858
30
0
41
1
10
212.379776633021
20
5.1134449361227
30
0
0
SPLINE
5
2FF
100
AcDbEntity
8
1
62
256
6
ByLayer
370
13
48
1
60
0
100
AcDbSpline
70
4
71
3
72
28
73
24
40
0
40
0
40
0
40
0
40
0.103790986422367
40
0.103790986422367
40
0.207581972844734
40
0.207581972844734
40
0.311372959267101
40
0.311372959267101
40
0.415163945689468
40
0.415163945689468
40
0.622745918534203
40
0.622745918534203
40
0.726536904956573
40
0.726536904956573
40
0.778432398167758
40
0.778432398167758
40
0.830327891378943
40
0.830327891378943
40
0.93411887780132
40
0.93411887780132
40
0.986014371012508
40
0.986014371012508
40
1
40
1
40
1
40
1
41
1
10
198.173024066085
20
7.41974684924287
30
0
41
1
10
197.761066413
20
7.51488730262477
30
0
41
1
10
197.345224274851
20
7.59333638707963
30
0
41
1
10
196.506524261706
20
7.72217000816636
30
0
41
1
10
196.083656362501
20
7.77250650453107
30
0
41
1
10
195.230892152262
20
7.8476427527099
30
0
41
1
10
194.800992728385
20
7.87242128166181
30
0
41
1
10
193.933608748231
20
7.89732725880108
30
0
41
1
10
193.496084934986
20
7.89744707524306
30
0
41
1
10
192.170758518556
20
7.86027460851764
30
0
41
1
10
191.292673765411
20
7.78654989894005
30
0
41
1
10
189.983632875021
20
7.60263638296655
30
0
41
1
10
189.548644642049
20
7.52901053333315
30
0
41
1
10
188.898349989168
20
7.39860267743211
30
0
41
1
10
188.682499406643
20
7.35187689025443
30
0
41
1
10
188.256981257467
20
7.25268204175387
30
0
41
1
10
188.046719209566
20
7.2000985320833
30
0
41
1
10
187.423907029027
20
7.03311108689556
30
0
41
1
10
187.019216507916
20
6.90963059668846
30
0
41
1
10
186.431382095677
20
6.70294389085646
30
0
41
1
10
186.238458373648
20
6.63029740781138
30
0
41
1
10
186.002616874802
20
6.534635438561
30
0
41
1
10
185.953006889255
20
6.5141107597648
30
0
41
1
10
185.903865919895
20
6.49336097200472
30
0
0
SPLINE
5
300
100
AcDbEntity
8
1
62
256
6
ByLayer
370
13
48
1
60
0
100
AcDbSpline
70
4
71
3
72
8
73
4
40
0
40
0
40
0
40
0
40
1
40
1
40
1
40
1
41
1
10
44.196152491371
20
-20.2887354811337
30
0
41
1
10
44.1961524920845
20
-20.4944465333416
30
0
41
1
10
44.1961524928084
20
-20.7001575855414
30
0
41
1
10
44.1961524935425
20
-20.905868637733
30
0
0
SPLINE
5
301
100
AcDbEntity
8
1
62
256
6
ByLayer
370
13
48
1
60
0
100
AcDbSpline
70
4
71
3
72
40
73
36
40
0
40
0
40
0
40
0
40
0.125
40
0.125
40
0.1875
40
0.1875
40
0.25
40
0.25
40
0.375000000000001
40
0.375000000000001
40
0.437500000000001
40
0.437500000000001
40
0.500000000000001
40
0.500000000000001
40
0.5625
40
0.5625
40
0.59375
40
0.59375
40
0.625
40
0.625
40
0.6875
40
0.6875
40
0.750000000000001
40
0.750000000000001
40
0.781250000000001
40
0.781250000000001
40
0.812500000000001
40
0.812500000000001
40
0.875000000000001
40
0.875000000000001
40
0.906250000000001
40
0.906250000000001
40
0.937500000000001
40
0.937500000000001
40
1
40
1
40
1
40
1
41
1
10
25.3359943664468
20
-12.1852139055668
30
0
41
1
10
24.7842247422386
20
-12.2935063709737
30
0
41
1
10
24.2448271966959
20
-12.4458946158408
30
0
41
1
10
23.4524254004921
20
-12.7346697468828
30
0
41
1
10
23.191105671742
20
-12.8410764671733
30
0
41
1
10
22.6741544636895
20
-13.0745596036823
30
0
41
1
10
22.4174877198892
20
-13.2023032810314
30
0
41
1
10
21.6727057121931
20
-13.6089911886906
30
0
41
1
10
21.2047659329398
20
-13.9128352618284
30
0
41
1
10
20.5491036033628
20
-14.4206959508582
30
0
41
1
10
20.3383708688127
20
-14.5987962516204
30
0
41
1
10
19.9341426541381
20
-14.9742492139019
30
0
41
1
10
19.7447668129418
20
-15.1676811409803
30
0
41
1
10
19.3923512522964
20
-15.5657139226712
30
0
41
1
10
19.2292559584629
20
-15.7703491908182
30
0
41
1
10
19.0058859970221
20
-16.0862408812086
30
0
41
1
10
18.9349877718696
20
-16.1930336120242
30
0
41
1
10
18.8007664733872
20
-16.4097779763657
30
0
41
1
10
18.7379379375287
20
-16.5189583727156
30
0
41
1
10
18.5642113817968
20
-16.8461567688196
30
0
41
1
10
18.4671891339524
20
-17.0649502199621
30
0
41
1
10
18.3116467330898
20
-17.5036766993847
30
0
41
1
10
18.253091553583
20
-17.7236076776496
30
0
41
1
10
18.1972416729963
20
-18.0544386860163
30
0
41
1
10
18.1840904793031
20
-18.164707894198
30
0
41
1
10
18.169417372347
20
-18.3808010054215
30
0
41
1
10
18.1678145801989
20
-18.4872156528729
30
0
41
1
10
18.1799815240309
20
-18.8016425279685
30
0
41
1
10
18.2105107504889
20
-19.0048775643769
30
0
41
1
10
18.2903504793637
20
-19.3001429116827
30
0
41
1
10
18.3228669004613
20
-19.3974127027598
30
0
41
1
10
18.3987097580738
20
-19.5861313290681
30
0
41
1
10
18.4419213213492
20
-19.6774905735199
30
0
41
1
10
18.5870774736349
20
-19.9428768995065
30
0
41
1
10
18.704704451365
20
-20.1081554385861
30
0
41
1
10
18.8425138032909
20
-20.2623894080251
30
0
0
SPLINE
5
302
100
AcDbEntity
8
1
62
256
6
ByLayer
370
13
48
1
60
0
100
AcDbSpline
70
4
71
3
72
16
73
12
40
0
40
0
40
0
40
0
40
0.422340485345556
40
0.422340485345556
40
0.527925606681945
40
0.527925606681945
40
0.633510728018334
40
0.633510728018334
40
0.844680970691112
40
0.844680970691112
40
1
40
1
40
1
40
1
41
1
10
18.8425138032909
20
-20.262389408025
30
0
41
1
10
19.2112576826182
20
-19.1787976960409
30
0
41
1
10
19.6655252196266
20
-18.1154214370569
30
0
41
1
10
20.3428727567476
20
-16.8115658505533
30
0
41
1
10
20.4840521272952
20
-16.5517648422469
30
0
41
1
10
20.7762207702069
20
-16.0373161181639
30
0
41
1
10
20.9273060759292
20
-15.7824541434612
30
0
41
1
10
21.3956171327509
20
-15.024961815792
30
0
41
1
10
21.7280628038567
20
-14.5294709751684
30
0
41
1
10
22.3394370695138
20
-13.6861185162701
30
0
41
1
10
22.6091171599535
20
-13.3337693293827
30
0
41
1
10
22.8893279321429
20
-12.986446873039
30
0
0
SPLINE
5
303
100
AcDbEntity
8
1
62
256
6
ByLayer
370
13
48
1
60
0
100
AcDbSpline
70
4
71
3
72
18
73
14
40
0
40
0
40
0
40
0
40
0.124999999999998
40
0.124999999999998
40
0.249999999999995
40
0.249999999999995
40
0.374999999999993
40
0.374999999999993
40
0.49999999999999
40
0.49999999999999
40
0.749999999999995
40
0.749999999999995
40
1
40
1
40
1
40
1
41
1
10
4.49999999999997
20
-24.7971684146396
30
0
41
1
10
4.53313786373262
20
-24.7971684146396
30
0
41
1
10
4.565714371525
20
-24.7991708649535
30
0
41
1
10
4.62979178235615
20
-24.8070079171001
30
0
41
1
10
4.66163009287773
20
-24.8129404212305
30
0
41
1
10
4.72224769381354
20
-24.8283807660819
30
0
41
1
10
4.75098493959375
20
-24.8378182632163
30
0
41
1
10
4.80534965726007
20
-24.8600713287164
30
0
41
1
10
4.83103465192985
20
-24.8729848039646
30
0
41
1
10
4.90005538657954
20
-24.915177279341
30
0
41
1
10
4.93715614492456
20
-24.9490402765773
30
0
41
1
10
4.98681993674631
20
-25.0216340711904
30
0
41
1
10
4.99999999999997
20
-25.0610443716919
30
0
41
1
10
4.99999999999997
20
-25.100515774934
30
0
0
SPLINE
5
304
100
AcDbEntity
8
1
62
256
6
ByLayer
370
13
48
1
60
0
100
AcDbSpline
70
4
71
3
72
8
73
4
40
0
40
0
40
0
40
0
40
1
40
1
40
1
40
1
41
1
10
45.01
20
-20.288436043729
30
0
41
1
10
44.7387174970033
20
-20.2885356154665
30
0
41
1
10
44.4674349942458
20
-20.2886356656641
30
0
41
1
10
44.196152491371
20
-20.2887354811243
30
0
0
SPLINE
5
305
100
AcDbEntity
8
1
62
256
6
ByLayer
370
13
48
1
60
0
100
AcDbSpline
70
4
71
3
72
16
73
12
40
0
40
0
40
0
40
0
40
0.24999999999999
40
0.24999999999999
40
0.49999999999998
40
0.49999999999998
40
0.624999999999994
40
0.624999999999994
40
0.750000000000008
40
0.750000000000008
40
1
40
1
40
1
40
1
41
1
10
220.20707151661
20
5.65950753920609
30
0
41
1
10
220.054389321825
20
5.67635709595186
30
0
41
1
10
219.90659670573
20
5.70526848614142
30
0
41
1
10
219.615356107183
20
5.7871017405262
30
0
41
1
10
219.474277054015
20
5.83950123596799
30
0
41
1
10
219.268980335277
20
5.93618827592613
30
0
41
1
10
219.20155138549
20
5.97147931006936
30
0
41
1
10
219.068586976835
20
6.04879471213673
30
0
41
1
10
219.003127525588
20
6.09083395399517
30
0
41
1
10
218.813929895591
20
6.22500813904819
30
0
41
1
10
218.69584226188
20
6.32582686075207
30
0
41
1
10
218.586596423833
20
6.44010292378249
30
0
0
SPLINE
5
306
100
AcDbEntity
8
1
62
256
6
ByLayer
370
13
48
1
60
0
100
AcDbSpline
70
4
71
3
72
8
73
4
40
0
40
0
40
0
40
0
40
1
40
1
40
1
40
1
41
1
10
0.5
20
-4.071
30
0
41
1
10
0.333321535927496
20
-4.071
30
0
41
1
10
0.166654666208785
20
-4.071
30
0
41
1
10
0
20
-4.071
30
0
0
SPLINE
5
307
100
AcDbEntity
8
1
62
256
6
ByLayer
370
13
48
1
60
0
100
AcDbSpline
70
4
71
3
72
12
73
8
40
0
40
0
40
0
40
0
40
0.0603514695569195
40
0.0603514695569195
40
0.499830344970571
40
0.499830344970571
40
1
40
1
40
1
40
1
41
1
10
45.45
20
-20.2747330138239
30
0
41
1
10
45.45
20
-20.0990554219946
30
0
41
1
10
45.45
20
-19.9233778302032
30
0
41
1
10
45.45
20
-18.4684175461464
30
0
41
1
10
45.45
20
-17.1891348558516
30
0
41
1
10
45.45
20
-14.4539041876217
30
0
41
1
10
45.45
20
-12.9979562102792
30
0
41
1
10
45.45
20
-11.5420082355351
30
0
0
SPLINE
5
308
100
AcDbEntity
8
1
62
256
6
ByLayer
370
13
48
1
60
0
100
AcDbSpline
70
4
71
3
72
10
73
6
40
0
40
0
40
0
40
0
40
0.5
40
0.5
40
1
40
1
40
1
40
1
41
1
10
200.423627243661
20
6.42328803814718
30
0
41
1
10
200.372206731054
20
6.3064113139599
30
0
41
1
10
200.31547224363
20
6.19158126746902
30
0
41
1
10
200.191682957677
20
5.96589604288309
30
0
41
1
10
200.124865423488
20
5.85555893337565
30
0
41
1
10
200.054294674267
20
5.74885976897153
30
0
0
SPLINE
5
309
100
AcDbEntity
8
1
62
256
6
ByLayer
370
13
48
1
60
0
100
AcDbSpline
70
4
71
3
72
10
73
6
40
0
40
0
40
0
40
0
40
0.5
40
0.5
40
1
40
1
40
1
40
1
41
1
10
200.423627243647
20
6.423288038153
30
0
41
1
10
200.343488412269
20
6.43466886568371
30
0
41
1
10
200.265925105028
20
6.45569392660843
30
0
41
1
10
200.114365470662
20
6.51162720164058
30
0
41
1
10
200.040910406018
20
6.54638282703593
30
0
41
1
10
199.969933823941
20
6.58461394569568
30
0
0
SPLINE
5
30A
100
AcDbEntity
8
1
62
256
6
ByLayer
370
13
48
1
60
0
100
AcDbSpline
70
4
71
3
72
12
73
8
40
0
40
0
40
0
40
0
40
0.250000000000007
40
0.250000000000007
40
0.500000000000014
40
0.500000000000014
40
1
40
1
40
1
40
1
41
1
10
201.60801041284
20
9.71313865547191
30
0
41
1
10
201.606974434718
20
9.79398639229066
30
0
41
1
10
201.601440276588
20
9.87463198991665
30
0
41
1
10
201.57999869376
20
10.0354570313628
30
0
41
1
10
201.563889535547
20
10.1161441166266
30
0
41
1
10
201.499329587572
20
10.3503228653001
30
0
41
1
10
201.434696377214
20
10.4976889600667
30
0
41
1
10
201.346158279868
20
10.6353649330836
30
0
0
SPLINE
5
30B
100
AcDbEntity
8
1
62
256
6
ByLayer
370
13
48
1
60
0
100
AcDbSpline
70
4
71
3
72
10
73
6
40
0
40
0
40
0
40
0
40
0.806108221291811
40
0.806108221291811
40
1
40
1
40
1
40
1
41
1
10
202.85566143541
20
14.5136381763104
30
0
41
1
10
202.81925528529
20
14.4645136988555
30
0
41
1
10
202.787621083916
20
14.416741457001
30
0
41
1
10
202.758382811686
20
14.3667383232797
30
0
41
1
10
202.753194300718
20
14.3574890498273
30
0
41
1
10
202.74867345325
20
14.3490194815234
30
0
0
SPLINE
5
30C
100
AcDbEntity
8
1
62
256
6
ByLayer
370
13
48
1
60
0
100
AcDbSpline
70
4
71
3
72
8
73
4
40
0
40
0
40
0
40
0
40
1
40
1
40
1
40
1
41
1
10
201.107106212144
20
-20.8348895913055
30
0
41
1
10
200.107106211415
20
-20.7637006325807
30
0
41
1
10
199.107106211408
20
-20.6925116638556
30
0
41
1
10
198.107106212144
20
-20.6213226848159
30
0
0
SPLINE
5
30D
100
AcDbEntity
8
1
62
256
6
ByLayer
370
13
48
1
60
0
100
AcDbSpline
70
4
71
3
72
8
73
4
40
0
40
0
40
0
40
0
40
1
40
1
40
1
40
1
41
1
10
1.42E-14
20
4.071
30
0
41
1
10
0.1666546662088
20
4.071
30
0
41
1
10
0.333321535927496
20
4.071
30
0
41
1
10
0.5
20
4.071
30
0
0
SPLINE
5
30E
100
AcDbEntity
8
1
62
256
6
ByLayer
370
13
48
1
60
0
100
AcDbSpline
70
4
71
3
72
8
73
4
40
0
40
0
40
0
40
0
40
1
40
1
40
1
40
1
41
1
10
180.01709335739
20
8.76589220486395
30
0
41
1
10
182.392958057307
20
7.86543141095669
30
0
41
1
10
184.768509392282
20
6.93075857820543
30
0
41
1
10
187.147887183026
20
5.97047025464028
30
0
0
SPLINE
5
30F
100
AcDbEntity
8
1
62
256
6
ByLayer
370
13
48
1
60
0
100
AcDbSpline
70
4
71
3
72
24
73
20
40
0
40
0
40
0
40
0
40
0.0625
40
0.0625
40
0.125
40
0.125
40
0.1875
40
0.1875
40
0.25
40
0.25
40
0.3125
40
0.3125
40
0.375
40
0.375
40
0.5
40
0.5
40
0.75
40
0.75
40
1
40
1
40
1
40
1
41
1
10
115.8
20
-20.722426069239
30
0
41
1
10
114.436195282486
20
-20.7193984844955
30
0
41
1
10
113.07050700139
20
-20.7159589852926
30
0
41
1
10
110.335505227171
20
-20.7108237957315
30
0
41
1
10
108.966178055005
20
-20.7091152251468
30
0
41
1
10
106.224382255219
20
-20.7086570416669
30
0
41
1
10
104.853333005548
20
-20.7098990458729
30
0
41
1
10
102.110984379719
20
-20.7153980141536
30
0
41
1
10
100.739691286941
20
-20.7195623723045
30
0
41
1
10
97.9970384344811
20
-20.7287235111076
30
0
41
1
10
96.6256815472677
20
-20.7336747461207
30
0
41
1
10
93.8829707942445
20
-20.7435346048359
30
0
41
1
10
92.5116222962813
20
-20.748384392613
30
0
41
1
10
88.3976005409588
20
-20.7626143702682
30
0
41
1
10
85.6549145615492
20
-20.7717690555672
30
0
41
1
10
77.4268572579205
20
-20.7992772058233
30
0
41
1
10
71.9414843911488
20
-20.8175194295049
30
0
41
1
10
60.9707414001197
20
-20.8542142564121
30
0
41
1
10
55.4853717349877
20
-20.8726995897257
30
0
41
1
10
49.9999999999999
20
-20.8910322128339
30
0
0
SPLINE
5
310
100
AcDbEntity
8
1
62
256
6
ByLayer
370
13
48
1
60
0
100
AcDbSpline
70
4
71
3
72
8
73
4
40
0
40
0
40
0
40
0
40
1
40
1
40
1
40
1
41
1
10
199.707240602694
20
9.90128351283465
30
0
41
1
10
199.704104788874
20
9.90177072101343
30
0
41
1
10
199.700965123725
20
9.9022294627224
30
0
41
1
10
199.697821530204
20
9.90265916850692
30
0
0
SPLINE
5
311
100
AcDbEntity
8
1
62
256
6
ByLayer
370
13
48
1
60
0
100
AcDbSpline
70
4
71
3
72
8
73
4
40
0
40
0
40
0
40
0
40
1
40
1
40
1
40
1
41
1
10
-2.84E-14
20
-24.36037267453
30
0
41
1
10
0.16665467211233
20
-24.5059815514549
30
0
41
1
10
0.333321533175578
20
-24.6515799660429
30
0
41
1
10
0.499999999999972
20
-24.7971684146396
30
0
0
SPLINE
5
312
100
AcDbEntity
8
1
62
256
6
ByLayer
370
13
48
1
60
0
100
AcDbSpline
70
4
71
3
72
8
73
4
40
0
40
0
40
0
40
0
40
1
40
1
40
1
40
1
41
1
10
198.831273720366
20
9.93640888302625
30
0
41
1
10
198.946460380417
20
11.2532497718448
30
0
41
1
10
199.058391662974
20
12.568449092874
30
0
41
1
10
199.166145960255
20
13.8823327545802
30
0
0
SPLINE
5
313
100
AcDbEntity
8
1
62
256
6
ByLayer
370
13
48
1
60
0
100
AcDbSpline
70
4
71
3
72
8
73
4
40
0
40
0
40
0
40
0
40
1
40
1
40
1
40
1
41
1
10
50
20
-20.8910322128339
30
0
41
1
10
48.333333307406
20
-20.8910226366669
30
0
41
1
10
46.6666666061329
20
-20.8909993017469
30
0
41
1
10
45
20
-20.8909539613435
30
0
0
SPLINE
5
314
100
AcDbEntity
8
1
62
256
6
ByLayer
370
13
48
1
60
0
100
AcDbSpline
70
4
71
3
72
18
73
14
40
0
40
0
40
0
40
0
40
0.250000000000001
40
0.250000000000001
40
0.375000000000001
40
0.375000000000001
40
0.5
40
0.5
40
0.75
40
0.75
40
0.875
40
0.875
40
1
40
1
40
1
40
1
41
1
10
217.892767032725
20
6.90442703919217
30
0
41
1
10
217.950143375315
20
6.90743400589065
30
0
41
1
10
218.00790019997
20
6.90025942632039
30
0
41
1
10
218.089198500554
20
6.87688326854379
30
0
41
1
10
218.115080972485
20
6.86711206139188
30
0
41
1
10
218.163228505424
20
6.84516764509462
30
0
41
1
10
218.185882986987
20
6.83277637433966
30
0
41
1
10
218.245871405469
20
6.79585218485096
30
0
41
1
10
218.276691628691
20
6.77098422768586
30
0
41
1
10
218.308902401287
20
6.74534453487993
30
0
41
1
10
218.317575045892
20
6.7385190020515
30
0
41
1
10
218.330658044537
20
6.72958253923716
30
0
41
1
10
218.335215172145
20
6.72734029442751
30
0
41
1
10
218.337875860782
20
6.7274797352103
30
0
0
SPLINE
5
315
100
AcDbEntity
8
1
62
256
6
ByLayer
370
13
48
1
60
0
100
AcDbSpline
70
4
71
3
72
8
73
4
40
0
40
0
40
0
40
0
40
1
40
1
40
1
40
1
41
1
10
0.499999999999957
20
-28.8681684146396
30
0
41
1
10
0.333321533175564
20
-28.7225799660429
30
0
41
1
10
0.16665467211233
20
-28.5769815514549
30
0
41
1
10
-2.84E-14
20
-28.43137267453
30
0
0
SPLINE
5
316
100
AcDbEntity
8
1
62
256
6
ByLayer
370
13
48
1
60
0
100
AcDbSpline
70
4
71
3
72
14
73
10
40
0
40
0
40
0
40
0
40
0.24999999999998
40
0.24999999999998
40
0.37499999999999
40
0.37499999999999
40
0.5
40
0.5
40
1
40
1
40
1
40
1
41
1
10
196.565597563905
20
1.70181919806944
30
0
41
1
10
196.722683654222
20
1.64590640742375
30
0
41
1
10
196.883037868969
20
1.59858849769878
30
0
41
1
10
197.128434435448
20
1.54079816085698
30
0
41
1
10
197.211046623418
20
1.52373781471752
30
0
41
1
10
197.377922135611
20
1.49414147341446
30
0
41
1
10
197.462506688806
20
1.48157231958532
30
0
41
1
10
197.885002991379
20
1.43096833070206
30
0
41
1
10
198.221167245146
20
1.42881455236215
30
0
41
1
10
198.555653086082
20
1.4644419215432
30
0
0
SPLINE
5
317
100
AcDbEntity
8
1
62
256
6
ByLayer
370
13
48
1
60
0
100
AcDbSpline
70
4
71
3
72
8
73
4
40
0
40
0
40
0
40
0
40
1
40
1
40
1
40
1
41
1
10
206.929956732343
20
5.3012068926588
30
0
41
1
10
206.951391865019
20
5.32453364837602
30
0
41
1
10
206.972435739482
20
5.34828584250832
30
0
41
1
10
206.993058048494
20
5.3724351478979
30
0
0
SPLINE
5
318
100
AcDbEntity
8
1
62
256
6
ByLayer
370
13
48
1
60
0
100
AcDbSpline
70
4
71
3
72
20
73
16
40
0
40
0
40
0
40
0
40
0.125000000000001
40
0.125000000000001
40
0.250000000000001
40
0.250000000000001
40
0.375000000000002
40
0.375000000000002
40
0.500000000000003
40
0.500000000000003
40
0.625000000000002
40
0.625000000000002
40
0.750000000000002
40
0.750000000000002
40
1
40
1
40
1
40
1
41
1
10
5
20
-3.571
30
0
41
1
10
5
20
-3.60391847015117
30
0
41
1
10
4.9967808934519
20
-3.63628658749522
30
0
41
1
10
4.98417021302271
20
-3.69996821091718
30
0
41
1
10
4.97463125273033
20
-3.73160337694856
30
0
41
1
10
4.94968466662063
20
-3.79202482069201
30
0
41
1
10
4.93441471590091
20
-3.82069145743844
30
0
41
1
10
4.89832966838669
20
-3.87496618988294
30
0
41
1
10
4.87729497403697
20
-3.90071402844961
30
0
41
1
10
4.83128625897143
20
-3.9469152199722
30
0
41
1
10
4.80617472999902
20
-3.96765672246548
30
0
41
1
10
4.75163574759755
20
-4.00431163300567
30
0
41
1
10
4.72246038743289
20
-4.01997188035244
30
0
41
1
10
4.63211811691134
20
-4.05762336203659
30
0
41
1
10
4.56628454349331
20
-4.071
30
0
41
1
10
4.5
20
-4.071
30
0
0
SPLINE
5
319
100
AcDbEntity
8
1
62
256
6
ByLayer
370
13
48
1
60
0
100
AcDbSpline
70
4
71
3
72
14
73
10
40
0
40
0
40
0
40
0
40
0.125000000000027
40
0.125000000000027
40
0.250000000000054
40
0.250000000000054
40
0.500000000000036
40
0.500000000000036
40
1
40
1
40
1
40
1
41
1
10
214.762708723844
20
6.54011316499771
30
0
41
1
10
214.79933496079
20
6.54203266473954
30
0
41
1
10
214.836663465277
20
6.54485728896864
30
0
41
1
10
214.9105441693
20
6.55221268961617
30
0
41
1
10
214.947318261127
20
6.55674805930522
30
0
41
1
10
215.057213947035
20
6.5729090051241
30
0
41
1
10
215.129908900443
20
6.58708073633142
30
0
41
1
10
215.346835960251
20
6.63995155965176
30
0
41
1
10
215.489843189205
20
6.68878916704767
30
0
41
1
10
215.633042717522
20
6.75369757229856
30
0
0
SPLINE
5
31A
100
AcDbEntity
8
1
62
256
6
ByLayer
370
13
48
1
60
0
100
AcDbSpline
70
4
71
3
72
10
73
6
40
0
40
0
40
0
40
0
40
0.5
40
0.5
40
1
40
1
40
1
40
1
41
1
10
199.707240602694
20
9.90128351283525
30
0
41
1
10
199.752223604181
20
9.90191266117719
30
0
41
1
10
199.797422335766
20
9.90083463584369
30
0
41
1
10
199.888554247782
20
9.89286654619082
30
0
41
1
10
199.934991972182
20
9.88602058389534
30
0
41
1
10
199.980651232454
20
9.87344997550738
30
0
0
SPLINE
5
31B
100
AcDbEntity
8
1
62
256
6
ByLayer
370
13
48
1
60
0
100
AcDbSpline
70
4
71
3
72
10
73
6
40
0
40
0
40
0
40
0
40
0.5
40
0.5
40
1
40
1
40
1
40
1
41
1
10
215.633042717522
20
6.75369757229856
30
0
41
1
10
215.658906601925
20
6.76542095930913
30
0
41
1
10
215.68681911477
20
6.77507323840265
30
0
41
1
10
215.744210755789
20
6.7889849149538
30
0
41
1
10
215.773817215581
20
6.79336097385311
30
0
41
1
10
215.804342502386
20
6.79497731097268
30
0
0
SPLINE
5
31C
100
AcDbEntity
8
1
62
256
6
ByLayer
370
13
48
1
60
0
100
AcDbSpline
70
4
71
3
72
14
73
10
40
0
40
0
40
0
40
0
40
0.500000000000011
40
0.500000000000011
40
0.750000000000005
40
0.750000000000005
40
0.875000000000003
40
0.875000000000003
40
1
40
1
40
1
40
1
41
1
10
194.635184591719
20
0.59459907803361
30
0
41
1
10
195.173290738802
20
0.293576881926555
30
0
41
1
10
195.731678576034
20
0.0489748112036636
30
0
41
1
10
196.600073314542
20
-0.232177000735703
30
0
41
1
10
196.894701036197
20
-0.311526537448259
30
0
41
1
10
197.344746360995
20
-0.407995629518638
30
0
41
1
10
197.496389543692
20
-0.436425536285583
30
0
41
1
10
197.800892395125
20
-0.485250604607387
30
0
41
1
10
197.953712102133
20
-0.50565801098054
30
0
41
1
10
198.107106212145
20
-0.522017980192828
30
0
0
SPLINE
5
31D
100
AcDbEntity
8
1
62
256
6
ByLayer
370
13
48
1
60
0
100
AcDbSpline
70
4
71
3
72
10
73
6
40
0
40
0
40
0
40
0
40
0.590493122889833
40
0.590493122889833
40
1
40
1
40
1
40
1
41
1
10
198.278125613045
20
7.83151383917721
30
0
41
1
10
195.120976936634
20
7.94604688571448
30
0
41
1
10
191.966379991648
20
8.00271204471869
30
0
41
1
10
186.624979726426
20
8.00242578835199
30
0
41
1
10
184.4378921983
20
7.9749953559724
30
0
41
1
10
182.250392088786
20
7.92101950728664
30
0
0
SPLINE
5
31E
100
AcDbEntity
8
1
62
256
6
ByLayer
370
13
48
1
60
0
100
AcDbSpline
70
4
71
3
72
10
73
6
40
0
40
0
40
0
40
0
40
0.5
40
0.5
40
1
40
1
40
1
40
1
41
1
10
210.136758314409
20
6.49795184616534
30
0
41
1
10
210.167337119694
20
6.49955441344349
30
0
41
1
10
210.198275052232
20
6.49828386950369
30
0
41
1
10
210.258456623205
20
6.49046334676163
30
0
41
1
10
210.287865549188
20
6.48395647453503
30
0
41
1
10
210.316566613709
20
6.47507286608641
30
0
0
SPLINE
5
31F
100
AcDbEntity
8
1
62
256
6
ByLayer
370
13
48
1
60
0
100
AcDbSpline
70
4
71
3
72
10
73
6
40
0
40
0
40
0
40
0
40
0.5
40
0.5
40
1
40
1
40
1
40
1
41
1
10
184.361892508417
20
6.9521765653561
30
0
41
1
10
184.828169718843
20
6.77603289269308
30
0
41
1
10
185.29407538108
20
6.6054136744809
30
0
41
1
10
186.222897702209
20
6.27756702287166
30
0
41
1
10
186.686092070106
20
6.12023105888966
30
0
41
1
10
187.147887183025
20
5.9704702546403
30
0
0
SPLINE
5
320
100
AcDbEntity
8
1
62
256
6
ByLayer
370
13
48
1
60
0
100
AcDbSpline
70
4
71
3
72
18
73
14
40
0
40
0
40
0
40
0
40
0.24000130122505
40
0.24000130122505
40
0.366667751020875
40
0.366667751020875
40
0.430000975918788
40
0.430000975918788
40
0.4933342008167
40
0.4933342008167
40
0.74666710040835
40
0.74666710040835
40
1
40
1
40
1
40
1
41
1
10
27.0649966068672
20
-11.8228842933127
30
0
41
1
10
26.1201065962325
20
-12.618857044213
30
0
41
1
10
25.2413247289205
20
-13.4604862891505
30
0
41
1
10
23.9961341365092
20
-14.813818763688
30
0
41
1
10
23.5838081516225
20
-15.2936572399091
30
0
41
1
10
22.9924854750704
20
-16.0321420051001
30
0
41
1
10
22.7999130215528
20
-16.2814297888337
30
0
41
1
10
22.4240041175275
20
-16.7863620406361
30
0
41
1
10
22.2404894516338
20
-17.0422940325355
30
0
41
1
10
21.3523267980252
20
-18.3296258779569
30
0
41
1
10
20.7325118184593
20
-19.3902887604667
30
0
41
1
10
19.6618033508167
20
-21.5699161368923
30
0
41
1
10
19.2101404689492
20
-22.6883852816146
30
0
41
1
10
18.8421907875233
20
-23.8351173085036
30
0
0
SPLINE
5
321
100
AcDbEntity
8
1
62
256
6
ByLayer
370
13
48
1
60
0
100
AcDbSpline
70
4
71
3
72
42
73
38
40
0
40
0
40
0
40
0
40
0.0625000000000002
40
0.0625000000000002
40
0.0937500000000004
40
0.0937500000000004
40
0.125000000000001
40
0.125000000000001
40
0.187500000000001
40
0.187500000000001
40
0.218750000000001
40
0.218750000000001
40
0.250000000000001
40
0.250000000000001
40
0.312500000000001
40
0.312500000000001
40
0.343750000000001
40
0.343750000000001
40
0.375
40
0.375
40
0.437500000000001
40
0.437500000000001
40
0.500000000000001
40
0.500000000000001
40
0.625000000000001
40
0.625000000000001
40
0.687500000000001
40
0.687500000000001
40
0.75
40
0.75
40
0.8125
40
0.8125
40
0.84375
40
0.84375
40
0.875
40
0.875
40
1
40
1
40
1
40
1
41
1
10
18.8421907875233
20
-23.8351173085036
30
0
41
1
10
18.7050374214281
20
-23.9814597104042
30
0
41
1
10
18.5880008809837
20
-24.1261221206557
30
0
41
1
10
18.4435130579041
20
-24.340157581006
30
0
41
1
10
18.4004845717449
20
-24.4110044464053
30
0
41
1
10
18.3248812527083
20
-24.5516007262681
30
0
41
1
10
18.2922041650232
20
-24.6216675636122
30
0
41
1
10
18.211688888295
20
-24.8267445998307
30
0
41
1
10
18.1807527702327
20
-24.9571677198192
30
0
41
1
10
18.1678553180472
20
-25.1433885223825
30
0
41
1
10
18.169195073251
20
-25.2038850126612
30
0
41
1
10
18.1832781396457
20
-25.3216770301502
30
0
41
1
10
18.1960849217047
20
-25.3792253675367
30
0
41
1
10
18.2508223186253
20
-25.5447345992159
30
0
41
1
10
18.3086795273174
20
-25.6457039705204
30
0
41
1
10
18.4250128583861
20
-25.7842119726476
30
0
41
1
10
18.4687440183893
20
-25.8282136837299
30
0
41
1
10
18.5660024321909
20
-25.9119624555722
30
0
41
1
10
18.6197620386227
20
-25.9518448109371
30
0
41
1
10
18.7937496731438
20
-26.063880197478
30
0
41
1
10
18.9264871559485
20
-26.12859431595
30
0
41
1
10
19.222207888789
20
-26.2403070185637
30
0
41
1
10
19.3853777081949
20
-26.2873074040308
30
0
41
1
10
19.917987343164
20
-26.4031666815351
30
0
41
1
10
20.3176992535658
20
-26.4448822046495
30
0
41
1
10
20.9768283405674
20
-26.4637100685196
30
0
41
1
10
21.2072326304947
20
-26.4625325100487
30
0
41
1
10
21.6780014293355
20
-26.4467231982202
30
0
41
1
10
21.9193924238514
20
-26.432156773333
30
0
41
1
10
22.4136669263217
20
-26.3908413177489
30
0
41
1
10
22.666567912623
20
-26.3640782462209
30
0
41
1
10
23.0545484684715
20
-26.3151927202878
30
0
41
1
10
23.1856030832624
20
-26.297394131071
30
0
41
1
10
23.4488115701344
20
-26.2591679913474
30
0
41
1
10
23.5810054338134
20
-26.2387422179515
30
0
41
1
10
24.2449253159705
20
-26.130251964271
30
0
41
1
10
24.7853787659177
20
-26.0234206815026
30
0
41
1
10
25.33600495243
20
-25.8967628202149
30
0
0
SPLINE
5
322
100
AcDbEntity
8
1
62
256
6
ByLayer
370
13
48
1
60
0
100
AcDbSpline
70
4
71
3
72
19
73
15
40
0
40
0
40
0
40
0
40
0.25
40
0.25
40
0.375
40
0.375
40
0.5
40
0.5
40
0.625
40
0.625
40
0.75
40
0.875
40
0.875
40
1
40
1
40
1
40
1
41
1
10
45.0049999754975
20
-11.5460078383725
30
0
41
1
10
42.9138535676117
20
-12.0134974320974
30
0
41
1
10
40.8335207473543
20
-12.6858596220648
30
0
41
1
10
37.8512240422353
20
-13.9982766986643
30
0
41
1
10
36.8802817149786
20
-14.486964854572
30
0
41
1
10
35.0039253824991
20
-15.5603032333775
30
0
41
1
10
34.0984160737738
20
-16.1444647846993
30
0
41
1
10
32.3712356567201
20
-17.3976385066937
30
0
41
1
10
31.5496439756812
20
-18.0667113939583
30
0
41
1
10
30.0084547017291
20
-19.4793102640302
30
0
41
1
10
28.5683209885233
20
-20.9656447912002
30
0
41
1
10
27.3495714902424
20
-22.5656307034099
30
0
41
1
10
26.2511506463057
20
-24.2055323438483
30
0
41
1
10
25.762904509208
20
-25.0454762994026
30
0
41
1
10
25.33600495243
20
-25.8967628202149
30
0
0
SPLINE
5
323
100
AcDbEntity
8
1
62
256
6
ByLayer
370
13
48
1
60
0
100
AcDbSpline
70
4
71
3
72
8
73
4
40
0
40
0
40
0
40
0
40
1
40
1
40
1
40
1
41
1
10
45
20
-20.8909539613435
30
0
41
1
10
44.7318362721324
20
-20.8909466661522
30
0
41
1
10
44.4638873224994
20
-20.8959232978241
30
0
41
1
10
44.1961524935425
20
-20.9058686377332
30
0
0
SPLINE
5
324
100
AcDbEntity
8
1
62
256
6
ByLayer
370
13
48
1
60
0
100
AcDbSpline
70
4
71
3
72
8
73
4
40
0
40
0
40
0
40
0
40
1
40
1
40
1
40
1
41
1
10
50
20
20.9624999735213
30
0
41
1
10
48.3333333990187
20
20.9625000020435
30
0
41
1
10
46.6666666975877
20
20.9624999998047
30
0
41
1
10
45
20
20.9624999998047
30
0
0
SPLINE
5
325
100
AcDbEntity
8
1
62
256
6
ByLayer
370
13
48
1
60
0
100
AcDbSpline
70
4
71
3
72
14
73
10
40
0
40
0
40
0
40
0
40
0.0680335379082758
40
0.0680335379082758
40
0.53401676895414
40
0.53401676895414
40
0.76700838447707
40
0.76700838447707
40
1
40
1
40
1
40
1
41
1
10
178.378776829499
20
9.45348990755036
30
0
41
1
10
178.838594466253
20
9.48341578611752
30
0
41
1
10
179.298382239928
20
9.51194038057696
30
0
41
1
10
182.907239714052
20
9.72474805194102
30
0
41
1
10
186.055349750187
20
9.84410740097422
30
0
41
1
10
190.780670569501
20
9.91793669739272
30
0
41
1
10
192.35640958295
20
9.92502161301096
30
0
41
1
10
195.507081376151
20
9.90355522638882
30
0
41
1
10
197.082335817422
20
9.8750126573901
30
0
41
1
10
198.657881791389
20
9.82851391861158
30
0
0
SPLINE
5
326
100
AcDbEntity
8
1
62
256
6
ByLayer
370
13
48
1
60
0
100
AcDbSpline
70
4
71
3
72
8
73
4
40
0
40
0
40
0
40
0
40
1
40
1
40
1
40
1
41
1
10
206.538118329176
20
6.0797554892161
30
0
41
1
10
206.489934455341
20
6.07814824711312
30
0
41
1
10
206.441792969864
20
6.07727077465103
30
0
41
1
10
206.393731423851
20
6.07755041765779
30
0
0
SPLINE
5
327
100
AcDbEntity
8
1
62
256
6
ByLayer
370
13
48
1
60
0
100
AcDbSpline
70
4
71
3
72
20
73
16
40
0
40
0
40
0
40
0
40
0.125
40
0.125
40
0.250000000000001
40
0.250000000000001
40
0.375000000000001
40
0.375000000000001
40
0.500000000000001
40
0.500000000000001
40
0.625000000000002
40
0.625000000000002
40
0.750000000000002
40
0.750000000000002
40
1
40
1
40
1
40
1
41
1
10
4.99999999999997
20
-28.671515774934
30
0
41
1
10
4.99999999999997
20
-28.6846958371704
30
0
41
1
10
4.99678089345187
20
-28.6976096368706
30
0
41
1
10
4.98417021302268
20
-28.7229318862573
30
0
41
1
10
4.9746312527303
20
-28.7354671452441
30
0
41
1
10
4.9496846666206
20
-28.759332763577
30
0
41
1
10
4.93441471590089
20
-28.7706170121705
30
0
41
1
10
4.89832966838667
20
-28.7919224597979
30
0
41
1
10
4.87729497403694
20
-28.8019976380366
30
0
41
1
10
4.8312862589714
20
-28.8200342413541
30
0
41
1
10
4.80617472999899
20
-28.8281090591321
30
0
41
1
10
4.75163574759752
20
-28.8423541642692
30
0
41
1
10
4.72246038743286
20
-28.8484259972569
30
0
41
1
10
4.63211811691131
20
-28.8630086139508
30
0
41
1
10
4.56628454349328
20
-28.8681684146396
30
0
41
1
10
4.49999999999997
20
-28.8681684146396
30
0
0
SPLINE
5
328
100
AcDbEntity
8
1
62
256
6
ByLayer
370
13
48
1
60
0
100
AcDbSpline
70
4
71
3
72
22
73
18
40
0
40
0
40
0
40
0
40
0.0625000000000132
40
0.0625000000000132
40
0.125000000000026
40
0.125000000000026
40
0.250000000000033
40
0.250000000000033
40
0.500000000000031
40
0.500000000000031
40
0.625000000000024
40
0.625000000000024
40
0.750000000000016
40
0.750000000000016
40
0.875000000000008
40
0.875000000000008
40
1
40
1
40
1
40
1
41
1
10
199.707240602694
20
9.90128351283462
30
0
41
1
10
199.759149862753
20
9.85813167109276
30
0
41
1
10
199.810181964221
20
9.81369155788573
30
0
41
1
10
199.910657352223
20
9.72246334014056
30
0
41
1
10
199.960245817865
20
9.67552890639564
30
0
41
1
10
200.104933970135
20
9.53345198313733
30
0
41
1
10
200.196533463215
20
9.43666958301421
30
0
41
1
10
200.45848135526
20
9.14138849115633
30
0
41
1
10
200.615921630502
20
8.93775801039746
30
0
41
1
10
200.825004034559
20
8.61988640738269
30
0
41
1
10
200.890009340846
20
8.51209387491195
30
0
41
1
10
201.008455593685
20
8.29782681682991
30
0
41
1
10
201.062349903596
20
8.19072646745599
30
0
41
1
10
201.159914178486
20
7.97649760866472
30
0
41
1
10
201.203591740109
20
7.86937492912327
30
0
41
1
10
201.280200785461
20
7.65446888099342
30
0
41
1
10
201.313229536615
20
7.54610317482104
30
0
41
1
10
201.339932312916
20
7.43841156530516
30
0
0
SPLINE
5
329
100
AcDbEntity
8
1
62
256
6
ByLayer
370
13
48
1
60
0
100
AcDbSpline
70
4
71
3
72
14
73
10
40
0
40
0
40
0
40
0
40
0.25
40
0.25
40
0.5
40
0.5
40
0.75
40
0.75
40
1
40
1
40
1
40
1
41
1
10
206.894599543143
20
6.02721828890432
30
0
41
1
10
206.922215734162
20
6.01996545956115
30
0
41
1
10
206.947046305561
20
6.01141979964748
30
0
41
1
10
206.988786643865
20
5.99260619697861
30
0
41
1
10
207.00628097267
20
5.98205422548608
30
0
41
1
10
207.032567483606
20
5.95998951173831
30
0
41
1
10
207.041520024574
20
5.94851056054196
30
0
41
1
10
207.051601406737
20
5.92471890536092
30
0
41
1
10
207.052574349004
20
5.91239464382392
30
0
41
1
10
207.049832509097
20
5.90036927286778
30
0
0
SPLINE
5
32A
100
AcDbEntity
8
1
62
256
6
ByLayer
370
13
48
1
60
0
100
AcDbSpline
70
4
71
3
72
14
73
10
40
0
40
0
40
0
40
0
40
0.302411730281846
40
0.302411730281846
40
0.604823460563692
40
0.604823460563692
40
0.907235190845539
40
0.907235190845539
40
1
40
1
40
1
40
1
41
1
10
115.8
20
20.7305757798979
30
0
41
1
10
114.438269799572
20
20.7419463391419
30
0
41
1
10
113.074318640548
20
20.7502341379046
30
0
41
1
10
110.34193685312
20
20.7638216736065
30
0
41
1
10
108.973403835463
20
20.7691138129372
30
0
41
1
10
106.2319937104
20
20.7788345410709
30
0
41
1
10
104.861020411558
20
20.7832654384254
30
0
41
1
10
103.069279101184
20
20.7890564156008
30
0
41
1
10
102.648664723678
20
20.7904134492852
30
0
41
1
10
102.228036275244
20
20.7917702361216
30
0
0
SPLINE
5
32B
100
AcDbEntity
8
1
62
256
6
ByLayer
370
13
48
1
60
0
100
AcDbSpline
70
4
71
3
72
12
73
8
40
0
40
0
40
0
40
0
40
0.239688270828592
40
0.239688270828592
40
0.493125513885727
40
0.493125513885727
40
1
40
1
40
1
40
1
41
1
10
82.4711055545165
20
20.8563676183076
30
0
41
1
10
79.8767961098726
20
20.8648524565036
30
0
41
1
10
77.2824774837053
20
20.8733290047277
30
0
41
1
10
71.9450279053507
20
20.8907714413033
30
0
41
1
10
69.2018966513979
20
20.8997370878682
30
0
41
1
10
60.9725072030108
20
20.9266371290217
30
0
41
1
10
55.4862546457334
20
20.944573285501
30
0
41
1
10
50
20
20.9624999735213
30
0
0
SPLINE
5
32C
100
AcDbEntity
8
1
62
256
6
ByLayer
370
13
48
1
60
0
100
AcDbSpline
70
4
71
3
72
16
73
12
40
0
40
0
40
0
40
0
40
0.5
40
0.5
40
0.624999999999999
40
0.624999999999999
40
0.687499999999999
40
0.687499999999999
40
0.749999999999999
40
0.749999999999999
40
1
40
1
40
1
40
1
41
1
10
25.3360049524299
20
-25.8967628202149
30
0
41
1
10
28.0821522978927
20
-25.265081136577
30
0
41
1
10
30.7752944193225
20
-24.4944090683185
30
0
41
1
10
34.073140183221
20
-23.3512334450916
30
0
41
1
10
34.729191560092
20
-23.1135885769615
30
0
41
1
10
35.7091485223494
20
-22.7428063004372
30
0
41
1
10
36.0349767734862
20
-22.6165508622221
30
0
41
1
10
36.6855051509332
20
-22.3603966885721
30
0
41
1
10
37.0130642603829
20
-22.2397310850382
30
0
41
1
10
38.662245826193
20
-21.6731743969224
30
0
41
1
10
40.0177223526319
20
-21.3366155746114
30
0
41
1
10
41.4107126712499
20
-21.1212081457896
30
0
0
SPLINE
5
32D
100
AcDbEntity
8
1
62
256
6
ByLayer
370
13
48
1
60
0
100
AcDbSpline
70
4
71
3
72
10
73
6
40
0
40
0
40
0
40
0
40
0.5
40
0.5
40
1
40
1
40
1
40
1
41
1
10
206.622237410308
20
6.07908296571114
30
0
41
1
10
206.672552968058
20
6.07654079758728
30
0
41
1
10
206.720980192396
20
6.06914329986552
30
0
41
1
10
206.813185285844
20
6.04935999523883
30
0
41
1
10
206.855975529441
20
6.03736209837223
30
0
41
1
10
206.894599543143
20
6.02721828890378
30
0
0
SPLINE
5
32E
100
AcDbEntity
8
1
62
256
6
ByLayer
370
13
48
1
60
0
100
AcDbSpline
70
4
71
3
72
16
73
12
40
0
40
0
40
0
40
0
40
0.250000000000002
40
0.250000000000002
40
0.500000000000004
40
0.500000000000004
40
0.625000000000005
40
0.625000000000005
40
0.750000000000005
40
0.750000000000005
40
1
40
1
40
1
40
1
41
1
10
44.196152491371
20
-20.2887354811243
30
0
41
1
10
43.9432211650168
20
-20.2888285444678
30
0
41
1
10
43.6945395015142
20
-20.308217770954
30
0
41
1
10
43.2050593397859
20
-20.3827907912802
30
0
41
1
10
42.9642641074289
20
-20.4379894142395
30
0
41
1
10
42.6088281099181
20
-20.5469271015027
30
0
41
1
10
42.4915072370769
20
-20.5875989235337
30
0
41
1
10
42.262863173691
20
-20.6758764135516
30
0
41
1
10
42.1509948429127
20
-20.7236400191786
30
0
41
1
10
41.8222888692165
20
-20.8771227795094
30
0
41
1
10
41.6123224006973
20
-20.9929927432739
30
0
41
1
10
41.4107126712499
20
-21.1212081457896
30
0
0
SPLINE
5
32F
100
AcDbEntity
8
1
62
256
6
ByLayer
370
13
48
1
60
0
100
AcDbSpline
70
4
71
3
72
16
73
12
40
0
40
0
40
0
40
0
40
0.250000000000002
40
0.250000000000002
40
0.500000000000004
40
0.500000000000004
40
0.750000000000005
40
0.750000000000005
40
0.875000000000003
40
0.875000000000003
40
1
40
1
40
1
40
1
41
1
10
41.3944621842491
20
-8.11275420822781
30
0
41
1
10
41.609153239982
20
-8.00001365308299
30
0
41
1
10
41.8331779711709
20
-7.89913481333721
30
0
41
1
10
42.2865193048703
20
-7.72713766583777
30
0
41
1
10
42.517015679541
20
-7.65525656608355
30
0
41
1
10
42.9855795483682
20
-7.53938236038661
30
0
41
1
10
43.2236465871765
20
-7.49538768810922
30
0
41
1
10
43.5866119365175
20
-7.45097529681442
30
0
41
1
10
43.7084666357728
20
-7.43981120267625
30
0
41
1
10
43.9520333243458
20
-7.42495975583137
30
0
41
1
10
44.0740009447641
20
-7.42123765385267
30
0
41
1
10
44.1961537633646
20
-7.42123325762941
30
0
0
SPLINE
5
330
100
AcDbEntity
8
1
62
256
6
ByLayer
370
13
48
1
60
0
100
AcDbSpline
70
4
71
3
72
8
73
4
40
0
40
0
40
0
40
0
40
1
40
1
40
1
40
1
41
1
10
198.954080042419
20
-0.610250381999975
30
0
41
1
10
199.67174438548
20
-0.650301968054919
30
0
41
1
10
200.38941991474
20
-0.690284338590459
30
0
41
1
10
201.107106212145
20
-0.730199690184577
30
0
0
SPLINE
5
331
100
AcDbEntity
8
1
62
256
6
ByLayer
370
13
48
1
60
0
100
AcDbSpline
70
4
71
3
72
8
73
4
40
0
40
0
40
0
40
0
40
1
40
1
40
1
40
1
41
1
10
204.590378675691
20
20.5866487540112
30
0
41
1
10
204.498112746511
20
20.5780360620291
30
0
41
1
10
204.403622186027
20
20.5706745603822
30
0
41
1
10
204.306948562014
20
20.5646474438719
30
0
0
SPLINE
5
332
100
AcDbEntity
8
1
62
256
6
ByLayer
370
13
48
1
60
0
100
AcDbSpline
70
4
71
3
72
18
73
14
40
0
40
0
40
0
40
0
40
0.249999999999978
40
0.249999999999978
40
0.374999999999982
40
0.374999999999982
40
0.499999999999986
40
0.499999999999986
40
0.749999999999993
40
0.749999999999993
40
0.874999999999997
40
0.874999999999997
40
1
40
1
40
1
40
1
41
1
10
201.339932312907
20
7.43841156530732
30
0
41
1
10
201.298161327583
20
7.32888739864975
30
0
41
1
10
201.247705705187
20
7.2240693459012
30
0
41
1
10
201.158454601261
20
7.07419444529162
30
0
41
1
10
201.126430284757
20
7.02546837399061
30
0
41
1
10
201.057553542588
20
6.93063253319616
30
0
41
1
10
201.02044033042
20
6.88424312734801
30
0
41
1
10
200.90352001708
20
6.75191882075387
30
0
41
1
10
200.818329278631
20
6.67261875615429
30
0
41
1
10
200.679125537837
20
6.56772210209439
30
0
41
1
10
200.630807205255
20
6.53511620386044
30
0
41
1
10
200.530021289875
20
6.47501152987047
30
0
41
1
10
200.477238212238
20
6.4474070881048
30
0
41
1
10
200.42362724365
20
6.42328803814505
30
0
0
SPLINE
5
333
100
AcDbEntity
8
1
62
256
6
ByLayer
370
13
48
1
60
0
100
AcDbSpline
70
4
71
3
72
23
73
19
40
0
40
0
40
0
40
0
40
0.124999999999997
40
0.124999999999997
40
0.249999999999994
40
0.249999999999994
40
0.374999999999991
40
0.374999999999991
40
0.499999999999988
40
0.624999999999985
40
0.624999999999985
40
0.749999999999982
40
0.749999999999982
40
0.87499999999998
40
0.87499999999998
40
0.93749999999999
40
0.93749999999999
40
1
40
1
40
1
40
1
41
1
10
206.999476950795
20
5.12178108366436
30
0
41
1
10
206.89853093784
20
5.02932575970922
30
0
41
1
10
206.791019925729
20
4.94503252069771
30
0
41
1
10
206.561841690486
20
4.79318648980441
30
0
41
1
10
206.442509459987
20
4.72722164480013
30
0
41
1
10
206.195284459864
20
4.61514880705539
30
0
41
1
10
206.066759108206
20
4.56878648068289
30
0
41
1
10
205.801510842867
20
4.49686091115288
30
0
41
1
10
205.533451422066
20
4.44706246856413
30
0
41
1
10
205.25974126077
20
4.43985856957906
30
0
41
1
10
204.983221481745
20
4.4547774564837
30
0
41
1
10
204.846428035536
20
4.47321233982979
30
0
41
1
10
204.578522947979
20
4.53089306613202
30
0
41
1
10
204.44694923978
20
4.57016060238246
30
0
41
1
10
204.253410457198
20
4.64531002347405
30
0
41
1
10
204.189749884026
20
4.67303171083998
30
0
41
1
10
204.066104068818
20
4.73289084402873
30
0
41
1
10
204.005837835592
20
4.76513311416903
30
0
41
1
10
203.947151413127
20
4.79964012797333
30
0
0
SPLINE
5
334
100
AcDbEntity
8
1
62
256
6
ByLayer
370
13
48
1
60
0
100
AcDbSpline
70
4
71
3
72
28
73
24
40
0
40
0
40
0
40
0
40
0.129132249938294
40
0.129132249938294
40
0.258264499876588
40
0.258264499876588
40
0.387396749814883
40
0.387396749814883
40
0.516528999753177
40
0.516528999753177
40
0.581095124722324
40
0.581095124722324
40
0.645661249691471
40
0.645661249691471
40
0.710227374660618
40
0.710227374660618
40
0.774793499629765
40
0.774793499629765
40
0.903925749568059
40
0.903925749568059
40
0.968491874537207
40
0.968491874537207
40
1
40
1
40
1
40
1
41
1
10
196.118442822553
20
20.4896154922657
30
0
41
1
10
194.487398390647
20
20.6050225449805
30
0
41
1
10
192.856958170302
20
20.6819431740462
30
0
41
1
10
189.594980289617
20
20.7578287568174
30
0
41
1
10
187.965789411383
20
20.756649676647
30
0
41
1
10
184.710509949061
20
20.6760367491174
30
0
41
1
10
183.083831880948
20
20.5966252438778
30
0
41
1
10
179.828398605654
20
20.360870904577
30
0
41
1
10
178.199676165458
20
20.2045803245154
30
0
41
1
10
175.753317631838
20
19.9132792497423
30
0
41
1
10
174.937641198701
20
19.8067271362471
30
0
41
1
10
173.307933447221
20
19.5752306511007
30
0
41
1
10
172.493555385327
20
19.4502520798029
30
0
41
1
10
170.865527997038
20
19.1819920358367
30
0
41
1
10
170.051891564651
20
19.0387020697478
30
0
41
1
10
168.425262057689
20
18.7337830550846
30
0
41
1
10
167.612382995287
20
18.5720328854741
30
0
41
1
10
165.173533672289
20
18.0601532417119
30
0
41
1
10
163.546563491854
20
17.6838288341551
30
0
41
1
10
161.093639574729
20
17.0820467204573
30
0
41
1
10
160.274219756637
20
16.8752294790181
30
0
41
1
10
159.052875940439
20
16.5604205149863
30
0
41
1
10
158.651917522308
20
16.4560605637922
30
0
41
1
10
158.25053905806
20
16.3506556809737
30
0
0
SPLINE
5
335
100
AcDbEntity
8
1
62
256
6
ByLayer
370
13
48
1
60
0
100
AcDbSpline
70
4
71
3
72
18
73
14
40
0
40
0
40
0
40
0
40
0.249999999999999
40
0.249999999999999
40
0.499999999999999
40
0.499999999999999
40
0.625
40
0.625
40
0.75
40
0.75
40
0.875
40
0.875
40
1
40
1
40
1
40
1
41
1
10
201.339932312906
20
7.43841156530581
30
0
41
1
10
201.411079455919
20
7.61888128529156
30
0
41
1
10
201.473188570953
20
7.80171434938782
30
0
41
1
10
201.576009691824
20
8.172975584402
30
0
41
1
10
201.616775438111
20
8.36138970278827
30
0
41
1
10
201.657608242857
20
8.64932324066288
30
0
41
1
10
201.667828861509
20
8.74656547135365
30
0
41
1
10
201.680202913286
20
8.94126298413258
30
0
41
1
10
201.682365024721
20
9.03839136058724
30
0
41
1
10
201.677775963303
20
9.23216007604066
30
0
41
1
10
201.671028886223
20
9.32880063929915
30
0
41
1
10
201.647453944192
20
9.52152980293602
30
0
41
1
10
201.630492184173
20
9.61817231623186
30
0
41
1
10
201.608010412841
20
9.71313865546799
30
0
0
SPLINE
5
336
100
AcDbEntity
8
1
62
256
6
ByLayer
370
13
48
1
60
0
100
AcDbSpline
70
4
71
1
72
4
73
2
40
0
40
0
40
1
40
1
41
1
10
45.45
20
-11.5420082356771
30
0
41
1
10
45.01
20
-11.5420082356771
30
0
0
SPLINE
5
337
100
AcDbEntity
8
1
62
256
6
ByLayer
370
13
48
1
60
0
100
AcDbSpline
70
4
71
3
72
36
73
32
40
0
40
0
40
0
40
0
40
0.0384358154924986
40
0.0384358154924986
40
0.0918560479651376
40
0.0918560479651376
40
0.145276280437776
40
0.145276280437776
40
0.198696512910415
40
0.198696512910415
40
0.252116745383054
40
0.252116745383054
40
0.305536977855693
40
0.305536977855693
40
0.332247094092012
40
0.332247094092012
40
0.358957210328332
40
0.358957210328332
40
0.385667326564651
40
0.385667326564651
40
0.41237744280097
40
0.41237744280097
40
0.465797675273609
40
0.465797675273609
40
0.572638140218887
40
0.572638140218887
40
0.679478605164166
40
0.679478605164166
40
0.786319070109444
40
0.786319070109444
40
1
40
1
40
1
40
1
41
1
10
132.997055567157
20
-10.682088098283
30
0
41
1
10
131.892409922882
20
-10.7594269089772
30
0
41
1
10
130.786920180068
20
-10.8328318748141
30
0
41
1
10
128.142560422208
20
-10.9958214078458
30
0
41
1
10
126.602736567038
20
-11.0804084847852
30
0
41
1
10
123.518264415046
20
-11.2246480451494
30
0
41
1
10
121.9735341401
20
-11.2837022929054
30
0
41
1
10
118.879027304274
20
-11.3782513164371
30
0
41
1
10
117.329285795703
20
-11.4140285623008
30
0
41
1
10
114.225357963727
20
-11.469963773164
30
0
41
1
10
112.671196407687
20
-11.4902929633588
30
0
41
1
10
109.55877943081
20
-11.5205305377707
30
0
41
1
10
108.000506302785
20
-11.5303201938909
30
0
41
1
10
105.659918473178
20
-11.538909165567
30
0
41
1
10
104.879189957452
20
-11.5407619109269
30
0
41
1
10
103.316673723923
20
-11.5426801011267
30
0
41
1
10
102.534923009176
20
-11.542735000789
30
0
41
1
10
100.971203384474
20
-11.5418698149963
30
0
41
1
10
100.189209495829
20
-11.5409886820049
30
0
41
1
10
98.6252319714381
20
-11.5400139806305
30
0
41
1
10
97.8432432612312
20
-11.5399413863564
30
0
41
1
10
95.4972772224402
20
-11.5403398470857
30
0
41
1
10
93.9332999869463
20
-11.5412797643816
30
0
41
1
10
89.2413681239042
20
-11.5426839637222
30
0
41
1
10
86.1134133584113
20
-11.5425568672824
30
0
41
1
10
79.8575036832797
20
-11.5422615989565
30
0
41
1
10
76.7295487887994
20
-11.5419928525659
30
0
41
1
10
70.4736390342439
20
-11.5417097606793
30
0
41
1
10
67.3456841550006
20
-11.5417094922507
30
0
41
1
10
57.9618195155442
20
-11.541959988402
30
0
41
1
10
51.7059097535807
20
-11.5424441352741
30
0
41
1
10
45.4499999999999
20
-11.5420082355351
30
0
0
SPLINE
5
338
100
AcDbEntity
8
1
62
256
6
ByLayer
370
13
48
1
60
0
100
AcDbSpline
70
4
71
3
72
8
73
4
40
0
40
0
40
0
40
0
40
1
40
1
40
1
40
1
41
1
10
211.908409439064
20
5.08874162827581
30
0
41
1
10
212.069402703317
20
5.09717892773486
30
0
41
1
10
212.22659239058
20
5.10541689017052
30
0
41
1
10
212.379776633028
20
5.11344493613836
30
0
0
SPLINE
5
339
100
AcDbEntity
8
1
62
256
6
ByLayer
370
13
48
1
60
0
100
AcDbSpline
70
4
71
3
72
42
73
38
40
0
40
0
40
0
40
0
40
0.0625000000000008
40
0.0625000000000008
40
0.125000000000002
40
0.125000000000002
40
0.156250000000002
40
0.156250000000002
40
0.187500000000002
40
0.187500000000002
40
0.250000000000002
40
0.250000000000002
40
0.312500000000002
40
0.312500000000002
40
0.375000000000002
40
0.375000000000002
40
0.437500000000002
40
0.437500000000002
40
0.468750000000001
40
0.468750000000001
40
0.500000000000001
40
0.500000000000001
40
0.562500000000001
40
0.562500000000001
40
0.625000000000001
40
0.625000000000001
40
0.6875
40
0.6875
40
0.75
40
0.75
40
0.8125
40
0.8125
40
0.874999999999999
40
0.874999999999999
40
0.9375
40
0.9375
40
1
40
1
40
1
40
1
41
1
10
184.361892508417
20
6.9521765653561
30
0
41
1
10
182.970142824321
20
7.54176609952557
30
0
41
1
10
181.577635099045
20
8.12217009780662
30
0
41
1
10
178.794368528511
20
9.25871877222247
30
0
41
1
10
177.403112322692
20
9.81509085821378
30
0
41
1
10
175.315395664642
20
10.6289953070042
30
0
41
1
10
174.619202957083
20
10.8969054275429
30
0
41
1
10
173.227922050324
20
11.424730804406
30
0
41
1
10
172.532660383785
20
11.6847149597863
30
0
41
1
10
170.447629161879
20
12.4522000741665
30
0
41
1
10
169.058592856363
20
12.9471931828504
30
0
41
1
10
166.280557271997
20
13.9005283243524
30
0
41
1
10
164.891593700474
20
14.3589379029918
30
0
41
1
10
162.112152572723
20
15.2364460837198
30
0
41
1
10
160.721065833053
20
15.6557858327537
30
0
41
1
10
157.938591636825
20
16.4511567008723
30
0
41
1
10
156.548263919306
20
16.8268114039329
30
0
41
1
10
154.460478709748
20
17.3527904252912
30
0
41
1
10
153.764014640136
20
17.521670841303
30
0
41
1
10
152.36796689688
20
17.844501631534
30
0
41
1
10
151.668505634576
20
17.9983972847154
30
0
41
1
10
149.5655715844
20
18.4347959448202
30
0
41
1
10
148.156848768562
20
18.6923922676414
30
0
41
1
10
145.316386918637
20
19.1414568085626
30
0
41
1
10
143.884675556333
20
19.3333804070588
30
0
41
1
10
141.001752321652
20
19.667446151852
30
0
41
1
10
139.550560931672
20
19.8095594039327
30
0
41
1
10
136.631711132899
20
20.055185767123
30
0
41
1
10
135.164763504388
20
20.1586226530389
30
0
41
1
10
132.22333279543
20
20.3352546827219
30
0
41
1
10
130.748513003823
20
20.4086382214084
30
0
41
1
10
127.787322654644
20
20.5290784872034
30
0
41
1
10
126.302651178204
20
20.575995357966
30
0
41
1
10
123.322319954955
20
20.6484843530899
30
0
41
1
10
121.826357597792
20
20.6740299687559
30
0
41
1
10
118.822148765555
20
20.7111450567597
30
0
41
1
10
117.314026147167
20
20.722789933554
30
0
41
1
10
115.8
20
20.7305757798979
30
0
0
SPLINE
5
33A
100
AcDbEntity
8
1
62
256
6
ByLayer
370
13
48
1
60
0
100
AcDbSpline
70
4
71
2
72
6
73
3
40
0
40
0
40
0
40
1
40
1
40
1
41
1
10
180.023568716404
20
8.76344588848491
30
0
41
1
10
179.795980868399
20
8.84919967555823
30
0
41
1
10
179.568466071796
20
8.9423223808933
30
0
0
SPLINE
5
33B
100
AcDbEntity
8
1
62
256
6
ByLayer
370
13
48
1
60
0
100
AcDbSpline
70
4
71
3
72
15
73
11
40
0
40
0
40
0
40
0
40
0.186501081312812
40
0.373398537661335
40
0.560225444536552
40
0.648157393165218
40
0.735886138227466
40
0.823976888796013
40
0.912205845136527
40
1
40
1
40
1
40
1
41
1
10
17.2986
20
-28
30
0
41
1
10
19.0689677373588
20
-27.751032290889
30
0
41
1
10
22.5857230199908
20
-27.129244101143
30
0
41
1
10
27.7914679328732
20
-25.8256472446984
30
0
41
1
10
31.9915500911689
20
-24.4462940833535
30
0
41
1
10
35.2300532919947
20
-23.2043960400827
30
0
41
1
10
37.5460714597124
20
-22.1956511057533
30
0
41
1
10
39.9791244549249
20
-21.4906551654285
30
0
41
1
10
42.4758770841593
20
-21.0578602469743
30
0
41
1
10
44.1559131561318
20
-20.9628092496349
30
0
41
1
10
45
20
-20.9625
30
0
0
SPLINE
5
33C
100
AcDbEntity
8
1
62
256
6
ByLayer
370
13
48
1
60
0
100
AcDbSpline
70
4
71
3
72
16
73
12
40
0
40
0
40
0
40
0
40
0.0651826286039729
40
0.161641067120702
40
0.257858776519041
40
0.353798877517633
40
0.449970241771593
40
0.546262942760454
40
0.697669012753471
40
0.848992400203672
40
1
40
1
40
1
40
1
41
1
10
44.143537001622
20
21.0142314570691
30
0
41
1
10
43.5360334230792
20
21.0214336524435
30
0
41
1
10
42.0394035148182
20
21.1092230920719
30
0
41
1
10
39.6784136895028
20
21.5576245387744
30
0
41
1
10
37.1158865246842
20
22.3576794982363
30
0
41
1
10
34.6657099297734
20
23.4402788941977
30
0
41
1
10
32.1534625676632
20
24.3675800280183
30
0
41
1
10
29.1286885610043
20
25.3882378662997
30
0
41
1
10
25.5650828494073
20
26.4052390158714
30
0
41
1
10
21.4548038353562
20
27.3374067761322
30
0
41
1
10
18.6882623830521
20
27.8046352495881
30
0
41
1
10
17.2986000000001
20
28
30
0
0
SPLINE
5
33D
100
AcDbEntity
8
1
62
256
6
ByLayer
370
13
48
1
60
0
100
AcDbSpline
70
4
71
2
72
6
73
3
40
0
40
0
40
0
40
1
40
1
40
1
41
1
10
220.821210170497
20
5.83887576623709
30
0
41
1
10
220.889138076597
20
5.90986748384023
30
0
41
1
10
220.958380134285
20
5.96574237411889
30
0
0
SPLINE
5
33E
100
AcDbEntity
8
1
62
256
6
ByLayer
370
13
48
1
60
0
100
AcDbSpline
70
4
71
2
72
6
73
3
40
0
40
0
40
0
40
1
40
1
40
1
41
1
10
203.903732387315
20
5.07194615924575
30
0
41
1
10
203.978435646183
20
5.02361512334596
30
0
41
1
10
204.053412091252
20
4.96011270543741
30
0
0
LINE
5
7F
100
AcDbEntity
8
SK1
62
256
6
ByLayer
370
13
48
1
60
0
100
AcDbLine
10
-0.3
20
-19.8
30
0
11
-0.3
21
19.8
31
0
39
0
210
0
220
0
230
1
0
LINE
5
81
100
AcDbEntity
8
1
62
256
6
ByLayer
370
13
48
1
60
0
100
AcDbLine
10
220.897554
20
7.2416
30
0
11
218.98548
21
6.937882
31
0
39
0
210
0
220
0
230
1
0
LINE
5
82
100
AcDbEntity
8
1
62
256
6
ByLayer
370
13
48
1
60
0
100
AcDbLine
10
205.925485
20
5.93441
30
0
11
205.874705
21
6.255946
31
0
39
0
210
0
220
0
230
1
0
LINE
5
83
100
AcDbEntity
8
1
62
256
6
ByLayer
370
13
48
1
60
0
100
AcDbLine
10
203.883642
20
5.458286
30
0
11
202.775859
21
12.47273
31
0
39
0
210
0
220
0
230
1
0
LINE
5
84
100
AcDbEntity
8
1
62
256
6
ByLayer
370
13
48
1
60
0
100
AcDbLine
10
220.458678
20
6.170955
30
0
11
220.881235
21
6.238075
31
0
39
0
210
0
220
0
230
1
0
LINE
5
85
100
AcDbEntity
8
1
62
256
6
ByLayer
370
13
48
1
60
0
100
AcDbLine
10
203.605537
20
20.09152
30
0
11
203.704444
21
19.14913
31
0
39
0
210
0
220
0
230
1
0
LINE
5
86
100
AcDbEntity
8
1
62
256
6
ByLayer
370
13
48
1
60
0
100
AcDbLine
10
220.916159
20
5.950688
30
0
11
220.881235
21
6.238075
31
0
39
0
210
0
220
0
230
1
0
LINE
5
87
100
AcDbEntity
8
1
62
256
6
ByLayer
370
13
48
1
60
0
100
AcDbLine
10
202.451899
20
13.158114
30
0
11
202.457301
21
13.715031
31
0
39
0
210
0
220
0
230
1
0
LINE
5
88
100
AcDbEntity
8
1
62
256
6
ByLayer
370
13
48
1
60
0
100
AcDbLine
10
219.014095
20
7.095773
30
0
11
220.860319
21
7.389031
31
0
39
0
210
0
220
0
230
1
0
LINE
5
89
100
AcDbEntity
8
1
62
256
6
ByLayer
370
13
48
1
60
0
100
AcDbLine
10
205.103721
20
12.532241
30
0
11
206.089842
21
6.288156
31
0
39
0
210
0
220
0
230
1
0
LINE
5
8A
100
AcDbEntity
8
1
62
256
6
ByLayer
370
13
48
1
60
0
100
AcDbLine
10
219.256217
20
21.464696
30
0
11
219.488013
21
21.51839
31
0
39
0
210
0
220
0
230
1
0
LINE
5
8B
100
AcDbEntity
8
1
62
256
6
ByLayer
370
13
48
1
60
0
100
AcDbLine
10
204.40944
20
20.453339
30
0
11
204.086464
21
20.453543
31
0
39
0
210
0
220
0
230
1
0
LINE
5
8C
100
AcDbEntity
8
1
62
256
6
ByLayer
370
13
48
1
60
0
100
AcDbLine
10
220.960626
20
6.98371
30
0
11
220.881235
21
6.238075
31
0
39
0
210
0
220
0
230
1
0
LINE
5
8D
100
AcDbEntity
8
1
62
256
6
ByLayer
370
13
48
1
60
0
100
AcDbLine
10
203.720463
20
18.900516
30
0
11
202.902834
21
12.653022
31
0
39
0
210
0
220
0
230
1
0
LINE
5
8E
100
AcDbEntity
8
1
62
256
6
ByLayer
370
13
48
1
60
0
100
AcDbLine
10
202.50719
20
12.103103
30
0
11
202.452281
21
12.450786
31
0
39
0
210
0
220
0
230
1
0
LINE
5
8F
100
AcDbEntity
8
1
62
256
6
ByLayer
370
13
48
1
60
0
100
AcDbLine
10
218.887464
20
7.139333
30
0
11
218.875769
21
7.04997
31
0
39
0
210
0
220
0
230
1
0
LINE
5
90
100
AcDbEntity
8
1
62
256
6
ByLayer
370
13
48
1
60
0
100
AcDbLine
10
202.904926
20
12.495195
30
0
11
204.01271
21
5.480751
31
0
39
0
210
0
220
0
230
1
0
LINE
5
91
100
AcDbEntity
8
1
62
256
6
ByLayer
370
13
48
1
60
0
100
AcDbLine
10
221.839871
20
13.617638
30
0
11
221.022243
21
7.370145
31
0
39
0
210
0
220
0
230
1
0
LINE
5
92
100
AcDbEntity
8
1
62
256
6
ByLayer
370
13
48
1
60
0
100
AcDbLine
10
220.734037
20
20.833195
30
0
11
221.84182
21
13.81875
31
0
39
0
210
0
220
0
230
1
0
LINE
5
93
100
AcDbEntity
8
1
62
256
6
ByLayer
370
13
48
1
60
0
100
AcDbLine
10
218.692194
20
20.357071
30
0
11
218.740135
21
20.05351
31
0
39
0
210
0
220
0
230
1
0
LINE
5
94
100
AcDbEntity
8
1
62
256
6
ByLayer
370
13
48
1
60
0
100
AcDbLine
10
219.861397
20
13.57
30
0
11
219.014095
21
7.095773
31
0
39
0
210
0
220
0
230
1
0
LINE
5
95
100
AcDbEntity
8
1
62
256
6
ByLayer
370
13
48
1
60
0
100
AcDbLine
10
202.641625
20
14.133837
30
0
11
202.449436
21
12.665326
31
0
39
0
210
0
220
0
230
1
0
LINE
5
96
100
AcDbEntity
8
1
62
256
6
ByLayer
370
13
48
1
60
0
100
AcDbLine
10
203.897076
20
20.677085
30
0
11
204.009201
21
20.665634
31
0
39
0
210
0
220
0
230
1
0
LINE
5
97
100
AcDbEntity
8
1
62
256
6
ByLayer
370
13
48
1
60
0
100
AcDbLine
10
219.627535
20
5.801399
30
0
11
219.812751
21
5.800285
31
0
39
0
210
0
220
0
230
1
0
LINE
5
98
100
AcDbEntity
8
1
62
256
6
ByLayer
370
13
48
1
60
0
100
AcDbLine
10
203.490372
20
18.920968
30
0
11
203.467982
21
19.134301
31
0
39
0
210
0
220
0
230
1
0
LINE
5
99
100
AcDbEntity
8
1
62
256
6
ByLayer
370
13
48
1
60
0
100
AcDbLine
10
220.902166
20
7.241841
30
0
11
220.897554
21
7.2416
31
0
39
0
210
0
220
0
230
1
0
LINE
5
9A
100
AcDbEntity
8
1
62
256
6
ByLayer
370
13
48
1
60
0
100
AcDbLine
10
204.719385
20
12.719547
30
0
11
205.566687
21
19.193774
31
0
39
0
210
0
220
0
230
1
0
LINE
5
9B
100
AcDbEntity
8
1
62
256
6
ByLayer
370
13
48
1
60
0
100
AcDbLine
10
205.361463
20
4.826784
30
0
11
205.129666
21
4.773091
31
0
39
0
210
0
220
0
230
1
0
LINE
5
9C
100
AcDbEntity
8
1
62
256
6
ByLayer
370
13
48
1
60
0
100
AcDbLine
10
205.925485
20
5.93441
30
0
11
205.920873
21
5.934168
31
0
39
0
210
0
220
0
230
1
0
LINE
5
9D
100
AcDbEntity
8
1
62
256
6
ByLayer
370
13
48
1
60
0
100
AcDbLine
10
205.74191
20
19.241511
30
0
11
205.737298
21
19.241269
31
0
39
0
210
0
220
0
230
1
0
LINE
5
9E
100
AcDbEntity
8
1
62
256
6
ByLayer
370
13
48
1
60
0
100
AcDbLine
10
204.883972
20
12.49979
30
0
11
205.920873
21
5.934168
31
0
39
0
210
0
220
0
230
1
0
LINE
5
9F
100
AcDbEntity
8
1
62
256
6
ByLayer
370
13
48
1
60
0
100
AcDbLine
10
220.570629
20
7.087931
30
0
11
220.913235
21
7.142351
31
0
39
0
210
0
220
0
230
1
0
LINE
5
A0
100
AcDbEntity
8
1
62
256
6
ByLayer
370
13
48
1
60
0
100
AcDbLine
10
205.793014
20
19.480883
30
0
11
203.704444
21
19.14913
31
0
39
0
210
0
220
0
230
1
0
LINE
5
A1
100
AcDbEntity
8
1
62
256
6
ByLayer
370
13
48
1
60
0
100
AcDbLine
10
204.888584
20
12.500032
30
0
11
204.883972
21
12.49979
31
0
39
0
210
0
220
0
230
1
0
LINE
5
A2
100
AcDbEntity
8
1
62
256
6
ByLayer
370
13
48
1
60
0
100
AcDbLine
10
218.977417
20
6.936938
30
0
11
218.98548
21
6.937882
31
0
39
0
210
0
220
0
230
1
0
LINE
5
A3
100
AcDbEntity
8
1
62
256
6
ByLayer
370
13
48
1
60
0
100
AcDbLine
10
205.566687
20
19.193774
30
0
11
203.720463
21
18.900516
31
0
39
0
210
0
220
0
230
1
0
LINE
5
A4
100
AcDbEntity
8
1
62
256
6
ByLayer
370
13
48
1
60
0
100
AcDbLine
10
202.773196
20
12.673601
30
0
11
203.590825
21
18.921094
31
0
39
0
210
0
220
0
230
1
0
LINE
5
A5
100
AcDbEntity
8
1
62
256
6
ByLayer
370
13
48
1
60
0
100
AcDbLine
10
203.605537
20
20.09152
30
0
11
203.462462
21
20.068794
31
0
39
0
210
0
220
0
230
1
0
LINE
5
A6
100
AcDbEntity
8
1
62
256
6
ByLayer
370
13
48
1
60
0
100
AcDbLine
10
221.940165
20
13.834371
30
0
11
220.832381
21
20.848816
31
0
39
0
210
0
220
0
230
1
0
LINE
5
A7
100
AcDbEntity
8
1
62
256
6
ByLayer
370
13
48
1
60
0
100
AcDbLine
10
202.451899
20
13.158114
30
0
11
202.531873
21
13.909222
31
0
39
0
210
0
220
0
230
1
0
LINE
5
A8
100
AcDbEntity
8
1
62
256
6
ByLayer
370
13
48
1
60
0
100
AcDbLine
10
205.008114
20
5.017863
30
0
11
205.236536
21
5.027827
31
0
39
0
210
0
220
0
230
1
0
LINE
5
A9
100
AcDbEntity
8
1
62
256
6
ByLayer
370
13
48
1
60
0
100
AcDbLine
10
220.458678
20
6.170955
30
0
11
220.913235
21
7.142351
31
0
39
0
210
0
220
0
230
1
0
LINE
5
AA
100
AcDbEntity
8
1
62
256
6
ByLayer
370
13
48
1
60
0
100
AcDbLine
10
219.572668
20
21.271684
30
0
11
219.344245
21
21.26172
31
0
39
0
210
0
220
0
230
1
0
LINE
5
AB
100
AcDbEntity
8
1
62
256
6
ByLayer
370
13
48
1
60
0
100
AcDbLine
10
205.874705
20
6.255946
30
0
11
204.888584
21
12.500032
31
0
39
0
210
0
220
0
230
1
0
LINE
5
AC
100
AcDbEntity
8
1
62
256
6
ByLayer
370
13
48
1
60
0
100
AcDbLine
10
219.333819
20
21.48609
30
0
11
219.223505
21
21.462982
31
0
39
0
210
0
220
0
230
1
0
LINE
5
AD
100
AcDbEntity
8
1
62
256
6
ByLayer
370
13
48
1
60
0
100
AcDbLine
10
218.824666
20
6.810598
30
0
11
220.570629
21
7.087931
31
0
39
0
210
0
220
0
230
1
0
LINE
5
AE
100
AcDbEntity
8
1
62
256
6
ByLayer
370
13
48
1
60
0
100
AcDbLine
10
220.902166
20
7.241841
30
0
11
218.990092
21
6.938124
31
0
39
0
210
0
220
0
230
1
0
LINE
5
AF
100
AcDbEntity
8
1
62
256
6
ByLayer
370
13
48
1
60
0
100
AcDbLine
10
218.990092
20
6.938124
30
0
11
218.98548
21
6.937882
31
0
39
0
210
0
220
0
230
1
0
LINE
5
B0
100
AcDbEntity
8
1
62
256
6
ByLayer
370
13
48
1
60
0
100
AcDbLine
10
219.356146
20
21.412544
30
0
11
219.351533
21
21.412302
31
0
39
0
210
0
220
0
230
1
0
LINE
5
B1
100
AcDbEntity
8
1
62
256
6
ByLayer
370
13
48
1
60
0
100
AcDbLine
10
221.675855
20
13.794352
30
0
11
220.568072
21
20.808796
31
0
39
0
210
0
220
0
230
1
0
LINE
5
B2
100
AcDbEntity
8
1
62
256
6
ByLayer
370
13
48
1
60
0
100
AcDbLine
10
206.498367
20
19.375181
30
0
11
217.436328
21
19.948415
31
0
39
0
210
0
220
0
230
1
0
LINE
5
B3
100
AcDbEntity
8
1
62
256
6
ByLayer
370
13
48
1
60
0
100
AcDbLine
10
218.917165
20
21.280588
30
0
11
219.075912
21
21.288908
31
0
39
0
210
0
220
0
230
1
0
LINE
5
B4
100
AcDbEntity
8
1
62
256
6
ByLayer
370
13
48
1
60
0
100
AcDbLine
10
204.885921
20
12.700902
30
0
11
204.881308
21
12.700661
31
0
39
0
210
0
220
0
230
1
0
LINE
5
B5
100
AcDbEntity
8
1
62
256
6
ByLayer
370
13
48
1
60
0
100
AcDbLine
10
205.445446
20
5.027964
30
0
11
205.440833
21
5.027722
31
0
39
0
210
0
220
0
230
1
0
LINE
5
B6
100
AcDbEntity
8
1
62
256
6
ByLayer
370
13
48
1
60
0
100
AcDbLine
10
221.844484
20
13.61788
30
0
11
221.026855
21
7.370386
31
0
39
0
210
0
220
0
230
1
0
LINE
5
B7
100
AcDbEntity
8
1
62
256
6
ByLayer
370
13
48
1
60
0
100
AcDbLine
10
220.734037
20
20.833195
30
0
11
220.729425
21
20.832953
31
0
39
0
210
0
220
0
230
1
0
LINE
5
B8
100
AcDbEntity
8
1
62
256
6
ByLayer
370
13
48
1
60
0
100
AcDbLine
10
205.899561
20
5.850126
30
0
11
205.894949
21
5.849884
31
0
39
0
210
0
220
0
230
1
0
LINE
5
B9
100
AcDbEntity
8
1
62
256
6
ByLayer
370
13
48
1
60
0
100
AcDbLine
10
218.825066
20
20.355446
30
0
11
219.858163
21
13.813914
31
0
39
0
210
0
220
0
230
1
0
LINE
5
BA
100
AcDbEntity
8
1
62
256
6
ByLayer
370
13
48
1
60
0
100
AcDbLine
10
219.352147
20
21.412329
30
0
11
219.579956
21
21.422266
31
0
39
0
210
0
220
0
230
1
0
LINE
5
BB
100
AcDbEntity
8
1
62
256
6
ByLayer
370
13
48
1
60
0
100
AcDbLine
10
205.755715
20
5.934101
30
0
11
204.722619
21
12.475633
31
0
39
0
210
0
220
0
230
1
0
LINE
5
BC
100
AcDbEntity
8
1
62
256
6
ByLayer
370
13
48
1
60
0
100
AcDbLine
10
219.223505
20
21.462982
30
0
11
219.256217
21
21.464696
31
0
39
0
210
0
220
0
230
1
0
LINE
5
BD
100
AcDbEntity
8
1
62
256
6
ByLayer
370
13
48
1
60
0
100
AcDbLine
10
202.451899
20
13.158114
30
0
11
202.433634
21
12.806596
31
0
39
0
210
0
220
0
230
1
0
LINE
5
BE
100
AcDbEntity
8
1
62
256
6
ByLayer
370
13
48
1
60
0
100
AcDbLine
10
219.584568
20
21.422508
30
0
11
219.579956
21
21.422266
31
0
39
0
210
0
220
0
230
1
0
LINE
5
BF
100
AcDbEntity
8
1
62
256
6
ByLayer
370
13
48
1
60
0
100
AcDbLine
10
204.885921
20
12.700902
30
0
11
205.727897
21
19.134437
31
0
39
0
210
0
220
0
230
1
0
LINE
5
C0
100
AcDbEntity
8
1
62
256
6
ByLayer
370
13
48
1
60
0
100
AcDbLine
10
205.737298
20
19.241269
30
0
11
204.881308
21
12.700661
31
0
39
0
210
0
220
0
230
1
0
LINE
5
C1
100
AcDbEntity
8
1
62
256
6
ByLayer
370
13
48
1
60
0
100
AcDbLine
10
218.119312
20
6.9163
30
0
11
207.181351
21
6.343066
31
0
39
0
210
0
220
0
230
1
0
LINE
5
C2
100
AcDbEntity
8
1
62
256
6
ByLayer
370
13
48
1
60
0
100
AcDbLine
10
219.356146
20
21.412544
30
0
11
219.584568
21
21.422508
31
0
39
0
210
0
220
0
230
1
0
LINE
5
C3
100
AcDbEntity
8
1
62
256
6
ByLayer
370
13
48
1
60
0
100
AcDbLine
10
203.715513
20
19.049639
30
0
11
205.627587
21
19.353357
31
0
39
0
210
0
220
0
230
1
0
LINE
5
C4
100
AcDbEntity
8
1
62
256
6
ByLayer
370
13
48
1
60
0
100
AcDbLine
10
205.261534
20
4.878937
30
0
11
205.033111
21
4.868973
31
0
39
0
210
0
220
0
230
1
0
LINE
5
C5
100
AcDbEntity
8
1
62
256
6
ByLayer
370
13
48
1
60
0
100
AcDbLine
10
219.550856
20
13.761174
30
0
11
218.564735
21
20.005259
31
0
39
0
210
0
220
0
230
1
0
LINE
5
C6
100
AcDbEntity
8
1
62
256
6
ByLayer
370
13
48
1
60
0
100
AcDbLine
10
221.185862
20
7.817955
30
0
11
221.06737
21
6.349111
31
0
39
0
210
0
220
0
230
1
0
LINE
5
C7
100
AcDbEntity
8
1
62
256
6
ByLayer
370
13
48
1
60
0
100
AcDbLine
10
221.943208
20
13.604805
30
0
11
221.127307
21
7.370513
31
0
39
0
210
0
220
0
230
1
0
LINE
5
C8
100
AcDbEntity
8
1
62
256
6
ByLayer
370
13
48
1
60
0
100
AcDbLine
10
205.943795
20
19.109255
30
0
11
205.101819
21
12.67572
31
0
39
0
210
0
220
0
230
1
0
LINE
5
C9
100
AcDbEntity
8
1
62
256
6
ByLayer
370
13
48
1
60
0
100
AcDbLine
10
221.84182
20
13.81875
30
0
11
221.837208
21
13.818509
31
0
39
0
210
0
220
0
230
1
0
LINE
5
CA
100
AcDbEntity
8
1
62
256
6
ByLayer
370
13
48
1
60
0
100
AcDbLine
10
202.744505
20
9.980399
30
0
11
203.483892
21
6.8902
31
0
39
0
210
0
220
0
230
1
0
LINE
5
CB
100
AcDbEntity
8
1
62
256
6
ByLayer
370
13
48
1
60
0
100
AcDbLine
10
220.860319
20
7.389031
30
0
11
221.677948
21
13.636525
31
0
39
0
210
0
220
0
230
1
0
LINE
5
CC
100
AcDbEntity
8
1
62
256
6
ByLayer
370
13
48
1
60
0
100
AcDbLine
10
218.710781
20
7.18416
30
0
11
219.552758
21
13.617695
31
0
39
0
210
0
220
0
230
1
0
LINE
5
CD
100
AcDbEntity
8
1
62
256
6
ByLayer
370
13
48
1
60
0
100
AcDbLine
10
219.619794
20
21.423715
30
0
11
219.615182
21
21.423473
31
0
39
0
210
0
220
0
230
1
0
LINE
5
CE
100
AcDbEntity
8
1
62
256
6
ByLayer
370
13
48
1
60
0
100
AcDbLine
10
220.570629
20
7.087931
30
0
11
220.257101
21
5.804147
31
0
39
0
210
0
220
0
230
1
0
LINE
5
CF
100
AcDbEntity
8
1
62
256
6
ByLayer
370
13
48
1
60
0
100
AcDbLine
10
221.844484
20
13.61788
30
0
11
221.839871
21
13.617638
31
0
39
0
210
0
220
0
230
1
0
LINE
5
D0
100
AcDbEntity
8
1
62
256
6
ByLayer
370
13
48
1
60
0
100
AcDbLine
10
205.727897
20
19.134437
30
0
11
205.74191
21
19.241511
31
0
39
0
210
0
220
0
230
1
0
LINE
5
D1
100
AcDbEntity
8
1
62
256
6
ByLayer
370
13
48
1
60
0
100
AcDbLine
10
202.674471
20
12.686676
30
0
11
203.490372
21
18.920968
31
0
39
0
210
0
220
0
230
1
0
LINE
5
D2
100
AcDbEntity
8
1
62
256
6
ByLayer
370
13
48
1
60
0
100
AcDbLine
10
202.50719
20
12.103103
30
0
11
203.755267
21
5.441822
31
0
39
0
210
0
220
0
230
1
0
LINE
5
D3
100
AcDbEntity
8
1
62
256
6
ByLayer
370
13
48
1
60
0
100
AcDbLine
10
220.062897
20
21.423615
30
0
11
220.058284
21
21.423374
31
0
39
0
210
0
220
0
230
1
0
LINE
5
D4
100
AcDbEntity
8
1
62
256
6
ByLayer
370
13
48
1
60
0
100
AcDbLine
10
220.729425
20
20.832953
30
0
11
221.837208
21
13.818509
31
0
39
0
210
0
220
0
230
1
0
LINE
5
D5
100
AcDbEntity
8
1
62
256
6
ByLayer
370
13
48
1
60
0
100
AcDbLine
10
202.677515
20
12.457109
30
0
11
203.785298
21
5.442665
31
0
39
0
210
0
220
0
230
1
0
LINE
5
D6
100
AcDbEntity
8
1
62
256
6
ByLayer
370
13
48
1
60
0
100
AcDbLine
10
221.026855
20
7.370386
30
0
11
221.022243
21
7.370145
31
0
39
0
210
0
220
0
230
1
0
LINE
5
D7
100
AcDbEntity
8
SK1
62
256
6
ByLayer
370
13
48
1
60
0
100
AcDbLine
10
-7.796888
20
-19.65
30
0
11
-7.796888
21
19.65
31
0
39
0
210
0
220
0
230
1
0
LINE
5
D8
100
AcDbEntity
8
SK1
62
256
6
ByLayer
370
13
48
1
60
0
100
AcDbLine
10
-13.5
20
-19.8475
30
0
11
-13.5
21
19.8475
31
0
39
0
210
0
220
0
230
1
0
LINE
5
D9
100
AcDbEntity
8
SK1
62
256
6
ByLayer
370
13
48
1
60
0
100
AcDbLine
10
-9
20
-19.8475
30
0
11
-9
21
19.8475
31
0
39
0
210
0
220
0
230
1
0
LINE
5
DA
100
AcDbEntity
8
SK1
62
256
6
ByLayer
370
13
48
1
60
0
100
AcDbLine
10
-15
20
-19.445576
30
0
11
-15
21
19.445576
31
0
39
0
210
0
220
0
230
1
0
LINE
5
DB
100
AcDbEntity
8
SK1
62
256
6
ByLayer
370
13
48
1
60
0
100
AcDbLine
10
-8.57646
20
-19.65
30
0
11
-8.57646
21
19.65
31
0
39
0
210
0
220
0
230
1
0
LINE
5
DC
100
AcDbEntity
8
SK1
62
256
6
ByLayer
370
13
48
1
60
0
100
AcDbLine
10
-1.57646
20
-19.8
30
0
11
-1.57646
21
19.8
31
0
39
0
210
0
220
0
230
1
0
LINE
5
DD
100
AcDbEntity
8
1
62
256
6
ByLayer
370
18
48
1
60
0
100
AcDbLine
10
213.554101
20
13.598095
30
0
11
213.534191
21
13.597491
31
0
39
0
210
0
220
0
230
1
0
LINE
5
DE
100
AcDbEntity
8
1
62
256
6
ByLayer
370
18
48
1
60
0
100
AcDbLine
10
213.574699
20
12.824549
30
0
11
213.594563
21
12.826029
31
0
39
0
210
0
220
0
230
1
0
LINE
5
DF
100
AcDbEntity
8
1
62
256
6
ByLayer
370
18
48
1
60
0
100
AcDbLine
10
213.268671
20
14.256343
30
0
11
213.132962
21
14.249231
31
0
39
0
210
0
220
0
230
1
0
LINE
5
E0
100
AcDbEntity
8
1
62
256
6
ByLayer
370
18
48
1
60
0
100
AcDbLine
10
211.826345
20
11.673061
30
0
11
211.835771
21
11.690679
31
0
39
0
210
0
220
0
230
1
0
LINE
5
E1
100
AcDbEntity
8
1
62
256
6
ByLayer
370
18
48
1
60
0
100
AcDbLine
10
211.970459
20
11.697738
30
0
11
211.835771
21
11.690679
31
0
39
0
210
0
220
0
230
1
0
LINE
5
E2
100
AcDbEntity
8
1
62
256
6
ByLayer
370
18
48
1
60
0
100
AcDbLine
10
213.668878
20
13.604549
30
0
11
213.534191
21
13.597491
31
0
39
0
210
0
220
0
230
1
0
LINE
5
E3
100
AcDbEntity
8
1
62
256
6
ByLayer
370
18
48
1
60
0
100
AcDbLine
10
211.686268
20
14.543381
30
0
11
211.675051
21
14.559918
31
0
39
0
210
0
220
0
230
1
0
LINE
5
E4
100
AcDbEntity
8
1
62
256
6
ByLayer
370
18
48
1
60
0
100
AcDbLine
10
211.810761
20
14.56703
30
0
11
211.675051
21
14.559918
31
0
39
0
210
0
220
0
230
1
0
LINE
5
E5
100
AcDbEntity
8
1
62
256
6
ByLayer
370
18
48
1
60
0
100
AcDbLine
10
213.243793
20
12.134439
30
0
11
213.233309
21
12.151453
31
0
39
0
210
0
220
0
230
1
0
LINE
5
E6
100
AcDbEntity
8
1
62
256
6
ByLayer
370
18
48
1
60
0
100
AcDbLine
10
213.709386
20
12.831608
30
0
11
213.574699
21
12.824549
31
0
39
0
210
0
220
0
230
1
0
LINE
5
E7
100
AcDbEntity
8
1
62
256
6
ByLayer
370
18
48
1
60
0
100
AcDbLine
10
210.854915
20
12.682451
30
0
11
210.7866
21
12.67887
31
0
39
0
210
0
220
0
230
1
0
LINE
5
E8
100
AcDbEntity
8
1
62
256
6
ByLayer
370
18
48
1
60
0
100
AcDbLine
10
213.124314
20
14.231214
30
0
11
213.132962
21
14.249231
31
0
39
0
210
0
220
0
230
1
0
LINE
5
E9
100
AcDbEntity
8
1
62
256
6
ByLayer
370
18
48
1
60
0
100
AcDbLine
10
211.962055
20
11.680173
30
0
11
211.826345
21
11.673061
31
0
39
0
210
0
220
0
230
1
0
LINE
5
EA
100
AcDbEntity
8
1
62
256
6
ByLayer
370
18
48
1
60
0
100
AcDbLine
10
213.367997
20
12.158512
30
0
11
213.233309
21
12.151453
31
0
39
0
210
0
220
0
230
1
0
LINE
5
EB
100
AcDbEntity
8
1
62
256
6
ByLayer
370
18
48
1
60
0
100
AcDbLine
10
210.814452
20
13.454516
30
0
11
210.746727
21
13.450966
31
0
39
0
210
0
220
0
230
1
0
LINE
5
EC
100
AcDbEntity
8
1
62
256
6
ByLayer
370
18
48
1
60
0
100
AcDbLine
10
211.820955
20
14.55044
30
0
11
211.686268
21
14.543381
31
0
39
0
210
0
220
0
230
1
0
LINE
5
ED
100
AcDbEntity
8
1
62
256
6
ByLayer
370
18
48
1
60
0
100
AcDbLine
10
213.379503
20
12.141551
30
0
11
213.243793
21
12.134439
31
0
39
0
210
0
220
0
230
1
0
LINE
5
EE
100
AcDbEntity
8
1
62
256
6
ByLayer
370
18
48
1
60
0
100
AcDbLine
10
213.259001
20
14.238273
30
0
11
213.124314
21
14.231214
31
0
39
0
210
0
220
0
230
1
0
LINE
5
EF
100
AcDbEntity
8
1
62
256
6
ByLayer
370
18
48
1
60
0
100
AcDbLine
10
220.457189
20
0.085542
30
0
11
221.555958
21
-6.805475
31
0
39
0
210
0
220
0
230
1
0
LINE
5
F0
100
AcDbEntity
8
1
62
256
6
ByLayer
370
18
48
1
60
0
100
AcDbLine
10
220.420025
20
0.235771
30
0
11
220.436048
21
0.180267
31
0
39
0
210
0
220
0
230
1
0
LINE
5
F1
100
AcDbEntity
8
1
62
256
6
ByLayer
370
18
48
1
60
0
100
AcDbLine
10
220.06273
20
0.493332
30
0
11
220.129268
21
0.48463
31
0
39
0
210
0
220
0
230
1
0
LINE
5
F2
100
AcDbEntity
8
1
62
256
6
ByLayer
370
18
48
1
60
0
100
AcDbLine
10
220.41142
20
-14.090288
30
0
11
220.355543
21
-14.106204
31
0
39
0
210
0
220
0
230
1
0
LINE
5
F3
100
AcDbEntity
8
1
62
256
6
ByLayer
370
18
48
1
60
0
100
AcDbLine
10
220.260181
20
-14.127204
30
0
11
220.228529
21
-14.132184
31
0
39
0
210
0
220
0
230
1
0
LINE
5
F4
100
AcDbEntity
8
1
62
256
6
ByLayer
370
18
48
1
60
0
100
AcDbLine
10
221.558963
20
-7.03351
30
0
11
220.661953
21
-13.801473
31
0
39
0
210
0
220
0
230
1
0
LINE
5
F5
100
AcDbEntity
8
SK1
62
256
6
ByLayer
370
13
48
1
60
0
100
AcDbLine
10
-2
20
-19.9975
30
0
11
-2
21
19.9975
31
0
39
0
210
0
220
0
230
1
0
LINE
5
F6
100
AcDbEntity
8
SK1
62
256
6
ByLayer
370
13
48
1
60
0
100
AcDbLine
10
-6.5
20
-19.9975
30
0
11
-6.5
21
19.9975
31
0
39
0
210
0
220
0
230
1
0
LINE
5
F7
100
AcDbEntity
8
1
62
256
6
ByLayer
370
13
48
1
60
0
100
AcDbLine
10
202.743922
20
14.304111
30
0
11
203.472728
21
19.872911
31
0
39
0
210
0
220
0
230
1
0
LINE
5
F8
100
AcDbEntity
8
1
62
256
6
ByLayer
370
13
48
1
60
0
100
AcDbLine
10
6.5
20
28
30
0
11
6.5
21
-28
31
0
39
0
210
0
220
0
230
1
0
LINE
5
F9
100
AcDbEntity
8
1
62
256
6
ByLayer
370
13
48
1
60
0
100
AcDbLine
10
194.246633
20
2.617869
30
0
11
194.635185
21
0.594599
31
0
39
0
210
0
220
0
230
1
0
LINE
5
FA
100
AcDbEntity
8
1
62
256
6
ByLayer
370
13
48
1
60
0
100
AcDbLine
10
211.12676
20
5.047777
30
0
11
211.908409
21
5.088742
31
0
39
0
210
0
220
0
230
1
0
LINE
5
FB
100
AcDbEntity
8
1
62
256
6
ByLayer
370
13
48
1
60
0
100
AcDbLine
10
220.568409
20
5.64273
30
0
11
220.435312
21
5.635755
31
0
39
0
210
0
220
0
230
1
0
LINE
5
FC
100
AcDbEntity
8
1
62
256
6
ByLayer
370
13
48
1
60
0
100
AcDbLine
10
207.658567
20
6.077354
30
0
11
207.424077
21
6.065065
31
0
39
0
210
0
220
0
230
1
0
LINE
5
FD
100
AcDbEntity
8
1
62
256
6
ByLayer
370
13
48
1
60
0
100
AcDbLine
10
5
20
-28.671516
30
0
11
5
21
-25.100516
31
0
39
0
210
0
220
0
230
1
0
LINE
5
FE
100
AcDbEntity
8
1
62
256
6
ByLayer
370
13
48
1
60
0
100
AcDbLine
10
198.555653
20
1.464442
30
0
11
198.95408
21
-0.61025
31
0
39
0
210
0
220
0
230
1
0
LINE
5
FF
100
AcDbEntity
8
1
62
256
6
ByLayer
370
13
48
1
60
0
100
AcDbLine
10
220.131906
20
-0.206392
30
0
11
221.057238
21
-6.009691
31
0
39
0
210
0
220
0
230
1
0
LINE
5
100
100
AcDbEntity
8
1
62
256
6
ByLayer
370
13
48
1
60
0
100
AcDbLine
10
45.01
20
-11.542008
30
0
11
45.01
21
-20.274886
31
0
39
0
210
0
220
0
230
1
0
LINE
5
101
100
AcDbEntity
8
1
62
256
6
ByLayer
370
13
48
1
60
0
100
AcDbLine
10
219.393892
20
-4.197965
30
0
11
221.057238
21
-6.009691
31
0
39
0
210
0
220
0
230
1
0
LINE
5
102
100
AcDbEntity
8
1
62
256
6
ByLayer
370
13
48
1
60
0
100
AcDbLine
10
219.845363
20
-20.83489
30
0
11
220.597398
21
-15.160767
31
0
39
0
210
0
220
0
230
1
0
LINE
5
103
100
AcDbEntity
8
1
62
256
6
ByLayer
370
13
48
1
60
0
100
AcDbLine
10
220.496301
20
0.618091
30
0
11
220.484416
21
0.619646
31
0
39
0
210
0
220
0
230
1
0
LINE
5
104
100
AcDbEntity
8
1
62
256
6
ByLayer
370
13
48
1
60
0
100
AcDbLine
10
220.131906
20
-0.206392
30
0
11
218.709888
21
1.342478
31
0
39
0
210
0
220
0
230
1
0
LINE
5
105
100
AcDbEntity
8
1
62
256
6
ByLayer
370
13
48
1
60
0
100
AcDbLine
10
204.550462
20
20.281645
30
0
11
204.590379
21
20.586649
31
0
39
0
210
0
220
0
230
1
0
LINE
5
106
100
AcDbEntity
8
1
62
256
6
ByLayer
370
13
48
1
60
0
100
AcDbLine
10
199.697822
20
9.902659
30
0
11
199.697822
21
13.182058
31
0
39
0
210
0
220
0
230
1
0
LINE
5
107
100
AcDbEntity
8
1
62
256
6
ByLayer
370
13
48
1
60
0
100
AcDbLine
10
220.596044
20
1.113343
30
0
11
220.572347
21
1.116442
31
0
39
0
210
0
220
0
230
1
0
LINE
5
108
100
AcDbEntity
8
1
62
256
6
ByLayer
370
13
48
1
60
0
100
AcDbLine
10
50
20
20.9625
30
0
11
50
21
-7.425152
31
0
39
0
210
0
220
0
230
1
0
LINE
5
109
100
AcDbEntity
8
1
62
256
6
ByLayer
370
13
48
1
60
0
100
AcDbLine
10
215.633043
20
6.753698
30
0
11
215.450907
21
6.744152
31
0
39
0
210
0
220
0
230
1
0
LINE
5
10A
100
AcDbEntity
8
1
62
256
6
ByLayer
370
13
48
1
60
0
100
AcDbLine
10
201.346158
20
10.635365
30
0
11
199.697822
21
13.182058
31
0
39
0
210
0
220
0
230
1
0
LINE
5
10B
100
AcDbEntity
8
1
62
256
6
ByLayer
370
13
48
1
60
0
100
AcDbLine
10
0.5
20
4.071
30
0
11
4.5
21
4.071
31
0
39
0
210
0
220
0
230
1
0
LINE
5
10C
100
AcDbEntity
8
1
62
256
6
ByLayer
370
13
48
1
60
0
100
AcDbLine
10
220.591938
20
5.521789
30
0
11
220.57556
21
5.52093
31
0
39
0
210
0
220
0
230
1
0
LINE
5
10D
100
AcDbEntity
8
1
62
256
6
ByLayer
370
13
48
1
60
0
100
AcDbLine
10
201.107106
20
20.9625
30
0
11
201.107106
21
20.774993
31
0
39
0
210
0
220
0
230
1
0
LINE
5
10E
100
AcDbEntity
8
1
62
256
6
ByLayer
370
13
48
1
60
0
100
AcDbLine
10
115.8
20
-20.722426
30
0
11
115.8
21
-20.7475
31
0
39
0
210
0
220
0
230
1
0
LINE
5
10F
100
AcDbEntity
8
1
62
256
6
ByLayer
370
13
48
1
60
0
100
AcDbLine
10
218.746381
20
2.098554
30
0
11
220.060771
21
0.666913
31
0
39
0
210
0
220
0
230
1
0
LINE
5
110
100
AcDbEntity
8
1
62
256
6
ByLayer
370
13
48
1
60
0
100
AcDbLine
10
0
20
-30.75
30
0
11
0
21
-28.431373
31
0
39
0
210
0
220
0
230
1
0
LINE
5
111
100
AcDbEntity
8
1
62
256
6
ByLayer
370
13
48
1
60
0
100
AcDbLine
10
6
20
-31.25
30
0
11
6
21
31.25
31
0
39
0
210
0
220
0
230
1
0
LINE
5
112
100
AcDbEntity
8
1
62
256
6
ByLayer
370
13
48
1
60
0
100
AcDbLine
10
221.079658
20
-7.710778
30
0
11
219.484227
21
-5.973024
31
0
39
0
210
0
220
0
230
1
0
LINE
5
113
100
AcDbEntity
8
1
62
256
6
ByLayer
370
13
48
1
60
0
100
AcDbLine
10
220.836478
20
5.050586
30
0
11
220.691434
21
4.499534
31
0
39
0
210
0
220
0
230
1
0
LINE
5
114
100
AcDbEntity
8
1
62
256
6
ByLayer
370
13
48
1
60
0
100
AcDbLine
10
198.107106
20
20.7475
30
0
11
198.107106
21
20.51811
31
0
39
0
210
0
220
0
230
1
0
LINE
5
115
100
AcDbEntity
8
1
62
256
6
ByLayer
370
13
48
1
60
0
100
AcDbLine
10
207.698223
20
6.169879
30
0
11
207.707447
21
6.170363
31
0
39
0
210
0
220
0
230
1
0
LINE
5
116
100
AcDbEntity
8
1
62
256
6
ByLayer
370
13
48
1
60
0
100
AcDbLine
10
0
20
-28.431373
30
0
11
0
21
-25.418186
31
0
39
0
210
0
220
0
230
1
0
LINE
5
117
100
AcDbEntity
8
1
62
256
6
ByLayer
370
13
48
1
60
0
100
AcDbLine
10
0
20
-4.071
30
0
11
0
21
4.071
31
0
39
0
210
0
220
0
230
1
0
LINE
5
118
100
AcDbEntity
8
1
62
256
6
ByLayer
370
13
48
1
60
0
100
AcDbLine
10
220.591938
20
5.521789
30
0
11
220.836478
21
5.050586
31
0
39
0
210
0
220
0
230
1
0
LINE
5
119
100
AcDbEntity
8
1
62
256
6
ByLayer
370
13
48
1
60
0
100
AcDbLine
10
219.201996
20
5.470982
30
0
11
220.157179
21
5.521041
31
0
39
0
210
0
220
0
230
1
0
LINE
5
11A
100
AcDbEntity
8
1
62
256
6
ByLayer
370
13
48
1
60
0
100
AcDbLine
10
220.836478
20
5.050586
30
0
11
220.842135
21
0.811315
31
0
39
0
210
0
220
0
230
1
0
LINE
5
11B
100
AcDbEntity
8
1
62
256
6
ByLayer
370
13
48
1
60
0
100
AcDbLine
10
4.5
20
-28.868168
30
0
11
4.5
21
-25.418186
31
0
39
0
210
0
220
0
230
1
0
LINE
5
11C
100
AcDbEntity
8
1
62
256
6
ByLayer
370
13
48
1
60
0
100
AcDbLine
10
50
20
-20.891032
30
0
11
50
21
-20.9625
31
0
39
0
210
0
220
0
230
1
0
LINE
5
11D
100
AcDbEntity
8
1
62
256
6
ByLayer
370
13
48
1
60
0
100
AcDbLine
10
201.107106
20
-20.83489
30
0
11
201.107106
21
-0.7302
31
0
39
0
210
0
220
0
230
1
0
LINE
5
11E
100
AcDbEntity
8
1
62
256
6
ByLayer
370
13
48
1
60
0
100
AcDbLine
10
208.144499
20
4.422711
30
0
11
208.626557
21
4.447974
31
0
39
0
210
0
220
0
230
1
0
LINE
5
11F
100
AcDbEntity
8
1
62
256
6
ByLayer
370
13
48
1
60
0
100
AcDbLine
10
4.5
20
-28.868168
30
0
11
0.5
21
-28.868168
31
0
39
0
210
0
220
0
230
1
0
LINE
5
120
100
AcDbEntity
8
1
62
256
6
ByLayer
370
13
48
1
60
0
100
AcDbLine
10
0.5
20
-24.797168
30
0
11
4.5
21
-24.797168
31
0
39
0
210
0
220
0
230
1
0
LINE
5
121
100
AcDbEntity
8
1
62
256
6
ByLayer
370
13
48
1
60
0
100
AcDbLine
10
199.980651
20
9.87345
30
0
11
201.346158
21
10.635365
31
0
39
0
210
0
220
0
230
1
0
LINE
5
122
100
AcDbEntity
8
1
62
256
6
ByLayer
370
13
48
1
60
0
100
AcDbLine
10
45
20
20.9625
30
0
11
45
21
-7.42174
31
0
39
0
210
0
220
0
230
1
0
LINE
5
123
100
AcDbEntity
8
1
62
256
6
ByLayer
370
13
48
1
60
0
100
AcDbLine
10
203.474018
20
18.965821
30
0
11
202.90081
21
14.585942
31
0
39
0
210
0
220
0
230
1
0
LINE
5
124
100
AcDbEntity
8
1
62
256
6
ByLayer
370
13
48
1
60
0
100
AcDbLine
10
4.5
20
-24.797102
30
0
11
4.5
21
-25.418186
31
0
39
0
210
0
220
0
230
1
0
LINE
5
125
100
AcDbEntity
8
1
62
256
6
ByLayer
370
13
48
1
60
0
100
AcDbLine
10
210.98218
20
6.041572
30
0
11
218.586596
21
6.440103
31
0
39
0
210
0
220
0
230
1
0
LINE
5
126
100
AcDbEntity
8
1
62
256
6
ByLayer
370
13
48
1
60
0
100
AcDbLine
10
0.5
20
4.071
30
0
11
0.5
21
31.25
31
0
39
0
210
0
220
0
230
1
0
LINE
5
127
100
AcDbEntity
8
1
62
256
6
ByLayer
370
13
48
1
60
0
100
AcDbLine
10
220.596044
20
1.113343
30
0
11
220.842135
21
0.811315
31
0
39
0
210
0
220
0
230
1
0
LINE
5
128
100
AcDbEntity
8
1
62
256
6
ByLayer
370
13
48
1
60
0
100
AcDbLine
10
221.079658
20
-7.710778
30
0
11
220.215161
21
-14.233427
31
0
39
0
210
0
220
0
230
1
0
LINE
5
129
100
AcDbEntity
8
1
62
256
6
ByLayer
370
13
48
1
60
0
100
AcDbLine
10
17.2986
20
28
30
0
11
17.2986
21
-28
31
0
39
0
210
0
220
0
230
1
0
LINE
5
12A
100
AcDbEntity
8
1
62
256
6
ByLayer
370
13
48
1
60
0
100
AcDbLine
10
202.978929
20
8.496013
30
0
11
202.35128
21
12.470268
31
0
39
0
210
0
220
0
230
1
0
LINE
5
12B
100
AcDbEntity
8
1
62
256
6
ByLayer
370
13
48
1
60
0
100
AcDbLine
10
4.5
20
-4.071
30
0
11
0.5
21
-4.071
31
0
39
0
210
0
220
0
230
1
0
LINE
5
12C
100
AcDbEntity
8
1
62
256
6
ByLayer
370
13
48
1
60
0
100
AcDbLine
10
219.845363
20
-20.83489
30
0
11
201.107106
21
-20.83489
31
0
39
0
210
0
220
0
230
1
0
LINE
5
12D
100
AcDbEntity
8
1
62
256
6
ByLayer
370
13
48
1
60
0
100
AcDbLine
10
45
20
-20.890954
30
0
11
45
21
-20.9625
31
0
39
0
210
0
220
0
230
1
0
LINE
5
12E
100
AcDbEntity
8
1
62
256
6
ByLayer
370
13
48
1
60
0
100
AcDbLine
10
207.419656
20
6.054735
30
0
11
206.8946
21
6.027218
31
0
39
0
210
0
220
0
230
1
0
LINE
5
12F
100
AcDbEntity
8
1
62
256
6
ByLayer
370
13
48
1
60
0
100
AcDbLine
10
0
20
4.071
30
0
11
0
21
30.75
31
0
39
0
210
0
220
0
230
1
0
LINE
5
130
100
AcDbEntity
8
1
62
256
6
ByLayer
370
13
48
1
60
0
100
AcDbLine
10
220.842135
20
0.811315
30
0
11
220.506257
21
0.66306
31
0
39
0
210
0
220
0
230
1
0
LINE
5
131
100
AcDbEntity
8
1
62
256
6
ByLayer
370
13
48
1
60
0
100
AcDbLine
10
220.359994
20
0.598499
30
0
11
220.154908
21
0.507976
31
0
39
0
210
0
220
0
230
1
0
LINE
5
132
100
AcDbEntity
8
1
62
256
6
ByLayer
370
13
48
1
60
0
100
AcDbLine
10
220.691434
20
4.499534
30
0
11
220.65561
21
4.497657
31
0
39
0
210
0
220
0
230
1
0
LINE
5
133
100
AcDbEntity
8
1
62
256
6
ByLayer
370
13
48
1
60
0
100
AcDbLine
10
4.5
20
-4.071
30
0
11
4.5
21
4.071
31
0
39
0
210
0
220
0
230
1
0
LINE
5
134
100
AcDbEntity
8
1
62
256
6
ByLayer
370
13
48
1
60
0
100
AcDbLine
10
0
20
-25.418186
30
0
11
0
21
-24.365783
31
0
39
0
210
0
220
0
230
1
0
LINE
5
135
100
AcDbEntity
8
1
62
256
6
ByLayer
370
13
48
1
60
0
100
AcDbLine
10
220.618189
20
4.794942
30
0
11
220.568409
21
5.64273
31
0
39
0
210
0
220
0
230
1
0
LINE
5
136
100
AcDbEntity
8
1
62
256
6
ByLayer
370
13
48
1
60
0
100
AcDbLine
10
208.048334
20
6.388502
30
0
11
210.136758
21
6.497952
31
0
39
0
210
0
220
0
230
1
0
LINE
5
137
100
AcDbEntity
8
1
62
256
6
ByLayer
370
13
48
1
60
0
100
AcDbLine
10
212.379777
20
5.113445
30
0
11
219.201996
21
5.470982
31
0
39
0
210
0
220
0
230
1
0
LINE
5
138
100
AcDbEntity
8
1
62
256
6
ByLayer
370
13
48
1
60
0
100
AcDbLine
10
0
20
-24.360373
30
0
11
0
21
-4.071
31
0
39
0
210
0
220
0
230
1
0
LINE
5
139
100
AcDbEntity
8
1
62
256
6
ByLayer
370
13
48
1
60
0
100
AcDbLine
10
115.8
20
-8.098548
30
0
11
115.8
21
20.730576
31
0
39
0
210
0
220
0
230
1
0
LINE
5
13A
100
AcDbEntity
8
1
62
256
6
ByLayer
370
13
48
1
60
0
100
AcDbLine
10
198.107106
20
-20.621323
30
0
11
191.16573
21
-20.621323
31
0
39
0
210
0
220
0
230
1
0
LINE
5
13B
100
AcDbEntity
8
1
62
256
6
ByLayer
370
13
48
1
60
0
100
AcDbLine
10
215.804343
20
6.794977
30
0
11
217.892767
21
6.904427
31
0
39
0
210
0
220
0
230
1
0
LINE
5
13C
100
AcDbEntity
8
1
62
256
6
ByLayer
370
13
48
1
60
0
100
AcDbLine
10
220.504087
20
0.608536
30
0
11
220.479321
21
0.611775
31
0
39
0
210
0
220
0
230
1
0
LINE
5
13D
100
AcDbEntity
8
1
62
256
6
ByLayer
370
13
48
1
60
0
100
AcDbLine
10
200.054295
20
5.74886
30
0
11
201.928431
21
5.173051
31
0
39
0
210
0
220
0
230
1
0
LINE
5
13E
100
AcDbEntity
8
1
62
256
6
ByLayer
370
13
48
1
60
0
100
AcDbLine
10
0
20
-25.418186
30
0
11
4.5
21
-25.418186
31
0
39
0
210
0
220
0
230
1
0
LINE
5
13F
100
AcDbEntity
8
1
62
256
6
ByLayer
370
13
48
1
60
0
100
AcDbLine
10
0.5
20
-24.797168
30
0
11
0.5
21
-4.071
31
0
39
0
210
0
220
0
230
1
0
LINE
5
140
100
AcDbEntity
8
1
62
256
6
ByLayer
370
13
48
1
60
0
100
AcDbLine
10
218.709888
20
1.342478
30
0
11
218.79834
21
-0.890301
31
0
39
0
210
0
220
0
230
1
0
LINE
5
141
100
AcDbEntity
8
1
62
256
6
ByLayer
370
13
48
1
60
0
100
AcDbLine
10
203.472728
20
19.872911
30
0
11
203.423996
21
20.802785
31
0
39
0
210
0
220
0
230
1
0
LINE
5
142
100
AcDbEntity
8
1
62
256
6
ByLayer
370
13
48
1
60
0
100
AcDbLine
10
218.3471
20
6.727963
30
0
11
207.707447
21
6.170363
31
0
39
0
210
0
220
0
230
1
0
LINE
5
143
100
AcDbEntity
8
1
62
256
6
ByLayer
370
13
48
1
60
0
100
AcDbLine
10
220.496301
20
0.618091
30
0
11
220.504087
21
0.608536
31
0
39
0
210
0
220
0
230
1
0
LINE
5
144
100
AcDbEntity
8
1
62
256
6
ByLayer
370
13
48
1
60
0
100
AcDbLine
10
5
20
-3.571
30
0
11
5
21
3.571
31
0
39
0
210
0
220
0
230
1
0
LINE
5
145
100
AcDbEntity
8
1
62
256
6
ByLayer
370
13
48
1
60
0
100
AcDbLine
10
220.597398
20
-15.160767
30
0
11
220.200702
21
-14.796246
31
0
39
0
210
0
220
0
230
1
0
LINE
5
146
100
AcDbEntity
8
1
62
256
6
ByLayer
370
13
48
1
60
0
100
AcDbLine
10
0.5
20
-31.25
30
0
11
0.5
21
-28.868168
31
0
39
0
210
0
220
0
230
1
0
LINE
5
147
100
AcDbEntity
8
1
62
256
6
ByLayer
370
13
48
1
60
0
100
AcDbLine
10
198.107106
20
-20.621323
30
0
11
198.107106
21
-0.522018
31
0
39
0
210
0
220
0
230
1
0
LINE
5
148
100
AcDbEntity
8
1
62
256
6
ByLayer
370
13
48
1
60
0
100
AcDbLine
10
219.201996
20
5.470982
30
0
11
218.746381
21
2.098554
31
0
39
0
210
0
220
0
230
1
0
LINE
5
149
100
AcDbEntity
8
4
62
256
6
ByLayer
370
18
48
0.05
60
0
100
AcDbLine
10
222
20
0
30
0
11
0
21
0
31
0
39
0
210
0
220
0
230
1
0
LINE
5
14B
100
AcDbEntity
8
SK4
62
256
6
ByLayer
370
13
48
0.05
60
0
100
AcDbLine
10
222
20
0
30
0
11
-15
21
0
31
0
39
0
210
0
220
0
230
1
0
LINE
5
14D
100
AcDbEntity
8
SK1
62
256
6
ByLayer
370
13
48
1
60
0
100
AcDbLine
10
-7.796888
20
19.65
30
0
11
-8.57646
21
19.65
31
0
39
0
210
0
220
0
230
1
0
LINE
5
14E
100
AcDbEntity
8
SK1
62
256
6
ByLayer
370
13
48
1
60
0
100
AcDbLine
10
-8.57646
20
-19.65
30
0
11
-7.796888
21
-19.65
31
0
39
0
210
0
220
0
230
1
0
LINE
5
14F
100
AcDbEntity
8
SK1
62
256
6
ByLayer
370
13
48
1
60
0
100
AcDbLine
10
-0.3
20
19.8
30
0
11
-1.57646
21
19.8
31
0
39
0
210
0
220
0
230
1
0
LINE
5
150
100
AcDbEntity
8
SK1
62
256
6
ByLayer
370
13
48
1
60
0
100
AcDbLine
10
-1.57646
20
-19.8
30
0
11
-0.3
21
-19.8
31
0
39
0
210
0
220
0
230
1
0
LINE
5
151
100
AcDbEntity
8
SK1
62
256
6
ByLayer
370
13
48
1
60
0
100
AcDbLine
10
-15
20
-19.445576
30
0
11
-13.5
21
-19.8475
31
0
39
0
210
0
220
0
230
1
0
LINE
5
152
100
AcDbEntity
8
SK1
62
256
6
ByLayer
370
13
48
1
60
0
100
AcDbLine
10
-13.5
20
19.8475
30
0
11
-15
21
19.445576
31
0
39
0
210
0
220
0
230
1
0
LINE
5
153
100
AcDbEntity
8
SK1
62
256
6
ByLayer
370
13
48
1
60
0
100
AcDbLine
10
-8.57646
20
19.65
30
0
11
-9
21
19.8475
31
0
39
0
210
0
220
0
230
1
0
LINE
5
154
100
AcDbEntity
8
SK1
62
256
6
ByLayer
370
13
48
1
60
0
100
AcDbLine
10
-9
20
-19.8475
30
0
11
-8.57646
21
-19.65
31
0
39
0
210
0
220
0
230
1
0
LINE
5
155
100
AcDbEntity
8
SK1
62
256
6
ByLayer
370
13
48
1
60
0
100
AcDbLine
10
-9
20
19.8475
30
0
11
-13.5
21
19.8475
31
0
39
0
210
0
220
0
230
1
0
LINE
5
156
100
AcDbEntity
8
SK1
62
256
6
ByLayer
370
13
48
1
60
0
100
AcDbLine
10
-13.5
20
-19.8475
30
0
11
-9
21
-19.8475
31
0
39
0
210
0
220
0
230
1
0
LINE
5
157
100
AcDbEntity
8
SK1
62
256
6
ByLayer
370
13
48
1
60
0
100
AcDbLine
10
-7.796888
20
-19.65
30
0
11
-6.5
21
-19.9975
31
0
39
0
210
0
220
0
230
1
0
LINE
5
158
100
AcDbEntity
8
SK1
62
256
6
ByLayer
370
13
48
1
60
0
100
AcDbLine
10
-6.5
20
19.9975
30
0
11
-7.796888
21
19.65
31
0
39
0
210
0
220
0
230
1
0
LINE
5
159
100
AcDbEntity
8
SK1
62
256
6
ByLayer
370
13
48
1
60
0
100
AcDbLine
10
-1.57646
20
19.8
30
0
11
-2
21
19.9975
31
0
39
0
210
0
220
0
230
1
0
LINE
5
15A
100
AcDbEntity
8
SK1
62
256
6
ByLayer
370
13
48
1
60
0
100
AcDbLine
10
-2
20
-19.9975
30
0
11
-1.57646
21
-19.8
31
0
39
0
210
0
220
0
230
1
0
LINE
5
15B
100
AcDbEntity
8
SK1
62
256
6
ByLayer
370
13
48
1
60
0
100
AcDbLine
10
-2
20
19.9975
30
0
11
-6.5
21
19.9975
31
0
39
0
210
0
220
0
230
1
0
LINE
5
15C
100
AcDbEntity
8
SK1
62
256
6
ByLayer
370
13
48
1
60
0
100
AcDbLine
10
-6.5
20
-19.9975
30
0
11
-2
21
-19.9975
31
0
39
0
210
0
220
0
230
1
0
LINE
5
15D
100
AcDbEntity
8
1
62
256
6
ByLayer
370
13
48
1
60
0
100
AcDbLine
10
102.229219
20
20.791842
30
0
11
82.471525
21
20.8564
31
0
39
0
210
0
220
0
230
1
0
LINE
5
15E
100
AcDbEntity
8
1
62
256
6
ByLayer
370
13
48
1
60
0
100
AcDbLine
10
45
20
-20.9625
30
0
11
50
21
-20.9625
31
0
39
0
210
0
220
0
230
1
0
LINE
5
15F
100
AcDbEntity
8
1
62
256
6
ByLayer
370
13
48
1
60
0
100
AcDbLine
10
50
20
-20.9625
30
0
11
115.8
21
-20.7475
31
0
39
0
210
0
220
0
230
1
0
LINE
5
160
100
AcDbEntity
8
1
62
256
6
ByLayer
370
13
48
1
60
0
100
AcDbLine
10
203.175703
20
20.9625
30
0
11
201.107106
21
20.9625
31
0
39
0
210
0
220
0
230
1
0
LINE
5
161
100
AcDbEntity
8
1
62
256
6
ByLayer
370
13
48
1
60
0
100
AcDbLine
10
201.107106
20
20.9625
30
0
11
198.107106
21
20.7475
31
0
39
0
210
0
220
0
230
1
0
LINE
5
162
100
AcDbEntity
8
1
62
256
6
ByLayer
370
13
48
1
60
0
100
AcDbLine
10
115.8
20
-20.7475
30
0
11
122.835278
21
-20.7475
31
0
39
0
210
0
220
0
230
1
0
LINE
5
163
100
AcDbEntity
8
1
62
256
6
ByLayer
370
13
48
1
60
0
100
AcDbLine
10
198.107106
20
20.7475
30
0
11
188.855221
21
20.7475
31
0
39
0
210
0
220
0
230
1
0
LINE
5
164
100
AcDbEntity
8
1
62
256
6
ByLayer
370
13
48
1
60
0
100
AcDbLine
10
0
20
-30.75
30
0
11
0.5
21
-31.25
31
0
39
0
210
0
220
0
230
1
0
LINE
5
165
100
AcDbEntity
8
1
62
256
6
ByLayer
370
13
48
1
60
0
100
AcDbLine
10
6.5
20
-28
30
0
11
17.2986
21
-28
31
0
39
0
210
0
220
0
230
1
0
LINE
5
166
100
AcDbEntity
8
1
62
256
6
ByLayer
370
13
48
1
60
0
100
AcDbLine
10
17.2986
20
28
30
0
11
6.5
21
28
31
0
39
0
210
0
220
0
230
1
0
LINE
5
167
100
AcDbEntity
8
1
62
256
6
ByLayer
370
13
48
1
60
0
100
AcDbLine
10
0.5
20
31.25
30
0
11
0
21
30.75
31
0
39
0
210
0
220
0
230
1
0
LINE
5
168
100
AcDbEntity
8
1
62
256
6
ByLayer
370
13
48
1
60
0
100
AcDbLine
10
6
20
31.25
30
0
11
0.5
21
31.25
31
0
39
0
210
0
220
0
230
1
0
LINE
5
169
100
AcDbEntity
8
1
62
256
6
ByLayer
370
13
48
1
60
0
100
AcDbLine
10
0.5
20
-31.25
30
0
11
6
21
-31.25
31
0
39
0
210
0
220
0
230
1
0
LINE
5
16A
100
AcDbEntity
8
1
62
256
6
ByLayer
370
13
48
1
60
0
100
AcDbLine
10
220.649065
20
6.317851
30
0
11
221.103622
21
7.289247
31
0
39
0
210
0
220
0
230
1
0
LINE
5
16B
100
AcDbEntity
8
1
62
256
6
ByLayer
370
13
48
1
60
0
100
AcDbLine
10
219.729959
20
13.791406
30
0
11
218.743837
21
20.035491
31
0
39
0
210
0
220
0
230
1
0
LINE
5
16C
100
AcDbEntity
8
1
62
256
6
ByLayer
370
13
48
1
60
0
100
AcDbLine
10
218.890641
20
7.15724
30
0
11
219.732618
21
13.590774
31
0
39
0
210
0
220
0
230
1
0
LINE
5
16D
100
AcDbEntity
8
1
62
256
6
ByLayer
370
18
48
1
60
0
100
AcDbLine
10
212.069124
20
14.425248
30
0
11
212.193846
21
14.431785
31
0
39
0
210
0
220
0
230
1
0
LINE
5
16E
100
AcDbEntity
8
1
62
256
6
ByLayer
370
18
48
1
60
0
100
AcDbLine
10
212.328904
20
11.854721
30
0
11
212.204182
21
11.848185
31
0
39
0
210
0
220
0
230
1
0
LINE
5
16F
100
AcDbEntity
8
1
62
256
6
ByLayer
370
18
48
1
60
0
100
AcDbLine
10
212.3573
20
10.294369
30
0
11
212.423789
21
10.297853
31
0
39
0
210
0
220
0
230
1
0
LINE
5
170
100
AcDbEntity
8
1
62
256
6
ByLayer
370
18
48
1
60
0
100
AcDbLine
10
212.125474
20
15.990042
30
0
11
212.058985
21
15.986557
31
0
39
0
210
0
220
0
230
1
0
LINE
5
171
100
AcDbEntity
8
81
62
256
6
ByLayer
370
18
48
1
60
0
100
AcDbLine
10
222
20
0
30
0
11
229
21
0
31
0
39
0
210
0
220
0
230
1
0
LINE
5
172
100
AcDbEntity
8
80
62
256
6
ByLayer
370
18
48
1
60
0
100
AcDbLine
10
0
20
0
30
0
11
-7
21
0
31
0
39
0
210
0
220
0
230
1
0
LINE
5
173
100
AcDbEntity
8
SK2
62
256
6
ByLayer
370
13
48
1
60
0
100
AcDbLine
10
-35.725
20
20
30
0
11
-35.725
21
-20
31
0
39
0
210
0
220
0
230
1
0
LINE
5
175
100
AcDbEntity
8
SK2
62
256
6
ByLayer
370
13
48
1
60
0
100
AcDbLine
10
-16.5875
20
-20
30
0
11
-38.9
21
-20
31
0
39
0
210
0
220
0
230
1
0
LINE
5
176
100
AcDbEntity
8
SK2
62
256
6
ByLayer
370
13
48
1
60
0
100
AcDbLine
10
-16.5875
20
20
30
0
11
-38.9
21
20
31
0
39
0
210
0
220
0
230
1
0
LINE
5
177
100
AcDbEntity
8
1
62
256
6
ByLayer
370
18
48
1
60
1
100
AcDbLine
10
-35.725
20
-20
30
0
11
-36.650575
21
-15.825003
31
0
39
0
210
0
220
0
230
1
0
LINE
5
178
100
AcDbEntity
8
1
62
256
6
ByLayer
370
18
48
1
60
1
100
AcDbLine
10
-36.650575
20
-15.825003
30
0
11
-34.799425
21
-15.824997
31
0
39
0
210
0
220
0
230
1
0
LINE
5
179
100
AcDbEntity
8
1
62
256
6
ByLayer
370
18
48
1
60
1
100
AcDbLine
10
-34.799425
20
-15.824997
30
0
11
-35.725
21
-20
31
0
39
0
210
0
220
0
230
1
0
LINE
5
17A
100
AcDbEntity
8
1
62
256
6
ByLayer
370
18
48
1
60
1
100
AcDbLine
10
-35.725
20
20
30
0
11
-34.799425
21
15.825003
31
0
39
0
210
0
220
0
230
1
0
LINE
5
17B
100
AcDbEntity
8
1
62
256
6
ByLayer
370
18
48
1
60
1
100
AcDbLine
10
-34.799425
20
15.825003
30
0
11
-36.650575
21
15.824997
31
0
39
0
210
0
220
0
230
1
0
LINE
5
17C
100
AcDbEntity
8
1
62
256
6
ByLayer
370
18
48
1
60
1
100
AcDbLine
10
-36.650575
20
15.824997
30
0
11
-35.725
21
20
31
0
39
0
210
0
220
0
230
1
0
LINE
5
17D
100
AcDbEntity
8
SK2
62
256
6
ByLayer
370
13
48
1
60
0
100
AcDbLine
10
-45.725
20
-31.25
30
0
11
-45.725
21
31.25
31
0
39
0
210
0
220
0
230
1
0
LINE
5
17E
100
AcDbEntity
8
SK2
62
256
6
ByLayer
370
13
48
1
60
0
100
AcDbLine
10
-1.5875
20
31.25
30
0
11
-48.9
21
31.25
31
0
39
0
210
0
220
0
230
1
0
LINE
5
17F
100
AcDbEntity
8
SK2
62
256
6
ByLayer
370
13
48
1
60
0
100
AcDbLine
10
-1.5875
20
-31.25
30
0
11
-48.9
21
-31.25
31
0
39
0
210
0
220
0
230
1
0
LINE
5
180
100
AcDbEntity
8
1
62
256
6
ByLayer
370
18
48
1
60
1
100
AcDbLine
10
-45.725
20
31.25
30
0
11
-44.799425
21
27.075003
31
0
39
0
210
0
220
0
230
1
0
LINE
5
181
100
AcDbEntity
8
1
62
256
6
ByLayer
370
18
48
1
60
1
100
AcDbLine
10
-44.799425
20
27.075003
30
0
11
-46.650575
21
27.074997
31
0
39
0
210
0
220
0
230
1
0
LINE
5
182
100
AcDbEntity
8
1
62
256
6
ByLayer
370
18
48
1
60
1
100
AcDbLine
10
-46.650575
20
27.074997
30
0
11
-45.725
21
31.25
31
0
39
0
210
0
220
0
230
1
0
LINE
5
183
100
AcDbEntity
8
1
62
256
6
ByLayer
370
18
48
1
60
1
100
AcDbLine
10
-45.725
20
-31.25
30
0
11
-46.650575
21
-27.075003
31
0
39
0
210
0
220
0
230
1
0
LINE
5
184
100
AcDbEntity
8
1
62
256
6
ByLayer
370
18
48
1
60
1
100
AcDbLine
10
-46.650575
20
-27.075003
30
0
11
-44.799425
21
-27.074997
31
0
39
0
210
0
220
0
230
1
0
LINE
5
185
100
AcDbEntity
8
1
62
256
6
ByLayer
370
18
48
1
60
1
100
AcDbLine
10
-44.799425
20
-27.074997
30
0
11
-45.725
21
-31.25
31
0
39
0
210
0
220
0
230
1
0
LINE
5
186
100
AcDbEntity
8
2
62
256
6
ByLayer
370
13
48
1
60
0
100
AcDbLine
10
248.975
20
21.5
30
0
11
248.975
21
-21.5
31
0
39
0
210
0
220
0
230
1
0
LINE
5
188
100
AcDbEntity
8
2
62
256
6
ByLayer
370
13
48
1
60
0
100
AcDbLine
10
223.5875
20
-21.5
30
0
11
252.15
21
-21.5
31
0
39
0
210
0
220
0
230
1
0
LINE
5
189
100
AcDbEntity
8
2
62
256
6
ByLayer
370
13
48
1
60
0
100
AcDbLine
10
223.5875
20
21.5
30
0
11
252.15
21
21.5
31
0
39
0
210
0
220
0
230
1
0
LINE
5
18A
100
AcDbEntity
8
1
62
256
6
ByLayer
370
18
48
1
60
1
100
AcDbLine
10
248.975
20
-21.5
30
0
11
248.049425
21
-17.325003
31
0
39
0
210
0
220
0
230
1
0
LINE
5
18B
100
AcDbEntity
8
1
62
256
6
ByLayer
370
18
48
1
60
1
100
AcDbLine
10
248.049425
20
-17.325003
30
0
11
249.900575
21
-17.324997
31
0
39
0
210
0
220
0
230
1
0
LINE
5
18C
100
AcDbEntity
8
1
62
256
6
ByLayer
370
18
48
1
60
1
100
AcDbLine
10
249.900575
20
-17.324997
30
0
11
248.975
21
-21.5
31
0
39
0
210
0
220
0
230
1
0
LINE
5
18D
100
AcDbEntity
8
1
62
256
6
ByLayer
370
18
48
1
60
1
100
AcDbLine
10
248.975
20
21.5
30
0
11
249.900575
21
17.325003
31
0
39
0
210
0
220
0
230
1
0
LINE
5
18E
100
AcDbEntity
8
1
62
256
6
ByLayer
370
18
48
1
60
1
100
AcDbLine
10
249.900575
20
17.325003
30
0
11
248.049425
21
17.324997
31
0
39
0
210
0
220
0
230
1
0
LINE
5
18F
100
AcDbEntity
8
1
62
256
6
ByLayer
370
18
48
1
60
1
100
AcDbLine
10
248.049425
20
17.324997
30
0
11
248.975
21
21.5
31
0
39
0
210
0
220
0
230
1
0
LINE
5
343
100
AcDbEntity
8
1
62
256
6
ByLayer
370
18
48
1
60
1
100
AcDbLine
10
-35.725
20
-20
30
0
11
-36.650575
21
-15.825003
31
0
39
0
210
0
220
0
230
1
0
LINE
5
344
100
AcDbEntity
8
1
62
256
6
ByLayer
370
18
48
1
60
1
100
AcDbLine
10
-36.650575
20
-15.825003
30
0
11
-34.799425
21
-15.824997
31
0
39
0
210
0
220
0
230
1
0
LINE
5
345
100
AcDbEntity
8
1
62
256
6
ByLayer
370
18
48
1
60
1
100
AcDbLine
10
-34.799425
20
-15.824997
30
0
11
-35.725
21
-20
31
0
39
0
210
0
220
0
230
1
0
LINE
5
347
100
AcDbEntity
8
1
62
256
6
ByLayer
370
18
48
1
60
1
100
AcDbLine
10
-35.725
20
20
30
0
11
-34.799425
21
15.825003
31
0
39
0
210
0
220
0
230
1
0
LINE
5
348
100
AcDbEntity
8
1
62
256
6
ByLayer
370
18
48
1
60
1
100
AcDbLine
10
-34.799425
20
15.825003
30
0
11
-36.650575
21
15.824997
31
0
39
0
210
0
220
0
230
1
0
LINE
5
349
100
AcDbEntity
8
1
62
256
6
ByLayer
370
18
48
1
60
1
100
AcDbLine
10
-36.650575
20
15.824997
30
0
11
-35.725
21
20
31
0
39
0
210
0
220
0
230
1
0
LINE
5
34D
100
AcDbEntity
8
1
62
256
6
ByLayer
370
18
48
1
60
1
100
AcDbLine
10
-45.725
20
31.25
30
0
11
-44.799425
21
27.075003
31
0
39
0
210
0
220
0
230
1
0
LINE
5
34E
100
AcDbEntity
8
1
62
256
6
ByLayer
370
18
48
1
60
1
100
AcDbLine
10
-44.799425
20
27.075003
30
0
11
-46.650575
21
27.074997
31
0
39
0
210
0
220
0
230
1
0
LINE
5
34F
100
AcDbEntity
8
1
62
256
6
ByLayer
370
18
48
1
60
1
100
AcDbLine
10
-46.650575
20
27.074997
30
0
11
-45.725
21
31.25
31
0
39
0
210
0
220
0
230
1
0
LINE
5
351
100
AcDbEntity
8
1
62
256
6
ByLayer
370
18
48
1
60
1
100
AcDbLine
10
-45.725
20
-31.25
30
0
11
-46.650575
21
-27.075003
31
0
39
0
210
0
220
0
230
1
0
LINE
5
352
100
AcDbEntity
8
1
62
256
6
ByLayer
370
18
48
1
60
1
100
AcDbLine
10
-46.650575
20
-27.075003
30
0
11
-44.799425
21
-27.074997
31
0
39
0
210
0
220
0
230
1
0
LINE
5
353
100
AcDbEntity
8
1
62
256
6
ByLayer
370
18
48
1
60
1
100
AcDbLine
10
-44.799425
20
-27.074997
30
0
11
-45.725
21
-31.25
31
0
39
0
210
0
220
0
230
1
0
LINE
5
357
100
AcDbEntity
8
1
62
256
6
ByLayer
370
18
48
1
60
1
100
AcDbLine
10
248.975
20
-21.5
30
0
11
248.049425
21
-17.325003
31
0
39
0
210
0
220
0
230
1
0
LINE
5
358
100
AcDbEntity
8
1
62
256
6
ByLayer
370
18
48
1
60
1
100
AcDbLine
10
248.049425
20
-17.325003
30
0
11
249.900575
21
-17.324997
31
0
39
0
210
0
220
0
230
1
0
LINE
5
359
100
AcDbEntity
8
1
62
256
6
ByLayer
370
18
48
1
60
1
100
AcDbLine
10
249.900575
20
-17.324997
30
0
11
248.975
21
-21.5
31
0
39
0
210
0
220
0
230
1
0
LINE
5
35B
100
AcDbEntity
8
1
62
256
6
ByLayer
370
18
48
1
60
1
100
AcDbLine
10
248.975
20
21.5
30
0
11
249.900575
21
17.325003
31
0
39
0
210
0
220
0
230
1
0
LINE
5
35C
100
AcDbEntity
8
1
62
256
6
ByLayer
370
18
48
1
60
1
100
AcDbLine
10
249.900575
20
17.325003
30
0
11
248.049425
21
17.324997
31
0
39
0
210
0
220
0
230
1
0
LINE
5
35D
100
AcDbEntity
8
1
62
256
6
ByLayer
370
18
48
1
60
1
100
AcDbLine
10
248.049425
20
17.324997
30
0
11
248.975
21
21.5
31
0
39
0
210
0
220
0
230
1
0
MTEXT
5
33F
100
AcDbEntity
8
SK2
62
256
6
ByLayer
370
18
48
1
60
0
100
AcDbMText
10
-37.736672
20
-7.186314
30
0
210
0
220
0
230
1
1
%%c
40
4.5
41
0
44
1.084337
50
90
71
7
72
5
7
iso_b_vert
0
MTEXT
5
342
100
AcDbEntity
8
SK2
62
256
6
ByLayer
370
18
48
1
60
0
100
AcDbMText
10
-37.736672
20
4.02853
30
0
210
0
220
0
230
1
1
\W0.7361;40
40
4.5
41
0
44
1.084337
50
90
71
7
72
5
7
iso_b_vert
0
MTEXT
5
34B
100
AcDbEntity
8
SK2
62
256
6
ByLayer
370
18
48
1
60
0
100
AcDbMText
10
-47.736672
20
-9.541655
30
0
210
0
220
0
230
1
1
%%c
40
4.5
41
0
44
1.084337
50
90
71
7
72
5
7
iso_b_vert
0
MTEXT
5
34C
100
AcDbEntity
8
SK2
62
256
6
ByLayer
370
18
48
1
60
0
100
AcDbMText
10
-47.736672
20
1.673189
30
0
210
0
220
0
230
1
1
\W0.7346;62.5
40
4.5
41
0
44
1.084337
50
90
71
7
72
5
7
iso_b_vert
0
MTEXT
5
355
100
AcDbEntity
8
2
62
256
6
ByLayer
370
18
48
1
60
0
100
AcDbMText
10
246.963328
20
-7.186314
30
0
210
0
220
0
230
1
1
%%c
40
4.5
41
0
44
1.084337
50
90
71
7
72
5
7
iso_b_vert
0
MTEXT
5
356
100
AcDbEntity
8
2
62
256
6
ByLayer
370
18
48
1
60
0
100
AcDbMText
10
246.963328
20
4.02853
30
0
210
0
220
0
230
1
1
\W0.7361;43
40
4.5
41
0
44
1.084337
50
90
71
7
72
5
7
iso_b_vert
0
MTEXT
5
35F
100
AcDbEntity
8
SK6
62
256
6
ByLayer
370
18
48
1
60
0
100
AcDbMText
10
9.308916
20
-94.592562
30
0
210
0
220
0
230
1
1
\W0.7858;DS20-D4300DM40-04
40
3.5
41
0
44
1.084337
50
0
71
7
72
5
7
iso_b_vert
0
HATCH
5
346
100
AcDbEntity
8
SK2
62
256
6
ByLayer
370
13
48
1
60
0
100
AcDbHatch
10
0
20
0
30
0
210
0
220
0
230
1
2
ANSI31
70
0
71
0
91
1
92
5
93
3
72
1
10
-35.7250000000001
20
-20
11
-36.650575216528
21
-15.8250033998276
72
1
10
-36.650575216528
20
-15.8250033998276
11
-34.7994247834721
21
-15.8249966001723
72
1
10
-34.7994247834721
20
-15.8249966001723
11
-35.7250000000001
21
-20
97
0
75
0
76
1
52
0
41
0.0062
77
0
78
1
53
45
43
0
44
0
45
-0.0139193969876572
46
0.0139193969876572
79
0
47
0
98
1
10
0
20
0
0
HATCH
5
34A
100
AcDbEntity
8
SK2
62
256
6
ByLayer
370
13
48
1
60
0
100
AcDbHatch
10
0
20
0
30
0
210
0
220
0
230
1
2
ANSI31
70
0
71
0
91
1
92
5
93
3
72
1
10
-35.7250000000001
20
20
11
-34.7994247834721
21
15.8250033998276
72
1
10
-34.7994247834721
20
15.8250033998276
11
-36.650575216528
21
15.8249966001724
72
1
10
-36.650575216528
20
15.8249966001724
11
-35.7250000000001
21
20
97
0
75
0
76
1
52
0
41
0.0062
77
0
78
1
53
45
43
0
44
0
45
-0.0139193969876572
46
0.0139193969876572
79
0
47
0
98
1
10
0
20
0
0
HATCH
5
350
100
AcDbEntity
8
SK2
62
256
6
ByLayer
370
13
48
1
60
0
100
AcDbHatch
10
0
20
0
30
0
210
0
220
0
230
1
2
ANSI31
70
0
71
0
91
1
92
5
93
3
72
1
10
-45.7250000000001
20
31.25
11
-44.7994247834721
21
27.0750033998276
72
1
10
-44.7994247834721
20
27.0750033998276
11
-46.650575216528
21
27.0749966001724
72
1
10
-46.650575216528
20
27.0749966001724
11
-45.7250000000001
21
31.25
97
0
75
0
76
1
52
0
41
0.0062
77
0
78
1
53
45
43
0
44
0
45
-0.0139193969876572
46
0.0139193969876572
79
0
47
0
98
1
10
0
20
0
0
HATCH
5
354
100
AcDbEntity
8
SK2
62
256
6
ByLayer
370
13
48
1
60
0
100
AcDbHatch
10
0
20
0
30
0
210
0
220
0
230
1
2
ANSI31
70
0
71
0
91
1
92
5
93
3
72
1
10
-45.7250000000001
20
-31.25
11
-46.650575216528
21
-27.0750033998276
72
1
10
-46.650575216528
20
-27.0750033998276
11
-44.7994247834721
21
-27.0749966001724
72
1
10
-44.7994247834721
20
-27.0749966001724
11
-45.7250000000001
21
-31.25
97
0
75
0
76
1
52
0
41
0.0062
77
0
78
1
53
45
43
0
44
0
45
-0.0139193969876572
46
0.0139193969876572
79
0
47
0
98
1
10
0
20
0
0
HATCH
5
35A
100
AcDbEntity
8
2
62
256
6
ByLayer
370
13
48
1
60
0
100
AcDbHatch
10
0
20
0
30
0
210
0
220
0
230
1
2
ANSI31
70
0
71
0
91
1
92
5
93
3
72
1
10
248.975
20
-21.5000000000003
11
248.049424783472
21
-17.3250033998279
72
1
10
248.049424783472
20
-17.3250033998279
11
249.900575216528
21
-17.3249966001726
72
1
10
249.900575216528
20
-17.3249966001726
11
248.975
21
-21.5000000000003
97
0
75
0
76
1
52
0
41
0.0062
77
0
78
1
53
45
43
0
44
0
45
-0.0139193969876572
46
0.0139193969876572
79
0
47
0
98
1
10
0
20
0
0
HATCH
5
35E
100
AcDbEntity
8
2
62
256
6
ByLayer
370
13
48
1
60
0
100
AcDbHatch
10
0
20
0
30
0
210
0
220
0
230
1
2
ANSI31
70
0
71
0
91
1
92
5
93
3
72
1
10
248.975
20
21.4999999999997
11
249.900575216528
21
17.3250033998273
72
1
10
249.900575216528
20
17.3250033998273
11
248.049424783472
21
17.3249966001721
72
1
10
248.049424783472
20
17.3249966001721
11
248.975
21
21.4999999999997
97
0
75
0
76
1
52
0
41
0.0062
77
0
78
1
53
45
43
0
44
0
45
-0.0139193969876572
46
0.0139193969876572
79
0
47
0
98
1
10
0
20
0
0
DIMENSION
5
362
100
AcDbEntity
8
2
62
256
6
ByLayer
370
18
48
1
60
0
100
AcDbDimension
2
_U0
10
222
20
-80.1
30
0
11
111
21
-80.1
31
0
70
32
71
1
72
1
41
1
210
0
220
0
230
1
3
Standard
100
AcDbAlignedDimension
13
0
23
-31.25
33
0
14
222
24
-21.5
34
0
50
0
100
AcDbRotatedDimension
1001
ACAD
1000
DSTYLE
1002
{
1070
   371
1070
    13
1070
   372
1070
    13
1070
   170
1070
     0
1070
   144
1040
1.0
1070
   277
1070
     2
1070
   284
1070
     8
1070
   278
1070
    46
1070
   146
1040
0.777778
1070
   345
1005
16
1070
   347
1005
16
1070
   346
1005
16
1070
   344
1005
0
1070
   343
1005
0
1070
   172
1070
     1
1070
    76
1070
     0
1070
    75
1070
     0
1070
   282
1070
     0
1070
   281
1070
     0
1070
    71
1070
     0
1070
    74
1070
     0
1070
   279
1070
     0
1070
   173
1070
     1
1070
   340
1005
340
1070
   271
1070
     1
1070
   272
1070
     2
1070
    77
1070
     1
1070
    73
1070
     1
1070
   171
1070
     3
1070
   274
1070
     4
1070
   177
1070
   150
1070
   176
1070
     9
1070
   178
1070
    43
1070
    78
1070
     8
1070
    48
1040
-0.1
1070
    41
1040
4.175
1070
   147
1040
2.25
1070
    42
1040
1.5875
1070
    44
1040
3.175
1070
   140
1040
4.5
1002
}
1001
ACAD_DSTYLE_DIM_LINETYPE
1070
   380
1005
16
1001
ACAD_DSTYLE_DIM_EXT1_LINETYPE
1070
   381
1005
16
1001
ACAD_DSTYLE_DIM_EXT2_LINETYPE
1070
   382
1005
16
0
DIMENSION
5
37B
100
AcDbEntity
8
SK2
62
256
6
ByLayer
370
18
48
1
60
0
100
AcDbDimension
2
_U1
10
0
20
-80.1
30
0
11
-7.5
21
-80.1
31
0
70
32
71
1
72
1
41
1
210
0
220
0
230
1
3
Standard
100
AcDbAlignedDimension
13
-15
23
-20
33
0
14
0
24
-31.25
34
0
50
0
100
AcDbRotatedDimension
1001
ACAD
1000
DSTYLE
1002
{
1070
   371
1070
    13
1070
   372
1070
    13
1070
   170
1070
     0
1070
   144
1040
1.0
1070
   277
1070
     2
1070
   284
1070
     8
1070
   278
1070
    46
1070
   146
1040
0.777778
1070
   345
1005
16
1070
   347
1005
16
1070
   346
1005
16
1070
   344
1005
0
1070
   343
1005
0
1070
   172
1070
     1
1070
    76
1070
     0
1070
    75
1070
     0
1070
   282
1070
     0
1070
   281
1070
     0
1070
    71
1070
     0
1070
    74
1070
     0
1070
   279
1070
     0
1070
   173
1070
     1
1070
   340
1005
340
1070
   271
1070
     1
1070
   272
1070
     2
1070
    77
1070
     1
1070
    73
1070
     1
1070
   171
1070
     3
1070
   274
1070
     4
1070
   177
1070
   150
1070
   176
1070
     9
1070
   178
1070
    43
1070
    78
1070
     8
1070
    48
1040
-0.1
1070
    41
1040
4.175
1070
   147
1040
2.25
1070
    42
1040
1.5875
1070
    44
1040
3.175
1070
   140
1040
4.5
1002
}
1001
ACAD_DSTYLE_DIM_LINETYPE
1070
   380
1005
16
1001
ACAD_DSTYLE_DIM_EXT1_LINETYPE
1070
   381
1005
16
1001
ACAD_DSTYLE_DIM_EXT2_LINETYPE
1070
   382
1005
16
0
DIMENSION
5
394
100
AcDbEntity
8
SK2
62
256
6
ByLayer
370
18
48
1
60
0
100
AcDbDimension
2
_U2
10
17.7986
20
-70.1
30
0
11
119.8993
21
-70.1
31
0
70
32
71
1
72
1
41
1
210
0
220
0
230
1
3
Standard
100
AcDbAlignedDimension
13
222
23
-21.5
33
0
14
17.7986
24
-31.25
34
0
50
0
100
AcDbRotatedDimension
1001
ACAD
1000
DSTYLE
1002
{
1070
   371
1070
    13
1070
   372
1070
    13
1070
   170
1070
     0
1070
   144
1040
1.0
1070
   277
1070
     2
1070
   284
1070
     8
1070
   278
1070
    46
1070
   146
1040
0.777778
1070
   345
1005
16
1070
   347
1005
16
1070
   346
1005
16
1070
   344
1005
0
1070
   343
1005
0
1070
   172
1070
     1
1070
    76
1070
     0
1070
    75
1070
     0
1070
   282
1070
     0
1070
   281
1070
     0
1070
    71
1070
     0
1070
    74
1070
     0
1070
   279
1070
     0
1070
   173
1070
     1
1070
   340
1005
340
1070
   271
1070
     1
1070
   272
1070
     2
1070
    77
1070
     1
1070
    73
1070
     1
1070
   171
1070
     3
1070
   274
1070
     4
1070
   177
1070
   150
1070
   176
1070
     9
1070
   178
1070
    43
1070
    78
1070
     8
1070
    48
1040
-0.1
1070
    41
1040
4.175
1070
   147
1040
2.25
1070
    42
1040
1.5875
1070
    44
1040
3.175
1070
   140
1040
4.5
1002
}
1001
ACAD_DSTYLE_DIM_LINETYPE
1070
   380
1005
16
1001
ACAD_DSTYLE_DIM_EXT1_LINETYPE
1070
   381
1005
16
1001
ACAD_DSTYLE_DIM_EXT2_LINETYPE
1070
   382
1005
16
0
DIMENSION
5
3AC
100
AcDbEntity
8
SK2
62
256
6
ByLayer
370
18
48
1
60
0
100
AcDbDimension
2
_U3
10
222
20
-60.1
30
0
11
133.5
21
-60.1
31
0
70
32
71
1
72
1
41
1
210
0
220
0
230
1
3
Standard
100
AcDbAlignedDimension
13
45
23
-21.5
33
0
14
222
24
-21.5
34
0
50
0
100
AcDbRotatedDimension
1001
ACAD
1000
DSTYLE
1002
{
1070
   371
1070
    13
1070
   372
1070
    13
1070
   170
1070
     0
1070
   144
1040
1.0
1070
   277
1070
     2
1070
   284
1070
     8
1070
   278
1070
    46
1070
   146
1040
0.777778
1070
   345
1005
16
1070
   347
1005
16
1070
   346
1005
16
1070
   344
1005
0
1070
   343
1005
0
1070
   172
1070
     1
1070
    76
1070
     0
1070
    75
1070
     0
1070
   282
1070
     0
1070
   281
1070
     0
1070
    71
1070
     0
1070
    74
1070
     0
1070
   279
1070
     0
1070
   173
1070
     1
1070
   340
1005
340
1070
   271
1070
     1
1070
   272
1070
     2
1070
    77
1070
     1
1070
    73
1070
     1
1070
   171
1070
     3
1070
   274
1070
     4
1070
   177
1070
   150
1070
   176
1070
     9
1070
   178
1070
    43
1070
    78
1070
     8
1070
    48
1040
-0.1
1070
    41
1040
4.175
1070
   147
1040
2.25
1070
    42
1040
1.5875
1070
    44
1040
3.175
1070
   140
1040
4.5
1002
}
1001
ACAD_DSTYLE_DIM_LINETYPE
1070
   380
1005
16
1001
ACAD_DSTYLE_DIM_EXT1_LINETYPE
1070
   381
1005
16
1001
ACAD_DSTYLE_DIM_EXT2_LINETYPE
1070
   382
1005
16
0
DIMENSION
5
3C4
100
AcDbEntity
8
2
62
256
6
ByLayer
370
18
48
1
60
0
100
AcDbDimension
2
_U4
10
222
20
-50.1
30
0
11
244.029464
21
-50.1
31
0
70
32
71
1
72
1
41
1
210
0
220
0
230
1
3
Standard
100
AcDbAlignedDimension
13
220.7234
23
-10.75
33
0
14
222
24
0
34
0
50
0
100
AcDbRotatedDimension
1001
ACAD
1000
DSTYLE
1002
{
1070
   371
1070
    13
1070
   372
1070
    13
1070
   170
1070
     0
1070
   144
1040
1.0
1070
   277
1070
     2
1070
   284
1070
     8
1070
   278
1070
    46
1070
   146
1040
0.777778
1070
   345
1005
16
1070
   347
1005
16
1070
   346
1005
16
1070
   344
1005
0
1070
   343
1005
0
1070
   172
1070
     1
1070
    76
1070
     0
1070
    75
1070
     0
1070
   282
1070
     0
1070
   281
1070
     0
1070
    71
1070
     0
1070
    74
1070
     0
1070
   279
1070
     0
1070
   173
1070
     1
1070
   340
1005
340
1070
   271
1070
     2
1070
   272
1070
     2
1070
    77
1070
     1
1070
    73
1070
     1
1070
   171
1070
     3
1070
   274
1070
     4
1070
   177
1070
   150
1070
   176
1070
     9
1070
   178
1070
    43
1070
    78
1070
     8
1070
    48
1040
-0.1
1070
    41
1040
4.175
1070
   147
1040
2.25
1070
    42
1040
1.5875
1070
    44
1040
3.175
1070
   140
1040
4.5
1002
}
1001
ACAD_DSTYLE_DIM_LINETYPE
1070
   380
1005
16
1001
ACAD_DSTYLE_DIM_EXT1_LINETYPE
1070
   381
1005
16
1001
ACAD_DSTYLE_DIM_EXT2_LINETYPE
1070
   382
1005
16
0
ENDSEC
0
SECTION
2
OBJECTS
0
DICTIONARY
5
44e
330
0
100
AcDbDictionary
280
0
281
1
3
ACAD_GROUP
350
44f
3
ACAD_MLINESTYLE
350
450
0
DICTIONARY
5
44f
330
0
100
AcDbDictionary
280
0
281
1
0
DICTIONARY
5
450
330
0
100
AcDbDictionary
280
0
281
1
3
Standard
350
18
0
MLINESTYLE
5
18
330
450
100
AcDbMlineStyle
2
Standard
70
0
3

62
256
51
90
52
90
71
2
49
-0.5
62
256
6
ByLayer
49
0.5
62
256
6
ByLayer
0
RASTERVARIABLES
5
43c
330

100
AcDbRasterVariables
90
0
70
1
71
1
72
1
0
ENDSEC
0
EOF
