0
SECTION
2
HEADER
9
$ACADVER
1
AC1015
9
$DWGCODEPAGE
3
ANSI_1252
9
$HANDSEED
5
2af
9
$ANGBASE
50
0
9
$ANGDIR
70
0
9
$ATTMODE
70
1
9
$AUNITS
70
0
9
$AUPREC
70
0
9
$CECOLOR
62
256
9
$CELTSCALE
40
1
9
$CELTYPE
6
ByLayer
9
$CELWEIGHT
370
18
9
$CLAYER
8
0
9
$CMLJUST
70
0
9
$CMLSCALE
40
1
9
$CMLSTYLE
2
Standard
9
$DIMSTYLE
2
Standard
9
$TEXTSIZE
40
0.2
9
$TEXTSTYLE
7
Standard
9
$LUNITS
70
2
9
$LUPREC
70
4
9
$EXTNAMES
290
1
9
$INSUNITS
70
4
9
$LTSCALE
40
1
9
$LWDISPLAY
290
1
9
$PDMODE
70
0
9
$PDSIZE
40
0
9
$PLINEGEN
70
0
0
ENDSEC
0
SECTION
2
CLASSES
0
CLASS
1
RASTERVARIABLES
2
AcDbRasterVariables
3
ISM
90
0
280
0
281
0
0
ENDSEC
0
SECTION
2
TABLES
0
TABLE
2
VPORT
5
2a5
100
AcDbSymbolTable
0
VPORT
5
1
100
AcDbSymbolTableRecord
100
AcDbViewportTableRecord
2
*Active
70
0
10
0
20
0
11
1
21
1
12
-1
22
1
13
0
23
0
14
0.5
24
0.5
15
10
25
10
16
0
26
0
36
1
17
0
27
0
37
0
0
ENDTAB
0
TABLE
2
LTYPE
5
2a6
100
AcDbSymbolTable
0
LTYPE
5
14
100
AcDbSymbolTableRecord
100
AcDbLinetypeTableRecord
70
0
2
ByBlock
3

72
65
73
0
40
0
0
LTYPE
5
15
100
AcDbSymbolTableRecord
100
AcDbLinetypeTableRecord
70
0
2
ByLayer
3

72
65
73
0
40
0
0
LTYPE
5
16
100
AcDbSymbolTableRecord
100
AcDbLinetypeTableRecord
70
0
2
Continuous
3
Solid line
72
65
73
0
40
0
0
LTYPE
5
6E
100
AcDbSymbolTableRecord
100
AcDbLinetypeTableRecord
70
0
2
CENTER
3
____ _ ____ _ ____ _ ____
72
65
73
4
40
47.5
49
22
74
0
49
-8.5
74
0
49
8.5
74
0
49
-8.5
74
0
0
LTYPE
5
6F
100
AcDbSymbolTableRecord
100
AcDbLinetypeTableRecord
70
0
2
DASHED
3
__ __ __ __ __ __ __ __ __
72
65
73
2
40
25.72
49
12.86
74
0
49
-12.86
74
0
0
ENDTAB
0
TABLE
2
LAYER
5
2a7
100
AcDbSymbolTable
0
LAYER
5
10
100
AcDbSymbolTableRecord
100
AcDbLayerTableRecord
2
0
70
0
62
7
6
Continuous
290
1
370
-3
390
0
0
LAYER
5
71
100
AcDbSymbolTableRecord
100
AcDbLayerTableRecord
2
80
70
0
62
-6
6
Continuous
290
1
370
-3
390
0
0
LAYER
5
73
100
AcDbSymbolTableRecord
100
AcDbLayerTableRecord
2
81
70
0
62
-3
6
Continuous
290
1
370
-3
390
0
0
LAYER
5
75
100
AcDbSymbolTableRecord
100
AcDbLayerTableRecord
2
1
70
0
62
4
6
Continuous
290
1
370
-3
390
0
0
LAYER
5
AC
100
AcDbSymbolTableRecord
100
AcDbLayerTableRecord
2
4
70
0
62
-2
6
CENTER
290
1
370
-3
390
0
0
LAYER
5
12E
100
AcDbSymbolTableRecord
100
AcDbLayerTableRecord
2
Defpoints
70
0
62
7
6
Continuous
290
0
370
-3
390
0
0
LAYER
5
15B
100
AcDbSymbolTableRecord
100
AcDbLayerTableRecord
2
2
70
0
62
7
6
Continuous
290
1
370
-3
390
0
0
LAYER
5
291
100
AcDbSymbolTableRecord
100
AcDbLayerTableRecord
2
SK1
70
0
62
4
6
Continuous
290
1
370
-3
390
0
0
LAYER
5
292
100
AcDbSymbolTableRecord
100
AcDbLayerTableRecord
2
SK4
70
0
62
2
6
CENTER
290
1
370
-3
390
0
0
LAYER
5
293
100
AcDbSymbolTableRecord
100
AcDbLayerTableRecord
2
SK2
70
0
62
7
6
Continuous
290
1
370
-3
390
0
0
LAYER
5
294
100
AcDbSymbolTableRecord
100
AcDbLayerTableRecord
2
SK6
70
0
62
5
6
Continuous
290
1
370
-3
390
0
0
ENDTAB
0
TABLE
2
STYLE
5
2a8
100
AcDbSymbolTable
0
STYLE
5
11
100
AcDbSymbolTableRecord
100
AcDbTextStyleTableRecord
2
Standard
3
txt
70
0
71
0
40
0
41
1
42
0
50
0
0
STYLE
5
11E
100
AcDbSymbolTableRecord
100
AcDbTextStyleTableRecord
2
iso_b_vert
3
simplex.shx
70
0
71
0
40
0
41
1
42
0
50
0
0
STYLE
5
11F
100
AcDbSymbolTableRecord
100
AcDbTextStyleTableRecord
2
DWGDirectTextStyle
3
simplex
70
0
71
0
40
0
41
1
42
0
50
0
0
ENDTAB
0
TABLE
2
DIMSTYLE
5
2a9
100
AcDbSymbolTable
100
AcDbDimStyleTable
0
DIMSTYLE
105
27
100
AcDbSymbolTableRecord
100
AcDbDimStyleTableRecord
2
Standard
70
0
3
<>
41
0.18
42
0.0625
44
0.18
140
0.18
147
0.09
73
0
74
0
77
1
271
2
275
0
278
52
280
0
340
11
0
ENDTAB
0
TABLE
2
VIEW
5
2aa
100
AcDbSymbolTable
0
ENDTAB
0
TABLE
2
UCS
5
2ab
100
AcDbSymbolTable
0
ENDTAB
0
TABLE
2
APPID
5
2ac
100
AcDbSymbolTable
0
APPID
5
12
100
AcDbSymbolTableRecord
100
AcDbRegAppTableRecord
2
ACAD
70
0
0
APPID
5
123
100
AcDbSymbolTableRecord
100
AcDbRegAppTableRecord
2
ACAD_DSTYLE_DIMBREAK
70
0
0
APPID
5
250
100
AcDbSymbolTableRecord
100
AcDbRegAppTableRecord
2
ACAD_DSTYLE_DIM_LINETYPE
70
0
0
APPID
5
251
100
AcDbSymbolTableRecord
100
AcDbRegAppTableRecord
2
ACAD_DSTYLE_DIM_EXT1_LINETYPE
70
0
0
APPID
5
252
100
AcDbSymbolTableRecord
100
AcDbRegAppTableRecord
2
ACAD_DSTYLE_DIM_EXT2_LINETYPE
70
0
0
APPID
5
28D
100
AcDbSymbolTableRecord
100
AcDbRegAppTableRecord
2
ACAD_MLEADERVER
70
0
0
ENDTAB
0
TABLE
2
BLOCK_RECORD
5
2ad
100
AcDbSymbolTable
0
BLOCK_RECORD
5
1F
100
AcDbSymbolTableRecord
100
AcDbBlockTableRecord
2
*Model_Space
340
0
70
0
0
BLOCK_RECORD
5
1B
100
AcDbSymbolTableRecord
100
AcDbBlockTableRecord
2
*Paper_Space
340
0
70
0
0
BLOCK_RECORD
5
23
100
AcDbSymbolTableRecord
100
AcDbBlockTableRecord
2
*Paper_Space0
340
0
70
0
0
BLOCK_RECORD
5
125
100
AcDbSymbolTableRecord
100
AcDbBlockTableRecord
2
_Closed
340
0
70
0
0
BLOCK_RECORD
5
12F
100
AcDbSymbolTableRecord
100
AcDbBlockTableRecord
2
*D2
340
0
70
0
0
BLOCK_RECORD
5
13B
100
AcDbSymbolTableRecord
100
AcDbBlockTableRecord
2
_U0
340
0
70
0
0
BLOCK_RECORD
5
14D
100
AcDbSymbolTableRecord
100
AcDbBlockTableRecord
2
*D4
340
0
70
0
0
BLOCK_RECORD
5
15C
100
AcDbSymbolTableRecord
100
AcDbBlockTableRecord
2
_U1
340
0
70
0
0
BLOCK_RECORD
5
16C
100
AcDbSymbolTableRecord
100
AcDbBlockTableRecord
2
*D6
340
0
70
0
0
BLOCK_RECORD
5
17A
100
AcDbSymbolTableRecord
100
AcDbBlockTableRecord
2
_U2
340
0
70
0
0
BLOCK_RECORD
5
18A
100
AcDbSymbolTableRecord
100
AcDbBlockTableRecord
2
*D8
340
0
70
0
0
BLOCK_RECORD
5
198
100
AcDbSymbolTableRecord
100
AcDbBlockTableRecord
2
_U3
340
0
70
0
0
BLOCK_RECORD
5
1A8
100
AcDbSymbolTableRecord
100
AcDbBlockTableRecord
2
*D10
340
0
70
0
0
BLOCK_RECORD
5
1B4
100
AcDbSymbolTableRecord
100
AcDbBlockTableRecord
2
_U4
340
0
70
0
0
BLOCK_RECORD
5
1C4
100
AcDbSymbolTableRecord
100
AcDbBlockTableRecord
2
*D12
340
0
70
0
0
BLOCK_RECORD
5
1D0
100
AcDbSymbolTableRecord
100
AcDbBlockTableRecord
2
_U5
340
0
70
0
0
BLOCK_RECORD
5
1E0
100
AcDbSymbolTableRecord
100
AcDbBlockTableRecord
2
*D14
340
0
70
0
0
BLOCK_RECORD
5
1EC
100
AcDbSymbolTableRecord
100
AcDbBlockTableRecord
2
_U6
340
0
70
0
0
BLOCK_RECORD
5
1FC
100
AcDbSymbolTableRecord
100
AcDbBlockTableRecord
2
*D16
340
0
70
0
0
BLOCK_RECORD
5
208
100
AcDbSymbolTableRecord
100
AcDbBlockTableRecord
2
_U7
340
0
70
0
0
BLOCK_RECORD
5
218
100
AcDbSymbolTableRecord
100
AcDbBlockTableRecord
2
*D18
340
0
70
0
0
BLOCK_RECORD
5
225
100
AcDbSymbolTableRecord
100
AcDbBlockTableRecord
2
_U8
340
0
70
0
0
ENDTAB
0
ENDSEC
0
SECTION
2
BLOCKS
0
BLOCK
5
20
100
AcDbEntity
8
0
100
AcDbBlockBegin
2
*Model_Space
70
0
10
0
20
0
30
0
3
*Model_Space
0
ENDBLK
5
21
100
AcDbEntity
8
0
100
AcDbBlockEnd
0
BLOCK
5
1C
100
AcDbEntity
8
0
100
AcDbBlockBegin
2
*Paper_Space
70
0
10
0
20
0
30
0
3
*Paper_Space
0
ENDBLK
5
1D
100
AcDbEntity
8
0
100
AcDbBlockEnd
0
BLOCK
5
24
100
AcDbEntity
8
0
100
AcDbBlockBegin
2
*Paper_Space0
70
0
10
0
20
0
30
0
3
*Paper_Space0
0
ENDBLK
5
25
100
AcDbEntity
8
0
100
AcDbBlockEnd
0
BLOCK
5
126
100
AcDbEntity
8
0
100
AcDbBlockBegin
2
_Closed
70
0
10
0
20
0
30
0
3
_Closed
0
LINE
5
128
100
AcDbEntity
8
0
62
256
6
ByLayer
370
-2
48
1
60
0
100
AcDbLine
10
-1
20
0.166667
30
0
11
0
21
0
31
0
39
0
210
0
220
0
230
1
0
LINE
5
129
100
AcDbEntity
8
0
62
256
6
ByLayer
370
-2
48
1
60
0
100
AcDbLine
10
0
20
0
30
0
11
-1
21
-0.166667
31
0
39
0
210
0
220
0
230
1
0
LINE
5
12A
100
AcDbEntity
8
0
62
256
6
ByLayer
370
-2
48
1
60
0
100
AcDbLine
10
-1
20
0.166667
30
0
11
-1
21
-0.166667
31
0
39
0
210
0
220
0
230
1
0
LINE
5
12B
100
AcDbEntity
8
0
62
256
6
ByLayer
370
-2
48
1
60
0
100
AcDbLine
10
0
20
0
30
0
11
-1
21
0
31
0
39
0
210
0
220
0
230
1
0
ENDBLK
5
127
100
AcDbEntity
8
0
100
AcDbBlockEnd
0
BLOCK
5
130
100
AcDbEntity
8
0
100
AcDbBlockBegin
2
*D2
70
1
10
0
20
0
30
0
3
*D2
0
LINE
5
132
100
AcDbEntity
8
0
62
256
6
ByLayer
370
-2
48
1
60
0
100
AcDbLine
10
0
20
-6.5875
30
0
11
0
21
-31.67512
31
0
39
0
210
0
220
0
230
1
0
LINE
5
133
100
AcDbEntity
8
0
62
256
6
ByLayer
370
-2
48
1
60
0
100
AcDbLine
10
49
20
-1.5875
30
0
11
49
21
-31.67512
31
0
39
0
210
0
220
0
230
1
0
LINE
5
134
100
AcDbEntity
8
0
62
256
6
ByLayer
370
-2
48
1
60
0
100
AcDbLine
10
3.175
20
-28.50012
30
0
11
45.825
21
-28.50012
31
0
39
0
210
0
220
0
230
1
0
SOLID
5
135
100
AcDbEntity
8
0
62
256
6
ByLayer
370
-1
48
1
60
0
100
AcDbTrace
10
3.175
20
-27.970953
30
0
11
3.175
21
-29.029287
31
0
12
0
22
-28.50012
32
0
13
0
23
-28.50012
33
0
39
0
210
0
220
0
230
1
0
SOLID
5
136
100
AcDbEntity
8
0
62
256
6
ByLayer
370
-1
48
1
60
0
100
AcDbTrace
10
45.825
20
-29.029287
30
0
11
45.825
21
-27.970953
31
0
12
49
22
-28.50012
32
0
13
49
23
-28.50012
33
0
39
0
210
0
220
0
230
1
0
MTEXT
5
137
100
AcDbEntity
8
0
62
256
6
ByLayer
370
18
48
1
60
0
100
AcDbMText
10
24.5
20
-21.193619
30
0
210
0
220
0
230
1
1
\A1;49
40
3.50012
41
0
44
1
50
0
71
5
72
5
7
iso_b_vert
0
POINT
5
138
100
AcDbEntity
8
Defpoints
62
0
6
ByLayer
370
-1
48
1
60
0
100
AcDbPoint
10
0
20
-5
30
0
39
0
210
0
220
0
230
1
50
360
0
POINT
5
139
100
AcDbEntity
8
Defpoints
62
0
6
ByLayer
370
-1
48
1
60
0
100
AcDbPoint
10
49
20
0
30
0
39
0
210
0
220
0
230
1
50
360
0
POINT
5
13A
100
AcDbEntity
8
Defpoints
62
0
6
ByLayer
370
-1
48
1
60
0
100
AcDbPoint
10
49
20
-28.50012
30
0
39
0
210
0
220
0
230
1
50
360
0
ENDBLK
5
131
100
AcDbEntity
8
0
100
AcDbBlockEnd
0
BLOCK
5
148
100
AcDbEntity
8
0
100
AcDbBlockBegin
2
_U0
70
0
10
0
20
0
30
0
3
_U0
0
MTEXT
5
13C
100
AcDbEntity
8
SK2
62
256
6
ByLayer
370
18
48
1
60
0
100
AcDbMText
10
19.086116
20
-27.467451
30
0
210
0
220
0
230
1
1
\W0.7694;49.00
40
3.50012
41
0
44
1.084337
50
0
71
7
72
5
7
iso_b_vert
0
MTEXT
5
13D
100
AcDbEntity
8
SK2
62
256
6
ByLayer
370
18
48
1
60
0
100
AcDbMText
10
15.560056
20
-27.400814
30
0
210
0
220
0
230
1
1
\W0.1790;(
40
3.175
41
0
44
1.084337
50
0
71
7
72
5
7
iso_b_vert
0
MTEXT
5
13E
100
AcDbEntity
8
SK2
62
256
6
ByLayer
370
18
48
1
60
0
100
AcDbMText
10
33.442666
20
-27.400814
30
0
210
0
220
0
230
1
1
\W0.1969;)
40
3.175
41
0
44
1.084337
50
0
71
7
72
5
7
iso_b_vert
0
LINE
5
13F
100
AcDbEntity
8
SK2
62
256
6
ByLayer
370
13
48
1
60
0
100
AcDbLine
10
0
20
-6.5875
30
0
11
0
21
-31.67512
31
0
39
0
210
0
220
0
230
1
0
LINE
5
140
100
AcDbEntity
8
SK2
62
256
6
ByLayer
370
13
48
1
60
0
100
AcDbLine
10
49
20
-1.5875
30
0
11
49
21
-31.67512
31
0
39
0
210
0
220
0
230
1
0
LINE
5
141
100
AcDbEntity
8
SK2
62
256
6
ByLayer
370
13
48
1
60
0
100
AcDbLine
10
0
20
-28.50012
30
0
11
49
21
-28.50012
31
0
39
0
210
0
220
0
230
1
0
LINE
5
142
100
AcDbEntity
8
SK2
62
256
6
ByLayer
370
13
48
1
60
0
100
AcDbLine
10
0
20
-28.50012
30
0
11
3.174998
21
-28.082123
31
0
39
0
210
0
220
0
230
1
0
LINE
5
143
100
AcDbEntity
8
SK2
62
256
6
ByLayer
370
13
48
1
60
0
100
AcDbLine
10
0
20
-28.50012
30
0
11
3.175002
21
-28.918117
31
0
39
0
210
0
220
0
230
1
0
LINE
5
144
100
AcDbEntity
8
SK2
62
256
6
ByLayer
370
13
48
1
60
0
100
AcDbLine
10
3.174998
20
-28.082123
30
0
11
3.175002
21
-28.918117
31
0
39
0
210
0
220
0
230
1
0
LINE
5
145
100
AcDbEntity
8
SK2
62
256
6
ByLayer
370
13
48
1
60
0
100
AcDbLine
10
49
20
-28.50012
30
0
11
45.825002
21
-28.918117
31
0
39
0
210
0
220
0
230
1
0
LINE
5
146
100
AcDbEntity
8
SK2
62
256
6
ByLayer
370
13
48
1
60
0
100
AcDbLine
10
49
20
-28.50012
30
0
11
45.824998
21
-28.082123
31
0
39
0
210
0
220
0
230
1
0
LINE
5
147
100
AcDbEntity
8
SK2
62
256
6
ByLayer
370
13
48
1
60
0
100
AcDbLine
10
45.825002
20
-28.918117
30
0
11
45.824998
21
-28.082123
31
0
39
0
210
0
220
0
230
1
0
ENDBLK
5
149
100
AcDbEntity
8
0
100
AcDbBlockEnd
0
BLOCK
5
14E
100
AcDbEntity
8
0
100
AcDbBlockBegin
2
*D4
70
1
10
0
20
0
30
0
3
*D4
0
LINE
5
150
100
AcDbEntity
8
0
62
256
6
ByLayer
370
-2
48
1
60
0
100
AcDbLine
10
49.3136
20
-3.5
30
0
11
58.92506
21
-3.5
31
0
39
0
210
0
220
0
230
1
0
LINE
5
151
100
AcDbEntity
8
0
62
256
6
ByLayer
370
-2
48
1
60
0
100
AcDbLine
10
49.3136
20
3.5
30
0
11
58.92506
21
3.5
31
0
39
0
210
0
220
0
230
1
0
LINE
5
152
100
AcDbEntity
8
0
62
256
6
ByLayer
370
-2
48
1
60
0
100
AcDbLine
10
55.75006
20
3.5
30
0
11
55.75006
21
23.296294
31
0
39
0
210
0
220
0
230
1
0
LINE
5
153
100
AcDbEntity
8
0
62
256
6
ByLayer
370
-2
48
1
60
0
100
AcDbLine
10
55.75006
20
-6.675
30
0
11
55.75006
21
-9.85
31
0
39
0
210
0
220
0
230
1
0
LINE
5
154
100
AcDbEntity
8
0
62
256
6
ByLayer
370
-2
48
1
60
0
100
AcDbLine
10
55.75006
20
6.675
30
0
11
55.75006
21
9.85
31
0
39
0
210
0
220
0
230
1
0
SOLID
5
155
100
AcDbEntity
8
0
62
256
6
ByLayer
370
-1
48
1
60
0
100
AcDbTrace
10
56.279227
20
-6.675
30
0
11
55.220893
21
-6.675
31
0
12
55.75006
22
-3.5
32
0
13
55.75006
23
-3.5
33
0
39
0
210
0
220
0
230
1
0
SOLID
5
156
100
AcDbEntity
8
0
62
256
6
ByLayer
370
-1
48
1
60
0
100
AcDbTrace
10
55.220893
20
6.675
30
0
11
56.279227
21
6.675
31
0
12
55.75006
22
3.5
32
0
13
55.75006
23
3.5
33
0
39
0
210
0
220
0
230
1
0
MTEXT
5
157
100
AcDbEntity
8
0
62
256
6
ByLayer
370
18
48
1
60
0
100
AcDbMText
10
48.443559
20
16.573147
30
0
210
0
220
0
230
1
1
\A1;7
40
3.50012
41
0
44
1
50
90
71
5
72
5
7
iso_b_vert
0
POINT
5
158
100
AcDbEntity
8
Defpoints
62
0
6
ByLayer
370
-1
48
1
60
0
100
AcDbPoint
10
47.7261
20
-3.5
30
0
39
0
210
0
220
0
230
1
50
360
0
POINT
5
159
100
AcDbEntity
8
Defpoints
62
0
6
ByLayer
370
-1
48
1
60
0
100
AcDbPoint
10
47.7261
20
3.5
30
0
39
0
210
0
220
0
230
1
50
360
0
POINT
5
15A
100
AcDbEntity
8
Defpoints
62
0
6
ByLayer
370
-1
48
1
60
0
100
AcDbPoint
10
55.75006
20
3.5
30
0
39
0
210
0
220
0
230
1
50
360
0
ENDBLK
5
14F
100
AcDbEntity
8
0
100
AcDbBlockEnd
0
BLOCK
5
167
100
AcDbEntity
8
0
100
AcDbBlockBegin
2
_U1
70
0
10
0
20
0
30
0
3
_U1
0
MTEXT
5
15D
100
AcDbEntity
8
2
62
256
6
ByLayer
370
18
48
1
60
0
100
AcDbMText
10
55.060403
20
7.657505
30
0
210
0
220
0
230
1
1
\W0.7346;7.00
40
3.50012
41
0
44
1.084337
50
90
71
7
72
5
7
iso_b_vert
0
LINE
5
15E
100
AcDbEntity
8
2
62
256
6
ByLayer
370
13
48
1
60
0
100
AcDbLine
10
49.3136
20
-3.5
30
0
11
58.92506
21
-3.5
31
0
39
0
210
0
220
0
230
1
0
LINE
5
15F
100
AcDbEntity
8
2
62
256
6
ByLayer
370
13
48
1
60
0
100
AcDbLine
10
49.3136
20
3.5
30
0
11
58.92506
21
3.5
31
0
39
0
210
0
220
0
230
1
0
LINE
5
160
100
AcDbEntity
8
2
62
256
6
ByLayer
370
13
48
1
60
0
100
AcDbLine
10
55.75006
20
-3.5
30
0
11
55.75006
21
15.71468
31
0
39
0
210
0
220
0
230
1
0
LINE
5
161
100
AcDbEntity
8
2
62
256
6
ByLayer
370
13
48
1
60
0
100
AcDbLine
10
55.75006
20
-3.5
30
0
11
55.332063
21
-0.325002
31
0
39
0
210
0
220
0
230
1
0
LINE
5
162
100
AcDbEntity
8
2
62
256
6
ByLayer
370
13
48
1
60
0
100
AcDbLine
10
55.75006
20
-3.5
30
0
11
56.168057
21
-0.324998
31
0
39
0
210
0
220
0
230
1
0
LINE
5
163
100
AcDbEntity
8
2
62
256
6
ByLayer
370
13
48
1
60
0
100
AcDbLine
10
55.332063
20
-0.325002
30
0
11
56.168057
21
-0.324998
31
0
39
0
210
0
220
0
230
1
0
LINE
5
164
100
AcDbEntity
8
2
62
256
6
ByLayer
370
13
48
1
60
0
100
AcDbLine
10
55.75006
20
3.5
30
0
11
56.168057
21
0.325002
31
0
39
0
210
0
220
0
230
1
0
LINE
5
165
100
AcDbEntity
8
2
62
256
6
ByLayer
370
13
48
1
60
0
100
AcDbLine
10
55.75006
20
3.5
30
0
11
55.332063
21
0.324998
31
0
39
0
210
0
220
0
230
1
0
LINE
5
166
100
AcDbEntity
8
2
62
256
6
ByLayer
370
13
48
1
60
0
100
AcDbLine
10
56.168057
20
0.325002
30
0
11
55.332063
21
0.324998
31
0
39
0
210
0
220
0
230
1
0
ENDBLK
5
168
100
AcDbEntity
8
0
100
AcDbBlockEnd
0
BLOCK
5
16D
100
AcDbEntity
8
0
100
AcDbBlockBegin
2
*D6
70
1
10
0
20
0
30
0
3
*D6
0
LINE
5
16F
100
AcDbEntity
8
0
62
256
6
ByLayer
370
-2
48
1
60
0
100
AcDbLine
10
-41.5875
20
5
30
0
11
-46.42494
21
5
31
0
39
0
210
0
220
0
230
1
0
LINE
5
170
100
AcDbEntity
8
0
62
256
6
ByLayer
370
-2
48
1
60
0
100
AcDbLine
10
-41.5875
20
-5
30
0
11
-46.42494
21
-5
31
0
39
0
210
0
220
0
230
1
0
LINE
5
171
100
AcDbEntity
8
0
62
256
6
ByLayer
370
-2
48
1
60
0
100
AcDbLine
10
-43.24994
20
5
30
0
11
-43.24994
21
28.117532
31
0
39
0
210
0
220
0
230
1
0
LINE
5
172
100
AcDbEntity
8
0
62
256
6
ByLayer
370
-2
48
1
60
0
100
AcDbLine
10
-43.24994
20
8.175
30
0
11
-43.24994
21
11.35
31
0
39
0
210
0
220
0
230
1
0
LINE
5
173
100
AcDbEntity
8
0
62
256
6
ByLayer
370
-2
48
1
60
0
100
AcDbLine
10
-43.24994
20
-8.175
30
0
11
-43.24994
21
-11.35
31
0
39
0
210
0
220
0
230
1
0
SOLID
5
174
100
AcDbEntity
8
0
62
256
6
ByLayer
370
-1
48
1
60
0
100
AcDbTrace
10
-43.779107
20
8.175
30
0
11
-42.720773
21
8.175
31
0
12
-43.24994
22
5
32
0
13
-43.24994
23
5
33
0
39
0
210
0
220
0
230
1
0
SOLID
5
175
100
AcDbEntity
8
0
62
256
6
ByLayer
370
-1
48
1
60
0
100
AcDbTrace
10
-42.720773
20
-8.175
30
0
11
-43.779107
21
-8.175
31
0
12
-43.24994
22
-5
32
0
13
-43.24994
23
-5
33
0
39
0
210
0
220
0
230
1
0
MTEXT
5
176
100
AcDbEntity
8
0
62
256
6
ByLayer
370
18
48
1
60
0
100
AcDbMText
10
-50.556441
20
19.97767
30
0
210
0
220
0
230
1
1
\A1;10
40
3.50012
41
0
44
1
50
90
71
5
72
5
7
iso_b_vert
0
POINT
5
177
100
AcDbEntity
8
Defpoints
62
0
6
ByLayer
370
-1
48
1
60
0
100
AcDbPoint
10
-40
20
5
30
0
39
0
210
0
220
0
230
1
50
360
0
POINT
5
178
100
AcDbEntity
8
Defpoints
62
0
6
ByLayer
370
-1
48
1
60
0
100
AcDbPoint
10
-40
20
-5
30
0
39
0
210
0
220
0
230
1
50
360
0
POINT
5
179
100
AcDbEntity
8
Defpoints
62
0
6
ByLayer
370
-1
48
1
60
0
100
AcDbPoint
10
-43.24994
20
-5
30
0
39
0
210
0
220
0
230
1
50
360
0
ENDBLK
5
16E
100
AcDbEntity
8
0
100
AcDbBlockEnd
0
BLOCK
5
185
100
AcDbEntity
8
0
100
AcDbBlockBegin
2
_U2
70
0
10
0
20
0
30
0
3
_U2
0
MTEXT
5
17B
100
AcDbEntity
8
SK2
62
256
6
ByLayer
370
18
48
1
60
0
100
AcDbMText
10
-43.939597
20
15.157505
30
0
210
0
220
0
230
1
1
\W0.6864;10.00
40
3.50012
41
0
44
1.084337
50
90
71
7
72
5
7
iso_b_vert
0
LINE
5
17C
100
AcDbEntity
8
SK2
62
256
6
ByLayer
370
13
48
1
60
0
100
AcDbLine
10
-41.5875
20
5
30
0
11
-46.42494
21
5
31
0
39
0
210
0
220
0
230
1
0
LINE
5
17D
100
AcDbEntity
8
SK2
62
256
6
ByLayer
370
13
48
1
60
0
100
AcDbLine
10
-41.5875
20
-5
30
0
11
-46.42494
21
-5
31
0
39
0
210
0
220
0
230
1
0
LINE
5
17E
100
AcDbEntity
8
SK2
62
256
6
ByLayer
370
13
48
1
60
0
100
AcDbLine
10
-43.24994
20
-5
30
0
11
-43.24994
21
24.955339
31
0
39
0
210
0
220
0
230
1
0
LINE
5
17F
100
AcDbEntity
8
SK2
62
256
6
ByLayer
370
13
48
1
60
0
100
AcDbLine
10
-43.24994
20
5
30
0
11
-42.831943
21
1.825002
31
0
39
0
210
0
220
0
230
1
0
LINE
5
180
100
AcDbEntity
8
SK2
62
256
6
ByLayer
370
13
48
1
60
0
100
AcDbLine
10
-43.24994
20
5
30
0
11
-43.667937
21
1.824998
31
0
39
0
210
0
220
0
230
1
0
LINE
5
181
100
AcDbEntity
8
SK2
62
256
6
ByLayer
370
13
48
1
60
0
100
AcDbLine
10
-42.831943
20
1.825002
30
0
11
-43.667937
21
1.824998
31
0
39
0
210
0
220
0
230
1
0
LINE
5
182
100
AcDbEntity
8
SK2
62
256
6
ByLayer
370
13
48
1
60
0
100
AcDbLine
10
-43.24994
20
-5
30
0
11
-43.667937
21
-1.825002
31
0
39
0
210
0
220
0
230
1
0
LINE
5
183
100
AcDbEntity
8
SK2
62
256
6
ByLayer
370
13
48
1
60
0
100
AcDbLine
10
-43.24994
20
-5
30
0
11
-42.831943
21
-1.824998
31
0
39
0
210
0
220
0
230
1
0
LINE
5
184
100
AcDbEntity
8
SK2
62
256
6
ByLayer
370
13
48
1
60
0
100
AcDbLine
10
-43.667937
20
-1.825002
30
0
11
-42.831943
21
-1.824998
31
0
39
0
210
0
220
0
230
1
0
ENDBLK
5
186
100
AcDbEntity
8
0
100
AcDbBlockEnd
0
BLOCK
5
18B
100
AcDbEntity
8
0
100
AcDbBlockBegin
2
*D8
70
1
10
0
20
0
30
0
3
*D8
0
LINE
5
18D
100
AcDbEntity
8
0
62
256
6
ByLayer
370
-2
48
1
60
0
100
AcDbLine
10
25.8761
20
4.75
30
0
11
65.35012
21
4.75
31
0
39
0
210
0
220
0
230
1
0
LINE
5
18E
100
AcDbEntity
8
0
62
256
6
ByLayer
370
-2
48
1
60
0
100
AcDbLine
10
25.8761
20
-4.75
30
0
11
65.35012
21
-4.75
31
0
39
0
210
0
220
0
230
1
0
LINE
5
18F
100
AcDbEntity
8
0
62
256
6
ByLayer
370
-2
48
1
60
0
100
AcDbLine
10
64.35012
20
4.75
30
0
11
64.35012
21
40.236411
31
0
39
0
210
0
220
0
230
1
0
LINE
5
190
100
AcDbEntity
8
0
62
256
6
ByLayer
370
-2
48
1
60
0
100
AcDbLine
10
64.35012
20
7.75
30
0
11
64.35012
21
10.75
31
0
39
0
210
0
220
0
230
1
0
LINE
5
191
100
AcDbEntity
8
0
62
256
6
ByLayer
370
-2
48
1
60
0
100
AcDbLine
10
64.35012
20
-7.75
30
0
11
64.35012
21
-10.75
31
0
39
0
210
0
220
0
230
1
0
SOLID
5
192
100
AcDbEntity
8
0
62
256
6
ByLayer
370
-1
48
1
60
0
100
AcDbTrace
10
63.85012
20
7.75
30
0
11
64.85012
21
7.75
31
0
12
64.35012
22
4.75
32
0
13
64.35012
23
4.75
33
0
39
0
210
0
220
0
230
1
0
SOLID
5
193
100
AcDbEntity
8
0
62
256
6
ByLayer
370
-1
48
1
60
0
100
AcDbTrace
10
64.85012
20
-7.75
30
0
11
63.85012
21
-7.75
31
0
12
64.35012
22
-4.75
32
0
13
64.35012
23
-4.75
33
0
39
0
210
0
220
0
230
1
0
MTEXT
5
194
100
AcDbEntity
8
0
62
256
6
ByLayer
370
18
48
1
60
0
100
AcDbMText
10
51.523647
20
25.493206
30
0
210
0
220
0
230
1
1
\A1;9.5
40
3.50012
41
0
44
1
50
90
71
5
72
5
7
iso_b_vert
0
POINT
5
195
100
AcDbEntity
8
Defpoints
62
0
6
ByLayer
370
-1
48
1
60
0
100
AcDbPoint
10
25.3761
20
4.75
30
0
39
0
210
0
220
0
230
1
50
360
0
POINT
5
196
100
AcDbEntity
8
Defpoints
62
0
6
ByLayer
370
-1
48
1
60
0
100
AcDbPoint
10
25.3761
20
-4.75
30
0
39
0
210
0
220
0
230
1
50
360
0
POINT
5
197
100
AcDbEntity
8
Defpoints
62
0
6
ByLayer
370
-1
48
1
60
0
100
AcDbPoint
10
64.35012
20
-4.75
30
0
39
0
210
0
220
0
230
1
50
360
0
ENDBLK
5
18C
100
AcDbEntity
8
0
100
AcDbBlockEnd
0
BLOCK
5
1A3
100
AcDbEntity
8
0
100
AcDbBlockBegin
2
_U3
70
0
10
0
20
0
30
0
3
_U3
0
MTEXT
5
199
100
AcDbEntity
8
2
62
256
6
ByLayer
370
18
48
1
60
0
100
AcDbMText
10
63.660463
20
19.330845
30
0
210
0
220
0
230
1
1
\W0.7346;9.50
40
3.50012
41
0
44
1.084337
50
90
71
7
72
5
7
iso_b_vert
0
LINE
5
19A
100
AcDbEntity
8
2
62
256
6
ByLayer
370
13
48
1
60
0
100
AcDbLine
10
25.8761
20
4.75
30
0
11
65.35012
21
4.75
31
0
39
0
210
0
220
0
230
1
0
LINE
5
19B
100
AcDbEntity
8
2
62
256
6
ByLayer
370
13
48
1
60
0
100
AcDbLine
10
25.8761
20
-4.75
30
0
11
65.35012
21
-4.75
31
0
39
0
210
0
220
0
230
1
0
LINE
5
19C
100
AcDbEntity
8
2
62
256
6
ByLayer
370
13
48
1
60
0
100
AcDbLine
10
64.35012
20
-4.75
30
0
11
64.35012
21
27.38802
31
0
39
0
210
0
220
0
230
1
0
LINE
5
19D
100
AcDbEntity
8
2
62
256
6
ByLayer
370
13
48
1
60
0
100
AcDbLine
10
64.35012
20
4.75
30
0
11
64.665433
21
1.750001
31
0
39
0
210
0
220
0
230
1
0
LINE
5
19E
100
AcDbEntity
8
2
62
256
6
ByLayer
370
13
48
1
60
0
100
AcDbLine
10
64.35012
20
4.75
30
0
11
64.034807
21
1.749999
31
0
39
0
210
0
220
0
230
1
0
LINE
5
19F
100
AcDbEntity
8
2
62
256
6
ByLayer
370
13
48
1
60
0
100
AcDbLine
10
64.665433
20
1.750001
30
0
11
64.034807
21
1.749999
31
0
39
0
210
0
220
0
230
1
0
LINE
5
1A0
100
AcDbEntity
8
2
62
256
6
ByLayer
370
13
48
1
60
0
100
AcDbLine
10
64.35012
20
-4.75
30
0
11
64.034807
21
-1.750001
31
0
39
0
210
0
220
0
230
1
0
LINE
5
1A1
100
AcDbEntity
8
2
62
256
6
ByLayer
370
13
48
1
60
0
100
AcDbLine
10
64.35012
20
-4.75
30
0
11
64.665433
21
-1.749999
31
0
39
0
210
0
220
0
230
1
0
LINE
5
1A2
100
AcDbEntity
8
2
62
256
6
ByLayer
370
13
48
1
60
0
100
AcDbLine
10
64.034807
20
-1.750001
30
0
11
64.665433
21
-1.749999
31
0
39
0
210
0
220
0
230
1
0
ENDBLK
5
1A4
100
AcDbEntity
8
0
100
AcDbBlockEnd
0
BLOCK
5
1A9
100
AcDbEntity
8
0
100
AcDbBlockBegin
2
*D10
70
1
10
0
20
0
30
0
3
*D10
0
LINE
5
1AB
100
AcDbEntity
8
0
62
256
6
ByLayer
370
-2
48
1
60
0
100
AcDbLine
10
-40
20
-6.5875
30
0
11
-40
21
-31.67512
31
0
39
0
210
0
220
0
230
1
0
LINE
5
1AC
100
AcDbEntity
8
0
62
256
6
ByLayer
370
-2
48
1
60
0
100
AcDbLine
10
0
20
-6.5875
30
0
11
0
21
-31.67512
31
0
39
0
210
0
220
0
230
1
0
LINE
5
1AD
100
AcDbEntity
8
0
62
256
6
ByLayer
370
-2
48
1
60
0
100
AcDbLine
10
-36.825
20
-28.50012
30
0
11
-3.175
21
-28.50012
31
0
39
0
210
0
220
0
230
1
0
SOLID
5
1AE
100
AcDbEntity
8
0
62
256
6
ByLayer
370
-1
48
1
60
0
100
AcDbTrace
10
-36.825
20
-27.970953
30
0
11
-36.825
21
-29.029287
31
0
12
-40
22
-28.50012
32
0
13
-40
23
-28.50012
33
0
39
0
210
0
220
0
230
1
0
SOLID
5
1AF
100
AcDbEntity
8
0
62
256
6
ByLayer
370
-1
48
1
60
0
100
AcDbTrace
10
-3.175
20
-29.029287
30
0
11
-3.175
21
-27.970953
31
0
12
0
22
-28.50012
32
0
13
0
23
-28.50012
33
0
39
0
210
0
220
0
230
1
0
MTEXT
5
1B0
100
AcDbEntity
8
0
62
256
6
ByLayer
370
18
48
1
60
0
100
AcDbMText
10
-20
20
-21.193619
30
0
210
0
220
0
230
1
1
\A1;40
40
3.50012
41
0
44
1
50
0
71
5
72
5
7
iso_b_vert
0
POINT
5
1B1
100
AcDbEntity
8
Defpoints
62
0
6
ByLayer
370
-1
48
1
60
0
100
AcDbPoint
10
-40
20
-5
30
0
39
0
210
0
220
0
230
1
50
360
0
POINT
5
1B2
100
AcDbEntity
8
Defpoints
62
0
6
ByLayer
370
-1
48
1
60
0
100
AcDbPoint
10
0
20
-5
30
0
39
0
210
0
220
0
230
1
50
360
0
POINT
5
1B3
100
AcDbEntity
8
Defpoints
62
0
6
ByLayer
370
-1
48
1
60
0
100
AcDbPoint
10
0
20
-28.50012
30
0
39
0
210
0
220
0
230
1
50
360
0
ENDBLK
5
1AA
100
AcDbEntity
8
0
100
AcDbBlockEnd
0
BLOCK
5
1BF
100
AcDbEntity
8
0
100
AcDbBlockBegin
2
_U4
70
0
10
0
20
0
30
0
3
_U4
0
MTEXT
5
1B5
100
AcDbEntity
8
SK2
62
256
6
ByLayer
370
18
48
1
60
0
100
AcDbMText
10
-25.413884
20
-27.467451
30
0
210
0
220
0
230
1
1
\W0.7694;40.00
40
3.50012
41
0
44
1.084337
50
0
71
7
72
5
7
iso_b_vert
0
LINE
5
1B6
100
AcDbEntity
8
SK2
62
256
6
ByLayer
370
13
48
1
60
0
100
AcDbLine
10
-40
20
-6.5875
30
0
11
-40
21
-31.67512
31
0
39
0
210
0
220
0
230
1
0
LINE
5
1B7
100
AcDbEntity
8
SK2
62
256
6
ByLayer
370
13
48
1
60
0
100
AcDbLine
10
0
20
-6.5875
30
0
11
0
21
-31.67512
31
0
39
0
210
0
220
0
230
1
0
LINE
5
1B8
100
AcDbEntity
8
SK2
62
256
6
ByLayer
370
13
48
1
60
0
100
AcDbLine
10
-40
20
-28.50012
30
0
11
0
21
-28.50012
31
0
39
0
210
0
220
0
230
1
0
LINE
5
1B9
100
AcDbEntity
8
SK2
62
256
6
ByLayer
370
13
48
1
60
0
100
AcDbLine
10
-40
20
-28.50012
30
0
11
-36.825002
21
-28.082123
31
0
39
0
210
0
220
0
230
1
0
LINE
5
1BA
100
AcDbEntity
8
SK2
62
256
6
ByLayer
370
13
48
1
60
0
100
AcDbLine
10
-40
20
-28.50012
30
0
11
-36.824998
21
-28.918117
31
0
39
0
210
0
220
0
230
1
0
LINE
5
1BB
100
AcDbEntity
8
SK2
62
256
6
ByLayer
370
13
48
1
60
0
100
AcDbLine
10
-36.825002
20
-28.082123
30
0
11
-36.824998
21
-28.918117
31
0
39
0
210
0
220
0
230
1
0
LINE
5
1BC
100
AcDbEntity
8
SK2
62
256
6
ByLayer
370
13
48
1
60
0
100
AcDbLine
10
0
20
-28.50012
30
0
11
-3.174998
21
-28.918117
31
0
39
0
210
0
220
0
230
1
0
LINE
5
1BD
100
AcDbEntity
8
SK2
62
256
6
ByLayer
370
13
48
1
60
0
100
AcDbLine
10
0
20
-28.50012
30
0
11
-3.175002
21
-28.082123
31
0
39
0
210
0
220
0
230
1
0
LINE
5
1BE
100
AcDbEntity
8
SK2
62
256
6
ByLayer
370
13
48
1
60
0
100
AcDbLine
10
-3.174998
20
-28.918117
30
0
11
-3.175002
21
-28.082123
31
0
39
0
210
0
220
0
230
1
0
ENDBLK
5
1C0
100
AcDbEntity
8
0
100
AcDbBlockEnd
0
BLOCK
5
1C5
100
AcDbEntity
8
0
100
AcDbBlockBegin
2
*D12
70
1
10
0
20
0
30
0
3
*D12
0
LINE
5
1C7
100
AcDbEntity
8
0
62
256
6
ByLayer
370
-2
48
1
60
0
100
AcDbLine
10
12
20
2.4125
30
0
11
12
21
-22.92482
31
0
39
0
210
0
220
0
230
1
0
LINE
5
1C8
100
AcDbEntity
8
0
62
256
6
ByLayer
370
-2
48
1
60
0
100
AcDbLine
10
49
20
-1.5875
30
0
11
49
21
-22.92482
31
0
39
0
210
0
220
0
230
1
0
LINE
5
1C9
100
AcDbEntity
8
0
62
256
6
ByLayer
370
-2
48
1
60
0
100
AcDbLine
10
15.175
20
-19.74982
30
0
11
45.825
21
-19.74982
31
0
39
0
210
0
220
0
230
1
0
SOLID
5
1CA
100
AcDbEntity
8
0
62
256
6
ByLayer
370
-1
48
1
60
0
100
AcDbTrace
10
15.175
20
-19.220653
30
0
11
15.175
21
-20.278987
31
0
12
12
22
-19.74982
32
0
13
12
23
-19.74982
33
0
39
0
210
0
220
0
230
1
0
SOLID
5
1CB
100
AcDbEntity
8
0
62
256
6
ByLayer
370
-1
48
1
60
0
100
AcDbTrace
10
45.825
20
-20.278987
30
0
11
45.825
21
-19.220653
31
0
12
49
22
-19.74982
32
0
13
49
23
-19.74982
33
0
39
0
210
0
220
0
230
1
0
MTEXT
5
1CC
100
AcDbEntity
8
0
62
256
6
ByLayer
370
18
48
1
60
0
100
AcDbMText
10
30.5
20
-12.443319
30
0
210
0
220
0
230
1
1
\A1;37
40
3.50012
41
0
44
1
50
0
71
5
72
5
7
iso_b_vert
0
POINT
5
1CD
100
AcDbEntity
8
Defpoints
62
0
6
ByLayer
370
-1
48
1
60
0
100
AcDbPoint
10
12
20
4
30
0
39
0
210
0
220
0
230
1
50
360
0
POINT
5
1CE
100
AcDbEntity
8
Defpoints
62
0
6
ByLayer
370
-1
48
1
60
0
100
AcDbPoint
10
49
20
0
30
0
39
0
210
0
220
0
230
1
50
360
0
POINT
5
1CF
100
AcDbEntity
8
Defpoints
62
0
6
ByLayer
370
-1
48
1
60
0
100
AcDbPoint
10
49
20
-19.74982
30
0
39
0
210
0
220
0
230
1
50
360
0
ENDBLK
5
1C6
100
AcDbEntity
8
0
100
AcDbBlockEnd
0
BLOCK
5
1DB
100
AcDbEntity
8
0
100
AcDbBlockBegin
2
_U5
70
0
10
0
20
0
30
0
3
_U5
0
MTEXT
5
1D1
100
AcDbEntity
8
SK2
62
256
6
ByLayer
370
18
48
1
60
0
100
AcDbMText
10
25.270389
20
-18.717151
30
0
210
0
220
0
230
1
1
\W0.7468;37.00
40
3.50012
41
0
44
1.084337
50
0
71
7
72
5
7
iso_b_vert
0
LINE
5
1D2
100
AcDbEntity
8
SK2
62
256
6
ByLayer
370
13
48
1
60
0
100
AcDbLine
10
12
20
2.4125
30
0
11
12
21
-22.92482
31
0
39
0
210
0
220
0
230
1
0
LINE
5
1D3
100
AcDbEntity
8
SK2
62
256
6
ByLayer
370
13
48
1
60
0
100
AcDbLine
10
49
20
-1.5875
30
0
11
49
21
-22.92482
31
0
39
0
210
0
220
0
230
1
0
LINE
5
1D4
100
AcDbEntity
8
SK2
62
256
6
ByLayer
370
13
48
1
60
0
100
AcDbLine
10
12
20
-19.74982
30
0
11
49
21
-19.74982
31
0
39
0
210
0
220
0
230
1
0
LINE
5
1D5
100
AcDbEntity
8
SK2
62
256
6
ByLayer
370
13
48
1
60
0
100
AcDbLine
10
12
20
-19.74982
30
0
11
15.174998
21
-19.331823
31
0
39
0
210
0
220
0
230
1
0
LINE
5
1D6
100
AcDbEntity
8
SK2
62
256
6
ByLayer
370
13
48
1
60
0
100
AcDbLine
10
12
20
-19.74982
30
0
11
15.175002
21
-20.167817
31
0
39
0
210
0
220
0
230
1
0
LINE
5
1D7
100
AcDbEntity
8
SK2
62
256
6
ByLayer
370
13
48
1
60
0
100
AcDbLine
10
15.174998
20
-19.331823
30
0
11
15.175002
21
-20.167817
31
0
39
0
210
0
220
0
230
1
0
LINE
5
1D8
100
AcDbEntity
8
SK2
62
256
6
ByLayer
370
13
48
1
60
0
100
AcDbLine
10
49
20
-19.74982
30
0
11
45.825002
21
-20.167817
31
0
39
0
210
0
220
0
230
1
0
LINE
5
1D9
100
AcDbEntity
8
SK2
62
256
6
ByLayer
370
13
48
1
60
0
100
AcDbLine
10
49
20
-19.74982
30
0
11
45.824998
21
-19.331823
31
0
39
0
210
0
220
0
230
1
0
LINE
5
1DA
100
AcDbEntity
8
SK2
62
256
6
ByLayer
370
13
48
1
60
0
100
AcDbLine
10
45.825002
20
-20.167817
30
0
11
45.824998
21
-19.331823
31
0
39
0
210
0
220
0
230
1
0
ENDBLK
5
1DC
100
AcDbEntity
8
0
100
AcDbBlockEnd
0
BLOCK
5
1E1
100
AcDbEntity
8
0
100
AcDbBlockBegin
2
*D14
70
1
10
0
20
0
30
0
3
*D14
0
LINE
5
1E3
100
AcDbEntity
8
0
62
256
6
ByLayer
370
-2
48
1
60
0
100
AcDbLine
10
25.4
20
-5.0875
30
0
11
25.4
21
-12.32
31
0
39
0
210
0
220
0
230
1
0
LINE
5
1E4
100
AcDbEntity
8
0
62
256
6
ByLayer
370
-2
48
1
60
0
100
AcDbLine
10
49
20
-1.5875
30
0
11
49
21
-12.32
31
0
39
0
210
0
220
0
230
1
0
LINE
5
1E5
100
AcDbEntity
8
0
62
256
6
ByLayer
370
-2
48
1
60
0
100
AcDbLine
10
28.575
20
-11.82
30
0
11
45.825
21
-11.82
31
0
39
0
210
0
220
0
230
1
0
SOLID
5
1E6
100
AcDbEntity
8
0
62
256
6
ByLayer
370
-1
48
1
60
0
100
AcDbTrace
10
28.575
20
-11.290833
30
0
11
28.575
21
-12.349167
31
0
12
25.4
22
-11.82
32
0
13
25.4
23
-11.82
33
0
39
0
210
0
220
0
230
1
0
SOLID
5
1E7
100
AcDbEntity
8
0
62
256
6
ByLayer
370
-1
48
1
60
0
100
AcDbTrace
10
45.825
20
-12.349167
30
0
11
45.825
21
-11.290833
31
0
12
49
22
-11.82
32
0
13
49
23
-11.82
33
0
39
0
210
0
220
0
230
1
0
MTEXT
5
1E8
100
AcDbEntity
8
0
62
256
6
ByLayer
370
18
48
1
60
0
100
AcDbMText
10
37.2
20
-5.975
30
0
210
0
220
0
230
1
1
\A1;23.6
40
2.8
41
0
44
1
50
0
71
5
72
5
7
iso_b_vert
0
POINT
5
1E9
100
AcDbEntity
8
Defpoints
62
0
6
ByLayer
370
-1
48
1
60
0
100
AcDbPoint
10
25.4
20
-3.5
30
0
39
0
210
0
220
0
230
1
50
360
0
POINT
5
1EA
100
AcDbEntity
8
Defpoints
62
0
6
ByLayer
370
-1
48
1
60
0
100
AcDbPoint
10
49
20
0
30
0
39
0
210
0
220
0
230
1
50
360
0
POINT
5
1EB
100
AcDbEntity
8
Defpoints
62
0
6
ByLayer
370
-1
48
1
60
0
100
AcDbPoint
10
49
20
-11.82
30
0
39
0
210
0
220
0
230
1
50
360
0
ENDBLK
5
1E2
100
AcDbEntity
8
0
100
AcDbBlockEnd
0
BLOCK
5
1F7
100
AcDbEntity
8
0
100
AcDbBlockBegin
2
_U6
70
0
10
0
20
0
30
0
3
_U6
0
MTEXT
5
1ED
100
AcDbEntity
8
SK2
62
256
6
ByLayer
370
18
48
1
60
0
100
AcDbMText
10
33.016454
20
-11.973893
30
0
210
0
220
0
230
1
1
\W0.7468;23.60
40
2.8
41
0
44
1.084337
50
0
71
7
72
5
7
iso_b_vert
0
LINE
5
1EE
100
AcDbEntity
8
SK2
62
256
6
ByLayer
370
13
48
1
60
0
100
AcDbLine
10
25.4
20
-5.0875
30
0
11
25.4
21
-12.32
31
0
39
0
210
0
220
0
230
1
0
LINE
5
1EF
100
AcDbEntity
8
SK2
62
256
6
ByLayer
370
13
48
1
60
0
100
AcDbLine
10
49
20
-1.5875
30
0
11
49
21
-12.32
31
0
39
0
210
0
220
0
230
1
0
LINE
5
1F0
100
AcDbEntity
8
SK2
62
256
6
ByLayer
370
13
48
1
60
0
100
AcDbLine
10
25.4
20
-11.82
30
0
11
49
21
-11.82
31
0
39
0
210
0
220
0
230
1
0
LINE
5
1F1
100
AcDbEntity
8
SK2
62
256
6
ByLayer
370
13
48
1
60
0
100
AcDbLine
10
25.4
20
-11.82
30
0
11
28.574998
21
-11.402003
31
0
39
0
210
0
220
0
230
1
0
LINE
5
1F2
100
AcDbEntity
8
SK2
62
256
6
ByLayer
370
13
48
1
60
0
100
AcDbLine
10
25.4
20
-11.82
30
0
11
28.575002
21
-12.237997
31
0
39
0
210
0
220
0
230
1
0
LINE
5
1F3
100
AcDbEntity
8
SK2
62
256
6
ByLayer
370
13
48
1
60
0
100
AcDbLine
10
28.574998
20
-11.402003
30
0
11
28.575002
21
-12.237997
31
0
39
0
210
0
220
0
230
1
0
LINE
5
1F4
100
AcDbEntity
8
SK2
62
256
6
ByLayer
370
13
48
1
60
0
100
AcDbLine
10
49
20
-11.82
30
0
11
45.825002
21
-12.237997
31
0
39
0
210
0
220
0
230
1
0
LINE
5
1F5
100
AcDbEntity
8
SK2
62
256
6
ByLayer
370
13
48
1
60
0
100
AcDbLine
10
49
20
-11.82
30
0
11
45.824998
21
-11.402003
31
0
39
0
210
0
220
0
230
1
0
LINE
5
1F6
100
AcDbEntity
8
SK2
62
256
6
ByLayer
370
13
48
1
60
0
100
AcDbLine
10
45.825002
20
-12.237997
30
0
11
45.824998
21
-11.402003
31
0
39
0
210
0
220
0
230
1
0
ENDBLK
5
1F8
100
AcDbEntity
8
0
100
AcDbBlockEnd
0
BLOCK
5
1FD
100
AcDbEntity
8
0
100
AcDbBlockBegin
2
*D16
70
1
10
0
20
0
30
0
3
*D16
0
LINE
5
1FF
100
AcDbEntity
8
0
62
256
6
ByLayer
370
-2
48
1
60
0
100
AcDbLine
10
-40
20
-1.5875
30
0
11
-40
21
-41.67512
31
0
39
0
210
0
220
0
230
1
0
LINE
5
200
100
AcDbEntity
8
0
62
256
6
ByLayer
370
-2
48
1
60
0
100
AcDbLine
10
49
20
-1.5875
30
0
11
49
21
-41.67512
31
0
39
0
210
0
220
0
230
1
0
LINE
5
201
100
AcDbEntity
8
0
62
256
6
ByLayer
370
-2
48
1
60
0
100
AcDbLine
10
-36.825
20
-38.50012
30
0
11
45.825
21
-38.50012
31
0
39
0
210
0
220
0
230
1
0
SOLID
5
202
100
AcDbEntity
8
0
62
256
6
ByLayer
370
-1
48
1
60
0
100
AcDbTrace
10
-36.825
20
-37.970953
30
0
11
-36.825
21
-39.029287
31
0
12
-40
22
-38.50012
32
0
13
-40
23
-38.50012
33
0
39
0
210
0
220
0
230
1
0
SOLID
5
203
100
AcDbEntity
8
0
62
256
6
ByLayer
370
-1
48
1
60
0
100
AcDbTrace
10
45.825
20
-39.029287
30
0
11
45.825
21
-37.970953
31
0
12
49
22
-38.50012
32
0
13
49
23
-38.50012
33
0
39
0
210
0
220
0
230
1
0
MTEXT
5
204
100
AcDbEntity
8
0
62
256
6
ByLayer
370
18
48
1
60
0
100
AcDbMText
10
4.5
20
-31.19362
30
0
210
0
220
0
230
1
1
\A1;89
40
3.50012
41
0
44
1
50
0
71
5
72
5
7
iso_b_vert
0
POINT
5
205
100
AcDbEntity
8
Defpoints
62
0
6
ByLayer
370
-1
48
1
60
0
100
AcDbPoint
10
-40
20
0
30
0
39
0
210
0
220
0
230
1
50
360
0
POINT
5
206
100
AcDbEntity
8
Defpoints
62
0
6
ByLayer
370
-1
48
1
60
0
100
AcDbPoint
10
49
20
0
30
0
39
0
210
0
220
0
230
1
50
360
0
POINT
5
207
100
AcDbEntity
8
Defpoints
62
0
6
ByLayer
370
-1
48
1
60
0
100
AcDbPoint
10
49
20
-38.50012
30
0
39
0
210
0
220
0
230
1
50
360
0
ENDBLK
5
1FE
100
AcDbEntity
8
0
100
AcDbBlockEnd
0
BLOCK
5
213
100
AcDbEntity
8
0
100
AcDbBlockBegin
2
_U7
70
0
10
0
20
0
30
0
3
_U7
0
MTEXT
5
209
100
AcDbEntity
8
SK2
62
256
6
ByLayer
370
18
48
1
60
0
100
AcDbMText
10
-0.729611
20
-37.467451
30
0
210
0
220
0
230
1
1
\W0.7468;89.00
40
3.50012
41
0
44
1.084337
50
0
71
7
72
5
7
iso_b_vert
0
LINE
5
20A
100
AcDbEntity
8
SK2
62
256
6
ByLayer
370
13
48
1
60
0
100
AcDbLine
10
-40
20
-1.5875
30
0
11
-40
21
-41.67512
31
0
39
0
210
0
220
0
230
1
0
LINE
5
20B
100
AcDbEntity
8
SK2
62
256
6
ByLayer
370
13
48
1
60
0
100
AcDbLine
10
49
20
-1.5875
30
0
11
49
21
-41.67512
31
0
39
0
210
0
220
0
230
1
0
LINE
5
20C
100
AcDbEntity
8
SK2
62
256
6
ByLayer
370
13
48
1
60
0
100
AcDbLine
10
-40
20
-38.50012
30
0
11
49
21
-38.50012
31
0
39
0
210
0
220
0
230
1
0
LINE
5
20D
100
AcDbEntity
8
SK2
62
256
6
ByLayer
370
13
48
1
60
0
100
AcDbLine
10
-40
20
-38.50012
30
0
11
-36.825002
21
-38.082123
31
0
39
0
210
0
220
0
230
1
0
LINE
5
20E
100
AcDbEntity
8
SK2
62
256
6
ByLayer
370
13
48
1
60
0
100
AcDbLine
10
-40
20
-38.50012
30
0
11
-36.824998
21
-38.918117
31
0
39
0
210
0
220
0
230
1
0
LINE
5
20F
100
AcDbEntity
8
SK2
62
256
6
ByLayer
370
13
48
1
60
0
100
AcDbLine
10
-36.825002
20
-38.082123
30
0
11
-36.824998
21
-38.918117
31
0
39
0
210
0
220
0
230
1
0
LINE
5
210
100
AcDbEntity
8
SK2
62
256
6
ByLayer
370
13
48
1
60
0
100
AcDbLine
10
49
20
-38.50012
30
0
11
45.825002
21
-38.918117
31
0
39
0
210
0
220
0
230
1
0
LINE
5
211
100
AcDbEntity
8
SK2
62
256
6
ByLayer
370
13
48
1
60
0
100
AcDbLine
10
49
20
-38.50012
30
0
11
45.824998
21
-38.082123
31
0
39
0
210
0
220
0
230
1
0
LINE
5
212
100
AcDbEntity
8
SK2
62
256
6
ByLayer
370
13
48
1
60
0
100
AcDbLine
10
45.825002
20
-38.918117
30
0
11
45.824998
21
-38.082123
31
0
39
0
210
0
220
0
230
1
0
ENDBLK
5
214
100
AcDbEntity
8
0
100
AcDbBlockEnd
0
BLOCK
5
219
100
AcDbEntity
8
0
100
AcDbBlockBegin
2
*D18
70
1
10
0
20
0
30
0
3
*D18
0
LINE
5
21B
100
AcDbEntity
8
0
62
256
6
ByLayer
370
-2
48
1
60
0
100
AcDbLine
10
47.7261
20
4
30
0
11
47.7261
21
17.56068
31
0
39
0
210
0
220
0
230
1
0
LINE
5
21C
100
AcDbEntity
8
0
62
256
6
ByLayer
370
-2
48
1
60
0
100
AcDbLine
10
26.6261
20
4
30
0
11
26.6261
21
17.56068
31
0
39
0
210
0
220
0
230
1
0
LINE
5
21D
100
AcDbEntity
8
0
62
256
6
ByLayer
370
-2
48
1
60
0
100
AcDbLine
10
50.7261
20
17.46068
30
0
11
53.7261
21
17.46068
31
0
39
0
210
0
220
0
230
1
0
LINE
5
21E
100
AcDbEntity
8
0
62
256
6
ByLayer
370
-2
48
1
60
0
100
AcDbLine
10
23.6261
20
17.46068
30
0
11
20.6261
21
17.46068
31
0
39
0
210
0
220
0
230
1
0
SOLID
5
21F
100
AcDbEntity
8
0
62
256
6
ByLayer
370
-1
48
1
60
0
100
AcDbTrace
10
50.7261
20
17.96068
30
0
11
50.7261
21
16.96068
31
0
12
47.7261
22
17.46068
32
0
13
47.7261
23
17.46068
33
0
39
0
210
0
220
0
230
1
0
SOLID
5
220
100
AcDbEntity
8
0
62
256
6
ByLayer
370
-1
48
1
60
0
100
AcDbTrace
10
23.6261
20
16.96068
30
0
11
23.6261
21
17.96068
31
0
12
26.6261
22
17.46068
32
0
13
26.6261
23
17.46068
33
0
39
0
210
0
220
0
230
1
0
MTEXT
5
221
100
AcDbEntity
8
0
62
256
6
ByLayer
370
18
48
1
60
0
100
AcDbMText
10
37.1761
20
27.721507
30
0
210
0
220
0
230
1
1
\A1;21.1
40
2.8
41
0
44
1
50
0
71
5
72
5
7
iso_b_vert
0
POINT
5
222
100
AcDbEntity
8
Defpoints
62
0
6
ByLayer
370
-1
48
1
60
0
100
AcDbPoint
10
47.7261
20
3.5
30
0
39
0
210
0
220
0
230
1
50
360
0
POINT
5
223
100
AcDbEntity
8
Defpoints
62
0
6
ByLayer
370
-1
48
1
60
0
100
AcDbPoint
10
26.6261
20
3.5
30
0
39
0
210
0
220
0
230
1
50
360
0
POINT
5
224
100
AcDbEntity
8
Defpoints
62
0
6
ByLayer
370
-1
48
1
60
0
100
AcDbPoint
10
26.6261
20
17.46068
30
0
39
0
210
0
220
0
230
1
50
360
0
ENDBLK
5
21A
100
AcDbEntity
8
0
100
AcDbBlockEnd
0
BLOCK
5
230
100
AcDbEntity
8
0
100
AcDbBlockBegin
2
_U8
70
0
10
0
20
0
30
0
3
_U8
0
MTEXT
5
226
100
AcDbEntity
8
SK2
62
256
6
ByLayer
370
18
48
1
60
0
100
AcDbMText
10
33.692448
20
17.306787
30
0
210
0
220
0
230
1
1
\W0.6261;21.10
40
2.8
41
0
44
1.084337
50
0
71
7
72
5
7
iso_b_vert
0
LINE
5
227
100
AcDbEntity
8
SK2
62
256
6
ByLayer
370
13
48
1
60
0
100
AcDbLine
10
47.7261
20
4
30
0
11
47.7261
21
17.56068
31
0
39
0
210
0
220
0
230
1
0
LINE
5
228
100
AcDbEntity
8
SK2
62
256
6
ByLayer
370
13
48
1
60
0
100
AcDbLine
10
26.6261
20
4
30
0
11
26.6261
21
17.56068
31
0
39
0
210
0
220
0
230
1
0
LINE
5
229
100
AcDbEntity
8
SK2
62
256
6
ByLayer
370
13
48
1
60
0
100
AcDbLine
10
47.7261
20
17.46068
30
0
11
26.6261
21
17.46068
31
0
39
0
210
0
220
0
230
1
0
LINE
5
22A
100
AcDbEntity
8
SK2
62
256
6
ByLayer
370
13
48
1
60
0
100
AcDbLine
10
47.7261
20
17.46068
30
0
11
44.726101
21
17.065722
31
0
39
0
210
0
220
0
230
1
0
LINE
5
22B
100
AcDbEntity
8
SK2
62
256
6
ByLayer
370
13
48
1
60
0
100
AcDbLine
10
47.7261
20
17.46068
30
0
11
44.726099
21
17.855637
31
0
39
0
210
0
220
0
230
1
0
LINE
5
22C
100
AcDbEntity
8
SK2
62
256
6
ByLayer
370
13
48
1
60
0
100
AcDbLine
10
44.726101
20
17.065722
30
0
11
44.726099
21
17.855637
31
0
39
0
210
0
220
0
230
1
0
LINE
5
22D
100
AcDbEntity
8
SK2
62
256
6
ByLayer
370
13
48
1
60
0
100
AcDbLine
10
26.6261
20
17.46068
30
0
11
29.626099
21
17.855637
31
0
39
0
210
0
220
0
230
1
0
LINE
5
22E
100
AcDbEntity
8
SK2
62
256
6
ByLayer
370
13
48
1
60
0
100
AcDbLine
10
26.6261
20
17.46068
30
0
11
29.626101
21
17.065722
31
0
39
0
210
0
220
0
230
1
0
LINE
5
22F
100
AcDbEntity
8
SK2
62
256
6
ByLayer
370
13
48
1
60
0
100
AcDbLine
10
29.626099
20
17.855637
30
0
11
29.626101
21
17.065722
31
0
39
0
210
0
220
0
230
1
0
ENDBLK
5
231
100
AcDbEntity
8
0
100
AcDbBlockEnd
0
ENDSEC
0
SECTION
2
ENTITIES
0
ARC
5
C0
100
AcDbEntity
8
1
62
256
6
ByLayer
370
18
48
1
60
0
100
AcDbCircle
39
0
10
0.858778
20
5.55
30
0
40
0.799999999999999
210
0
220
0
230
1
100
AcDbArc
50
237.538255
51
270
0
ARC
5
C1
100
AcDbEntity
8
1
62
256
6
ByLayer
370
18
48
1
60
0
100
AcDbCircle
39
0
10
0.858778
20
-5.55
30
0
40
0.799999999999999
210
0
220
0
230
1
100
AcDbArc
50
90
51
122.461745
0
ARC
5
C2
100
AcDbEntity
8
1
62
256
6
ByLayer
370
18
48
1
60
0
100
AcDbCircle
39
0
10
0
20
4.2
30
0
40
0.8
210
0
220
0
230
1
100
AcDbArc
50
57.538255
51
90
0
ARC
5
C3
100
AcDbEntity
8
1
62
256
6
ByLayer
370
18
48
1
60
0
100
AcDbCircle
39
0
10
0
20
-4.2
30
0
40
0.8
210
0
220
0
230
1
100
AcDbArc
50
270
51
302.461745
0
ARC
5
C4
100
AcDbEntity
8
SK2
62
256
6
ByLayer
370
13
48
1
60
0
100
AcDbCircle
39
0
10
49
20
0
30
0
40
20
210
0
220
0
230
1
100
AcDbArc
50
9.606349
51
69.99994
0
ARC
5
C5
100
AcDbEntity
8
SK2
62
256
6
ByLayer
370
13
48
1
60
0
100
AcDbCircle
39
0
10
49
20
0
30
0
40
20
210
0
220
0
230
1
100
AcDbArc
50
290.00006
51
350.393651
0
ARC
5
C6
100
AcDbEntity
8
SK2
62
256
6
ByLayer
370
13
48
1
60
0
100
AcDbCircle
39
0
10
30.1261
20
0
30
0
40
18.5000000000007
210
0
220
0
230
1
100
AcDbArc
50
188.54881
51
225
0
ARC
5
C7
100
AcDbEntity
8
SK2
62
256
6
ByLayer
370
13
48
1
60
0
100
AcDbCircle
39
0
10
30.1261
20
0
30
0
40
18.5000000000007
210
0
220
0
230
1
100
AcDbArc
50
135
51
171.45119
0
ELLIPSE
5
C8
100
AcDbEntity
8
1
62
256
6
ByLayer
370
18
48
1
60
0
100
AcDbEllipse
10
26.727922
20
3.291662
30
0
11
-0.000597072951863573
21
-0.00998215927994304
31
0
210
0
220
0
230
1
40
0.409325
41
-1.42041132766502
42
0.148385078895193
0
ELLIPSE
5
C9
100
AcDbEntity
8
1
62
256
6
ByLayer
370
18
48
1
60
0
100
AcDbEllipse
10
26.7278
20
-3.41202
30
0
11
0.1
21
0
31
0
210
0
220
0
230
1
40
1
41
1.58569156717084
42
3.14143814369004
0
POINT
5
70
100
AcDbEntity
8
80
62
256
6
ByLayer
370
18
48
1
60
0
100
AcDbPoint
10
0
20
0
30
0
39
0
210
0
220
0
230
1
50
360
0
POINT
5
72
100
AcDbEntity
8
81
62
256
6
ByLayer
370
18
48
1
60
0
100
AcDbPoint
10
49
20
0
30
0
39
0
210
0
220
0
230
1
50
360
0
POINT
5
74
100
AcDbEntity
8
1
62
256
6
ByLayer
370
18
48
1
60
0
100
AcDbPoint
10
-40
20
0
30
0
39
0
210
0
220
0
230
1
50
360
0
POINT
5
76
100
AcDbEntity
8
1
62
256
6
ByLayer
370
18
48
1
60
1
100
AcDbPoint
10
0
20
-5
30
0
39
0
210
0
220
0
230
1
50
360
0
POINT
5
77
100
AcDbEntity
8
1
62
256
6
ByLayer
370
18
48
1
60
1
100
AcDbPoint
10
49
20
0
30
0
39
0
210
0
220
0
230
1
50
360
0
POINT
5
78
100
AcDbEntity
8
1
62
256
6
ByLayer
370
18
48
1
60
1
100
AcDbPoint
10
47.7261
20
-3.5
30
0
39
0
210
0
220
0
230
1
50
360
0
POINT
5
79
100
AcDbEntity
8
1
62
256
6
ByLayer
370
18
48
1
60
1
100
AcDbPoint
10
47.7261
20
3.5
30
0
39
0
210
0
220
0
230
1
50
360
0
POINT
5
7A
100
AcDbEntity
8
1
62
256
6
ByLayer
370
18
48
1
60
1
100
AcDbPoint
10
-40
20
5
30
0
39
0
210
0
220
0
230
1
50
360
0
POINT
5
7B
100
AcDbEntity
8
1
62
256
6
ByLayer
370
18
48
1
60
1
100
AcDbPoint
10
-40
20
-5
30
0
39
0
210
0
220
0
230
1
50
360
0
POINT
5
7C
100
AcDbEntity
8
1
62
256
6
ByLayer
370
18
48
1
60
1
100
AcDbPoint
10
25.3761
20
4.75
30
0
39
0
210
0
220
0
230
1
50
360
0
POINT
5
7D
100
AcDbEntity
8
1
62
256
6
ByLayer
370
18
48
1
60
1
100
AcDbPoint
10
25.3761
20
-4.75
30
0
39
0
210
0
220
0
230
1
50
360
0
POINT
5
7E
100
AcDbEntity
8
1
62
256
6
ByLayer
370
18
48
1
60
1
100
AcDbPoint
10
-40
20
-5
30
0
39
0
210
0
220
0
230
1
50
360
0
POINT
5
7F
100
AcDbEntity
8
1
62
256
6
ByLayer
370
18
48
1
60
1
100
AcDbPoint
10
0
20
-5
30
0
39
0
210
0
220
0
230
1
50
360
0
POINT
5
80
100
AcDbEntity
8
1
62
256
6
ByLayer
370
18
48
1
60
1
100
AcDbPoint
10
12
20
4
30
0
39
0
210
0
220
0
230
1
50
360
0
POINT
5
81
100
AcDbEntity
8
1
62
256
6
ByLayer
370
18
48
1
60
1
100
AcDbPoint
10
49
20
0
30
0
39
0
210
0
220
0
230
1
50
360
0
POINT
5
82
100
AcDbEntity
8
1
62
256
6
ByLayer
370
18
48
1
60
1
100
AcDbPoint
10
25.4
20
-3.5
30
0
39
0
210
0
220
0
230
1
50
360
0
POINT
5
83
100
AcDbEntity
8
1
62
256
6
ByLayer
370
18
48
1
60
1
100
AcDbPoint
10
49
20
0
30
0
39
0
210
0
220
0
230
1
50
360
0
POINT
5
84
100
AcDbEntity
8
1
62
256
6
ByLayer
370
18
48
1
60
1
100
AcDbPoint
10
-40
20
0
30
0
39
0
210
0
220
0
230
1
50
360
0
POINT
5
85
100
AcDbEntity
8
1
62
256
6
ByLayer
370
18
48
1
60
1
100
AcDbPoint
10
49
20
0
30
0
39
0
210
0
220
0
230
1
50
360
0
POINT
5
86
100
AcDbEntity
8
1
62
256
6
ByLayer
370
18
48
1
60
1
100
AcDbPoint
10
47.7261
20
3.5
30
0
39
0
210
0
220
0
230
1
50
360
0
POINT
5
87
100
AcDbEntity
8
1
62
256
6
ByLayer
370
18
48
1
60
1
100
AcDbPoint
10
26.6261
20
3.5
30
0
39
0
210
0
220
0
230
1
50
360
0
SPLINE
5
CA
100
AcDbEntity
8
SK1
62
256
6
ByLayer
370
18
48
1
60
0
100
AcDbSpline
70
4
71
3
72
12
73
8
40
0
40
0
40
0
40
0
40
0.5
40
0.5
40
0.75
40
0.75
40
1
40
1
40
1
40
1
41
1
10
-39.35
20
-4.27233562764565
30
0
41
1
10
-39.3264103729719
20
-4.29646135962867
30
0
41
1
10
-39.3036886178189
20
-4.32079198717608
30
0
41
1
10
-39.275599229617
20
-4.3524879405106
30
0
41
1
10
-39.2670477807072
20
-4.36247755785868
30
0
41
1
10
-39.2542670006876
20
-4.37847263571288
30
0
41
1
10
-39.25
20
-4.38456211228714
30
0
41
1
10
-39.25
20
-4.38632179970759
30
0
0
SPLINE
5
CB
100
AcDbEntity
8
SK1
62
256
6
ByLayer
370
18
48
1
60
0
100
AcDbSpline
70
4
71
3
72
8
73
4
40
0
40
0
40
0
40
0
40
1
40
1
40
1
40
1
41
1
10
-39.5179491924311
20
-4.10037097964465
30
0
41
1
10
-39.4620006932984
20
-4.15772613900327
30
0
41
1
10
-39.406016244097
20
-4.21504634154658
30
0
41
1
10
-39.35
20
-4.27233562764562
30
0
0
SPLINE
5
CC
100
AcDbEntity
8
SK1
62
256
6
ByLayer
370
18
48
1
60
0
100
AcDbSpline
70
4
71
3
72
10
73
6
40
0
40
0
40
0
40
0
40
0.5
40
0.5
40
1
40
1
40
1
40
1
41
1
10
-39.5179491924311
20
-4.10037097964465
30
0
41
1
10
-39.5876702969376
20
-4.0112877087532
30
0
41
1
10
-39.6641392526985
20
-3.91045466904461
30
0
41
1
10
-39.8261142497238
20
-3.69237846124145
30
0
41
1
10
-39.9120447599511
20
-3.57451243161245
30
0
41
1
10
-40
20
-3.45188921118546
30
0
0
SPLINE
5
CD
100
AcDbEntity
8
SK1
62
256
6
ByLayer
370
18
48
1
60
0
100
AcDbSpline
70
4
71
3
72
10
73
6
40
0
40
0
40
0
40
0
40
0.5
40
0.5
40
1
40
1
40
1
40
1
41
1
10
-39.5179491924311
20
4.10037097964465
30
0
41
1
10
-39.5876702969376
20
4.0112877087532
30
0
41
1
10
-39.6641392526985
20
3.91045466904461
30
0
41
1
10
-39.8261142497238
20
3.69237846124145
30
0
41
1
10
-39.9120447599511
20
3.57451243161245
30
0
41
1
10
-40
20
3.45188921118546
30
0
0
SPLINE
5
CE
100
AcDbEntity
8
SK1
62
256
6
ByLayer
370
18
48
1
60
0
100
AcDbSpline
70
4
71
3
72
12
73
8
40
0
40
0
40
0
40
0
40
0.5
40
0.5
40
0.75
40
0.75
40
1
40
1
40
1
40
1
41
1
10
-39.35
20
4.27233562764565
30
0
41
1
10
-39.3264103729719
20
4.29646135962867
30
0
41
1
10
-39.3036886178189
20
4.32079198717608
30
0
41
1
10
-39.275599229617
20
4.3524879405106
30
0
41
1
10
-39.2670477807072
20
4.36247755785868
30
0
41
1
10
-39.2542670006876
20
4.37847263571288
30
0
41
1
10
-39.25
20
4.38456211228714
30
0
41
1
10
-39.25
20
4.38632179970759
30
0
0
SPLINE
5
CF
100
AcDbEntity
8
SK1
62
256
6
ByLayer
370
18
48
1
60
0
100
AcDbSpline
70
4
71
3
72
12
73
8
40
0
40
0
40
0
40
0
40
0.5
40
0.5
40
0.75
40
0.75
40
1
40
1
40
1
40
1
41
1
10
-40.0000000000001
20
-3.13440363889123
30
0
41
1
10
-39.9123015823215
20
-3.27094726165177
30
0
41
1
10
-39.8274378507374
20
-3.40360631629395
30
0
41
1
10
-39.7059807717948
20
-3.59532412262274
30
0
41
1
10
-39.6664759830087
20
-3.65800752399744
30
0
41
1
10
-39.589878798846
20
-3.78046002188995
30
0
41
1
10
-39.5527407465257
20
-3.84030975643199
30
0
41
1
10
-39.5179491924311
20
-3.8970174654398
30
0
0
SPLINE
5
D0
100
AcDbEntity
8
SK1
62
256
6
ByLayer
370
18
48
1
60
0
100
AcDbSpline
70
4
71
3
72
8
73
4
40
0
40
0
40
0
40
0
40
1
40
1
40
1
40
1
41
1
10
-39.35
20
-4.06898211344077
30
0
41
1
10
-39.4060167121386
20
-4.01169234866325
30
0
41
1
10
-39.4620011802799
20
-3.9543721255732
30
0
41
1
10
-39.5179491924311
20
-3.8970174654398
30
0
0
SPLINE
5
D1
100
AcDbEntity
8
SK1
62
256
6
ByLayer
370
18
48
1
60
0
100
AcDbSpline
70
4
71
3
72
8
73
4
40
0
40
0
40
0
40
0
40
1
40
1
40
1
40
1
41
1
10
-39.5179491924311
20
4.10037097964465
30
0
41
1
10
-39.4620006932984
20
4.15772613900327
30
0
41
1
10
-39.406016244097
20
4.21504634154658
30
0
41
1
10
-39.35
20
4.27233562764562
30
0
0
SPLINE
5
D2
100
AcDbEntity
8
SK1
62
256
6
ByLayer
370
18
48
1
60
0
100
AcDbSpline
70
4
71
3
72
12
73
8
40
0
40
0
40
0
40
0
40
0.25
40
0.25
40
0.5
40
0.5
40
1
40
1
40
1
40
1
41
1
10
-39.25
20
-4.20330363692324
30
0
41
1
10
-39.25
20
-4.198153474202
30
0
41
1
10
-39.254235624227
20
-4.18896262603627
30
0
41
1
10
-39.2670201311554
20
-4.16777932022876
30
0
41
1
10
-39.2754786511826
20
-4.15581442418446
30
0
41
1
10
-39.3037388067419
20
-4.11899237608952
30
0
41
1
10
-39.3264172660865
20
-4.09310079565427
30
0
41
1
10
-39.35
20
-4.06898211344077
30
0
0
SPLINE
5
D3
100
AcDbEntity
8
1
62
256
6
ByLayer
370
18
48
1
60
0
100
AcDbSpline
70
4
71
3
72
10
73
6
40
0
40
0
40
0
40
0
40
0.5
40
0.5
40
1
40
1
40
1
40
1
41
1
10
28.4130722713616
20
3.25364800943871
30
0
41
1
10
28.4149521196627
20
3.22409586119497
30
0
41
1
10
28.4169832020441
20
3.19179882055445
30
0
41
1
10
28.4209893289331
20
3.12161255135823
30
0
41
1
10
28.4228344018039
20
3.08356020745111
30
0
41
1
10
28.4246232290257
20
3.04307652869454
30
0
0
SPLINE
5
D4
100
AcDbEntity
8
1
62
256
6
ByLayer
370
18
48
1
60
0
100
AcDbSpline
70
4
71
3
72
36
73
32
40
0
40
0
40
0
40
0
40
0.062499999999999
40
0.062499999999999
40
0.124999999999998
40
0.124999999999998
40
0.187499999999997
40
0.187499999999997
40
0.249999999999996
40
0.249999999999996
40
0.312499999999995
40
0.312499999999995
40
0.374999999999994
40
0.374999999999994
40
0.437499999999993
40
0.437499999999993
40
0.468749999999993
40
0.468749999999993
40
0.499999999999994
40
0.499999999999994
40
0.624999999999995
40
0.624999999999995
40
0.749999999999997
40
0.749999999999997
40
0.812499999999998
40
0.812499999999998
40
0.874999999999998
40
0.874999999999998
40
0.937499999999999
40
0.937499999999999
40
1
40
1
40
1
40
1
41
1
10
47.6361759876172
20
-3.4550619206799
30
0
41
1
10
47.2233242111733
20
-3.45374840659846
30
0
41
1
10
46.8093862641069
20
-3.4358714847892
30
0
41
1
10
45.981642989728
20
-3.36735663402143
30
0
41
1
10
45.5688178821759
20
-3.31686129753362
30
0
41
1
10
44.7431113118223
20
-3.18484100193976
30
0
41
1
10
44.3302316798159
20
-3.10331609866097
30
0
41
1
10
43.5022753298909
20
-2.91091255319489
30
0
41
1
10
43.088524331387
20
-2.8003086826277
30
2E-16
41
1
10
42.2626498776485
20
-2.55396238074931
30
2E-16
41
1
10
41.8500147201447
20
-2.41810141298518
30
1E-16
41
1
10
41.0232073365354
20
-2.12408371282226
30
1E-16
41
1
10
40.6086104844087
20
-1.96571799796473
30
1E-16
41
1
10
39.7821814746956
20
-1.6327590554292
30
1E-16
41
1
10
39.3695977357117
20
-1.4579192441868
30
1E-16
41
1
10
38.7500545449926
20
-1.18620800526625
30
1E-16
41
1
10
38.5434289110877
20
-1.09406337675708
30
1E-16
41
1
10
38.1296854342842
20
-0.907155700850126
30
1E-16
41
1
10
37.9224261026093
20
-0.812325872825511
30
0
41
1
10
36.8881643772425
20
-0.334820905988977
30
0
41
1
10
36.0645807431599
20
0.0591059158967084
30
0
41
1
10
34.4079523969755
20
0.834354908806318
30
-1E-16
41
1
10
33.5838588649884
20
1.21135397089316
30
-1E-16
41
1
10
32.3433344454358
20
1.73376195826359
30
-1E-16
41
1
10
31.9288410980122
20
1.90080003868709
30
-1E-16
41
1
10
31.1016476467336
20
2.2144011911069
30
-1E-16
41
1
10
30.6882299109693
20
2.36128015334185
30
-1E-16
41
1
10
29.8596919789657
20
2.63160411900384
30
-2E-16
41
1
10
29.4462982846145
20
2.75447994603149
30
-2E-16
41
1
10
28.6190981678731
20
2.97288745266107
30
0
41
1
10
28.2049316194198
20
3.06847910841523
30
0
41
1
10
27.7906654310988
20
3.14892592666078
30
0
0
SPLINE
5
D5
100
AcDbEntity
8
1
62
256
6
ByLayer
370
18
48
1
60
0
100
AcDbSpline
70
4
71
3
72
8
73
4
40
0
40
0
40
0
40
0
40
1
40
1
40
1
40
1
41
1
10
47.2658947203672
20
-0.0495001541253259
30
0
41
1
10
47.2753195449651
20
-0.219758235818915
30
0
41
1
10
47.2908817913161
20
-0.39175764715111
30
0
41
1
10
47.3097658506954
20
-0.559165929413155
30
0
0
SPLINE
5
D6
100
AcDbEntity
8
1
62
256
6
ByLayer
370
18
48
1
60
0
100
AcDbSpline
70
4
71
3
72
24
73
20
40
0
40
0
40
0
40
0
40
0.0625000000000001
40
0.0625000000000001
40
0.125
40
0.125
40
0.1875
40
0.1875
40
0.25
40
0.25
40
0.375
40
0.375
40
0.5
40
0.5
40
0.625
40
0.625
40
0.75
40
0.75
40
1
40
1
40
1
40
1
41
1
10
47.9616445749924
20
1.13442311042729
30
0
41
1
10
47.9312287524048
20
1.12693964446126
30
0
41
1
10
47.9018112926035
20
1.11725457715903
30
0
41
1
10
47.8450957191741
20
1.09329959340746
30
0
41
1
10
47.8174884601251
20
1.07881424242316
30
0
41
1
10
47.7664201131634
20
1.04614733983726
30
0
41
1
10
47.7429380062099
20
1.02805431575771
30
0
41
1
10
47.6998749899308
20
0.988712309765219
30
0
41
1
10
47.6803133457485
20
0.967388541685352
30
0
41
1
10
47.6294921412408
20
0.901946193243106
30
0
41
1
10
47.6048971544023
20
0.85501714741693
30
0
41
1
10
47.5736965412891
20
0.762842247841064
30
0
41
1
10
47.566743331881
20
0.716791938377753
30
0
41
1
10
47.5678641268225
20
0.629268106265243
30
0
41
1
10
47.5759739131377
20
0.586889936245427
30
0
41
1
10
47.6043602001391
20
0.507842086433072
30
0
41
1
10
47.6246029957202
20
0.470679688020113
30
0
41
1
10
47.7017304600534
20
0.364087482828808
30
0
41
1
10
47.7722824873587
20
0.302763566200753
30
0
41
1
10
47.8565288048335
20
0.246304859646585
30
0
0
SPLINE
5
D7
100
AcDbEntity
8
1
62
256
6
ByLayer
370
18
48
1
60
0
100
AcDbSpline
70
4
71
3
72
8
73
4
40
0
40
0
40
0
40
0
40
1
40
1
40
1
40
1
41
1
10
47.5548378119299
20
-3.45607738926447
30
0
41
1
10
47.6147480281845
20
-3.42131247338841
30
0
41
1
10
47.6747813920111
20
-3.38596494932017
30
0
41
1
10
47.7349573206498
20
-3.35004906410899
30
0
0
SPLINE
5
D8
100
AcDbEntity
8
1
62
256
6
ByLayer
370
18
48
1
60
0
100
AcDbSpline
70
4
71
3
72
26
73
22
40
0
40
0
40
0
40
0
40
0.125000000000003
40
0.125000000000003
40
0.250000000000007
40
0.250000000000007
40
0.312500000000001
40
0.312500000000001
40
0.374999999999996
40
0.374999999999996
40
0.437499999999991
40
0.437499999999991
40
0.499999999999986
40
0.499999999999986
40
0.624999999999989
40
0.624999999999989
40
0.749999999999993
40
0.749999999999993
40
0.874999999999996
40
0.874999999999996
40
1
40
1
40
1
40
1
41
1
10
48.9511922688128
20
0.0421341614922142
30
0
41
1
10
48.9342500366789
20
-0.0137267463660464
30
0
41
1
10
48.9147714743119
20
-0.0683105501956334
30
0
41
1
10
48.8705507114915
20
-0.174740354578461
30
0
41
1
10
48.8457373479098
20
-0.226458937862048
30
0
41
1
10
48.8067161403026
20
-0.296578839224878
30
0
41
1
10
48.7933193942537
20
-0.318918843851861
30
0
41
1
10
48.7657054340515
20
-0.36134631603025
30
0
41
1
10
48.7515207217555
20
-0.381337580980414
30
0
41
1
10
48.7234737922074
20
-0.417311525805616
30
0
41
1
10
48.7094696776756
20
-0.433521454333373
30
0
41
1
10
48.6814815113265
20
-0.462313491600696
30
0
41
1
10
48.6673699100989
20
-0.474974474619501
30
0
41
1
10
48.6263960926976
20
-0.506115720659949
30
0
41
1
10
48.6003218125045
20
-0.518301787479459
30
0
41
1
10
48.5519487159029
20
-0.525825000843184
30
0
41
1
10
48.5298515703562
20
-0.521209873259863
30
0
41
1
10
48.4896805619078
20
-0.497768666480027
30
0
41
1
10
48.4719932416484
20
-0.47931998644566
30
0
41
1
10
48.4399734500548
20
-0.43135577832922
30
0
41
1
10
48.4256893404189
20
-0.40172355547196
30
0
41
1
10
48.4130587471897
20
-0.368007628355343
30
0
0
SPLINE
5
D9
100
AcDbEntity
8
1
62
256
6
ByLayer
370
18
48
1
60
0
100
AcDbSpline
70
4
71
3
72
8
73
4
40
0
40
0
40
0
40
0
40
1
40
1
40
1
40
1
41
1
10
47.7791327956465
20
3.35944258406221
30
0
41
1
10
47.7314528719683
20
3.39141719996326
30
0
41
1
10
47.6838014122955
20
3.42329142140642
30
0
41
1
10
47.6361759876171
20
3.45506192067865
30
0
0
SPLINE
5
DA
100
AcDbEntity
8
1
62
256
6
ByLayer
370
18
48
1
60
0
100
AcDbSpline
70
4
71
3
72
8
73
4
40
0
40
0
40
0
40
0
40
1
40
1
40
1
40
1
41
1
10
26.7727945137686
20
-1.74348538341417
30
1E-16
41
1
10
26.826691245825
20
-1.74163903273896
30
1E-16
41
1
10
26.8807292891733
20
-1.73855047005443
30
1E-16
41
1
10
26.9349289948415
20
-1.73422346227002
30
1E-16
0
SPLINE
5
DB
100
AcDbEntity
8
1
62
256
6
ByLayer
370
18
48
1
60
0
100
AcDbSpline
70
4
71
3
72
8
73
4
40
0
40
0
40
0
40
0
40
1
40
1
40
1
40
1
41
1
10
47.8565288048335
20
0.246304859646585
30
0
41
1
10
47.9981995212191
20
0.151362485386443
30
0
41
1
10
48.1390041667375
20
0.058455765993898
30
0
41
1
10
48.2788008550166
20
-0.0320818019384888
30
0
0
SPLINE
5
DC
100
AcDbEntity
8
1
62
256
6
ByLayer
370
18
48
1
60
0
100
AcDbSpline
70
4
71
3
72
12
73
8
40
0
40
0
40
0
40
0
40
0.249999999999999
40
0.249999999999999
40
0.499999999999998
40
0.499999999999998
40
1
40
1
40
1
40
1
41
1
10
26.6278001574683
20
-1.89065917820744
30
1E-16
41
1
10
26.6278001574683
20
-1.87190481156699
30
1E-16
41
1
10
26.6352326610436
20
-1.8504693322067
30
1E-16
41
1
10
26.6564454974887
20
-1.81379688639257
30
1E-16
41
1
10
26.6699794504037
20
-1.79799144223955
30
1E-16
41
1
10
26.7126414575181
20
-1.75946695195259
30
1E-16
41
1
10
26.7442354356453
20
-1.74446373722458
30
1E-16
41
1
10
26.7727945137686
20
-1.74348538341417
30
1E-16
0
SPLINE
5
DD
100
AcDbEntity
8
1
62
256
6
ByLayer
370
18
48
1
60
0
100
AcDbSpline
70
2053
71
3
72
50
73
46
40
0
40
0
40
0
40
0
40
0.0625000000000027
40
0.0625000000000027
40
0.125000000000005
40
0.125000000000005
40
0.187500000000008
40
0.187500000000008
40
0.250000000000011
40
0.250000000000011
40
0.281250000000012
40
0.281250000000012
40
0.312500000000012
40
0.312500000000012
40
0.343750000000013
40
0.343750000000013
40
0.375000000000014
40
0.375000000000014
40
0.406250000000015
40
0.406250000000015
40
0.437500000000015
40
0.437500000000015
40
0.50000000000002
40
0.50000000000002
40
0.625000000000025
40
0.625000000000025
40
0.656250000000023
40
0.656250000000023
40
0.687500000000021
40
0.687500000000021
40
0.718750000000019
40
0.718750000000019
40
0.750000000000017
40
0.750000000000017
40
0.812500000000014
40
0.812500000000014
40
0.843750000000013
40
0.843750000000013
40
0.875000000000011
40
0.875000000000011
40
0.906250000000009
40
0.906250000000009
40
0.937500000000008
40
0.937500000000008
40
1
40
1
40
1
40
1
41
1
10
48.0840986670348
20
-1.81170276546116
30
0
41
1
10
48.0567969605749
20
-1.8593285951759
30
0
41
1
10
48.0311148195064
20
-1.89601457373948
30
-1E-16
41
1
10
47.9823899689809
20
-1.94809414348234
30
-1E-16
41
1
10
47.9605723074492
20
-1.96210899203481
30
-1E-16
41
1
10
47.9208885265327
20
-1.9651434050551
30
-1E-16
41
1
10
47.9039795066534
20
-1.95409186558339
30
-1E-16
41
1
10
47.8748836339747
20
-1.90527721227482
30
-1E-16
41
1
10
47.8634166788936
20
-1.86867331627411
30
-1E-16
41
1
10
47.8508840175616
20
-1.79514255715594
30
1E-16
41
1
10
47.8476230453674
20
-1.76818242399821
30
1E-16
41
1
10
47.842992733888
20
-1.70928213182953
30
1E-16
41
1
10
47.841623785241
20
-1.67686111266028
30
1E-16
41
1
10
47.8412169144044
20
-1.60900822492789
30
1E-16
41
1
10
47.8421429232877
20
-1.5737304706272
30
1E-16
41
1
10
47.8466131243826
20
-1.50036935764516
30
1E-16
41
1
10
47.8502141692467
20
-1.46220835968822
30
1E-16
41
1
10
47.8600871209048
20
-1.38732722523213
30
1E-16
41
1
10
47.8664611709366
20
-1.34969097762047
30
1E-16
41
1
10
47.8820268217683
20
-1.27661038986429
30
1E-16
41
1
10
47.891050945065
20
-1.24180114964645
30
1E-16
41
1
10
47.9219881206294
20
-1.14234202015996
30
1E-16
41
1
10
47.9474020686681
20
-1.08470205522218
30
1E-16
41
1
10
48.0301748520626
20
-0.94791659102836
30
1E-16
41
1
10
48.0938585475726
20
-0.903652094211111
30
1E-16
41
1
10
48.1623274794603
20
-0.904175858121619
30
1E-16
41
1
10
48.1754948596279
20
-0.907036555546341
30
1E-16
41
1
10
48.2005377855396
20
-0.918545267490799
30
1E-16
41
1
10
48.2123402288957
20
-0.927230322799375
30
1E-16
41
1
10
48.2335071815592
20
-0.950116856905879
30
1E-16
41
1
10
48.2429900559567
20
-0.96435428595953
30
1E-16
41
1
10
48.2593629354288
20
-0.999057071195381
30
0
41
1
10
48.2662779302252
20
-1.01979216188701
30
0
41
1
10
48.2814284780505
20
-1.0899806434997
30
0
41
1
10
48.2842676487846
20
-1.14946073357416
30
0
41
1
10
48.2757125952915
20
-1.2495975828501
30
0
41
1
10
48.2706837921026
20
-1.28553312900115
30
0
41
1
10
48.2570885087282
20
-1.35787485856269
30
0
41
1
10
48.2484975644339
20
-1.39473952155853
30
0
41
1
10
48.2283508928924
20
-1.46872768983246
30
0
41
1
10
48.2171005230829
20
-1.50480666876851
30
0
41
1
10
48.1927289810915
20
-1.57537977045323
30
0
41
1
10
48.1796391150189
20
-1.60969536770378
30
0
41
1
10
48.1396653412488
20
-1.7062992351662
30
0
41
1
10
48.1114003734946
20
-1.76407693574643
30
0
41
1
10
48.0840986670348
20
-1.81170276546116
30
0
0
SPLINE
5
DE
100
AcDbEntity
8
1
62
256
6
ByLayer
370
18
48
1
60
0
100
AcDbSpline
70
4
71
3
72
12
73
8
40
0
40
0
40
0
40
0
40
0.367145909473135
40
0.367145909473135
40
0.732142024238952
40
0.732142024238952
40
1
40
1
40
1
40
1
41
1
10
26.7222080300326
20
3.27880293243248
30
0
41
1
10
26.7237398080044
20
3.2772527187914
30
0
41
1
10
26.7255265359075
20
3.27589961861008
30
0
41
1
10
26.7292594920585
20
3.27376842146529
30
0
41
1
10
26.7312510273237
20
3.27295737294864
30
0
41
1
10
26.734693206907
20
3.27202331920259
30
0
41
1
10
26.7361689549564
20
3.2717682569176
30
0
41
1
10
26.737615273267
20
3.2716519459203
30
0
0
SPLINE
5
DF
100
AcDbEntity
8
1
62
256
6
ByLayer
370
18
48
1
60
0
100
AcDbSpline
70
4
71
3
72
8
73
4
40
0
40
0
40
0
40
0
40
1
40
1
40
1
40
1
41
1
10
48.5967785839329
20
-1.3487836701523
30
0
41
1
10
48.7348391087291
20
-0.96529029779424
30
0
41
1
10
48.8682009105703
20
-0.580117564500682
30
0
41
1
10
48.9967724190287
20
-0.193232742272897
30
0
0
SPLINE
5
E0
100
AcDbEntity
8
1
62
256
6
ByLayer
370
18
48
1
60
0
100
AcDbSpline
70
4
71
3
72
10
73
6
40
0
40
0
40
0
40
0
40
0.5
40
0.5
40
1
40
1
40
1
40
1
41
1
10
48.5967785839329
20
1.3487836701523
30
0
41
1
10
48.494492262032
20
1.30065389910374
30
0
41
1
10
48.3893477873829
20
1.26074085532582
30
0
41
1
10
48.1771976160645
20
1.19094425584475
30
0
41
1
10
48.0698414639134
20
1.16104371993208
30
0
41
1
10
47.9616445749924
20
1.13442311042729
30
0
0
SPLINE
5
E1
100
AcDbEntity
8
1
62
256
6
ByLayer
370
18
48
1
60
0
100
AcDbSpline
70
4
71
3
72
12
73
8
40
0
40
0
40
0
40
0
40
0.447970292337244
40
0.447970292337244
40
0.894204614692074
40
0.894204614692074
40
1
40
1
40
1
40
1
41
1
10
26.9349289948414
20
-1.73422346227002
30
1E-16
41
1
10
26.9366316594203
20
-1.73408753085127
30
1E-16
41
1
10
26.9386385035874
20
-1.73423875643036
30
1E-16
41
1
10
26.9428733366884
20
-1.73503831066353
30
1E-16
41
1
10
26.9451571764443
20
-1.73569440658537
30
1E-16
41
1
10
26.947985771501
20
-1.73675454063132
30
1E-16
41
1
10
26.9485348954685
20
-1.7369716336674
30
1E-16
41
1
10
26.9490836304627
20
-1.73719981240308
30
1E-16
0
SPLINE
5
E2
100
AcDbEntity
8
1
62
256
6
ByLayer
370
18
48
1
60
0
100
AcDbSpline
70
4
71
3
72
10
73
6
40
0
40
0
40
0
40
0
40
0.5
40
0.5
40
1
40
1
40
1
40
1
41
1
10
26.7222080309081
20
3.27880292581392
30
0
41
1
10
26.7193868224473
20
3.30003117701676
30
0
41
1
10
26.7165619054068
20
3.31869150087857
30
0
41
1
10
26.71088871041
20
3.35078498314135
30
0
41
1
10
26.7080290710388
20
3.36425389942335
30
0
41
1
10
26.7051831786866
20
3.37489634935022
30
0
0
SPLINE
5
E3
100
AcDbEntity
8
1
62
256
6
ByLayer
370
18
48
1
60
0
100
AcDbSpline
70
4
71
3
72
10
73
6
40
0
40
0
40
0
40
0
40
0.5
40
0.5
40
1
40
1
40
1
40
1
41
1
10
26.6278001574683
20
3.46008789088239
30
0
41
1
10
26.6278001574683
20
3.45855279514873
30
0
41
1
10
26.6353613255086
20
3.44934761177032
30
0
41
1
10
26.6570627858969
20
3.42515851471561
30
0
41
1
10
26.6708609377803
20
3.41046594707652
30
0
41
1
10
26.6854297698632
20
3.39536989921564
30
0
0
SPLINE
5
E4
100
AcDbEntity
8
1
62
256
6
ByLayer
370
18
48
1
60
0
100
AcDbSpline
70
4
71
3
72
8
73
4
40
0
40
0
40
0
40
0
40
1
40
1
40
1
40
1
41
1
10
47.3097658506954
20
-0.559165929413183
30
0
41
1
10
47.3340949813143
20
-0.561860473338356
30
0
41
1
10
47.3583663029554
20
-0.563964424821961
30
0
41
1
10
47.3826092978845
20
-0.565493410578739
30
0
0
SPLINE
5
E5
100
AcDbEntity
8
1
62
256
6
ByLayer
370
18
48
1
60
0
100
AcDbSpline
70
4
71
3
72
10
73
6
40
0
40
0
40
0
40
0
40
0.663672675979284
40
0.663672675979284
40
1
40
1
40
1
40
1
41
1
10
26.6864226485961
20
-3.30069204518091
30
0
41
1
10
26.6854591936413
20
-3.39187688860204
30
0
41
1
10
26.6845165133229
20
-3.48306546168973
30
0
41
1
10
26.6831276566358
20
-3.6204704770152
30
0
41
1
10
26.6826659188092
20
-3.6666844093142
30
0
41
1
10
26.682209554072
20
-3.71289916819845
30
0
0
SPLINE
5
E6
100
AcDbEntity
8
1
62
256
6
ByLayer
370
18
48
1
60
0
100
AcDbSpline
70
4
71
3
72
8
73
4
40
0
40
0
40
0
40
0
40
1
40
1
40
1
40
1
41
1
10
47.7791327956462
20
-3.35944258406243
30
0
41
1
10
47.7314528719681
20
-3.39141719996343
30
0
41
1
10
47.6838014122953
20
-3.4232914214065
30
0
41
1
10
47.636175987617
20
-3.45506192067867
30
0
0
SPLINE
5
E7
100
AcDbEntity
8
1
62
256
6
ByLayer
370
18
48
1
60
0
100
AcDbSpline
70
4
71
3
72
18
73
14
40
0
40
0
40
0
40
0
40
0.249999999999999
40
0.249999999999999
40
0.499999999999998
40
0.499999999999998
40
0.749999999999997
40
0.749999999999997
40
0.812499999999998
40
0.812499999999998
40
0.874999999999998
40
0.874999999999998
40
1
40
1
40
1
40
1
41
1
10
48.5967785839329
20
-1.3487836701523
30
0
41
1
10
48.5163351708073
20
-1.50060724158595
30
0
41
1
10
48.4393873529862
20
-1.65896171517514
30
0
41
1
10
48.2922629033113
20
-1.98656235842304
30
0
41
1
10
48.2228902660294
20
-2.15391051964775
30
0
41
1
10
48.0895038949811
20
-2.49467904002844
30
0
41
1
10
48.0254565525124
20
-2.66821500866951
30
0
41
1
10
47.9477767015169
20
-2.88432426793807
30
0
41
1
10
47.9323452303688
20
-2.9275531173663
30
0
41
1
10
47.9017646926528
20
-3.01400774932603
30
0
41
1
10
47.8864717406899
20
-3.05722423419468
30
0
41
1
10
47.8405587314435
20
-3.18683114626151
30
0
41
1
10
47.8099052620761
20
-3.27317908637414
30
0
41
1
10
47.7791327956461
20
-3.35944258406252
30
0
0
SPLINE
5
E8
100
AcDbEntity
8
1
62
256
6
ByLayer
370
18
48
1
60
0
100
AcDbSpline
70
4
71
3
72
8
73
4
40
0
40
0
40
0
40
0
40
1
40
1
40
1
40
1
41
1
10
28.4246232290258
20
3.04307652869454
30
0
41
1
10
28.2136060770866
20
3.08272270142507
30
0
41
1
10
28.0023381775156
20
3.11800354178138
30
0
41
1
10
27.7906654310988
20
3.14892592666146
30
0
0
SPLINE
5
E9
100
AcDbEntity
8
1
62
256
6
ByLayer
370
18
48
1
60
0
100
AcDbSpline
70
4
71
3
72
10
73
6
40
0
40
0
40
0
40
0
40
0.5
40
0.5
40
1
40
1
40
1
40
1
41
1
10
47.7791327956463
20
-3.35944258406232
30
0
41
1
10
47.7692100494406
20
-3.36520922819739
30
0
41
1
10
47.7606888091442
20
-3.36723333572192
30
0
41
1
10
47.7461739855641
20
-3.36394369898852
30
0
41
1
10
47.7401410074394
20
-3.35867431104228
30
0
41
1
10
47.7349573206499
20
-3.35004906410896
30
0
0
SPLINE
5
EA
100
AcDbEntity
8
1
62
256
6
ByLayer
370
18
48
1
60
0
100
AcDbSpline
70
4
71
3
72
14
73
10
40
0
40
0
40
0
40
0
40
0.223912986827125
40
0.223912986827125
40
0.44595344179716
40
0.44595344179716
40
0.706834540534885
40
0.706834540534885
40
1
40
1
40
1
40
1
41
1
10
47.3826092978843
20
-0.565493410578483
30
0
41
1
10
47.3831646163999
20
-0.565528434060667
30
0
41
1
10
47.3837286862176
20
-0.565838945639399
30
0
41
1
10
47.3847799298251
20
-0.566851476333056
30
0
41
1
10
47.3852816871479
20
-0.56756210505813
30
0
41
1
10
47.3862654824729
20
-0.569415000543756
30
0
41
1
10
47.3867429400313
20
-0.570636262880953
30
0
41
1
10
47.3875640178689
20
-0.573505745039739
30
0
41
1
10
47.3878998990429
20
-0.575245136469619
30
0
41
1
10
47.3880744400153
20
-0.577039431343081
30
0
0
SPLINE
5
EB
100
AcDbEntity
8
1
62
256
6
ByLayer
370
18
48
1
60
0
100
AcDbSpline
70
4
71
3
72
8
73
4
40
0
40
0
40
0
40
0
40
1
40
1
40
1
40
1
41
1
10
47.7499769563199
20
-3.30612673214938
30
0
41
1
10
47.744950742133
20
-3.32076726839278
30
0
41
1
10
47.7399440735566
20
-3.3354080143549
30
0
41
1
10
47.7349573206499
20
-3.35004906410901
30
0
0
SPLINE
5
EC
100
AcDbEntity
8
1
62
256
6
ByLayer
370
18
48
1
60
0
100
AcDbSpline
70
4
71
3
72
44
73
40
40
0
40
0
40
0
40
0
40
0.125
40
0.125
40
0.1875
40
0.1875
40
0.25
40
0.25
40
0.312500000000001
40
0.312500000000001
40
0.343750000000001
40
0.343750000000001
40
0.359375000000001
40
0.359375000000001
40
0.375000000000001
40
0.375000000000001
40
0.40625
40
0.40625
40
0.4375
40
0.4375
40
0.468749999999999
40
0.468749999999999
40
0.499999999999999
40
0.499999999999999
40
0.562499999999998
40
0.562499999999998
40
0.593749999999998
40
0.593749999999998
40
0.624999999999998
40
0.624999999999998
40
0.687499999999998
40
0.687499999999998
40
0.718749999999998
40
0.718749999999998
40
0.749999999999999
40
0.749999999999999
40
0.874999999999999
40
0.874999999999999
40
1
40
1
40
1
40
1
41
1
10
14.9332086299629
20
-1.86518254604673
30
1E-16
41
1
10
14.5285573086777
20
-2.07217460985231
30
1E-16
41
1
10
14.1362422093995
20
-2.29098607967236
30
1E-16
41
1
10
13.5759785588355
20
-2.64282674065302
30
2E-16
41
1
10
13.3934197796428
20
-2.76457165700509
30
2E-16
41
1
10
13.0483416428692
20
-3.01277324821387
30
2E-16
41
1
10
12.8849977386664
20
-3.13964518167484
30
2E-16
41
1
10
12.5835541773707
20
-3.39972434636874
30
2E-16
41
1
10
12.4489332438596
20
-3.53005214294583
30
2E-16
41
1
10
12.2802446260704
20
-3.72286310659803
30
-2E-16
41
1
10
12.2294948485455
20
-3.78676434841651
30
-2E-16
41
1
10
12.1630717004315
20
-3.88176480878505
30
-2E-16
41
1
10
12.1424678573829
20
-3.91343888581451
30
-2E-16
41
1
10
12.1053339934963
20
-3.97556790063743
30
-2E-16
41
1
10
12.0887949667567
20
-4.00600595121952
30
-2E-16
41
1
10
12.0453611469529
20
-4.09535259434725
30
-2E-16
41
1
10
12.0246379752977
20
-4.15229803268039
30
-2E-16
41
1
10
12.0004371596126
20
-4.26039074922551
30
-2E-16
41
1
10
11.9971522717294
20
-4.31165815920286
30
0
41
1
10
12.0079098328066
20
-4.40441683078561
30
0
41
1
10
12.0217564869026
20
-4.44644081108825
30
1E-16
41
1
10
12.0650733551928
20
-4.52218596100207
30
1E-16
41
1
10
12.0948282592786
20
-4.55601085515886
30
1E-16
41
1
10
12.2024846810137
20
-4.64310123538181
30
1E-16
41
1
10
12.2987750835986
20
-4.68338601241834
30
0
41
1
10
12.4705195627548
20
-4.72316405449533
30
0
41
1
10
12.532102162425
20
-4.73283757738258
30
0
41
1
10
12.660900234182
20
-4.74582382508629
30
0
41
1
10
12.7283720922113
20
-4.7491935040274
30
0
41
1
10
12.938643504271
20
-4.75122799084607
30
0
41
1
10
13.0892250131275
20
-4.74188314151263
30
0
41
1
10
13.3273734963109
20
-4.7151231054749
30
0
41
1
10
13.4089345441493
20
-4.70403320963044
30
0
41
1
10
13.5740349829649
20
-4.67825757923288
30
0
41
1
10
13.6577878687674
20
-4.66355228766335
30
0
41
1
10
14.0819151020656
20
-4.58199412317765
30
1E-16
41
1
10
14.4380017043441
20
-4.4915462531882
30
1E-16
41
1
10
15.1752564658522
20
-4.27632087601955
30
-2E-16
41
1
10
15.5583559556786
20
-4.15059681553515
30
-2E-16
41
1
10
15.9446348554332
20
-4.01489406381975
30
-2E-16
0
SPLINE
5
ED
100
AcDbEntity
8
1
62
256
6
ByLayer
370
18
48
1
60
0
100
AcDbSpline
70
4
71
3
72
20
73
16
40
0
40
0
40
0
40
0
40
0.249999999999999
40
0.249999999999999
40
0.374999999999999
40
0.374999999999999
40
0.437499999999999
40
0.437499999999999
40
0.5
40
0.5
40
0.75
40
0.75
40
0.875
40
0.875
40
1
40
1
40
1
40
1
41
1
10
47.2658947203672
20
-0.0495001541253544
30
0
41
1
10
47.3506501849812
20
-0.0446961687138128
30
0
41
1
10
47.4359457470798
20
-0.0486541229646207
30
0
41
1
10
47.5622508687189
20
-0.069021292233316
30
0
41
1
10
47.6040988206053
20
-0.0782394752163214
30
0
41
1
10
47.6661806155929
20
-0.0961758157168049
30
0
41
1
10
47.6867557737459
20
-0.102838866382285
30
0
41
1
10
47.7276325954693
20
-0.117660325307298
30
0
41
1
10
47.7478900583743
20
-0.126336360772541
30
0
41
1
10
47.8494696172746
20
-0.158984513072681
30
0
41
1
10
47.9308736686553
20
-0.164636543256847
30
0
41
1
10
48.0581775193286
20
-0.140066220194001
30
0
41
1
10
48.1017766229396
20
-0.126158557096943
30
0
41
1
10
48.1895142149457
20
-0.0873269179546128
30
0
41
1
10
48.2337912002795
20
-0.0624502386340851
30
0
41
1
10
48.2788008550164
20
-0.0320818019384603
30
0
0
SPLINE
5
EE
100
AcDbEntity
8
1
62
256
6
ByLayer
370
18
48
1
60
0
100
AcDbSpline
70
4
71
3
72
8
73
4
40
0
40
0
40
0
40
0
40
1
40
1
40
1
40
1
41
1
10
25.3694895658035
20
4.65353406935506
30
0
41
1
10
25.820212783828
20
4.19477877724805
30
0
41
1
10
26.2705559701309
20
3.7358908376128
30
0
41
1
10
26.7222080335347
20
3.27880292888537
30
0
0
SPLINE
5
EF
100
AcDbEntity
8
1
62
256
6
ByLayer
370
18
48
1
60
0
100
AcDbSpline
70
4
71
3
72
8
73
4
40
0
40
0
40
0
40
0
40
1
40
1
40
1
40
1
41
1
10
26.7206447547692
20
3.36814358553997
30
0
41
1
10
27.286944964429
20
3.36118536265778
30
0
41
1
10
27.8501542269141
20
3.32307906710639
30
0
41
1
10
28.4130722713609
20
3.25364800943865
30
0
0
SPLINE
5
F0
100
AcDbEntity
8
1
62
256
6
ByLayer
370
18
48
1
60
0
100
AcDbSpline
70
4
71
3
72
10
73
6
40
0
40
0
40
0
40
0
40
0.5
40
0.5
40
1
40
1
40
1
40
1
41
1
10
26.682209554072
20
-3.71289916819845
30
0
41
1
10
26.6682991444138
20
-3.72762730788068
30
0
41
1
10
26.6553489395536
20
-3.74184887125094
30
0
41
1
10
26.6348901998727
20
-3.76583605394868
30
0
41
1
10
26.6278001574683
20
-3.77524246957771
30
0
41
1
10
26.6278001574683
20
-3.77753328686788
30
0
0
SPLINE
5
F1
100
AcDbEntity
8
1
62
256
6
ByLayer
370
18
48
1
60
0
100
AcDbSpline
70
4
71
3
72
8
73
4
40
0
40
0
40
0
40
0
40
1
40
1
40
1
40
1
41
1
10
48.9967724190243
20
0.193232742286199
30
0
41
1
10
48.98165423361
20
0.142842659350464
30
0
41
1
10
48.9664607552828
20
0.0924764959082722
30
0
41
1
10
48.9511922688128
20
0.0421341614922426
30
0
0
SPLINE
5
F2
100
AcDbEntity
8
1
62
256
6
ByLayer
370
18
48
1
60
0
100
AcDbSpline
70
4
71
3
72
24
73
20
40
0
40
0
40
0
40
0
40
0.124999999999999
40
0.124999999999999
40
0.249999999999998
40
0.249999999999998
40
0.374999999999997
40
0.374999999999997
40
0.437499999999997
40
0.437499999999997
40
0.499999999999996
40
0.499999999999996
40
0.749999999999997
40
0.749999999999997
40
0.874999999999999
40
0.874999999999999
40
0.937499999999999
40
0.937499999999999
40
1
40
1
40
1
40
1
41
1
10
15.9459473746836
20
4.0144402705549
30
2E-16
41
1
10
16.3544337510802
20
3.87320425565738
30
2E-16
41
1
10
16.7628646498928
20
3.71288089187848
30
2E-16
41
1
10
17.5777786038091
20
3.35982498005268
30
-2E-16
41
1
10
17.9833051917754
20
3.16759744557447
30
-2E-16
41
1
10
18.7940204951743
20
2.75612128098683
30
-2E-16
41
1
10
19.1991992733622
20
2.53686476866363
30
-2E-16
41
1
10
19.8092056466434
20
2.19076915827767
30
-1E-16
41
1
10
20.013294329853
20
2.07230743314764
30
-1E-16
41
1
10
20.4207575445072
20
1.83126881306441
30
-1E-16
41
1
10
20.6237653879967
20
1.70892067461907
30
-1E-16
41
1
10
21.6362398215329
20
1.08968618463396
30
-1E-16
41
1
10
22.4380407952506
20
0.570380847348929
30
0
41
1
10
23.6477521684897
20
-0.214472348724456
30
0
41
1
10
24.0521508588569
20
-0.477086698156313
30
0
41
1
10
24.6630033321875
20
-0.868625017487602
30
1E-16
41
1
10
24.8672042781097
20
-0.998648184152046
30
1E-16
41
1
10
25.2733347281735
20
-1.25464265460835
30
1E-16
41
1
10
25.4757751639869
20
-1.38094299188592
30
1E-16
41
1
10
25.6778001574455
20
-1.50526502177121
30
1E-16
0
SPLINE
5
F3
100
AcDbEntity
8
1
62
256
6
ByLayer
370
18
48
1
60
0
100
AcDbSpline
70
4
71
3
72
8
73
4
40
0
40
0
40
0
40
0
40
1
40
1
40
1
40
1
41
1
10
26.9349289948415
20
-3.44443728736951
30
0
41
1
10
26.8503347804317
20
-3.53454645186144
30
0
41
1
10
26.7661203591765
20
-3.62405562664921
30
0
41
1
10
26.6822095540719
20
-3.71289916819845
30
0
0
SPLINE
5
F4
100
AcDbEntity
8
1
62
256
6
ByLayer
370
18
48
1
60
0
100
AcDbSpline
70
4
71
3
72
8
73
4
40
0
40
0
40
0
40
0
40
1
40
1
40
1
40
1
41
1
10
26.7376152732612
20
3.27165194592078
30
0
41
1
10
27.0892825191621
20
3.2433713330559
30
0
41
1
10
27.4405297739041
20
3.20235953108124
30
0
41
1
10
27.7906654310987
20
3.14892592666138
30
0
0
SPLINE
5
F5
100
AcDbEntity
8
1
62
256
6
ByLayer
370
18
48
1
60
0
100
AcDbSpline
70
4
71
3
72
10
73
6
40
0
40
0
40
0
40
0
40
0.474054999045411
40
0.474054999045411
40
1
40
1
40
1
40
1
41
1
10
26.9490836304627
20
-3.43753624521884
30
0
41
1
10
26.9466492424463
20
-3.43772933300969
30
0
41
1
10
26.9441801807304
20
-3.43837247910312
30
0
41
1
10
26.9393427605197
20
-3.44059445538821
30
0
41
1
10
26.9369234793193
20
-3.44231277647779
30
0
41
1
10
26.9349289948414
20
-3.44443728736954
30
0
0
SPLINE
5
F6
100
AcDbEntity
8
1
62
256
6
ByLayer
370
18
48
1
60
0
100
AcDbSpline
70
4
71
3
72
10
73
6
40
0
40
0
40
0
40
0
40
0.5
40
0.5
40
1
40
1
40
1
40
1
41
1
10
26.7206447547705
20
3.36814358554042
30
0
41
1
10
26.7234827927899
20
3.35738305522486
30
0
41
1
10
26.7263325156072
20
3.34382607235972
30
0
41
1
10
26.7319869589279
20
3.31160385744886
30
0
41
1
10
26.7348028497389
20
3.2929015900246
30
0
41
1
10
26.7376152732611
20
3.27165194592075
30
0
0
SPLINE
5
F7
100
AcDbEntity
8
1
62
256
6
ByLayer
370
18
48
1
60
0
100
AcDbSpline
70
4
71
3
72
26
73
22
40
0
40
0
40
0
40
0
40
0.125
40
0.125
40
0.25
40
0.25
40
0.312500000000001
40
0.312500000000001
40
0.375000000000001
40
0.375000000000001
40
0.500000000000001
40
0.500000000000001
40
0.562500000000001
40
0.562500000000001
40
0.625000000000001
40
0.625000000000001
40
0.750000000000001
40
0.750000000000001
40
0.875
40
0.875
40
1
40
1
40
1
40
1
41
1
10
47.3880744398205
20
-0.577039429340232
30
0
41
1
10
47.4049567500613
20
-0.750590900765758
30
0
41
1
10
47.4254722378979
20
-0.918999403204651
30
1E-16
41
1
10
47.4691446574544
20
-1.24655529284871
30
1E-16
41
1
10
47.4923232658898
20
-1.40569781022558
30
1E-16
41
1
10
47.5266045399039
20
-1.63752707134913
30
1E-16
41
1
10
47.5379323706871
20
-1.71347890710476
30
1E-16
41
1
10
47.5597376435895
20
-1.86046430515194
30
1E-16
41
1
10
47.5702648231517
20
-1.93183171926324
30
1E-16
41
1
10
47.6004124452281
20
-2.13967326967506
30
1E-16
41
1
10
47.6185627718294
20
-2.26993023842491
30
1E-16
41
1
10
47.6423156968329
20
-2.45252042839922
30
2E-16
41
1
10
47.6496894718348
20
-2.51146796093082
30
2E-16
41
1
10
47.6631166968155
20
-2.6231234835376
30
2E-16
41
1
10
47.6691935973496
20
-2.67599009412291
30
-1E-16
41
1
10
47.6858075863726
20
-2.82587714063416
30
0
41
1
10
47.6946891075618
20
-2.91423718831007
30
0
41
1
10
47.7104895044502
20
-3.06743555644846
30
0
41
1
10
47.717431958591
20
-3.1322741210017
30
0
41
1
10
47.7326947765097
20
-3.23381549524325
30
0
41
1
10
47.741068000244
20
-3.27119246582146
30
0
41
1
10
47.7525711091411
20
-3.294923388043
30
0
0
SPLINE
5
F8
100
AcDbEntity
8
1
62
256
6
ByLayer
370
18
48
1
60
0
100
AcDbSpline
70
4
71
3
72
8
73
4
40
0
40
0
40
0
40
0
40
1
40
1
40
1
40
1
41
1
10
26.934928994841
20
-1.28981614989758
30
1E-16
41
1
10
26.5180079389161
20
-1.35406433725885
30
1E-16
41
1
10
26.0981473009863
20
-1.42866041426606
30
1E-16
41
1
10
25.6778001574556
20
-1.50526502177806
30
1E-16
0
SPLINE
5
F9
100
AcDbEntity
8
1
62
256
6
ByLayer
370
18
48
1
60
0
100
AcDbSpline
70
4
71
3
72
18
73
14
40
0
40
0
40
0
40
0
40
0.249999999999995
40
0.249999999999995
40
0.499999999999991
40
0.499999999999991
40
0.749999999999986
40
0.749999999999986
40
0.812499999999988
40
0.812499999999988
40
0.87499999999999
40
0.87499999999999
40
1
40
1
40
1
40
1
41
1
10
48.5967785839329
20
1.3487836701523
30
0
41
1
10
48.5163351708073
20
1.50060724158587
30
0
41
1
10
48.4393873529864
20
1.65896171517474
30
0
41
1
10
48.2922629033113
20
1.98656235842282
30
0
41
1
10
48.2228902660295
20
2.15391051964755
30
0
41
1
10
48.0895038949812
20
2.49467904002813
30
0
41
1
10
48.0254565525125
20
2.66821500866931
30
0
41
1
10
47.9477767015169
20
2.88432426793798
30
0
41
1
10
47.9323452303688
20
2.92755311736622
30
0
41
1
10
47.9017646926528
20
3.014007749326
30
0
41
1
10
47.8864717406899
20
3.05722423419465
30
0
41
1
10
47.8405587314435
20
3.18683114626154
30
0
41
1
10
47.8099052620761
20
3.2731790863742
30
0
41
1
10
47.7791327956461
20
3.35944258406261
30
0
0
SPLINE
5
FA
100
AcDbEntity
8
1
62
256
6
ByLayer
370
18
48
1
60
0
100
AcDbSpline
70
4
71
3
72
8
73
4
40
0
40
0
40
0
40
0
40
1
40
1
40
1
40
1
41
1
10
48.4130587471898
20
-0.368007628355059
30
0
41
1
10
48.3720295536004
20
-0.258484878662415
30
0
41
1
10
48.3272752636681
20
-0.146508510315698
30
0
41
1
10
48.2788008550165
20
-0.0320818019384319
30
0
0
SPLINE
5
FB
100
AcDbEntity
8
1
62
256
6
ByLayer
370
18
48
1
60
0
100
AcDbSpline
70
4
71
3
72
8
73
4
40
0
40
0
40
0
40
0
40
1
40
1
40
1
40
1
41
1
10
48.5967785839329
20
1.3487836701523
30
0
41
1
10
48.7348391087276
20
0.965290297798646
30
0
41
1
10
48.8682009105672
20
0.580117564509521
30
0
41
1
10
48.9967724190242
20
0.193232742286199
30
0
0
SPLINE
5
FC
100
AcDbEntity
8
1
62
256
6
ByLayer
370
18
48
1
60
0
100
AcDbSpline
70
4
71
3
72
16
73
12
40
0
40
0
40
0
40
0
40
0.224727658730214
40
0.224727658730214
40
0.451608721721709
40
0.451608721721709
40
0.64891452819428
40
0.64891452819428
40
0.824408659863168
40
0.824408659863168
40
1
40
1
40
1
40
1
41
1
10
47.752571108368
20
-3.29492338644818
30
0
41
1
10
47.7526502354835
20
-3.29508662575253
30
0
41
1
10
47.7526736910023
20
-3.29542775223672
30
0
41
1
10
47.752584706029
20
-3.29647534358634
30
0
41
1
10
47.752468399309
20
-3.29720513089407
30
0
41
1
10
47.7521195736348
20
-3.29885685880362
30
0
41
1
10
47.7518983355404
20
-3.29976722904172
30
0
41
1
10
47.7514074308741
20
-3.30158812054191
30
0
41
1
10
47.7511395098093
20
-3.30251110543406
30
0
41
1
10
47.7505771694458
20
-3.30433372939717
30
0
41
1
10
47.750276079907
20
-3.30525543427885
30
0
41
1
10
47.7499769563199
20
-3.30612673214941
30
0
0
SPLINE
5
FD
100
AcDbEntity
8
1
62
256
6
ByLayer
370
18
48
1
60
0
100
AcDbSpline
70
4
71
3
72
8
73
4
40
0
40
0
40
0
40
0
40
1
40
1
40
1
40
1
41
1
10
26.6854297698633
20
3.39536989921564
30
0
41
1
10
26.692012314894
20
3.38854914555023
30
0
41
1
10
26.6985967954246
20
3.38172459491341
30
0
41
1
10
26.7051831786865
20
3.37489634935022
30
0
0
SPLINE
5
FE
100
AcDbEntity
8
1
62
256
6
ByLayer
370
18
48
1
60
0
100
AcDbSpline
70
4
71
3
72
12
73
8
40
0
40
0
40
0
40
0
40
0.448302614245386
40
0.448302614245386
40
0.899685038180622
40
0.899685038180622
40
1
40
1
40
1
40
1
41
1
10
26.9490836304627
20
-1.29258505823589
30
1E-16
41
1
10
26.9468484729345
20
-1.29159549786709
30
1E-16
41
1
10
26.9445438763486
20
-1.29080419071289
30
1E-16
41
1
10
26.9401561673944
20
-1.28979584660436
30
1E-16
41
1
10
26.9380077481101
20
-1.28957028143444
30
1E-16
41
1
10
26.9357290387292
20
-1.28971242285516
30
1E-16
41
1
10
26.9353213056266
20
-1.28975569419299
30
1E-16
41
1
10
26.9349289948414
20
-1.28981614989911
30
1E-16
0
SPLINE
5
FF
100
AcDbEntity
8
1
62
256
6
ByLayer
370
18
48
1
60
0
100
AcDbSpline
70
4
71
3
72
30
73
26
40
0
40
0
40
0
40
0
40
0.124999999999998
40
0.124999999999998
40
0.187499999999997
40
0.187499999999997
40
0.249999999999996
40
0.249999999999996
40
0.374999999999995
40
0.374999999999995
40
0.437499999999995
40
0.437499999999995
40
0.499999999999995
40
0.499999999999995
40
0.624999999999996
40
0.624999999999996
40
0.687499999999996
40
0.687499999999996
40
0.749999999999996
40
0.749999999999996
40
0.874999999999998
40
0.874999999999998
40
0.937499999999999
40
0.937499999999999
40
1
40
1
40
1
40
1
41
1
10
47.5689754935913
20
-3.49945383885327
30
0
41
1
10
46.7712128560503
20
-3.49286068157807
30
0
41
1
10
45.9730036854087
20
-3.42334219240885
30
0
41
1
10
44.7762648269531
20
-3.23032350201495
30
0
41
1
10
44.3769752814061
20
-3.15120510452579
30
0
41
1
10
43.5798794886081
20
-2.96604429033107
30
0
41
1
10
43.1819294011785
20
-2.86001838980042
30
2E-16
41
1
10
41.9869264148862
20
-2.50512605708988
30
2E-16
41
1
10
41.1874012314694
20
-2.21849870527154
30
1E-16
41
1
10
39.9915956568012
20
-1.73871692375854
30
1E-16
41
1
10
39.5935958792703
20
-1.57061960843191
30
1E-16
41
1
10
38.7968377353419
20
-1.22175665907764
30
1E-16
41
1
10
38.3975945776528
20
-1.04075903173083
30
1E-16
41
1
10
37.2005617115899
20
-0.486702707408114
30
0
41
1
10
36.4021050612369
20
-0.101961970331956
30
0
41
1
10
35.2049774185892
20
0.467258045123117
30
0
41
1
10
34.8055632939892
20
0.655887335665284
30
0
41
1
10
34.0081915982774
20
1.02488905737999
30
-1E-16
41
1
10
33.6101100438347
20
1.20532795598442
30
-1E-16
41
1
10
32.4147375544359
20
1.72862355616252
30
-1E-16
41
1
10
31.6155022325381
20
2.05347685124229
30
-1E-16
41
1
10
30.4181801470956
20
2.4769445003312
30
-2E-16
41
1
10
30.0186983881797
20
2.6077435738531
30
-2E-16
41
1
10
29.2212138982249
20
2.84449376874264
30
-2E-16
41
1
10
28.8230959279004
20
2.95051912001784
30
0
41
1
10
28.4246232290258
20
3.04307652869457
30
0
0
SPLINE
5
100
100
AcDbEntity
8
1
62
256
6
ByLayer
370
18
48
1
60
0
100
AcDbSpline
70
4
71
3
72
8
73
4
40
0
40
0
40
0
40
0
40
1
40
1
40
1
40
1
41
1
10
47.5548378119282
20
-3.4560773892666
30
0
41
1
10
47.5601800482514
20
-3.48211488390868
30
0
41
1
10
47.5648301502033
20
-3.49679085889164
30
0
41
1
10
47.5689754935912
20
-3.49945383885327
30
0
0
SPLINE
5
101
100
AcDbEntity
8
1
62
256
6
ByLayer
370
18
48
1
60
0
100
AcDbSpline
70
4
71
3
72
8
73
4
40
0
40
0
40
0
40
0
40
1
40
1
40
1
40
1
41
1
10
48.9967724190243
20
0.193232742286199
30
0
41
1
10
49.0010765677976
20
0.0643897362273549
30
0
41
1
10
49.0010751530879
20
-0.0644320849994813
30
0
41
1
10
48.9967724190246
20
-0.193232742276848
30
0
0
SPLINE
5
102
100
AcDbEntity
8
1
62
256
6
ByLayer
370
18
48
1
60
0
100
AcDbSpline
70
4
71
3
72
34
73
30
40
0
40
0
40
0
40
0
40
0.0625
40
0.0625
40
0.125
40
0.125
40
0.1875
40
0.1875
40
0.25
40
0.25
40
0.3125
40
0.3125
40
0.375
40
0.375
40
0.4375
40
0.4375
40
0.5
40
0.5
40
0.625
40
0.625
40
0.75
40
0.75
40
0.8125
40
0.8125
40
0.875
40
0.875
40
0.9375
40
0.9375
40
1
40
1
40
1
40
1
41
1
10
47.5548378119306
20
-3.45607738926577
30
0
41
1
10
47.1556357117239
20
-3.42569906170516
30
0
41
1
10
46.757133562605
20
-3.37995689737136
30
0
41
1
10
45.9596199124866
20
-3.25891902060889
30
0
41
1
10
45.5600305865566
20
-3.18347222295643
30
0
41
1
10
44.7619885060744
20
-3.005118212691
30
0
41
1
10
44.3635163114648
20
-2.90227838777568
30
0
41
1
10
43.5656516072967
20
-2.67159171908821
30
2E-16
41
1
10
43.1658759624922
20
-2.54367779968453
30
2E-16
41
1
10
42.3682199687889
20
-2.26666150858918
30
1E-16
41
1
10
41.9697340189112
20
-2.11754539381559
30
1E-16
41
1
10
41.1713204053234
20
-1.80157128156713
30
1E-16
41
1
10
40.7719337120265
20
-1.63480856322184
30
1E-16
41
1
10
39.9751960208282
20
-1.28921283372773
30
1E-16
41
1
10
39.5773271538319
20
-1.10994306913455
30
1E-16
41
1
10
38.7803138950822
20
-0.742945325532446
30
0
41
1
10
38.3804814584685
20
-0.55471803891669
30
0
41
1
10
37.1839378110374
20
0.013140720719349
30
0
41
1
10
36.3892930135178
20
0.396933486186669
30
0
41
1
10
34.7909537578551
20
1.14042259725991
30
-1E-16
41
1
10
33.9962684163024
20
1.49595638199298
30
-1E-16
41
1
10
32.7994501143207
20
1.98260690572391
30
-1E-16
41
1
10
32.3995696290083
20
2.13694637911331
30
-1E-16
41
1
10
31.6023979075148
20
2.4241903747066
30
-1E-16
41
1
10
31.2044137063958
20
2.55755130519512
30
-2E-16
41
1
10
30.4074453950903
20
2.80050700898758
30
-2E-16
41
1
10
30.0078164967096
20
2.91040902492486
30
0
41
1
10
29.209493351764
20
3.10292631208208
30
0
41
1
10
28.8112790404973
20
3.18550759033678
30
0
41
1
10
28.4130722713609
20
3.25364800943868
30
0
0
SPLINE
5
103
100
AcDbEntity
8
1
62
256
6
ByLayer
370
18
48
1
60
0
100
AcDbSpline
70
4
71
3
72
8
73
4
40
0
40
0
40
0
40
0
40
1
40
1
40
1
40
1
41
1
10
47.5689754935916
20
-3.4994538388535
30
0
41
1
10
47.5915099638228
20
-3.48460109722433
30
0
41
1
10
47.6139139183283
20
-3.46980528984645
30
0
41
1
10
47.6361759876174
20
-3.45506192067882
30
0
0
SPLINE
5
104
100
AcDbEntity
8
1
62
256
6
ByLayer
370
18
48
1
60
0
100
AcDbSpline
70
4
71
3
72
12
73
8
40
0
40
0
40
0
40
0
40
0.500000000000005
40
0.500000000000005
40
0.750000000000002
40
0.750000000000002
40
1
40
1
40
1
40
1
41
1
10
16.6716544200568
20
-2.62147462352408
30
2E-16
41
1
10
16.3993995172967
20
-2.47869447097341
30
2E-16
41
1
10
16.1189063871099
20
-2.3413134542258
30
1E-16
41
1
10
15.6836479772042
20
-2.14980224267748
30
1E-16
41
1
10
15.5358690734075
20
-2.08827505203257
30
1E-16
41
1
10
15.2364750646521
20
-1.97151810207413
30
1E-16
41
1
10
15.0854964028541
20
-1.91652337607539
30
1E-16
41
1
10
14.9332086299629
20
-1.86518254604673
30
1E-16
0
SPLINE
5
105
100
AcDbEntity
8
1
62
256
6
ByLayer
370
18
48
1
60
0
100
AcDbSpline
70
4
71
3
72
36
73
32
40
0
40
0
40
0
40
0
40
0.0416137221618607
40
0.0416137221618607
40
0.149074047267566
40
0.149074047267566
40
0.256534372373272
40
0.256534372373272
40
0.310264534926125
40
0.310264534926125
40
0.363994697478978
40
0.363994697478978
40
0.41772486003183
40
0.41772486003183
40
0.471455022584683
40
0.471455022584683
40
0.525185185137536
40
0.525185185137536
40
0.578915347690388
40
0.578915347690388
40
0.686375672796091
40
0.686375672796091
40
0.793835997901794
40
0.793835997901794
40
0.847566160454646
40
0.847566160454646
40
0.901296323007499
40
0.901296323007499
40
0.955026485560352
40
0.955026485560352
40
1
40
1
40
1
40
1
41
1
10
46.598751401714
20
-0.22149217678637
30
0
41
1
10
46.4328403875318
20
-0.146422720406662
30
0
41
1
10
46.267151287939
20
-0.0712789412447989
30
0
41
1
10
45.6743222175063
20
0.197952589546986
30
0
41
1
10
45.2479935929951
20
0.391482735637254
30
0
41
1
10
44.3951073043818
20
0.772465849876227
30
0
41
1
10
43.9684783782635
20
0.959827528800986
30
-1E-16
41
1
10
43.3268840712437
20
1.23292614893163
30
-1E-16
41
1
10
43.1127546961862
20
1.32264907742177
30
-1E-16
41
1
10
42.683779672597
20
1.49890766928715
30
-1E-16
41
1
10
42.4689500208817
20
1.5854289983906
30
-1E-16
41
1
10
42.0379049196983
20
1.7543597884503
30
-1E-16
41
1
10
41.8213798388277
20
1.83695973748465
30
-1E-16
41
1
10
41.3891777967187
20
1.99692173640733
30
-1E-16
41
1
10
41.1734814951568
20
2.07428487482846
30
-1E-16
41
1
10
40.7428678447294
20
2.22319054084801
30
-1E-16
41
1
10
40.5279548085644
20
2.29471824856779
30
-1E-16
41
1
10
40.09882534703
20
2.43117432097722
30
-1E-16
41
1
10
39.8846473755403
20
2.49599157139238
30
-2E-16
41
1
10
39.2415489368815
20
2.68132238846388
30
1E-16
41
1
10
38.8126301035595
20
2.79195287552585
30
1E-16
41
1
10
37.9527906701668
20
2.98449940000654
30
0
41
1
10
37.521421903833
20
3.0668185236913
30
0
41
1
10
36.8729730096948
20
3.16285328980288
30
0
41
1
10
36.6571797037927
20
3.19035033868474
30
0
41
1
10
36.2252708072766
20
3.23815362819511
30
0
41
1
10
36.0092098313646
20
3.25833093308913
30
0
41
1
10
35.5769285966052
20
3.29050356399321
30
0
41
1
10
35.3606994000268
20
3.30249739269468
30
0
41
1
10
34.9631630804565
20
3.31624182135772
30
0
41
1
10
34.7821320930403
20
3.31932079738954
30
0
41
1
10
34.6016918562797
20
3.31902562566177
30
0
0
SPLINE
5
106
100
AcDbEntity
8
1
62
256
6
ByLayer
370
18
48
1
60
0
100
AcDbSpline
70
4
71
3
72
8
73
4
40
0
40
0
40
0
40
0
40
1
40
1
40
1
40
1
41
1
10
27.9341102723706
20
-3.32852491591461
30
0
41
1
10
27.6062331047428
20
-3.3749698198811
30
0
41
1
10
27.2780738014132
20
-3.4114418079744
30
0
41
1
10
26.9490836304627
20
-3.43753624521884
30
0
0
SPLINE
5
107
100
AcDbEntity
8
1
62
256
6
ByLayer
370
18
48
1
60
0
100
AcDbSpline
70
4
71
3
72
21
73
17
40
0
40
0
40
0
40
0
40
0.0898585864233232
40
0.0898585864233232
40
0.238910959320749
40
0.387963332218175
40
0.387963332218175
40
0.537015705115601
40
0.537015705115601
40
0.686068078013027
40
0.686068078013027
40
0.835120450910454
40
0.835120450910454
40
0.98417282380788
40
0.98417282380788
40
1
40
1
40
1
40
1
41
1
10
26.7284133937334
20
-1.75223361241285
30
1E-16
41
1
10
26.7284045307638
20
-1.83801497600373
30
1E-16
41
1
10
26.7283951100843
20
-1.92127370042249
30
1E-16
41
1
10
26.7283688683017
20
-2.13483040526177
30
1E-16
41
1
10
26.7283339426215
20
-2.38314198882446
30
1E-16
41
1
10
26.7282954237748
20
-2.59627582927567
30
2E-16
41
1
10
26.7282551325345
20
-2.79116998584746
30
-1E-16
41
1
10
26.7282342956157
20
-2.87842783376104
30
0
41
1
10
26.7281916737978
20
-3.03001973810083
30
0
41
1
10
26.7281699811937
20
-3.09414376313168
30
0
41
1
10
26.7281254582004
20
-3.1989208747184
30
0
41
1
10
26.7281030454016
20
-3.23858953878556
30
0
41
1
10
26.728057365392
20
-3.29353665418489
30
0
41
1
10
26.728034100452
20
-3.3088128613827
30
0
41
1
10
26.7280074834723
20
-3.31186179355976
30
0
41
1
10
26.728004918251
20
-3.31201158490472
30
0
41
1
10
26.7280023438494
20
-3.31201835604639
30
0
0
SPLINE
5
108
100
AcDbEntity
8
1
62
256
6
ByLayer
370
18
48
1
60
0
100
AcDbSpline
70
4
71
3
72
10
73
6
40
0
40
0
40
0
40
0
40
0.402753372340945
40
0.402753372340945
40
1
40
1
40
1
40
1
41
1
10
26.727998216587
20
3.31190709465983
30
0
41
1
10
26.7279900117917
20
3.31144399360284
30
0
41
1
10
26.7279817198887
20
3.30953810722139
30
0
41
1
10
26.7279609962077
20
3.30121273991051
30
0
41
1
10
26.7279484709523
20
3.29307363275936
30
0
41
1
10
26.7279357453779
20
3.28175319525363
30
0
0
SPLINE
5
109
100
AcDbEntity
8
1
62
256
6
ByLayer
370
18
48
1
60
0
100
AcDbSpline
70
4
71
3
72
22
73
18
40
0
40
0
40
0
40
0
40
0.165679385147187
40
0.165679385147187
40
0.331358770294375
40
0.331358770294375
40
0.497038155441562
40
0.497038155441562
40
0.579877848015158
40
0.579877848015158
40
0.662717540588754
40
0.662717540588754
40
0.82839692573595
40
0.82839692573595
40
0.994076310883146
40
0.994076310883146
40
1
40
1
40
1
40
1
41
1
10
26.9490836304627
20
-1.73719981240308
30
1E-16
41
1
10
27.3737816933675
20
-1.91380066354776
30
1E-16
41
1
10
27.7982006657084
20
-2.07984615314263
30
1E-16
41
1
10
28.6473419582973
20
-2.38991740431433
30
1E-16
41
1
10
29.0724639590779
20
-2.53466713768236
30
2E-16
41
1
10
29.9212673076788
20
-2.79603286089812
30
2E-16
41
1
10
30.3449665962036
20
-2.91273404162843
30
0
41
1
10
30.9803683965173
20
-3.06574465365148
30
0
41
1
10
31.1920345833868
20
-3.11315784123104
30
0
41
1
10
31.6161928462396
20
-3.19970115102331
30
0
41
1
10
31.8287753162159
20
-3.23895283810339
30
0
41
1
10
32.4664932773921
20
-3.34429864975795
30
0
41
1
10
32.890163858394
20
-3.39803466480293
30
0
41
1
10
33.737423858146
20
-3.4709372982422
30
0
41
1
10
34.1605580684859
20
-3.4902073042158
30
0
41
1
10
34.6003923823926
20
-3.49177385328704
30
0
41
1
10
34.615575877391
20
-3.49180540566749
30
0
41
1
10
34.6307598393769
20
-3.4918144524465
30
0
0
SPLINE
5
10A
100
AcDbEntity
8
1
62
256
6
ByLayer
370
18
48
1
60
0
100
AcDbSpline
70
4
71
3
72
36
73
32
40
0
40
0
40
0
40
0
40
0.0318279530803095
40
0.0318279530803095
40
0.138902937766037
40
0.138902937766037
40
0.1924404301089
40
0.1924404301089
40
0.245977922451764
40
0.245977922451764
40
0.35305290713749
40
0.35305290713749
40
0.460127891823218
40
0.460127891823218
40
0.513665384166083
40
0.513665384166083
40
0.567202876508948
40
0.567202876508948
40
0.620740368851813
40
0.620740368851813
40
0.674277861194678
40
0.674277861194678
40
0.727815353537543
40
0.727815353537543
40
0.781352845880408
40
0.781352845880408
40
0.888427830566138
40
0.888427830566138
40
0.995502815251868
40
0.995502815251868
40
1
40
1
40
1
40
1
41
1
10
34.1137010838647
20
3.31940699861767
30
0
41
1
10
34.2412298287004
20
3.32390215720085
30
0
41
1
10
34.3689029119989
20
3.32692661597889
30
0
41
1
10
34.9271661269588
20
3.33278193205442
30
0
41
1
10
35.3608606551777
20
3.31765687442666
30
0
41
1
10
36.0090029921845
20
3.27023041651617
30
0
41
1
10
36.2249691454332
20
3.25031702738818
30
0
41
1
10
36.656683689267
20
3.20301153723329
30
0
41
1
10
36.8723769216056
20
3.17575435173819
30
0
41
1
10
37.5205315447396
20
3.08043852215022
30
0
41
1
10
37.9517446614668
20
2.99852946513337
30
0
41
1
10
38.8112043138763
20
2.80665910927726
30
1E-16
41
1
10
39.2399241558228
20
2.69631684438912
30
1E-16
41
1
10
39.8827129814051
20
2.51129588039814
30
-2E-16
41
1
10
40.0967850624224
20
2.44657366649346
30
-1E-16
41
1
10
40.5257034016324
20
2.31028719494128
30
-1E-16
41
1
10
40.740511539962
20
2.23882576118956
30
-1E-16
41
1
10
41.1709172838312
20
2.09001134572762
30
-1E-16
41
1
10
41.3865102211228
20
2.01267342885845
30
-1E-16
41
1
10
41.8185064223815
20
1.85272126248569
30
-1E-16
41
1
10
42.0349512826857
20
1.77009678297259
30
-1E-16
41
1
10
42.4658255093506
20
1.60108203356046
30
-1E-16
41
1
10
42.6805653968198
20
1.51450555551077
30
-1E-16
41
1
10
43.1093591316034
20
1.33811150316811
30
-1E-16
41
1
10
43.3233949058197
20
1.24830035064073
30
-1E-16
41
1
10
43.9647031653213
20
0.974888141592658
30
-1E-16
41
1
10
44.3911316122608
20
0.787246019102611
30
0
41
1
10
45.2436028404247
20
0.40556897960451
30
0
41
1
10
45.6697181881308
20
0.211625015284596
30
0
41
1
10
46.1147831268255
20
0.0088942661313638
30
0
41
1
10
46.1327249169406
20
0.0007227351265726
30
0
41
1
10
46.1506691096173
20
-0.0074486958532702
30
0
0
SPLINE
5
10B
100
AcDbEntity
8
1
62
256
6
ByLayer
370
18
48
1
60
0
100
AcDbSpline
70
4
71
3
72
24
73
20
40
0
40
0
40
0
40
0
40
0.0385306723737818
40
0.0385306723737818
40
0.278898004280334
40
0.278898004280334
40
0.399081670233612
40
0.399081670233612
40
0.519265336186889
40
0.519265336186889
40
0.639449002140167
40
0.639449002140167
40
0.759632668093445
40
0.759632668093445
40
0.879816334046722
40
0.879816334046722
40
0.939908167023361
40
0.939908167023361
40
1
40
1
40
1
40
1
41
1
10
36.8297223476803
20
0.185357638492462
30
0
41
1
10
36.9709889319481
20
0.121430400866131
30
0
41
1
10
37.1122897986928
20
0.057382756390183
30
0
41
1
10
38.1353813403249
20
-0.406355842378304
30
0
41
1
10
39.0089054322964
20
-0.802268267216846
30
0
41
1
10
40.3210085704858
20
-1.35930982202868
30
1E-16
41
1
10
40.758791800704
20
-1.53873199006284
30
1E-16
41
1
10
41.6372163478164
20
-1.88059231114522
30
1E-16
41
1
10
42.0791914886549
20
-2.04343664227747
30
1E-16
41
1
10
42.9562413761086
20
-2.34269599669435
30
1E-16
41
1
10
43.3928166970433
20
-2.47985699620813
30
2E-16
41
1
10
44.2637882519506
20
-2.72594608789399
30
-1E-16
41
1
10
44.6982961089155
20
-2.83492932510879
30
0
41
1
10
45.5676961233248
20
-3.02211590458583
30
0
41
1
10
46.0026108519228
20
-3.10027946288756
30
0
41
1
10
46.6569351099977
20
-3.19244154344935
30
0
41
1
10
46.8753663208288
20
-3.21899877488349
30
0
41
1
10
47.313178590516
20
-3.26349687417212
30
0
41
1
10
47.5325854671814
20
-3.28112694784116
30
0
41
1
10
47.7525711320089
20
-3.29492338793082
30
0
0
SPLINE
5
10C
100
AcDbEntity
8
1
62
256
6
ByLayer
370
18
48
1
60
0
100
AcDbSpline
70
4
71
3
72
24
73
20
40
0
40
0
40
0
40
0
40
0.0623188631354041
40
0.0623188631354041
40
0.124637726270808
40
0.124637726270808
40
0.249275452541619
40
0.249275452541619
40
0.373913178812431
40
0.373913178812431
40
0.498550905083242
40
0.498550905083242
40
0.623188631354053
40
0.623188631354053
40
0.747826357624864
40
0.747826357624864
40
0.997101810166484
40
0.997101810166484
40
1
40
1
40
1
40
1
41
1
10
47.7499769563199
20
-3.30612673214938
30
0
41
1
10
47.5299993678387
20
-3.29255375805715
30
0
41
1
10
47.3105573708069
20
-3.27518278183382
30
0
41
1
10
46.8727220307679
20
-3.23111886572801
30
0
41
1
10
46.6542813366466
20
-3.20476186549146
30
0
41
1
10
45.9999335655095
20
-3.11315140314241
30
0
41
1
10
45.5650089797132
20
-3.03529072372763
30
0
41
1
10
44.6955910680016
20
-2.84856178184944
30
0
41
1
10
44.2610745953435
20
-2.73973525395172
30
-1E-16
41
1
10
43.3900739956684
20
-2.49380856476995
30
2E-16
41
1
10
42.9534788466561
20
-2.35665669228894
30
1E-16
41
1
10
42.0763731409615
20
-2.057242139528
30
1E-16
41
1
10
41.6343408124244
20
-1.89423894312625
30
1E-16
41
1
10
40.7558275631105
20
-1.55191735859333
30
1E-16
41
1
10
40.3180091793585
20
-1.37219542410912
30
1E-16
41
1
10
39.0058161667916
20
-0.814043231007929
30
0
41
1
10
38.1322321303418
20
-0.417138875144019
30
0
41
1
10
37.2401411663419
20
-0.0115634340222925
30
0
41
1
10
37.229888735782
20
-0.0069022921567523
30
0
41
1
10
37.2196365249779
20
-0.0022412586424139
30
0
0
SPLINE
5
10D
100
AcDbEntity
8
1
62
256
6
ByLayer
370
18
48
1
60
0
100
AcDbSpline
70
4
71
3
72
36
73
32
40
0
40
0
40
0
40
0
40
0.0442732165712731
40
0.0442732165712731
40
0.123917115190335
40
0.123917115190335
40
0.203561013809398
40
0.203561013809398
40
0.28320491242846
40
0.28320491242846
40
0.32302686173799
40
0.32302686173799
40
0.36284881104752
40
0.36284881104752
40
0.44249270966658
40
0.44249270966658
40
0.48231465897611
40
0.48231465897611
40
0.52213660828564
40
0.52213660828564
40
0.6017805069047
40
0.6017805069047
40
0.68142440552376
40
0.68142440552376
40
0.76106830414282
40
0.76106830414282
40
0.84071220276188
40
0.84071220276188
40
0.92035610138094
40
0.92035610138094
40
1
40
1
40
1
40
1
41
1
10
32.4032201938187
20
3.32990583327128
30
0
41
1
10
32.6234038970449
20
3.36143794451488
30
0
41
1
10
32.8433632359747
20
3.38846734190733
30
0
41
1
10
33.458430886283
20
3.45126183298268
30
0
41
1
10
33.853493304051
20
3.47669972414437
30
0
41
1
10
34.6445717432491
20
3.49694566987364
30
0
41
1
10
35.0417381873875
20
3.49161911054816
30
0
41
1
10
35.8335859623723
20
3.45080932058397
30
0
41
1
10
36.2289122017112
20
3.41539258154913
30
0
41
1
10
36.8214309848743
20
3.33948080783961
30
0
41
1
10
37.0189354121451
20
3.3103898127159
30
0
41
1
10
37.4147346766252
20
3.24516862392414
30
0
41
1
10
37.6131825916483
20
3.20899301483459
30
0
41
1
10
38.2078822047655
20
3.09028785627441
30
0
41
1
10
38.603358575025
20
2.99749299934604
30
0
41
1
10
39.1962082460408
20
2.83898755660235
30
-2E-16
41
1
10
39.3938319268114
20
2.78301609312038
30
-2E-16
41
1
10
39.7890967026366
20
2.66475687126368
30
-2E-16
41
1
10
39.9866380772048
20
2.60231534277224
30
-2E-16
41
1
10
40.5803642422552
20
2.40687964096475
30
-1E-16
41
1
10
40.9771818607067
20
2.26622264080453
30
-1E-16
41
1
10
41.7684996613359
20
1.96707633083926
30
-1E-16
41
1
10
42.1636559338727
20
1.80830305363693
30
-1E-16
41
1
10
42.9537722641768
20
1.47334840708638
30
-1E-16
41
1
10
43.3505219192149
20
1.29896285568643
30
-1E-16
41
1
10
44.1427586735321
20
0.941304445032159
30
-1E-16
41
1
10
44.5383005400124
20
0.757659682162
30
0
41
1
10
45.3300841624598
20
0.384483190661939
30
0
41
1
10
45.7267333599538
20
0.194894793299596
30
0
41
1
10
46.5182457063266
20
-0.183519738660522
30
0
41
1
10
46.9138602307152
20
-0.372107373211776
30
0
41
1
10
47.3097658506953
20
-0.559165929413183
30
0
0
SPLINE
5
10E
100
AcDbEntity
8
1
62
256
6
ByLayer
370
18
48
1
60
0
100
AcDbSpline
70
4
71
3
72
16
73
12
40
0
40
0
40
0
40
0
40
0.155903926222639
40
0.155903926222639
40
0.240313533600376
40
0.240313533600376
40
0.324723140978113
40
0.324723140978113
40
0.662361570489056
40
0.662361570489056
40
1
40
1
40
1
40
1
41
1
10
12.8308172551661
20
4.7499960496215
30
0
41
1
10
12.9617314789376
20
4.74974843976452
30
0
41
1
10
13.1013711675346
20
4.74051831430353
30
0
41
1
10
13.3273734963109
20
4.7151231054749
30
0
41
1
10
13.4089345441493
20
4.70403320963044
30
0
41
1
10
13.5740349829648
20
4.67825757923288
30
0
41
1
10
13.6577878687674
20
4.66355228766335
30
0
41
1
10
14.0819151020655
20
4.58199412317765
30
-1E-16
41
1
10
14.438001704344
20
4.49154625318823
30
-1E-16
41
1
10
15.1752564658521
20
4.27632087601958
30
2E-16
41
1
10
15.5583559556785
20
4.15059681553515
30
2E-16
41
1
10
15.9446348554332
20
4.01489406381978
30
2E-16
0
SPLINE
5
10F
100
AcDbEntity
8
1
62
256
6
ByLayer
370
18
48
1
60
0
100
AcDbSpline
70
4
71
3
72
12
73
8
40
0
40
0
40
0
40
0
40
0.469778472621584
40
0.469778472621584
40
0.939556945243169
40
0.939556945243169
40
1
40
1
40
1
40
1
41
1
10
25.3694895658035
20
4.65353406935506
30
0
41
1
10
25.3655451696883
20
4.68360924582376
30
0
41
1
10
25.3615766617981
20
4.7069068051492
30
0
41
1
10
25.3536155554672
20
4.7391258451897
30
0
41
1
10
25.3496786782925
20
4.7479375909717
30
0
41
1
10
25.3452695420994
20
4.74990294810598
30
0
41
1
10
25.3447670439571
20
4.7500107157563
30
0
41
1
10
25.3442646409088
20
4.75000207344894
30
0
0
SPLINE
5
110
100
AcDbEntity
8
1
62
256
6
ByLayer
370
18
48
1
60
0
100
AcDbSpline
70
4
71
3
72
22
73
18
40
0
40
0
40
0
40
0
40
0.204362212632154
40
0.204362212632154
40
0.408724425264309
40
0.408724425264309
40
0.459814978422346
40
0.459814978422346
40
0.510905531580383
40
0.510905531580383
40
0.61308663789646
40
0.61308663789646
40
0.817448850528611
40
0.817448850528611
40
0.919629956844687
40
0.919629956844687
40
1
40
1
40
1
40
1
41
1
10
47.2658947203672
20
-0.0495001541253259
30
0
41
1
10
46.4738240674502
20
0.329210963335697
30
0
41
1
10
45.6884132386556
20
0.705349614057326
30
0
41
1
10
44.1159143285418
20
1.42114266536021
30
-1E-16
41
1
10
43.3288687328257
20
1.76088205552469
30
-1E-16
41
1
10
42.3345956660148
20
2.14367940383562
30
-1E-16
41
1
10
42.1350410189898
20
2.21819629583732
30
-1E-16
41
1
10
41.7376473255652
20
2.36150128793167
30
-1E-16
41
1
10
41.5394512942717
20
2.43043165956192
30
-1E-16
41
1
10
40.9460039957696
20
2.62860780347097
30
-2E-16
41
1
10
40.5518919924603
20
2.74923092539558
30
-2E-16
41
1
10
39.371296508382
20
3.07335099895803
30
0
41
1
10
38.5865696131891
20
3.23902442418574
30
0
41
1
10
37.4018207904801
20
3.40065478745783
30
0
41
1
10
37.0056262302505
20
3.44007207630776
30
0
41
1
10
36.293799107988
20
3.48319786881214
30
0
41
1
10
35.9812216267679
20
3.4925726806614
30
0
41
1
10
35.6697428566733
20
3.49245911468958
30
0
0
SPLINE
5
111
100
AcDbEntity
8
1
62
256
6
ByLayer
370
18
48
1
60
0
100
AcDbSpline
70
4
71
3
72
16
73
12
40
0
40
0
40
0
40
0
40
0.211193237687001
40
0.211193237687001
40
0.422386475374002
40
0.422386475374002
40
0.633579713061003
40
0.633579713061003
40
0.844772950748004
40
0.844772950748004
40
1
40
1
40
1
40
1
41
1
10
47.6361759876173
20
3.4550619206799
30
0
41
1
10
47.2199428450446
20
3.45373764856765
30
0
41
1
10
46.8025898022093
20
3.43557501334854
30
0
41
1
10
45.9681015578752
20
3.36596311018027
30
0
41
1
10
45.5519121467156
20
3.3146575265784
30
0
41
1
10
44.719440452469
20
3.18053212920529
30
0
41
1
10
44.3031600833275
20
3.09771229885226
30
0
41
1
10
43.4683122612154
20
2.90228072508856
30
0
41
1
10
43.0513037701582
20
2.79000686848752
30
-2E-16
41
1
10
42.3290223226813
20
2.57310069174838
30
-2E-16
41
1
10
42.0231880831699
20
2.47427221881588
30
-2E-16
41
1
10
41.7170647640904
20
2.36913160993669
30
-1E-16
0
SPLINE
5
112
100
AcDbEntity
8
1
62
256
6
ByLayer
370
18
48
1
60
0
100
AcDbSpline
70
4
71
3
72
18
73
14
40
0
40
0
40
0
40
0
40
0.0644550857000026
40
0.0644550857000026
40
0.376303390466669
40
0.376303390466669
40
0.532227542850002
40
0.532227542850002
40
0.610189619041668
40
0.610189619041668
40
0.688151695233334
40
0.688151695233334
40
1
40
1
40
1
40
1
41
1
10
23.8892108441658
20
-4.74999978877162
30
0
41
1
10
23.7336258004657
20
-4.74996753060418
30
0
41
1
10
23.5784177366932
20
-4.7467175499302
30
0
41
1
10
22.6739252899432
20
-4.70922595816629
30
0
41
1
10
21.9309248488125
20
-4.60402283756389
30
1E-16
41
1
10
20.8110168710652
20
-4.3414048244139
30
0
41
1
10
20.4368227684297
20
-4.23637203993962
30
-2E-16
41
1
10
19.8722291186068
20
-4.05322592041327
30
-2E-16
41
1
10
19.683109625622
20
-3.98776865410932
30
-2E-16
41
1
10
19.3057498121839
20
-3.84930543036674
30
-2E-16
41
1
10
19.1174588964644
20
-3.77630279316691
30
-2E-16
41
1
10
18.1770921394001
20
-3.3933955897254
30
2E-16
41
1
10
17.4284241901095
20
-3.0296073949205
30
2E-16
41
1
10
16.671681550533
20
-2.62148524570648
30
2E-16
0
SPLINE
5
113
100
AcDbEntity
8
1
62
256
6
ByLayer
370
18
48
1
60
0
100
AcDbSpline
70
4
71
3
72
9
73
5
40
0
40
0
40
0
40
0
40
0.460043424073118
40
1
40
1
40
1
40
1
41
1
10
17.5801260365668
20
-3.07400503874948
30
2E-16
41
1
10
17.3270759869802
20
-3.21567543755108
30
2E-16
41
1
10
16.7793670867732
20
-3.52677029357957
30
1E-16
41
1
10
16.2367966828991
20
-3.84305211062528
30
-2E-16
41
1
10
15.9453323867589
20
-4.0148026604349
30
-2E-16
0
SPLINE
5
114
100
AcDbEntity
8
1
62
256
6
ByLayer
370
18
48
1
60
0
100
AcDbSpline
70
4
71
3
72
10
73
6
40
0
40
0
40
0
40
0
40
0.606658182156552
40
0.606658182156552
40
1
40
1
40
1
40
1
41
1
10
15.9459473746836
20
-4.0144402705549
30
-2E-16
41
1
10
16.3335246134788
20
-3.88043368469201
30
-2E-16
41
1
10
16.7209426026365
20
-3.72929651998811
30
-2E-16
41
1
10
17.3585242845627
20
-3.45573276136176
30
1E-16
41
1
10
17.6085448460004
20
-3.34214202867099
30
2E-16
41
1
10
17.8582115202361
20
-3.2230778399763
30
2E-16
0
SPLINE
5
115
100
AcDbEntity
8
1
62
256
6
ByLayer
370
18
48
1
60
0
100
AcDbSpline
70
4
71
3
72
20
73
16
40
0
40
0
40
0
40
0
40
0.144558160739817
40
0.144558160739817
40
0.289116321479634
40
0.289116321479634
40
0.578232642959272
40
0.578232642959272
40
0.722790803699091
40
0.722790803699091
40
0.795069884069
40
0.795069884069
40
0.86734896443891
40
0.86734896443891
40
1
40
1
40
1
40
1
41
1
10
25.3694895658035
20
4.65353406935506
30
0
41
1
10
25.0082463838016
20
4.70053179704823
30
0
41
1
10
24.6457465171227
20
4.73070511295063
30
0
41
1
10
23.9158067046255
20
4.75587221647166
30
0
41
1
10
23.553123611266
20
4.75069081669542
30
0
41
1
10
22.4692314998722
20
4.68358427055563
30
0
41
1
10
21.7517670891668
20
4.57018426968128
30
-1E-16
41
1
10
20.6695653977073
20
4.30268021342519
30
2E-16
41
1
10
20.3078367348297
20
4.19725729845203
30
2E-16
41
1
10
19.7619672275707
20
4.01531446106557
30
2E-16
41
1
10
19.5792594436285
20
3.95060952191264
30
2E-16
41
1
10
19.215118004193
20
3.81441306922906
30
2E-16
41
1
10
19.0333825365242
20
3.74282952838561
30
2E-16
41
1
10
18.5186276974293
20
3.53047952814322
30
0
41
1
10
18.1860639842951
20
3.38182962279964
30
-1E-16
41
1
10
17.853116634856
20
3.22312911799352
30
-1E-16
0
SPLINE
5
116
100
AcDbEntity
8
1
62
256
6
ByLayer
370
18
48
1
60
0
100
AcDbSpline
70
4
71
3
72
22
73
18
40
0
40
0
40
0
40
0
40
0.140099233267818
40
0.140099233267818
40
0.312079386614253
40
0.312079386614253
40
0.398069463287471
40
0.398069463287471
40
0.484059539960689
40
0.484059539960689
40
0.656039693307126
40
0.656039693307126
40
0.742029769980345
40
0.742029769980345
40
0.828019846653563
40
0.828019846653563
40
1
40
1
40
1
40
1
41
1
10
41.7218731719111
20
-2.36617384684592
30
1E-16
41
1
10
41.0297977534036
20
-2.60923072037363
30
2E-16
41
1
10
40.3432881042759
20
-2.81847860592427
30
2E-16
41
1
10
38.8152642817663
20
-3.19612842758966
30
0
41
1
10
37.9740965520958
20
-3.34447664513976
30
0
41
1
10
36.6998650448019
20
-3.46410923631837
30
0
41
1
10
36.2719389538746
20
-3.48674743284778
30
0
41
1
10
35.4231039579243
20
-3.49625657981591
30
0
41
1
10
35.0006886686916
20
-3.48336351023519
30
0
41
1
10
33.7359744027728
20
-3.39329412860451
30
0
41
1
10
32.8962231297108
20
-3.26458469484419
30
0
41
1
10
31.6279981113181
20
-2.97712862358739
30
0
41
1
10
31.2038223337112
20
-2.86561183318409
30
2E-16
41
1
10
30.3502449133704
20
-2.6131109114159
30
2E-16
41
1
10
29.9245406961628
20
-2.47321307787473
30
2E-16
41
1
10
28.650277197041
20
-2.01936440841155
30
1E-16
41
1
10
27.8032082339839
20
-1.67072746966551
30
1E-16
41
1
10
26.9490836304627
20
-1.29258505823589
30
1E-16
0
SPLINE
5
117
100
AcDbEntity
8
1
62
256
6
ByLayer
370
18
48
1
60
0
100
AcDbSpline
70
4
71
2
72
6
73
3
40
0
40
0
40
0
40
1
40
1
40
1
41
1
10
46.149688300722
20
-0.0070025761223178
30
0
41
1
10
46.1496797347427
20
-0.0071566131150007
30
0
41
1
10
46.1496711686717
20
-0.0073104588849731
30
0
0
SPLINE
5
118
100
AcDbEntity
8
1
62
256
6
ByLayer
370
18
48
1
60
0
100
AcDbSpline
70
4
71
1
72
4
73
2
40
0
40
0
40
1
40
1
41
1
10
26.648971820158
20
3.44054418292913
30
0
41
1
10
25.3294012231358
20
4.75815599882927
30
0
0
SPLINE
5
119
100
AcDbEntity
8
1
62
256
6
ByLayer
370
18
48
1
60
0
100
AcDbSpline
70
4
71
3
72
19
73
15
40
0
40
0
40
0
40
0
40
0.144031294575875
40
0.250056239134834
40
0.318830681268068
40
0.375649729067116
40
0.432774703230884
40
0.49018946018147
40
0.547784127231572
40
0.752958849712984
40
0.806989181384227
40
0.882732886876081
40
0.989654072190172
40
1
40
1
40
1
40
1
41
1
10
34.6273596985037
20
3.31906645347473
30
0
41
1
10
34.2868552017665
20
3.31799987362265
30
0
41
1
10
33.6956913900314
20
3.31659408256229
30
0
41
1
10
32.9419158046504
20
3.31604728636773
30
0
41
1
10
32.3943295314827
20
3.31584169860585
30
0
41
1
10
31.962347734005
20
3.31651249522329
30
0
41
1
10
31.5572238115147
20
3.31679391695226
30
0
41
1
10
31.1502633796655
20
3.3159873163562
30
0
41
1
10
30.3933051722951
20
3.31415629329686
30
0
41
1
10
29.6441777006792
20
3.31492282246984
30
0
41
1
10
28.852609341178
20
3.31361708207959
30
0
41
1
10
28.2929837225267
20
3.31328022294082
30
0
41
1
10
27.8366772586227
20
3.31334417614983
30
0
41
1
10
27.5594372302188
20
3.31313276557248
30
0
41
1
10
27.5349776217099
20
3.31311224428518
30
0
0
SPLINE
5
11A
100
AcDbEntity
8
1
62
256
6
ByLayer
370
18
48
1
60
0
100
AcDbSpline
70
4
71
3
72
16
73
12
40
0
40
0
40
0
40
0
40
0.155138744854665
40
0.288774579680411
40
0.383443127232187
40
0.450973135037359
40
0.707411512926622
40
0.791374966322884
40
0.874997997340648
40
0.958109891246927
40
1
40
1
40
1
40
1
41
1
10
26.7279893889121
20
-3.31186124618728
30
0
41
1
10
27.0214445165775
20
-3.31248691706202
30
0
41
1
10
27.5676852496396
20
-3.31338167539843
30
0
41
1
10
28.2929837369573
20
-3.31328074883504
30
0
41
1
10
28.8526093087563
20
-3.31361590053089
30
0
41
1
10
29.6441778801669
20
-3.3149293635488
30
0
41
1
10
30.4159660519238
20
-3.31405859975891
30
0
41
1
10
31.2180187842459
20
-3.31625390874751
30
0
41
1
10
31.6922364524948
20
-3.31683751003291
30
0
41
1
10
32.0868648913273
20
-3.31628195905643
30
0
41
1
10
32.3233154597001
20
-3.31606051877765
30
0
41
1
10
32.4025536732829
20
-3.31600601213421
30
0
0
SPLINE
5
11B
100
AcDbEntity
8
1
62
256
6
ByLayer
370
18
48
1
60
0
100
AcDbSpline
70
4
71
3
72
24
73
20
40
0
40
0
40
0
40
0
40
1.17290433614E-05
40
2.08262271713E-05
40
2.08262271713E-05
40
2.08262271713E-05
40
3.02482651026E-05
40
0.0017176535427853
40
0.0030505132868645
40
0.0054453337629152
40
0.0097665716398475
40
0.0176289409095973
40
0.0321385140565526
40
0.0595445627607378
40
0.113252771544563
40
0.224396060579975
40
0.428263889726131
40
0.774021271491823
40
1
40
1
40
1
40
1
41
1
10
47.5255539872233
20
-0.0493503180201742
30
0
41
1
10
47.5255575390586
20
-0.0493464038254103
30
0
41
1
10
47.5255706269103
20
-0.0493555279652185
30
0
41
1
10
47.5255801882105
20
-0.0493584608245214
30
0
41
1
10
47.5255993780726
20
-0.0493658268756576
30
0
41
1
10
47.5255822598087
20
-0.049357981333003
30
0
41
1
10
47.5244813100837
20
-0.0489444818649645
30
0
41
1
10
47.522509349092
20
-0.0481913869370771
30
0
41
1
10
47.5189672376246
20
-0.0468504162062686
30
0
41
1
10
47.513702009227
20
-0.0448531296663646
30
0
41
1
10
47.504158863376
20
-0.0412353062153556
30
0
41
1
10
47.4866636606507
20
-0.0346008484290792
30
0
41
1
10
47.453963623427
20
-0.0221982694466192
30
0
41
1
10
47.390939667534
20
0.0017320726828132
30
0
41
1
10
47.2635739660605
20
0.0502615887545801
30
0
41
1
10
47.0189160023614
20
0.144535527377656
30
0
41
1
10
46.5724903439406
20
0.320704646794752
30
0
41
1
10
46.0240747922343
20
0.551024976937015
30
0
41
1
10
45.6302213493616
20
0.728778490041236
30
0
41
1
10
45.4744625089633
20
0.80087418707987
30
0
0
SPLINE
5
11C
100
AcDbEntity
8
1
62
256
6
ByLayer
370
18
48
1
60
0
100
AcDbSpline
70
4
71
3
72
24
73
20
40
0
40
0
40
0
40
0
40
0.0001093623394365
40
0.0002115857846061
40
0.0003937485276355
40
0.0007195291469657
40
0.0013029604156823
40
0.0023487168636242
40
0.0042287111131184
40
0.00762802226523
40
0.014114182981133
40
0.0276174772457893
40
0.0579690363454823
40
0.121336966597125
40
0.204099451053235
40
0.369652899023769
40
0.526758896964805
40
0.73479448811701
40
1
40
1
40
1
40
1
41
1
10
24.5824046654945
20
-0.0682807930582499
30
0
41
1
10
24.5822847550583
20
-0.06823108078882
30
0
41
1
10
24.5818879776032
20
-0.068087683536163
30
0
41
1
10
24.5813777773014
20
-0.0678876130771187
30
0
41
1
10
24.5804973917448
20
-0.0675512132988558
30
0
41
1
10
24.5789753552125
20
-0.0669651112696954
30
0
41
1
10
24.5762083070957
20
-0.0659036476840242
30
0
41
1
10
24.5712490156937
20
-0.0640015492985242
30
0
41
1
10
24.5622485249744
20
-0.0605581337908916
30
0
41
1
10
24.5453776760811
20
-0.0541237101240313
30
0
41
1
10
24.5110443563339
20
-0.0411274194534599
30
0
41
1
10
24.4344894125493
20
-0.012407729810036
30
0
41
1
10
24.2657508988302
20
0.0508046963555842
30
0
41
1
10
23.9811778652053
20
0.159423651059939
30
0
41
1
10
23.4728010283652
20
0.361465746018752
30
0
41
1
10
22.8157001247049
20
0.641247450712399
30
0
41
1
10
21.9609716399524
20
1.03641871751677
30
-1E-16
41
1
10
20.9600819700622
20
1.5406078256247
30
-1E-16
41
1
10
20.2218764534034
20
1.94935237735953
30
-1E-16
41
1
10
19.8124070948007
20
2.18825457550486
30
-1E-16
0
LINE
5
88
100
AcDbEntity
8
SK1
62
256
6
ByLayer
370
18
48
1
60
0
100
AcDbLine
10
-40
20
3.451889
30
0
11
-40
21
-3.134404
31
0
39
0
210
0
220
0
230
1
0
LINE
5
8A
100
AcDbEntity
8
1
62
256
6
ByLayer
370
18
48
1
60
0
100
AcDbLine
10
48.951192
20
0.042134
30
0
11
47.961645
21
1.134423
31
0
39
0
210
0
220
0
230
1
0
LINE
5
8B
100
AcDbEntity
8
1
62
256
6
ByLayer
370
18
48
1
60
0
100
AcDbLine
10
26.934929
20
-1.734223
30
0
11
26.934929
21
-1.289816
31
0
39
0
210
0
220
0
230
1
0
LINE
5
8C
100
AcDbEntity
8
1
62
256
6
ByLayer
370
18
48
1
60
0
100
AcDbLine
10
26.949084
20
-1.292585
30
0
11
26.949084
21
-1.7372
31
0
39
0
210
0
220
0
230
1
0
LINE
5
8D
100
AcDbEntity
8
1
62
256
6
ByLayer
370
18
48
1
60
0
100
AcDbLine
10
26.727936
20
3.281753
30
0
11
26.721314
21
3.28232
31
0
39
0
210
0
220
0
230
1
0
LINE
5
8E
100
AcDbEntity
8
SK1
62
256
6
ByLayer
370
18
48
1
60
0
100
AcDbLine
10
-39.35
20
-4.272336
30
0
11
-39.35
21
-4.068886
31
0
39
0
210
0
220
0
230
1
0
LINE
5
8F
100
AcDbEntity
8
1
62
256
6
ByLayer
370
18
48
1
60
0
100
AcDbLine
10
26.6278
20
3.46166
30
0
11
26.6278
21
3.460088
31
0
39
0
210
0
220
0
230
1
0
LINE
5
90
100
AcDbEntity
8
SK1
62
256
6
ByLayer
370
18
48
1
60
0
100
AcDbLine
10
0
20
5
30
0
11
0
21
-5
31
0
39
0
210
0
220
0
230
1
0
LINE
5
91
100
AcDbEntity
8
SK1
62
256
6
ByLayer
370
18
48
1
60
0
100
AcDbLine
10
-39.517949
20
-4.100371
30
0
11
-39.517949
21
-3.896937
31
0
39
0
210
0
220
0
230
1
0
LINE
5
92
100
AcDbEntity
8
SK1
62
256
6
ByLayer
370
18
48
1
60
0
100
AcDbLine
10
-40
20
-3.451889
30
0
11
-40
21
-3.134306
31
0
39
0
210
0
220
0
230
1
0
LINE
5
93
100
AcDbEntity
8
1
62
256
6
ByLayer
370
18
48
1
60
0
100
AcDbLine
10
26.6278
20
-3.8
30
0
11
26.6278
21
-1.890659
31
0
39
0
210
0
220
0
230
1
0
LINE
5
94
100
AcDbEntity
8
1
62
256
6
ByLayer
370
18
48
1
60
0
100
AcDbLine
10
25.6778
20
-4.75
30
0
11
25.6778
21
-1.505265
31
0
39
0
210
0
220
0
230
1
0
LINE
5
95
100
AcDbEntity
8
1
62
256
6
ByLayer
370
18
48
1
60
0
100
AcDbLine
10
0.858778
20
4.75
30
0
11
0.858778
21
0
31
0
39
0
210
0
220
0
230
1
0
LINE
5
96
100
AcDbEntity
8
1
62
256
6
ByLayer
370
18
48
1
60
0
100
AcDbLine
10
0.858778
20
0
30
0
11
0.858778
21
-4.75
31
0
39
0
210
0
220
0
230
1
0
LINE
5
97
100
AcDbEntity
8
SK1
62
256
6
ByLayer
370
18
48
1
60
0
100
AcDbLine
10
-38.66
20
-5
30
0
11
-38.66
21
5
31
0
39
0
210
0
220
0
230
1
0
LINE
5
98
100
AcDbEntity
8
SK1
62
256
6
ByLayer
370
18
48
1
60
0
100
AcDbLine
10
-39.25
20
-4.41
30
0
11
-39.25
21
-4.203304
31
0
39
0
210
0
220
0
230
1
0
LINE
5
99
100
AcDbEntity
8
SK1
62
256
6
ByLayer
370
18
48
1
60
0
100
AcDbLine
10
-39.25
20
4.41
30
0
11
-39.25
21
4.386322
31
0
39
0
210
0
220
0
230
1
0
LINE
5
9A
100
AcDbEntity
8
1
62
256
6
ByLayer
370
18
48
1
60
0
100
AcDbLine
10
0
20
5
30
0
11
0
21
0
31
0
39
0
210
0
220
0
230
1
0
LINE
5
9B
100
AcDbEntity
8
1
62
256
6
ByLayer
370
18
48
1
60
0
100
AcDbLine
10
0
20
0
30
0
11
0
21
-5
31
0
39
0
210
0
220
0
230
1
0
LINE
5
9C
100
AcDbEntity
8
1
62
256
6
ByLayer
370
18
48
1
60
0
100
AcDbLine
10
0.429389
20
4.875
30
0
11
0.429389
21
0
31
0
39
0
210
0
220
0
230
1
0
LINE
5
9D
100
AcDbEntity
8
1
62
256
6
ByLayer
370
18
48
1
60
0
100
AcDbLine
10
0.429389
20
0
30
0
11
0.429389
21
-4.875
31
0
39
0
210
0
220
0
230
1
0
LINE
5
9E
100
AcDbEntity
8
1
62
256
6
ByLayer
370
18
48
1
60
0
100
AcDbLine
10
34.63087
20
-3.491814
30
0
11
35.665778
21
-3.492461
31
0
39
0
210
0
220
0
230
1
0
LINE
5
9F
100
AcDbEntity
8
1
62
256
6
ByLayer
370
18
48
1
60
0
100
AcDbLine
10
25.6778
20
-4.75
30
0
11
26.6278
21
-3.8
31
0
39
0
210
0
220
0
230
1
0
LINE
5
A0
100
AcDbEntity
8
1
62
256
6
ByLayer
370
18
48
1
60
0
100
AcDbLine
10
35.665778
20
3.492461
30
0
11
34.63087
21
3.491814
31
0
39
0
210
0
220
0
230
1
0
LINE
5
A1
100
AcDbEntity
8
1
62
256
6
ByLayer
370
18
48
1
60
0
100
AcDbLine
10
25.344349
20
4.75
30
0
11
23.891708
21
4.75
31
0
39
0
210
0
220
0
230
1
0
LINE
5
A2
100
AcDbEntity
8
1
62
256
6
ByLayer
370
18
48
1
60
0
100
AcDbLine
10
12.829618
20
4.75
30
0
11
0.858778
21
4.75
31
0
39
0
210
0
220
0
230
1
0
LINE
5
A3
100
AcDbEntity
8
1
62
256
6
ByLayer
370
18
48
1
60
0
100
AcDbLine
10
0.858778
20
-4.75
30
0
11
12.829618
21
-4.75
31
0
39
0
210
0
220
0
230
1
0
LINE
5
A4
100
AcDbEntity
8
1
62
256
6
ByLayer
370
18
48
1
60
0
100
AcDbLine
10
23.891708
20
-4.75
30
0
11
25.6778
21
-4.75
31
0
39
0
210
0
220
0
230
1
0
LINE
5
A5
100
AcDbEntity
8
SK1
62
256
6
ByLayer
370
18
48
1
60
0
100
AcDbLine
10
-38.66
20
-5
30
0
11
0
21
-5
31
0
39
0
210
0
220
0
230
1
0
LINE
5
A6
100
AcDbEntity
8
SK1
62
256
6
ByLayer
370
18
48
1
60
0
100
AcDbLine
10
0
20
5
30
0
11
-38.66
21
5
31
0
39
0
210
0
220
0
230
1
0
LINE
5
A7
100
AcDbEntity
8
SK1
62
256
6
ByLayer
370
18
48
1
60
0
100
AcDbLine
10
-39.25
20
-4.41
30
0
11
-38.66
21
-5
31
0
39
0
210
0
220
0
230
1
0
LINE
5
A8
100
AcDbEntity
8
SK1
62
256
6
ByLayer
370
18
48
1
60
0
100
AcDbLine
10
-38.66
20
5
30
0
11
-39.25
21
4.41
31
0
39
0
210
0
220
0
230
1
0
LINE
5
A9
100
AcDbEntity
8
SK4
62
256
6
ByLayer
370
18
48
0.05
60
0
100
AcDbLine
10
54
20
0
30
0
11
-45
21
0
31
0
39
0
210
0
220
0
230
1
0
LINE
5
AB
100
AcDbEntity
8
4
62
256
6
ByLayer
370
18
48
0.05
60
0
100
AcDbLine
10
-40
20
0
30
0
11
54
21
0
31
0
39
0
210
0
220
0
230
1
0
LINE
5
AD
100
AcDbEntity
8
80
62
256
6
ByLayer
370
18
48
1
60
0
100
AcDbLine
10
0
20
0
30
0
11
-6
21
0
31
0
39
0
210
0
220
0
230
1
0
LINE
5
AE
100
AcDbEntity
8
81
62
256
6
ByLayer
370
18
48
1
60
0
100
AcDbLine
10
49
20
0
30
0
11
55
21
0
31
0
39
0
210
0
220
0
230
1
0
LINE
5
AF
100
AcDbEntity
8
SK2
62
256
6
ByLayer
370
13
48
1
60
0
100
AcDbLine
10
49.542959
20
1.491761
30
0
11
56.92634
21
21.777368
31
0
39
0
210
0
220
0
230
1
0
LINE
5
B1
100
AcDbEntity
8
SK2
62
256
6
ByLayer
370
13
48
1
60
0
100
AcDbLine
10
49.542959
20
-1.491761
30
0
11
56.92634
21
-21.777368
31
0
39
0
210
0
220
0
230
1
0
LINE
5
B2
100
AcDbEntity
8
1
62
256
6
ByLayer
370
13
48
1
60
0
100
AcDbLine
10
55.840423
20
18.793845
30
0
11
58.937012
21
17.97747
31
0
39
0
210
0
220
0
230
1
0
LINE
5
B3
100
AcDbEntity
8
1
62
256
6
ByLayer
370
13
48
1
60
0
100
AcDbLine
10
55.840423
20
18.793845
30
0
11
58.620208
21
17.203829
31
0
39
0
210
0
220
0
230
1
0
LINE
5
B4
100
AcDbEntity
8
1
62
256
6
ByLayer
370
13
48
1
60
0
100
AcDbLine
10
58.937012
20
17.97747
30
0
11
58.620208
21
17.203829
31
0
39
0
210
0
220
0
230
1
0
LINE
5
B5
100
AcDbEntity
8
1
62
256
6
ByLayer
370
13
48
1
60
0
100
AcDbLine
10
55.840423
20
-18.793845
30
0
11
58.620205
21
-17.203831
31
0
39
0
210
0
220
0
230
1
0
LINE
5
B6
100
AcDbEntity
8
1
62
256
6
ByLayer
370
13
48
1
60
0
100
AcDbLine
10
55.840423
20
-18.793845
30
0
11
58.937015
21
-17.977469
31
0
39
0
210
0
220
0
230
1
0
LINE
5
B7
100
AcDbEntity
8
1
62
256
6
ByLayer
370
13
48
1
60
0
100
AcDbLine
10
58.620205
20
-17.203831
30
0
11
58.937015
21
-17.977469
31
0
39
0
210
0
220
0
230
1
0
LINE
5
B8
100
AcDbEntity
8
SK2
62
256
6
ByLayer
370
13
48
1
60
0
100
AcDbLine
10
25.777572
20
-4.348528
30
0
11
16.337518
21
-13.788582
31
0
39
0
210
0
220
0
230
1
0
LINE
5
B9
100
AcDbEntity
8
SK2
62
256
6
ByLayer
370
13
48
1
60
0
100
AcDbLine
10
25.777572
20
4.348528
30
0
11
16.337518
21
13.788582
31
0
39
0
210
0
220
0
230
1
0
LINE
5
BA
100
AcDbEntity
8
1
62
256
6
ByLayer
370
13
48
1
60
0
100
AcDbLine
10
17.044625
20
-13.081475
30
0
11
15.516509
21
-11.77417
31
0
39
0
210
0
220
0
230
1
0
LINE
5
BB
100
AcDbEntity
8
1
62
256
6
ByLayer
370
13
48
1
60
0
100
AcDbLine
10
17.044625
20
-13.081475
30
0
11
15.821705
21
-11.485024
31
0
39
0
210
0
220
0
230
1
0
LINE
5
BC
100
AcDbEntity
8
1
62
256
6
ByLayer
370
13
48
1
60
0
100
AcDbLine
10
15.516509
20
-11.77417
30
0
11
15.821705
21
-11.485024
31
0
39
0
210
0
220
0
230
1
0
LINE
5
BD
100
AcDbEntity
8
1
62
256
6
ByLayer
370
13
48
1
60
0
100
AcDbLine
10
17.044625
20
13.081475
30
0
11
15.821706
21
11.485025
31
0
39
0
210
0
220
0
230
1
0
LINE
5
BE
100
AcDbEntity
8
1
62
256
6
ByLayer
370
13
48
1
60
0
100
AcDbLine
10
17.044625
20
13.081475
30
0
11
15.516508
21
11.774169
31
0
39
0
210
0
220
0
230
1
0
LINE
5
BF
100
AcDbEntity
8
1
62
256
6
ByLayer
370
13
48
1
60
0
100
AcDbLine
10
15.821706
20
11.485025
30
0
11
15.516508
21
11.774169
31
0
39
0
210
0
220
0
230
1
0
MTEXT
5
11D
100
AcDbEntity
8
SK2
62
256
6
ByLayer
370
18
48
1
60
0
100
AcDbMText
10
62.717388
20
-2.467451
30
0
210
0
220
0
230
1
1
\W0.7237;140.00
40
3.50012
41
0
44
1.084337
50
0
71
7
72
5
7
iso_b_vert
0
MTEXT
5
120
100
AcDbEntity
8
SK2
62
256
6
ByLayer
370
18
48
1
60
0
100
AcDbMText
10
7.704267
20
-2.467451
30
0
210
0
220
0
230
1
1
\W0.7346;90.0
40
3.50012
41
0
44
1.084337
50
0
71
7
72
5
7
iso_b_vert
0
MTEXT
5
121
100
AcDbEntity
8
SK6
62
256
6
ByLayer
370
18
48
1
60
0
100
AcDbMText
10
-34.831725
20
-88.825754
30
0
210
0
220
0
230
1
1
\W0.7561;860.2-0700-023A1-GM X1BM
40
3.175
41
0
44
1.084337
50
0
71
7
72
5
7
iso_b_vert
0
DIMENSION
5
124
100
AcDbEntity
8
SK2
62
256
6
ByLayer
370
18
48
1
60
0
100
AcDbDimension
2
_U0
10
49
20
-28.50012
30
0
11
24.5
21
-28.50012
31
0
70
32
71
2
72
1
41
1
210
0
220
0
230
1
3
Standard
100
AcDbAlignedDimension
13
0
23
-5
33
0
14
49
24
0
34
0
50
0
100
AcDbRotatedDimension
1001
ACAD
1000
DSTYLE
1002
{
1070
   371
1070
    13
1070
   372
1070
    13
1070
     3
1000

1070
   170
1070
     0
1070
   144
1040
1.0
1070
   277
1070
     2
1070
   284
1070
     8
1070
   278
1070
    46
1070
   146
1040
0.999966
1070
   345
1005
16
1070
   347
1005
16
1070
   346
1005
16
1070
   344
1005
125
1070
   343
1005
125
1070
   172
1070
     1
1070
    76
1070
     0
1070
    75
1070
     0
1070
   282
1070
     0
1070
   281
1070
     0
1070
    71
1070
     0
1070
    74
1070
     0
1070
   279
1070
     0
1070
   173
1070
     1
1070
   340
1005
11E
1070
   271
1070
     1
1070
   272
1070
     2
1070
    77
1070
     1
1070
    73
1070
     1
1070
   171
1070
     3
1070
   274
1070
     4
1070
   177
1070
   150
1070
   176
1070
     9
1070
   178
1070
    43
1070
    78
1070
     8
1070
    48
1040
-0.1
1070
    41
1040
3.175
1070
   147
1040
1.75006
1070
    42
1040
1.5875
1070
    44
1040
3.175
1070
   140
1040
3.50012
1002
}
1001
ACAD_DSTYLE_DIM_LINETYPE
1070
   380
1005
16
1001
ACAD_DSTYLE_DIM_EXT1_LINETYPE
1070
   381
1005
16
1001
ACAD_DSTYLE_DIM_EXT2_LINETYPE
1070
   382
1005
16
0
DIMENSION
5
14A
100
AcDbEntity
8
2
62
256
6
ByLayer
370
18
48
1
60
0
100
AcDbDimension
2
_U1
10
55.75006
20
3.5
30
0
11
55.75006
21
16.573147
31
0
70
32
71
1
72
1
41
1
210
0
220
0
230
1
3
Standard
100
AcDbAlignedDimension
13
47.7261
23
-3.5
33
0
14
47.7261
24
3.5
34
0
50
90
100
AcDbRotatedDimension
1001
ACAD
1000
DSTYLE
1002
{
1070
   371
1070
    13
1070
   372
1070
    13
1070
     3
1000

1070
   170
1070
     0
1070
   144
1040
1.0
1070
   277
1070
     2
1070
   284
1070
     8
1070
   278
1070
    46
1070
   146
1040
0.999966
1070
   345
1005
16
1070
   347
1005
16
1070
   346
1005
16
1070
   344
1005
125
1070
   343
1005
125
1070
   172
1070
     1
1070
    76
1070
     0
1070
    75
1070
     0
1070
   282
1070
     0
1070
   281
1070
     0
1070
    71
1070
     0
1070
    74
1070
     0
1070
   279
1070
     0
1070
   173
1070
     1
1070
   340
1005
11E
1070
   271
1070
     1
1070
   272
1070
     2
1070
    77
1070
     1
1070
    73
1070
     0
1070
   171
1070
     3
1070
   274
1070
     4
1070
   177
1070
   150
1070
   176
1070
     9
1070
   178
1070
    43
1070
    78
1070
     8
1070
    48
1040
-0.1
1070
    41
1040
3.175
1070
   147
1040
1.75006
1070
    42
1040
1.5875
1070
    44
1040
3.175
1070
   140
1040
3.50012
1002
}
1001
ACAD_DSTYLE_DIM_LINETYPE
1070
   380
1005
16
1001
ACAD_DSTYLE_DIM_EXT1_LINETYPE
1070
   381
1005
16
1001
ACAD_DSTYLE_DIM_EXT2_LINETYPE
1070
   382
1005
16
0
DIMENSION
5
169
100
AcDbEntity
8
SK2
62
256
6
ByLayer
370
18
48
1
60
0
100
AcDbDimension
2
_U2
10
-43.24994
20
-5
30
0
11
-43.24994
21
19.97767
31
0
70
32
71
1
72
1
41
1
210
0
220
0
230
1
3
Standard
100
AcDbAlignedDimension
13
-40
23
5
33
0
14
-40
24
-5
34
0
50
90
100
AcDbRotatedDimension
1001
ACAD
1000
DSTYLE
1002
{
1070
   371
1070
    13
1070
   372
1070
    13
1070
     3
1000

1070
   170
1070
     0
1070
   144
1040
1.0
1070
   277
1070
     2
1070
   284
1070
     8
1070
   278
1070
    46
1070
   146
1040
0.999966
1070
   345
1005
16
1070
   347
1005
16
1070
   346
1005
16
1070
   344
1005
125
1070
   343
1005
125
1070
   172
1070
     1
1070
    76
1070
     0
1070
    75
1070
     0
1070
   282
1070
     0
1070
   281
1070
     0
1070
    71
1070
     0
1070
    74
1070
     0
1070
   279
1070
     0
1070
   173
1070
     1
1070
   340
1005
11E
1070
   271
1070
     1
1070
   272
1070
     2
1070
    77
1070
     1
1070
    73
1070
     0
1070
   171
1070
     3
1070
   274
1070
     4
1070
   177
1070
   150
1070
   176
1070
     9
1070
   178
1070
    43
1070
    78
1070
     8
1070
    48
1040
-0.1
1070
    41
1040
3.175
1070
   147
1040
1.75006
1070
    42
1040
1.5875
1070
    44
1040
3.175
1070
   140
1040
3.50012
1002
}
1001
ACAD_DSTYLE_DIM_LINETYPE
1070
   380
1005
16
1001
ACAD_DSTYLE_DIM_EXT1_LINETYPE
1070
   381
1005
16
1001
ACAD_DSTYLE_DIM_EXT2_LINETYPE
1070
   382
1005
16
0
DIMENSION
5
187
100
AcDbEntity
8
2
62
256
6
ByLayer
370
18
48
1
60
0
100
AcDbDimension
2
_U3
10
64.35012
20
-4.75
30
0
11
64.35012
21
25.493206
31
0
70
32
71
1
72
1
41
1
210
0
220
0
230
1
3
Standard
100
AcDbAlignedDimension
13
25.3761
23
4.75
33
0
14
25.3761
24
-4.75
34
0
50
90
100
AcDbRotatedDimension
1001
ACAD
1000
DSTYLE
1002
{
1070
   371
1070
    13
1070
   372
1070
    13
1070
     3
1000

1070
   170
1070
     0
1070
   144
1040
1.0
1070
   277
1070
     2
1070
   284
1070
     8
1070
   278
1070
    46
1070
   146
1040
0.999966
1070
   345
1005
16
1070
   347
1005
16
1070
   346
1005
16
1070
   344
1005
125
1070
   343
1005
125
1070
   172
1070
     1
1070
    76
1070
     0
1070
    75
1070
     0
1070
   282
1070
     0
1070
   281
1070
     0
1070
    71
1070
     0
1070
    74
1070
     0
1070
   279
1070
     0
1070
   173
1070
     1
1070
   340
1005
11E
1070
   271
1070
     1
1070
   272
1070
     2
1070
    77
1070
     1
1070
    73
1070
     0
1070
   171
1070
     3
1070
   274
1070
     4
1070
   177
1070
   150
1070
   176
1070
     9
1070
   178
1070
    43
1070
    78
1070
     8
1070
    48
1040
-0.1
1070
    41
1040
3.0
1070
   147
1040
1.75006
1070
    42
1040
0.5
1070
    44
1040
1.0
1070
   140
1040
3.50012
1002
}
1001
ACAD_DSTYLE_DIM_LINETYPE
1070
   380
1005
16
1001
ACAD_DSTYLE_DIM_EXT1_LINETYPE
1070
   381
1005
16
1001
ACAD_DSTYLE_DIM_EXT2_LINETYPE
1070
   382
1005
16
0
DIMENSION
5
1A5
100
AcDbEntity
8
SK2
62
256
6
ByLayer
370
18
48
1
60
0
100
AcDbDimension
2
_U4
10
0
20
-28.50012
30
0
11
-20
21
-28.50012
31
0
70
32
71
1
72
1
41
1
210
0
220
0
230
1
3
Standard
100
AcDbAlignedDimension
13
-40
23
-5
33
0
14
0
24
-5
34
0
50
0
100
AcDbRotatedDimension
1001
ACAD
1000
DSTYLE
1002
{
1070
   371
1070
    13
1070
   372
1070
    13
1070
     3
1000

1070
   170
1070
     0
1070
   144
1040
1.0
1070
   277
1070
     2
1070
   284
1070
     8
1070
   278
1070
    46
1070
   146
1040
0.999966
1070
   345
1005
16
1070
   347
1005
16
1070
   346
1005
16
1070
   344
1005
125
1070
   343
1005
125
1070
   172
1070
     1
1070
    76
1070
     0
1070
    75
1070
     0
1070
   282
1070
     0
1070
   281
1070
     0
1070
    71
1070
     0
1070
    74
1070
     0
1070
   279
1070
     0
1070
   173
1070
     1
1070
   340
1005
11E
1070
   271
1070
     1
1070
   272
1070
     2
1070
    77
1070
     1
1070
    73
1070
     1
1070
   171
1070
     3
1070
   274
1070
     4
1070
   177
1070
   150
1070
   176
1070
     9
1070
   178
1070
    43
1070
    78
1070
     8
1070
    48
1040
-0.1
1070
    41
1040
3.175
1070
   147
1040
1.75006
1070
    42
1040
1.5875
1070
    44
1040
3.175
1070
   140
1040
3.50012
1002
}
1001
ACAD_DSTYLE_DIM_LINETYPE
1070
   380
1005
16
1001
ACAD_DSTYLE_DIM_EXT1_LINETYPE
1070
   381
1005
16
1001
ACAD_DSTYLE_DIM_EXT2_LINETYPE
1070
   382
1005
16
0
DIMENSION
5
1C1
100
AcDbEntity
8
SK2
62
256
6
ByLayer
370
18
48
1
60
0
100
AcDbDimension
2
_U5
10
49
20
-19.74982
30
0
11
30.5
21
-19.74982
31
0
70
32
71
1
72
1
41
1
210
0
220
0
230
1
3
Standard
100
AcDbAlignedDimension
13
12
23
4
33
0
14
49
24
0
34
0
50
0
100
AcDbRotatedDimension
1001
ACAD
1000
DSTYLE
1002
{
1070
   371
1070
    13
1070
   372
1070
    13
1070
     3
1000

1070
   170
1070
     0
1070
   144
1040
1.0
1070
   277
1070
     2
1070
   284
1070
     8
1070
   278
1070
    46
1070
   146
1040
0.999966
1070
   345
1005
16
1070
   347
1005
16
1070
   346
1005
16
1070
   344
1005
125
1070
   343
1005
125
1070
   172
1070
     1
1070
    76
1070
     0
1070
    75
1070
     0
1070
   282
1070
     0
1070
   281
1070
     0
1070
    71
1070
     0
1070
    74
1070
     0
1070
   279
1070
     0
1070
   173
1070
     1
1070
   340
1005
11E
1070
   271
1070
     1
1070
   272
1070
     2
1070
    77
1070
     1
1070
    73
1070
     1
1070
   171
1070
     3
1070
   274
1070
     4
1070
   177
1070
   150
1070
   176
1070
     9
1070
   178
1070
    43
1070
    78
1070
     8
1070
    48
1040
-0.1
1070
    41
1040
3.175
1070
   147
1040
1.75006
1070
    42
1040
1.5875
1070
    44
1040
3.175
1070
   140
1040
3.50012
1002
}
1001
ACAD_DSTYLE_DIM_LINETYPE
1070
   380
1005
16
1001
ACAD_DSTYLE_DIM_EXT1_LINETYPE
1070
   381
1005
16
1001
ACAD_DSTYLE_DIM_EXT2_LINETYPE
1070
   382
1005
16
0
DIMENSION
5
1DD
100
AcDbEntity
8
SK2
62
256
6
ByLayer
370
18
48
1
60
0
100
AcDbDimension
2
_U6
10
49
20
-11.82
30
0
11
37.2
21
-11.82
31
0
70
32
71
1
72
1
41
1
210
0
220
0
230
1
3
Standard
100
AcDbAlignedDimension
13
25.4
23
-3.5
33
0
14
49
24
0
34
0
50
0
100
AcDbRotatedDimension
1001
ACAD
1000
DSTYLE
1002
{
1070
   371
1070
    13
1070
   372
1070
    13
1070
     3
1000

1070
   170
1070
     0
1070
   144
1040
1.0
1070
   277
1070
     2
1070
   284
1070
     8
1070
   278
1070
    46
1070
   146
1040
1.25
1070
   345
1005
16
1070
   347
1005
16
1070
   346
1005
16
1070
   344
1005
125
1070
   343
1005
125
1070
   172
1070
     1
1070
    76
1070
     0
1070
    75
1070
     0
1070
   282
1070
     0
1070
   281
1070
     0
1070
    71
1070
     0
1070
    74
1070
     0
1070
   279
1070
     0
1070
   173
1070
     1
1070
   340
1005
11E
1070
   271
1070
     1
1070
   272
1070
     2
1070
    77
1070
     1
1070
    73
1070
     1
1070
   171
1070
     3
1070
   274
1070
     4
1070
   177
1070
   150
1070
   176
1070
     9
1070
   178
1070
    43
1070
    78
1070
     8
1070
    48
1040
-0.1
1070
    41
1040
3.175
1070
   147
1040
0.42
1070
    42
1040
1.5875
1070
    44
1040
0.5
1070
   140
1040
2.8
1002
}
1001
ACAD_DSTYLE_DIM_LINETYPE
1070
   380
1005
16
1001
ACAD_DSTYLE_DIM_EXT1_LINETYPE
1070
   381
1005
16
1001
ACAD_DSTYLE_DIM_EXT2_LINETYPE
1070
   382
1005
16
0
DIMENSION
5
1F9
100
AcDbEntity
8
SK2
62
256
6
ByLayer
370
18
48
1
60
0
100
AcDbDimension
2
_U7
10
49
20
-38.50012
30
0
11
4.5
21
-38.50012
31
0
70
32
71
1
72
1
41
1
210
0
220
0
230
1
3
Standard
100
AcDbAlignedDimension
13
-40
23
0
33
0
14
49
24
0
34
0
50
0
100
AcDbRotatedDimension
1001
ACAD
1000
DSTYLE
1002
{
1070
   371
1070
    13
1070
   372
1070
    13
1070
     3
1000

1070
   170
1070
     0
1070
   144
1040
1.0
1070
   277
1070
     2
1070
   284
1070
     8
1070
   278
1070
    46
1070
   146
1040
0.999966
1070
   345
1005
16
1070
   347
1005
16
1070
   346
1005
16
1070
   344
1005
125
1070
   343
1005
125
1070
   172
1070
     1
1070
    76
1070
     0
1070
    75
1070
     0
1070
   282
1070
     0
1070
   281
1070
     0
1070
    71
1070
     0
1070
    74
1070
     0
1070
   279
1070
     0
1070
   173
1070
     1
1070
   340
1005
11E
1070
   271
1070
     1
1070
   272
1070
     2
1070
    77
1070
     1
1070
    73
1070
     1
1070
   171
1070
     3
1070
   274
1070
     4
1070
   177
1070
   150
1070
   176
1070
     9
1070
   178
1070
    43
1070
    78
1070
     8
1070
    48
1040
-0.1
1070
    41
1040
3.175
1070
   147
1040
1.75006
1070
    42
1040
1.5875
1070
    44
1040
3.175
1070
   140
1040
3.50012
1002
}
1001
ACAD_DSTYLE_DIM_LINETYPE
1070
   380
1005
16
1001
ACAD_DSTYLE_DIM_EXT1_LINETYPE
1070
   381
1005
16
1001
ACAD_DSTYLE_DIM_EXT2_LINETYPE
1070
   382
1005
16
0
DIMENSION
5
215
100
AcDbEntity
8
SK2
62
256
6
ByLayer
370
18
48
1
60
0
100
AcDbDimension
2
_U8
10
26.6261
20
17.46068
30
0
11
37.1761
21
17.46068
31
0
70
32
71
1
72
1
41
1
210
0
220
0
230
1
3
Standard
100
AcDbAlignedDimension
13
47.7261
23
3.5
33
0
14
26.6261
24
3.5
34
0
50
0
100
AcDbRotatedDimension
1001
ACAD
1000
DSTYLE
1002
{
1070
   371
1070
    13
1070
   372
1070
    13
1070
     3
1000

1070
   170
1070
     0
1070
   144
1040
1.0
1070
   277
1070
     2
1070
   284
1070
     8
1070
   278
1070
    46
1070
   146
1040
1.25
1070
   345
1005
16
1070
   347
1005
16
1070
   346
1005
16
1070
   344
1005
125
1070
   343
1005
125
1070
   172
1070
     1
1070
    76
1070
     0
1070
    75
1070
     0
1070
   282
1070
     0
1070
   281
1070
     0
1070
    71
1070
     0
1070
    74
1070
     0
1070
   279
1070
     0
1070
   173
1070
     1
1070
   340
1005
11E
1070
   271
1070
     1
1070
   272
1070
     2
1070
    77
1070
     1
1070
    73
1070
     1
1070
   171
1070
     3
1070
   274
1070
     4
1070
   177
1070
   150
1070
   176
1070
     9
1070
   178
1070
    43
1070
    78
1070
     8
1070
    48
1040
-0.1
1070
    41
1040
3.0
1070
   147
1040
0.42
1070
    42
1040
0.5
1070
    44
1040
0.1
1070
   140
1040
2.8
1002
}
1001
ACAD_DSTYLE_DIM_LINETYPE
1070
   380
1005
16
1001
ACAD_DSTYLE_DIM_EXT1_LINETYPE
1070
   381
1005
16
1001
ACAD_DSTYLE_DIM_EXT2_LINETYPE
1070
   382
1005
16
0
ENDSEC
0
SECTION
2
OBJECTS
0
DICTIONARY
5
2a2
330
0
100
AcDbDictionary
280
0
281
1
3
ACAD_GROUP
350
2a3
3
ACAD_MLINESTYLE
350
2a4
0
DICTIONARY
5
2a3
330
0
100
AcDbDictionary
280
0
281
1
0
DICTIONARY
5
2a4
330
0
100
AcDbDictionary
280
0
281
1
3
Standard
350
18
0
MLINESTYLE
5
18
330
2a4
100
AcDbMlineStyle
2
Standard
70
0
3

62
256
51
90
52
90
71
2
49
-0.5
62
256
6
ByLayer
49
0.5
62
256
6
ByLayer
0
RASTERVARIABLES
5
290
330

100
AcDbRasterVariables
90
0
70
1
71
1
72
1
0
ENDSEC
0
EOF
