0
SECTION
2
HEADER
9
$ACADVER
1
AC1015
9
$DWGCODEPAGE
3
ANSI_1252
9
$HANDSEED
5
2b2
9
$ANGBASE
50
0
9
$ANGDIR
70
0
9
$ATTMODE
70
1
9
$AUNITS
70
0
9
$AUPREC
70
0
9
$CECOLOR
62
256
9
$CELTSCALE
40
1
9
$CELTYPE
6
ByLayer
9
$CELWEIGHT
370
18
9
$CLAYER
8
0
9
$CMLJUST
70
0
9
$CMLSCALE
40
1
9
$CMLSTYLE
2
Standard
9
$DIMSTYLE
2
Standard
9
$TEXTSIZE
40
0.2
9
$TEXTSTYLE
7
Standard
9
$LUNITS
70
2
9
$LUPREC
70
4
9
$EXTNAMES
290
1
9
$INSUNITS
70
4
9
$LTSCALE
40
1
9
$LWDISPLAY
290
1
9
$PDMODE
70
0
9
$PDSIZE
40
0
9
$PLINEGEN
70
0
0
ENDSEC
0
SECTION
2
CLASSES
0
CLASS
1
RASTERVARIABLES
2
AcDbRasterVariables
3
ISM
90
0
280
0
281
0
0
ENDSEC
0
SECTION
2
TABLES
0
TABLE
2
VPORT
5
2a8
100
AcDbSymbolTable
0
VPORT
5
1
100
AcDbSymbolTableRecord
100
AcDbViewportTableRecord
2
*Active
70
0
10
0
20
0
11
1
21
1
12
-1
22
1
13
0
23
0
14
0.5
24
0.5
15
10
25
10
16
0
26
0
36
1
17
0
27
0
37
0
0
ENDTAB
0
TABLE
2
LTYPE
5
2a9
100
AcDbSymbolTable
0
LTYPE
5
14
100
AcDbSymbolTableRecord
100
AcDbLinetypeTableRecord
70
0
2
ByBlock
3

72
65
73
0
40
0
0
LTYPE
5
15
100
AcDbSymbolTableRecord
100
AcDbLinetypeTableRecord
70
0
2
ByLayer
3

72
65
73
0
40
0
0
LTYPE
5
16
100
AcDbSymbolTableRecord
100
AcDbLinetypeTableRecord
70
0
2
Continuous
3
Solid line
72
65
73
0
40
0
0
LTYPE
5
6E
100
AcDbSymbolTableRecord
100
AcDbLinetypeTableRecord
70
0
2
CENTER
3
____ _ ____ _ ____ _ ____
72
65
73
4
40
47.5
49
22
74
0
49
-8.5
74
0
49
8.5
74
0
49
-8.5
74
0
0
LTYPE
5
6F
100
AcDbSymbolTableRecord
100
AcDbLinetypeTableRecord
70
0
2
DASHED
3
__ __ __ __ __ __ __ __ __
72
65
73
2
40
25.72
49
12.86
74
0
49
-12.86
74
0
0
ENDTAB
0
TABLE
2
LAYER
5
2aa
100
AcDbSymbolTable
0
LAYER
5
10
100
AcDbSymbolTableRecord
100
AcDbLayerTableRecord
2
0
70
0
62
7
6
Continuous
290
1
370
-3
390
0
0
LAYER
5
71
100
AcDbSymbolTableRecord
100
AcDbLayerTableRecord
2
80
70
0
62
-6
6
Continuous
290
1
370
-3
390
0
0
LAYER
5
73
100
AcDbSymbolTableRecord
100
AcDbLayerTableRecord
2
81
70
0
62
-3
6
Continuous
290
1
370
-3
390
0
0
LAYER
5
75
100
AcDbSymbolTableRecord
100
AcDbLayerTableRecord
2
1
70
0
62
4
6
Continuous
290
1
370
-3
390
0
0
LAYER
5
AC
100
AcDbSymbolTableRecord
100
AcDbLayerTableRecord
2
4
70
0
62
-2
6
CENTER
290
1
370
-3
390
0
0
LAYER
5
131
100
AcDbSymbolTableRecord
100
AcDbLayerTableRecord
2
Defpoints
70
0
62
7
6
Continuous
290
0
370
-3
390
0
0
LAYER
5
15E
100
AcDbSymbolTableRecord
100
AcDbLayerTableRecord
2
2
70
0
62
7
6
Continuous
290
1
370
-3
390
0
0
LAYER
5
294
100
AcDbSymbolTableRecord
100
AcDbLayerTableRecord
2
SK1
70
0
62
4
6
Continuous
290
1
370
-3
390
0
0
LAYER
5
295
100
AcDbSymbolTableRecord
100
AcDbLayerTableRecord
2
SK4
70
0
62
2
6
CENTER
290
1
370
-3
390
0
0
LAYER
5
296
100
AcDbSymbolTableRecord
100
AcDbLayerTableRecord
2
SK2
70
0
62
7
6
Continuous
290
1
370
-3
390
0
0
LAYER
5
297
100
AcDbSymbolTableRecord
100
AcDbLayerTableRecord
2
SK6
70
0
62
5
6
Continuous
290
1
370
-3
390
0
0
ENDTAB
0
TABLE
2
STYLE
5
2ab
100
AcDbSymbolTable
0
STYLE
5
11
100
AcDbSymbolTableRecord
100
AcDbTextStyleTableRecord
2
Standard
3
txt
70
0
71
0
40
0
41
1
42
0
50
0
0
STYLE
5
121
100
AcDbSymbolTableRecord
100
AcDbTextStyleTableRecord
2
iso_b_vert
3
simplex.shx
70
0
71
0
40
0
41
1
42
0
50
0
0
STYLE
5
122
100
AcDbSymbolTableRecord
100
AcDbTextStyleTableRecord
2
DWGDirectTextStyle
3
simplex
70
0
71
0
40
0
41
1
42
0
50
0
0
ENDTAB
0
TABLE
2
DIMSTYLE
5
2ac
100
AcDbSymbolTable
100
AcDbDimStyleTable
0
DIMSTYLE
105
27
100
AcDbSymbolTableRecord
100
AcDbDimStyleTableRecord
2
Standard
70
0
3
<>
41
0.18
42
0.0625
44
0.18
140
0.18
147
0.09
73
0
74
0
77
1
271
2
275
0
278
52
280
0
340
11
0
ENDTAB
0
TABLE
2
VIEW
5
2ad
100
AcDbSymbolTable
0
ENDTAB
0
TABLE
2
UCS
5
2ae
100
AcDbSymbolTable
0
ENDTAB
0
TABLE
2
APPID
5
2af
100
AcDbSymbolTable
0
APPID
5
12
100
AcDbSymbolTableRecord
100
AcDbRegAppTableRecord
2
ACAD
70
0
0
APPID
5
126
100
AcDbSymbolTableRecord
100
AcDbRegAppTableRecord
2
ACAD_DSTYLE_DIMBREAK
70
0
0
APPID
5
253
100
AcDbSymbolTableRecord
100
AcDbRegAppTableRecord
2
ACAD_DSTYLE_DIM_LINETYPE
70
0
0
APPID
5
254
100
AcDbSymbolTableRecord
100
AcDbRegAppTableRecord
2
ACAD_DSTYLE_DIM_EXT1_LINETYPE
70
0
0
APPID
5
255
100
AcDbSymbolTableRecord
100
AcDbRegAppTableRecord
2
ACAD_DSTYLE_DIM_EXT2_LINETYPE
70
0
0
APPID
5
290
100
AcDbSymbolTableRecord
100
AcDbRegAppTableRecord
2
ACAD_MLEADERVER
70
0
0
ENDTAB
0
TABLE
2
BLOCK_RECORD
5
2b0
100
AcDbSymbolTable
0
BLOCK_RECORD
5
1F
100
AcDbSymbolTableRecord
100
AcDbBlockTableRecord
2
*Model_Space
340
0
70
0
0
BLOCK_RECORD
5
1B
100
AcDbSymbolTableRecord
100
AcDbBlockTableRecord
2
*Paper_Space
340
0
70
0
0
BLOCK_RECORD
5
23
100
AcDbSymbolTableRecord
100
AcDbBlockTableRecord
2
*Paper_Space0
340
0
70
0
0
BLOCK_RECORD
5
128
100
AcDbSymbolTableRecord
100
AcDbBlockTableRecord
2
_Closed
340
0
70
0
0
BLOCK_RECORD
5
132
100
AcDbSymbolTableRecord
100
AcDbBlockTableRecord
2
*D2
340
0
70
0
0
BLOCK_RECORD
5
13E
100
AcDbSymbolTableRecord
100
AcDbBlockTableRecord
2
_U0
340
0
70
0
0
BLOCK_RECORD
5
150
100
AcDbSymbolTableRecord
100
AcDbBlockTableRecord
2
*D4
340
0
70
0
0
BLOCK_RECORD
5
15F
100
AcDbSymbolTableRecord
100
AcDbBlockTableRecord
2
_U1
340
0
70
0
0
BLOCK_RECORD
5
16F
100
AcDbSymbolTableRecord
100
AcDbBlockTableRecord
2
*D6
340
0
70
0
0
BLOCK_RECORD
5
17D
100
AcDbSymbolTableRecord
100
AcDbBlockTableRecord
2
_U2
340
0
70
0
0
BLOCK_RECORD
5
18D
100
AcDbSymbolTableRecord
100
AcDbBlockTableRecord
2
*D8
340
0
70
0
0
BLOCK_RECORD
5
19B
100
AcDbSymbolTableRecord
100
AcDbBlockTableRecord
2
_U3
340
0
70
0
0
BLOCK_RECORD
5
1AB
100
AcDbSymbolTableRecord
100
AcDbBlockTableRecord
2
*D10
340
0
70
0
0
BLOCK_RECORD
5
1B7
100
AcDbSymbolTableRecord
100
AcDbBlockTableRecord
2
_U4
340
0
70
0
0
BLOCK_RECORD
5
1C7
100
AcDbSymbolTableRecord
100
AcDbBlockTableRecord
2
*D12
340
0
70
0
0
BLOCK_RECORD
5
1D3
100
AcDbSymbolTableRecord
100
AcDbBlockTableRecord
2
_U5
340
0
70
0
0
BLOCK_RECORD
5
1E3
100
AcDbSymbolTableRecord
100
AcDbBlockTableRecord
2
*D14
340
0
70
0
0
BLOCK_RECORD
5
1EF
100
AcDbSymbolTableRecord
100
AcDbBlockTableRecord
2
_U6
340
0
70
0
0
BLOCK_RECORD
5
1FF
100
AcDbSymbolTableRecord
100
AcDbBlockTableRecord
2
*D16
340
0
70
0
0
BLOCK_RECORD
5
20B
100
AcDbSymbolTableRecord
100
AcDbBlockTableRecord
2
_U7
340
0
70
0
0
BLOCK_RECORD
5
21B
100
AcDbSymbolTableRecord
100
AcDbBlockTableRecord
2
*D18
340
0
70
0
0
BLOCK_RECORD
5
228
100
AcDbSymbolTableRecord
100
AcDbBlockTableRecord
2
_U8
340
0
70
0
0
ENDTAB
0
ENDSEC
0
SECTION
2
BLOCKS
0
BLOCK
5
20
100
AcDbEntity
8
0
100
AcDbBlockBegin
2
*Model_Space
70
0
10
0
20
0
30
0
3
*Model_Space
0
ENDBLK
5
21
100
AcDbEntity
8
0
100
AcDbBlockEnd
0
BLOCK
5
1C
100
AcDbEntity
8
0
100
AcDbBlockBegin
2
*Paper_Space
70
0
10
0
20
0
30
0
3
*Paper_Space
0
ENDBLK
5
1D
100
AcDbEntity
8
0
100
AcDbBlockEnd
0
BLOCK
5
24
100
AcDbEntity
8
0
100
AcDbBlockBegin
2
*Paper_Space0
70
0
10
0
20
0
30
0
3
*Paper_Space0
0
ENDBLK
5
25
100
AcDbEntity
8
0
100
AcDbBlockEnd
0
BLOCK
5
129
100
AcDbEntity
8
0
100
AcDbBlockBegin
2
_Closed
70
0
10
0
20
0
30
0
3
_Closed
0
LINE
5
12B
100
AcDbEntity
8
0
62
256
6
ByLayer
370
-2
48
1
60
0
100
AcDbLine
10
-1
20
0.166667
30
0
11
0
21
0
31
0
39
0
210
0
220
0
230
1
0
LINE
5
12C
100
AcDbEntity
8
0
62
256
6
ByLayer
370
-2
48
1
60
0
100
AcDbLine
10
0
20
0
30
0
11
-1
21
-0.166667
31
0
39
0
210
0
220
0
230
1
0
LINE
5
12D
100
AcDbEntity
8
0
62
256
6
ByLayer
370
-2
48
1
60
0
100
AcDbLine
10
-1
20
0.166667
30
0
11
-1
21
-0.166667
31
0
39
0
210
0
220
0
230
1
0
LINE
5
12E
100
AcDbEntity
8
0
62
256
6
ByLayer
370
-2
48
1
60
0
100
AcDbLine
10
0
20
0
30
0
11
-1
21
0
31
0
39
0
210
0
220
0
230
1
0
ENDBLK
5
12A
100
AcDbEntity
8
0
100
AcDbBlockEnd
0
BLOCK
5
133
100
AcDbEntity
8
0
100
AcDbBlockBegin
2
*D2
70
1
10
0
20
0
30
0
3
*D2
0
LINE
5
135
100
AcDbEntity
8
0
62
256
6
ByLayer
370
-2
48
1
60
0
100
AcDbLine
10
0
20
-6.5875
30
0
11
0
21
-31.67512
31
0
39
0
210
0
220
0
230
1
0
LINE
5
136
100
AcDbEntity
8
0
62
256
6
ByLayer
370
-2
48
1
60
0
100
AcDbLine
10
49
20
-1.5875
30
0
11
49
21
-31.67512
31
0
39
0
210
0
220
0
230
1
0
LINE
5
137
100
AcDbEntity
8
0
62
256
6
ByLayer
370
-2
48
1
60
0
100
AcDbLine
10
3.175
20
-28.50012
30
0
11
45.825
21
-28.50012
31
0
39
0
210
0
220
0
230
1
0
SOLID
5
138
100
AcDbEntity
8
0
62
256
6
ByLayer
370
-1
48
1
60
0
100
AcDbTrace
10
3.175
20
-27.970953
30
0
11
3.175
21
-29.029287
31
0
12
0
22
-28.50012
32
0
13
0
23
-28.50012
33
0
39
0
210
0
220
0
230
1
0
SOLID
5
139
100
AcDbEntity
8
0
62
256
6
ByLayer
370
-1
48
1
60
0
100
AcDbTrace
10
45.825
20
-29.029287
30
0
11
45.825
21
-27.970953
31
0
12
49
22
-28.50012
32
0
13
49
23
-28.50012
33
0
39
0
210
0
220
0
230
1
0
MTEXT
5
13A
100
AcDbEntity
8
0
62
256
6
ByLayer
370
18
48
1
60
0
100
AcDbMText
10
24.5
20
-21.193619
30
0
210
0
220
0
230
1
1
\A1;49
40
3.50012
41
0
44
1
50
0
71
5
72
5
7
iso_b_vert
0
POINT
5
13B
100
AcDbEntity
8
Defpoints
62
0
6
ByLayer
370
-1
48
1
60
0
100
AcDbPoint
10
0
20
-5
30
0
39
0
210
0
220
0
230
1
50
360
0
POINT
5
13C
100
AcDbEntity
8
Defpoints
62
0
6
ByLayer
370
-1
48
1
60
0
100
AcDbPoint
10
49
20
0
30
0
39
0
210
0
220
0
230
1
50
360
0
POINT
5
13D
100
AcDbEntity
8
Defpoints
62
0
6
ByLayer
370
-1
48
1
60
0
100
AcDbPoint
10
49
20
-28.50012
30
0
39
0
210
0
220
0
230
1
50
360
0
ENDBLK
5
134
100
AcDbEntity
8
0
100
AcDbBlockEnd
0
BLOCK
5
14B
100
AcDbEntity
8
0
100
AcDbBlockBegin
2
_U0
70
0
10
0
20
0
30
0
3
_U0
0
MTEXT
5
13F
100
AcDbEntity
8
SK2
62
256
6
ByLayer
370
18
48
1
60
0
100
AcDbMText
10
19.086116
20
-27.467451
30
0
210
0
220
0
230
1
1
\W0.7694;49.00
40
3.50012
41
0
44
1.084337
50
0
71
7
72
5
7
iso_b_vert
0
MTEXT
5
140
100
AcDbEntity
8
SK2
62
256
6
ByLayer
370
18
48
1
60
0
100
AcDbMText
10
15.560056
20
-27.400814
30
0
210
0
220
0
230
1
1
\W0.1790;(
40
3.175
41
0
44
1.084337
50
0
71
7
72
5
7
iso_b_vert
0
MTEXT
5
141
100
AcDbEntity
8
SK2
62
256
6
ByLayer
370
18
48
1
60
0
100
AcDbMText
10
33.442666
20
-27.400814
30
0
210
0
220
0
230
1
1
\W0.1969;)
40
3.175
41
0
44
1.084337
50
0
71
7
72
5
7
iso_b_vert
0
LINE
5
142
100
AcDbEntity
8
SK2
62
256
6
ByLayer
370
13
48
1
60
0
100
AcDbLine
10
0
20
-6.5875
30
0
11
0
21
-31.67512
31
0
39
0
210
0
220
0
230
1
0
LINE
5
143
100
AcDbEntity
8
SK2
62
256
6
ByLayer
370
13
48
1
60
0
100
AcDbLine
10
49
20
-1.5875
30
0
11
49
21
-31.67512
31
0
39
0
210
0
220
0
230
1
0
LINE
5
144
100
AcDbEntity
8
SK2
62
256
6
ByLayer
370
13
48
1
60
0
100
AcDbLine
10
0
20
-28.50012
30
0
11
49
21
-28.50012
31
0
39
0
210
0
220
0
230
1
0
LINE
5
145
100
AcDbEntity
8
SK2
62
256
6
ByLayer
370
13
48
1
60
0
100
AcDbLine
10
0
20
-28.50012
30
0
11
3.174998
21
-28.082123
31
0
39
0
210
0
220
0
230
1
0
LINE
5
146
100
AcDbEntity
8
SK2
62
256
6
ByLayer
370
13
48
1
60
0
100
AcDbLine
10
0
20
-28.50012
30
0
11
3.175002
21
-28.918117
31
0
39
0
210
0
220
0
230
1
0
LINE
5
147
100
AcDbEntity
8
SK2
62
256
6
ByLayer
370
13
48
1
60
0
100
AcDbLine
10
3.174998
20
-28.082123
30
0
11
3.175002
21
-28.918117
31
0
39
0
210
0
220
0
230
1
0
LINE
5
148
100
AcDbEntity
8
SK2
62
256
6
ByLayer
370
13
48
1
60
0
100
AcDbLine
10
49
20
-28.50012
30
0
11
45.825002
21
-28.918117
31
0
39
0
210
0
220
0
230
1
0
LINE
5
149
100
AcDbEntity
8
SK2
62
256
6
ByLayer
370
13
48
1
60
0
100
AcDbLine
10
49
20
-28.50012
30
0
11
45.824998
21
-28.082123
31
0
39
0
210
0
220
0
230
1
0
LINE
5
14A
100
AcDbEntity
8
SK2
62
256
6
ByLayer
370
13
48
1
60
0
100
AcDbLine
10
45.825002
20
-28.918117
30
0
11
45.824998
21
-28.082123
31
0
39
0
210
0
220
0
230
1
0
ENDBLK
5
14C
100
AcDbEntity
8
0
100
AcDbBlockEnd
0
BLOCK
5
151
100
AcDbEntity
8
0
100
AcDbBlockBegin
2
*D4
70
1
10
0
20
0
30
0
3
*D4
0
LINE
5
153
100
AcDbEntity
8
0
62
256
6
ByLayer
370
-2
48
1
60
0
100
AcDbLine
10
49.3409
20
-3.425
30
0
11
58.92506
21
-3.425
31
0
39
0
210
0
220
0
230
1
0
LINE
5
154
100
AcDbEntity
8
0
62
256
6
ByLayer
370
-2
48
1
60
0
100
AcDbLine
10
49.3409
20
3.425
30
0
11
58.92506
21
3.425
31
0
39
0
210
0
220
0
230
1
0
LINE
5
155
100
AcDbEntity
8
0
62
256
6
ByLayer
370
-2
48
1
60
0
100
AcDbLine
10
55.75006
20
3.425
30
0
11
55.75006
21
27.888121
31
0
39
0
210
0
220
0
230
1
0
LINE
5
156
100
AcDbEntity
8
0
62
256
6
ByLayer
370
-2
48
1
60
0
100
AcDbLine
10
55.75006
20
-6.6
30
0
11
55.75006
21
-9.775
31
0
39
0
210
0
220
0
230
1
0
LINE
5
157
100
AcDbEntity
8
0
62
256
6
ByLayer
370
-2
48
1
60
0
100
AcDbLine
10
55.75006
20
6.6
30
0
11
55.75006
21
9.775
31
0
39
0
210
0
220
0
230
1
0
SOLID
5
158
100
AcDbEntity
8
0
62
256
6
ByLayer
370
-1
48
1
60
0
100
AcDbTrace
10
56.279227
20
-6.6
30
0
11
55.220893
21
-6.6
31
0
12
55.75006
22
-3.425
32
0
13
55.75006
23
-3.425
33
0
39
0
210
0
220
0
230
1
0
SOLID
5
159
100
AcDbEntity
8
0
62
256
6
ByLayer
370
-1
48
1
60
0
100
AcDbTrace
10
55.220893
20
6.6
30
0
11
56.279227
21
6.6
31
0
12
55.75006
22
3.425
32
0
13
55.75006
23
3.425
33
0
39
0
210
0
220
0
230
1
0
MTEXT
5
15A
100
AcDbEntity
8
0
62
256
6
ByLayer
370
18
48
1
60
0
100
AcDbMText
10
48.443559
20
18.831561
30
0
210
0
220
0
230
1
1
\A1;6.9
40
3.50012
41
0
44
1
50
90
71
5
72
5
7
iso_b_vert
0
POINT
5
15B
100
AcDbEntity
8
Defpoints
62
0
6
ByLayer
370
-1
48
1
60
0
100
AcDbPoint
10
47.7534
20
-3.425
30
0
39
0
210
0
220
0
230
1
50
360
0
POINT
5
15C
100
AcDbEntity
8
Defpoints
62
0
6
ByLayer
370
-1
48
1
60
0
100
AcDbPoint
10
47.7534
20
3.425
30
0
39
0
210
0
220
0
230
1
50
360
0
POINT
5
15D
100
AcDbEntity
8
Defpoints
62
0
6
ByLayer
370
-1
48
1
60
0
100
AcDbPoint
10
55.75006
20
3.425
30
0
39
0
210
0
220
0
230
1
50
360
0
ENDBLK
5
152
100
AcDbEntity
8
0
100
AcDbBlockEnd
0
BLOCK
5
16A
100
AcDbEntity
8
0
100
AcDbBlockBegin
2
_U1
70
0
10
0
20
0
30
0
3
_U1
0
MTEXT
5
160
100
AcDbEntity
8
2
62
256
6
ByLayer
370
18
48
1
60
0
100
AcDbMText
10
55.060403
20
7.582505
30
0
210
0
220
0
230
1
1
\W0.7346;6.85
40
3.50012
41
0
44
1.084337
50
90
71
7
72
5
7
iso_b_vert
0
LINE
5
161
100
AcDbEntity
8
2
62
256
6
ByLayer
370
13
48
1
60
0
100
AcDbLine
10
49.3409
20
-3.425
30
0
11
58.92506
21
-3.425
31
0
39
0
210
0
220
0
230
1
0
LINE
5
162
100
AcDbEntity
8
2
62
256
6
ByLayer
370
13
48
1
60
0
100
AcDbLine
10
49.3409
20
3.425
30
0
11
58.92506
21
3.425
31
0
39
0
210
0
220
0
230
1
0
LINE
5
163
100
AcDbEntity
8
2
62
256
6
ByLayer
370
13
48
1
60
0
100
AcDbLine
10
55.75006
20
-3.425
30
0
11
55.75006
21
15.63968
31
0
39
0
210
0
220
0
230
1
0
LINE
5
164
100
AcDbEntity
8
2
62
256
6
ByLayer
370
13
48
1
60
0
100
AcDbLine
10
55.75006
20
-3.425
30
0
11
55.332063
21
-0.250002
31
0
39
0
210
0
220
0
230
1
0
LINE
5
165
100
AcDbEntity
8
2
62
256
6
ByLayer
370
13
48
1
60
0
100
AcDbLine
10
55.75006
20
-3.425
30
0
11
56.168057
21
-0.249998
31
0
39
0
210
0
220
0
230
1
0
LINE
5
166
100
AcDbEntity
8
2
62
256
6
ByLayer
370
13
48
1
60
0
100
AcDbLine
10
55.332063
20
-0.250002
30
0
11
56.168057
21
-0.249998
31
0
39
0
210
0
220
0
230
1
0
LINE
5
167
100
AcDbEntity
8
2
62
256
6
ByLayer
370
13
48
1
60
0
100
AcDbLine
10
55.75006
20
3.425
30
0
11
56.168057
21
0.250002
31
0
39
0
210
0
220
0
230
1
0
LINE
5
168
100
AcDbEntity
8
2
62
256
6
ByLayer
370
13
48
1
60
0
100
AcDbLine
10
55.75006
20
3.425
30
0
11
55.332063
21
0.249998
31
0
39
0
210
0
220
0
230
1
0
LINE
5
169
100
AcDbEntity
8
2
62
256
6
ByLayer
370
13
48
1
60
0
100
AcDbLine
10
56.168057
20
0.250002
30
0
11
55.332063
21
0.249998
31
0
39
0
210
0
220
0
230
1
0
ENDBLK
5
16B
100
AcDbEntity
8
0
100
AcDbBlockEnd
0
BLOCK
5
170
100
AcDbEntity
8
0
100
AcDbBlockBegin
2
*D6
70
1
10
0
20
0
30
0
3
*D6
0
LINE
5
172
100
AcDbEntity
8
0
62
256
6
ByLayer
370
-2
48
1
60
0
100
AcDbLine
10
-41.5875
20
5
30
0
11
-46.42494
21
5
31
0
39
0
210
0
220
0
230
1
0
LINE
5
173
100
AcDbEntity
8
0
62
256
6
ByLayer
370
-2
48
1
60
0
100
AcDbLine
10
-41.5875
20
-5
30
0
11
-46.42494
21
-5
31
0
39
0
210
0
220
0
230
1
0
LINE
5
174
100
AcDbEntity
8
0
62
256
6
ByLayer
370
-2
48
1
60
0
100
AcDbLine
10
-43.24994
20
5
30
0
11
-43.24994
21
28.117532
31
0
39
0
210
0
220
0
230
1
0
LINE
5
175
100
AcDbEntity
8
0
62
256
6
ByLayer
370
-2
48
1
60
0
100
AcDbLine
10
-43.24994
20
8.175
30
0
11
-43.24994
21
11.35
31
0
39
0
210
0
220
0
230
1
0
LINE
5
176
100
AcDbEntity
8
0
62
256
6
ByLayer
370
-2
48
1
60
0
100
AcDbLine
10
-43.24994
20
-8.175
30
0
11
-43.24994
21
-11.35
31
0
39
0
210
0
220
0
230
1
0
SOLID
5
177
100
AcDbEntity
8
0
62
256
6
ByLayer
370
-1
48
1
60
0
100
AcDbTrace
10
-43.779107
20
8.175
30
0
11
-42.720773
21
8.175
31
0
12
-43.24994
22
5
32
0
13
-43.24994
23
5
33
0
39
0
210
0
220
0
230
1
0
SOLID
5
178
100
AcDbEntity
8
0
62
256
6
ByLayer
370
-1
48
1
60
0
100
AcDbTrace
10
-42.720773
20
-8.175
30
0
11
-43.779107
21
-8.175
31
0
12
-43.24994
22
-5
32
0
13
-43.24994
23
-5
33
0
39
0
210
0
220
0
230
1
0
MTEXT
5
179
100
AcDbEntity
8
0
62
256
6
ByLayer
370
18
48
1
60
0
100
AcDbMText
10
-50.556441
20
19.97767
30
0
210
0
220
0
230
1
1
\A1;10
40
3.50012
41
0
44
1
50
90
71
5
72
5
7
iso_b_vert
0
POINT
5
17A
100
AcDbEntity
8
Defpoints
62
0
6
ByLayer
370
-1
48
1
60
0
100
AcDbPoint
10
-40
20
5
30
0
39
0
210
0
220
0
230
1
50
360
0
POINT
5
17B
100
AcDbEntity
8
Defpoints
62
0
6
ByLayer
370
-1
48
1
60
0
100
AcDbPoint
10
-40
20
-5
30
0
39
0
210
0
220
0
230
1
50
360
0
POINT
5
17C
100
AcDbEntity
8
Defpoints
62
0
6
ByLayer
370
-1
48
1
60
0
100
AcDbPoint
10
-43.24994
20
-5
30
0
39
0
210
0
220
0
230
1
50
360
0
ENDBLK
5
171
100
AcDbEntity
8
0
100
AcDbBlockEnd
0
BLOCK
5
188
100
AcDbEntity
8
0
100
AcDbBlockBegin
2
_U2
70
0
10
0
20
0
30
0
3
_U2
0
MTEXT
5
17E
100
AcDbEntity
8
SK2
62
256
6
ByLayer
370
18
48
1
60
0
100
AcDbMText
10
-43.939597
20
15.157505
30
0
210
0
220
0
230
1
1
\W0.6864;10.00
40
3.50012
41
0
44
1.084337
50
90
71
7
72
5
7
iso_b_vert
0
LINE
5
17F
100
AcDbEntity
8
SK2
62
256
6
ByLayer
370
13
48
1
60
0
100
AcDbLine
10
-41.5875
20
5
30
0
11
-46.42494
21
5
31
0
39
0
210
0
220
0
230
1
0
LINE
5
180
100
AcDbEntity
8
SK2
62
256
6
ByLayer
370
13
48
1
60
0
100
AcDbLine
10
-41.5875
20
-5
30
0
11
-46.42494
21
-5
31
0
39
0
210
0
220
0
230
1
0
LINE
5
181
100
AcDbEntity
8
SK2
62
256
6
ByLayer
370
13
48
1
60
0
100
AcDbLine
10
-43.24994
20
-5
30
0
11
-43.24994
21
24.955339
31
0
39
0
210
0
220
0
230
1
0
LINE
5
182
100
AcDbEntity
8
SK2
62
256
6
ByLayer
370
13
48
1
60
0
100
AcDbLine
10
-43.24994
20
5
30
0
11
-42.831943
21
1.825002
31
0
39
0
210
0
220
0
230
1
0
LINE
5
183
100
AcDbEntity
8
SK2
62
256
6
ByLayer
370
13
48
1
60
0
100
AcDbLine
10
-43.24994
20
5
30
0
11
-43.667937
21
1.824998
31
0
39
0
210
0
220
0
230
1
0
LINE
5
184
100
AcDbEntity
8
SK2
62
256
6
ByLayer
370
13
48
1
60
0
100
AcDbLine
10
-42.831943
20
1.825002
30
0
11
-43.667937
21
1.824998
31
0
39
0
210
0
220
0
230
1
0
LINE
5
185
100
AcDbEntity
8
SK2
62
256
6
ByLayer
370
13
48
1
60
0
100
AcDbLine
10
-43.24994
20
-5
30
0
11
-43.667937
21
-1.825002
31
0
39
0
210
0
220
0
230
1
0
LINE
5
186
100
AcDbEntity
8
SK2
62
256
6
ByLayer
370
13
48
1
60
0
100
AcDbLine
10
-43.24994
20
-5
30
0
11
-42.831943
21
-1.824998
31
0
39
0
210
0
220
0
230
1
0
LINE
5
187
100
AcDbEntity
8
SK2
62
256
6
ByLayer
370
13
48
1
60
0
100
AcDbLine
10
-43.667937
20
-1.825002
30
0
11
-42.831943
21
-1.824998
31
0
39
0
210
0
220
0
230
1
0
ENDBLK
5
189
100
AcDbEntity
8
0
100
AcDbBlockEnd
0
BLOCK
5
18E
100
AcDbEntity
8
0
100
AcDbBlockBegin
2
*D8
70
1
10
0
20
0
30
0
3
*D8
0
LINE
5
190
100
AcDbEntity
8
0
62
256
6
ByLayer
370
-2
48
1
60
0
100
AcDbLine
10
26.4784
20
4.6
30
0
11
65.35012
21
4.6
31
0
39
0
210
0
220
0
230
1
0
LINE
5
191
100
AcDbEntity
8
0
62
256
6
ByLayer
370
-2
48
1
60
0
100
AcDbLine
10
26.4784
20
-4.6
30
0
11
65.35012
21
-4.6
31
0
39
0
210
0
220
0
230
1
0
LINE
5
192
100
AcDbEntity
8
0
62
256
6
ByLayer
370
-2
48
1
60
0
100
AcDbLine
10
64.35012
20
4.6
30
0
11
64.35012
21
40.086411
31
0
39
0
210
0
220
0
230
1
0
LINE
5
193
100
AcDbEntity
8
0
62
256
6
ByLayer
370
-2
48
1
60
0
100
AcDbLine
10
64.35012
20
7.6
30
0
11
64.35012
21
10.6
31
0
39
0
210
0
220
0
230
1
0
LINE
5
194
100
AcDbEntity
8
0
62
256
6
ByLayer
370
-2
48
1
60
0
100
AcDbLine
10
64.35012
20
-7.6
30
0
11
64.35012
21
-10.6
31
0
39
0
210
0
220
0
230
1
0
SOLID
5
195
100
AcDbEntity
8
0
62
256
6
ByLayer
370
-1
48
1
60
0
100
AcDbTrace
10
63.85012
20
7.6
30
0
11
64.85012
21
7.6
31
0
12
64.35012
22
4.6
32
0
13
64.35012
23
4.6
33
0
39
0
210
0
220
0
230
1
0
SOLID
5
196
100
AcDbEntity
8
0
62
256
6
ByLayer
370
-1
48
1
60
0
100
AcDbTrace
10
64.85012
20
-7.6
30
0
11
63.85012
21
-7.6
31
0
12
64.35012
22
-4.6
32
0
13
64.35012
23
-4.6
33
0
39
0
210
0
220
0
230
1
0
MTEXT
5
197
100
AcDbEntity
8
0
62
256
6
ByLayer
370
18
48
1
60
0
100
AcDbMText
10
51.523647
20
25.343206
30
0
210
0
220
0
230
1
1
\A1;9.2
40
3.50012
41
0
44
1
50
90
71
5
72
5
7
iso_b_vert
0
POINT
5
198
100
AcDbEntity
8
Defpoints
62
0
6
ByLayer
370
-1
48
1
60
0
100
AcDbPoint
10
25.9784
20
4.6
30
0
39
0
210
0
220
0
230
1
50
360
0
POINT
5
199
100
AcDbEntity
8
Defpoints
62
0
6
ByLayer
370
-1
48
1
60
0
100
AcDbPoint
10
25.9784
20
-4.6
30
0
39
0
210
0
220
0
230
1
50
360
0
POINT
5
19A
100
AcDbEntity
8
Defpoints
62
0
6
ByLayer
370
-1
48
1
60
0
100
AcDbPoint
10
64.35012
20
-4.6
30
0
39
0
210
0
220
0
230
1
50
360
0
ENDBLK
5
18F
100
AcDbEntity
8
0
100
AcDbBlockEnd
0
BLOCK
5
1A6
100
AcDbEntity
8
0
100
AcDbBlockBegin
2
_U3
70
0
10
0
20
0
30
0
3
_U3
0
MTEXT
5
19C
100
AcDbEntity
8
2
62
256
6
ByLayer
370
18
48
1
60
0
100
AcDbMText
10
63.660463
20
19.054939
30
0
210
0
220
0
230
1
1
\W0.7346;9.20
40
3.50012
41
0
44
1.084337
50
90
71
7
72
5
7
iso_b_vert
0
LINE
5
19D
100
AcDbEntity
8
2
62
256
6
ByLayer
370
13
48
1
60
0
100
AcDbLine
10
26.4784
20
4.6
30
0
11
65.35012
21
4.6
31
0
39
0
210
0
220
0
230
1
0
LINE
5
19E
100
AcDbEntity
8
2
62
256
6
ByLayer
370
13
48
1
60
0
100
AcDbLine
10
26.4784
20
-4.6
30
0
11
65.35012
21
-4.6
31
0
39
0
210
0
220
0
230
1
0
LINE
5
19F
100
AcDbEntity
8
2
62
256
6
ByLayer
370
13
48
1
60
0
100
AcDbLine
10
64.35012
20
-4.6
30
0
11
64.35012
21
27.112113
31
0
39
0
210
0
220
0
230
1
0
LINE
5
1A0
100
AcDbEntity
8
2
62
256
6
ByLayer
370
13
48
1
60
0
100
AcDbLine
10
64.35012
20
4.6
30
0
11
64.665433
21
1.600001
31
0
39
0
210
0
220
0
230
1
0
LINE
5
1A1
100
AcDbEntity
8
2
62
256
6
ByLayer
370
13
48
1
60
0
100
AcDbLine
10
64.35012
20
4.6
30
0
11
64.034807
21
1.599999
31
0
39
0
210
0
220
0
230
1
0
LINE
5
1A2
100
AcDbEntity
8
2
62
256
6
ByLayer
370
13
48
1
60
0
100
AcDbLine
10
64.665433
20
1.600001
30
0
11
64.034807
21
1.599999
31
0
39
0
210
0
220
0
230
1
0
LINE
5
1A3
100
AcDbEntity
8
2
62
256
6
ByLayer
370
13
48
1
60
0
100
AcDbLine
10
64.35012
20
-4.6
30
0
11
64.034807
21
-1.600001
31
0
39
0
210
0
220
0
230
1
0
LINE
5
1A4
100
AcDbEntity
8
2
62
256
6
ByLayer
370
13
48
1
60
0
100
AcDbLine
10
64.35012
20
-4.6
30
0
11
64.665433
21
-1.599999
31
0
39
0
210
0
220
0
230
1
0
LINE
5
1A5
100
AcDbEntity
8
2
62
256
6
ByLayer
370
13
48
1
60
0
100
AcDbLine
10
64.034807
20
-1.600001
30
0
11
64.665433
21
-1.599999
31
0
39
0
210
0
220
0
230
1
0
ENDBLK
5
1A7
100
AcDbEntity
8
0
100
AcDbBlockEnd
0
BLOCK
5
1AC
100
AcDbEntity
8
0
100
AcDbBlockBegin
2
*D10
70
1
10
0
20
0
30
0
3
*D10
0
LINE
5
1AE
100
AcDbEntity
8
0
62
256
6
ByLayer
370
-2
48
1
60
0
100
AcDbLine
10
-40
20
-6.5875
30
0
11
-40
21
-31.67512
31
0
39
0
210
0
220
0
230
1
0
LINE
5
1AF
100
AcDbEntity
8
0
62
256
6
ByLayer
370
-2
48
1
60
0
100
AcDbLine
10
0
20
-6.5875
30
0
11
0
21
-31.67512
31
0
39
0
210
0
220
0
230
1
0
LINE
5
1B0
100
AcDbEntity
8
0
62
256
6
ByLayer
370
-2
48
1
60
0
100
AcDbLine
10
-36.825
20
-28.50012
30
0
11
-3.175
21
-28.50012
31
0
39
0
210
0
220
0
230
1
0
SOLID
5
1B1
100
AcDbEntity
8
0
62
256
6
ByLayer
370
-1
48
1
60
0
100
AcDbTrace
10
-36.825
20
-27.970953
30
0
11
-36.825
21
-29.029287
31
0
12
-40
22
-28.50012
32
0
13
-40
23
-28.50012
33
0
39
0
210
0
220
0
230
1
0
SOLID
5
1B2
100
AcDbEntity
8
0
62
256
6
ByLayer
370
-1
48
1
60
0
100
AcDbTrace
10
-3.175
20
-29.029287
30
0
11
-3.175
21
-27.970953
31
0
12
0
22
-28.50012
32
0
13
0
23
-28.50012
33
0
39
0
210
0
220
0
230
1
0
MTEXT
5
1B3
100
AcDbEntity
8
0
62
256
6
ByLayer
370
18
48
1
60
0
100
AcDbMText
10
-20
20
-21.193619
30
0
210
0
220
0
230
1
1
\A1;40
40
3.50012
41
0
44
1
50
0
71
5
72
5
7
iso_b_vert
0
POINT
5
1B4
100
AcDbEntity
8
Defpoints
62
0
6
ByLayer
370
-1
48
1
60
0
100
AcDbPoint
10
-40
20
-5
30
0
39
0
210
0
220
0
230
1
50
360
0
POINT
5
1B5
100
AcDbEntity
8
Defpoints
62
0
6
ByLayer
370
-1
48
1
60
0
100
AcDbPoint
10
0
20
-5
30
0
39
0
210
0
220
0
230
1
50
360
0
POINT
5
1B6
100
AcDbEntity
8
Defpoints
62
0
6
ByLayer
370
-1
48
1
60
0
100
AcDbPoint
10
0
20
-28.50012
30
0
39
0
210
0
220
0
230
1
50
360
0
ENDBLK
5
1AD
100
AcDbEntity
8
0
100
AcDbBlockEnd
0
BLOCK
5
1C2
100
AcDbEntity
8
0
100
AcDbBlockBegin
2
_U4
70
0
10
0
20
0
30
0
3
_U4
0
MTEXT
5
1B8
100
AcDbEntity
8
SK2
62
256
6
ByLayer
370
18
48
1
60
0
100
AcDbMText
10
-25.413884
20
-27.467451
30
0
210
0
220
0
230
1
1
\W0.7694;40.00
40
3.50012
41
0
44
1.084337
50
0
71
7
72
5
7
iso_b_vert
0
LINE
5
1B9
100
AcDbEntity
8
SK2
62
256
6
ByLayer
370
13
48
1
60
0
100
AcDbLine
10
-40
20
-6.5875
30
0
11
-40
21
-31.67512
31
0
39
0
210
0
220
0
230
1
0
LINE
5
1BA
100
AcDbEntity
8
SK2
62
256
6
ByLayer
370
13
48
1
60
0
100
AcDbLine
10
0
20
-6.5875
30
0
11
0
21
-31.67512
31
0
39
0
210
0
220
0
230
1
0
LINE
5
1BB
100
AcDbEntity
8
SK2
62
256
6
ByLayer
370
13
48
1
60
0
100
AcDbLine
10
-40
20
-28.50012
30
0
11
0
21
-28.50012
31
0
39
0
210
0
220
0
230
1
0
LINE
5
1BC
100
AcDbEntity
8
SK2
62
256
6
ByLayer
370
13
48
1
60
0
100
AcDbLine
10
-40
20
-28.50012
30
0
11
-36.825002
21
-28.082123
31
0
39
0
210
0
220
0
230
1
0
LINE
5
1BD
100
AcDbEntity
8
SK2
62
256
6
ByLayer
370
13
48
1
60
0
100
AcDbLine
10
-40
20
-28.50012
30
0
11
-36.824998
21
-28.918117
31
0
39
0
210
0
220
0
230
1
0
LINE
5
1BE
100
AcDbEntity
8
SK2
62
256
6
ByLayer
370
13
48
1
60
0
100
AcDbLine
10
-36.825002
20
-28.082123
30
0
11
-36.824998
21
-28.918117
31
0
39
0
210
0
220
0
230
1
0
LINE
5
1BF
100
AcDbEntity
8
SK2
62
256
6
ByLayer
370
13
48
1
60
0
100
AcDbLine
10
0
20
-28.50012
30
0
11
-3.174998
21
-28.918117
31
0
39
0
210
0
220
0
230
1
0
LINE
5
1C0
100
AcDbEntity
8
SK2
62
256
6
ByLayer
370
13
48
1
60
0
100
AcDbLine
10
0
20
-28.50012
30
0
11
-3.175002
21
-28.082123
31
0
39
0
210
0
220
0
230
1
0
LINE
5
1C1
100
AcDbEntity
8
SK2
62
256
6
ByLayer
370
13
48
1
60
0
100
AcDbLine
10
-3.174998
20
-28.918117
30
0
11
-3.175002
21
-28.082123
31
0
39
0
210
0
220
0
230
1
0
ENDBLK
5
1C3
100
AcDbEntity
8
0
100
AcDbBlockEnd
0
BLOCK
5
1C8
100
AcDbEntity
8
0
100
AcDbBlockBegin
2
*D12
70
1
10
0
20
0
30
0
3
*D12
0
LINE
5
1CA
100
AcDbEntity
8
0
62
256
6
ByLayer
370
-2
48
1
60
0
100
AcDbLine
10
12
20
2.3375
30
0
11
12
21
-22.92482
31
0
39
0
210
0
220
0
230
1
0
LINE
5
1CB
100
AcDbEntity
8
0
62
256
6
ByLayer
370
-2
48
1
60
0
100
AcDbLine
10
49
20
-1.5875
30
0
11
49
21
-22.92482
31
0
39
0
210
0
220
0
230
1
0
LINE
5
1CC
100
AcDbEntity
8
0
62
256
6
ByLayer
370
-2
48
1
60
0
100
AcDbLine
10
15.175
20
-19.74982
30
0
11
45.825
21
-19.74982
31
0
39
0
210
0
220
0
230
1
0
SOLID
5
1CD
100
AcDbEntity
8
0
62
256
6
ByLayer
370
-1
48
1
60
0
100
AcDbTrace
10
15.175
20
-19.220653
30
0
11
15.175
21
-20.278987
31
0
12
12
22
-19.74982
32
0
13
12
23
-19.74982
33
0
39
0
210
0
220
0
230
1
0
SOLID
5
1CE
100
AcDbEntity
8
0
62
256
6
ByLayer
370
-1
48
1
60
0
100
AcDbTrace
10
45.825
20
-20.278987
30
0
11
45.825
21
-19.220653
31
0
12
49
22
-19.74982
32
0
13
49
23
-19.74982
33
0
39
0
210
0
220
0
230
1
0
MTEXT
5
1CF
100
AcDbEntity
8
0
62
256
6
ByLayer
370
18
48
1
60
0
100
AcDbMText
10
30.5
20
-12.443319
30
0
210
0
220
0
230
1
1
\A1;37
40
3.50012
41
0
44
1
50
0
71
5
72
5
7
iso_b_vert
0
POINT
5
1D0
100
AcDbEntity
8
Defpoints
62
0
6
ByLayer
370
-1
48
1
60
0
100
AcDbPoint
10
12
20
3.925
30
0
39
0
210
0
220
0
230
1
50
360
0
POINT
5
1D1
100
AcDbEntity
8
Defpoints
62
0
6
ByLayer
370
-1
48
1
60
0
100
AcDbPoint
10
49
20
0
30
0
39
0
210
0
220
0
230
1
50
360
0
POINT
5
1D2
100
AcDbEntity
8
Defpoints
62
0
6
ByLayer
370
-1
48
1
60
0
100
AcDbPoint
10
49
20
-19.74982
30
0
39
0
210
0
220
0
230
1
50
360
0
ENDBLK
5
1C9
100
AcDbEntity
8
0
100
AcDbBlockEnd
0
BLOCK
5
1DE
100
AcDbEntity
8
0
100
AcDbBlockBegin
2
_U5
70
0
10
0
20
0
30
0
3
_U5
0
MTEXT
5
1D4
100
AcDbEntity
8
SK2
62
256
6
ByLayer
370
18
48
1
60
0
100
AcDbMText
10
25.270389
20
-18.717151
30
0
210
0
220
0
230
1
1
\W0.7468;37.00
40
3.50012
41
0
44
1.084337
50
0
71
7
72
5
7
iso_b_vert
0
LINE
5
1D5
100
AcDbEntity
8
SK2
62
256
6
ByLayer
370
13
48
1
60
0
100
AcDbLine
10
12
20
2.3375
30
0
11
12
21
-22.92482
31
0
39
0
210
0
220
0
230
1
0
LINE
5
1D6
100
AcDbEntity
8
SK2
62
256
6
ByLayer
370
13
48
1
60
0
100
AcDbLine
10
49
20
-1.5875
30
0
11
49
21
-22.92482
31
0
39
0
210
0
220
0
230
1
0
LINE
5
1D7
100
AcDbEntity
8
SK2
62
256
6
ByLayer
370
13
48
1
60
0
100
AcDbLine
10
12
20
-19.74982
30
0
11
49
21
-19.74982
31
0
39
0
210
0
220
0
230
1
0
LINE
5
1D8
100
AcDbEntity
8
SK2
62
256
6
ByLayer
370
13
48
1
60
0
100
AcDbLine
10
12
20
-19.74982
30
0
11
15.174998
21
-19.331823
31
0
39
0
210
0
220
0
230
1
0
LINE
5
1D9
100
AcDbEntity
8
SK2
62
256
6
ByLayer
370
13
48
1
60
0
100
AcDbLine
10
12
20
-19.74982
30
0
11
15.175002
21
-20.167817
31
0
39
0
210
0
220
0
230
1
0
LINE
5
1DA
100
AcDbEntity
8
SK2
62
256
6
ByLayer
370
13
48
1
60
0
100
AcDbLine
10
15.174998
20
-19.331823
30
0
11
15.175002
21
-20.167817
31
0
39
0
210
0
220
0
230
1
0
LINE
5
1DB
100
AcDbEntity
8
SK2
62
256
6
ByLayer
370
13
48
1
60
0
100
AcDbLine
10
49
20
-19.74982
30
0
11
45.825002
21
-20.167817
31
0
39
0
210
0
220
0
230
1
0
LINE
5
1DC
100
AcDbEntity
8
SK2
62
256
6
ByLayer
370
13
48
1
60
0
100
AcDbLine
10
49
20
-19.74982
30
0
11
45.824998
21
-19.331823
31
0
39
0
210
0
220
0
230
1
0
LINE
5
1DD
100
AcDbEntity
8
SK2
62
256
6
ByLayer
370
13
48
1
60
0
100
AcDbLine
10
45.825002
20
-20.167817
30
0
11
45.824998
21
-19.331823
31
0
39
0
210
0
220
0
230
1
0
ENDBLK
5
1DF
100
AcDbEntity
8
0
100
AcDbBlockEnd
0
BLOCK
5
1E4
100
AcDbEntity
8
0
100
AcDbBlockBegin
2
*D14
70
1
10
0
20
0
30
0
3
*D14
0
LINE
5
1E6
100
AcDbEntity
8
0
62
256
6
ByLayer
370
-2
48
1
60
0
100
AcDbLine
10
26
20
-5.0125
30
0
11
26
21
-12.32
31
0
39
0
210
0
220
0
230
1
0
LINE
5
1E7
100
AcDbEntity
8
0
62
256
6
ByLayer
370
-2
48
1
60
0
100
AcDbLine
10
49
20
-1.5875
30
0
11
49
21
-12.32
31
0
39
0
210
0
220
0
230
1
0
LINE
5
1E8
100
AcDbEntity
8
0
62
256
6
ByLayer
370
-2
48
1
60
0
100
AcDbLine
10
29.175
20
-11.82
30
0
11
45.825
21
-11.82
31
0
39
0
210
0
220
0
230
1
0
SOLID
5
1E9
100
AcDbEntity
8
0
62
256
6
ByLayer
370
-1
48
1
60
0
100
AcDbTrace
10
29.175
20
-11.290833
30
0
11
29.175
21
-12.349167
31
0
12
26
22
-11.82
32
0
13
26
23
-11.82
33
0
39
0
210
0
220
0
230
1
0
SOLID
5
1EA
100
AcDbEntity
8
0
62
256
6
ByLayer
370
-1
48
1
60
0
100
AcDbTrace
10
45.825
20
-12.349167
30
0
11
45.825
21
-11.290833
31
0
12
49
22
-11.82
32
0
13
49
23
-11.82
33
0
39
0
210
0
220
0
230
1
0
MTEXT
5
1EB
100
AcDbEntity
8
0
62
256
6
ByLayer
370
18
48
1
60
0
100
AcDbMText
10
37.5
20
-5.975
30
0
210
0
220
0
230
1
1
\A1;23
40
2.8
41
0
44
1
50
0
71
5
72
5
7
iso_b_vert
0
POINT
5
1EC
100
AcDbEntity
8
Defpoints
62
0
6
ByLayer
370
-1
48
1
60
0
100
AcDbPoint
10
26
20
-3.425
30
0
39
0
210
0
220
0
230
1
50
360
0
POINT
5
1ED
100
AcDbEntity
8
Defpoints
62
0
6
ByLayer
370
-1
48
1
60
0
100
AcDbPoint
10
49
20
0
30
0
39
0
210
0
220
0
230
1
50
360
0
POINT
5
1EE
100
AcDbEntity
8
Defpoints
62
0
6
ByLayer
370
-1
48
1
60
0
100
AcDbPoint
10
49
20
-11.82
30
0
39
0
210
0
220
0
230
1
50
360
0
ENDBLK
5
1E5
100
AcDbEntity
8
0
100
AcDbBlockEnd
0
BLOCK
5
1FA
100
AcDbEntity
8
0
100
AcDbBlockBegin
2
_U6
70
0
10
0
20
0
30
0
3
_U6
0
MTEXT
5
1F0
100
AcDbEntity
8
SK2
62
256
6
ByLayer
370
18
48
1
60
0
100
AcDbMText
10
33.316454
20
-11.973893
30
0
210
0
220
0
230
1
1
\W0.7468;23.00
40
2.8
41
0
44
1.084337
50
0
71
7
72
5
7
iso_b_vert
0
LINE
5
1F1
100
AcDbEntity
8
SK2
62
256
6
ByLayer
370
13
48
1
60
0
100
AcDbLine
10
26
20
-5.0125
30
0
11
26
21
-12.32
31
0
39
0
210
0
220
0
230
1
0
LINE
5
1F2
100
AcDbEntity
8
SK2
62
256
6
ByLayer
370
13
48
1
60
0
100
AcDbLine
10
49
20
-1.5875
30
0
11
49
21
-12.32
31
0
39
0
210
0
220
0
230
1
0
LINE
5
1F3
100
AcDbEntity
8
SK2
62
256
6
ByLayer
370
13
48
1
60
0
100
AcDbLine
10
26
20
-11.82
30
0
11
49
21
-11.82
31
0
39
0
210
0
220
0
230
1
0
LINE
5
1F4
100
AcDbEntity
8
SK2
62
256
6
ByLayer
370
13
48
1
60
0
100
AcDbLine
10
26
20
-11.82
30
0
11
29.174998
21
-11.402003
31
0
39
0
210
0
220
0
230
1
0
LINE
5
1F5
100
AcDbEntity
8
SK2
62
256
6
ByLayer
370
13
48
1
60
0
100
AcDbLine
10
26
20
-11.82
30
0
11
29.175002
21
-12.237997
31
0
39
0
210
0
220
0
230
1
0
LINE
5
1F6
100
AcDbEntity
8
SK2
62
256
6
ByLayer
370
13
48
1
60
0
100
AcDbLine
10
29.174998
20
-11.402003
30
0
11
29.175002
21
-12.237997
31
0
39
0
210
0
220
0
230
1
0
LINE
5
1F7
100
AcDbEntity
8
SK2
62
256
6
ByLayer
370
13
48
1
60
0
100
AcDbLine
10
49
20
-11.82
30
0
11
45.825002
21
-12.237997
31
0
39
0
210
0
220
0
230
1
0
LINE
5
1F8
100
AcDbEntity
8
SK2
62
256
6
ByLayer
370
13
48
1
60
0
100
AcDbLine
10
49
20
-11.82
30
0
11
45.824998
21
-11.402003
31
0
39
0
210
0
220
0
230
1
0
LINE
5
1F9
100
AcDbEntity
8
SK2
62
256
6
ByLayer
370
13
48
1
60
0
100
AcDbLine
10
45.825002
20
-12.237997
30
0
11
45.824998
21
-11.402003
31
0
39
0
210
0
220
0
230
1
0
ENDBLK
5
1FB
100
AcDbEntity
8
0
100
AcDbBlockEnd
0
BLOCK
5
200
100
AcDbEntity
8
0
100
AcDbBlockBegin
2
*D16
70
1
10
0
20
0
30
0
3
*D16
0
LINE
5
202
100
AcDbEntity
8
0
62
256
6
ByLayer
370
-2
48
1
60
0
100
AcDbLine
10
-40
20
-1.5875
30
0
11
-40
21
-41.67512
31
0
39
0
210
0
220
0
230
1
0
LINE
5
203
100
AcDbEntity
8
0
62
256
6
ByLayer
370
-2
48
1
60
0
100
AcDbLine
10
49
20
-1.5875
30
0
11
49
21
-41.67512
31
0
39
0
210
0
220
0
230
1
0
LINE
5
204
100
AcDbEntity
8
0
62
256
6
ByLayer
370
-2
48
1
60
0
100
AcDbLine
10
-36.825
20
-38.50012
30
0
11
45.825
21
-38.50012
31
0
39
0
210
0
220
0
230
1
0
SOLID
5
205
100
AcDbEntity
8
0
62
256
6
ByLayer
370
-1
48
1
60
0
100
AcDbTrace
10
-36.825
20
-37.970953
30
0
11
-36.825
21
-39.029287
31
0
12
-40
22
-38.50012
32
0
13
-40
23
-38.50012
33
0
39
0
210
0
220
0
230
1
0
SOLID
5
206
100
AcDbEntity
8
0
62
256
6
ByLayer
370
-1
48
1
60
0
100
AcDbTrace
10
45.825
20
-39.029287
30
0
11
45.825
21
-37.970953
31
0
12
49
22
-38.50012
32
0
13
49
23
-38.50012
33
0
39
0
210
0
220
0
230
1
0
MTEXT
5
207
100
AcDbEntity
8
0
62
256
6
ByLayer
370
18
48
1
60
0
100
AcDbMText
10
4.5
20
-31.19362
30
0
210
0
220
0
230
1
1
\A1;89
40
3.50012
41
0
44
1
50
0
71
5
72
5
7
iso_b_vert
0
POINT
5
208
100
AcDbEntity
8
Defpoints
62
0
6
ByLayer
370
-1
48
1
60
0
100
AcDbPoint
10
-40
20
0
30
0
39
0
210
0
220
0
230
1
50
360
0
POINT
5
209
100
AcDbEntity
8
Defpoints
62
0
6
ByLayer
370
-1
48
1
60
0
100
AcDbPoint
10
49
20
0
30
0
39
0
210
0
220
0
230
1
50
360
0
POINT
5
20A
100
AcDbEntity
8
Defpoints
62
0
6
ByLayer
370
-1
48
1
60
0
100
AcDbPoint
10
49
20
-38.50012
30
0
39
0
210
0
220
0
230
1
50
360
0
ENDBLK
5
201
100
AcDbEntity
8
0
100
AcDbBlockEnd
0
BLOCK
5
216
100
AcDbEntity
8
0
100
AcDbBlockBegin
2
_U7
70
0
10
0
20
0
30
0
3
_U7
0
MTEXT
5
20C
100
AcDbEntity
8
SK2
62
256
6
ByLayer
370
18
48
1
60
0
100
AcDbMText
10
-0.729611
20
-37.467451
30
0
210
0
220
0
230
1
1
\W0.7468;89.00
40
3.50012
41
0
44
1.084337
50
0
71
7
72
5
7
iso_b_vert
0
LINE
5
20D
100
AcDbEntity
8
SK2
62
256
6
ByLayer
370
13
48
1
60
0
100
AcDbLine
10
-40
20
-1.5875
30
0
11
-40
21
-41.67512
31
0
39
0
210
0
220
0
230
1
0
LINE
5
20E
100
AcDbEntity
8
SK2
62
256
6
ByLayer
370
13
48
1
60
0
100
AcDbLine
10
49
20
-1.5875
30
0
11
49
21
-41.67512
31
0
39
0
210
0
220
0
230
1
0
LINE
5
20F
100
AcDbEntity
8
SK2
62
256
6
ByLayer
370
13
48
1
60
0
100
AcDbLine
10
-40
20
-38.50012
30
0
11
49
21
-38.50012
31
0
39
0
210
0
220
0
230
1
0
LINE
5
210
100
AcDbEntity
8
SK2
62
256
6
ByLayer
370
13
48
1
60
0
100
AcDbLine
10
-40
20
-38.50012
30
0
11
-36.825002
21
-38.082123
31
0
39
0
210
0
220
0
230
1
0
LINE
5
211
100
AcDbEntity
8
SK2
62
256
6
ByLayer
370
13
48
1
60
0
100
AcDbLine
10
-40
20
-38.50012
30
0
11
-36.824998
21
-38.918117
31
0
39
0
210
0
220
0
230
1
0
LINE
5
212
100
AcDbEntity
8
SK2
62
256
6
ByLayer
370
13
48
1
60
0
100
AcDbLine
10
-36.825002
20
-38.082123
30
0
11
-36.824998
21
-38.918117
31
0
39
0
210
0
220
0
230
1
0
LINE
5
213
100
AcDbEntity
8
SK2
62
256
6
ByLayer
370
13
48
1
60
0
100
AcDbLine
10
49
20
-38.50012
30
0
11
45.825002
21
-38.918117
31
0
39
0
210
0
220
0
230
1
0
LINE
5
214
100
AcDbEntity
8
SK2
62
256
6
ByLayer
370
13
48
1
60
0
100
AcDbLine
10
49
20
-38.50012
30
0
11
45.824998
21
-38.082123
31
0
39
0
210
0
220
0
230
1
0
LINE
5
215
100
AcDbEntity
8
SK2
62
256
6
ByLayer
370
13
48
1
60
0
100
AcDbLine
10
45.825002
20
-38.918117
30
0
11
45.824998
21
-38.082123
31
0
39
0
210
0
220
0
230
1
0
ENDBLK
5
217
100
AcDbEntity
8
0
100
AcDbBlockEnd
0
BLOCK
5
21C
100
AcDbEntity
8
0
100
AcDbBlockBegin
2
*D18
70
1
10
0
20
0
30
0
3
*D18
0
LINE
5
21E
100
AcDbEntity
8
0
62
256
6
ByLayer
370
-2
48
1
60
0
100
AcDbLine
10
47.7534
20
3.925
30
0
11
47.7534
21
17.284773
31
0
39
0
210
0
220
0
230
1
0
LINE
5
21F
100
AcDbEntity
8
0
62
256
6
ByLayer
370
-2
48
1
60
0
100
AcDbLine
10
27.1534
20
3.925
30
0
11
27.1534
21
17.284773
31
0
39
0
210
0
220
0
230
1
0
LINE
5
220
100
AcDbEntity
8
0
62
256
6
ByLayer
370
-2
48
1
60
0
100
AcDbLine
10
50.7534
20
17.184773
30
0
11
53.7534
21
17.184773
31
0
39
0
210
0
220
0
230
1
0
LINE
5
221
100
AcDbEntity
8
0
62
256
6
ByLayer
370
-2
48
1
60
0
100
AcDbLine
10
24.1534
20
17.184773
30
0
11
21.1534
21
17.184773
31
0
39
0
210
0
220
0
230
1
0
SOLID
5
222
100
AcDbEntity
8
0
62
256
6
ByLayer
370
-1
48
1
60
0
100
AcDbTrace
10
50.7534
20
17.684773
30
0
11
50.7534
21
16.684773
31
0
12
47.7534
22
17.184773
32
0
13
47.7534
23
17.184773
33
0
39
0
210
0
220
0
230
1
0
SOLID
5
223
100
AcDbEntity
8
0
62
256
6
ByLayer
370
-1
48
1
60
0
100
AcDbTrace
10
24.1534
20
16.684773
30
0
11
24.1534
21
17.684773
31
0
12
27.1534
22
17.184773
32
0
13
27.1534
23
17.184773
33
0
39
0
210
0
220
0
230
1
0
MTEXT
5
224
100
AcDbEntity
8
0
62
256
6
ByLayer
370
18
48
1
60
0
100
AcDbMText
10
37.4534
20
27.4456
30
0
210
0
220
0
230
1
1
\A1;20.6
40
2.8
41
0
44
1
50
0
71
5
72
5
7
iso_b_vert
0
POINT
5
225
100
AcDbEntity
8
Defpoints
62
0
6
ByLayer
370
-1
48
1
60
0
100
AcDbPoint
10
47.7534
20
3.425
30
0
39
0
210
0
220
0
230
1
50
360
0
POINT
5
226
100
AcDbEntity
8
Defpoints
62
0
6
ByLayer
370
-1
48
1
60
0
100
AcDbPoint
10
27.1534
20
3.425
30
0
39
0
210
0
220
0
230
1
50
360
0
POINT
5
227
100
AcDbEntity
8
Defpoints
62
0
6
ByLayer
370
-1
48
1
60
0
100
AcDbPoint
10
27.1534
20
17.184773
30
0
39
0
210
0
220
0
230
1
50
360
0
ENDBLK
5
21D
100
AcDbEntity
8
0
100
AcDbBlockEnd
0
BLOCK
5
233
100
AcDbEntity
8
0
100
AcDbBlockBegin
2
_U8
70
0
10
0
20
0
30
0
3
_U8
0
MTEXT
5
229
100
AcDbEntity
8
SK2
62
256
6
ByLayer
370
18
48
1
60
0
100
AcDbMText
10
33.269854
20
17.03088
30
0
210
0
220
0
230
1
1
\W0.7468;20.60
40
2.8
41
0
44
1.084337
50
0
71
7
72
5
7
iso_b_vert
0
LINE
5
22A
100
AcDbEntity
8
SK2
62
256
6
ByLayer
370
13
48
1
60
0
100
AcDbLine
10
47.7534
20
3.925
30
0
11
47.7534
21
17.284773
31
0
39
0
210
0
220
0
230
1
0
LINE
5
22B
100
AcDbEntity
8
SK2
62
256
6
ByLayer
370
13
48
1
60
0
100
AcDbLine
10
27.1534
20
3.925
30
0
11
27.1534
21
17.284773
31
0
39
0
210
0
220
0
230
1
0
LINE
5
22C
100
AcDbEntity
8
SK2
62
256
6
ByLayer
370
13
48
1
60
0
100
AcDbLine
10
47.7534
20
17.184773
30
0
11
27.1534
21
17.184773
31
0
39
0
210
0
220
0
230
1
0
LINE
5
22D
100
AcDbEntity
8
SK2
62
256
6
ByLayer
370
13
48
1
60
0
100
AcDbLine
10
47.7534
20
17.184773
30
0
11
44.753401
21
16.789816
31
0
39
0
210
0
220
0
230
1
0
LINE
5
22E
100
AcDbEntity
8
SK2
62
256
6
ByLayer
370
13
48
1
60
0
100
AcDbLine
10
47.7534
20
17.184773
30
0
11
44.753399
21
17.579731
31
0
39
0
210
0
220
0
230
1
0
LINE
5
22F
100
AcDbEntity
8
SK2
62
256
6
ByLayer
370
13
48
1
60
0
100
AcDbLine
10
44.753401
20
16.789816
30
0
11
44.753399
21
17.579731
31
0
39
0
210
0
220
0
230
1
0
LINE
5
230
100
AcDbEntity
8
SK2
62
256
6
ByLayer
370
13
48
1
60
0
100
AcDbLine
10
27.1534
20
17.184773
30
0
11
30.153399
21
17.579731
31
0
39
0
210
0
220
0
230
1
0
LINE
5
231
100
AcDbEntity
8
SK2
62
256
6
ByLayer
370
13
48
1
60
0
100
AcDbLine
10
27.1534
20
17.184773
30
0
11
30.153401
21
16.789816
31
0
39
0
210
0
220
0
230
1
0
LINE
5
232
100
AcDbEntity
8
SK2
62
256
6
ByLayer
370
13
48
1
60
0
100
AcDbLine
10
30.153399
20
17.579731
30
0
11
30.153401
21
16.789816
31
0
39
0
210
0
220
0
230
1
0
ENDBLK
5
234
100
AcDbEntity
8
0
100
AcDbBlockEnd
0
ENDSEC
0
SECTION
2
ENTITIES
0
ARC
5
C0
100
AcDbEntity
8
1
62
256
6
ByLayer
370
18
48
1
60
0
100
AcDbCircle
39
0
10
1.058301
20
5.4
30
0
40
0.799999999999998
210
0
220
0
230
1
100
AcDbArc
50
228.590378
51
270
0
ARC
5
C1
100
AcDbEntity
8
1
62
256
6
ByLayer
370
18
48
1
60
0
100
AcDbCircle
39
0
10
1.058301
20
-5.4
30
0
40
0.799999999999998
210
0
220
0
230
1
100
AcDbArc
50
90
51
131.409622
0
ARC
5
C2
100
AcDbEntity
8
1
62
256
6
ByLayer
370
18
48
1
60
0
100
AcDbCircle
39
0
10
0
20
4.2
30
0
40
0.800000000000004
210
0
220
0
230
1
100
AcDbArc
50
48.590378
51
90
0
ARC
5
C3
100
AcDbEntity
8
1
62
256
6
ByLayer
370
18
48
1
60
0
100
AcDbCircle
39
0
10
0
20
-4.2
30
0
40
0.800000000000004
210
0
220
0
230
1
100
AcDbArc
50
270
51
311.409622
0
ARC
5
C4
100
AcDbEntity
8
SK2
62
256
6
ByLayer
370
13
48
1
60
0
100
AcDbCircle
39
0
10
49
20
0
30
0
40
20
210
0
220
0
230
1
100
AcDbArc
50
9.606349
51
69.999971
0
ARC
5
C5
100
AcDbEntity
8
SK2
62
256
6
ByLayer
370
13
48
1
60
0
100
AcDbCircle
39
0
10
49
20
0
30
0
40
20
210
0
220
0
230
1
100
AcDbArc
50
290.000029
51
350.393651
0
ARC
5
C6
100
AcDbEntity
8
SK2
62
256
6
ByLayer
370
13
48
1
60
0
100
AcDbCircle
39
0
10
30.5784
20
0
30
0
40
18.4250000000007
210
0
220
0
230
1
100
AcDbArc
50
188.58387
51
225
0
ARC
5
C7
100
AcDbEntity
8
SK2
62
256
6
ByLayer
370
13
48
1
60
0
100
AcDbCircle
39
0
10
30.5784
20
0
30
0
40
18.4250000000007
210
0
220
0
230
1
100
AcDbArc
50
135
51
171.41613
0
ELLIPSE
5
C8
100
AcDbEntity
8
1
62
256
6
ByLayer
370
18
48
1
60
0
100
AcDbEllipse
10
27.255216
20
3.183925
30
0
11
-0.00088115165341024
21
-0.00996110293911735
31
0
210
0
220
0
230
1
40
0.397449
41
-1.34646692303872
42
0.22223254125224
0
ELLIPSE
5
C9
100
AcDbEntity
8
1
62
256
6
ByLayer
370
18
48
1
60
0
100
AcDbEllipse
10
27.255098
20
-3.341107
30
0
11
0.1
21
0
31
0
210
0
220
0
230
1
40
1
41
1.56584381600079
42
3.1394773628658
0
POINT
5
70
100
AcDbEntity
8
80
62
256
6
ByLayer
370
18
48
1
60
0
100
AcDbPoint
10
0
20
0
30
0
39
0
210
0
220
0
230
1
50
360
0
POINT
5
72
100
AcDbEntity
8
81
62
256
6
ByLayer
370
18
48
1
60
0
100
AcDbPoint
10
49
20
0
30
0
39
0
210
0
220
0
230
1
50
360
0
POINT
5
74
100
AcDbEntity
8
1
62
256
6
ByLayer
370
18
48
1
60
0
100
AcDbPoint
10
-40
20
0
30
0
39
0
210
0
220
0
230
1
50
360
0
POINT
5
76
100
AcDbEntity
8
1
62
256
6
ByLayer
370
18
48
1
60
1
100
AcDbPoint
10
0
20
-5
30
0
39
0
210
0
220
0
230
1
50
360
0
POINT
5
77
100
AcDbEntity
8
1
62
256
6
ByLayer
370
18
48
1
60
1
100
AcDbPoint
10
49
20
0
30
0
39
0
210
0
220
0
230
1
50
360
0
POINT
5
78
100
AcDbEntity
8
1
62
256
6
ByLayer
370
18
48
1
60
1
100
AcDbPoint
10
47.7534
20
-3.425
30
0
39
0
210
0
220
0
230
1
50
360
0
POINT
5
79
100
AcDbEntity
8
1
62
256
6
ByLayer
370
18
48
1
60
1
100
AcDbPoint
10
47.7534
20
3.425
30
0
39
0
210
0
220
0
230
1
50
360
0
POINT
5
7A
100
AcDbEntity
8
1
62
256
6
ByLayer
370
18
48
1
60
1
100
AcDbPoint
10
-40
20
5
30
0
39
0
210
0
220
0
230
1
50
360
0
POINT
5
7B
100
AcDbEntity
8
1
62
256
6
ByLayer
370
18
48
1
60
1
100
AcDbPoint
10
-40
20
-5
30
0
39
0
210
0
220
0
230
1
50
360
0
POINT
5
7C
100
AcDbEntity
8
1
62
256
6
ByLayer
370
18
48
1
60
1
100
AcDbPoint
10
25.9784
20
4.6
30
0
39
0
210
0
220
0
230
1
50
360
0
POINT
5
7D
100
AcDbEntity
8
1
62
256
6
ByLayer
370
18
48
1
60
1
100
AcDbPoint
10
25.9784
20
-4.6
30
0
39
0
210
0
220
0
230
1
50
360
0
POINT
5
7E
100
AcDbEntity
8
1
62
256
6
ByLayer
370
18
48
1
60
1
100
AcDbPoint
10
-40
20
-5
30
0
39
0
210
0
220
0
230
1
50
360
0
POINT
5
7F
100
AcDbEntity
8
1
62
256
6
ByLayer
370
18
48
1
60
1
100
AcDbPoint
10
0
20
-5
30
0
39
0
210
0
220
0
230
1
50
360
0
POINT
5
80
100
AcDbEntity
8
1
62
256
6
ByLayer
370
18
48
1
60
1
100
AcDbPoint
10
12
20
3.925
30
0
39
0
210
0
220
0
230
1
50
360
0
POINT
5
81
100
AcDbEntity
8
1
62
256
6
ByLayer
370
18
48
1
60
1
100
AcDbPoint
10
49
20
0
30
0
39
0
210
0
220
0
230
1
50
360
0
POINT
5
82
100
AcDbEntity
8
1
62
256
6
ByLayer
370
18
48
1
60
1
100
AcDbPoint
10
26
20
-3.425
30
0
39
0
210
0
220
0
230
1
50
360
0
POINT
5
83
100
AcDbEntity
8
1
62
256
6
ByLayer
370
18
48
1
60
1
100
AcDbPoint
10
49
20
0
30
0
39
0
210
0
220
0
230
1
50
360
0
POINT
5
84
100
AcDbEntity
8
1
62
256
6
ByLayer
370
18
48
1
60
1
100
AcDbPoint
10
-40
20
0
30
0
39
0
210
0
220
0
230
1
50
360
0
POINT
5
85
100
AcDbEntity
8
1
62
256
6
ByLayer
370
18
48
1
60
1
100
AcDbPoint
10
49
20
0
30
0
39
0
210
0
220
0
230
1
50
360
0
POINT
5
86
100
AcDbEntity
8
1
62
256
6
ByLayer
370
18
48
1
60
1
100
AcDbPoint
10
47.7534
20
3.425
30
0
39
0
210
0
220
0
230
1
50
360
0
POINT
5
87
100
AcDbEntity
8
1
62
256
6
ByLayer
370
18
48
1
60
1
100
AcDbPoint
10
27.1534
20
3.425
30
0
39
0
210
0
220
0
230
1
50
360
0
SPLINE
5
CA
100
AcDbEntity
8
1
62
256
6
ByLayer
370
18
48
1
60
0
100
AcDbSpline
70
4
71
3
72
8
73
4
40
0
40
0
40
0
40
0
40
1
40
1
40
1
40
1
41
1
10
47.8912258835704
20
0.229774353731301
30
0
41
1
10
48.0279575014521
20
0.137032246863839
30
0
41
1
10
48.1639541056045
20
0.0460636526132703
30
0
41
1
10
48.2991077368227
20
-0.0428709345514164
30
0
0
SPLINE
5
CB
100
AcDbEntity
8
1
62
256
6
ByLayer
370
18
48
1
60
0
100
AcDbSpline
70
4
71
3
72
8
73
4
40
0
40
0
40
0
40
0
40
1
40
1
40
1
40
1
41
1
10
47.585899319895
20
-3.38236405442919
30
0
41
1
10
47.6445044262757
20
-3.34822696491668
30
0
41
1
10
47.7032256326762
20
-3.31354092047596
30
0
41
1
10
47.7620810605464
20
-3.27831955872495
30
0
0
SPLINE
5
CC
100
AcDbEntity
8
1
62
256
6
ByLayer
370
18
48
1
60
0
100
AcDbSpline
70
4
71
3
72
20
73
16
40
0
40
0
40
0
40
0
40
0.249999999999995
40
0.249999999999995
40
0.374999999999996
40
0.374999999999996
40
0.437499999999992
40
0.437499999999992
40
0.499999999999989
40
0.499999999999989
40
0.74999999999999
40
0.74999999999999
40
0.874999999999995
40
0.874999999999995
40
1
40
1
40
1
40
1
41
1
10
47.3053741288078
20
-0.0883576096730962
30
0
41
1
10
47.3879986130547
20
-0.0844961083008116
30
0
41
1
10
47.4710396496578
20
-0.0893636273327445
30
0
41
1
10
47.5941561930311
20
-0.111274631147836
30
0
41
1
10
47.6349522891877
20
-0.121044899888489
30
0
41
1
10
47.6954653045351
20
-0.139906369404713
30
0
41
1
10
47.7155222528499
20
-0.14689635608741
30
0
41
1
10
47.7553442577963
20
-0.162420423957912
30
0
41
1
10
47.7752573212717
20
-0.168631122541655
30
0
41
1
10
47.8749664128384
20
-0.193715104468652
30
0
41
1
10
47.9551926615859
20
-0.193956916996541
30
0
41
1
10
48.0812236795306
20
-0.161700490567398
30
0
41
1
10
48.1243247182664
20
-0.145326298378535
30
0
41
1
10
48.2108772609728
20
-0.102065018818536
30
0
41
1
10
48.2546097169856
20
-0.0751431569024135
30
0
41
1
10
48.2991077368224
20
-0.0428709345514449
30
0
0
SPLINE
5
CD
100
AcDbEntity
8
1
62
256
6
ByLayer
370
18
48
1
60
0
100
AcDbSpline
70
4
71
3
72
8
73
4
40
0
40
0
40
0
40
0
40
1
40
1
40
1
40
1
41
1
10
47.5997168511431
20
3.42449755160175
30
0
41
1
10
47.6218222665278
20
3.40991535456479
30
0
41
1
10
47.6438038800865
20
3.39538732094547
30
0
41
1
10
47.6656506380523
20
3.38090934513707
30
0
0
SPLINE
5
CE
100
AcDbEntity
8
1
62
256
6
ByLayer
370
18
48
1
60
0
100
AcDbSpline
70
4
71
3
72
10
73
6
40
0
40
0
40
0
40
0
40
0.669426130923992
40
0.669426130923992
40
1
40
1
40
1
40
1
41
1
10
27.2144575980377
20
-3.19296036195558
30
0
41
1
10
27.2134864655061
20
-3.28292358962591
30
0
41
1
10
27.2125359144581
20
-3.37289249422847
30
0
41
1
10
27.2111470287453
20
-3.50729726701891
30
0
41
1
10
27.2106929668583
20
-3.55172923448782
30
0
41
1
10
27.2102439790821
20
-3.59616240271322
30
0
0
SPLINE
5
CF
100
AcDbEntity
8
1
62
256
6
ByLayer
370
18
48
1
60
0
100
AcDbSpline
70
4
71
3
72
8
73
4
40
0
40
0
40
0
40
0
40
1
40
1
40
1
40
1
41
1
10
47.5858993198936
20
-3.38236405443106
30
0
41
1
10
47.5911212245575
20
-3.40773105873868
30
0
41
1
10
47.595663256925
20
-3.42198895730886
30
0
41
1
10
47.5997168511428
20
-3.42449755160155
30
0
0
SPLINE
5
D0
100
AcDbEntity
8
1
62
256
6
ByLayer
370
18
48
1
60
0
100
AcDbSpline
70
4
71
3
72
40
73
36
40
0
40
0
40
0
40
0
40
0.0290762775921681
40
0.0290762775921681
40
0.126078922932856
40
0.126078922932856
40
0.223081568273543
40
0.223081568273543
40
0.271582890943885
40
0.271582890943885
40
0.320084213614228
40
0.320084213614228
40
0.417086858954915
40
0.417086858954915
40
0.465588181625259
40
0.465588181625259
40
0.514089504295603
40
0.514089504295603
40
0.61109214963629
40
0.61109214963629
40
0.708094794976977
40
0.708094794976977
40
0.756596117647323
40
0.756596117647323
40
0.805097440317668
40
0.805097440317668
40
0.853598762988013
40
0.853598762988013
40
0.902100085658358
40
0.902100085658358
40
0.950601408328703
40
0.950601408328703
40
0.999102730999048
40
0.999102730999048
40
1
40
1
40
1
40
1
41
1
10
46.5461014799982
20
-0.214014256103695
30
0
41
1
10
46.4208874064284
20
-0.158561314175046
30
0
41
1
10
46.2958271509686
20
-0.10306770835831
30
0
41
1
10
45.7541843733497
20
0.137622796035458
30
0
41
1
10
45.3387747562417
20
0.322387446574339
30
0
41
1
10
44.5085937992475
20
0.686534374931711
30
0
41
1
10
44.0937483460886
20
0.865827096943747
30
-1E-16
41
1
10
43.4706595793459
20
1.12766759855813
30
-1E-16
41
1
10
43.2628377969111
20
1.21377866709466
30
-1E-16
41
1
10
42.8468042395936
20
1.38317332935671
30
-1E-16
41
1
10
42.6386217294161
20
1.46645379158679
30
-1E-16
41
1
10
42.0125014514934
20
1.71075814152897
30
-1E-16
41
1
10
41.5932697903258
20
1.86657841051934
30
-1E-16
41
1
10
40.9608184344352
20
2.08688012870502
30
-1E-16
41
1
10
40.7491465234433
20
2.1580827277993
30
-1E-16
41
1
10
40.3274032050768
20
2.29411028836211
30
-1E-16
41
1
10
40.1169289150633
20
2.35914132879319
30
-1E-16
41
1
10
39.4854523766478
20
2.54551175621222
30
-2E-16
41
1
10
39.0648034659982
20
2.65769817866382
30
1E-16
41
1
10
38.2225138802405
20
2.85564219870327
30
0
41
1
10
37.8005740591445
20
2.94170414570718
30
0
41
1
10
37.1669120776819
20
3.04573033202999
30
0
41
1
10
36.9560239176073
20
3.07625812236842
30
0
41
1
10
36.5339793684494
20
3.13060011394779
30
0
41
1
10
36.3228672136581
20
3.15431250112601
30
0
41
1
10
35.9005097790333
20
3.19415783880035
30
0
41
1
10
35.6892574800257
20
3.21028933930637
30
0
41
1
10
35.2664540153856
20
3.23420224250305
30
0
41
1
10
35.0549890689828
20
3.24195871080289
30
0
41
1
10
34.6340041030832
20
3.24838012425087
30
0
41
1
10
34.4241764960532
20
3.24713945645343
30
0
41
1
10
34.0049792939938
20
3.23753229189953
30
0
41
1
10
33.7956292569022
20
3.22911073318949
30
0
41
1
10
33.5827077666125
20
3.21641842951291
30
0
41
1
10
33.5788403696014
20
3.21618659127236
30
0
41
1
10
33.5749730505641
20
3.21595345627083
30
0
0
SPLINE
5
D1
100
AcDbEntity
8
1
62
256
6
ByLayer
370
18
48
1
60
0
100
AcDbSpline
70
4
71
3
72
32
73
28
40
0
40
0
40
0
40
0
40
0.0625000000000003
40
0.0625000000000003
40
0.125000000000001
40
0.125000000000001
40
0.187500000000001
40
0.187500000000001
40
0.250000000000001
40
0.250000000000001
40
0.375
40
0.375
40
0.499999999999999
40
0.499999999999999
40
0.562499999999999
40
0.562499999999999
40
0.625
40
0.625
40
0.6875
40
0.6875
40
0.75
40
0.75
40
0.812500000000001
40
0.812500000000001
40
0.875000000000001
40
0.875000000000001
40
1
40
1
40
1
40
1
41
1
10
47.5858993198958
20
-3.38236405443035
30
0
41
1
10
47.1968914641914
20
-3.35350697008556
30
0
41
1
10
46.8085285060008
20
-3.31037057403566
30
0
41
1
10
46.0313888623319
20
-3.19660094159747
30
0
41
1
10
45.6420921316895
20
-3.12584053018742
30
0
41
1
10
44.8643117021143
20
-2.95862738494534
30
0
41
1
10
44.4759750016826
20
-2.86226496676864
30
0
41
1
10
43.6986028084444
20
-2.64613511388865
30
2E-16
41
1
10
43.3089798584127
20
-2.52623188109462
30
2E-16
41
1
10
42.1435694602055
20
-2.13673870079629
30
1E-16
41
1
10
41.3692628808532
20
-1.83767221383224
30
1E-16
41
1
10
39.8122237178286
20
-1.18449678211897
30
1E-16
41
1
10
39.0375957613169
20
-0.834031458855264
30
1E-16
41
1
10
37.8720806463511
20
-0.295002839085527
30
0
41
1
10
37.4823848434185
20
-0.112763186716563
30
0
41
1
10
36.7053860416415
20
0.250072538939605
30
0
41
1
10
36.3175262177163
20
0.43084700878137
30
0
41
1
10
35.5412987615995
20
0.787292016610479
30
0
41
1
10
35.1528689094557
20
0.963007242061792
30
-1E-16
41
1
10
34.3740999617156
20
1.30564952934694
30
-1E-16
41
1
10
33.9857721721799
20
1.47163572907601
30
-1E-16
41
1
10
33.2095435084637
20
1.78973096906063
30
-1E-16
41
1
10
32.8215952678143
20
1.94174871996441
30
-1E-16
41
1
10
32.0443019834776
20
2.22856508063967
30
-1E-16
41
1
10
31.6544601559696
20
2.36360956896533
30
-1E-16
41
1
10
30.4906359774793
20
2.73495511736934
30
-2E-16
41
1
10
29.7193770390785
20
2.93888211304483
30
0
41
1
10
28.9459534838816
20
3.09134287151488
30
0
0
SPLINE
5
D2
100
AcDbEntity
8
1
62
256
6
ByLayer
370
18
48
1
60
0
100
AcDbSpline
70
4
71
3
72
24
73
20
40
0
40
0
40
0
40
0
40
0.125000000000002
40
0.125000000000002
40
0.250000000000004
40
0.250000000000004
40
0.312500000000004
40
0.312500000000004
40
0.375000000000005
40
0.375000000000005
40
0.500000000000004
40
0.500000000000004
40
0.75
40
0.75
40
0.8125
40
0.8125
40
0.875
40
0.875
40
1
40
1
40
1
40
1
41
1
10
16.0698023877838
20
3.85955197572179
30
2E-16
41
1
10
16.4983323027523
20
3.71332642194849
30
2E-16
41
1
10
16.9270127504614
20
3.54686652849171
30
-2E-16
41
1
10
17.7815736541684
20
3.18047634077718
30
-2E-16
41
1
10
18.2073385501801
20
2.98070239008001
30
-2E-16
41
1
10
18.84656082987
20
2.65974900678714
30
-2E-16
41
1
10
19.0597282008173
20
2.5492125526219
30
-2E-16
41
1
10
19.4867091720231
20
2.32160582100357
30
-1E-16
41
1
10
19.7008932541123
20
2.20432617542531
30
-1E-16
41
1
10
20.3424194190188
20
1.84505041913937
30
-1E-16
41
1
10
20.7669855311095
20
1.59666511933895
30
-1E-16
41
1
10
22.0367941508081
20
0.83367593402582
30
-1E-16
41
1
10
22.878079847685
20
0.301144489233764
30
0
41
1
10
23.940955730119
20
-0.365954788850672
30
0
41
1
10
24.1540985866127
20
-0.499440582758837
30
0
41
1
10
24.5819935070423
20
-0.765792598741427
30
0
41
1
10
24.7957997427117
20
-0.898063888612938
30
1E-16
41
1
10
25.4343623352551
20
-1.28918588776185
30
1E-16
41
1
10
25.8575737722027
20
-1.54315171348958
30
1E-16
41
1
10
26.280098411096
20
-1.78775552731713
30
1E-16
0
SPLINE
5
D3
100
AcDbEntity
8
1
62
256
6
ByLayer
370
18
48
1
60
0
100
AcDbSpline
70
4
71
3
72
10
73
6
40
0
40
0
40
0
40
0
40
0.5
40
0.5
40
1
40
1
40
1
40
1
41
1
10
28.9459534838817
20
3.09134287151491
30
0
41
1
10
28.948252062066
20
3.05729539557305
30
0
41
1
10
28.9507477998904
20
3.02062675114078
30
0
41
1
10
28.9551264694701
20
2.94194008809899
30
0
41
1
10
28.9567859688347
20
2.8997417888007
30
0
41
1
10
28.958221753063
20
2.85528904381894
30
0
0
SPLINE
5
D4
100
AcDbEntity
8
1
62
256
6
ByLayer
370
18
48
1
60
0
100
AcDbSpline
70
4
71
3
72
8
73
4
40
0
40
0
40
0
40
0
40
1
40
1
40
1
40
1
41
1
10
48.9968415814717
20
0.189092040665798
30
0
41
1
10
48.9820473462263
20
0.139781708733807
30
0
41
1
10
48.9671794423399
20
0.0904948203038032
30
0
41
1
10
48.9522381487652
20
0.0412312866050115
30
0
0
SPLINE
5
D5
100
AcDbEntity
8
1
62
256
6
ByLayer
370
18
48
1
60
0
100
AcDbSpline
70
4
71
3
72
26
73
22
40
0
40
0
40
0
40
0
40
0.0624999999999943
40
0.0624999999999943
40
0.124999999999989
40
0.124999999999989
40
0.187499999999983
40
0.187499999999983
40
0.249999999999977
40
0.249999999999977
40
0.374999999999981
40
0.374999999999981
40
0.499999999999985
40
0.499999999999985
40
0.624999999999988
40
0.624999999999988
40
0.749999999999992
40
0.749999999999992
40
0.874999999999996
40
0.874999999999996
40
1
40
1
40
1
40
1
41
1
10
47.9754381515717
20
1.11944899042788
30
0
41
1
10
47.9454081039816
20
1.1120174894846
30
0
41
1
10
47.9163927910948
20
1.10235000627375
30
0
41
1
10
47.8605284037083
20
1.07832800320745
30
0
41
1
10
47.8333720735579
20
1.06374613989445
30
0
41
1
10
47.7834301880633
20
1.03089690296377
30
0
41
1
10
47.7605425810461
20
1.01267652418787
30
0
41
1
10
47.7187402597134
20
0.972994787206204
30
0
41
1
10
47.6999553159062
20
0.951572275219007
30
0
41
1
10
47.6514407086015
20
0.885805035269698
30
0
41
1
10
47.6285313208853
20
0.8387555775397
30
0
41
1
10
47.6005035046166
20
0.746409837395476
30
0
41
1
10
47.5951196514743
20
0.700488556775781
30
0
41
1
10
47.5987987986867
20
0.613448941285384
30
0
41
1
10
47.607944236859
20
0.571158395692862
30
0
41
1
10
47.6380454715899
20
0.491989106174003
30
0
41
1
10
47.6588741817978
20
0.454892901297797
30
0
41
1
10
47.71068325345
20
0.384148107263172
30
0
41
1
10
47.7417475359461
20
0.350581186037942
30
0
41
1
10
47.8110207534658
20
0.287714832620168
30
0
41
1
10
47.849446195863
20
0.258112614641959
30
0
41
1
10
47.8912258835705
20
0.22977435373133
30
0
0
SPLINE
5
D6
100
AcDbEntity
8
1
62
256
6
ByLayer
370
18
48
1
60
0
100
AcDbSpline
70
4
71
3
72
8
73
4
40
0
40
0
40
0
40
0
40
1
40
1
40
1
40
1
41
1
10
47.7767039361237
20
-3.23551295038109
30
0
41
1
10
47.7718108081387
20
-3.24978149210838
30
0
41
1
10
47.7669363990886
20
-3.26405033251362
30
0
41
1
10
47.7620810605465
20
-3.278319558725
30
0
0
SPLINE
5
D7
100
AcDbEntity
8
1
62
256
6
ByLayer
370
18
48
1
60
0
100
AcDbSpline
70
4
71
3
72
34
73
30
40
0
40
0
40
0
40
0
40
0.0127505954076733
40
0.0127505954076733
40
0.0678288081977173
40
0.0678288081977173
40
0.122907020987761
40
0.122907020987761
40
0.177985233777805
40
0.177985233777805
40
0.233063446567849
40
0.233063446567849
40
0.343219872147934
40
0.343219872147934
40
0.453376297728019
40
0.453376297728019
40
0.508454510518061
40
0.508454510518061
40
0.563532723308103
40
0.563532723308103
40
0.673689148888188
40
0.673689148888188
40
0.72876736167823
40
0.72876736167823
40
0.783845574468273
40
0.783845574468273
40
0.894002000048358
40
0.894002000048358
40
1
40
1
40
1
40
1
41
1
10
34.6989160747066
20
3.25685512829446
30
0
41
1
10
34.7475552610317
20
3.25664875887415
30
0
41
1
10
34.796224799232
20
3.25621469012125
30
0
41
1
10
35.0553205441
20
3.25263575346651
30
0
41
1
10
35.2666859469924
20
3.24517558684769
30
0
41
1
10
35.6893126234119
20
3.22182655246289
30
0
41
1
10
35.9004749464254
20
3.20596399714324
30
0
41
1
10
36.3226484832583
20
3.16662908310531
30
0
41
1
10
36.533667221861
20
3.14315843574352
30
0
41
1
10
36.9555206051188
20
3.08927028411438
30
0
41
1
10
37.1663106066505
20
3.05896059807682
30
0
41
1
10
37.7996838816705
20
2.95558447576781
30
0
41
1
10
38.2214630198665
20
2.86988814638227
30
0
41
1
10
39.0633790414939
20
2.67253709068564
30
1E-16
41
1
10
39.4838340679273
20
2.5605954627529
30
-2E-16
41
1
10
40.1150136420253
20
2.37448052835921
30
-1E-16
41
1
10
40.325386873433
20
2.30951894677563
30
-1E-16
41
1
10
40.7469287222625
20
2.17361815686115
30
-1E-16
41
1
10
40.9585113399016
20
2.10246408750467
30
-1E-16
41
1
10
41.5907240985121
20
1.8822206142234
30
-1E-16
41
1
10
42.0097796238882
20
1.72636378379917
30
-1E-16
41
1
10
42.6356145518117
20
1.48190707275208
30
-1E-16
41
1
10
42.8436985058852
20
1.39856419764763
30
-1E-16
41
1
10
43.2595333998094
20
1.22901846415201
30
-1E-16
41
1
10
43.4672540126391
20
1.14281303650131
30
-1E-16
41
1
10
44.0900360020675
20
0.880642867109259
30
-1E-16
41
1
10
44.5046703886312
20
0.701063110031669
30
0
41
1
10
45.3187581441954
20
0.343101651427162
30
0
41
1
10
45.7182636690136
20
0.165013298107283
30
0
41
1
10
46.1189549376349
20
-0.0136028166420203
30
0
0
SPLINE
5
D8
100
AcDbEntity
8
1
62
256
6
ByLayer
370
18
48
1
60
0
100
AcDbSpline
70
4
71
3
72
8
73
4
40
0
40
0
40
0
40
0
40
1
40
1
40
1
40
1
41
1
10
47.8053147053606
20
3.28746114803874
30
0
41
1
10
47.7587343296073
20
3.31870394553491
30
0
41
1
10
47.7121790201127
20
3.34985533750009
30
0
41
1
10
47.6656506380522
20
3.38090934513684
30
0
0
SPLINE
5
D9
100
AcDbEntity
8
1
62
256
6
ByLayer
370
18
48
1
60
0
100
AcDbSpline
70
4
71
3
72
8
73
4
40
0
40
0
40
0
40
0
40
1
40
1
40
1
40
1
41
1
10
25.972421528866
20
4.42789867161468
30
0
41
1
10
26.3978452679123
20
3.99604253168866
30
0
41
1
10
26.8231065382751
20
3.56501551899987
30
0
41
1
10
27.2494836489404
20
3.13750431379162
30
0
0
SPLINE
5
DA
100
AcDbEntity
8
1
62
256
6
ByLayer
370
18
48
1
60
0
100
AcDbSpline
70
4
71
3
72
8
73
4
40
0
40
0
40
0
40
0
40
1
40
1
40
1
40
1
41
1
10
47.5997168511431
20
-3.42449755160175
30
0
41
1
10
47.6218222665278
20
-3.40991535456479
30
0
41
1
10
47.6438038800865
20
-3.39538732094547
30
0
41
1
10
47.6656506380523
20
-3.38090934513707
30
0
0
SPLINE
5
DB
100
AcDbEntity
8
1
62
256
6
ByLayer
370
18
48
1
60
0
100
AcDbSpline
70
4
71
3
72
10
73
6
40
0
40
0
40
0
40
0
40
0.5
40
0.5
40
1
40
1
40
1
40
1
41
1
10
27.1550984111071
20
3.35340473907166
30
0
41
1
10
27.1550984111071
20
3.35037624037403
30
0
41
1
10
27.1627996090206
20
3.33967859649559
30
0
41
1
10
27.1848089442007
20
3.31333980562562
30
0
41
1
10
27.1987721723373
20
3.29792496369853
30
0
41
1
10
27.2134990264244
20
3.28239029713419
30
0
0
SPLINE
5
DC
100
AcDbEntity
8
1
62
256
6
ByLayer
370
18
48
1
60
0
100
AcDbSpline
70
4
71
3
72
8
73
4
40
0
40
0
40
0
40
0
40
1
40
1
40
1
40
1
41
1
10
27.2482863349915
20
3.25486114008797
30
0
41
1
10
27.8163004433613
20
3.23097304353263
30
0
41
1
10
28.3812655743168
20
3.17652815943575
30
0
41
1
10
28.9459534838817
20
3.09134287151488
30
0
0
SPLINE
5
DD
100
AcDbEntity
8
1
62
256
6
ByLayer
370
18
48
1
60
0
100
AcDbSpline
70
4
71
3
72
11
73
7
40
0
40
0
40
0
40
0
40
0.49327950732869
40
0.49327950732869
40
0.98655901465738
40
1
40
1
40
1
40
1
41
1
10
27.1550984111071
20
3.29060144322284
30
0
41
1
10
27.1550984111071
20
3.31605457942584
30
0
41
1
10
27.155098411107
20
3.33192277570197
30
0
41
1
10
27.155098411107
20
3.34428899170149
30
0
41
1
10
27.1550984111071
20
3.34082854226716
30
0
41
1
10
27.1550984111071
20
3.32749708780222
30
0
41
1
10
27.1550984111071
20
3.32713651403108
30
0
0
SPLINE
5
DE
100
AcDbEntity
8
1
62
256
6
ByLayer
370
18
48
1
60
0
100
AcDbSpline
70
4
71
3
72
22
73
18
40
0
40
0
40
0
40
0
40
0.0175609850879807
40
0.0175609850879807
40
0.0994309029973177
40
0.0994309029973177
40
0.181300820906655
40
0.181300820906655
40
0.345040656725325
40
0.345040656725325
40
0.672520328362662
40
0.672520328362662
40
0.754390246271997
40
0.754390246271997
40
0.836260164181331
40
0.836260164181331
40
1
40
1
40
1
40
1
41
1
10
23.9735226367014
20
-4.59999668288162
30
0
41
1
10
23.9297265703167
20
-4.60003281244872
30
0
41
1
10
23.8859059256358
20
-4.5998221532715
30
0
41
1
10
23.6376416530863
20
-4.59722781833295
30
0
41
1
10
23.4324215915228
20
-4.58969131211211
30
0
41
1
10
23.0213484951639
20
-4.56373250088012
30
-1E-16
41
1
10
22.8165634686303
20
-4.54539022366708
30
-1E-16
41
1
10
22.2038354225427
20
-4.47472110104525
30
1E-16
41
1
10
21.7975146045904
20
-4.40675940656973
30
0
41
1
10
20.580283522438
20
-4.1436102336462
30
-2E-16
41
1
10
19.7711882431137
20
-3.8891830819191
30
-2E-16
41
1
10
18.7470586669841
20
-3.48213351814323
30
2E-16
41
1
10
18.5412399228729
20
-3.39611161257164
30
2E-16
41
1
10
18.1304826089798
20
-3.21659333872034
30
2E-16
41
1
10
17.9253690943365
20
-3.12304210213469
30
2E-16
41
1
10
17.3101732266822
20
-2.83182004133337
30
2E-16
41
1
10
16.9002495994353
20
-2.62355613204883
30
2E-16
41
1
10
16.4886821401429
20
-2.40351429453858
30
1E-16
0
SPLINE
5
DF
100
AcDbEntity
8
1
62
256
6
ByLayer
370
18
48
1
60
0
100
AcDbSpline
70
4
71
3
72
16
73
12
40
0
40
0
40
0
40
0
40
0.223778853036626
40
0.223778853036626
40
0.445711541698035
40
0.445711541698035
40
0.705591313581497
40
0.705591313581497
40
0.952805005988782
40
0.952805005988782
40
1
40
1
40
1
40
1
41
1
10
47.4208188804935
20
-0.590346515840849
30
0
41
1
10
47.421365577192
20
-0.590358331583701
30
0
41
1
10
47.4219225865314
20
-0.59064331105759
30
0
41
1
10
47.4229632065772
20
-0.591606994810718
30
0
41
1
10
47.4234612286249
20
-0.592293678612322
30
0
41
1
10
47.4244381220308
20
-0.594094966645855
30
0
41
1
10
47.4249132294821
20
-0.595287109429137
30
0
41
1
10
47.425670227592
20
-0.597878495006654
30
0
41
1
10
47.4259700671013
20
-0.599299445317229
30
0
41
1
10
47.4262008222392
20
-0.601068975073645
30
0
41
1
10
47.4262344034636
20
-0.601359042417073
30
0
41
1
10
47.4262638348231
20
-0.601651200931911
30
0
0
SPLINE
5
E0
100
AcDbEntity
8
1
62
256
6
ByLayer
370
18
48
1
60
0
100
AcDbSpline
70
4
71
3
72
8
73
4
40
0
40
0
40
0
40
0
40
1
40
1
40
1
40
1
41
1
10
48.9968415814717
20
0.189092040665798
30
0
41
1
10
49.0010539202646
20
0.0629973303748557
30
0
41
1
10
49.0010516926737
20
-0.0630640124292086
30
0
41
1
10
48.996841581472
20
-0.189092040655197
30
0
0
SPLINE
5
E1
100
AcDbEntity
8
1
62
256
6
ByLayer
370
18
48
1
60
0
100
AcDbSpline
70
4
71
3
72
16
73
12
40
0
40
0
40
0
40
0
40
0.223565466193041
40
0.223565466193041
40
0.449200542315377
40
0.449200542315377
40
0.646441749241291
40
0.646441749241291
40
0.82276445204594
40
0.82276445204594
40
1
40
1
40
1
40
1
41
1
10
47.7792990460445
20
-3.22431240168575
30
0
41
1
10
47.779377648062
20
-3.22447457893898
30
0
41
1
10
47.7794008086488
20
-3.22481387261152
30
0
41
1
10
47.7793123581141
20
-3.22585461544841
30
0
41
1
10
47.7791969996275
20
-3.22657886750426
30
0
41
1
10
47.7788509525154
20
-3.22822042522591
30
0
41
1
10
47.7786308637974
20
-3.2291275040445
30
0
41
1
10
47.778141206996
20
-3.23094696085906
30
0
41
1
10
47.777873071878
20
-3.23187214598457
30
0
41
1
10
47.7773085604925
20
-3.23370460723839
30
0
41
1
10
47.7770053171949
20
-3.23463411205847
30
0
41
1
10
47.7767039361237
20
-3.23551295038118
30
0
0
SPLINE
5
E2
100
AcDbEntity
8
1
62
256
6
ByLayer
370
18
48
1
60
0
100
AcDbSpline
70
4
71
3
72
10
73
6
40
0
40
0
40
0
40
0
40
0.5
40
0.5
40
1
40
1
40
1
40
1
41
1
10
27.2482863349927
20
3.25486114008857
30
0
41
1
10
27.2510620393938
20
3.23915505453468
30
0
41
1
10
27.2538495198471
20
3.22075487249001
30
0
41
1
10
27.2593808673338
20
3.17913975660255
30
0
41
1
10
27.2621355050215
20
3.15586871091909
30
0
41
1
10
27.2648857821886
20
3.13015640333643
30
0
0
SPLINE
5
E3
100
AcDbEntity
8
1
62
256
6
ByLayer
370
18
48
1
60
0
100
AcDbSpline
70
4
71
3
72
26
73
22
40
0
40
0
40
0
40
0
40
0.0608581871534871
40
0.0608581871534871
40
0.121716374306974
40
0.121716374306974
40
0.243432748613949
40
0.243432748613949
40
0.365149122920923
40
0.365149122920923
40
0.486865497227897
40
0.486865497227897
40
0.608581871534871
40
0.608581871534871
40
0.669440058688358
40
0.669440058688358
40
0.730298245841845
40
0.730298245841845
40
0.973730994455791
40
0.973730994455791
40
1
40
1
40
1
40
1
41
1
10
47.7767039361236
20
-3.23551295038115
30
0
41
1
10
47.5618309650412
20
-3.22254306678616
30
0
41
1
10
47.3475296198156
20
-3.20603086764524
30
0
41
1
10
46.9200997403386
20
-3.16432557458768
30
0
41
1
10
46.706920730573
20
-3.13944529969001
30
0
41
1
10
46.0685858833453
20
-3.05314640116049
30
0
41
1
10
45.6446401522523
20
-2.98000542658781
30
0
41
1
10
44.7980267289785
20
-2.80499427808968
30
-1E-16
41
1
10
44.3753380585398
20
-2.70316560560775
30
-1E-16
41
1
10
43.5291284162164
20
-2.47339984183449
30
2E-16
41
1
10
43.1055110159822
20
-2.34541305998124
30
1E-16
41
1
10
42.255750389246
20
-2.06634864973077
30
1E-16
41
1
10
41.829328805982
20
-1.91505453609344
30
1E-16
41
1
10
41.1860532542952
20
-1.6734248068305
30
1E-16
41
1
10
40.9706833356039
20
-1.59028627674584
30
1E-16
41
1
10
40.5400735702696
20
-1.42015539245239
30
1E-16
41
1
10
40.3251039494469
20
-1.33327433278421
30
1E-16
41
1
10
39.251199201636
20
-0.8912659652446
30
1E-16
41
1
10
38.3952515328099
20
-0.513210926289503
30
0
41
1
10
37.4406994523637
20
-0.0888245321490615
30
0
41
1
10
37.3477463156166
20
-0.047467931510738
30
0
41
1
10
37.2548107446757
20
-0.0061183945063021
30
0
0
SPLINE
5
E4
100
AcDbEntity
8
1
62
256
6
ByLayer
370
18
48
1
60
0
100
AcDbSpline
70
4
71
3
72
8
73
4
40
0
40
0
40
0
40
0
40
1
40
1
40
1
40
1
41
1
10
27.4619149436697
20
-3.32415024306113
30
0
41
1
10
27.3776789607814
20
-3.41521732321942
30
0
41
1
10
27.2938137027404
20
-3.50591013769414
30
0
41
1
10
27.2102439790821
20
-3.59616240271325
30
0
0
SPLINE
5
E5
100
AcDbEntity
8
1
62
256
6
ByLayer
370
18
48
1
60
0
100
AcDbSpline
70
4
71
3
72
12
73
8
40
0
40
0
40
0
40
0
40
0.447261407988253
40
0.447261407988253
40
0.892851525720199
40
0.892851525720199
40
1
40
1
40
1
40
1
41
1
10
27.4619149436697
20
-1.92381909527086
30
1E-16
41
1
10
27.4636128959961
20
-1.9235224537972
30
1E-16
41
1
10
27.4656148174343
20
-1.92352408406168
30
1E-16
41
1
10
27.4698420944434
20
-1.92407134443943
30
1E-16
41
1
10
27.4721232754783
20
-1.92462115314231
30
1E-16
41
1
10
27.4749569683469
20
-1.92558510896441
30
1E-16
41
1
10
27.4755134778507
20
-1.9257875570683
30
1E-16
41
1
10
27.4760695792909
20
-1.92600293563774
30
1E-16
0
SPLINE
5
E6
100
AcDbEntity
8
1
62
256
6
ByLayer
370
18
48
1
60
0
100
AcDbSpline
70
4
71
3
72
8
73
4
40
0
40
0
40
0
40
0
40
1
40
1
40
1
40
1
41
1
10
27.2134990264244
20
3.28239029713419
30
0
41
1
10
27.2199410142166
20
3.27559494683243
30
0
41
1
10
27.2263848358398
20
3.26879726163267
30
0
41
1
10
27.2328304608217
20
3.26199733920964
30
0
0
SPLINE
5
E7
100
AcDbEntity
8
1
62
256
6
ByLayer
370
18
48
1
60
0
100
AcDbSpline
70
4
71
3
72
8
73
4
40
0
40
0
40
0
40
0
40
1
40
1
40
1
40
1
41
1
10
27.2993408295354
20
-1.94863108632978
30
1E-16
41
1
10
27.3533864261974
20
-1.94158572203551
30
1E-16
41
1
10
27.4075709693551
20
-1.93331328210624
30
1E-16
41
1
10
27.4619149436697
20
-1.92381909527086
30
1E-16
0
SPLINE
5
E8
100
AcDbEntity
8
1
62
256
6
ByLayer
370
18
48
1
60
0
100
AcDbSpline
70
4
71
3
72
20
73
16
40
0
40
0
40
0
40
0
40
0.250000000000009
40
0.250000000000009
40
0.375000000000009
40
0.375000000000009
40
0.50000000000001
40
0.50000000000001
40
0.750000000000011
40
0.750000000000011
40
0.812500000000008
40
0.812500000000008
40
0.875000000000005
40
0.875000000000005
40
1
40
1
40
1
40
1
41
1
10
48.6013109132643
20
-1.33128795359087
30
0
41
1
10
48.5233921616526
20
-1.47900978951813
30
0
41
1
10
48.4491926276172
20
-1.63205398895289
30
0
41
1
10
48.3423345475136
20
-1.8699514719828
30
0
41
1
10
48.3073483291053
20
-1.95088188477146
30
0
41
1
10
48.2391798328314
20
-2.1140279393253
30
0
41
1
10
48.205986421055
20
-2.19624424754724
30
0
41
1
10
48.1084905695145
20
-2.44460525139914
30
0
41
1
10
48.0461222811652
20
-2.61290952396871
30
0
41
1
10
47.9699637677849
20
-2.82402986649174
30
0
41
1
10
47.9548382027619
20
-2.86624241197651
30
0
41
1
10
47.9247409309257
20
-2.95062576537501
30
0
41
1
10
47.9098991869934
20
-2.99277667616079
30
0
41
1
10
47.8651666207645
20
-3.11918581332605
30
0
41
1
10
47.8352979309696
20
-3.20337724431641
30
0
41
1
10
47.8053147053602
20
-3.28746114803877
30
0
0
SPLINE
5
E9
100
AcDbEntity
8
1
62
256
6
ByLayer
370
18
48
1
60
0
100
AcDbSpline
70
4
71
3
72
22
73
18
40
0
40
0
40
0
40
0
40
0.197560130798397
40
0.197560130798397
40
0.395120261596794
40
0.395120261596794
40
0.493900326995991
40
0.493900326995991
40
0.592680392395188
40
0.592680392395188
40
0.790240523193583
40
0.790240523193583
40
0.889020588592781
40
0.889020588592781
40
0.987800653991979
40
0.987800653991979
40
1
40
1
40
1
40
1
41
1
10
47.3053741288078
20
-0.0883576096730962
30
0
41
1
10
46.5339070464232
20
0.2725313166859
30
0
41
1
10
45.7687075721204
20
0.631709352934593
30
0
41
1
10
44.237468192966
20
1.31797298730604
30
-1E-16
41
1
10
43.4714615379959
20
1.64512901467347
30
-1E-16
41
1
10
42.3118281834177
20
2.09105555695871
30
-1E-16
41
1
10
41.9228496853981
20
2.23237820977991
30
-1E-16
41
1
10
41.1507970631289
20
2.49304295627491
30
-2E-16
41
1
10
40.766398652716
20
2.61292937613285
30
-2E-16
41
1
10
39.6155551778779
20
2.93818073818639
30
0
41
1
10
38.8514655648463
20
3.10905141338279
30
0
41
1
10
37.7000888949082
20
3.28603785157009
30
0
41
1
10
37.3154235716038
20
3.3318367218138
30
0
41
1
10
36.542659038108
20
3.39556844426244
30
0
41
1
10
36.153530974449
20
3.41342686981466
30
0
41
1
10
35.7195191661355
20
3.41723396178259
30
0
41
1
10
35.6718366769902
20
3.41743395128853
30
0
41
1
10
35.6241786148287
20
3.4174162801387
30
0
0
SPLINE
5
EA
100
AcDbEntity
8
1
62
256
6
ByLayer
370
18
48
1
60
0
100
AcDbSpline
70
4
71
3
72
28
73
24
40
0
40
0
40
0
40
0
40
0.0388815879611213
40
0.0388815879611213
40
0.126255989055565
40
0.126255989055565
40
0.301004791244454
40
0.301004791244454
40
0.344691991791675
40
0.344691991791675
40
0.388379192338897
40
0.388379192338897
40
0.475753593433341
40
0.475753593433341
40
0.650502395622228
40
0.650502395622228
40
0.737876796716673
40
0.737876796716673
40
0.781563997263894
40
0.781563997263894
40
0.825251197811115
40
0.825251197811115
40
1
40
1
40
1
40
1
41
1
10
41.6664460190002
20
-2.31857740408861
30
1E-16
41
1
10
41.4819220473069
20
-2.38192521688089
30
1E-16
41
1
10
41.2977915981779
20
-2.44292098986904
30
1E-16
41
1
10
40.7008605371606
20
-2.63296791534313
30
2E-16
41
1
10
40.2892758794185
20
-2.75200985167797
30
2E-16
41
1
10
39.0559703494472
20
-3.06808463095032
30
0
41
1
10
38.2357117574424
20
-3.22395829494082
30
0
41
1
10
37.2025451923705
20
-3.34012759419966
30
0
41
1
10
36.9955187841165
20
-3.35943663477818
30
0
41
1
10
36.5804165686061
20
-3.38998624422811
30
0
41
1
10
36.371930219835
20
-3.40123593296542
30
0
41
1
10
35.7480541277294
20
-3.42248183586619
30
0
41
1
10
35.3344419291782
20
-3.42004405863213
30
0
41
1
10
34.0973679411098
20
-3.36428948130632
30
0
41
1
10
33.2776674411917
20
-3.26239896091633
30
0
41
1
10
32.0433465192547
20
-3.0202970362015
30
0
41
1
10
31.6311135747815
20
-2.9247509914118
30
0
41
1
10
31.0100246053095
20
-2.76045790128799
30
2E-16
41
1
10
30.8025380712185
20
-2.70220019790042
30
2E-16
41
1
10
30.3863871584535
20
-2.57894520136955
30
2E-16
41
1
10
30.1779049531751
20
-2.51399189686163
30
2E-16
41
1
10
29.1380377571249
20
-2.17521743418911
30
1E-16
41
1
10
28.309614591749
20
-1.85788827970413
30
1E-16
41
1
10
27.4760695792909
20
-1.50904886321706
30
1E-16
0
SPLINE
5
EB
100
AcDbEntity
8
1
62
256
6
ByLayer
370
18
48
1
60
0
100
AcDbSpline
70
4
71
3
72
8
73
4
40
0
40
0
40
0
40
0
40
1
40
1
40
1
40
1
41
1
10
27.155098411107
20
3.38454529493231
30
0
41
1
10
27.1550984111071
20
3.39070441704351
30
0
41
1
10
27.1550984111071
20
3.38032436942379
30
0
41
1
10
27.1550984111071
20
3.35340473907166
30
0
0
SPLINE
5
EC
100
AcDbEntity
8
1
62
256
6
ByLayer
370
18
48
1
60
0
100
AcDbSpline
70
4
71
3
72
14
73
10
40
0
40
0
40
0
40
0
40
0.409060216931481
40
0.409060216931481
40
0.613590325397219
40
0.613590325397219
40
0.818120433862957
40
0.818120433862957
40
1
40
1
40
1
40
1
41
1
10
47.5997168511428
20
3.42449755160155
30
0
41
1
10
46.7895059744947
20
3.41815985301932
30
0
41
1
10
45.9788543444585
20
3.34829200478978
30
0
41
1
10
44.7634602748368
20
3.1540464763365
30
0
41
1
10
44.3579496167802
20
3.07440544679011
30
0
41
1
10
43.5484927256165
20
2.88807266466347
30
0
41
1
10
43.1443147056471
20
2.78137814056493
30
-2E-16
41
1
10
42.379883074494
20
2.55654562772011
30
-2E-16
41
1
10
42.019382033963
20
2.44085016747377
30
-1E-16
41
1
10
41.6590283935404
20
2.31679410787174
30
-1E-16
0
SPLINE
5
ED
100
AcDbEntity
8
1
62
256
6
ByLayer
370
18
48
1
60
0
100
AcDbSpline
70
4
71
3
72
10
73
6
40
0
40
0
40
0
40
0
40
0.5
40
0.5
40
1
40
1
40
1
40
1
41
1
10
27.2494836468799
20
3.13750430974542
30
0
41
1
10
27.2467246896925
20
3.16322423774886
30
0
41
1
10
27.2439611328445
20
3.18648344862007
30
0
41
1
10
27.238411268658
20
3.22803289212396
30
0
41
1
10
27.2356139650341
20
3.24637872055499
30
0
41
1
10
27.2328304608217
20
3.26199733920967
30
0
0
SPLINE
5
EE
100
AcDbEntity
8
1
62
256
6
ByLayer
370
18
48
1
60
0
100
AcDbSpline
70
4
71
3
72
20
73
16
40
0
40
0
40
0
40
0
40
0.249999999999999
40
0.249999999999999
40
0.374999999999998
40
0.374999999999998
40
0.499999999999997
40
0.499999999999997
40
0.750000000000003
40
0.750000000000003
40
0.812500000000002
40
0.812500000000002
40
0.875000000000001
40
0.875000000000001
40
1
40
1
40
1
40
1
41
1
10
48.6013109132644
20
1.33128795359087
30
0
41
1
10
48.5233921616526
20
1.47900978951816
30
0
41
1
10
48.4491926276172
20
1.63205398895295
30
0
41
1
10
48.3423345475135
20
1.86995147198291
30
0
41
1
10
48.3073483291053
20
1.95088188477158
30
0
41
1
10
48.2391798328313
20
2.11402793932538
30
0
41
1
10
48.2059864210549
20
2.1962442475473
30
0
41
1
10
48.1084905695144
20
2.4446052513992
30
0
41
1
10
48.0461222811651
20
2.61290952396882
30
0
41
1
10
47.9699637677849
20
2.82402986649183
30
0
41
1
10
47.9548382027619
20
2.8662424119766
30
0
41
1
10
47.9247409309257
20
2.95062576537509
30
0
41
1
10
47.9098991869934
20
2.99277667616084
30
0
41
1
10
47.8651666207644
20
3.11918581332611
30
0
41
1
10
47.8352979309695
20
3.20337724431644
30
0
41
1
10
47.8053147053602
20
3.28746114803877
30
0
0
SPLINE
5
EF
100
AcDbEntity
8
1
62
256
6
ByLayer
370
18
48
1
60
0
100
AcDbSpline
70
4
71
3
72
34
73
30
40
0
40
0
40
0
40
0
40
3.8445507463E-05
40
3.8445507463E-05
40
0.076958565083812
40
0.076958565083812
40
0.153878684660161
40
0.153878684660161
40
0.23079880423651
40
0.23079880423651
40
0.307718923812859
40
0.307718923812859
40
0.384639043389208
40
0.384639043389208
40
0.461559162965557
40
0.461559162965557
40
0.538479282541906
40
0.538479282541906
40
0.615399402118255
40
0.615399402118255
40
0.692319521694604
40
0.692319521694604
40
0.769239641270953
40
0.769239641270953
40
0.846159760847302
40
0.846159760847302
40
0.923079880423651
40
0.923079880423651
40
1
40
1
40
1
40
1
41
1
10
32.3188079046885
20
3.25299151876288
30
0
41
1
10
32.3190009989264
20
3.25301900666608
30
0
41
1
10
32.3191940934764
20
3.25304649116248
30
0
41
1
10
32.7057230928651
20
3.30805695530856
30
0
41
1
10
33.0920584060593
20
3.34952221258749
30
0
41
1
10
33.8626091563359
20
3.40429926415143
30
0
41
1
10
34.2474732939299
20
3.41765328010231
30
0
41
1
10
35.0178531708913
20
3.41580062460426
30
0
41
1
10
35.404707922232
20
3.40056882139126
30
0
41
1
10
36.1768783544251
20
3.34224767084493
30
0
41
1
10
36.5621647218976
20
3.29922768448597
30
0
41
1
10
37.3317282473684
20
3.18535174161443
30
0
41
1
10
37.7167206985814
20
3.11489840180084
30
0
41
1
10
38.4893089269761
20
2.94910732921713
30
0
41
1
10
38.8756262669347
20
2.853554971221
30
0
41
1
10
39.6460951179961
20
2.63958320396472
30
-2E-16
41
1
10
40.0307772523535
20
2.52102028088979
30
-2E-16
41
1
10
40.8009393858534
20
2.26318468119987
30
-1E-16
41
1
10
41.1878695391171
20
2.12476753753728
30
-1E-16
41
1
10
41.959801238971
20
1.83195322045017
30
-1E-16
41
1
10
42.3447484468772
20
1.67749249412546
30
-1E-16
41
1
10
43.113442805786
20
1.35381389764373
30
-1E-16
41
1
10
43.4981945721275
20
1.18653935226888
30
-1E-16
41
1
10
44.2693824734514
20
0.843025752397665
30
-1E-16
41
1
10
44.6561653969965
20
0.666327318561798
30
0
41
1
10
45.4266371950139
20
0.309807146808822
30
0
41
1
10
45.8110841341519
20
0.12977255206394
30
0
41
1
10
46.5801821832441
20
-0.230003334320571
30
0
41
1
10
46.9650352792107
20
-0.409308712803153
30
0
41
1
10
47.3505728332121
20
-0.587211610249312
30
0
0
SPLINE
5
F0
100
AcDbEntity
8
1
62
256
6
ByLayer
370
18
48
1
60
0
100
AcDbSpline
70
4
71
3
72
26
73
22
40
0
40
0
40
0
40
0
40
0.124999999999999
40
0.124999999999999
40
0.187499999999998
40
0.187499999999998
40
0.249999999999997
40
0.249999999999997
40
0.374999999999996
40
0.374999999999996
40
0.437499999999996
40
0.437499999999996
40
0.499999999999995
40
0.499999999999995
40
0.624999999999997
40
0.624999999999997
40
0.749999999999998
40
0.749999999999998
40
0.874999999999999
40
0.874999999999999
40
1
40
1
40
1
40
1
41
1
10
47.5997168511428
20
-3.42449755160155
30
0
41
1
10
46.8229611473885
20
-3.41842154884188
30
0
41
1
10
46.0458081821575
20
-3.35399982733449
30
0
41
1
10
44.8805444380196
20
-3.1748012703828
30
0
41
1
10
44.4918184928742
20
-3.10132852021593
30
0
41
1
10
43.7154946987871
20
-2.92914670915664
30
0
41
1
10
43.3279520018888
20
-2.83049007811206
30
0
41
1
10
42.1645556054797
20
-2.50000229175117
30
2E-16
41
1
10
41.3868530794287
20
-2.23291635857558
30
1E-16
41
1
10
40.2212766100341
20
-1.78322448405788
30
1E-16
41
1
10
39.8326113113074
20
-1.62511754040082
30
1E-16
41
1
10
39.0558694926299
20
-1.29684954982224
30
1E-16
41
1
10
38.6682140104188
20
-1.12688450249496
30
1E-16
41
1
10
37.5047688937643
20
-0.604847880417452
30
0
41
1
10
36.7272399397463
20
-0.239963501404162
30
0
41
1
10
35.1726355988451
20
0.485266696704088
30
0
41
1
10
34.3956355879974
20
0.845433562530701
30
-1E-16
41
1
10
32.8410005750909
20
1.52545393556116
30
-1E-16
41
1
10
32.0669746067865
20
1.84375127261342
30
-1E-16
41
1
10
30.5117826959155
20
2.41058921943505
30
-1E-16
41
1
10
29.7347056367083
20
2.65733832035747
30
-2E-16
41
1
10
28.9582217530632
20
2.85528904381908
30
0
0
SPLINE
5
F1
100
AcDbEntity
8
1
62
256
6
ByLayer
370
18
48
1
60
0
100
AcDbSpline
70
4
71
3
72
12
73
8
40
0
40
0
40
0
40
0
40
0.473440051268327
40
0.473440051268327
40
0.916937904893204
40
0.916937904893204
40
1
40
1
40
1
40
1
41
1
10
27.4760695792909
20
-3.31691162993269
30
0
41
1
10
27.4736434825456
20
-3.31717563426193
30
0
41
1
10
27.4711828862498
20
-3.31788155498307
30
0
41
1
10
27.4667435533481
20
-3.32002170881032
30
0
41
1
10
27.4646866622435
20
-3.32143676706019
30
0
41
1
10
27.4625648547284
20
-3.32346876686341
30
0
41
1
10
27.4622349086469
20
-3.32380433059916
30
0
41
1
10
27.4619149436697
20
-3.32415024306113
30
0
0
SPLINE
5
F2
100
AcDbEntity
8
1
62
256
6
ByLayer
370
18
48
1
60
0
100
AcDbSpline
70
4
71
3
72
8
73
4
40
0
40
0
40
0
40
0
40
1
40
1
40
1
40
1
41
1
10
27.2648857821887
20
3.13015640333646
30
0
41
1
10
27.6221411742064
20
3.09122292068813
30
0
41
1
10
27.9790729091004
20
3.03939079634134
30
0
41
1
10
28.3348041176625
20
2.97529205265135
30
0
0
SPLINE
5
F3
100
AcDbEntity
8
1
62
256
6
ByLayer
370
18
48
1
60
0
100
AcDbSpline
70
4
71
3
72
10
73
6
40
0
40
0
40
0
40
0
40
0.5
40
0.5
40
1
40
1
40
1
40
1
41
1
10
48.6013109132643
20
1.33128795359085
30
0
41
1
10
48.5005648133738
20
1.28387986253068
30
0
41
1
10
48.397415991934
20
1.24462559865611
30
0
41
1
10
48.1883297560918
20
1.17558038350575
30
0
41
1
10
48.0823573552826
20
1.1459081613915
30
0
41
1
10
47.9754381515717
20
1.11944899042791
30
0
0
SPLINE
5
F4
100
AcDbEntity
8
1
62
256
6
ByLayer
370
18
48
1
60
0
100
AcDbSpline
70
4
71
3
72
10
73
6
40
0
40
0
40
0
40
0
40
0.654236575104439
40
0.654236575104439
40
1
40
1
40
1
40
1
41
1
10
16.0698023877838
20
-3.85955197572179
30
-2E-16
41
1
10
16.4775591652513
20
-3.72041475680822
30
-2E-16
41
1
10
16.8854310647399
20
-3.56297359828997
30
2E-16
41
1
10
17.5070921534947
20
-3.29888242983074
30
2E-16
41
1
10
17.721631996733
20
-3.20334591330416
30
2E-16
41
1
10
17.9360068493383
20
-3.10389086566519
30
2E-16
0
SPLINE
5
F5
100
AcDbEntity
8
1
62
256
6
ByLayer
370
18
48
1
60
0
100
AcDbSpline
70
4
71
3
72
12
73
8
40
0
40
0
40
0
40
0
40
0.344835584257088
40
0.344835584257088
40
0.689671168514177
40
0.689671168514177
40
1
40
1
40
1
40
1
41
1
10
25.972421528866
20
4.42789867161468
30
0
41
1
10
25.9685235130559
20
4.4671183453419
30
-1E-16
41
1
10
25.9646212755197
20
4.49997528453616
30
-1E-16
41
1
10
25.9568826982068
20
4.5521845827663
30
1E-16
41
1
10
25.9530931618577
20
4.57124423384491
30
1E-16
41
1
10
25.9459387596015
20
4.5945036658633
30
0
41
1
10
25.9425366373759
20
4.60003547965047
30
0
41
1
10
25.9391158476242
20
4.6000447427833
30
0
0
SPLINE
5
F6
100
AcDbEntity
8
1
62
256
6
ByLayer
370
18
48
1
60
0
100
AcDbSpline
70
4
71
3
72
44
73
40
40
0
40
0
40
0
40
0
40
0.125000000000002
40
0.125000000000002
40
0.187500000000003
40
0.187500000000003
40
0.250000000000004
40
0.250000000000004
40
0.281250000000004
40
0.281250000000004
40
0.312500000000004
40
0.312500000000004
40
0.375000000000004
40
0.375000000000004
40
0.437500000000004
40
0.437500000000004
40
0.453125000000004
40
0.453125000000004
40
0.468750000000004
40
0.468750000000004
40
0.500000000000004
40
0.500000000000004
40
0.531250000000004
40
0.531250000000004
40
0.562500000000003
40
0.562500000000003
40
0.593750000000003
40
0.593750000000003
40
0.625000000000003
40
0.625000000000003
40
0.687500000000003
40
0.687500000000003
40
0.750000000000002
40
0.750000000000002
40
0.812500000000002
40
0.812500000000002
40
0.875000000000001
40
0.875000000000001
40
1
40
1
40
1
40
1
41
1
10
14.8768860178961
20
-1.70333282933885
30
1E-16
41
1
10
14.4706247311472
20
-1.91224151495294
30
1E-16
41
1
10
14.0793510105446
20
-2.13248552517055
30
1E-16
41
1
10
13.5258649197952
20
-2.48440773782426
30
2E-16
41
1
10
13.3470029904988
20
-2.60533653634621
30
2E-16
41
1
10
13.0043606581386
20
-2.85606545302272
30
2E-16
41
1
10
12.8394522655561
20
-2.98692232390897
30
2E-16
41
1
10
12.6165535953452
20
-3.18479644952387
30
2E-16
41
1
10
12.5460944404036
20
-3.25117953768699
30
2E-16
41
1
10
12.4142626065762
20
-3.38474755456227
30
2E-16
41
1
10
12.3526974588764
20
-3.45222833153372
30
2E-16
41
1
10
12.1885191473794
20
-3.65068485817631
30
-2E-16
41
1
10
12.1044858112332
20
-3.77938573230358
30
-2E-16
41
1
10
12.00284200221
20
-4.02306857247143
30
-2E-16
41
1
10
11.9884676555511
20
-4.13045194723614
30
-2E-16
41
1
10
12.0140906534072
20
-4.24585585293568
30
0
41
1
10
12.0214617673749
20
-4.26808057129438
30
0
41
1
10
12.0402550271996
20
-4.30994043198584
30
0
41
1
10
12.0516652759026
20
-4.32963236961356
30
0
41
1
10
12.0914956805242
20
-4.38521643113307
30
0
41
1
10
12.1254962042363
20
-4.4176264911454
30
0
41
1
10
12.2066113046784
20
-4.47405321139655
30
1E-16
41
1
10
12.253674495857
20
-4.49792055967032
30
1E-16
41
1
10
12.3566912240499
20
-4.53723219477203
30
-1E-16
41
1
10
12.4129094445387
20
-4.55286679230912
30
-1E-16
41
1
10
12.5332751856185
20
-4.57725132660394
30
0
41
1
10
12.5974298883843
20
-4.58599596884577
30
0
41
1
10
12.7326527155889
20
-4.59740879996625
30
0
41
1
10
12.8038730579251
20
-4.6000522298275
30
0
41
1
10
13.0232779453199
20
-4.59989317659952
30
0
41
1
10
13.1781739248995
20
-4.58922887079925
30
0
41
1
10
13.5010184056719
20
-4.55187629269119
30
-1E-16
41
1
10
13.6690163593635
20
-4.52513402582642
30
1E-16
41
1
10
14.0159065935667
20
-4.45851849142224
30
1E-16
41
1
10
14.1950133938451
20
-4.41853388460677
30
0
41
1
10
14.5569300088149
20
-4.32900621510592
30
0
41
1
10
14.7405029200532
20
-4.27932130727928
30
0
41
1
10
15.2981440106559
20
-4.11819941433581
30
-2E-16
41
1
10
15.6790727555079
20
-3.99480180765369
30
-2E-16
41
1
10
16.0680782070565
20
-3.86014023690456
30
-2E-16
0
SPLINE
5
F7
100
AcDbEntity
8
1
62
256
6
ByLayer
370
18
48
1
60
0
100
AcDbSpline
70
4
71
3
72
26
73
22
40
0
40
0
40
0
40
0
40
0.0601858094857596
40
0.0601858094857596
40
0.295139357114322
40
0.295139357114322
40
0.35387774402146
40
0.35387774402146
40
0.412616130928599
40
0.412616130928599
40
0.530092904742878
40
0.530092904742878
40
0.647569678557158
40
0.647569678557158
40
0.765046452371438
40
0.765046452371438
40
0.882523226185717
40
0.882523226185717
40
0.941261613092859
40
0.941261613092859
40
1
40
1
40
1
40
1
41
1
10
36.8751002000872
20
0.173154890970068
30
0
41
1
10
37.0955862991234
20
0.075499595415522
30
0
41
1
10
37.3161491898846
20
-0.0224264011721687
30
0
41
1
10
38.3983111683691
20
-0.502123439970063
30
0
41
1
10
39.254185224722
20
-0.879236565245321
30
1E-16
41
1
10
40.3279786249006
20
-1.32038251241181
30
1E-16
41
1
10
40.5429254587214
20
-1.40710584644802
30
1E-16
41
1
10
40.9734836571498
20
-1.57695713456448
30
1E-16
41
1
10
41.1888321080368
20
-1.65997625888269
30
1E-16
41
1
10
41.8320551414479
20
-1.90130542583478
30
1E-16
41
1
10
42.258454197685
20
-2.05247839027791
30
1E-16
41
1
10
43.108196823175
20
-2.33143762842826
30
1E-16
41
1
10
43.5318092878791
20
-2.45945187259278
30
2E-16
41
1
10
44.3780149181881
20
-2.68940492651709
30
-1E-16
41
1
10
44.8007045982757
20
-2.79139707514804
30
-1E-16
41
1
10
45.6473148303161
20
-2.96687007269719
30
0
41
1
10
46.0712557734803
20
-3.04031125667265
30
0
41
1
10
46.7095722081071
20
-3.12715261872029
30
0
41
1
10
46.9227430259501
20
-3.15222922039459
30
0
41
1
10
47.3501515751287
20
-3.19435928692548
30
0
41
1
10
47.5644202106422
20
-3.21112303563407
30
0
41
1
10
47.7792990599818
20
-3.22431240254124
30
0
0
SPLINE
5
F8
100
AcDbEntity
8
1
62
256
6
ByLayer
370
18
48
1
60
0
100
AcDbSpline
70
4
71
3
72
8
73
4
40
0
40
0
40
0
40
0
40
1
40
1
40
1
40
1
41
1
10
28.9582217530632
20
2.85528904381911
30
0
41
1
10
28.7507048873929
20
2.89933878593584
30
0
41
1
10
28.5429452821129
20
2.93933995073923
30
0
41
1
10
28.3348041176625
20
2.97529205265135
30
0
0
SPLINE
5
F9
100
AcDbEntity
8
1
62
256
6
ByLayer
370
18
48
1
60
0
100
AcDbSpline
70
4
71
3
72
8
73
4
40
0
40
0
40
0
40
0
40
1
40
1
40
1
40
1
41
1
10
27.9031787124677
20
-3.26480405543182
30
0
41
1
10
27.7610020313473
20
-3.28401300666255
30
0
41
1
10
27.6186464939217
20
-3.30139661686266
30
0
41
1
10
27.4760695792909
20
-3.31691162993269
30
0
0
SPLINE
5
FA
100
AcDbEntity
8
1
62
256
6
ByLayer
370
18
48
1
60
0
100
AcDbSpline
70
4
71
3
72
12
73
8
40
0
40
0
40
0
40
0
40
0.367784805146689
40
0.367784805146689
40
0.733484379869264
40
0.733484379869264
40
1
40
1
40
1
40
1
41
1
10
27.2494836461489
20
3.13750431659233
30
0
41
1
10
27.2510147186746
20
3.13596917166004
30
0
41
1
10
27.2528017751187
20
3.13461369991
30
0
41
1
10
27.256539088151
20
3.13244863320563
30
0
41
1
10
27.2585348036929
20
3.13160608942243
30
0
41
1
10
27.2619754159675
20
3.13060343858413
30
0
41
1
10
27.2634450723905
20
3.13031341104312
30
0
41
1
10
27.2648857821952
20
3.13015640333577
30
0
0
SPLINE
5
FB
100
AcDbEntity
8
1
62
256
6
ByLayer
370
18
48
1
60
0
100
AcDbSpline
70
4
71
3
72
16
73
12
40
0
40
0
40
0
40
0
40
0.164019417559296
40
0.164019417559296
40
0.331215534047436
40
0.331215534047436
40
0.498411650535576
40
0.498411650535576
40
0.665607767023716
40
0.665607767023716
40
1
40
1
40
1
40
1
41
1
10
12.8853546619569
20
4.59998175116831
30
0
41
1
10
13.029166297929
20
4.59948504418344
30
0
41
1
10
13.1812409211244
20
4.58887402435496
30
0
41
1
10
13.5010184056716
20
4.55187629269122
30
1E-16
41
1
10
13.6690163593632
20
4.52513402582647
30
-1E-16
41
1
10
14.0159065935664
20
4.4585184914223
30
-1E-16
41
1
10
14.1950133938448
20
4.41853388460683
30
0
41
1
10
14.5569300088145
20
4.32900621510601
30
0
41
1
10
14.7405029200528
20
4.27932130727936
30
0
41
1
10
15.2981440106555
20
4.11819941433592
30
2E-16
41
1
10
15.6790727555075
20
3.99480180765383
30
2E-16
41
1
10
16.0680782070561
20
3.86014023690473
30
2E-16
0
SPLINE
5
FC
100
AcDbEntity
8
1
62
256
6
ByLayer
370
18
48
1
60
0
100
AcDbSpline
70
4
71
3
72
8
73
4
40
0
40
0
40
0
40
0
40
1
40
1
40
1
40
1
41
1
10
47.8053147053605
20
-3.2874611480388
30
0
41
1
10
47.7587343296073
20
-3.31870394553494
30
0
41
1
10
47.7121790201127
20
-3.34985533750012
30
0
41
1
10
47.6656506380522
20
-3.38090934513684
30
0
0
SPLINE
5
FD
100
AcDbEntity
8
1
62
256
6
ByLayer
370
18
48
1
60
0
100
AcDbSpline
70
4
71
3
72
20
73
16
40
0
40
0
40
0
40
0
40
0.294648447160901
40
0.294648447160901
40
0.368310558951125
40
0.368310558951125
40
0.441972670741349
40
0.441972670741349
40
0.589296894321799
40
0.589296894321799
40
0.883945341482701
40
0.883945341482701
40
0.957607453272927
40
0.957607453272927
40
1
40
1
40
1
40
1
41
1
10
25.972421528866
20
4.42789867161468
30
0
41
1
10
25.1867916756736
20
4.56166866437988
30
1E-16
41
1
10
24.4029624362816
20
4.61874985276418
30
0
41
1
10
23.4108881002345
20
4.58857159477293
30
0
41
1
10
23.2114238564153
20
4.57740475859708
30
0
41
1
10
22.8143007671955
20
4.54508130438759
30
1E-16
41
1
10
22.6163749355678
20
4.52393954907117
30
-1E-16
41
1
10
22.023942631623
20
4.44597198154156
30
-1E-16
41
1
10
21.6307777662736
20
4.37461019239433
30
0
41
1
10
20.4523591839711
20
4.10530996577816
30
2E-16
41
1
10
19.668264890004
20
3.85216832963823
30
2E-16
41
1
10
18.675684180465
20
3.4525411486488
30
-2E-16
41
1
10
18.4763147701121
20
3.36834570926371
30
-2E-16
41
1
10
18.1630369996088
20
3.2303050147745
30
-2E-16
41
1
10
18.0486786568386
20
3.17871139460541
30
-2E-16
41
1
10
17.9343587199459
20
3.12599450083795
30
-2E-16
0
SPLINE
5
FE
100
AcDbEntity
8
1
62
256
6
ByLayer
370
18
48
1
60
0
100
AcDbSpline
70
4
71
3
72
26
73
22
40
0
40
0
40
0
40
0
40
0.124999999999993
40
0.124999999999993
40
0.249999999999986
40
0.249999999999986
40
0.312499999999982
40
0.312499999999982
40
0.374999999999979
40
0.374999999999979
40
0.437499999999975
40
0.437499999999975
40
0.499999999999972
40
0.499999999999972
40
0.624999999999979
40
0.624999999999979
40
0.749999999999986
40
0.749999999999986
40
0.874999999999993
40
0.874999999999993
40
1
40
1
40
1
40
1
41
1
10
48.9522381487652
20
0.0412312866050115
30
0
41
1
10
48.9356589644627
20
-0.0134326017991384
30
0
41
1
10
48.9165977998608
20
-0.0668467526895427
30
0
41
1
10
48.873324624815
20
-0.170995918406987
30
0
41
1
10
48.8490429761671
20
-0.221606246334488
30
0
41
1
10
48.8108579372942
20
-0.290223578382353
30
0
41
1
10
48.7977482643749
20
-0.312084868624481
30
0
41
1
10
48.7707260318913
20
-0.353603180684729
30
0
41
1
10
48.756845277716
20
-0.373166061385888
30
0
41
1
10
48.7293993538009
20
-0.40836913596479
30
0
41
1
10
48.7156953274376
20
-0.424231708881251
30
0
41
1
10
48.6883069075102
20
-0.452406773921353
30
0
41
1
10
48.6744976977375
20
-0.464796450161146
30
0
41
1
10
48.6344018907091
20
-0.495270383786306
30
0
41
1
10
48.6088863450915
20
-0.507195320602506
30
0
41
1
10
48.5615498148456
20
-0.514557322251136
30
0
41
1
10
48.5399261795606
20
-0.510041090258824
30
0
41
1
10
48.500615978436
20
-0.487102195052728
30
0
41
1
10
48.4833076721821
20
-0.469048843876237
30
0
41
1
10
48.4519740189797
20
-0.422112440219365
30
0
41
1
10
48.4379959974075
20
-0.393115193566132
30
0
41
1
10
48.4256360597474
20
-0.360121750601991
30
0
0
SPLINE
5
FF
100
AcDbEntity
8
1
62
256
6
ByLayer
370
18
48
1
60
0
100
AcDbSpline
70
4
71
3
72
8
73
4
40
0
40
0
40
0
40
0
40
1
40
1
40
1
40
1
41
1
10
48.6013109132644
20
1.33128795359087
30
0
41
1
10
48.737876054753
20
0.952243407351602
30
0
41
1
10
48.8697503903681
20
0.571522436530671
30
0
41
1
10
48.9968415814717
20
0.189092040665798
30
0
0
SPLINE
5
100
100
AcDbEntity
8
1
62
256
6
ByLayer
370
18
48
1
60
0
100
AcDbSpline
70
4
71
3
72
12
73
8
40
0
40
0
40
0
40
0
40
0.5
40
0.5
40
0.75
40
0.75
40
1
40
1
40
1
40
1
41
1
10
16.4886745709433
20
-2.40351159336311
30
1E-16
41
1
10
16.234751726233
20
-2.2717006311544
30
1E-16
41
1
10
15.9740203355596
20
-2.14519448505473
30
1E-16
41
1
10
15.5710831042696
20
-1.96843355004839
30
1E-16
41
1
10
15.4348029916304
20
-1.91167214896842
30
1E-16
41
1
10
15.1580947887329
20
-1.80321777099459
30
1E-16
41
1
10
15.0178417590473
20
-1.75161499032717
30
1E-16
41
1
10
14.8768860178966
20
-1.70333282933868
30
1E-16
0
SPLINE
5
101
100
AcDbEntity
8
1
62
256
6
ByLayer
370
18
48
1
60
0
100
AcDbSpline
70
4
71
3
72
18
73
14
40
0
40
0
40
0
40
0
40
0.174747749977765
40
0.174747749977765
40
0.349495499955529
40
0.349495499955529
40
0.524243249933294
40
0.524243249933294
40
0.698990999911058
40
0.698990999911058
40
0.873738749888823
40
0.873738749888823
40
1
40
1
40
1
40
1
41
1
10
27.4760695792909
20
-1.92600293563774
30
1E-16
41
1
10
27.8908342959699
20
-2.08664166965184
30
1E-16
41
1
10
28.3053181753766
20
-2.23646201102218
30
1E-16
41
1
10
29.1345016407269
20
-2.51373135536701
30
2E-16
41
1
10
29.5495785996122
20
-2.6417674872078
30
2E-16
41
1
10
30.3786248729289
20
-2.87034181428209
30
0
41
1
10
30.7924857450014
20
-2.97084578049692
30
0
41
1
10
31.619543938815
20
-3.14353734478954
30
0
41
1
10
32.0332717769596
20
-3.21511158890283
30
0
41
1
10
32.8636870205509
20
-3.32676533723247
30
0
41
1
10
33.2778773456808
20
-3.36688665305923
30
0
41
1
10
33.9905307194059
20
-3.40789133895697
30
0
41
1
10
34.2891235561894
20
-3.4166121537981
30
0
41
1
10
34.588067544901
20
-3.41675776477467
30
0
0
SPLINE
5
102
100
AcDbEntity
8
1
62
256
6
ByLayer
370
18
48
1
60
0
100
AcDbSpline
70
4
71
3
72
8
73
4
40
0
40
0
40
0
40
0
40
1
40
1
40
1
40
1
41
1
10
48.4256360597476
20
-0.360121750601792
30
0
41
1
10
48.386859190845
20
-0.25661132460678
30
0
41
1
10
48.3446818049883
20
-0.150860210341364
30
0
41
1
10
48.2991077368225
20
-0.042870934551388
30
0
0
SPLINE
5
103
100
AcDbEntity
8
1
62
256
6
ByLayer
370
18
48
1
60
0
100
AcDbSpline
70
4
71
3
72
22
73
18
40
0
40
0
40
0
40
0
40
0.0017071636095373
40
0.0017071636095373
40
0.0829928719348953
40
0.0829928719348953
40
0.245564288585612
40
0.245564288585612
40
0.408135705236329
40
0.408135705236329
40
0.570707121887046
40
0.570707121887046
40
0.733278538537762
40
0.733278538537762
40
0.895849955188479
40
0.895849955188479
40
1
40
1
40
1
40
1
41
1
10
27.2556736837909
20
-1.95928421871679
30
1E-16
41
1
10
27.2556735362454
20
-1.96064504519885
30
1E-16
41
1
10
27.2556733885448
20
-1.962005077562
30
1E-16
41
1
10
27.2556662006275
20
-2.02808374161376
30
1E-16
41
1
10
27.25565879418
20
-2.09110204802741
30
1E-16
41
1
10
27.2556358489139
20
-2.27275122524887
30
1E-16
41
1
10
27.2556195305486
20
-2.3846740325445
30
1E-16
41
1
10
27.2555851720724
20
-2.59060522986346
30
-1E-16
41
1
10
27.2555671258486
20
-2.68464173049759
30
-1E-16
41
1
10
27.2555293311411
20
-2.85391287841551
30
0
41
1
10
27.2555098708014
20
-2.92780936265066
30
0
41
1
10
27.2554699202138
20
-3.0532802165047
30
0
41
1
10
27.2554495742116
20
-3.10445270679313
30
0
41
1
10
27.2554077829884
20
-3.1835961507179
30
0
41
1
10
27.2553867244244
20
-3.21082698695335
30
0
41
1
10
27.2553515200765
20
-3.23606616372908
30
0
41
1
10
27.2553376088198
20
-3.24106132096586
30
0
41
1
10
27.2553234454344
20
-3.24111900700802
30
0
0
SPLINE
5
104
100
AcDbEntity
8
1
62
256
6
ByLayer
370
18
48
1
60
0
100
AcDbSpline
70
4
71
3
72
10
73
6
40
0
40
0
40
0
40
0
40
0.5
40
0.5
40
1
40
1
40
1
40
1
41
1
10
47.8053147053607
20
-3.2874611480386
30
0
41
1
10
47.7956034632252
20
-3.29311039159927
30
0
41
1
10
47.7872638053405
20
-3.29509797023846
30
0
41
1
10
47.7730591297174
20
-3.29189564006944
30
0
41
1
10
47.7671545794495
20
-3.28674908855012
30
0
41
1
10
47.7620810605465
20
-3.27831955872489
30
0
0
SPLINE
5
105
100
AcDbEntity
8
1
62
256
6
ByLayer
370
18
48
1
60
0
100
AcDbSpline
70
4
71
3
72
16
73
12
40
0
40
0
40
0
40
0
40
0.204467081661197
40
0.204467081661197
40
0.408934163322394
40
0.408934163322394
40
0.613401244983591
40
0.613401244983591
40
0.817868326644787
40
0.817868326644787
40
1
40
1
40
1
40
1
41
1
10
47.6656506380524
20
3.38090934514059
30
0
41
1
10
47.2587404845438
20
3.37973069734801
30
0
41
1
10
46.8519042892962
20
3.36284110266448
30
0
41
1
10
46.0396970406943
20
3.29832916012234
30
0
41
1
10
45.6338281039362
20
3.25070864819992
30
0
41
1
10
44.8205898992188
20
3.12570852344126
30
0
41
1
10
44.4132711496059
20
3.04827277592682
30
0
41
1
10
43.6008563528669
20
2.86642953504736
30
0
41
1
10
43.1950485821859
20
2.76192614581356
30
1E-16
41
1
10
42.4266534589297
20
2.54086584213019
30
-1E-16
41
1
10
42.0637815143753
20
2.42670820199416
30
-1E-16
41
1
10
41.701606537421
20
2.30430491156491
30
-1E-16
0
SPLINE
5
106
100
AcDbEntity
8
1
62
256
6
ByLayer
370
18
48
1
60
0
100
AcDbSpline
70
4
71
3
72
8
73
4
40
0
40
0
40
0
40
0
40
1
40
1
40
1
40
1
41
1
10
27.2552296026419
20
3.17413136058718
30
0
41
1
10
27.2515316907142
20
3.17442436975054
30
0
41
1
10
27.2478570155428
20
3.17491013216133
30
0
41
1
10
27.2442126866383
20
3.17558870399682
30
0
0
SPLINE
5
107
100
AcDbEntity
8
1
62
256
6
ByLayer
370
18
48
1
60
0
100
AcDbSpline
70
4
71
3
72
9
73
5
40
0
40
0
40
0
40
0
40
0.667260317947486
40
1
40
1
40
1
40
1
41
1
10
17.6503066068825
20
-2.96196028795245
30
2E-16
41
1
10
17.2954231273359
20
-3.15812335832391
30
2E-16
41
1
10
16.7667249701896
20
-3.45640769026667
30
2E-16
41
1
10
16.2427970051013
20
-3.75898171733286
30
-2E-16
41
1
10
16.0689949370243
20
-3.86002138162596
30
-2E-16
0
SPLINE
5
108
100
AcDbEntity
8
1
62
256
6
ByLayer
370
18
48
1
60
0
100
AcDbSpline
70
4
71
3
72
8
73
4
40
0
40
0
40
0
40
0
40
1
40
1
40
1
40
1
41
1
10
47.350572833212
20
-0.587211610249284
30
0
41
1
10
47.374020775128
20
-0.588800615277165
30
0
41
1
10
47.3974269349099
20
-0.589840946216185
30
0
41
1
10
47.4208188804939
20
-0.590346515825956
30
0
0
SPLINE
5
109
100
AcDbEntity
8
1
62
256
6
ByLayer
370
18
48
1
60
0
100
AcDbSpline
70
4
71
3
72
8
73
4
40
0
40
0
40
0
40
0
40
1
40
1
40
1
40
1
41
1
10
27.2552602474053
20
3.2101053473836
30
0
41
1
10
27.2552501486463
20
3.20038676485655
30
0
41
1
10
27.2552399438192
20
3.18839808810657
30
0
41
1
10
27.255229602642
20
3.17413136058715
30
0
0
SPLINE
5
10A
100
AcDbEntity
8
1
62
256
6
ByLayer
370
18
48
1
60
0
100
AcDbSpline
70
4
71
3
72
12
73
8
40
0
40
0
40
0
40
0
40
0.249999999999973
40
0.249999999999973
40
0.499999999999945
40
0.499999999999945
40
1
40
1
40
1
40
1
41
1
10
27.1550984111071
20
-2.10179664887482
30
1E-16
41
1
10
27.1550984111071
20
-2.08402685710738
30
1E-16
41
1
10
27.1624636873455
20
-2.06303605618649
30
1E-16
41
1
10
27.1835306341795
20
-2.02629506210585
30
1E-16
41
1
10
27.1969834304891
20
-2.01004329941358
30
1E-16
41
1
10
27.2393967599557
20
-1.96953159125525
30
1E-16
41
1
10
27.2708460539755
20
-1.95234565489233
30
1E-16
41
1
10
27.2993408295354
20
-1.94863108632978
30
1E-16
0
SPLINE
5
10B
100
AcDbEntity
8
1
62
256
6
ByLayer
370
18
48
1
60
0
100
AcDbSpline
70
4
71
3
72
10
73
6
40
0
40
0
40
0
40
0
40
0.5
40
0.5
40
1
40
1
40
1
40
1
41
1
10
47.3053741288078
20
-0.0883576096730962
30
0
41
1
10
47.3104571178464
20
-0.171884889926247
30
0
41
1
10
47.317005143111
20
-0.255967863504878
30
0
41
1
10
47.3323194826087
20
-0.42283920132391
30
0
41
1
10
47.341052827579
20
-0.505422876008936
30
0
41
1
10
47.350572833212
20
-0.587211610249341
30
0
0
SPLINE
5
10C
100
AcDbEntity
8
1
62
256
6
ByLayer
370
18
48
1
60
0
100
AcDbSpline
70
4
71
3
72
12
73
8
40
0
40
0
40
0
40
0
40
0.450047791130593
40
0.450047791130593
40
0.902969626487096
40
0.902969626487096
40
1
40
1
40
1
40
1
41
1
10
27.4760695792909
20
-1.50904886321706
30
1E-16
41
1
10
27.4738181050201
20
-1.50810661899615
30
1E-16
41
1
10
27.4715006017225
20
-1.50738562914768
30
1E-16
41
1
10
27.4670985521199
20
-1.50655358425678
30
1E-16
41
1
10
27.4649487785628
20
-1.50643668300222
30
1E-16
41
1
10
27.462686640747
20
-1.50672121261937
30
1E-16
41
1
10
27.462293623105
20
-1.5067885011573
30
1E-16
41
1
10
27.4619149436697
20
-1.50687214069168
30
1E-16
0
SPLINE
5
10D
100
AcDbEntity
8
1
62
256
6
ByLayer
370
18
48
1
60
0
100
AcDbSpline
70
2053
71
3
72
52
73
48
40
0
40
0
40
0
40
0
40
0.0625000000000033
40
0.0625000000000033
40
0.125000000000007
40
0.125000000000007
40
0.18750000000001
40
0.18750000000001
40
0.21875000000001
40
0.21875000000001
40
0.250000000000011
40
0.250000000000011
40
0.281250000000012
40
0.281250000000012
40
0.312500000000013
40
0.312500000000013
40
0.343750000000013
40
0.343750000000013
40
0.375000000000014
40
0.375000000000014
40
0.406250000000015
40
0.406250000000015
40
0.437500000000015
40
0.437500000000015
40
0.500000000000017
40
0.500000000000017
40
0.625000000000016
40
0.625000000000016
40
0.656250000000014
40
0.656250000000014
40
0.687500000000013
40
0.687500000000013
40
0.718750000000011
40
0.718750000000011
40
0.75000000000001
40
0.75000000000001
40
0.812500000000007
40
0.812500000000007
40
0.843750000000006
40
0.843750000000006
40
0.875000000000005
40
0.875000000000005
40
0.906250000000004
40
0.906250000000004
40
0.937500000000002
40
0.937500000000002
40
1
40
1
40
1
40
1
41
1
10
48.0904104369466
20
-1.81849694156766
30
0
41
1
10
48.0634126006483
20
-1.86662097554373
30
0
41
1
10
48.0380411423668
20
-1.90386893570735
30
-1E-16
41
1
10
47.9900044576504
20
-1.95710905503037
30
-1E-16
41
1
10
47.9685240857789
20
-1.9717122312538
30
-1E-16
41
1
10
47.9295410115108
20
-1.97587431683951
30
-1E-16
41
1
10
47.9129398741296
20
-1.96532534102062
30
-1E-16
41
1
10
47.8915380705304
20
-1.92945517092133
30
-1E-16
41
1
10
47.8852002869744
20
-1.9144388420215
30
-1E-16
41
1
10
47.8739475028913
20
-1.87828919796928
30
-1E-16
41
1
10
47.8689995708184
20
-1.8569684411172
30
-1E-16
41
1
10
47.8607430043247
20
-1.80837646336013
30
1E-16
41
1
10
47.8574977029582
20
-1.78160822075557
30
1E-16
41
1
10
47.8528286233322
20
-1.72304069075733
30
1E-16
41
1
10
47.8514049369706
20
-1.69076040032871
30
1E-16
41
1
10
47.8508128219528
20
-1.6232337516806
30
1E-16
41
1
10
47.8516079706673
20
-1.58807919759866
30
1E-16
41
1
10
47.8557443839171
20
-1.51487284631349
30
1E-16
41
1
10
47.8591369006717
20
-1.47679134646782
30
1E-16
41
1
10
47.8685469637582
20
-1.40194437730321
30
1E-16
41
1
10
47.8746647432022
20
-1.3642563391405
30
1E-16
41
1
10
47.8896872124456
20
-1.29101190596333
30
1E-16
41
1
10
47.8984341250249
20
-1.25606709074105
30
1E-16
41
1
10
47.9285505611701
20
-1.15606741855947
30
1E-16
41
1
10
47.9534503780881
20
-1.09790781570277
30
1E-16
41
1
10
48.0349448749312
20
-0.95952709548547
30
1E-16
41
1
10
48.0981044250197
20
-0.914205951870571
30
1E-16
41
1
10
48.166190217054
20
-0.913556292298438
30
1E-16
41
1
10
48.1792982574247
20
-0.916186108582195
30
1E-16
41
1
10
48.2042536170321
20
-0.927241685833536
30
1E-16
41
1
10
48.2160040491398
20
-0.935689081616061
30
1E-16
41
1
10
48.2371188127596
20
-0.958116812730225
30
1E-16
41
1
10
48.2465941582373
20
-0.972130476416623
30
1E-16
41
1
10
48.2629837601324
20
-1.00640874375307
30
0
41
1
10
48.2699127941721
20
-1.02691680728813
30
0
41
1
10
48.2851517223476
20
-1.09642388630721
30
0
41
1
10
48.2881219964814
20
-1.15547629434553
30
0
41
1
10
48.2798319786182
20
-1.25515920721995
30
0
41
1
10
48.2749040520531
20
-1.29097250590283
30
0
41
1
10
48.2615293278475
20
-1.36311823490829
30
0
41
1
10
48.253048616794
20
-1.39995608344901
30
0
41
1
10
48.2331508701875
20
-1.47390381526094
30
0
41
1
10
48.2220254816381
20
-1.5100133567438
30
0
41
1
10
48.1979074549046
20
-1.58073807475535
30
0
41
1
10
48.1849527862157
20
-1.61515633733089
30
0
41
1
10
48.1453833161576
20
-1.71218484195919
30
0
41
1
10
48.117408273245
20
-1.77037290759159
30
0
41
1
10
48.0904104369466
20
-1.81849694156766
30
0
0
SPLINE
5
10E
100
AcDbEntity
8
1
62
256
6
ByLayer
370
18
48
1
60
0
100
AcDbSpline
70
4
71
3
72
8
73
4
40
0
40
0
40
0
40
0
40
1
40
1
40
1
40
1
41
1
10
27.4619149436697
20
-1.50687214069168
30
1E-16
41
1
10
27.070167733257
20
-1.59339797550854
30
1E-16
41
1
10
26.675402949092
20
-1.68946740523788
30
1E-16
41
1
10
26.280098411096
20
-1.78775552731713
30
1E-16
0
SPLINE
5
10F
100
AcDbEntity
8
1
62
256
6
ByLayer
370
18
48
1
60
0
100
AcDbSpline
70
4
71
3
72
20
73
16
40
0
40
0
40
0
40
0
40
0.0525442599938193
40
0.0525442599938193
40
0.210453549994849
40
0.210453549994849
40
0.368362839995879
40
0.368362839995879
40
0.52627212999691
40
0.52627212999691
40
0.68418141999794
40
0.68418141999794
40
0.84209070999897
40
0.84209070999897
40
1
40
1
40
1
40
1
41
1
10
35.9861143517556
20
0.104202055310452
30
0
41
1
10
35.852210315971
20
0.166014052642026
30
0
41
1
10
35.7183416051107
20
0.227757673051087
30
0
41
1
10
35.182161881186
20
0.474474480058348
30
0
41
1
10
34.779850917852
20
0.65828119364798
30
0
41
1
10
33.9733053598989
20
1.01911071522417
30
-1E-16
41
1
10
33.5704407968604
20
1.19550458023906
30
-1E-16
41
1
10
32.7657411686646
20
1.53546172676403
30
-1E-16
41
1
10
32.3635702879724
20
1.69918092976505
30
-1E-16
41
1
10
31.5576755571809
20
2.01037821790706
30
-1E-16
41
1
10
31.1541878060519
20
2.15772221036653
30
-1E-16
41
1
10
30.349296851434
20
2.43078992376374
30
-1E-16
41
1
10
29.9472115754982
20
2.55678402919779
30
-2E-16
41
1
10
29.141837020674
20
2.78480312342956
30
1E-16
41
1
10
28.7382638683909
20
2.88686531813298
30
0
41
1
10
28.3348041176625
20
2.97529205265133
30
0
0
SPLINE
5
110
100
AcDbEntity
8
1
62
256
6
ByLayer
370
18
48
1
60
0
100
AcDbSpline
70
4
71
3
72
8
73
4
40
0
40
0
40
0
40
0
40
1
40
1
40
1
40
1
41
1
10
48.6013109132644
20
-1.33128795359087
30
0
41
1
10
48.7378760547548
20
-0.9522434073466
30
0
41
1
10
48.8697503903715
20
-0.571522436520667
30
0
41
1
10
48.9968415814767
20
-0.189092040650735
30
0
0
SPLINE
5
111
100
AcDbEntity
8
1
62
256
6
ByLayer
370
18
48
1
60
0
100
AcDbSpline
70
4
71
3
72
26
73
22
40
0
40
0
40
0
40
0
40
0.125000000000001
40
0.125000000000001
40
0.250000000000002
40
0.250000000000002
40
0.312500000000003
40
0.312500000000003
40
0.375000000000003
40
0.375000000000003
40
0.500000000000003
40
0.500000000000003
40
0.562500000000002
40
0.562500000000002
40
0.625000000000002
40
0.625000000000002
40
0.750000000000001
40
0.750000000000001
40
0.875000000000001
40
0.875000000000001
40
1
40
1
40
1
40
1
41
1
10
47.4262638348234
20
-0.60165120093464
30
0
41
1
10
47.4431728813938
20
-0.769503519871535
30
0
41
1
10
47.4633789975138
20
-0.932291912929344
30
1E-16
41
1
10
47.506056376992
20
-1.2487225562314
30
1E-16
41
1
10
47.5285475313843
20
-1.40236016504025
30
1E-16
41
1
10
47.5616779340433
20
-1.62600886935013
30
1E-16
41
1
10
47.572616193422
20
-1.699344279212
30
1E-16
41
1
10
47.5936374606024
20
-1.84120301363245
30
1E-16
41
1
10
47.6037700175207
20
-1.91005862756745
30
1E-16
41
1
10
47.6327546010206
20
-2.11051920156146
30
1E-16
41
1
10
47.6501592194082
20
-2.23605916651803
30
1E-16
41
1
10
47.6729167650281
20
-2.41191689861088
30
1E-16
41
1
10
47.6799807289831
20
-2.46869056170993
30
2E-16
41
1
10
47.6928668619237
20
-2.5764005627737
30
-1E-16
41
1
10
47.6986982524503
20
-2.62738124000498
30
-1E-16
41
1
10
47.7146483080172
20
-2.77187925737155
30
-1E-16
41
1
10
47.7231868740014
20
-2.85700209320092
30
0
41
1
10
47.7384254571293
20
-3.00454318304912
30
0
41
1
10
47.7451589534179
20
-3.06708540978019
30
0
41
1
10
47.7599974235863
20
-3.16517082075001
30
0
41
1
10
47.7681466894748
20
-3.20130206972283
30
0
41
1
10
47.7792990464917
20
-3.22431240260835
30
0
0
SPLINE
5
112
100
AcDbEntity
8
SK1
62
256
6
ByLayer
370
18
48
1
60
0
100
AcDbSpline
70
4
71
3
72
8
73
4
40
0
40
0
40
0
40
0
40
1
40
1
40
1
40
1
41
1
10
-39.35
20
-4.07839924062498
30
0
41
1
10
-39.4060167174767
20
-4.02107157551924
30
0
41
1
10
-39.4620011858339
20
-3.96371343718266
30
0
41
1
10
-39.5179491924311
20
-3.90632084495573
30
0
0
SPLINE
5
113
100
AcDbEntity
8
SK1
62
256
6
ByLayer
370
18
48
1
60
0
100
AcDbSpline
70
4
71
3
72
12
73
8
40
0
40
0
40
0
40
0
40
0.500000000000004
40
0.500000000000004
40
0.750000000000002
40
0.750000000000002
40
1
40
1
40
1
40
1
41
1
10
-39.35
20
-4.26843594520639
30
0
41
1
10
-39.3264103729719
20
-4.29257763538658
30
0
41
1
10
-39.3036886178189
20
-4.31697819861961
30
0
41
1
10
-39.275599229617
20
-4.34885686970875
30
0
41
1
10
-39.2670477807071
20
-4.35892246181083
30
0
41
1
10
-39.2542670006876
20
-4.37509908242458
30
0
41
1
10
-39.25
20
-4.38129727338602
30
0
41
1
10
-39.25
20
-4.3831700805047
30
0
0
SPLINE
5
114
100
AcDbEntity
8
SK1
62
256
6
ByLayer
370
18
48
1
60
0
100
AcDbSpline
70
4
71
3
72
8
73
4
40
0
40
0
40
0
40
0
40
1
40
1
40
1
40
1
41
1
10
-39.5179491924311
20
-4.09635754953712
30
0
41
1
10
-39.4620006924631
20
-4.15375064787367
30
0
41
1
10
-39.4060162432942
20
-4.21110876538029
30
0
41
1
10
-39.35
20
-4.26843594520636
30
0
0
SPLINE
5
115
100
AcDbEntity
8
SK1
62
256
6
ByLayer
370
18
48
1
60
0
100
AcDbSpline
70
4
71
3
72
10
73
6
40
0
40
0
40
0
40
0
40
0.5
40
0.5
40
1
40
1
40
1
40
1
41
1
10
-39.5179491924311
20
4.09635754953712
30
0
41
1
10
-39.5876702969376
20
4.00640315964174
30
0
41
1
10
-39.6641392526984
20
3.90480360873215
30
0
41
1
10
-39.8261142497238
20
3.685338670813
30
0
41
1
10
-39.9120447599511
20
3.56685001874999
30
0
41
1
10
-40
20
3.44367206334118
30
0
0
SPLINE
5
116
100
AcDbEntity
8
SK1
62
256
6
ByLayer
370
18
48
1
60
0
100
AcDbSpline
70
4
71
3
72
10
73
6
40
0
40
0
40
0
40
0
40
0.5
40
0.5
40
1
40
1
40
1
40
1
41
1
10
-39.5179491924311
20
-4.09635754953712
30
0
41
1
10
-39.5876702969376
20
-4.00640315964174
30
0
41
1
10
-39.6641392526985
20
-3.90480360873215
30
0
41
1
10
-39.8261142497238
20
-3.685338670813
30
0
41
1
10
-39.9120447599511
20
-3.56685001874999
30
0
41
1
10
-40
20
-3.44367206334118
30
0
0
SPLINE
5
117
100
AcDbEntity
8
SK1
62
256
6
ByLayer
370
18
48
1
60
0
100
AcDbSpline
70
4
71
3
72
12
73
8
40
0
40
0
40
0
40
0
40
0.5
40
0.5
40
0.75
40
0.75
40
1
40
1
40
1
40
1
41
1
10
-40.0000000000001
20
-3.14697735340786
30
0
41
1
10
-39.9123015823215
20
-3.28313905253125
30
0
41
1
10
-39.8274378507374
20
-3.41534869853785
30
0
41
1
10
-39.7059807717948
20
-3.60626205458198
30
0
41
1
10
-39.6664759830087
20
-3.66865539656124
30
0
41
1
10
-39.589878798846
20
-3.79047498804465
30
0
41
1
10
-39.5527407465257
20
-3.84998091932613
30
0
41
1
10
-39.5179491924311
20
-3.90632084495573
30
0
0
SPLINE
5
118
100
AcDbEntity
8
SK1
62
256
6
ByLayer
370
18
48
1
60
0
100
AcDbSpline
70
4
71
3
72
8
73
4
40
0
40
0
40
0
40
0
40
1
40
1
40
1
40
1
41
1
10
-39.5179491924311
20
4.09635754953712
30
0
41
1
10
-39.4620006924631
20
4.15375064787369
30
0
41
1
10
-39.4060162432942
20
4.21110876538029
30
0
41
1
10
-39.35
20
4.26843594520636
30
0
0
SPLINE
5
119
100
AcDbEntity
8
SK1
62
256
6
ByLayer
370
18
48
1
60
0
100
AcDbSpline
70
4
71
3
72
12
73
8
40
0
40
0
40
0
40
0
40
0.249999999999998
40
0.249999999999998
40
0.499999999999996
40
0.499999999999996
40
1
40
1
40
1
40
1
41
1
10
-39.25
20
-4.21213704638149
30
0
41
1
10
-39.25
20
-4.20709555116522
30
0
41
1
10
-39.254235624227
20
-4.19800263139251
30
0
41
1
10
-39.2670201311554
20
-4.17697660670061
30
0
41
1
10
-39.2754786511825
20
-4.1650726065422
30
0
41
1
10
-39.3037388067419
20
-4.12838921401024
30
0
41
1
10
-39.3264172660865
20
-4.10253387637252
30
0
41
1
10
-39.35
20
-4.078399240625
30
0
0
SPLINE
5
11A
100
AcDbEntity
8
SK1
62
256
6
ByLayer
370
18
48
1
60
0
100
AcDbSpline
70
4
71
3
72
12
73
8
40
0
40
0
40
0
40
0
40
0.499999999999995
40
0.499999999999995
40
0.749999999999997
40
0.749999999999997
40
1
40
1
40
1
40
1
41
1
10
-39.35
20
4.26843594520639
30
0
41
1
10
-39.3264103729719
20
4.29257763538658
30
0
41
1
10
-39.3036886178189
20
4.31697819861961
30
0
41
1
10
-39.275599229617
20
4.34885686970875
30
0
41
1
10
-39.2670477807071
20
4.35892246181083
30
0
41
1
10
-39.2542670006876
20
4.37509908242458
30
0
41
1
10
-39.25
20
4.38129727338602
30
0
41
1
10
-39.25
20
4.38317008050473
30
0
0
SPLINE
5
11B
100
AcDbEntity
8
1
62
256
6
ByLayer
370
18
48
1
60
0
100
AcDbSpline
70
4
71
1
72
4
73
2
40
0
40
0
40
1
40
1
41
1
10
27.2152776974016
20
3.32436620666607
30
0
41
1
10
25.9286769005026
20
4.61028631526588
30
0
0
SPLINE
5
11C
100
AcDbEntity
8
1
62
256
6
ByLayer
370
18
48
1
60
0
100
AcDbSpline
70
4
71
3
72
18
73
14
40
0
40
0
40
0
40
0
40
0.149240171062323
40
0.260475492636219
40
0.336450205449422
40
0.405962653907601
40
0.476377074187754
40
0.544847633283256
40
0.623557137600167
40
0.70059294854818
40
0.777420325865876
40
0.881026153219759
40
1
40
1
40
1
40
1
41
1
10
34.5823068436433
20
3.24694418813087
30
0
41
1
10
34.2245850860231
20
3.24614236305561
30
0
41
1
10
33.6002276565571
20
3.24525504914379
30
0
41
1
10
32.7937004769578
20
3.24473271476586
30
0
41
1
10
32.1783293717043
20
3.24564900464142
30
0
41
1
10
31.6607890786349
20
3.24529878550862
30
0
41
1
10
31.1612356509586
20
3.24397546463769
30
0
41
1
10
30.6396355621782
20
3.24375306933624
30
0
41
1
10
30.1021614384027
20
3.24376149571856
30
0
41
1
10
29.5446596575839
20
3.24303729521566
30
0
41
1
10
28.9274608053507
20
3.24236717077099
30
0
41
1
10
28.2098184994309
20
3.24264828918811
30
0
41
1
10
27.676347327904
20
3.24180024365845
30
0
41
1
10
27.3912063933051
20
3.24119513956171
30
0
0
SPLINE
5
11D
100
AcDbEntity
8
1
62
256
6
ByLayer
370
18
48
1
60
0
100
AcDbSpline
70
4
71
3
72
16
73
12
40
0
40
0
40
0
40
0
40
0.164712107989648
40
0.301610841276469
40
0.397669559509113
40
0.488661801033981
40
0.57996123925275
40
0.673491724362955
40
0.790670541549555
40
0.91050850251831
40
1
40
1
40
1
40
1
41
1
10
27.2552139512827
20
-3.24091037630811
30
0
41
1
10
27.5330884618344
20
-3.24158130357918
30
0
41
1
10
28.0419315696872
20
-3.24249695799611
30
0
41
1
10
28.7128080088419
20
-3.24246919651304
30
0
41
1
10
29.2594319170612
20
-3.24263604998495
30
0
41
1
10
29.729094447871
20
-3.24332633130607
30
0
41
1
10
30.1944961313683
20
-3.24377715195521
30
0
41
1
10
30.7040817111788
20
-3.24373526920297
30
0
41
1
10
31.261820125442
20
-3.2441570959663
30
0
41
1
10
31.812745876684
20
-3.24559546612986
30
0
41
1
10
32.1659438586746
20
-3.24545307906482
30
0
41
1
10
32.3169417901267
20
-3.24536042468978
30
0
0
SPLINE
5
11E
100
AcDbEntity
8
1
62
256
6
ByLayer
370
18
48
1
60
0
100
AcDbSpline
70
4
71
3
72
23
73
19
40
0
40
0
40
0
40
0
40
4.65412951997E-05
40
5.49599860311E-05
40
5.49599860311E-05
40
6.6831242717E-05
40
0.0015589223813858
40
0.0027344885927929
40
0.0048469225548879
40
0.0086526570327991
40
0.0155550772151056
40
0.0282280522215249
40
0.0519667359140479
40
0.0978885422210548
40
0.191182067802195
40
0.375662863985923
40
0.730472792962593
40
1
40
1
40
1
40
1
41
1
10
47.4846718639969
20
-0.0688401850371179
30
0
41
1
10
47.4846967003829
20
-0.0688476308797306
30
0
41
1
10
47.4847270108145
20
-0.068856862219036
30
0
41
1
10
47.4847594660155
20
-0.0688670572411354
30
0
41
1
10
47.4847709539778
20
-0.068870369887378
30
0
41
1
10
47.4838602042359
20
-0.0685047350989976
30
0
41
1
10
47.4823414336984
20
-0.0679457925383815
30
0
41
1
10
47.4795350062543
20
-0.0668625044071973
30
0
41
1
10
47.4753961470155
20
-0.0652827191918846
30
0
41
1
10
47.4678920484138
20
-0.0624083596842127
30
0
41
1
10
47.4541985663062
20
-0.0571723036430001
30
0
41
1
10
47.4287530696698
20
-0.047445768948478
30
0
41
1
10
47.3801881896399
20
-0.0288999621417929
30
0
41
1
10
47.2833888121352
20
0.008061097205541
30
0
41
1
10
47.0905418446069
20
0.082018726060852
30
0
41
1
10
46.7016696684097
20
0.232880398443939
30
0
41
1
10
46.1746730807655
20
0.44947400377913
30
0
41
1
10
45.7798910263292
20
0.623476273911649
30
0
41
1
10
45.6090930003774
20
0.700833125472684
30
0
0
SPLINE
5
11F
100
AcDbEntity
8
1
62
256
6
ByLayer
370
18
48
1
60
0
100
AcDbSpline
70
4
71
3
72
28
73
24
40
0
40
0
40
0
40
0
40
2.996409991E-07
40
3.5485479143E-06
40
3.5485479143E-06
40
6.6852194952E-06
40
6.6852194952E-06
40
0.0002603879690017
40
0.0004600900613693
40
0.0008173262504449
40
0.0014614717776454
40
0.0026318652546249
40
0.0047830018077016
40
0.0088221179479332
40
0.0166711953821564
40
0.0327287233975161
40
0.0679613075876921
40
0.151946360447835
40
0.291114253634132
40
0.403167287937075
40
0.539463509703189
40
0.738593222272253
40
1
40
1
40
1
40
1
41
1
10
24.5619045361113
20
-0.0950403979515071
30
0
41
1
10
24.5619054884484
20
-0.0950407033268463
30
0
41
1
10
24.5619101442464
20
-0.0950421968605042
30
0
41
1
10
24.5619151784343
20
-0.0950438225524408
30
0
41
1
10
24.5619322345057
20
-0.0950487841395216
30
0
41
1
10
24.5619113956029
20
-0.0950414149293124
30
0
41
1
10
24.5615621939425
20
-0.094910411619253
30
0
41
1
10
24.5609198371852
20
-0.0946681593639198
30
0
41
1
10
24.5597821256682
20
-0.0942408246743014
30
0
41
1
10
24.5580920919533
20
-0.0936052216572421
30
0
41
1
10
24.5550295908856
20
-0.0924547639480124
30
0
41
1
10
24.5494172982718
20
-0.0903483720076679
30
0
41
1
10
24.5389478296715
20
-0.086424967406856
30
0
41
1
10
24.5188024298714
20
-0.0788930338324008
30
0
41
1
10
24.4781704530522
20
-0.0637446360147464
30
0
41
1
10
24.3906686324546
20
-0.031172401527499
30
0
41
1
10
24.1866724389685
20
0.0451740538076137
30
0
41
1
10
23.7905402809884
20
0.197395532845974
30
0
41
1
10
23.2766718155198
20
0.406822974608616
30
0
41
1
10
22.6838083978444
20
0.664358753219062
30
0
41
1
10
22.0009364889096
20
0.979250907442264
30
-1E-16
41
1
10
21.1025658018567
20
1.42595156792001
30
-1E-16
41
1
10
20.4203787339819
20
1.79685910972273
30
-1E-16
41
1
10
20.0369201034739
20
2.01604039839202
30
-1E-16
0
LINE
5
88
100
AcDbEntity
8
1
62
256
6
ByLayer
370
18
48
1
60
0
100
AcDbLine
10
27.251161
20
3.18205
30
0
11
27.243338
21
3.183078
31
0
39
0
210
0
220
0
230
1
0
LINE
5
89
100
AcDbEntity
8
1
62
256
6
ByLayer
370
18
48
1
60
0
100
AcDbLine
10
48.952238
20
0.041231
30
0
11
47.975438
21
1.119449
31
0
39
0
210
0
220
0
230
1
0
LINE
5
8A
100
AcDbEntity
8
1
62
256
6
ByLayer
370
18
48
1
60
0
100
AcDbLine
10
1.058301
20
4.6
30
0
11
1.058301
21
0
31
0
39
0
210
0
220
0
230
1
0
LINE
5
8B
100
AcDbEntity
8
1
62
256
6
ByLayer
370
18
48
1
60
0
100
AcDbLine
10
1.058301
20
0
30
0
11
1.058301
21
-4.6
31
0
39
0
210
0
220
0
230
1
0
LINE
5
8C
100
AcDbEntity
8
1
62
256
6
ByLayer
370
18
48
1
60
0
100
AcDbLine
10
0
20
5
30
0
11
0
21
0
31
0
39
0
210
0
220
0
230
1
0
LINE
5
8D
100
AcDbEntity
8
1
62
256
6
ByLayer
370
18
48
1
60
0
100
AcDbLine
10
0
20
0
30
0
11
0
21
-5
31
0
39
0
210
0
220
0
230
1
0
LINE
5
8E
100
AcDbEntity
8
1
62
256
6
ByLayer
370
18
48
1
60
0
100
AcDbLine
10
27.461915
20
-1.923819
30
0
11
27.461915
21
-1.506872
31
0
39
0
210
0
220
0
230
1
0
LINE
5
8F
100
AcDbEntity
8
1
62
256
6
ByLayer
370
18
48
1
60
0
100
AcDbLine
10
26.280098
20
-4.6
30
0
11
26.280098
21
-1.787756
31
0
39
0
210
0
220
0
230
1
0
LINE
5
90
100
AcDbEntity
8
1
62
256
6
ByLayer
370
18
48
1
60
0
100
AcDbLine
10
27.47607
20
-1.509049
30
0
11
27.47607
21
-1.926003
31
0
39
0
210
0
220
0
230
1
0
LINE
5
91
100
AcDbEntity
8
1
62
256
6
ByLayer
370
18
48
1
60
0
100
AcDbLine
10
27.155098
20
-3.725
30
0
11
27.155098
21
-2.101797
31
0
39
0
210
0
220
0
230
1
0
LINE
5
92
100
AcDbEntity
8
1
62
256
6
ByLayer
370
18
48
1
60
0
100
AcDbLine
10
0.52915
20
4.8
30
0
11
0.52915
21
0
31
0
39
0
210
0
220
0
230
1
0
LINE
5
93
100
AcDbEntity
8
1
62
256
6
ByLayer
370
18
48
1
60
0
100
AcDbLine
10
0.52915
20
0
30
0
11
0.52915
21
-4.8
31
0
39
0
210
0
220
0
230
1
0
LINE
5
94
100
AcDbEntity
8
SK1
62
256
6
ByLayer
370
18
48
1
60
0
100
AcDbLine
10
-40
20
-3.443672
30
0
11
-40
21
-3.146887
31
0
39
0
210
0
220
0
230
1
0
LINE
5
96
100
AcDbEntity
8
SK1
62
256
6
ByLayer
370
18
48
1
60
0
100
AcDbLine
10
-39.25
20
-4.41
30
0
11
-39.25
21
-4.212137
31
0
39
0
210
0
220
0
230
1
0
LINE
5
97
100
AcDbEntity
8
SK1
62
256
6
ByLayer
370
18
48
1
60
0
100
AcDbLine
10
-39.35
20
-4.268436
30
0
11
-39.35
21
-4.078285
31
0
39
0
210
0
220
0
230
1
0
LINE
5
98
100
AcDbEntity
8
SK1
62
256
6
ByLayer
370
18
48
1
60
0
100
AcDbLine
10
-39.25
20
4.41
30
0
11
-39.25
21
4.38317
31
0
39
0
210
0
220
0
230
1
0
LINE
5
99
100
AcDbEntity
8
SK1
62
256
6
ByLayer
370
18
48
1
60
0
100
AcDbLine
10
-39.517949
20
-4.096358
30
0
11
-39.517949
21
-3.906294
31
0
39
0
210
0
220
0
230
1
0
LINE
5
9A
100
AcDbEntity
8
SK1
62
256
6
ByLayer
370
18
48
1
60
0
100
AcDbLine
10
0
20
5
30
0
11
0
21
-5
31
0
39
0
210
0
220
0
230
1
0
LINE
5
9B
100
AcDbEntity
8
SK1
62
256
6
ByLayer
370
18
48
1
60
0
100
AcDbLine
10
-40
20
3.443672
30
0
11
-40
21
-3.146977
31
0
39
0
210
0
220
0
230
1
0
LINE
5
9C
100
AcDbEntity
8
SK1
62
256
6
ByLayer
370
18
48
1
60
0
100
AcDbLine
10
-38.66
20
-5
30
0
11
-38.66
21
5
31
0
39
0
210
0
220
0
230
1
0
LINE
5
9D
100
AcDbEntity
8
1
62
256
6
ByLayer
370
18
48
1
60
0
100
AcDbLine
10
46.115972
20
-0.012306
30
0
11
46.115955
21
-0.012846
31
0
39
0
210
0
220
0
230
1
0
LINE
5
9E
100
AcDbEntity
8
1
62
256
6
ByLayer
370
18
48
1
60
0
100
AcDbLine
10
34.586052
20
-3.416769
30
0
11
35.619805
21
-3.417415
31
0
39
0
210
0
220
0
230
1
0
LINE
5
9F
100
AcDbEntity
8
1
62
256
6
ByLayer
370
18
48
1
60
0
100
AcDbLine
10
26.280098
20
-4.6
30
0
11
27.155098
21
-3.725
31
0
39
0
210
0
220
0
230
1
0
LINE
5
A0
100
AcDbEntity
8
1
62
256
6
ByLayer
370
18
48
1
60
0
100
AcDbLine
10
35.619805
20
3.417415
30
0
11
34.586052
21
3.416769
31
0
39
0
210
0
220
0
230
1
0
LINE
5
A1
100
AcDbEntity
8
1
62
256
6
ByLayer
370
18
48
1
60
0
100
AcDbLine
10
25.93912
20
4.6
30
0
11
23.963783
21
4.6
31
0
39
0
210
0
220
0
230
1
0
LINE
5
A2
100
AcDbEntity
8
1
62
256
6
ByLayer
370
18
48
1
60
0
100
AcDbLine
10
12.888676
20
4.6
30
0
11
1.058301
21
4.6
31
0
39
0
210
0
220
0
230
1
0
LINE
5
A3
100
AcDbEntity
8
1
62
256
6
ByLayer
370
18
48
1
60
0
100
AcDbLine
10
1.058301
20
-4.6
30
0
11
12.888676
21
-4.6
31
0
39
0
210
0
220
0
230
1
0
LINE
5
A4
100
AcDbEntity
8
1
62
256
6
ByLayer
370
18
48
1
60
0
100
AcDbLine
10
23.963646
20
-4.6
30
0
11
26.280098
21
-4.6
31
0
39
0
210
0
220
0
230
1
0
LINE
5
A5
100
AcDbEntity
8
SK1
62
256
6
ByLayer
370
18
48
1
60
0
100
AcDbLine
10
-39.25
20
-4.41
30
0
11
-38.66
21
-5
31
0
39
0
210
0
220
0
230
1
0
LINE
5
A6
100
AcDbEntity
8
SK1
62
256
6
ByLayer
370
18
48
1
60
0
100
AcDbLine
10
-38.66
20
5
30
0
11
-39.25
21
4.41
31
0
39
0
210
0
220
0
230
1
0
LINE
5
A7
100
AcDbEntity
8
SK1
62
256
6
ByLayer
370
18
48
1
60
0
100
AcDbLine
10
-38.66
20
-5
30
0
11
0
21
-5
31
0
39
0
210
0
220
0
230
1
0
LINE
5
A8
100
AcDbEntity
8
SK1
62
256
6
ByLayer
370
18
48
1
60
0
100
AcDbLine
10
0
20
5
30
0
11
-38.66
21
5
31
0
39
0
210
0
220
0
230
1
0
LINE
5
A9
100
AcDbEntity
8
SK4
62
256
6
ByLayer
370
18
48
0.05
60
0
100
AcDbLine
10
54
20
0
30
0
11
-45
21
0
31
0
39
0
210
0
220
0
230
1
0
LINE
5
AB
100
AcDbEntity
8
4
62
256
6
ByLayer
370
18
48
0.05
60
0
100
AcDbLine
10
-40
20
0
30
0
11
54
21
0
31
0
39
0
210
0
220
0
230
1
0
LINE
5
AD
100
AcDbEntity
8
80
62
256
6
ByLayer
370
18
48
1
60
0
100
AcDbLine
10
0
20
0
30
0
11
-6
21
0
31
0
39
0
210
0
220
0
230
1
0
LINE
5
AE
100
AcDbEntity
8
81
62
256
6
ByLayer
370
18
48
1
60
0
100
AcDbLine
10
49
20
0
30
0
11
55
21
0
31
0
39
0
210
0
220
0
230
1
0
LINE
5
AF
100
AcDbEntity
8
SK2
62
256
6
ByLayer
370
13
48
1
60
0
100
AcDbLine
10
49.542958
20
1.491762
30
0
11
56.926328
21
21.777373
31
0
39
0
210
0
220
0
230
1
0
LINE
5
B1
100
AcDbEntity
8
SK2
62
256
6
ByLayer
370
13
48
1
60
0
100
AcDbLine
10
49.542958
20
-1.491762
30
0
11
56.926328
21
-21.777373
31
0
39
0
210
0
220
0
230
1
0
LINE
5
B2
100
AcDbEntity
8
1
62
256
6
ByLayer
370
13
48
1
60
0
100
AcDbLine
10
55.840412
20
18.793849
30
0
11
58.937002
21
17.977475
31
0
39
0
210
0
220
0
230
1
0
LINE
5
B3
100
AcDbEntity
8
1
62
256
6
ByLayer
370
13
48
1
60
0
100
AcDbLine
10
55.840412
20
18.793849
30
0
11
58.620198
21
17.203835
31
0
39
0
210
0
220
0
230
1
0
LINE
5
B4
100
AcDbEntity
8
1
62
256
6
ByLayer
370
13
48
1
60
0
100
AcDbLine
10
58.937002
20
17.977475
30
0
11
58.620198
21
17.203835
31
0
39
0
210
0
220
0
230
1
0
LINE
5
B5
100
AcDbEntity
8
1
62
256
6
ByLayer
370
13
48
1
60
0
100
AcDbLine
10
55.840412
20
-18.793849
30
0
11
58.620196
21
-17.203836
31
0
39
0
210
0
220
0
230
1
0
LINE
5
B6
100
AcDbEntity
8
1
62
256
6
ByLayer
370
13
48
1
60
0
100
AcDbLine
10
55.840412
20
-18.793849
30
0
11
58.937005
21
-17.977474
31
0
39
0
210
0
220
0
230
1
0
LINE
5
B7
100
AcDbEntity
8
1
62
256
6
ByLayer
370
13
48
1
60
0
100
AcDbLine
10
58.620196
20
-17.203836
30
0
11
58.937005
21
-17.977474
31
0
39
0
210
0
220
0
230
1
0
LINE
5
B8
100
AcDbEntity
8
SK2
62
256
6
ByLayer
370
13
48
1
60
0
100
AcDbLine
10
26.304872
20
-4.273528
30
0
11
16.842851
21
-13.735549
31
0
39
0
210
0
220
0
230
1
0
LINE
5
B9
100
AcDbEntity
8
SK2
62
256
6
ByLayer
370
13
48
1
60
0
100
AcDbLine
10
26.304872
20
4.273528
30
0
11
16.842851
21
13.735549
31
0
39
0
210
0
220
0
230
1
0
LINE
5
BA
100
AcDbEntity
8
1
62
256
6
ByLayer
370
13
48
1
60
0
100
AcDbLine
10
17.549958
20
-13.028442
30
0
11
16.021985
21
-11.72097
31
0
39
0
210
0
220
0
230
1
0
LINE
5
BB
100
AcDbEntity
8
1
62
256
6
ByLayer
370
13
48
1
60
0
100
AcDbLine
10
17.549958
20
-13.028442
30
0
11
16.327213
21
-11.431857
31
0
39
0
210
0
220
0
230
1
0
LINE
5
BC
100
AcDbEntity
8
1
62
256
6
ByLayer
370
13
48
1
60
0
100
AcDbLine
10
16.021985
20
-11.72097
30
0
11
16.327213
21
-11.431857
31
0
39
0
210
0
220
0
230
1
0
LINE
5
BD
100
AcDbEntity
8
1
62
256
6
ByLayer
370
13
48
1
60
0
100
AcDbLine
10
17.549958
20
13.028442
30
0
11
16.327214
21
11.431858
31
0
39
0
210
0
220
0
230
1
0
LINE
5
BE
100
AcDbEntity
8
1
62
256
6
ByLayer
370
13
48
1
60
0
100
AcDbLine
10
17.549958
20
13.028442
30
0
11
16.021984
21
11.720969
31
0
39
0
210
0
220
0
230
1
0
LINE
5
BF
100
AcDbEntity
8
1
62
256
6
ByLayer
370
13
48
1
60
0
100
AcDbLine
10
16.327214
20
11.431858
30
0
11
16.021984
21
11.720969
31
0
39
0
210
0
220
0
230
1
0
MTEXT
5
120
100
AcDbEntity
8
SK2
62
256
6
ByLayer
370
18
48
1
60
0
100
AcDbMText
10
62.717388
20
-2.467451
30
0
210
0
220
0
230
1
1
\W0.7237;140.00
40
3.50012
41
0
44
1.084337
50
0
71
7
72
5
7
iso_b_vert
0
MTEXT
5
123
100
AcDbEntity
8
SK2
62
256
6
ByLayer
370
18
48
1
60
0
100
AcDbMText
10
8.231567
20
-2.467451
30
0
210
0
220
0
230
1
1
\W0.7346;90.0
40
3.50012
41
0
44
1.084337
50
0
71
7
72
5
7
iso_b_vert
0
MTEXT
5
124
100
AcDbEntity
8
SK6
62
256
6
ByLayer
370
18
48
1
60
0
100
AcDbMText
10
-34.831725
20
-88.825754
30
0
210
0
220
0
230
1
1
\W0.7561;860.2-0685-023A1-GM X1BM
40
3.175
41
0
44
1.084337
50
0
71
7
72
5
7
iso_b_vert
0
DIMENSION
5
127
100
AcDbEntity
8
SK2
62
256
6
ByLayer
370
18
48
1
60
0
100
AcDbDimension
2
_U0
10
49
20
-28.50012
30
0
11
24.5
21
-28.50012
31
0
70
32
71
2
72
1
41
1
210
0
220
0
230
1
3
Standard
100
AcDbAlignedDimension
13
0
23
-5
33
0
14
49
24
0
34
0
50
0
100
AcDbRotatedDimension
1001
ACAD
1000
DSTYLE
1002
{
1070
   371
1070
    13
1070
   372
1070
    13
1070
     3
1000

1070
   170
1070
     0
1070
   144
1040
1.0
1070
   277
1070
     2
1070
   284
1070
     8
1070
   278
1070
    46
1070
   146
1040
0.999966
1070
   345
1005
16
1070
   347
1005
16
1070
   346
1005
16
1070
   344
1005
128
1070
   343
1005
128
1070
   172
1070
     1
1070
    76
1070
     0
1070
    75
1070
     0
1070
   282
1070
     0
1070
   281
1070
     0
1070
    71
1070
     0
1070
    74
1070
     0
1070
   279
1070
     0
1070
   173
1070
     1
1070
   340
1005
121
1070
   271
1070
     1
1070
   272
1070
     2
1070
    77
1070
     1
1070
    73
1070
     1
1070
   171
1070
     3
1070
   274
1070
     4
1070
   177
1070
   150
1070
   176
1070
     9
1070
   178
1070
    43
1070
    78
1070
     8
1070
    48
1040
-0.1
1070
    41
1040
3.175
1070
   147
1040
1.75006
1070
    42
1040
1.5875
1070
    44
1040
3.175
1070
   140
1040
3.50012
1002
}
1001
ACAD_DSTYLE_DIM_LINETYPE
1070
   380
1005
16
1001
ACAD_DSTYLE_DIM_EXT1_LINETYPE
1070
   381
1005
16
1001
ACAD_DSTYLE_DIM_EXT2_LINETYPE
1070
   382
1005
16
0
DIMENSION
5
14D
100
AcDbEntity
8
2
62
256
6
ByLayer
370
18
48
1
60
0
100
AcDbDimension
2
_U1
10
55.75006
20
3.425
30
0
11
55.75006
21
18.831561
31
0
70
32
71
1
72
1
41
1
210
0
220
0
230
1
3
Standard
100
AcDbAlignedDimension
13
47.7534
23
-3.425
33
0
14
47.7534
24
3.425
34
0
50
90
100
AcDbRotatedDimension
1001
ACAD
1000
DSTYLE
1002
{
1070
   371
1070
    13
1070
   372
1070
    13
1070
     3
1000

1070
   170
1070
     0
1070
   144
1040
1.0
1070
   277
1070
     2
1070
   284
1070
     8
1070
   278
1070
    46
1070
   146
1040
0.999966
1070
   345
1005
16
1070
   347
1005
16
1070
   346
1005
16
1070
   344
1005
128
1070
   343
1005
128
1070
   172
1070
     1
1070
    76
1070
     0
1070
    75
1070
     0
1070
   282
1070
     0
1070
   281
1070
     0
1070
    71
1070
     0
1070
    74
1070
     0
1070
   279
1070
     0
1070
   173
1070
     1
1070
   340
1005
121
1070
   271
1070
     1
1070
   272
1070
     2
1070
    77
1070
     1
1070
    73
1070
     0
1070
   171
1070
     3
1070
   274
1070
     4
1070
   177
1070
   150
1070
   176
1070
     9
1070
   178
1070
    43
1070
    78
1070
     8
1070
    48
1040
-0.1
1070
    41
1040
3.175
1070
   147
1040
1.75006
1070
    42
1040
1.5875
1070
    44
1040
3.175
1070
   140
1040
3.50012
1002
}
1001
ACAD_DSTYLE_DIM_LINETYPE
1070
   380
1005
16
1001
ACAD_DSTYLE_DIM_EXT1_LINETYPE
1070
   381
1005
16
1001
ACAD_DSTYLE_DIM_EXT2_LINETYPE
1070
   382
1005
16
0
DIMENSION
5
16C
100
AcDbEntity
8
SK2
62
256
6
ByLayer
370
18
48
1
60
0
100
AcDbDimension
2
_U2
10
-43.24994
20
-5
30
0
11
-43.24994
21
19.97767
31
0
70
32
71
1
72
1
41
1
210
0
220
0
230
1
3
Standard
100
AcDbAlignedDimension
13
-40
23
5
33
0
14
-40
24
-5
34
0
50
90
100
AcDbRotatedDimension
1001
ACAD
1000
DSTYLE
1002
{
1070
   371
1070
    13
1070
   372
1070
    13
1070
     3
1000

1070
   170
1070
     0
1070
   144
1040
1.0
1070
   277
1070
     2
1070
   284
1070
     8
1070
   278
1070
    46
1070
   146
1040
0.999966
1070
   345
1005
16
1070
   347
1005
16
1070
   346
1005
16
1070
   344
1005
128
1070
   343
1005
128
1070
   172
1070
     1
1070
    76
1070
     0
1070
    75
1070
     0
1070
   282
1070
     0
1070
   281
1070
     0
1070
    71
1070
     0
1070
    74
1070
     0
1070
   279
1070
     0
1070
   173
1070
     1
1070
   340
1005
121
1070
   271
1070
     1
1070
   272
1070
     2
1070
    77
1070
     1
1070
    73
1070
     0
1070
   171
1070
     3
1070
   274
1070
     4
1070
   177
1070
   150
1070
   176
1070
     9
1070
   178
1070
    43
1070
    78
1070
     8
1070
    48
1040
-0.1
1070
    41
1040
3.175
1070
   147
1040
1.75006
1070
    42
1040
1.5875
1070
    44
1040
3.175
1070
   140
1040
3.50012
1002
}
1001
ACAD_DSTYLE_DIM_LINETYPE
1070
   380
1005
16
1001
ACAD_DSTYLE_DIM_EXT1_LINETYPE
1070
   381
1005
16
1001
ACAD_DSTYLE_DIM_EXT2_LINETYPE
1070
   382
1005
16
0
DIMENSION
5
18A
100
AcDbEntity
8
2
62
256
6
ByLayer
370
18
48
1
60
0
100
AcDbDimension
2
_U3
10
64.35012
20
-4.6
30
0
11
64.35012
21
25.343206
31
0
70
32
71
1
72
1
41
1
210
0
220
0
230
1
3
Standard
100
AcDbAlignedDimension
13
25.9784
23
4.6
33
0
14
25.9784
24
-4.6
34
0
50
90
100
AcDbRotatedDimension
1001
ACAD
1000
DSTYLE
1002
{
1070
   371
1070
    13
1070
   372
1070
    13
1070
     3
1000

1070
   170
1070
     0
1070
   144
1040
1.0
1070
   277
1070
     2
1070
   284
1070
     8
1070
   278
1070
    46
1070
   146
1040
0.999966
1070
   345
1005
16
1070
   347
1005
16
1070
   346
1005
16
1070
   344
1005
128
1070
   343
1005
128
1070
   172
1070
     1
1070
    76
1070
     0
1070
    75
1070
     0
1070
   282
1070
     0
1070
   281
1070
     0
1070
    71
1070
     0
1070
    74
1070
     0
1070
   279
1070
     0
1070
   173
1070
     1
1070
   340
1005
121
1070
   271
1070
     1
1070
   272
1070
     2
1070
    77
1070
     1
1070
    73
1070
     0
1070
   171
1070
     3
1070
   274
1070
     4
1070
   177
1070
   150
1070
   176
1070
     9
1070
   178
1070
    43
1070
    78
1070
     8
1070
    48
1040
-0.1
1070
    41
1040
3.0
1070
   147
1040
1.75006
1070
    42
1040
0.5
1070
    44
1040
1.0
1070
   140
1040
3.50012
1002
}
1001
ACAD_DSTYLE_DIM_LINETYPE
1070
   380
1005
16
1001
ACAD_DSTYLE_DIM_EXT1_LINETYPE
1070
   381
1005
16
1001
ACAD_DSTYLE_DIM_EXT2_LINETYPE
1070
   382
1005
16
0
DIMENSION
5
1A8
100
AcDbEntity
8
SK2
62
256
6
ByLayer
370
18
48
1
60
0
100
AcDbDimension
2
_U4
10
0
20
-28.50012
30
0
11
-20
21
-28.50012
31
0
70
32
71
1
72
1
41
1
210
0
220
0
230
1
3
Standard
100
AcDbAlignedDimension
13
-40
23
-5
33
0
14
0
24
-5
34
0
50
0
100
AcDbRotatedDimension
1001
ACAD
1000
DSTYLE
1002
{
1070
   371
1070
    13
1070
   372
1070
    13
1070
     3
1000

1070
   170
1070
     0
1070
   144
1040
1.0
1070
   277
1070
     2
1070
   284
1070
     8
1070
   278
1070
    46
1070
   146
1040
0.999966
1070
   345
1005
16
1070
   347
1005
16
1070
   346
1005
16
1070
   344
1005
128
1070
   343
1005
128
1070
   172
1070
     1
1070
    76
1070
     0
1070
    75
1070
     0
1070
   282
1070
     0
1070
   281
1070
     0
1070
    71
1070
     0
1070
    74
1070
     0
1070
   279
1070
     0
1070
   173
1070
     1
1070
   340
1005
121
1070
   271
1070
     1
1070
   272
1070
     2
1070
    77
1070
     1
1070
    73
1070
     1
1070
   171
1070
     3
1070
   274
1070
     4
1070
   177
1070
   150
1070
   176
1070
     9
1070
   178
1070
    43
1070
    78
1070
     8
1070
    48
1040
-0.1
1070
    41
1040
3.175
1070
   147
1040
1.75006
1070
    42
1040
1.5875
1070
    44
1040
3.175
1070
   140
1040
3.50012
1002
}
1001
ACAD_DSTYLE_DIM_LINETYPE
1070
   380
1005
16
1001
ACAD_DSTYLE_DIM_EXT1_LINETYPE
1070
   381
1005
16
1001
ACAD_DSTYLE_DIM_EXT2_LINETYPE
1070
   382
1005
16
0
DIMENSION
5
1C4
100
AcDbEntity
8
SK2
62
256
6
ByLayer
370
18
48
1
60
0
100
AcDbDimension
2
_U5
10
49
20
-19.74982
30
0
11
30.5
21
-19.74982
31
0
70
32
71
1
72
1
41
1
210
0
220
0
230
1
3
Standard
100
AcDbAlignedDimension
13
12
23
3.925
33
0
14
49
24
0
34
0
50
0
100
AcDbRotatedDimension
1001
ACAD
1000
DSTYLE
1002
{
1070
   371
1070
    13
1070
   372
1070
    13
1070
     3
1000

1070
   170
1070
     0
1070
   144
1040
1.0
1070
   277
1070
     2
1070
   284
1070
     8
1070
   278
1070
    46
1070
   146
1040
0.999966
1070
   345
1005
16
1070
   347
1005
16
1070
   346
1005
16
1070
   344
1005
128
1070
   343
1005
128
1070
   172
1070
     1
1070
    76
1070
     0
1070
    75
1070
     0
1070
   282
1070
     0
1070
   281
1070
     0
1070
    71
1070
     0
1070
    74
1070
     0
1070
   279
1070
     0
1070
   173
1070
     1
1070
   340
1005
121
1070
   271
1070
     1
1070
   272
1070
     2
1070
    77
1070
     1
1070
    73
1070
     1
1070
   171
1070
     3
1070
   274
1070
     4
1070
   177
1070
   150
1070
   176
1070
     9
1070
   178
1070
    43
1070
    78
1070
     8
1070
    48
1040
-0.1
1070
    41
1040
3.175
1070
   147
1040
1.75006
1070
    42
1040
1.5875
1070
    44
1040
3.175
1070
   140
1040
3.50012
1002
}
1001
ACAD_DSTYLE_DIM_LINETYPE
1070
   380
1005
16
1001
ACAD_DSTYLE_DIM_EXT1_LINETYPE
1070
   381
1005
16
1001
ACAD_DSTYLE_DIM_EXT2_LINETYPE
1070
   382
1005
16
0
DIMENSION
5
1E0
100
AcDbEntity
8
SK2
62
256
6
ByLayer
370
18
48
1
60
0
100
AcDbDimension
2
_U6
10
49
20
-11.82
30
0
11
37.5
21
-11.82
31
0
70
32
71
1
72
1
41
1
210
0
220
0
230
1
3
Standard
100
AcDbAlignedDimension
13
26
23
-3.425
33
0
14
49
24
0
34
0
50
0
100
AcDbRotatedDimension
1001
ACAD
1000
DSTYLE
1002
{
1070
   371
1070
    13
1070
   372
1070
    13
1070
     3
1000

1070
   170
1070
     0
1070
   144
1040
1.0
1070
   277
1070
     2
1070
   284
1070
     8
1070
   278
1070
    46
1070
   146
1040
1.25
1070
   345
1005
16
1070
   347
1005
16
1070
   346
1005
16
1070
   344
1005
128
1070
   343
1005
128
1070
   172
1070
     1
1070
    76
1070
     0
1070
    75
1070
     0
1070
   282
1070
     0
1070
   281
1070
     0
1070
    71
1070
     0
1070
    74
1070
     0
1070
   279
1070
     0
1070
   173
1070
     1
1070
   340
1005
121
1070
   271
1070
     1
1070
   272
1070
     2
1070
    77
1070
     1
1070
    73
1070
     1
1070
   171
1070
     3
1070
   274
1070
     4
1070
   177
1070
   150
1070
   176
1070
     9
1070
   178
1070
    43
1070
    78
1070
     8
1070
    48
1040
-0.1
1070
    41
1040
3.175
1070
   147
1040
0.42
1070
    42
1040
1.5875
1070
    44
1040
0.5
1070
   140
1040
2.8
1002
}
1001
ACAD_DSTYLE_DIM_LINETYPE
1070
   380
1005
16
1001
ACAD_DSTYLE_DIM_EXT1_LINETYPE
1070
   381
1005
16
1001
ACAD_DSTYLE_DIM_EXT2_LINETYPE
1070
   382
1005
16
0
DIMENSION
5
1FC
100
AcDbEntity
8
SK2
62
256
6
ByLayer
370
18
48
1
60
0
100
AcDbDimension
2
_U7
10
49
20
-38.50012
30
0
11
4.5
21
-38.50012
31
0
70
32
71
1
72
1
41
1
210
0
220
0
230
1
3
Standard
100
AcDbAlignedDimension
13
-40
23
0
33
0
14
49
24
0
34
0
50
0
100
AcDbRotatedDimension
1001
ACAD
1000
DSTYLE
1002
{
1070
   371
1070
    13
1070
   372
1070
    13
1070
     3
1000

1070
   170
1070
     0
1070
   144
1040
1.0
1070
   277
1070
     2
1070
   284
1070
     8
1070
   278
1070
    46
1070
   146
1040
0.999966
1070
   345
1005
16
1070
   347
1005
16
1070
   346
1005
16
1070
   344
1005
128
1070
   343
1005
128
1070
   172
1070
     1
1070
    76
1070
     0
1070
    75
1070
     0
1070
   282
1070
     0
1070
   281
1070
     0
1070
    71
1070
     0
1070
    74
1070
     0
1070
   279
1070
     0
1070
   173
1070
     1
1070
   340
1005
121
1070
   271
1070
     1
1070
   272
1070
     2
1070
    77
1070
     1
1070
    73
1070
     1
1070
   171
1070
     3
1070
   274
1070
     4
1070
   177
1070
   150
1070
   176
1070
     9
1070
   178
1070
    43
1070
    78
1070
     8
1070
    48
1040
-0.1
1070
    41
1040
3.175
1070
   147
1040
1.75006
1070
    42
1040
1.5875
1070
    44
1040
3.175
1070
   140
1040
3.50012
1002
}
1001
ACAD_DSTYLE_DIM_LINETYPE
1070
   380
1005
16
1001
ACAD_DSTYLE_DIM_EXT1_LINETYPE
1070
   381
1005
16
1001
ACAD_DSTYLE_DIM_EXT2_LINETYPE
1070
   382
1005
16
0
DIMENSION
5
218
100
AcDbEntity
8
SK2
62
256
6
ByLayer
370
18
48
1
60
0
100
AcDbDimension
2
_U8
10
27.1534
20
17.184773
30
0
11
37.4534
21
17.184773
31
0
70
32
71
1
72
1
41
1
210
0
220
0
230
1
3
Standard
100
AcDbAlignedDimension
13
47.7534
23
3.425
33
0
14
27.1534
24
3.425
34
0
50
0
100
AcDbRotatedDimension
1001
ACAD
1000
DSTYLE
1002
{
1070
   371
1070
    13
1070
   372
1070
    13
1070
     3
1000

1070
   170
1070
     0
1070
   144
1040
1.0
1070
   277
1070
     2
1070
   284
1070
     8
1070
   278
1070
    46
1070
   146
1040
1.25
1070
   345
1005
16
1070
   347
1005
16
1070
   346
1005
16
1070
   344
1005
128
1070
   343
1005
128
1070
   172
1070
     1
1070
    76
1070
     0
1070
    75
1070
     0
1070
   282
1070
     0
1070
   281
1070
     0
1070
    71
1070
     0
1070
    74
1070
     0
1070
   279
1070
     0
1070
   173
1070
     1
1070
   340
1005
121
1070
   271
1070
     1
1070
   272
1070
     2
1070
    77
1070
     1
1070
    73
1070
     1
1070
   171
1070
     3
1070
   274
1070
     4
1070
   177
1070
   150
1070
   176
1070
     9
1070
   178
1070
    43
1070
    78
1070
     8
1070
    48
1040
-0.1
1070
    41
1040
3.0
1070
   147
1040
0.42
1070
    42
1040
0.5
1070
    44
1040
0.1
1070
   140
1040
2.8
1002
}
1001
ACAD_DSTYLE_DIM_LINETYPE
1070
   380
1005
16
1001
ACAD_DSTYLE_DIM_EXT1_LINETYPE
1070
   381
1005
16
1001
ACAD_DSTYLE_DIM_EXT2_LINETYPE
1070
   382
1005
16
0
ENDSEC
0
SECTION
2
OBJECTS
0
DICTIONARY
5
2a5
330
0
100
AcDbDictionary
280
0
281
1
3
ACAD_GROUP
350
2a6
3
ACAD_MLINESTYLE
350
2a7
0
DICTIONARY
5
2a6
330
0
100
AcDbDictionary
280
0
281
1
0
DICTIONARY
5
2a7
330
0
100
AcDbDictionary
280
0
281
1
3
Standard
350
18
0
MLINESTYLE
5
18
330
2a7
100
AcDbMlineStyle
2
Standard
70
0
3

62
256
51
90
52
90
71
2
49
-0.5
62
256
6
ByLayer
49
0.5
62
256
6
ByLayer
0
RASTERVARIABLES
5
293
330

100
AcDbRasterVariables
90
0
70
1
71
1
72
1
0
ENDSEC
0
EOF
