0
SECTION
2
HEADER
9
$ACADVER
1
AC1015
9
$DWGCODEPAGE
3
ANSI_1252
9
$HANDSEED
5
209
9
$ANGBASE
50
0
9
$ANGDIR
70
0
9
$ATTMODE
70
1
9
$AUNITS
70
0
9
$AUPREC
70
0
9
$CECOLOR
62
256
9
$CELTSCALE
40
1
9
$CELTYPE
6
ByLayer
9
$CELWEIGHT
370
18
9
$CLAYER
8
0
9
$CMLJUST
70
0
9
$CMLSCALE
40
1
9
$CMLSTYLE
2
Standard
9
$DIMSTYLE
2
Standard
9
$TEXTSIZE
40
0.2
9
$TEXTSTYLE
7
Standard
9
$LUNITS
70
2
9
$LUPREC
70
4
9
$EXTNAMES
290
1
9
$INSUNITS
70
4
9
$LTSCALE
40
1
9
$LWDISPLAY
290
1
9
$PDMODE
70
0
9
$PDSIZE
40
0
9
$PLINEGEN
70
0
0
ENDSEC
0
SECTION
2
CLASSES
0
CLASS
1
RASTERVARIABLES
2
AcDbRasterVariables
3
ISM
90
0
280
0
281
0
0
ENDSEC
0
SECTION
2
TABLES
0
TABLE
2
VPORT
5
1ff
100
AcDbSymbolTable
0
VPORT
5
1
100
AcDbSymbolTableRecord
100
AcDbViewportTableRecord
2
*Active
70
0
10
0
20
0
11
1
21
1
12
-1
22
1
13
0
23
0
14
0.5
24
0.5
15
10
25
10
16
0
26
0
36
1
17
0
27
0
37
0
0
ENDTAB
0
TABLE
2
LTYPE
5
200
100
AcDbSymbolTable
0
LTYPE
5
14
100
AcDbSymbolTableRecord
100
AcDbLinetypeTableRecord
70
0
2
ByBlock
3

72
65
73
0
40
0
0
LTYPE
5
15
100
AcDbSymbolTableRecord
100
AcDbLinetypeTableRecord
70
0
2
ByLayer
3

72
65
73
0
40
0
0
LTYPE
5
16
100
AcDbSymbolTableRecord
100
AcDbLinetypeTableRecord
70
0
2
Continuous
3
Solid line
72
65
73
0
40
0
0
LTYPE
5
6E
100
AcDbSymbolTableRecord
100
AcDbLinetypeTableRecord
70
0
2
CENTER
3
____ _ ____ _ ____ _ ____
72
65
73
4
40
47.5
49
22
74
0
49
-8.5
74
0
49
8.5
74
0
49
-8.5
74
0
0
LTYPE
5
6F
100
AcDbSymbolTableRecord
100
AcDbLinetypeTableRecord
70
0
2
DASHED
3
__ __ __ __ __ __ __ __ __
72
65
73
2
40
25.72
49
12.86
74
0
49
-12.86
74
0
0
ENDTAB
0
TABLE
2
LAYER
5
201
100
AcDbSymbolTable
0
LAYER
5
10
100
AcDbSymbolTableRecord
100
AcDbLayerTableRecord
2
0
70
0
62
7
6
Continuous
290
1
370
-3
390
0
0
LAYER
5
71
100
AcDbSymbolTableRecord
100
AcDbLayerTableRecord
2
2
70
0
62
7
6
Continuous
290
1
370
-3
390
0
0
LAYER
5
79
100
AcDbSymbolTableRecord
100
AcDbLayerTableRecord
2
80
70
0
62
-6
6
Continuous
290
1
370
-3
390
0
0
LAYER
5
7B
100
AcDbSymbolTableRecord
100
AcDbLayerTableRecord
2
81
70
0
62
-3
6
Continuous
290
1
370
-3
390
0
0
LAYER
5
7D
100
AcDbSymbolTableRecord
100
AcDbLayerTableRecord
2
1
70
0
62
4
6
Continuous
290
1
370
-3
390
0
0
LAYER
5
87
100
AcDbSymbolTableRecord
100
AcDbLayerTableRecord
2
4
70
0
62
-2
6
CENTER
290
1
370
-3
390
0
0
LAYER
5
146
100
AcDbSymbolTableRecord
100
AcDbLayerTableRecord
2
Defpoints
70
0
62
7
6
Continuous
290
0
370
-3
390
0
0
LAYER
5
1eb
100
AcDbSymbolTableRecord
100
AcDbLayerTableRecord
2
SK2
70
0
62
7
6
Continuous
290
1
370
-3
390
0
0
LAYER
5
1ec
100
AcDbSymbolTableRecord
100
AcDbLayerTableRecord
2
SK4
70
0
62
2
6
CENTER
290
1
370
-3
390
0
0
LAYER
5
1ed
100
AcDbSymbolTableRecord
100
AcDbLayerTableRecord
2
SK1
70
0
62
4
6
Continuous
290
1
370
-3
390
0
0
LAYER
5
1ee
100
AcDbSymbolTableRecord
100
AcDbLayerTableRecord
2
SK6
70
0
62
5
6
Continuous
290
1
370
-3
390
0
0
ENDTAB
0
TABLE
2
STYLE
5
202
100
AcDbSymbolTable
0
STYLE
5
11
100
AcDbSymbolTableRecord
100
AcDbTextStyleTableRecord
2
Standard
3
txt
70
0
71
0
40
0
41
1
42
0
50
0
0
STYLE
5
13F
100
AcDbSymbolTableRecord
100
AcDbTextStyleTableRecord
2
iso_b_vert
3
simplex.shx
70
0
71
0
40
0
41
1
42
0
50
0
0
STYLE
5
140
100
AcDbSymbolTableRecord
100
AcDbTextStyleTableRecord
2
DWGDirectTextStyle
3
simplex
70
0
71
0
40
0
41
1
42
0
50
0
0
ENDTAB
0
TABLE
2
DIMSTYLE
5
203
100
AcDbSymbolTable
100
AcDbDimStyleTable
0
DIMSTYLE
105
27
100
AcDbSymbolTableRecord
100
AcDbDimStyleTableRecord
2
Standard
70
0
3
<>
41
0.18
42
0.0625
44
0.18
140
0.18
147
0.09
73
0
74
0
77
1
271
2
275
0
278
52
280
0
340
11
0
ENDTAB
0
TABLE
2
VIEW
5
204
100
AcDbSymbolTable
0
ENDTAB
0
TABLE
2
UCS
5
205
100
AcDbSymbolTable
0
ENDTAB
0
TABLE
2
APPID
5
206
100
AcDbSymbolTable
0
APPID
5
12
100
AcDbSymbolTableRecord
100
AcDbRegAppTableRecord
2
ACAD
70
0
0
APPID
5
142
100
AcDbSymbolTableRecord
100
AcDbRegAppTableRecord
2
ACAD_DSTYLE_DIMBREAK
70
0
0
APPID
5
1AA
100
AcDbSymbolTableRecord
100
AcDbRegAppTableRecord
2
ACAD_DSTYLE_DIM_LINETYPE
70
0
0
APPID
5
1AB
100
AcDbSymbolTableRecord
100
AcDbRegAppTableRecord
2
ACAD_DSTYLE_DIM_EXT1_LINETYPE
70
0
0
APPID
5
1AC
100
AcDbSymbolTableRecord
100
AcDbRegAppTableRecord
2
ACAD_DSTYLE_DIM_EXT2_LINETYPE
70
0
0
APPID
5
1E7
100
AcDbSymbolTableRecord
100
AcDbRegAppTableRecord
2
ACAD_MLEADERVER
70
0
0
ENDTAB
0
TABLE
2
BLOCK_RECORD
5
207
100
AcDbSymbolTable
0
BLOCK_RECORD
5
1F
100
AcDbSymbolTableRecord
100
AcDbBlockTableRecord
2
*Model_Space
340
0
70
0
0
BLOCK_RECORD
5
1B
100
AcDbSymbolTableRecord
100
AcDbBlockTableRecord
2
*Paper_Space
340
0
70
0
0
BLOCK_RECORD
5
23
100
AcDbSymbolTableRecord
100
AcDbBlockTableRecord
2
*Paper_Space0
340
0
70
0
0
BLOCK_RECORD
5
147
100
AcDbSymbolTableRecord
100
AcDbBlockTableRecord
2
*D1
340
0
70
0
0
BLOCK_RECORD
5
153
100
AcDbSymbolTableRecord
100
AcDbBlockTableRecord
2
_U0
340
0
70
0
0
BLOCK_RECORD
5
15F
100
AcDbSymbolTableRecord
100
AcDbBlockTableRecord
2
*D3
340
0
70
0
0
BLOCK_RECORD
5
16B
100
AcDbSymbolTableRecord
100
AcDbBlockTableRecord
2
_U1
340
0
70
0
0
BLOCK_RECORD
5
177
100
AcDbSymbolTableRecord
100
AcDbBlockTableRecord
2
*D5
340
0
70
0
0
BLOCK_RECORD
5
183
100
AcDbSymbolTableRecord
100
AcDbBlockTableRecord
2
_U2
340
0
70
0
0
ENDTAB
0
ENDSEC
0
SECTION
2
BLOCKS
0
BLOCK
5
20
100
AcDbEntity
8
0
100
AcDbBlockBegin
2
*Model_Space
70
0
10
0
20
0
30
0
3
*Model_Space
0
ENDBLK
5
21
100
AcDbEntity
8
0
100
AcDbBlockEnd
0
BLOCK
5
1C
100
AcDbEntity
8
0
100
AcDbBlockBegin
2
*Paper_Space
70
0
10
0
20
0
30
0
3
*Paper_Space
0
ENDBLK
5
1D
100
AcDbEntity
8
0
100
AcDbBlockEnd
0
BLOCK
5
24
100
AcDbEntity
8
0
100
AcDbBlockBegin
2
*Paper_Space0
70
0
10
0
20
0
30
0
3
*Paper_Space0
0
ENDBLK
5
25
100
AcDbEntity
8
0
100
AcDbBlockEnd
0
BLOCK
5
148
100
AcDbEntity
8
0
100
AcDbBlockBegin
2
*D1
70
1
10
0
20
0
30
0
3
*D1
0
LINE
5
14A
100
AcDbEntity
8
0
62
256
6
ByLayer
370
-2
48
1
60
0
100
AcDbLine
10
60
20
36.5875
30
0
11
60
21
44.85
31
0
39
0
210
0
220
0
230
1
0
LINE
5
14B
100
AcDbEntity
8
0
62
256
6
ByLayer
370
-2
48
1
60
0
100
AcDbLine
10
0
20
26.5875
30
0
11
0
21
44.85
31
0
39
0
210
0
220
0
230
1
0
LINE
5
14C
100
AcDbEntity
8
0
62
256
6
ByLayer
370
-2
48
1
60
0
100
AcDbLine
10
56.5
20
42.85
30
0
11
3.5
21
42.85
31
0
39
0
210
0
220
0
230
1
0
SOLID
5
14D
100
AcDbEntity
8
0
62
256
6
ByLayer
370
-1
48
1
60
0
100
AcDbTrace
10
56.5
20
42.266667
30
0
11
56.5
21
43.433333
31
0
12
60
22
42.85
32
0
13
60
23
42.85
33
0
39
0
210
0
220
0
230
1
0
SOLID
5
14E
100
AcDbEntity
8
0
62
256
6
ByLayer
370
-1
48
1
60
0
100
AcDbTrace
10
3.5
20
43.433333
30
0
11
3.5
21
42.266667
31
0
12
0
22
42.85
32
0
13
0
23
42.85
33
0
39
0
210
0
220
0
230
1
0
MTEXT
5
14F
100
AcDbEntity
8
0
62
256
6
ByLayer
370
18
48
1
60
0
100
AcDbMText
10
30
20
49.85
30
0
210
0
220
0
230
1
1
\A1;60
40
3.5
41
0
44
1
50
0
71
5
72
5
7
iso_b_vert
0
POINT
5
150
100
AcDbEntity
8
Defpoints
62
0
6
ByLayer
370
-1
48
1
60
0
100
AcDbPoint
10
60
20
35
30
0
39
0
210
0
220
0
230
1
50
360
0
POINT
5
151
100
AcDbEntity
8
Defpoints
62
0
6
ByLayer
370
-1
48
1
60
0
100
AcDbPoint
10
0
20
25
30
0
39
0
210
0
220
0
230
1
50
360
0
POINT
5
152
100
AcDbEntity
8
Defpoints
62
0
6
ByLayer
370
-1
48
1
60
0
100
AcDbPoint
10
0
20
42.85
30
0
39
0
210
0
220
0
230
1
50
360
0
ENDBLK
5
149
100
AcDbEntity
8
0
100
AcDbBlockEnd
0
BLOCK
5
15A
100
AcDbEntity
8
0
100
AcDbBlockBegin
2
_U0
70
0
10
0
20
0
30
0
3
_U0
0
MTEXT
5
154
100
AcDbEntity
8
2
62
256
6
ByLayer
370
18
48
1
60
0
100
AcDbMText
10
28.095034
20
43.882634
30
0
210
0
220
0
230
1
1
\W0.6740;60
40
3.5
41
0
44
1.084337
50
0
71
7
72
5
7
iso_b_vert
0
LINE
5
155
100
AcDbEntity
8
2
62
256
6
ByLayer
370
13
48
1
60
0
100
AcDbLine
10
60
20
36.5875
30
0
11
60
21
44.85
31
0
39
0
210
0
220
0
230
1
0
LINE
5
156
100
AcDbEntity
8
2
62
256
6
ByLayer
370
13
48
1
60
0
100
AcDbLine
10
0
20
26.5875
30
0
11
0
21
44.85
31
0
39
0
210
0
220
0
230
1
0
LINE
5
157
100
AcDbEntity
8
2
62
256
6
ByLayer
370
13
48
1
60
0
100
AcDbLine
10
60
20
42.85
30
0
11
0
21
42.85
31
0
39
0
210
0
220
0
230
1
0
SOLID
5
158
100
AcDbEntity
8
2
62
256
6
ByLayer
370
18
48
1
60
0
100
AcDbTrace
10
60
20
42.85
30
0
11
56.500002
21
42.389216
31
0
12
56.499998
22
43.310784
32
0
13
56.499998
23
43.310784
33
0
39
0
210
0
220
0
230
1
0
SOLID
5
159
100
AcDbEntity
8
2
62
256
6
ByLayer
370
18
48
1
60
0
100
AcDbTrace
10
0
20
42.85
30
0
11
3.499998
21
43.310784
31
0
12
3.500002
22
42.389216
32
0
13
3.500002
23
42.389216
33
0
39
0
210
0
220
0
230
1
0
ENDBLK
5
15B
100
AcDbEntity
8
0
100
AcDbBlockEnd
0
BLOCK
5
160
100
AcDbEntity
8
0
100
AcDbBlockBegin
2
*D3
70
1
10
0
20
0
30
0
3
*D3
0
LINE
5
162
100
AcDbEntity
8
0
62
256
6
ByLayer
370
-2
48
1
60
0
100
AcDbLine
10
-1.5875
20
-25
30
0
11
-39.85
21
-25
31
0
39
0
210
0
220
0
230
1
0
LINE
5
163
100
AcDbEntity
8
0
62
256
6
ByLayer
370
-2
48
1
60
0
100
AcDbLine
10
-1.5875
20
25
30
0
11
-39.85
21
25
31
0
39
0
210
0
220
0
230
1
0
LINE
5
164
100
AcDbEntity
8
0
62
256
6
ByLayer
370
-2
48
1
60
0
100
AcDbLine
10
-37.85
20
-21.5
30
0
11
-37.85
21
21.5
31
0
39
0
210
0
220
0
230
1
0
SOLID
5
165
100
AcDbEntity
8
0
62
256
6
ByLayer
370
-1
48
1
60
0
100
AcDbTrace
10
-38.433333
20
-21.5
30
0
11
-37.266667
21
-21.5
31
0
12
-37.85
22
-25
32
0
13
-37.85
23
-25
33
0
39
0
210
0
220
0
230
1
0
SOLID
5
166
100
AcDbEntity
8
0
62
256
6
ByLayer
370
-1
48
1
60
0
100
AcDbTrace
10
-37.266667
20
21.5
30
0
11
-38.433333
21
21.5
31
0
12
-37.85
22
25
32
0
13
-37.85
23
25
33
0
39
0
210
0
220
0
230
1
0
MTEXT
5
167
100
AcDbEntity
8
0
62
256
6
ByLayer
370
18
48
1
60
0
100
AcDbMText
10
-44.85
20
0
30
0
210
0
220
0
230
1
1
\A1;50
40
3.5
41
0
44
1
50
90
71
5
72
5
7
iso_b_vert
0
POINT
5
168
100
AcDbEntity
8
Defpoints
62
0
6
ByLayer
370
-1
48
1
60
0
100
AcDbPoint
10
0
20
-25
30
0
39
0
210
0
220
0
230
1
50
360
0
POINT
5
169
100
AcDbEntity
8
Defpoints
62
0
6
ByLayer
370
-1
48
1
60
0
100
AcDbPoint
10
0
20
25
30
0
39
0
210
0
220
0
230
1
50
360
0
POINT
5
16A
100
AcDbEntity
8
Defpoints
62
0
6
ByLayer
370
-1
48
1
60
0
100
AcDbPoint
10
-37.85
20
25
30
0
39
0
210
0
220
0
230
1
50
360
0
ENDBLK
5
161
100
AcDbEntity
8
0
100
AcDbBlockEnd
0
BLOCK
5
172
100
AcDbEntity
8
0
100
AcDbBlockBegin
2
_U1
70
0
10
0
20
0
30
0
3
_U1
0
MTEXT
5
16C
100
AcDbEntity
8
SK2
62
256
6
ByLayer
370
18
48
1
60
0
100
AcDbMText
10
-38.539634
20
-1.932966
30
0
210
0
220
0
230
1
1
\W0.6740;50
40
3.5
41
0
44
1.084337
50
90
71
7
72
5
7
iso_b_vert
0
LINE
5
16D
100
AcDbEntity
8
SK2
62
256
6
ByLayer
370
13
48
1
60
0
100
AcDbLine
10
-1.5875
20
-25
30
0
11
-39.85
21
-25
31
0
39
0
210
0
220
0
230
1
0
LINE
5
16E
100
AcDbEntity
8
SK2
62
256
6
ByLayer
370
13
48
1
60
0
100
AcDbLine
10
-1.5875
20
25
30
0
11
-39.85
21
25
31
0
39
0
210
0
220
0
230
1
0
LINE
5
16F
100
AcDbEntity
8
SK2
62
256
6
ByLayer
370
13
48
1
60
0
100
AcDbLine
10
-37.85
20
-25
30
0
11
-37.85
21
25
31
0
39
0
210
0
220
0
230
1
0
SOLID
5
170
100
AcDbEntity
8
SK2
62
256
6
ByLayer
370
18
48
1
60
0
100
AcDbTrace
10
-37.85
20
-25
30
0
11
-38.310784
21
-21.500002
31
0
12
-37.389216
22
-21.499998
32
0
13
-37.389216
23
-21.499998
33
0
39
0
210
0
220
0
230
1
0
SOLID
5
171
100
AcDbEntity
8
SK2
62
256
6
ByLayer
370
18
48
1
60
0
100
AcDbTrace
10
-37.85
20
25
30
0
11
-37.389216
21
21.500002
31
0
12
-38.310784
22
21.499998
32
0
13
-38.310784
23
21.499998
33
0
39
0
210
0
220
0
230
1
0
ENDBLK
5
173
100
AcDbEntity
8
0
100
AcDbBlockEnd
0
BLOCK
5
178
100
AcDbEntity
8
0
100
AcDbBlockBegin
2
*D5
70
1
10
0
20
0
30
0
3
*D5
0
LINE
5
17A
100
AcDbEntity
8
0
62
256
6
ByLayer
370
-2
48
1
60
0
100
AcDbLine
10
61.5875
20
0
30
0
11
76.85
21
0
31
0
39
0
210
0
220
0
230
1
0
LINE
5
17B
100
AcDbEntity
8
0
62
256
6
ByLayer
370
-2
48
1
60
0
100
AcDbLine
10
61.5875
20
35
30
0
11
76.85
21
35
31
0
39
0
210
0
220
0
230
1
0
LINE
5
17C
100
AcDbEntity
8
0
62
256
6
ByLayer
370
-2
48
1
60
0
100
AcDbLine
10
74.85
20
3.5
30
0
11
74.85
21
31.5
31
0
39
0
210
0
220
0
230
1
0
SOLID
5
17D
100
AcDbEntity
8
0
62
256
6
ByLayer
370
-1
48
1
60
0
100
AcDbTrace
10
74.266667
20
3.5
30
0
11
75.433333
21
3.5
31
0
12
74.85
22
0
32
0
13
74.85
23
0
33
0
39
0
210
0
220
0
230
1
0
SOLID
5
17E
100
AcDbEntity
8
0
62
256
6
ByLayer
370
-1
48
1
60
0
100
AcDbTrace
10
75.433333
20
31.5
30
0
11
74.266667
21
31.5
31
0
12
74.85
22
35
32
0
13
74.85
23
35
33
0
39
0
210
0
220
0
230
1
0
MTEXT
5
17F
100
AcDbEntity
8
0
62
256
6
ByLayer
370
18
48
1
60
0
100
AcDbMText
10
67.85
20
17.5
30
0
210
0
220
0
230
1
1
\A1;35
40
3.5
41
0
44
1
50
90
71
5
72
5
7
iso_b_vert
0
POINT
5
180
100
AcDbEntity
8
Defpoints
62
0
6
ByLayer
370
-1
48
1
60
0
100
AcDbPoint
10
60
20
0
30
0
39
0
210
0
220
0
230
1
50
360
0
POINT
5
181
100
AcDbEntity
8
Defpoints
62
0
6
ByLayer
370
-1
48
1
60
0
100
AcDbPoint
10
60
20
35
30
0
39
0
210
0
220
0
230
1
50
360
0
POINT
5
182
100
AcDbEntity
8
Defpoints
62
0
6
ByLayer
370
-1
48
1
60
0
100
AcDbPoint
10
74.85
20
35
30
0
39
0
210
0
220
0
230
1
50
360
0
ENDBLK
5
179
100
AcDbEntity
8
0
100
AcDbBlockEnd
0
BLOCK
5
18A
100
AcDbEntity
8
0
100
AcDbBlockBegin
2
_U2
70
0
10
0
20
0
30
0
3
_U2
0
MTEXT
5
184
100
AcDbEntity
8
2
62
256
6
ByLayer
370
18
48
1
60
0
100
AcDbMText
10
74.160366
20
15.567034
30
0
210
0
220
0
230
1
1
\W0.6740;35
40
3.5
41
0
44
1.084337
50
90
71
7
72
5
7
iso_b_vert
0
LINE
5
185
100
AcDbEntity
8
2
62
256
6
ByLayer
370
13
48
1
60
0
100
AcDbLine
10
61.5875
20
0
30
0
11
76.85
21
0
31
0
39
0
210
0
220
0
230
1
0
LINE
5
186
100
AcDbEntity
8
2
62
256
6
ByLayer
370
13
48
1
60
0
100
AcDbLine
10
61.5875
20
35
30
0
11
76.85
21
35
31
0
39
0
210
0
220
0
230
1
0
LINE
5
187
100
AcDbEntity
8
2
62
256
6
ByLayer
370
13
48
1
60
0
100
AcDbLine
10
74.85
20
0
30
0
11
74.85
21
35
31
0
39
0
210
0
220
0
230
1
0
SOLID
5
188
100
AcDbEntity
8
2
62
256
6
ByLayer
370
18
48
1
60
0
100
AcDbTrace
10
74.85
20
0
30
0
11
74.389216
21
3.499998
31
0
12
75.310784
22
3.500002
32
0
13
75.310784
23
3.500002
33
0
39
0
210
0
220
0
230
1
0
SOLID
5
189
100
AcDbEntity
8
2
62
256
6
ByLayer
370
18
48
1
60
0
100
AcDbTrace
10
74.85
20
35
30
0
11
75.310784
21
31.500002
31
0
12
74.389216
22
31.499998
32
0
13
74.389216
23
31.499998
33
0
39
0
210
0
220
0
230
1
0
ENDBLK
5
18B
100
AcDbEntity
8
0
100
AcDbBlockEnd
0
ENDSEC
0
SECTION
2
ENTITIES
0
ARC
5
CD
100
AcDbEntity
8
1
62
256
6
ByLayer
370
18
48
1
60
0
100
AcDbCircle
39
0
10
55.000177
20
30.000176
30
0
40
5.07209732178284
210
0
220
0
230
1
100
AcDbArc
50
210.079902
51
239.920068
0
ARC
5
CE
100
AcDbEntity
8
1
62
256
6
ByLayer
370
18
48
1
60
0
100
AcDbCircle
39
0
10
54.805546
20
29.805546
30
0
40
4.74567911128867
210
0
220
0
230
1
100
AcDbArc
50
244.460315
51
247.984787
0
ARC
5
CF
100
AcDbEntity
8
1
62
256
6
ByLayer
370
18
48
1
60
0
100
AcDbCircle
39
0
10
53.444365
20
28.444365
30
0
40
3
210
0
220
0
230
1
100
AcDbArc
50
193.19609
51
256.80391
0
ARC
5
D0
100
AcDbEntity
8
1
62
256
6
ByLayer
370
18
48
1
60
0
100
AcDbCircle
39
0
10
54.805546
20
29.805546
30
0
40
4.7456791112887
210
0
220
0
230
1
100
AcDbArc
50
202.015213
51
205.539685
0
ARC
5
D1
100
AcDbEntity
8
1
62
256
6
ByLayer
370
18
48
1
60
0
100
AcDbCircle
39
0
10
55
20
30
30
0
40
1.2903
210
0
220
0
230
1
100
AcDbArc
50
105
51
165
0
ARC
5
D2
100
AcDbEntity
8
1
62
256
6
ByLayer
370
18
48
1
60
0
100
AcDbCircle
39
0
10
55
20
30
30
0
40
1.2903
210
0
220
0
230
1
100
AcDbArc
50
165
51
225
0
ARC
5
D3
100
AcDbEntity
8
1
62
256
6
ByLayer
370
18
48
1
60
0
100
AcDbCircle
39
0
10
55
20
30
30
0
40
1.2903
210
0
220
0
230
1
100
AcDbArc
50
225
51
285
0
ARC
5
D4
100
AcDbEntity
8
1
62
256
6
ByLayer
370
18
48
1
60
0
100
AcDbCircle
39
0
10
55
20
30
30
0
40
1.2903
210
0
220
0
230
1
100
AcDbArc
50
285
51
345
0
ARC
5
D5
100
AcDbEntity
8
1
62
256
6
ByLayer
370
18
48
1
60
0
100
AcDbCircle
39
0
10
55
20
30
30
0
40
1.2903
210
0
220
0
230
1
100
AcDbArc
50
345
51
45
0
ARC
5
D6
100
AcDbEntity
8
1
62
256
6
ByLayer
370
18
48
1
60
0
100
AcDbCircle
39
0
10
55
20
30
30
0
40
1.2903
210
0
220
0
230
1
100
AcDbArc
50
45
51
105
0
ARC
5
D9
100
AcDbEntity
8
1
62
256
6
ByLayer
370
18
48
1
60
0
100
AcDbCircle
39
0
10
55
20
30
30
0
40
1.6764
210
0
220
0
230
1
100
AcDbArc
50
135
51
195
0
ARC
5
DA
100
AcDbEntity
8
1
62
256
6
ByLayer
370
18
48
1
60
0
100
AcDbCircle
39
0
10
55
20
30
30
0
40
1.6764
210
0
220
0
230
1
100
AcDbArc
50
315
51
15
0
ARC
5
DB
100
AcDbEntity
8
1
62
256
6
ByLayer
370
18
48
1
60
0
100
AcDbCircle
39
0
10
55
20
30
30
0
40
1.6764
210
0
220
0
230
1
100
AcDbArc
50
255
51
315
0
ARC
5
DC
100
AcDbEntity
8
1
62
256
6
ByLayer
370
18
48
1
60
0
100
AcDbCircle
39
0
10
55
20
30
30
0
40
1.6764
210
0
220
0
230
1
100
AcDbArc
50
15
51
75
0
ARC
5
DD
100
AcDbEntity
8
1
62
256
6
ByLayer
370
18
48
1
60
0
100
AcDbCircle
39
0
10
55
20
30
30
0
40
1.6764
210
0
220
0
230
1
100
AcDbArc
50
195
51
255
0
ARC
5
DE
100
AcDbEntity
8
1
62
256
6
ByLayer
370
18
48
1
60
0
100
AcDbCircle
39
0
10
55
20
30
30
0
40
1.6764
210
0
220
0
230
1
100
AcDbArc
50
75
51
135
0
CIRCLE
5
D7
100
AcDbEntity
8
1
62
256
6
ByLayer
370
18
48
1
60
0
100
AcDbCircle
10
55
20
30
30
0
40
2.625
39
0
210
0
220
0
230
1
0
CIRCLE
5
D8
100
AcDbEntity
8
1
62
256
6
ByLayer
370
18
48
1
60
0
100
AcDbCircle
10
55
20
30
30
0
40
1.8
39
0
210
0
220
0
230
1
0
CIRCLE
5
DF
100
AcDbEntity
8
1
62
256
6
ByLayer
370
13
48
1
60
0
100
AcDbCircle
10
55
20
30
30
0
40
2.89684381127698
39
0
210
0
220
0
230
1
0
CIRCLE
5
E0
100
AcDbEntity
8
1
62
256
6
ByLayer
370
13
48
1
60
0
100
AcDbCircle
10
55
20
30
30
0
40
3.01176647161968
39
0
210
0
220
0
230
1
0
CIRCLE
5
E1
100
AcDbEntity
8
1
62
256
6
ByLayer
370
18
48
1
60
0
100
AcDbCircle
10
55
20
30
30
0
40
3.07132534818194
39
0
210
0
220
0
230
1
0
CIRCLE
5
E2
100
AcDbEntity
8
1
62
256
6
ByLayer
370
18
48
1
60
0
100
AcDbCircle
10
55
20
30
30
0
40
5.00000000000004
39
0
210
0
220
0
230
1
0
ELLIPSE
5
E3
100
AcDbEntity
8
1
62
256
6
ByLayer
370
18
48
1
60
0
100
AcDbEllipse
10
41.85907
20
17.694639
30
0
11
1.06558115838451
21
-1.25977648608629
31
0
210
0
220
0
230
1
40
0.37267
41
0.549287967093167
42
2.65896594254256
0
ELLIPSE
5
E4
100
AcDbEntity
8
1
62
256
6
ByLayer
370
18
48
1
60
0
100
AcDbEllipse
10
41.85907
20
17.694639
30
0
11
1.45306521597888
21
-1.71787702648132
31
0
210
0
220
0
230
1
40
0.37267
41
0.792761473591003
42
2.37906954993695
0
ELLIPSE
5
E5
100
AcDbEntity
8
1
62
256
6
ByLayer
370
18
48
1
60
0
100
AcDbEllipse
10
-1.056258
20
0
30
0
11
11.7092723497271
21
24.6771864409373
31
0
210
0
220
0
230
1
40
0.341999
41
-1.08183270048928
42
-0.167213071908988
0
ELLIPSE
5
E6
100
AcDbEntity
8
1
62
256
6
ByLayer
370
18
48
1
60
0
100
AcDbEllipse
10
21.056258
20
0
30
0
11
11.7092723497274
21
-24.6771864409374
31
0
210
0
220
0
230
1
40
0.341999
41
-2.97437958168081
42
-2.05975995310053
0
ELLIPSE
5
E7
100
AcDbEntity
8
1
62
256
6
ByLayer
370
18
48
1
60
0
100
AcDbEllipse
10
21.056258
20
0
30
0
11
11.7092723497272
21
24.6771864409372
31
0
210
0
220
0
230
1
40
0.341999
41
2.05975995310052
42
2.97437958168081
0
ELLIPSE
5
E8
100
AcDbEntity
8
1
62
256
6
ByLayer
370
18
48
1
60
0
100
AcDbEllipse
10
-1.056258
20
0
30
0
11
11.7092723497271
21
-24.6771864409374
31
0
210
0
220
0
230
1
40
0.341999
41
0.167213071908985
42
1.08183270048928
0
ELLIPSE
5
E9
100
AcDbEntity
8
1
62
256
6
ByLayer
370
18
48
1
60
0
100
AcDbEllipse
10
22.187217
20
0
30
0
11
1.53075794227786E-15
21
24.9999999999981
31
0
210
0
220
0
230
1
40
0.087489
41
1.05997997918285
42
2.08161267440693
0
ELLIPSE
5
EA
100
AcDbEntity
8
1
62
256
6
ByLayer
370
18
48
1
60
0
100
AcDbEllipse
10
41.71737
20
17.574782
30
0
11
-0.968710143985918
21
1.14525135098754
31
0
210
0
220
0
230
1
40
0.37267
41
-1.57079639403972
42
-0.51934504987432
0
ELLIPSE
5
EB
100
AcDbEntity
8
1
62
256
6
ByLayer
370
18
48
1
60
0
100
AcDbEllipse
10
41.71737
20
17.574782
30
0
11
-0.968710143985918
21
1.14525135098754
31
0
210
0
220
0
230
1
40
0.37267
41
-2.56245989665622
42
-1.57079639403972
0
POINT
5
70
100
AcDbEntity
8
2
62
256
6
ByLayer
370
18
48
1
60
0
100
AcDbPoint
10
49.964121
20
22.307957
30
0
39
0
210
0
220
0
230
1
50
360
0
POINT
5
72
100
AcDbEntity
8
2
62
256
6
ByLayer
370
18
48
1
60
0
100
AcDbPoint
10
46.531782
20
25.740296
30
0
39
0
210
0
220
0
230
1
50
360
0
POINT
5
73
100
AcDbEntity
8
2
62
256
6
ByLayer
370
18
48
1
60
0
100
AcDbPoint
10
50.757359
20
25.757359
30
0
39
0
210
0
220
0
230
1
50
360
0
POINT
5
74
100
AcDbEntity
8
SK2
62
256
6
ByLayer
370
18
48
1
60
0
100
AcDbPoint
10
20.939697
20
0
30
0
39
0
210
0
220
0
230
1
50
360
0
POINT
5
76
100
AcDbEntity
8
2
62
256
6
ByLayer
370
18
48
1
60
0
100
AcDbPoint
10
55
20
30
30
0
39
0
210
0
220
0
230
1
50
360
0
POINT
5
77
100
AcDbEntity
8
2
62
256
6
ByLayer
370
18
48
1
60
0
100
AcDbPoint
10
54.809081
20
29.809081
30
0
39
0
210
0
220
0
230
1
50
360
0
POINT
5
78
100
AcDbEntity
8
80
62
256
6
ByLayer
370
18
48
1
60
0
100
AcDbPoint
10
0
20
0
30
0
39
0
210
0
220
0
230
1
50
360
0
POINT
5
7A
100
AcDbEntity
8
81
62
256
6
ByLayer
370
18
48
1
60
0
100
AcDbPoint
10
60
20
35
30
0
39
0
210
0
220
0
230
1
50
360
0
POINT
5
7C
100
AcDbEntity
8
1
62
256
6
ByLayer
370
18
48
1
60
0
100
AcDbPoint
10
0
20
0
30
0
39
0
210
0
220
0
230
1
50
360
0
POINT
5
7E
100
AcDbEntity
8
1
62
256
6
ByLayer
370
18
48
1
60
1
100
AcDbPoint
10
60
20
35
30
0
39
0
210
0
220
0
230
1
50
360
0
POINT
5
7F
100
AcDbEntity
8
1
62
256
6
ByLayer
370
18
48
1
60
1
100
AcDbPoint
10
0
20
25
30
0
39
0
210
0
220
0
230
1
50
360
0
POINT
5
80
100
AcDbEntity
8
1
62
256
6
ByLayer
370
18
48
1
60
1
100
AcDbPoint
10
0
20
-25
30
0
39
0
210
0
220
0
230
1
50
360
0
POINT
5
81
100
AcDbEntity
8
1
62
256
6
ByLayer
370
18
48
1
60
1
100
AcDbPoint
10
0
20
25
30
0
39
0
210
0
220
0
230
1
50
360
0
POINT
5
82
100
AcDbEntity
8
1
62
256
6
ByLayer
370
18
48
1
60
1
100
AcDbPoint
10
60
20
0
30
0
39
0
210
0
220
0
230
1
50
360
0
POINT
5
83
100
AcDbEntity
8
1
62
256
6
ByLayer
370
18
48
1
60
1
100
AcDbPoint
10
60
20
35
30
0
39
0
210
0
220
0
230
1
50
360
0
SPLINE
5
EC
100
AcDbEntity
8
SK1
62
256
6
ByLayer
370
18
48
1
60
0
100
AcDbSpline
70
4
71
3
72
11
73
7
40
0
40
0
40
0
40
0
40
0.242589954178654
40
0.502544718947592
40
0.761087572808656
40
1
40
1
40
1
40
1
41
1
10
-0.200000000000003
20
17.5545583467653
30
0
41
1
10
-0.20095788927037
20
17.528914023106
30
0
41
1
10
-0.211248315226285
20
17.4799022728817
30
0
41
1
10
-0.255179720944199
20
17.413949611085
30
0
41
1
10
-0.321113897423828
20
17.3707504109673
30
0
41
1
10
-0.369683795840203
20
17.3607068368228
30
0
41
1
10
-0.394913799811292
20
17.359780267379
30
0
0
SPLINE
5
ED
100
AcDbEntity
8
SK1
62
256
6
ByLayer
370
18
48
1
60
0
100
AcDbSpline
70
4
71
3
72
11
73
7
40
0
40
0
40
0
40
0
40
0.238912427113132
40
0.497455280942504
40
0.75741004574507
40
1
40
1
40
1
40
1
41
1
10
-0.394913799811292
20
-17.3597801301672
30
0
41
1
10
-0.369683795838412
20
-17.3607066995757
30
0
41
1
10
-0.321113897416481
20
-17.3707502735068
30
0
41
1
10
-0.255179720936411
20
-17.4139494728385
30
0
41
1
10
-0.211248315224637
20
-17.4799021334557
30
0
41
1
10
-0.20095788926875
20
-17.5289138828002
30
0
41
1
10
-0.200000000000003
20
-17.5545582060013
30
0
0
SPLINE
5
EE
100
AcDbEntity
8
SK1
62
256
6
ByLayer
370
18
48
1
60
0
100
AcDbSpline
70
4
71
2
72
6
73
3
40
0
40
0
40
0
40
1
40
1
40
1
41
1
10
-28.5
20
16.8588088260863
30
0
41
1
10
-29.2499999297871
20
16.4259984461422
30
0
41
1
10
-30
20
15.9931873508859
30
0
0
SPLINE
5
EF
100
AcDbEntity
8
SK1
62
256
6
ByLayer
370
18
48
1
60
0
100
AcDbSpline
70
4
71
2
72
6
73
3
40
0
40
0
40
0
40
1
40
1
40
1
41
1
10
-30
20
-15.9931874249212
30
0
41
1
10
-29.2499999297894
20
-16.425998517687
30
0
41
1
10
-28.5
20
-16.8588088951667
30
0
0
SPLINE
5
F0
100
AcDbEntity
8
SK1
62
256
6
ByLayer
370
18
48
1
60
0
100
AcDbSpline
70
4
71
2
72
6
73
3
40
0
40
0
40
0
40
1
40
1
40
1
41
1
10
-0.394913799811292
20
17.3602209523781
30
0
41
1
10
-1.19497688886898
20
17.3401342706943
30
0
41
1
10
-1.9950399779393
20
17.3200475850767
30
0
0
SPLINE
5
F1
100
AcDbEntity
8
SK1
62
256
6
ByLayer
370
18
48
1
60
0
100
AcDbSpline
70
4
71
2
72
6
73
3
40
0
40
0
40
0
40
1
40
1
40
1
41
1
10
-1.9950399779393
20
-17.3200478774323
30
0
41
1
10
-1.19497688886898
20
-17.340134563042
30
0
41
1
10
-0.394913799811292
20
-17.3602212447177
30
0
0
SPLINE
5
F2
100
AcDbEntity
8
SK1
62
256
6
ByLayer
370
18
48
1
60
0
100
AcDbSpline
70
4
71
3
72
13
73
9
40
0
40
0
40
0
40
0
40
0.239505987673083
40
0.368426538155688
40
0.500072261058321
40
0.631705987654816
40
0.760593443052916
40
1
40
1
40
1
40
1
41
1
10
-1.9950399779393
20
17.3252686883829
30
0
41
1
10
-2.02110925982341
20
17.3248665791032
30
0
41
1
10
-2.05883863809936
20
17.3310361992814
30
0
41
1
10
-2.10627567686484
20
17.3540696096461
30
0
41
1
10
-2.13886243911925
20
17.3792256041407
30
0
41
1
10
-2.16563490776916
20
17.4104933211739
30
0
41
1
10
-2.19103207710596
20
17.4566915621889
30
0
41
1
10
-2.19909121921685
20
17.4940488942773
30
0
41
1
10
-2.2
20
17.5200961072231
30
0
0
SPLINE
5
F3
100
AcDbEntity
8
SK1
62
256
6
ByLayer
370
18
48
1
60
0
100
AcDbSpline
70
4
71
3
72
13
73
9
40
0
40
0
40
0
40
0
40
0.239406556342956
40
0.368294011542631
40
0.499927738071791
40
0.631573461053609
40
0.76049401174041
40
1
40
1
40
1
40
1
41
1
10
-2.2
20
-17.5200962264206
30
0
41
1
10
-2.19909121920765
20
-17.494049013599
30
0
41
1
10
-2.19103207709688
20
-17.4566916816953
30
0
41
1
10
-2.16563490775661
20
-17.4104934409328
30
0
41
1
10
-2.13886243910255
20
-17.379225724067
30
0
41
1
10
-2.106275676847
20
-17.3540697297104
30
0
41
1
10
-2.05883863807624
20
-17.3310363194718
30
0
41
1
10
-2.0211092598112
20
-17.3248666993254
30
0
41
1
10
-1.9950399779393
20
-17.3252688086104
30
0
0
SPLINE
5
F4
100
AcDbEntity
8
SK1
62
256
6
ByLayer
370
18
48
1
60
0
100
AcDbSpline
70
4
71
2
72
6
73
3
40
0
40
0
40
0
40
1
40
1
40
1
41
1
10
-2.2
20
17.5148287077807
30
0
41
1
10
-15.3499999982432
20
17.1846805562453
30
0
41
1
10
-28.5
20
16.8545313165689
30
0
0
SPLINE
5
F5
100
AcDbEntity
8
SK1
62
256
6
ByLayer
370
18
48
1
60
0
100
AcDbSpline
70
4
71
2
72
6
73
3
40
0
40
0
40
0
40
1
40
1
40
1
41
1
10
-28.5
20
-16.8545316091351
30
0
41
1
10
-15.3499999982428
20
-17.1846808487114
30
0
41
1
10
-2.2
20
-17.5148290000611
30
0
0
SPLINE
5
F6
100
AcDbEntity
8
1
62
256
6
ByLayer
370
18
48
1
60
0
100
AcDbSpline
70
4
71
3
72
36
73
32
40
0
40
0
40
0
40
0
40
0.125000000000021
40
0.125000000000021
40
0.187500000000028
40
0.187500000000028
40
0.218750000000036
40
0.218750000000036
40
0.250000000000045
40
0.250000000000045
40
0.375000000000067
40
0.375000000000067
40
0.437500000000075
40
0.437500000000075
40
0.468750000000076
40
0.468750000000076
40
0.500000000000076
40
0.500000000000076
40
0.625000000000072
40
0.625000000000072
40
0.687500000000065
40
0.687500000000065
40
0.718750000000059
40
0.718750000000059
40
0.750000000000053
40
0.750000000000053
40
0.875000000000028
40
0.875000000000028
40
0.937500000000014
40
0.937500000000014
40
1
40
1
40
1
40
1
41
1
10
46.5168253454128
20
27.1694661556024
30
0
41
1
10
46.5674284245655
20
27.1188630764498
30
0
41
1
10
46.6231526500721
20
27.0679469988614
30
0
41
1
10
46.7123641738503
20
26.9889779806206
30
0
41
1
10
46.7430496264933
20
26.9622239756977
30
0
41
1
10
46.7903215294954
20
26.9211749835854
30
0
41
1
10
46.8062865702333
20
26.9073388485289
30
0
41
1
10
46.8386075871893
20
26.8793127226103
30
0
41
1
10
46.8550002628157
20
26.8650907854773
30
0
41
1
10
46.9374348591701
20
26.793366892808
30
0
41
1
10
47.004269382144
20
26.7345027000751
30
0
41
1
10
47.1046071536198
20
26.6426012764685
30
0
41
1
10
47.1380749335815
20
26.6113716241826
30
0
41
1
10
47.1882232482253
20
26.5635086941926
30
0
41
1
10
47.2049309550066
20
26.5473849879193
30
0
41
1
10
47.238321525421
20
26.5147824409893
30
0
41
1
10
47.2550514913626
20
26.4982559436757
30
0
41
1
10
47.3378117290134
20
26.415527014796
30
0
41
1
10
47.401419575383
20
26.3487369584647
30
0
41
1
10
47.4936242788498
20
26.2481430720246
30
0
41
1
10
47.5238316209265
20
26.2145521843283
30
0
41
1
10
47.5684969578759
20
26.1642128995272
30
0
41
1
10
47.5832992065803
20
26.147417484392
30
0
41
1
10
47.6126250218146
20
26.1139786421254
30
0
41
1
10
47.6270885498651
20
26.0974041762331
30
0
41
1
10
47.6985237704093
20
26.0153106800999
30
0
41
1
10
47.752854469467
20
25.9520930537909
30
0
41
1
10
47.8322140565798
20
25.8624042104558
30
0
41
1
10
47.8583096536716
20
25.8333707630676
30
0
41
1
10
47.910136504911
20
25.7773710639796
30
0
41
1
10
47.9356522938259
20
25.7506392071893
30
0
41
1
10
47.9609524734536
20
25.7253390275617
30
0
0
SPLINE
5
F7
100
AcDbEntity
8
1
62
256
6
ByLayer
370
18
48
1
60
0
100
AcDbSpline
70
4
71
3
72
8
73
4
40
0
40
0
40
0
40
0
40
1
40
1
40
1
40
1
41
1
10
23.8567256581192
20
24.8653201723003
30
0
41
1
10
24.1385965427076
20
24.8554770241132
30
0
41
1
10
24.4441105577664
20
24.8448082396168
30
0
41
1
10
24.7695536670169
20
24.833443515816
30
0
0
SPLINE
5
F8
100
AcDbEntity
8
1
62
256
6
ByLayer
370
18
48
1
60
0
100
AcDbSpline
70
2053
71
3
72
171
73
167
40
0
40
0
40
0
40
0
40
0.031250000000001
40
0.031250000000001
40
0.062500000000002
40
0.062500000000002
40
0.093750000000003
40
0.093750000000003
40
0.101562500000003
40
0.101562500000003
40
0.109375000000004
40
0.109375000000004
40
0.125000000000005
40
0.125000000000005
40
0.140625000000006
40
0.140625000000006
40
0.156250000000007
40
0.156250000000007
40
0.160156250000008
40
0.160156250000008
40
0.164062500000009
40
0.164062500000009
40
0.17187500000001
40
0.17187500000001
40
0.187500000000012
40
0.187500000000012
40
0.203125000000014
40
0.203125000000014
40
0.218750000000016
40
0.218750000000016
40
0.226562500000017
40
0.226562500000017
40
0.230468750000017
40
0.230468750000017
40
0.234375000000017
40
0.234375000000017
40
0.250000000000019
40
0.250000000000019
40
0.253906250000019
40
0.253906250000019
40
0.25781250000002
40
0.265625000000019
40
0.273437500000018
40
0.273437500000018
40
0.277343750000018
40
0.277343750000018
40
0.281250000000018
40
0.281250000000018
40
0.296875000000017
40
0.296875000000017
40
0.304687500000016
40
0.304687500000016
40
0.312500000000016
40
0.312500000000016
40
0.328125000000016
40
0.328125000000016
40
0.343750000000015
40
0.343750000000015
40
0.351562500000014
40
0.351562500000014
40
0.359375000000013
40
0.359375000000013
40
0.375000000000013
40
0.375000000000013
40
0.390625000000012
40
0.390625000000012
40
0.406250000000011
40
0.406250000000011
40
0.421875000000011
40
0.421875000000011
40
0.43750000000001
40
0.43750000000001
40
0.468750000000009
40
0.468750000000009
40
0.500000000000008
40
0.500000000000008
40
0.515625000000007
40
0.515625000000007
40
0.523437500000007
40
0.523437500000007
40
0.531250000000007
40
0.531250000000007
40
0.562500000000009
40
0.562500000000009
40
0.593750000000011
40
0.593750000000011
40
0.601562500000012
40
0.601562500000012
40
0.609375000000012
40
0.609375000000012
40
0.625000000000013
40
0.625000000000013
40
0.640625000000013
40
0.640625000000013
40
0.656250000000014
40
0.656250000000014
40
0.660156250000014
40
0.660156250000014
40
0.664062500000015
40
0.671875000000016
40
0.671875000000016
40
0.687500000000017
40
0.687500000000017
40
0.695312500000017
40
0.695312500000017
40
0.699218750000018
40
0.699218750000018
40
0.703125000000018
40
0.703125000000018
40
0.718750000000021
40
0.718750000000021
40
0.726562500000022
40
0.726562500000022
40
0.734375000000024
40
0.734375000000024
40
0.750000000000027
40
0.750000000000027
40
0.757812500000028
40
0.757812500000028
40
0.761718750000028
40
0.761718750000028
40
0.765625000000029
40
0.765625000000029
40
0.781250000000029
40
0.781250000000029
40
0.789062500000029
40
0.789062500000029
40
0.792968750000029
40
0.792968750000029
40
0.796875000000028
40
0.796875000000028
40
0.812500000000024
40
0.812500000000024
40
0.820312500000021
40
0.820312500000021
40
0.824218750000021
40
0.824218750000021
40
0.82812500000002
40
0.82812500000002
40
0.843750000000017
40
0.843750000000017
40
0.859375000000013
40
0.859375000000013
40
0.867187500000012
40
0.867187500000012
40
0.871093750000011
40
0.871093750000011
40
0.87500000000001
40
0.87500000000001
40
0.890625000000009
40
0.890625000000009
40
0.906250000000007
40
0.906250000000007
40
0.921875000000006
40
0.921875000000006
40
0.929687500000005
40
0.929687500000005
40
0.937500000000005
40
0.937500000000005
40
0.968750000000003
40
0.968750000000003
40
0.984375000000002
40
0.984375000000002
40
0.992187500000001
40
0.992187500000001
40
1
40
1
40
1
40
1
41
1
10
42.7190067675962
20
21.3689670102746
30
0
41
1
10
42.5774560558742
20
21.2492364286732
30
0
41
1
10
42.4434007033837
20
21.1225663799705
30
0
41
1
10
42.1892715887943
20
20.8562332498887
30
0
41
1
10
42.0691990003013
20
20.7165690269031
30
0
41
1
10
41.8432581221281
20
20.4240910297566
30
0
41
1
10
41.7373717750034
20
20.2712923070644
30
0
41
1
10
41.614923097897
20
20.0712259348763
30
0
41
1
10
41.5909333605144
20
20.0307554489435
30
0
41
1
10
41.5440010818164
20
19.9488608290278
30
0
41
1
10
41.5211093812443
20
19.9075221303312
30
0
41
1
10
41.4544426886923
20
19.7827170102901
30
0
41
1
10
41.412574575415
20
19.6982997412355
30
0
41
1
10
41.3344053249429
20
19.5268707187109
30
0
41
1
10
41.2981011079179
20
19.439860273509
30
0
41
1
10
41.2317158427931
20
19.262974260236
30
0
41
1
10
41.2016288789268
20
19.1731012145152
30
0
41
1
10
41.1685531093034
20
19.0587001807045
30
0
41
1
10
41.1621658061708
20
19.0357164726445
30
0
41
1
10
41.1498685966301
20
18.9895329300604
30
0
41
1
10
41.1439529586076
20
18.9663088177946
30
0
41
1
10
41.127009401565
20
18.8965093462838
30
0
41
1
10
41.1167833254253
20
18.849817286065
30
0
41
1
10
41.0895524523109
20
18.709235385441
30
0
41
1
10
41.0759659888827
20
18.6148436414777
30
0
41
1
10
41.0597601647385
20
18.4244935104869
30
0
41
1
10
41.0571159799865
20
18.328490802333
30
0
41
1
10
41.0658191667264
20
18.1347282414014
30
0
41
1
10
41.0770878921784
20
18.039006108549
30
0
41
1
10
41.1064709450148
20
17.8975402263313
30
0
41
1
10
41.1183553492134
20
17.8507395460142
30
0
41
1
10
41.1397061275868
20
17.7811394179583
30
0
41
1
10
41.147411483576
20
17.7580397073777
30
0
41
1
10
41.1640792198095
20
17.7120550745048
30
0
41
1
10
41.1729923653739
20
17.6893115078186
30
0
41
1
10
41.2203534858617
20
17.5772900803212
30
0
41
1
10
41.2673023138656
20
17.4926457861222
30
0
41
1
10
41.3385241639306
20
17.3937275772773
30
0
41
1
10
41.3534114659047
20
17.374273309892
30
0
41
1
10
41.3844312730865
20
17.3361474264956
30
0
41
1
10
41.4324224451167
20
17.2806322209201
30
0
41
1
10
41.5195039383786
20
17.1962330713273
30
0
41
1
10
41.5964054288079
20
17.1370004164527
30
0
41
1
10
41.656702979148
20
17.0955780031937
30
0
41
1
10
41.6772847628447
20
17.0822438513345
30
0
41
1
10
41.7191028121674
20
17.0566896759252
30
0
41
1
10
41.7402494537385
20
17.0445204355325
30
0
41
1
10
41.8470962587278
20
16.9865241111376
30
0
41
1
10
41.9361083956557
20
16.9491727115777
30
0
41
1
10
42.0739014145795
20
16.9041124950162
30
0
41
1
10
42.1205506179663
20
16.8909349346593
30
0
41
1
10
42.2151682313665
20
16.8679698378253
30
0
41
1
10
42.2626396529996
20
16.8583031169405
30
0
41
1
10
42.4051480152626
20
16.8341220037553
30
0
41
1
10
42.5004325841896
20
16.8243524538144
30
0
41
1
10
42.6914208937913
20
16.8149739380969
30
0
41
1
10
42.7871255911815
20
16.8153844267114
30
0
41
1
10
42.9309306660276
20
16.8224829099781
30
0
41
1
10
42.97899467788
20
16.8259465010734
30
0
41
1
10
43.0744239766044
20
16.834825420962
30
0
41
1
10
43.1218640915138
20
16.8402406529958
30
0
41
1
10
43.2634266942413
20
16.85915608653
30
0
41
1
10
43.3567947329637
20
16.8753135210002
30
0
41
1
10
43.5417645409667
20
16.9137420930892
30
0
41
1
10
43.6333649466462
20
16.9360184396674
30
0
41
1
10
43.8149528401837
20
16.986062541849
30
0
41
1
10
43.9049396091969
20
17.0138330623038
30
0
41
1
10
44.08339351997
20
17.0744699233438
30
0
41
1
10
44.1718711675763
20
17.1073421469555
30
0
41
1
10
44.3473118062158
20
17.1779357365445
30
0
41
1
10
44.4335564653279
20
17.2153667603365
30
0
41
1
10
44.6881270953528
20
17.3336291645213
30
0
41
1
10
44.8523175228432
20
17.4203862931234
30
0
41
1
10
45.1702107992061
20
17.6087540141127
30
0
41
1
10
45.323908983474
20
17.7103723973007
30
0
41
1
10
45.5463536885072
20
17.8742323059203
30
0
41
1
10
45.6191452716316
20
17.9307673374921
30
0
41
1
10
45.7262084205349
20
18.0185711339295
30
0
41
1
10
45.761541653122
20
18.0483399618702
30
0
41
1
10
45.8314784364181
20
18.1089098373579
30
0
41
1
10
45.8661061152195
20
18.1397353459071
30
0
41
1
10
46.0364108423091
20
18.2956457163174
30
0
41
1
10
46.1643731007652
20
18.426647264596
30
0
41
1
10
46.4023664250585
20
18.7023929301598
30
0
41
1
10
46.5124263021341
20
18.8471125006674
30
0
41
1
10
46.6368759916602
20
19.0382486120671
30
0
41
1
10
46.6611039089757
20
19.0769925530629
30
0
41
1
10
46.7081598330748
20
19.1555787420922
30
0
41
1
10
46.7310281127575
20
19.1954980568574
30
0
41
1
10
46.7969702281349
20
19.3162180700545
30
0
41
1
10
46.8374632217861
20
19.3980734090374
30
0
41
1
10
46.9109663242372
20
19.5648006773597
30
0
41
1
10
46.9439799557937
20
19.649671012904
30
0
41
1
10
47.0017100549717
20
19.8228142663981
30
0
41
1
10
47.0264332370256
20
19.9110841605531
30
0
41
1
10
47.0513813665076
20
20.0239066507196
30
0
41
1
10
47.0560777825444
20
20.0466283043401
30
0
41
1
10
47.0648130680607
20
20.0921507450525
30
0
41
1
10
47.0769275784605
20
20.1605320351721
30
0
41
1
10
47.086026573021
20
20.2292152497929
30
0
41
1
10
47.1000225940679
20
20.3670139751609
30
0
41
1
10
47.1037733865831
20
20.4594534228455
30
0
41
1
10
47.0999674681345
20
20.5991326489727
30
0
41
1
10
47.0971217536136
20
20.6458630130471
30
0
41
1
10
47.0902943662693
20
20.7162418098396
30
0
41
1
10
47.0875866291798
20
20.7397847433753
30
0
41
1
10
47.0813011266197
20
20.7868021969475
30
0
41
1
10
47.0777327738853
20
20.8102166762292
30
0
41
1
10
47.0577385828419
20
20.926814301742
30
0
41
1
10
47.0348860024767
20
21.0185799370206
30
0
41
1
10
46.9895111938
20
21.1538155280562
30
0
41
1
10
46.9725310770649
20
21.1984906087318
30
0
41
1
10
46.9346373188728
20
21.2869903554354
30
0
41
1
10
46.9136181285901
20
21.3309796437874
30
0
41
1
10
46.8456838009076
20
21.4590110453989
30
0
41
1
10
46.7936657014561
20
21.5398732515481
30
0
41
1
10
46.7055645771713
20
21.6544481658217
30
0
41
1
10
46.6745128545665
20
21.6915162224458
30
0
41
1
10
46.625356960416
20
21.7453991112084
30
0
41
1
10
46.6085415570536
20
21.7630732798585
30
0
41
1
10
46.5740370804272
20
21.7978390723748
30
0
41
1
10
46.5563891456993
20
21.8148854281808
30
0
41
1
10
46.4668952782428
20
21.8978033101331
30
0
41
1
10
46.3906775179726
20
21.9574121754592
30
0
41
1
10
46.2699365013657
20
22.0374985783525
30
0
41
1
10
46.2286157872675
20
22.0626328740147
30
0
41
1
10
46.1650523542069
20
22.0980348455411
30
0
41
1
10
46.1435565626948
20
22.1094734119047
30
0
41
1
10
46.1003277950053
20
22.131443488383
30
0
41
1
10
46.0785850748769
20
22.1419829928006
30
0
41
1
10
45.9692522832841
20
22.1925346686285
30
0
41
1
10
45.8798148058562
20
22.2261441420993
30
0
41
1
10
45.7429963326677
20
22.2674106985776
30
0
41
1
10
45.6969444397305
20
22.2796346652814
30
0
41
1
10
45.6272196729911
20
22.2957590672038
30
0
41
1
10
45.603857096625
20
22.300766152476
30
0
41
1
10
45.5572295595234
20
22.3099975710598
30
0
41
1
10
45.5339262880931
20
22.314231373463
30
0
41
1
10
45.4174582874225
20
22.333568701632
30
0
41
1
10
45.3244375805623
20
22.3432058471591
30
0
41
1
10
45.1386169150958
20
22.3522879148745
30
0
41
1
10
45.0458173113541
20
22.3517237945305
30
0
41
1
10
44.9067340070113
20
22.3439059881252
30
0
41
1
10
44.8603923781383
20
22.340134614172
30
0
41
1
10
44.7909037957802
20
22.3327884356061
30
0
41
1
10
44.7677525273199
20
22.3300579800606
30
0
41
1
10
44.7216864580329
20
22.3240756921495
30
0
41
1
10
44.6987425255347
20
22.3208209585023
30
0
41
1
10
44.5844511557944
20
22.303273993907
30
0
41
1
10
44.4943833355399
20
22.2851761438188
30
0
41
1
10
44.3166308429857
20
22.2417497919443
30
0
41
1
10
44.2289476479862
20
22.2164173088852
30
0
41
1
10
44.0557264981
20
22.1591142550527
30
0
41
1
10
43.9701893623482
20
22.1271414938855
30
0
41
1
10
43.8433678662513
20
22.0745015961428
30
0
41
1
10
43.8013418932879
20
22.0561734926759
30
0
41
1
10
43.717769926648
20
22.0179900798193
30
0
41
1
10
43.6761650387689
20
21.998104232903
30
0
41
1
10
43.4703027894466
20
21.8954326169882
30
0
41
1
10
43.312165623539
20
21.8029011873836
30
0
41
1
10
43.0834654808392
20
21.6503481315237
30
0
41
1
10
43.0086602151152
20
21.5971892917123
30
0
41
1
10
42.8985085391356
20
21.5141037315008
30
0
41
1
10
42.8621344930855
20
21.4858499712713
30
0
41
1
10
42.7900638775782
20
21.4282364589408
30
0
41
1
10
42.7543944455267
20
21.398899655675
30
0
41
1
10
42.7190067675962
20
21.3689670102746
30
0
0
SPLINE
5
F9
100
AcDbEntity
8
1
62
256
6
ByLayer
370
18
48
1
60
0
100
AcDbSpline
70
4
71
3
72
24
73
20
40
0
40
0
40
0
40
0
40
0.0625
40
0.0625
40
0.125
40
0.125
40
0.1875
40
0.1875
40
0.25
40
0.25
40
0.375
40
0.375
40
0.5
40
0.5
40
0.625
40
0.625
40
0.75
40
0.75
40
1
40
1
40
1
40
1
41
1
10
20.9883692337155
20
24.9654853858171
30
0
41
1
10
21.0664750537601
20
24.9627578704794
30
0
41
1
10
21.1413847387517
20
24.9601419666371
30
0
41
1
10
21.2870238497907
20
24.9550561368115
30
0
41
1
10
21.3577267635115
20
24.9525871366591
30
0
41
1
10
21.4960998516648
20
24.9477550419438
30
0
41
1
10
21.5637593946249
20
24.9453923186402
30
0
41
1
10
21.6967374611502
20
24.9407486222316
30
0
41
1
10
21.7620510435331
20
24.9384678216765
30
0
41
1
10
21.9551389381367
20
24.9317250438174
30
0
41
1
10
22.0801002217213
20
24.927361299638
30
0
41
1
10
22.3244389009487
20
24.9188288049428
30
0
41
1
10
22.4437881671302
20
24.9146610367294
30
0
41
1
10
22.6777260192586
20
24.9064917469198
30
0
41
1
10
22.7923034559022
20
24.9024906146659
30
0
41
1
10
23.0170440732522
20
24.8946424993719
30
0
41
1
10
23.127202208714
20
24.8907956925158
30
0
41
1
10
23.4511753157398
20
24.8794823023239
30
0
41
1
10
23.6585377314452
20
24.8722410472038
30
0
41
1
10
23.8567256581194
20
24.8653201723003
30
0
0
SPLINE
5
FA
100
AcDbEntity
8
1
62
256
6
ByLayer
370
18
48
1
60
0
100
AcDbSpline
70
4
71
3
72
78
73
74
40
0
40
0
40
0
40
0
40
0.0078124999999995
40
0.0078124999999995
40
0.015624999999999
40
0.015624999999999
40
0.031249999999998
40
0.031249999999998
40
0.0624999999999951
40
0.0624999999999951
40
0.0781249999999933
40
0.0781249999999933
40
0.0820312499999932
40
0.0820312499999932
40
0.0859374999999931
40
0.0937499999999928
40
0.0937499999999928
40
0.124999999999991
40
0.124999999999991
40
0.128906249999991
40
0.128906249999991
40
0.132812499999991
40
0.14062499999999
40
0.15624999999999
40
0.171874999999989
40
0.171874999999989
40
0.179687499999989
40
0.179687499999989
40
0.187499999999989
40
0.187499999999989
40
0.218749999999988
40
0.218749999999988
40
0.234374999999987
40
0.234374999999987
40
0.242187499999988
40
0.242187499999988
40
0.249999999999988
40
0.249999999999988
40
0.281249999999988
40
0.281249999999988
40
0.312499999999988
40
0.312499999999988
40
0.343749999999988
40
0.343749999999988
40
0.351562499999987
40
0.351562499999987
40
0.359374999999987
40
0.359374999999987
40
0.374999999999987
40
0.374999999999987
40
0.406249999999987
40
0.406249999999987
40
0.437499999999988
40
0.437499999999988
40
0.499999999999991
40
0.499999999999991
40
0.562499999999993
40
0.562499999999993
40
0.624999999999996
40
0.624999999999996
40
0.656249999999997
40
0.656249999999997
40
0.671874999999998
40
0.671874999999998
40
0.687499999999998
40
0.687499999999998
40
0.749999999999999
40
0.749999999999999
40
0.812499999999999
40
0.812499999999999
40
0.874999999999999
40
0.874999999999999
40
1
40
1
40
1
40
1
41
1
10
42.2280770820188
20
27.4758691264266
30
0
41
1
10
42.2515748749455
20
27.4346991506141
30
0
41
1
10
42.2745202551081
20
27.3931821172071
30
0
41
1
10
42.3192299730169
20
27.3094055446092
30
0
41
1
10
42.3409215120041
20
27.267279830255
30
0
41
1
10
42.4037758159631
20
27.1404291661402
30
0
41
1
10
42.442781727896
20
27.055119940004
30
0
41
1
10
42.5502770213424
20
26.7967369392977
30
0
41
1
10
42.6093341260945
20
26.6212335014239
30
0
41
1
10
42.6743957305877
20
26.351824125182
30
0
41
1
10
42.6921426960602
20
26.2609897353546
30
0
41
1
10
42.7087146548302
20
26.1459654847047
30
0
41
1
10
42.7117481219337
20
26.1228745016712
30
0
41
1
10
42.7172022943149
20
26.0768265401981
30
0
41
1
10
42.7244805436079
20
26.0078518748852
30
0
41
1
10
42.7290298516322
20
25.9391689993223
30
0
41
1
10
42.7380310527851
20
25.7108748178199
30
0
41
1
10
42.7255606880013
20
25.530313221679
30
0
41
1
10
42.6875411096763
20
25.3295385700632
30
0
41
1
10
42.6829752408133
20
25.3072302862836
30
0
41
1
10
42.673205060619
20
25.2628472321412
30
0
41
1
10
42.657610580905
20
25.1966907582865
30
0
41
1
10
42.6147564692565
20
25.0451963022803
30
0
41
1
10
42.5356430560491
20
24.836671493466
30
0
41
1
10
42.4543262407991
20
24.6777102927512
30
0
41
1
10
42.3869102154011
20
24.5612568386531
30
0
41
1
10
42.3633065447502
20
24.522814564776
30
0
41
1
10
42.3144628236858
20
24.4475089314171
30
0
41
1
10
42.2891952064767
20
24.4105864898123
30
0
41
1
10
42.1588978849364
20
24.2293770966123
30
0
41
1
10
42.0420841576386
20
24.0952121951122
30
0
41
1
10
41.8518729035792
20
23.9065876578462
30
0
41
1
10
41.7859520528307
20
23.8458338187455
30
0
41
1
10
41.6836472475227
20
23.7575586784873
30
0
41
1
10
41.6489743254149
20
23.7286102432489
30
0
41
1
10
41.5785366970325
20
23.6716195004039
30
0
41
1
10
41.5429094955749
20
23.6436887497566
30
0
41
1
10
41.3630533583515
20
23.506803680614
30
0
41
1
10
41.2135079370048
20
23.4059181484249
30
0
41
1
10
40.9055588994047
20
23.217375673273
30
0
41
1
10
40.7471389454859
20
23.1297455933226
30
0
41
1
10
40.4230337538286
20
22.965123669467
30
0
41
1
10
40.2573404589281
20
22.8881450575859
30
0
41
1
10
40.0463858206197
20
22.7974306353626
30
0
41
1
10
40.0040021043825
20
22.7795646434854
30
0
41
1
10
39.9188636715542
20
22.7443628299982
30
0
41
1
10
39.876078596778
20
22.7270150574513
30
0
41
1
10
39.7474406246605
20
22.6758342894817
30
0
41
1
10
39.6613361021277
20
22.6428723392669
30
0
41
1
10
39.4020770138757
20
22.5471198628596
30
0
41
1
10
39.2279804787191
20
22.4874493695238
30
0
41
1
10
38.8776567097505
20
22.3750166811767
30
0
41
1
10
38.7014280949486
20
22.3222597045752
30
0
41
1
10
38.1699688190184
20
22.1727937846256
30
0
41
1
10
37.8119853404108
20
22.0848129839808
30
0
41
1
10
37.09021318422
20
21.9265065864532
30
0
41
1
10
36.7264132068309
20
21.8562234119248
30
0
41
1
10
35.9939774044489
20
21.7298031384617
30
0
41
1
10
35.6253361805533
20
21.6736862057184
30
0
41
1
10
35.0692454542915
20
21.5983377991209
30
0
41
1
10
34.8833584332053
20
21.5747001040498
30
0
41
1
10
34.6037913037167
20
21.541289003717
30
0
41
1
10
34.5104794077943
20
21.530493197126
30
0
41
1
10
34.323617056275
20
21.5095588459949
30
0
41
1
10
34.2300559845797
20
21.4994194152462
30
0
41
1
10
33.7622465651111
20
21.45036578406
30
0
41
1
10
33.3875335694064
20
21.4163102651199
30
0
41
1
10
32.6372787622426
20
21.3571580404185
30
0
41
1
10
32.2617366168636
20
21.3320663169161
30
0
41
1
10
31.5098982221803
20
21.2898384101964
30
0
41
1
10
31.1336017649196
20
21.2727052960785
30
0
41
1
10
30.0036655763759
20
21.2321547701636
30
0
41
1
10
29.2489837158802
20
21.2195123622976
30
0
41
1
10
28.4930616290794
20
21.2195123622976
30
0
0
SPLINE
5
FB
100
AcDbEntity
8
1
62
256
6
ByLayer
370
18
48
1
60
0
100
AcDbSpline
70
4
71
3
72
21
73
17
40
0
40
0
40
0
40
0
40
0.124999999999995
40
0.124999999999995
40
0.249999999999989
40
0.374999999999984
40
0.499999999999978
40
0.499999999999978
40
0.562499999999977
40
0.562499999999977
40
0.593749999999978
40
0.593749999999978
40
0.624999999999979
40
0.749999999999986
40
0.874999999999993
40
1
40
1
40
1
40
1
41
1
10
39.6481724241221
20
25.9863604777064
30
0
41
1
10
39.4260935259666
20
25.8581431660749
30
0
41
1
10
39.2008142434451
20
25.7384162518033
30
0
41
1
10
38.7438433455937
20
25.5154179832745
30
0
41
1
10
38.2804596911342
20
25.3088771391069
30
0
41
1
10
37.5658138846185
20
25.0477812702352
30
0
41
1
10
37.0759234158324
20
24.906325680303
30
0
41
1
10
36.7032281692689
20
24.8127288430303
30
0
41
1
10
36.5781160565893
20
24.7836146721591
30
0
41
1
10
36.3890910039339
20
24.7431257185213
30
0
41
1
10
36.3257983713382
20
24.7301489542324
30
0
41
1
10
36.1991134989971
20
24.7053365144195
30
0
41
1
10
35.8821282575582
20
24.6461489823973
30
0
41
1
10
35.3091009286514
20
24.5650279749944
30
0
41
1
10
34.5398058403095
20
24.5105793225911
30
0
41
1
10
34.0233915156178
20
24.510292377391
30
0
41
1
10
33.7642779603947
20
24.5193408221252
30
0
0
SPLINE
5
FC
100
AcDbEntity
8
1
62
256
6
ByLayer
370
18
48
1
60
0
100
AcDbSpline
70
4
71
3
72
10
73
6
40
0
40
0
40
0
40
0
40
0.5
40
0.5
40
1
40
1
40
1
40
1
41
1
10
24.769553667017
20
24.8334435158161
30
0
41
1
10
24.6092919262606
20
24.6511316415889
30
0
41
1
10
24.4527130609302
20
24.4682431150792
30
0
41
1
10
24.1480159734337
20
24.1009363845009
30
0
41
1
10
23.9998933409521
20
23.9165194543425
30
0
41
1
10
23.8567256581192
20
23.731097081537
30
0
0
SPLINE
5
FD
100
AcDbEntity
8
1
62
256
6
ByLayer
370
18
48
1
60
0
100
AcDbSpline
70
4
71
3
72
14
73
10
40
0
40
0
40
0
40
0
40
0.25
40
0.25
40
0.5
40
0.5
40
0.75
40
0.75
40
1
40
1
40
1
40
1
41
1
10
23.8567256581192
20
23.731097081537
30
0
41
1
10
23.6391647474317
20
23.4493249700437
30
0
41
1
10
23.4143600799715
20
23.1814491242238
30
0
41
1
10
22.9534980903277
20
22.6690886902391
30
0
41
1
10
22.7174256036666
20
22.4246265632646
30
0
41
1
10
22.2364241673319
20
21.95619856875
30
0
41
1
10
21.9914869341392
20
21.7322440465084
30
0
41
1
10
21.4946988156759
20
21.302883806827
30
0
41
1
10
21.2428428039977
20
21.0974836751283
30
0
41
1
10
20.9883692337006
20
20.9007394870005
30
0
0
SPLINE
5
FE
100
AcDbEntity
8
1
62
256
6
ByLayer
370
18
48
1
60
0
100
AcDbSpline
70
4
71
3
72
28
73
24
40
0
40
0
40
0
40
0
40
0.0624999999999999
40
0.125
40
0.125
40
0.249999999999999
40
0.249999999999999
40
0.374999999999999
40
0.374999999999999
40
0.499999999999999
40
0.499999999999999
40
0.531249999999999
40
0.531249999999999
40
0.562499999999999
40
0.624999999999999
40
0.624999999999999
40
0.75
40
0.75
40
0.875
40
0.875
40
0.9375
40
0.9375
40
1
40
1
40
1
40
1
41
1
10
21.4169892870399
20
-12.4075964895818
30
0
41
1
10
21.4408989777564
20
-12.2653754234884
30
0
41
1
10
21.4939076719143
20
-11.9842286753114
30
0
41
1
10
21.5569758933335
20
-11.708762783848
30
0
41
1
10
21.6589897977904
20
-11.299261136518
30
0
41
1
10
21.7368573351311
20
-11.0311621482832
30
0
41
1
10
21.912269208059
20
-10.5025511598904
30
0
41
1
10
22.0098167469451
20
-10.2420505673262
30
0
41
1
10
22.2252927753248
20
-9.72718117165033
30
0
41
1
10
22.343218176654
20
-9.47282058472734
30
0
41
1
10
22.50425614612
20
-9.15806716744191
30
0
41
1
10
22.5371190283471
20
-9.09533559994634
30
0
41
1
10
22.6039534090089
20
-8.97069649654117
30
0
41
1
10
22.7059565238393
20
-8.7848007698986
30
0
41
1
10
22.8132265140379
20
-8.60203387554787
30
0
41
1
10
23.0348671912549
20
-8.24054497697713
30
0
41
1
10
23.1920762383215
20
-8.00493729604543
30
0
41
1
10
23.5262309680691
20
-7.54405029406092
30
0
41
1
10
23.7031691037842
20
-7.31877343270062
30
0
41
1
10
23.9845232307188
20
-6.98845556318852
30
0
41
1
10
24.0809718130538
20
-6.87961748456107
30
0
41
1
10
24.2794802697428
20
-6.66446845004381
30
0
41
1
10
24.3815393681487
20
-6.55815759381909
30
0
41
1
10
24.4865868801483
20
-6.45311008181949
30
0
0
SPLINE
5
FF
100
AcDbEntity
8
1
62
256
6
ByLayer
370
18
48
1
60
0
100
AcDbSpline
70
4
71
3
72
29
73
25
40
0
40
0
40
0
40
0
40
0.124999999999997
40
0.124999999999997
40
0.249999999999993
40
0.249999999999993
40
0.37499999999999
40
0.37499999999999
40
0.406249999999989
40
0.406249999999989
40
0.437499999999989
40
0.437499999999989
40
0.499999999999991
40
0.499999999999991
40
0.624999999999991
40
0.624999999999991
40
0.749999999999991
40
0.749999999999991
40
0.781249999999992
40
0.781249999999992
40
0.812499999999993
40
0.874999999999995
40
0.874999999999995
40
1
40
1
40
1
40
1
41
1
10
21.7898704641062
20
20.187186530074
30
0
41
1
10
21.8774377182816
20
20.2535028670551
30
0
41
1
10
21.968893008548
20
20.3186616376126
30
0
41
1
10
22.1598270574033
20
20.4459286135513
30
0
41
1
10
22.2593038596849
20
20.5080393406736
30
0
41
1
10
22.4668762733459
20
20.6282635355743
30
0
41
1
10
22.5749673722641
20
20.6863811901999
30
0
41
1
10
22.7161160346257
20
20.7557434886923
30
0
41
1
10
22.7446488104896
20
20.7694507488783
30
0
41
1
10
22.8023424655871
20
20.796510848706
30
0
41
1
10
22.8315336062633
20
20.809877138156
30
0
41
1
10
22.9198765345546
20
20.849312020622
30
0
41
1
10
22.9795724471869
20
20.8746195658717
30
0
41
1
10
23.1611486696211
20
20.9473539620807
30
0
41
1
10
23.2855080474489
20
20.991604453851
30
0
41
1
10
23.5415134695707
20
21.070085352816
30
0
41
1
10
23.6731561573535
20
21.1043202396911
30
0
41
1
10
23.8428922473725
20
21.1396213197544
30
0
41
1
10
23.8771572933193
20
21.1463153580943
30
0
41
1
10
23.945807528691
20
21.1588418369755
30
0
41
1
10
24.049037807165
20
21.1763592816549
30
0
41
1
10
24.1530384438594
20
21.19000288407
30
0
41
1
10
24.3620867940227
20
21.211966285734
30
0
41
1
10
24.502846532435
20
21.2195123622976
30
0
41
1
10
24.6450758656153
20
21.2195123622976
30
0
0
SPLINE
5
100
100
AcDbEntity
8
1
62
256
6
ByLayer
370
18
48
1
60
0
100
AcDbSpline
70
4
71
3
72
18
73
14
40
0
40
0
40
0
40
0
40
0.25
40
0.25
40
0.312500000000002
40
0.312500000000002
40
0.375000000000003
40
0.375000000000003
40
0.500000000000004
40
0.500000000000004
40
0.750000000000002
40
0.750000000000002
40
1
40
1
40
1
40
1
41
1
10
20.8601551163653
20
18.9743959285843
30
0
41
1
10
20.9048690910969
20
19.0881808889239
30
0
41
1
10
20.9571149800344
20
19.1995620927228
30
0
41
1
10
21.0329470513015
20
19.3357252241669
30
0
41
1
10
21.0486414218048
20
19.3628044855606
30
0
41
1
10
21.0811213891531
20
19.4166539558649
30
0
41
1
10
21.0979200260805
20
19.4434416196889
30
0
41
1
10
21.1497361724556
20
19.5229302893729
30
0
41
1
10
21.186246641502
20
19.5748857626785
30
0
41
1
10
21.3018498836048
20
19.7276591847739
30
0
41
1
10
21.3869937603031
20
19.8253908187266
30
0
41
1
10
21.5747833798385
20
20.0125713649482
30
0
41
1
10
21.6774172237159
20
20.1020235652811
30
0
41
1
10
21.7898704641062
20
20.187186530074
30
0
0
SPLINE
5
101
100
AcDbEntity
8
1
62
256
6
ByLayer
370
18
48
1
60
0
100
AcDbSpline
70
4
71
3
72
30
73
26
40
0
40
0
40
0
40
0
40
0.0078124999999994
40
0.0078124999999994
40
0.0156249999999988
40
0.0156249999999988
40
0.031249999999999
40
0.031249999999999
40
0.0624999999999995
40
0.0624999999999995
40
0.0937499999999999
40
0.0937499999999999
40
0.125
40
0.125
40
0.187500000000001
40
0.187500000000001
40
0.250000000000001
40
0.250000000000001
40
0.375000000000001
40
0.375000000000001
40
0.500000000000001
40
0.500000000000001
40
0.75
40
0.75
40
1
40
1
40
1
40
1
41
1
10
20.2792076144254
20
24.9902498552567
30
0
41
1
10
20.2843806186366
20
24.9900692099691
30
0
41
1
10
20.2889156646356
20
24.9899108426731
30
0
41
1
10
20.2973640003357
20
24.9896158202896
30
0
41
1
10
20.3012602708567
20
24.9894797595248
30
0
41
1
10
20.3123491733078
20
24.9890925265184
30
0
41
1
10
20.3189543284977
20
24.9888618694165
30
0
41
1
10
20.33761094608
20
24.9882103659745
30
0
41
1
10
20.3485078343312
20
24.9878298382517
30
0
41
1
10
20.3690981082407
20
24.9871108100427
30
0
41
1
10
20.3787286245169
20
24.9867745050038
30
0
41
1
10
20.3972721302961
20
24.9861269515129
30
0
41
1
10
20.406176456341
20
24.9858160055956
30
0
41
1
10
20.4321567893169
20
24.9849087523764
30
0
41
1
10
20.4485296172584
20
24.9843370006259
30
0
41
1
10
20.4803480594325
20
24.9832258761412
30
0
41
1
10
20.4957706514863
20
24.9826873073591
30
0
41
1
10
20.5411522559669
20
24.9811025468099
30
0
41
1
10
20.5702460233605
20
24.9800865700651
30
0
41
1
10
20.6272046960444
20
24.9780975293857
30
0
41
1
10
20.6550373476226
20
24.9771255917756
30
0
41
1
10
20.7370921856798
20
24.9742601736901
30
0
41
1
10
20.7898857570222
20
24.9724165815547
30
0
41
1
10
20.8919542587082
20
24.9688522709349
30
0
41
1
10
20.9411971228987
20
24.9671326722254
30
0
41
1
10
20.9883692336749
20
24.9654853858185
30
0
0
SPLINE
5
102
100
AcDbEntity
8
1
62
256
6
ByLayer
370
18
48
1
60
0
100
AcDbSpline
70
4
71
3
72
14
73
10
40
0
40
0
40
0
40
0
40
0.25
40
0.25
40
0.5
40
0.5
40
0.75
40
0.75
40
1
40
1
40
1
40
1
41
1
10
20.6602970732474
20
17.9864027155687
30
0
41
1
10
20.6674130148569
20
18.068645932345
30
0
41
1
10
20.6770058377802
20
18.1506505078955
30
0
41
1
10
20.7010481533861
20
18.3144871458484
30
0
41
1
10
20.7154992700756
20
18.3963190370048
30
0
41
1
10
20.7491011882234
20
18.5602676985328
30
0
41
1
10
20.7682536841694
20
18.6423842333688
30
0
41
1
10
20.8109887503492
20
18.8075185551215
30
0
41
1
10
20.8345731677724
20
18.8905359999997
30
0
41
1
10
20.8601551163642
20
18.9743959285874
30
0
0
SPLINE
5
103
100
AcDbEntity
8
1
62
256
6
ByLayer
370
18
48
1
60
0
100
AcDbSpline
70
4
71
3
72
12
73
8
40
0
40
0
40
0
40
0
40
0.499999999999997
40
0.499999999999997
40
0.749999999999998
40
0.749999999999998
40
1
40
1
40
1
40
1
41
1
10
20.9883692336687
20
20.9007394870029
30
0
41
1
10
20.9514880081869
20
20.7756624953077
30
0
41
1
10
20.9191132378778
20
20.65384272916
30
0
41
1
10
20.8847395941297
20
20.475560436128
30
0
41
1
10
20.8756647792527
20
20.4168747693043
30
0
41
1
10
20.8633666169795
20
20.300946769535
30
0
41
1
10
20.8601551163546
20
20.2437037873521
30
0
41
1
10
20.8601551163546
20
20.1871865300736
30
0
0
SPLINE
5
104
100
AcDbEntity
8
1
62
256
6
ByLayer
370
18
48
1
60
0
100
AcDbSpline
70
4
71
3
72
12
73
8
40
0
40
0
40
0
40
0
40
0.5
40
0.5
40
0.75
40
0.75
40
1
40
1
40
1
40
1
41
1
10
20.2792076144253
20
-19.1754181389564
30
0
41
1
10
20.3302864591336
20
-18.8715878704938
30
0
41
1
10
20.3826270356132
20
-18.560252492921
30
0
41
1
10
20.4629156293269
20
-18.0826750316098
30
0
41
1
10
20.4899745752269
20
-17.9217213756674
30
0
41
1
10
20.5446615655159
20
-17.5964289177865
30
0
41
1
10
20.5722907503201
20
-17.4320833323607
30
0
41
1
10
20.6001637018741
20
-17.266287758834
30
0
0
SPLINE
5
105
100
AcDbEntity
8
1
62
256
6
ByLayer
370
18
48
1
60
0
100
AcDbSpline
70
4
71
3
72
26
73
22
40
0
40
0
40
0
40
0
40
0.0624999999999872
40
0.0624999999999872
40
0.0937499999999846
40
0.0937499999999846
40
0.124999999999982
40
0.124999999999982
40
0.249999999999982
40
0.249999999999982
40
0.374999999999982
40
0.374999999999982
40
0.437499999999985
40
0.437499999999985
40
0.499999999999987
40
0.499999999999987
40
0.624999999999991
40
0.624999999999991
40
0.749999999999992
40
0.749999999999992
40
1
40
1
40
1
40
1
41
1
10
11.4613248654052
20
23.8391299750502
30
0
41
1
10
11.4772013120199
20
23.8391299750502
30
0
41
1
10
11.4927843117432
20
23.8386381480423
30
0
41
1
10
11.5157579869923
20
23.8372273769848
30
0
41
1
10
11.5233488813096
20
23.8366445991221
30
0
41
1
10
11.5384012334117
20
23.8352611656444
30
0
41
1
10
11.5458956692735
20
23.8344558067494
30
0
41
1
10
11.582404000511
20
23.8299833264009
30
0
41
1
10
11.6089650834003
20
23.8249896713849
30
0
41
1
10
11.6582924559948
20
23.813005969379
30
0
41
1
10
11.6801688454703
20
23.8062336877525
30
0
41
1
10
11.7102266942346
20
23.7952700628808
30
0
41
1
10
11.719773612984
20
23.7914778883489
30
0
41
1
10
11.7380555263963
20
23.7836514357395
30
0
41
1
10
11.7468017366172
20
23.7796095569563
30
0
41
1
10
11.7716769242357
20
23.7673085978343
30
0
41
1
10
11.7865761040498
20
23.7588292909636
30
0
41
1
10
11.8138519277098
20
23.7414211400326
30
0
41
1
10
11.8262196262291
20
23.7324910902464
30
0
41
1
10
11.8602443227467
20
23.7051129235882
30
0
41
1
10
11.8788862370737
20
23.686033116806
30
0
41
1
10
11.8943375672975
20
23.6665017920808
30
0
0
SPLINE
5
106
100
AcDbEntity
8
1
62
256
6
ByLayer
370
18
48
1
60
0
100
AcDbSpline
70
4
71
3
72
30
73
26
40
0
40
0
40
0
40
0
40
0.249999999999991
40
0.249999999999991
40
0.37499999999999
40
0.37499999999999
40
0.43749999999999
40
0.43749999999999
40
0.49999999999999
40
0.49999999999999
40
0.624999999999989
40
0.624999999999989
40
0.687499999999988
40
0.687499999999988
40
0.749999999999987
40
0.749999999999987
40
0.812499999999986
40
0.812499999999986
40
0.843749999999988
40
0.843749999999988
40
0.87499999999999
40
0.87499999999999
40
0.937499999999995
40
0.937499999999995
40
1
40
1
40
1
40
1
41
1
10
11.8943375672973
20
8.05584836782791
30
0
41
1
10
11.8788923030149
20
7.9984916943493
30
0
41
1
10
11.8604037172645
20
7.94218253951274
30
0
41
1
10
11.8264575712212
20
7.85991012495435
30
0
41
1
10
11.8140962699691
20
7.8328550605851
30
0
41
1
10
11.7935837333005
20
7.79297622996174
30
0
41
1
10
11.7864159259844
20
7.77980127287398
30
0
41
1
10
11.7713191828915
20
7.75372482186646
30
0
41
1
10
11.7633824368151
20
7.74081492713995
30
0
41
1
10
11.7384769785308
20
7.70292805784945
30
0
41
1
10
11.7203772593316
20
7.67866353751199
30
0
41
1
10
11.6901125047558
20
7.64434849039861
30
0
41
1
10
11.6794995583259
20
7.63327217102551
30
0
41
1
10
11.6573691354905
20
7.61232137865167
30
0
41
1
10
11.6458165560481
20
7.60240297286813
30
0
41
1
10
11.6215461384038
20
7.58390025536215
30
0
41
1
10
11.6088302857938
20
7.57531366225038
30
0
41
1
10
11.5886665813883
20
7.56368345606458
30
0
41
1
10
11.5817366894217
20
7.56000567013078
30
0
41
1
10
11.5676991017995
20
7.55323657194805
30
0
41
1
10
11.5605721090663
20
7.55013193108826
30
0
41
1
10
11.53884494046
20
7.54171396614046
30
0
41
1
10
11.5239007732521
20
7.53729092133952
30
0
41
1
10
11.4929356027573
20
7.53123335639165
30
0
41
1
10
11.477175816822
20
7.52966679426495
30
0
41
1
10
11.4613248654053
20
7.52966679426495
30
0
0
SPLINE
5
107
100
AcDbEntity
8
1
62
256
6
ByLayer
370
18
48
1
60
0
100
AcDbSpline
70
4
71
3
72
26
73
22
40
0
40
0
40
0
40
0
40
0.0625000000000004
40
0.0625000000000004
40
0.0937500000000001
40
0.0937500000000001
40
0.125
40
0.125
40
0.250000000000002
40
0.250000000000002
40
0.375000000000004
40
0.375000000000004
40
0.437500000000005
40
0.437500000000005
40
0.500000000000005
40
0.500000000000005
40
0.625000000000005
40
0.625000000000005
40
0.750000000000004
40
0.750000000000004
40
1
40
1
40
1
40
1
41
1
10
8.53867513459487
20
7.52966679426521
30
0
41
1
10
8.52279868798016
20
7.52966679426521
30
0
41
1
10
8.50721568825682
20
7.53122440152964
30
0
41
1
10
8.48424201300779
20
7.53568798536671
30
0
41
1
10
8.47665111869043
20
7.53753139400649
30
0
41
1
10
8.46159876658839
20
7.54190496002269
30
0
41
1
10
8.45410433072652
20
7.54444995843585
30
0
41
1
10
8.417595999489
20
7.55857361750122
30
0
41
1
10
8.39103491659975
20
7.57431556968126
30
0
41
1
10
8.34170754400522
20
7.61190750686276
30
0
41
1
10
8.31983115452977
20
7.63307325241217
30
0
41
1
10
8.28977330576541
20
7.66715495165658
30
0
41
1
10
8.28022638701601
20
7.67891539799638
30
0
41
1
10
8.26194447360366
20
7.70312184666889
30
0
41
1
10
8.25319826338284
20
7.71559105034081
30
0
41
1
10
8.22832307576429
20
7.75343444963914
30
0
41
1
10
8.21342389595023
20
7.77938351245621
30
0
41
1
10
8.18614807229017
20
7.83234954293013
30
0
41
1
10
8.17378037377094
20
7.85937042586596
30
0
41
1
10
8.13975567725335
20
7.94172327888202
30
0
41
1
10
8.12111376292627
20
7.99846916820718
30
0
41
1
10
8.10566243270252
20
8.05584836782782
30
0
0
SPLINE
5
108
100
AcDbEntity
8
1
62
256
6
ByLayer
370
18
48
1
60
0
100
AcDbSpline
70
4
71
3
72
30
73
26
40
0
40
0
40
0
40
0
40
0.250000000000006
40
0.250000000000006
40
0.375000000000007
40
0.375000000000007
40
0.437500000000008
40
0.437500000000008
40
0.500000000000008
40
0.500000000000008
40
0.625000000000002
40
0.625000000000002
40
0.687499999999997
40
0.687499999999997
40
0.749999999999992
40
0.749999999999992
40
0.812499999999988
40
0.812499999999988
40
0.843749999999988
40
0.843749999999988
40
0.874999999999988
40
0.874999999999988
40
0.937499999999994
40
0.937499999999994
40
1
40
1
40
1
40
1
41
1
10
8.10566243270267
20
23.6665017920808
30
0
41
1
10
8.12110769698508
20
23.6860254491251
30
0
41
1
10
8.1395962827355
20
23.7049589195931
30
0
41
1
10
8.17354242877877
20
23.7323123198157
30
0
41
1
10
8.18590373003096
20
23.7412544902041
30
0
41
1
10
8.20641626669956
20
23.7543620682907
30
0
41
1
10
8.21358407401563
20
23.7586801045418
30
0
41
1
10
8.22868081710851
20
23.7672030231185
30
0
41
1
10
8.23661756318495
20
23.7714105724815
30
0
41
1
10
8.2615230214692
20
23.7837256270429
30
0
41
1
10
8.2796227406684
20
23.7915679133937
30
0
41
1
10
8.30988749524428
20
23.8026065911347
30
0
41
1
10
8.32050044167418
20
23.8061604830514
30
0
41
1
10
8.34263086450954
20
23.812868038308
30
0
41
1
10
8.35418344395192
20
23.816035844018
30
0
41
1
10
8.3784538615962
20
23.8219342456095
30
0
41
1
10
8.39116971420628
20
23.8246655611124
30
0
41
1
10
8.41133341861176
20
23.8283593459882
30
0
41
1
10
8.41826331057831
20
23.8295263669799
30
0
41
1
10
8.43230089820059
20
23.8316728303992
30
0
41
1
10
8.43942789093371
20
23.8326565134122
30
0
41
1
10
8.46115505954
20
23.8353222152631
30
0
41
1
10
8.47609922674792
20
23.8367207404254
30
0
41
1
10
8.50706439724273
20
23.838635326325
30
0
41
1
10
8.52282418317803
20
23.8391299750504
30
0
41
1
10
8.5386751345948
20
23.8391299750504
30
0
0
SPLINE
5
109
100
AcDbEntity
8
1
62
256
6
ByLayer
370
18
48
1
60
0
100
AcDbSpline
70
4
71
3
72
26
73
22
40
0
40
0
40
0
40
0
40
0.0624999999999939
40
0.0624999999999939
40
0.0937499999999935
40
0.0937499999999935
40
0.124999999999993
40
0.124999999999993
40
0.249999999999997
40
0.249999999999997
40
0.375000000000001
40
0.375000000000001
40
0.437500000000001
40
0.437500000000001
40
0.500000000000002
40
0.500000000000002
40
0.625
40
0.625
40
0.750000000000001
40
0.750000000000001
40
1
40
1
40
1
40
1
41
1
10
8.53867513459487
20
-23.8391299750503
30
0
41
1
10
8.52279868798016
20
-23.8391299750503
30
0
41
1
10
8.50721568825681
20
-23.8386381480423
30
0
41
1
10
8.48424201300776
20
-23.8372273769848
30
0
41
1
10
8.47665111869041
20
-23.8366445991221
30
0
41
1
10
8.46159876658838
20
-23.8352611656444
30
0
41
1
10
8.45410433072651
20
-23.8344558067494
30
0
41
1
10
8.41759599948898
20
-23.8299833264009
30
0
41
1
10
8.39103491659974
20
-23.8249896713849
30
0
41
1
10
8.3417075440052
20
-23.813005969379
30
0
41
1
10
8.31983115452977
20
-23.8062336877526
30
0
41
1
10
8.28977330576541
20
-23.7952700628808
30
0
41
1
10
8.28022638701601
20
-23.7914778883489
30
0
41
1
10
8.26194447360366
20
-23.7836514357395
30
0
41
1
10
8.25319826338283
20
-23.7796095569563
30
0
41
1
10
8.22832307576429
20
-23.7673085978343
30
0
41
1
10
8.21342389595023
20
-23.7588292909636
30
0
41
1
10
8.18614807229017
20
-23.7414211400326
30
0
41
1
10
8.17378037377095
20
-23.7324910902464
30
0
41
1
10
8.13975567725335
20
-23.7051129235882
30
0
41
1
10
8.12111376292626
20
-23.6860331168061
30
0
41
1
10
8.10566243270252
20
-23.6665017920808
30
0
0
SPLINE
5
10A
100
AcDbEntity
8
1
62
256
6
ByLayer
370
18
48
1
60
0
100
AcDbSpline
70
4
71
3
72
30
73
26
40
0
40
0
40
0
40
0
40
0.25
40
0.25
40
0.375000000000002
40
0.375000000000002
40
0.437500000000001
40
0.437500000000001
40
0.500000000000001
40
0.500000000000001
40
0.624999999999997
40
0.624999999999997
40
0.687499999999998
40
0.687499999999998
40
0.749999999999999
40
0.749999999999999
40
0.8125
40
0.8125
40
0.843749999999997
40
0.843749999999997
40
0.874999999999994
40
0.874999999999994
40
0.937499999999997
40
0.937499999999997
40
1
40
1
40
1
40
1
41
1
10
8.10566243270267
20
-8.05584836782788
30
0
41
1
10
8.12110769698508
20
-7.99849169434927
30
0
41
1
10
8.1395962827355
20
-7.94218253951269
30
0
41
1
10
8.17354242877879
20
-7.8599101249543
30
0
41
1
10
8.18590373003096
20
-7.83285506058505
30
0
41
1
10
8.20641626669956
20
-7.79297622996165
30
0
41
1
10
8.21358407401564
20
-7.77980127287393
30
0
41
1
10
8.22868081710853
20
-7.7537248218664
30
0
41
1
10
8.23661756318495
20
-7.74081492713989
30
0
41
1
10
8.2615230214692
20
-7.70292805784939
30
0
41
1
10
8.2796227406684
20
-7.67866353751194
30
0
41
1
10
8.30988749524428
20
-7.64434849039853
30
0
41
1
10
8.32050044167418
20
-7.63327217102542
30
0
41
1
10
8.34263086450954
20
-7.61232137865161
30
0
41
1
10
8.35418344395194
20
-7.60240297286808
30
0
41
1
10
8.3784538615962
20
-7.58390025536207
30
0
41
1
10
8.39116971420628
20
-7.5753136622503
30
0
41
1
10
8.41133341861178
20
-7.5636834560645
30
0
41
1
10
8.4182633105783
20
-7.56000567013072
30
0
41
1
10
8.43230089820058
20
-7.55323657194796
30
0
41
1
10
8.4394278909337
20
-7.5501319310882
30
0
41
1
10
8.46115505954
20
-7.54171396614041
30
0
41
1
10
8.47609922674791
20
-7.53729092133946
30
0
41
1
10
8.50706439724273
20
-7.5312333563916
30
0
41
1
10
8.52282418317803
20
-7.5296667942649
30
0
41
1
10
8.53867513459481
20
-7.5296667942649
30
0
0
SPLINE
5
10B
100
AcDbEntity
8
1
62
256
6
ByLayer
370
18
48
1
60
0
100
AcDbSpline
70
4
71
3
72
26
73
22
40
0
40
0
40
0
40
0
40
0.0624999999999973
40
0.0624999999999973
40
0.0937499999999959
40
0.0937499999999959
40
0.124999999999995
40
0.124999999999995
40
0.249999999999991
40
0.249999999999991
40
0.374999999999987
40
0.374999999999987
40
0.437499999999985
40
0.437499999999985
40
0.499999999999983
40
0.499999999999983
40
0.624999999999986
40
0.624999999999986
40
0.749999999999989
40
0.749999999999989
40
1
40
1
40
1
40
1
41
1
10
11.4613248654052
20
-7.52966679426524
30
0
41
1
10
11.4772013120199
20
-7.52966679426524
30
0
41
1
10
11.4927843117432
20
-7.53122440152967
30
0
41
1
10
11.5157579869923
20
-7.53568798536674
30
0
41
1
10
11.5233488813096
20
-7.53753139400652
30
0
41
1
10
11.5384012334116
20
-7.54190496002272
30
0
41
1
10
11.5458956692735
20
-7.54444995843588
30
0
41
1
10
11.582404000511
20
-7.55857361750125
30
0
41
1
10
11.6089650834003
20
-7.57431556968129
30
0
41
1
10
11.6582924559948
20
-7.61190750686279
30
0
41
1
10
11.6801688454703
20
-7.6330732524122
30
0
41
1
10
11.7102266942346
20
-7.66715495165661
30
0
41
1
10
11.719773612984
20
-7.67891539799638
30
0
41
1
10
11.7380555263963
20
-7.70312184666892
30
0
41
1
10
11.7468017366172
20
-7.71559105034081
30
0
41
1
10
11.7716769242357
20
-7.75343444963914
30
0
41
1
10
11.7865761040498
20
-7.77938351245621
30
0
41
1
10
11.8138519277098
20
-7.83234954293013
30
0
41
1
10
11.8262196262291
20
-7.85937042586593
30
0
41
1
10
11.8602443227467
20
-7.94172327888199
30
0
41
1
10
11.8788862370737
20
-7.99846916820721
30
0
41
1
10
11.8943375672975
20
-8.05584836782785
30
0
0
SPLINE
5
10C
100
AcDbEntity
8
1
62
256
6
ByLayer
370
18
48
1
60
0
100
AcDbSpline
70
4
71
3
72
30
73
26
40
0
40
0
40
0
40
0
40
0.249999999999998
40
0.249999999999998
40
0.374999999999995
40
0.374999999999995
40
0.437499999999995
40
0.437499999999995
40
0.499999999999995
40
0.499999999999995
40
0.624999999999999
40
0.624999999999999
40
0.687500000000001
40
0.687500000000001
40
0.750000000000002
40
0.750000000000002
40
0.812500000000004
40
0.812500000000004
40
0.843750000000004
40
0.843750000000004
40
0.875000000000003
40
0.875000000000003
40
0.937500000000002
40
0.937500000000002
40
1
40
1
40
1
40
1
41
1
10
11.8943375672973
20
-23.6665017920808
30
0
41
1
10
11.8788923030149
20
-23.6860254491251
30
0
41
1
10
11.8604037172645
20
-23.704958919593
30
0
41
1
10
11.8264575712212
20
-23.7323123198157
30
0
41
1
10
11.8140962699691
20
-23.7412544902041
30
0
41
1
10
11.7935837333004
20
-23.7543620682907
30
0
41
1
10
11.7864159259844
20
-23.7586801045418
30
0
41
1
10
11.7713191828915
20
-23.7672030231185
30
0
41
1
10
11.763382436815
20
-23.7714105724815
30
0
41
1
10
11.7384769785308
20
-23.7837256270429
30
0
41
1
10
11.7203772593316
20
-23.7915679133937
30
0
41
1
10
11.6901125047557
20
-23.8026065911346
30
0
41
1
10
11.6794995583258
20
-23.8061604830514
30
0
41
1
10
11.6573691354905
20
-23.8128680383081
30
0
41
1
10
11.6458165560481
20
-23.816035844018
30
0
41
1
10
11.6215461384038
20
-23.8219342456095
30
0
41
1
10
11.6088302857937
20
-23.8246655611124
30
0
41
1
10
11.5886665813883
20
-23.8283593459882
30
0
41
1
10
11.5817366894217
20
-23.8295263669799
30
0
41
1
10
11.5676991017994
20
-23.8316728303992
30
0
41
1
10
11.5605721090663
20
-23.8326565134122
30
0
41
1
10
11.53884494046
20
-23.8353222152631
30
0
41
1
10
11.5239007732521
20
-23.8367207404254
30
0
41
1
10
11.4929356027573
20
-23.8386353263249
30
0
41
1
10
11.477175816822
20
-23.8391299750504
30
0
41
1
10
11.4613248654053
20
-23.8391299750504
30
0
0
SPLINE
5
10D
100
AcDbEntity
8
1
62
256
6
ByLayer
370
18
48
1
60
0
100
AcDbSpline
70
4
71
3
72
17
73
13
40
0
40
0
40
0
40
0
40
0.125000000000001
40
0.125000000000001
40
0.187500000000001
40
0.187500000000001
40
0.250000000000002
40
0.500000000000001
40
0.500000000000001
40
0.750000000000001
40
0.750000000000001
40
1
40
1
40
1
40
1
41
1
10
20.6001637018742
20
-17.266287758834
30
0
41
1
10
20.5846959034958
20
-17.0743152090372
30
0
41
1
10
20.5694631884508
20
-16.879830330644
30
0
41
1
10
20.5469712184488
20
-16.5842866685524
30
0
41
1
10
20.5395311513966
20
-16.4851052089838
30
0
41
1
10
20.5247820621927
20
-16.2856131074104
30
0
41
1
10
20.4882481792822
20
-15.7842135999244
30
0
41
1
10
20.4534082386552
20
-15.2694698587713
30
0
41
1
10
20.3998492434754
20
-14.4286679835298
30
0
41
1
10
20.3741620895121
20
-13.9996619778725
30
0
41
1
10
20.3250068568644
20
-13.1241689346867
30
0
41
1
10
20.3015386594244
20
-12.6776828326693
30
0
41
1
10
20.2792076144253
20
-12.2222386758026
30
0
0
SPLINE
5
10E
100
AcDbEntity
8
1
62
256
6
ByLayer
370
18
48
1
60
0
100
AcDbSpline
70
4
71
3
72
17
73
13
40
0
40
0
40
0
40
0
40
0.249999999999998
40
0.249999999999998
40
0.312499999999998
40
0.312499999999998
40
0.374999999999998
40
0.499999999999999
40
0.499999999999999
40
0.749999999999999
40
0.749999999999999
40
1
40
1
40
1
40
1
41
1
10
20.2792076144253
20
12.2222386758027
30
0
41
1
10
20.3051116381716
20
12.7505541332776
30
0
41
1
10
20.3326007433584
20
13.2679450763922
30
0
41
1
10
20.3689137086995
20
13.9012332754968
30
0
41
1
10
20.3762729847393
20
14.0271979497666
30
0
41
1
10
20.3911605286973
20
14.2773590865026
30
0
41
1
10
20.4137544880235
20
14.6501087012571
30
0
41
1
10
20.4371291895232
20
15.0154502482081
30
0
41
1
10
20.4849034674741
20
15.7364088217881
30
0
41
1
10
20.5181186892763
20
16.2040894038667
30
0
41
1
10
20.5872170130625
20
17.1141364016437
30
0
41
1
10
20.6231004817805
20
17.5564993375879
30
0
41
1
10
20.6602970732483
20
17.9864027155686
30
0
0
SPLINE
5
10F
100
AcDbEntity
8
SK1
62
256
6
ByLayer
370
18
48
1
60
0
100
AcDbSpline
70
4
71
3
72
10
73
6
40
0
40
0
40
0
40
0
40
0.47056950082619
40
0.47056950082619
40
1
40
1
40
1
40
1
41
1
10
-0.093328800480208
20
17.5703203681738
30
0
41
1
10
-0.108031771994334
20
17.5703101151951
30
0
41
1
10
-0.12352092168689
20
17.5701191973853
30
0
41
1
10
-0.158568969057839
20
17.569348165776
30
0
41
1
10
-0.178381903624299
20
17.5687221237676
30
0
41
1
10
-0.199999999996379
20
17.5678954941522
30
0
0
SPLINE
5
110
100
AcDbEntity
8
SK1
62
256
6
ByLayer
370
18
48
1
60
0
100
AcDbSpline
70
4
71
3
72
20
73
16
40
0
40
0
40
0
40
0
40
0.0411527557889126
40
0.113602951177292
40
0.186053146565672
40
0.258503341954051
40
0.40340373273081
40
0.54830412350757
40
0.620754318895949
40
0.693204514284329
40
0.765654709672708
40
0.838104905061088
40
0.910555100449467
40
0.983005295837847
40
1
40
1
40
1
40
1
41
1
10
-0.200000000000003
20
17.5678954941522
30
0
41
1
10
-0.200000000000003
20
17.5625116388382
30
0
41
1
10
-0.200000000000003
20
17.5230998409311
30
0
41
1
10
-0.200000000000003
20
17.3563637126861
30
0
41
1
10
-0.200000000000003
20
17.025651689934
30
0
41
1
10
-0.200000000000003
20
16.4197046477864
30
0
41
1
10
-0.200000000000003
20
15.3750949753852
30
0
41
1
10
-0.200000000000003
20
13.9904902630881
30
0
41
1
10
-0.200000000000003
20
12.6940608651256
30
0
41
1
10
-0.200000000000003
20
11.6298862423998
30
0
41
1
10
-0.200000000000003
20
10.4757654026211
30
0
41
1
10
-0.200000000000003
20
9.23334543659817
30
0
41
1
10
-0.200000000000003
20
7.90375553528958
30
0
41
1
10
-0.200000000000003
20
6.8489235404615
30
0
41
1
10
-0.200000000000003
20
6.24422115048748
30
0
41
1
10
-0.200000000000003
20
6.1285406827007
30
0
0
SPLINE
5
111
100
AcDbEntity
8
SK1
62
256
6
ByLayer
370
18
48
1
60
0
100
AcDbSpline
70
4
71
3
72
20
73
16
40
0
40
0
40
0
40
0
40
0.0169947585570131
40
0.0894449528884563
40
0.1618951472199
40
0.234345341551343
40
0.306795535882786
40
0.379245730214229
40
0.451695924545672
40
0.596596313208558
40
0.741496701871445
40
0.813946896202888
40
0.886397090534331
40
0.958847284865774
40
1
40
1
40
1
40
1
41
1
10
-0.200000000000003
20
-6.12853949501149
30
0
41
1
10
-0.200000000000003
20
-6.24422036059775
30
0
41
1
10
-0.200000000000003
20
-6.84892323096858
30
0
41
1
10
-0.200000000000003
20
-7.90375539592017
30
0
41
1
10
-0.200000000000003
20
-9.23334514476059
30
0
41
1
10
-0.200000000000003
20
-10.4757656452374
30
0
41
1
10
-0.200000000000003
20
-11.6298860926995
30
0
41
1
10
-0.200000000000003
20
-12.6940606980929
30
0
41
1
10
-0.200000000000003
20
-13.9904906407439
30
0
41
1
10
-0.200000000000003
20
-15.3750945461546
30
0
41
1
10
-0.200000000000003
20
-16.4197054187038
30
0
41
1
10
-0.200000000000003
20
-17.0256515618456
30
0
41
1
10
-0.200000000000003
20
-17.3563640277397
30
0
41
1
10
-0.200000000000003
20
-17.5231003722359
30
0
41
1
10
-0.200000000000003
20
-17.5625118656996
30
0
41
1
10
-0.200000000000003
20
-17.5678956551956
30
0
0
SPLINE
5
112
100
AcDbEntity
8
SK1
62
256
6
ByLayer
370
18
48
1
60
0
100
AcDbSpline
70
4
71
3
72
10
73
6
40
0
40
0
40
0
40
0
40
0.529452927162312
40
0.529452927162312
40
1
40
1
40
1
40
1
41
1
10
-0.199999999999918
20
-17.5678956551954
30
0
41
1
10
-0.178381913678365
20
-17.5687222761517
30
0
41
1
10
-0.158568986225021
20
-17.5693483098926
30
0
41
1
10
-0.123522432261424
20
-17.5701192948559
30
0
41
1
10
-0.108034588722873
20
-17.5703102050539
30
0
41
1
10
-0.0933327995252711
20
-17.5703204847459
30
0
0
SPLINE
5
113
100
AcDbEntity
8
SK1
62
256
6
ByLayer
370
18
48
1
60
0
100
AcDbSpline
70
4
71
3
72
45
73
41
40
0
40
0
40
0
40
0
40
0.0236943063632183
40
0.051712310063096
40
0.0797303137629737
40
0.107748317462851
40
0.163784324862607
40
0.219820332262362
40
0.24783833596224
40
0.275856339662118
40
0.303874343361995
40
0.331892347061873
40
0.359910350761751
40
0.387928354461628
40
0.415946358161506
40
0.429955360011445
40
0.443964361861384
40
0.471982365561262
40
0.485991367411201
40
0.49299586833617
40
0.500000369261139
40
0.507004870186109
40
0.514009371111078
40
0.528018372961017
40
0.556036376660895
40
0.570045378510834
40
0.584054380360772
40
0.61207238406065
40
0.640090387760528
40
0.668108391460406
40
0.696126395160283
40
0.724144398860161
40
0.752162402560039
40
0.780180406259917
40
0.836216413659672
40
0.892252421059427
40
0.920270424759305
40
0.948288428459183
40
0.976306432159061
40
1
40
1
40
1
40
1
41
1
10
-30
20
-15.9931892301069
30
0
41
1
10
-30
20
-15.9976541735171
30
0
41
1
10
-30
20
-15.9670776498578
30
0
41
1
10
-30
20
-15.7965331178349
30
0
41
1
10
-30
20
-15.4890632796305
30
0
41
1
10
-30
20
-14.9202435431778
30
0
41
1
10
-30
20
-13.9430327235571
30
0
41
1
10
-30
20
-12.6450678356931
30
0
41
1
10
-30
20
-11.42137036219
30
0
41
1
10
-30
20
-10.4224345134304
30
0
41
1
10
-30
20
-9.34179268341308
30
0
41
1
10
-30
20
-8.18272261240929
30
0
41
1
10
-30
20
-6.94914665451276
30
0
41
1
10
-30
20
-5.64597210397025
30
0
41
1
10
-30
20
-4.51272453462846
30
0
41
1
10
-30
20
-3.56968201835696
30
0
41
1
10
-30
20
-2.61530592334967
30
0
41
1
10
-30
20
-1.67591474804155
30
0
41
1
10
-30
20
-0.833341855678952
30
0
41
1
10
-30
20
-0.354131622770439
30
0
41
1
10
-30
20
4.002277763E-07
30
0
41
1
10
-30
20
0.354131996183753
30
0
41
1
10
-30
20
0.8333415404785
30
0
41
1
10
-30
20
1.675914880346
30
0
41
1
10
-30
20
2.61530613672116
30
0
41
1
10
-30
20
3.56968220154852
30
0
41
1
10
-30
20
4.51272494557483
30
0
41
1
10
-30
20
5.64597176408017
30
0
41
1
10
-30
20
6.94914704263559
30
0
41
1
10
-30
20
8.18272269843541
30
0
41
1
10
-30
20
9.34179238961872
30
0
41
1
10
-30
20
10.4224348167646
30
0
41
1
10
-30
20
11.4213703912989
30
0
41
1
10
-30
20
12.6450674903883
30
0
41
1
10
-30
20
13.9430330734595
30
0
41
1
10
-30
20
14.9202427964398
30
0
41
1
10
-30
20
15.4890634139888
30
0
41
1
10
-30
20
15.7965327535813
30
0
41
1
10
-30
20
15.9670755113611
30
0
41
1
10
-30
20
15.9976531634545
30
0
41
1
10
-30
20
15.9931895365378
30
0
0
SPLINE
5
114
100
AcDbEntity
8
SK1
62
256
6
ByLayer
370
18
48
1
60
0
100
AcDbSpline
70
4
71
3
72
12
73
8
40
0
40
0
40
0
40
0
40
0.499999999999996
40
0.499999999999996
40
0.749999999999998
40
0.749999999999998
40
1
40
1
40
1
40
1
41
1
10
0
20
-5.59084178336477
30
0
41
1
10
-0.0263362950988153
20
-5.68335691914496
30
0
41
1
10
-0.0551840705731479
20
-5.77467039414981
30
0
41
1
10
-0.10415974135006
20
-5.90935695741206
30
0
41
1
10
-0.121446903970195
20
-5.95386884947433
30
0
41
1
10
-0.158562787081124
20
-6.04196596135267
30
0
41
1
10
-0.178378836827477
20
-6.08555460198207
30
0
41
1
10
-0.199999999996336
20
-6.12853949501229
30
0
0
SPLINE
5
115
100
AcDbEntity
8
SK1
62
256
6
ByLayer
370
18
48
1
60
0
100
AcDbSpline
70
4
71
3
72
12
73
8
40
0
40
0
40
0
40
0
40
0.250000000000002
40
0.250000000000002
40
0.500000000000004
40
0.500000000000004
40
1
40
1
40
1
40
1
41
1
10
-0.199999999999889
20
6.12854068270059
30
0
41
1
10
-0.178378837996775
20
6.08555587692092
30
0
41
1
10
-0.158562787286968
20
6.04196732403111
30
0
41
1
10
-0.121446901530916
20
5.95387038752926
30
0
41
1
10
-0.104159737182172
20
5.90935858311065
30
0
41
1
10
-0.0551840630304099
20
5.77467228126403
30
0
41
1
10
-0.0263362878808096
20
5.683358978505
30
0
41
1
10
1.705E-13
20
5.59084400956894
30
0
0
SPLINE
5
116
100
AcDbEntity
8
SK1
62
256
6
ByLayer
370
18
48
1
60
0
100
AcDbSpline
70
4
71
3
72
38
73
34
40
0
40
0
40
0
40
0
40
0.0156249999999999
40
0.0156249999999999
40
0.0312499999999998
40
0.0312499999999998
40
0.0468749999999997
40
0.0468749999999997
40
0.0624999999999996
40
0.0624999999999996
40
0.0781249999999996
40
0.0781249999999996
40
0.0937499999999995
40
0.0937499999999995
40
0.124999999999999
40
0.124999999999999
40
0.156249999999999
40
0.156249999999999
40
0.187499999999998
40
0.187499999999998
40
0.249999999999998
40
0.249999999999998
40
0.312499999999997
40
0.312499999999997
40
0.374999999999996
40
0.374999999999996
40
0.499999999999997
40
0.499999999999997
40
0.624999999999999
40
0.624999999999999
40
0.75
40
0.75
40
1
40
1
40
1
40
1
41
1
10
-0.394913799809103
20
5.38724490303883
30
0
41
1
10
-0.391781832950699
20
5.38458208568073
30
0
41
1
10
-0.388519962703811
20
5.3821033059937
30
0
41
1
10
-0.381650196472521
20
5.37763658736256
30
0
41
1
10
-0.378006935713088
20
5.37563233451903
30
0
41
1
10
-0.370423579197208
20
5.3724029821978
30
0
41
1
10
-0.366503702076486
20
5.37117873901857
30
0
41
1
10
-0.358331183030145
20
5.36974313779839
30
0
41
1
10
-0.354015865513233
20
5.36955368909108
30
0
41
1
10
-0.345568573158829
20
5.37043109064084
30
0
41
1
10
-0.34132166710306
20
5.37150405183561
30
0
41
1
10
-0.333263890221985
20
5.37470929745371
30
0
41
1
10
-0.329419339218276
20
5.37683593115608
30
0
41
1
10
-0.318577749103383
20
5.38430052549944
30
0
41
1
10
-0.312400979321595
20
5.39054104494747
30
0
41
1
10
-0.301354650858173
20
5.40411801099182
30
0
41
1
10
-0.296591327986221
20
5.41134235290909
30
0
41
1
10
-0.287922394076247
20
5.42628126698924
30
0
41
1
10
-0.284017391060857
20
5.43403466061335
30
0
41
1
10
-0.273296210573406
20
5.45757128507668
30
0
41
1
10
-0.267463037667582
20
5.47353830586391
30
0
41
1
10
-0.257144178245895
20
5.50574351678878
30
0
41
1
10
-0.252692130238955
20
5.52198910291136
30
0
41
1
10
-0.244699800125972
20
5.55465646091179
30
0
41
1
10
-0.241167183894731
20
5.57107991706766
30
0
41
1
10
-0.231573562776532
20
5.62053570750757
30
0
41
1
10
-0.226533735280711
20
5.65356559342109
30
0
41
1
10
-0.218124597314088
20
5.71937115218191
30
0
41
1
10
-0.214765406463002
20
5.75220767186593
30
0
41
1
10
-0.209230735864523
20
5.81775962891587
30
0
41
1
10
-0.207061534202339
20
5.8504749919654
30
0
41
1
10
-0.201932717755426
20
5.94845143863392
30
0
41
1
10
-0.200330038101583
20
6.01354333629561
30
0
41
1
10
-0.200000000000003
20
6.07843244581156
30
0
0
SPLINE
5
117
100
AcDbEntity
8
SK1
62
256
6
ByLayer
370
18
48
1
60
0
100
AcDbSpline
70
4
71
3
72
38
73
34
40
0
40
0
40
0
40
0
40
0.250000000000001
40
0.250000000000001
40
0.375000000000001
40
0.375000000000001
40
0.500000000000002
40
0.500000000000002
40
0.625000000000002
40
0.625000000000002
40
0.687500000000001
40
0.687500000000001
40
0.75
40
0.75
40
0.812499999999998
40
0.812499999999998
40
0.843749999999999
40
0.843749999999999
40
0.874999999999999
40
0.874999999999999
40
0.906249999999999
40
0.906249999999999
40
0.921874999999999
40
0.921874999999999
40
0.937499999999999
40
0.937499999999999
40
0.953125
40
0.953125
40
0.96875
40
0.96875
40
0.984375
40
0.984375
40
1
40
1
40
1
40
1
41
1
10
-0.200000000000003
20
-6.07843116862742
30
0
41
1
10
-0.20032985965473
20
-6.01357702681148
30
0
41
1
10
-0.201930655445096
20
-5.94848814748195
30
0
41
1
10
-0.207062820514736
20
-5.85044931358613
30
0
41
1
10
-0.209234214279533
20
-5.81770188154795
30
0
41
1
10
-0.214779228537807
20
-5.75205694597193
30
0
41
1
10
-0.218149341071353
20
-5.71913713924798
30
0
41
1
10
-0.226581907125805
20
-5.65322539656967
30
0
41
1
10
-0.231616433421522
20
-5.62029294902302
30
0
41
1
10
-0.241184891539973
20
-5.57099638970089
30
0
41
1
10
-0.244723140953269
20
-5.55455058376108
30
0
41
1
10
-0.252718404682369
20
-5.52188785992814
30
0
41
1
10
-0.257164394743953
20
-5.50568135296521
30
0
41
1
10
-0.267422418729069
20
-5.47365965349917
30
0
41
1
10
-0.273206407019217
20
-5.45783596374679
30
0
41
1
10
-0.283724888362031
20
-5.43464123738516
30
0
41
1
10
-0.287542348293499
20
-5.42700107315446
30
0
41
1
10
-0.296164698039107
20
-5.41201401791537
30
0
41
1
10
-0.301003751719023
20
-5.4046119981478
30
0
41
1
10
-0.312019326339566
20
-5.39094692539047
30
0
41
1
10
-0.318249907555995
20
-5.38460165612523
30
0
41
1
10
-0.328982330604291
20
-5.37709874944119
30
0
41
1
10
-0.33286595929242
20
-5.37490714744828
30
0
41
1
10
-0.340905624745247
20
-5.37162929612279
30
0
41
1
10
-0.345153788553731
20
-5.37051023807425
30
0
41
1
10
-0.353672033871177
20
-5.36955188220813
30
0
41
1
10
-0.35790438709958
20
-5.36969675293614
30
0
41
1
10
-0.366271728735939
20
-5.37110702101793
30
0
41
1
10
-0.37024125061383
20
-5.3723360299343
30
0
41
1
10
-0.37786803806371
20
-5.37555831609174
30
0
41
1
10
-0.381539373885104
20
-5.37756780385982
30
0
41
1
10
-0.388473887026251
20
-5.38206549938215
30
0
41
1
10
-0.391760928947505
20
-5.3845619683195
30
0
41
1
10
-0.394913799811292
20
-5.38724256160012
30
0
0
SPLINE
5
118
100
AcDbEntity
8
SK1
62
256
6
ByLayer
370
13
48
1
60
0
100
AcDbSpline
70
4
71
3
72
20
73
16
40
0
40
0
40
0
40
0
40
0.0453685402494964
40
0.113618264805323
40
0.18186798936115
40
0.250117713916977
40
0.318367438472804
40
0.386617163028631
40
0.454866887584457
40
0.591366336696111
40
0.727865785807765
40
0.796115510363592
40
0.864365234919419
40
0.932614959475246
40
1
40
1
40
1
40
1
41
1
10
-0.394913799811292
20
-5.38724256160785
30
0
41
1
10
-0.394913799811292
20
-5.7190547501427
30
0
41
1
10
-0.394913799811292
20
-6.5348354946259
30
0
41
1
10
-0.394913799811292
20
-7.7796880789966
30
0
41
1
10
-0.394913799811292
20
-9.09679923539034
30
0
41
1
10
-0.394913799811292
20
-10.3283869583107
30
0
41
1
10
-0.394913799811292
20
-11.4729576347282
30
0
41
1
10
-0.394913799811292
20
-12.5286533763275
30
0
41
1
10
-0.394913799811292
20
-13.8156305223415
30
0
41
1
10
-0.394913799811292
20
-15.1889742433629
30
0
41
1
10
-0.394913799811292
20
-16.224825355641
30
0
41
1
10
-0.394913799811292
20
-16.8259463034278
30
0
41
1
10
-0.394913799811292
20
-17.1536380024563
30
0
41
1
10
-0.394913799811306
20
-17.3456596441485
30
0
41
1
10
-0.394913799811292
20
-17.3741382159835
30
0
41
1
10
-0.394913799811292
20
-17.3602188928385
30
0
0
SPLINE
5
119
100
AcDbEntity
8
SK1
62
256
6
ByLayer
370
18
48
1
60
0
100
AcDbSpline
70
4
71
3
72
50
73
46
40
0
40
0
40
0
40
0
40
0.0312500000000003
40
0.0312500000000003
40
0.0468750000000004
40
0.0468750000000004
40
0.0625000000000005
40
0.0625000000000005
40
0.0781250000000006
40
0.0781250000000006
40
0.0937500000000008
40
0.0937500000000008
40
0.109375000000001
40
0.109375000000001
40
0.125000000000001
40
0.125000000000001
40
0.140625000000001
40
0.140625000000001
40
0.156250000000001
40
0.156250000000001
40
0.187500000000001
40
0.187500000000001
40
0.218750000000002
40
0.218750000000002
40
0.250000000000002
40
0.250000000000002
40
0.281250000000002
40
0.281250000000002
40
0.312500000000002
40
0.312500000000002
40
0.375000000000002
40
0.375000000000002
40
0.437500000000003
40
0.437500000000003
40
0.500000000000003
40
0.500000000000003
40
0.625000000000003
40
0.625000000000003
40
0.687500000000003
40
0.687500000000003
40
0.750000000000003
40
0.750000000000003
40
0.875000000000001
40
0.875000000000001
40
1
40
1
40
1
40
1
41
1
10
-0.394913799811292
20
-5.38724256160785
30
0
41
1
10
-0.411056331481689
20
-5.40096705709072
30
0
41
1
10
-0.428167571421085
20
-5.41359596702645
30
0
41
1
10
-0.455974774655161
20
-5.43013648208
30
0
41
1
10
-0.465658214706977
20
-5.43526409556435
30
0
41
1
10
-0.485484698823484
20
-5.44430592701531
30
0
41
1
10
-0.495657428995088
20
-5.44824432393753
30
0
41
1
10
-0.516608715435041
20
-5.45476351226009
30
0
41
1
10
-0.527386860231829
20
-5.45734523281897
30
0
41
1
10
-0.549664818445279
20
-5.46089328829356
30
0
41
1
10
-0.560930035443775
20
-5.46180969649637
30
0
41
1
10
-0.58336584661788
20
-5.4618713105761
30
0
41
1
10
-0.594591467840033
20
-5.46102572365922
30
0
41
1
10
-0.617058166617753
20
-5.45757599588921
30
0
41
1
10
-0.627999143283205
20
-5.45501931647436
30
0
41
1
10
-0.649331735085568
20
-5.44848807488123
30
0
41
1
10
-0.659758151599831
20
-5.44449947952498
30
0
41
1
10
-0.680036525045026
20
-5.43533205618729
30
0
41
1
10
-0.689742098894541
20
-5.43022628481569
30
0
41
1
10
-0.717826906306087
20
-5.41366379171245
30
0
41
1
10
-0.735187935399338
20
-5.40097830060952
30
0
41
1
10
-0.768034946557918
20
-5.3733304614868
30
0
41
1
10
-0.783237057424159
20
-5.35859529837754
30
0
41
1
10
-0.811836627358673
20
-5.32802442998909
30
0
41
1
10
-0.825257514876
20
-5.31215335693128
30
0
41
1
10
-0.85080730255018
20
-5.27953884086708
30
0
41
1
10
-0.862932209486871
20
-5.26279281423709
30
0
41
1
10
-0.886169886076786
20
-5.22860723544372
30
0
41
1
10
-0.897260448987012
20
-5.21119248410568
30
0
41
1
10
-0.929029640850715
20
-5.15857889561173
30
0
41
1
10
-0.948347177186236
20
-5.12284414993096
30
0
41
1
10
-0.984487535026446
20
-5.05043807526349
30
0
41
1
10
-1.00129416978024
20
-5.01376164954297
30
0
41
1
10
-1.03304457478234
20
-4.93966608077309
30
0
41
1
10
-1.04798244371666
20
-4.90224508459647
30
0
41
1
10
-1.09059413059555
20
-4.78904752584498
30
0
41
1
10
-1.11609621830422
20
-4.71234577760799
30
0
41
1
10
-1.15135515985604
20
-4.5958383808707
30
0
41
1
10
-1.16260343866753
20
-4.55673847320068
30
0
41
1
10
-1.18417456263644
20
-4.47826299864514
30
0
41
1
10
-1.19450305218301
20
-4.43886894670428
30
0
41
1
10
-1.22429462395716
20
-4.32024366329264
30
0
41
1
10
-1.24257202444835
20
-4.24057073726354
30
0
41
1
10
-1.27661859809459
20
-4.08013408760158
30
0
41
1
10
-1.29238372607517
20
-3.99936988902869
30
0
41
1
10
-1.30710678118655
20
-3.91808269248796
30
0
0
SPLINE
5
11A
100
AcDbEntity
8
SK1
62
256
6
ByLayer
370
18
48
1
60
0
100
AcDbSpline
70
4
71
3
72
53
73
49
40
0
40
0
40
0
40
0
40
0.125000000000001
40
0.125000000000001
40
0.250000000000002
40
0.250000000000002
40
0.312500000000001
40
0.312500000000001
40
0.375
40
0.375
40
0.499999999999998
40
0.499999999999998
40
0.562499999999997
40
0.562499999999997
40
0.624999999999997
40
0.624999999999997
40
0.687499999999996
40
0.687499999999996
40
0.718749999999996
40
0.718749999999996
40
0.749999999999996
40
0.749999999999996
40
0.781249999999996
40
0.781249999999996
40
0.812499999999996
40
0.812499999999996
40
0.843749999999996
40
0.843749999999996
40
0.859374999999996
40
0.859374999999996
40
0.874999999999996
40
0.874999999999996
40
0.890624999999996
40
0.890624999999996
40
0.898437499999996
40
0.898437499999996
40
0.906249999999996
40
0.906249999999996
40
0.921874999999996
40
0.929687499999996
40
0.929687499999996
40
0.937499999999996
40
0.937499999999996
40
0.968749999999998
40
0.968749999999998
40
0.984374999999999
40
0.984374999999999
40
1
40
1
40
1
40
1
41
1
10
-1.30710678118655
20
3.91808311129773
30
0
41
1
10
-1.29239108240533
20
3.99932964943406
30
0
41
1
10
-1.27663490881506
20
4.08005058420358
30
0
41
1
10
-1.24261095077243
20
4.24039497937332
30
0
41
1
10
-1.22434718173433
20
4.32001891689728
30
0
41
1
10
-1.19458151328423
20
4.4385658061575
30
0
41
1
10
-1.18426257821703
20
4.47793290560358
30
0
41
1
10
-1.16271294340757
20
4.55635268985438
30
0
41
1
10
-1.15147501748679
20
4.59543056617446
30
0
41
1
10
-1.11622081339451
20
4.71196262616613
30
0
41
1
10
-1.09072783956063
20
4.7886606233923
30
0
41
1
10
-1.04815216411872
20
4.90181336669085
30
0
41
1
10
-1.0332301135569
20
4.93921284702586
30
0
41
1
10
-1.00152410230017
20
5.01324987497119
30
0
41
1
10
-0.98474588609686
20
5.04988928444084
30
0
41
1
10
-0.948685190430851
20
5.12220258194975
30
0
41
1
10
-0.9294183550615
20
5.15788155457784
30
0
41
1
10
-0.89776031758835
20
5.21039425330497
30
0
41
1
10
-0.886742970836494
20
5.22772922691763
30
0
41
1
10
-0.863513824307901
20
5.26197522516898
30
0
41
1
10
-0.851357742368535
20
5.27880041053604
30
0
41
1
10
-0.825828436847388
20
5.3114635713869
30
0
41
1
10
-0.812437519911725
20
5.32733553299158
30
0
41
1
10
-0.783971777383798
20
5.35785904442625
30
0
41
1
10
-0.768905931142342
20
5.3725169261117
30
0
41
1
10
-0.73634132235442
20
5.40008757388534
30
0
41
1
10
-0.718704728837835
20
5.41307616107991
30
0
41
1
10
-0.690494000998427
20
5.42981903443436
30
0
41
1
10
-0.680770506185979
20
5.43496537787163
30
0
41
1
10
-0.660532703009167
20
5.44418605279546
30
0
41
1
10
-0.650045797816915
20
5.44823342219192
30
0
41
1
10
-0.628779113835961
20
5.45481846069112
30
0
41
1
10
-0.617932285477139
20
5.4573891634796
30
0
41
1
10
-0.601299914959682
20
5.46002170773141
30
0
41
1
10
-0.595695338836961
20
5.46069496960087
30
0
41
1
10
-0.584356912700073
20
5.46160478770398
30
0
41
1
10
-0.57863702197416
20
5.46183701163628
30
0
41
1
10
-0.561675487241857
20
5.46185622962997
30
0
41
1
10
-0.544917445528711
20
5.460540346752
30
0
41
1
10
-0.528445210270348
20
5.45734844847985
30
0
41
1
10
-0.517525389033295
20
5.45481548249097
30
0
41
1
10
-0.512078734988123
20
5.4533397528954
30
0
41
1
10
-0.485450985324846
20
5.44513209892818
30
0
41
1
10
-0.465729936503905
20
5.43590631685376
30
0
41
1
10
-0.437770416117488
20
5.41932732155468
30
0
41
1
10
-0.428743917867408
20
5.41334179407005
30
0
41
1
10
-0.411386251483449
20
5.40075705360886
30
0
41
1
10
-0.403020392727001
20
5.39413717786459
30
0
41
1
10
-0.394913799811292
20
5.38724490303878
30
0
0
SPLINE
5
11B
100
AcDbEntity
8
SK1
62
256
6
ByLayer
370
13
48
1
60
0
100
AcDbSpline
70
4
71
3
72
20
73
16
40
0
40
0
40
0
40
0
40
0.0673842633067088
40
0.135634051950317
40
0.203883840593926
40
0.272133629237535
40
0.408633206524752
40
0.54513278381197
40
0.613382572455579
40
0.681632361099187
40
0.749882149742796
40
0.818131938386405
40
0.886381727030014
40
0.954631515673622
40
1
40
1
40
1
40
1
41
1
10
-0.394913799811292
20
17.3602193111543
30
0
41
1
10
-0.394913799811263
20
17.3741378070054
30
0
41
1
10
-0.394913799811292
20
17.3456582493738
30
0
41
1
10
-0.394913799811292
20
17.1536376810083
30
0
41
1
10
-0.394913799811292
20
16.8259464323311
30
0
41
1
10
-0.394913799811292
20
16.2248245878661
30
0
41
1
10
-0.394913799811292
20
15.1889746622834
30
0
41
1
10
-0.394913799811292
20
13.8156301488903
30
0
41
1
10
-0.394913799811292
20
12.5286535254346
30
0
41
1
10
-0.394913799811292
20
11.4729578043957
30
0
41
1
10
-0.394913799811292
20
10.3283867090429
30
0
41
1
10
-0.394913799811292
20
9.09679950047928
30
0
41
1
10
-0.394913799811292
20
7.77968825069564
30
0
41
1
10
-0.394913799811292
20
6.53483606378791
30
0
41
1
10
-0.394913799811292
20
5.71905630139054
30
0
41
1
10
-0.394913799811292
20
5.38724490303881
30
0
0
SPLINE
5
11C
100
AcDbEntity
8
SK1
62
256
6
ByLayer
370
18
48
1
60
0
100
AcDbSpline
70
4
71
3
72
38
73
34
40
0
40
0
40
0
40
0
40
0.0624999999999996
40
0.0624999999999996
40
0.124999999999999
40
0.124999999999999
40
0.249999999999999
40
0.249999999999999
40
0.374999999999998
40
0.374999999999998
40
0.390624999999998
40
0.390624999999998
40
0.406249999999998
40
0.406249999999998
40
0.437499999999998
40
0.437499999999998
40
0.499999999999998
40
0.499999999999998
40
0.562499999999998
40
0.562499999999998
40
0.624999999999998
40
0.624999999999998
40
0.749999999999998
40
0.749999999999998
40
0.781249999999998
40
0.781249999999998
40
0.812499999999998
40
0.812499999999998
40
0.874999999999999
40
0.874999999999999
40
0.937499999999999
40
0.937499999999999
40
1
40
1
40
1
40
1
41
1
10
-1.30710678118655
20
-3.91808269248793
30
0
41
1
10
-1.33526487251859
20
-3.76261955749285
30
0
41
1
10
-1.36267126502632
20
-3.60631098585768
30
0
41
1
10
-1.41562242099803
20
-3.29187611045597
30
0
41
1
10
-1.44117770353176
20
-3.13375373985022
30
0
41
1
10
-1.51435013598102
20
-2.65639932915298
30
0
41
1
10
-1.55846884179031
20
-2.33418302861884
30
0
41
1
10
-1.63296978491243
20
-1.6800471987703
30
0
41
1
10
-1.66337509736468
20
-1.34813830750841
30
0
41
1
10
-1.68707319146451
20
-0.968091690681831
30
0
41
1
10
-1.68955923537888
20
-0.925771372654225
30
0
41
1
10
-1.69422507481973
20
-0.840939584978486
30
0
41
1
10
-1.69640659794263
20
-0.798386309984636
30
0
41
1
10
-1.70245250680873
20
-0.670897601193644
30
0
41
1
10
-1.70582437938029
20
-0.58605256890192
30
0
41
1
10
-1.71388361409092
20
-0.331968562038014
30
0
41
1
10
-1.71646782396985
20
-0.163187101305937
30
0
41
1
10
-1.71636335941631
20
0.173213348331842
30
0
41
1
10
-1.71367008139578
20
0.340831662555303
30
0
41
1
10
-1.70293626023371
20
0.674902568806118
30
0
41
1
10
-1.69494665814693
20
0.84136228930052
30
0
41
1
10
-1.66399327242202
20
1.33914312869115
30
0
41
1
10
-1.63408221528162
20
1.66887252592323
30
0
41
1
10
-1.5876007265538
20
2.07872253566575
30
0
41
1
10
-1.57784909269048
20
2.16057674059007
30
0
41
1
10
-1.55749771994262
20
2.32406172494169
30
0
41
1
10
-1.54688933197929
20
2.40575612114199
30
0
41
1
10
-1.51394731043966
20
2.65007047288915
30
0
41
1
10
-1.49055743488208
20
2.81150726182858
30
0
41
1
10
-1.44149329508794
20
3.13180385741538
30
0
41
1
10
-1.41582315096537
20
3.29066553946589
30
0
41
1
10
-1.36271475580057
20
3.60607338167009
30
0
41
1
10
-1.33526589565592
20
3.76261441071907
30
0
41
1
10
-1.30710678118655
20
3.91808311129768
30
0
0
SPLINE
5
11D
100
AcDbEntity
8
SK1
62
256
6
ByLayer
370
13
48
1
60
0
100
AcDbSpline
70
4
71
3
72
45
73
41
40
0
40
0
40
0
40
0
40
0.0139247378539482
40
0.0425174015746104
40
0.0711100652952726
40
0.0997027290159348
40
0.156888056457259
40
0.214073383898584
40
0.242666047619246
40
0.271258711339908
40
0.29985137506057
40
0.328444038781233
40
0.357036702501895
40
0.385629366222557
40
0.414222029943219
40
0.42851836180355
40
0.442814693663881
40
0.471407357384543
40
0.485703689244875
40
0.49285185517504
40
0.500000021105206
40
0.507148187035371
40
0.514296352965537
40
0.528592684825868
40
0.55718534854653
40
0.571481680406861
40
0.585778012267192
40
0.614370675987855
40
0.642963339708517
40
0.671556003429179
40
0.700148667149841
40
0.728741330870503
40
0.757333994591166
40
0.785926658311828
40
0.843111985753152
40
0.900297313194477
40
0.928889976915139
40
0.957482640635801
40
0.986075304356463
40
1
40
1
40
1
40
1
41
1
10
-1.99503997793931
20
17.3200454243757
30
0
41
1
10
-1.99503997793931
20
17.3133442655766
30
0
41
1
10
-1.9950399779393
20
17.27341938106
30
0
41
1
10
-1.9950399779393
20
17.1138751154123
30
0
41
1
10
-1.9950399779393
20
16.7867763596001
30
0
41
1
10
-1.9950399779393
20
16.1866009265939
30
0
41
1
10
-1.9950399779393
20
15.1524691326423
30
0
41
1
10
-1.9950399779393
20
13.7813331880937
30
0
41
1
10
-1.9950399779393
20
12.4962106263157
30
0
41
1
10
-1.9950399779393
20
11.4421779521075
30
0
41
1
10
-1.9950399779393
20
10.2994799380558
30
0
41
1
10
-1.9950399779393
20
9.07001746022104
30
0
41
1
10
-1.9950399779393
20
7.75535376586828
30
0
41
1
10
-1.9950399779393
20
6.35676341745574
30
0
41
1
10
-1.9950399779393
20
5.12318926412425
30
0
41
1
10
-1.9950399779393
20
4.09531236648536
30
0
41
1
10
-1.9950399779393
20
3.04236295320669
30
0
41
1
10
-1.9950399779393
20
1.95640625727882
30
0
41
1
10
-1.9950399779393
20
0.981337226851394
30
0
41
1
10
-1.9950399779393
20
0.420771319084707
30
0
41
1
10
-1.9950399779393
20
6.88173714E-08
30
0
41
1
10
-1.9950399779393
20
-0.420771221994357
30
0
41
1
10
-1.9950399779393
20
-0.981337209960486
30
0
41
1
10
-1.9950399779393
20
-1.95640624898675
30
0
41
1
10
-1.9950399779393
20
-3.04236280324244
30
0
41
1
10
-1.9950399779393
20
-4.0953123914187
30
0
41
1
10
-1.9950399779393
20
-5.12318891405303
30
0
41
1
10
-1.9950399779393
20
-6.35676356337376
30
0
41
1
10
-1.9950399779393
20
-7.7553535878281
30
0
41
1
10
-1.9950399779393
20
-9.07001720037854
30
0
41
1
10
-1.9950399779393
20
-10.2994801886281
30
0
41
1
10
-1.9950399779393
20
-11.4421777785236
30
0
41
1
10
-1.9950399779393
20
-12.4962104807245
30
0
41
1
10
-1.9950399779393
20
-13.7813335607202
30
0
41
1
10
-1.9950399779393
20
-15.152468715744
30
0
41
1
10
-1.9950399779393
20
-16.1866016937524
30
0
41
1
10
-1.9950399779393
20
-16.786776230537
30
0
41
1
10
-1.9950399779393
20
-17.1138754381145
30
0
41
1
10
-1.9950399779393
20
-17.2734198417186
30
0
41
1
10
-1.99503997793931
20
-17.3133444711258
30
0
41
1
10
-1.99503997793928
20
-17.3200455755026
30
0
0
SPLINE
5
11E
100
AcDbEntity
8
SK1
62
256
6
ByLayer
370
18
48
1
60
0
100
AcDbSpline
70
4
71
3
72
45
73
41
40
0
40
0
40
0
40
0
40
0.0138970643973974
40
0.0424913607141056
40
0.0710856570308139
40
0.0996799533475222
40
0.156868545980939
40
0.214057138614355
40
0.242651434931063
40
0.271245731247772
40
0.29984002756448
40
0.328434323881188
40
0.357028620197897
40
0.385622916514605
40
0.414217212831313
40
0.428514360989667
40
0.442811509148021
40
0.471405805464729
40
0.485702953623084
40
0.492851527702261
40
0.500000101781438
40
0.507148675860615
40
0.514297249939792
40
0.528594398098146
40
0.557188694414854
40
0.571485842573208
40
0.585782990731563
40
0.614377287048271
40
0.642971583364979
40
0.671565879681687
40
0.700160175998396
40
0.728754472315104
40
0.757348768631812
40
0.78594306494852
40
0.843131657581937
40
0.900320250215353
40
0.928914546532062
40
0.95750884284877
40
0.986103139165478
40
1
40
1
40
1
40
1
41
1
10
-2.2
20
17.5147945423138
30
0
41
1
10
-2.2
20
17.5080193388336
30
0
41
1
10
-2.2
20
17.4676802386958
30
0
41
1
10
-2.2
20
17.3066644250431
30
0
41
1
10
-2.2
20
16.9766929599708
30
0
41
1
10
-2.2
20
16.3719288388599
30
0
41
1
10
-2.2
20
15.3294666616432
30
0
41
1
10
-2.2
20
13.9476224427057
30
0
41
1
10
-2.2
20
12.6535104390874
30
0
41
1
10
-2.2
20
11.5914144609754
30
0
41
1
10
-2.2
20
10.4396347881955
30
0
41
1
10
-2.2
20
9.19987052615136
30
0
41
1
10
-2.2
20
7.87333982787851
30
0
41
1
10
-2.2
20
6.4607857552443
30
0
41
1
10
-2.2
20
5.21252898167785
30
0
41
1
10
-2.2
20
4.17223684682958
30
0
41
1
10
-2.2
20
3.10486150423552
30
0
41
1
10
-2.2
20
1.99745537289451
30
0
41
1
10
-2.2
20
1.00299597482069
30
0
41
1
10
-2.2
20
0.430523794544825
30
0
41
1
10
-2.2
20
2.03164063E-08
30
0
41
1
10
-2.2
20
-0.430523737893537
30
0
41
1
10
-2.2
20
-1.00299590932914
30
0
41
1
10
-2.2
20
-1.99745538275133
30
0
41
1
10
-2.2
20
-3.10486136355075
30
0
41
1
10
-2.2
20
-4.17223690222141
30
0
41
1
10
-2.2
20
-5.21252864051553
30
0
41
1
10
-2.2
20
-6.46078587277509
30
0
41
1
10
-2.2
20
-7.87333968058334
30
0
41
1
10
-2.2
20
-9.19987024087132
30
0
41
1
10
-2.2
20
-10.4396350324424
30
0
41
1
10
-2.2
20
-11.5914143063801
30
0
41
1
10
-2.2
20
-12.6535102764493
30
0
41
1
10
-2.2
20
-13.9476228193307
30
0
41
1
10
-2.2
20
-15.3294662349403
30
0
41
1
10
-2.2
20
-16.3719296090069
30
0
41
1
10
-2.2
20
-16.9766928316826
30
0
41
1
10
-2.2
20
-17.3066647416643
30
0
41
1
10
-2.2
20
-17.4676803359594
30
0
41
1
10
-2.2
20
-17.5080192382184
30
0
41
1
10
-2.2
20
-17.5147944570226
30
0
0
SPLINE
5
11F
100
AcDbEntity
8
SK1
62
256
6
ByLayer
370
18
48
1
60
0
100
AcDbSpline
70
4
71
3
72
45
73
41
40
0
40
0
40
0
40
0
40
0.0275256180817839
40
0.0553182314186059
40
0.0831108447554279
40
0.11090345809225
40
0.166488684765894
40
0.222073911439538
40
0.24986652477636
40
0.277659138113182
40
0.305451751450004
40
0.333244364786826
40
0.361036978123648
40
0.38882959146047
40
0.416622204797293
40
0.430518511465704
40
0.444414818134114
40
0.472207431470937
40
0.486103738139347
40
0.493051891473553
40
0.500000044807759
40
0.506948198141964
40
0.51389635147617
40
0.527792658144581
40
0.555585271481403
40
0.569481578149814
40
0.583377884818225
40
0.611170498155047
40
0.638963111491869
40
0.666755724828691
40
0.694548338165513
40
0.722340951502335
40
0.750133564839157
40
0.777926178175979
40
0.833511404849623
40
0.889096631523267
40
0.916889244860089
40
0.944681858196911
40
0.972474471533733
40
1
40
1
40
1
40
1
41
1
10
-28.5
20
16.8545102408271
30
0
41
1
10
-28.5
20
16.8681141430836
30
0
41
1
10
-28.5
20
16.8405420082914
30
0
41
1
10
-28.5
20
16.6531187925377
30
0
41
1
10
-28.5
20
16.3328856609547
30
0
41
1
10
-28.5
20
15.7436769514769
30
0
41
1
10
-28.5
20
14.7294543359372
30
0
41
1
10
-28.5
20
13.3839106046769
30
0
41
1
10
-28.5
20
12.1202723366856
30
0
41
1
10
-28.5
20
11.0855105352455
30
0
41
1
10
-28.5
20
9.96451720849825
30
0
41
1
10
-28.5
20
8.75967545377557
30
0
41
1
10
-28.5
20
7.47337327542297
30
0
41
1
10
-28.5
20
6.10815549439155
30
0
41
1
10
-28.5
20
4.9096720321497
30
0
41
1
10
-28.5
20
3.9114668992739
30
0
41
1
10
-28.5
20
2.89299469927084
30
0
41
1
10
-28.5
20
1.85830102725041
30
0
41
1
10
-28.5
20
0.929573956929886
30
0
41
1
10
-28.5
20
0.39746341502854
30
0
41
1
10
-28.5
20
1.847321585E-07
30
0
41
1
10
-28.5
20
-0.397463221290906
30
0
41
1
10
-28.5
20
-0.929574056191939
30
0
41
1
10
-28.5
20
-1.85830097558352
30
0
41
1
10
-28.5
20
-2.89299452712916
30
0
41
1
10
-28.5
20
-3.91146685141305
30
0
41
1
10
-28.5
20
-4.90967166078667
30
0
41
1
10
-28.5
20
-6.10815570815362
30
0
41
1
10
-28.5
20
-7.47337302390386
30
0
41
1
10
-28.5
20
-8.75967525472745
30
0
41
1
10
-28.5
20
-9.96451747418803
30
0
41
1
10
-28.5
20
-11.0855103162798
30
0
41
1
10
-28.5
20
-12.1202722318355
30
0
41
1
10
-28.5
20
-13.3839109677473
30
0
41
1
10
-28.5
20
-14.7294539424714
30
0
41
1
10
-28.5
20
-15.7436777114932
30
0
41
1
10
-28.5
20
-16.3328855300396
30
0
41
1
10
-28.5
20
-16.653119129773
30
0
41
1
10
-28.5
20
-16.8405423968411
30
0
41
1
10
-28.5
20
-16.8681141128007
30
0
41
1
10
-28.5
20
-16.8545104807244
30
0
0
SPLINE
5
120
100
AcDbEntity
8
1
62
256
6
ByLayer
370
18
48
1
60
0
100
AcDbSpline
70
4
71
3
72
32
73
28
40
0
40
0
40
0
40
0
40
0.125
40
0.125
40
0.25
40
0.25
40
0.375000000000001
40
0.375000000000001
40
0.500000000000001
40
0.500000000000001
40
0.562499999999994
40
0.562499999999994
40
0.624999999999987
40
0.624999999999987
40
0.687499999999981
40
0.687499999999981
40
0.749999999999974
40
0.749999999999974
40
0.812499999999967
40
0.812499999999967
40
0.843749999999983
40
0.843749999999983
40
0.874999999999999
40
0.874999999999999
40
0.9375
40
0.9375
40
1
40
1
40
1
40
1
41
1
10
53.380721944809
20
29.5661157527901
30
0
41
1
10
53.3749948950299
20
29.5874893935433
30
0
41
1
10
53.3701505000441
20
29.6090694204936
30
0
41
1
10
53.3622899525693
20
29.6526567945062
30
0
41
1
10
53.3592794149027
20
29.6746484791597
30
0
41
1
10
53.3553360612794
20
29.7187611657782
30
0
41
1
10
53.354397992832
20
29.74088167485
30
0
41
1
10
53.3549927597848
20
29.7850657451704
30
0
41
1
10
53.3565152575274
20
29.8070606359125
30
0
41
1
10
53.3611910216317
20
29.8396999388765
30
0
41
1
10
53.3631441611368
20
29.8504647326256
30
0
41
1
10
53.367979310803
20
29.8717182871132
30
0
41
1
10
53.3708732016499
20
29.882246661639
30
0
41
1
10
53.3777495649235
20
29.9027650785526
30
0
41
1
10
53.3817110618415
20
29.9127090879213
30
0
41
1
10
53.3909157791346
20
29.9318114137454
30
0
41
1
10
53.3961741096161
20
29.9410006268464
30
0
41
1
10
53.4083015115122
20
29.9582068976007
30
0
41
1
10
53.4150316525247
20
29.9660311136143
30
0
41
1
10
53.4263425190379
20
29.976322839618
30
0
41
1
10
53.4303300937927
20
29.9795141195218
30
0
41
1
10
53.438530052943
20
29.9851989005395
30
0
41
1
10
53.442765573687
20
29.9877162897242
30
0
41
1
10
53.4558876619551
20
29.9942633685431
30
0
41
1
10
53.4653354681364
20
29.9972865824109
30
0
41
1
10
53.4842328133608
20
30.0002957539584
30
0
41
1
10
53.493768953747
20
30.0003716050655
30
0
41
1
10
53.5033823752159
20
29.9991813040332
30
0
0
SPLINE
5
121
100
AcDbEntity
8
1
62
256
6
ByLayer
370
18
48
1
60
0
100
AcDbSpline
70
4
71
3
72
32
73
28
40
0
40
0
40
0
40
0
40
0.124999999999992
40
0.124999999999992
40
0.249999999999984
40
0.249999999999984
40
0.374999999999976
40
0.374999999999976
40
0.499999999999967
40
0.499999999999967
40
0.562499999999965
40
0.562499999999965
40
0.624999999999963
40
0.624999999999963
40
0.68749999999996
40
0.68749999999996
40
0.749999999999958
40
0.749999999999958
40
0.812499999999956
40
0.812499999999956
40
0.843749999999963
40
0.843749999999963
40
0.87499999999997
40
0.87499999999997
40
0.937499999999985
40
0.937499999999985
40
1
40
1
40
1
40
1
41
1
10
53.8146061920189
20
31.1853938079811
30
0
41
1
10
53.7989596010448
20
31.169747217007
30
0
41
1
10
53.783974218446
20
31.1534805629466
30
0
41
1
10
53.7553730976389
20
31.1196630635049
30
0
41
1
10
53.7417700532137
20
31.1021229747562
30
0
41
1
10
53.7162986654907
20
31.0658919443271
30
0
41
1
10
53.7044260198489
20
31.0472040557499
30
0
41
1
10
53.682849067979
20
31.0086421449335
30
0
41
1
10
53.6731701443303
20
30.988832761926
30
0
41
1
10
53.6608998233448
20
30.9582284143453
30
0
41
1
10
53.6572088948988
20
30.9479292597395
30
0
41
1
10
53.6507694800969
20
30.9271055667995
30
0
41
1
10
53.6480114758233
20
30.916540781576
30
0
41
1
10
53.6437073726471
20
30.8953331296466
30
0
41
1
10
53.6421661249308
20
30.8847406164589
30
0
41
1
10
53.6405864810292
20
30.8635951583773
30
0
41
1
10
53.6405457222571
20
30.8530079011503
30
0
41
1
10
53.6424452250039
20
30.8320431326246
30
0
41
1
10
53.644361590085
20
30.8219020922859
30
0
41
1
10
53.6490112248224
20
30.8073337628613
30
0
41
1
10
53.6508689259076
20
30.8025762460166
30
0
41
1
10
53.655127908333
20
30.7935531016652
30
0
41
1
10
53.6575372823032
20
30.7892552183081
30
0
41
1
10
53.6656278046845
20
30.7770242375963
30
0
41
1
10
53.6722982379138
20
30.769682154495
30
0
41
1
10
53.6871592331683
20
30.7576274628783
30
0
41
1
10
53.6953798474434
20
30.7527937036995
30
0
41
1
10
53.7043004651688
20
30.7490178238972
30
0
0
SPLINE
5
122
100
AcDbEntity
8
1
62
256
6
ByLayer
370
18
48
1
60
0
100
AcDbSpline
70
4
71
3
72
42
73
38
40
0
40
0
40
0
40
0
40
0.0625000000000042
40
0.0625000000000042
40
0.0937500000000063
40
0.0937500000000063
40
0.125000000000008
40
0.125000000000008
40
0.187500000000012
40
0.187500000000012
40
0.250000000000017
40
0.250000000000017
40
0.312500000000021
40
0.312500000000021
40
0.375000000000025
40
0.375000000000025
40
0.437500000000029
40
0.437500000000029
40
0.500000000000034
40
0.500000000000034
40
0.562500000000038
40
0.562500000000038
40
0.625000000000042
40
0.625000000000042
40
0.75000000000004
40
0.75000000000004
40
0.781250000000035
40
0.781250000000035
40
0.812500000000031
40
0.812500000000031
40
0.875000000000008
40
0.875000000000008
40
0.906250000000004
40
0.906250000000004
40
0.937500000000001
40
0.937500000000001
40
1
40
1
40
1
40
1
41
1
10
53.7181323383098
20
30.7345654257907
30
0
41
1
10
53.7291888310969
20
30.7230129170456
30
0
41
1
10
53.7380929577811
20
30.7096760632714
30
0
41
1
10
53.7493107709729
20
30.6878533268155
30
0
41
1
10
53.7526776404187
20
30.6802665552742
30
0
41
1
10
53.7586902862682
20
30.6647670442289
30
0
41
1
10
53.7613510458808
20
30.6568254064864
30
0
41
1
10
53.7684388522722
20
30.632491942499
30
0
41
1
10
53.7719319559432
20
30.6157691135315
30
0
41
1
10
53.7769901906249
20
30.5815907738219
30
0
41
1
10
53.7785387908417
20
30.5641811149635
30
0
41
1
10
53.7799855840235
20
30.5290799889308
30
0
41
1
10
53.7798832172047
20
30.5112918099113
30
0
41
1
10
53.7782246935997
20
30.4756814370846
30
0
41
1
10
53.7766724772692
20
30.457843511481
30
0
41
1
10
53.7722369162888
20
30.4220947224092
30
0
41
1
10
53.7693503165272
20
30.40419652201
30
0
41
1
10
53.7623598884374
20
30.3686823238751
30
0
41
1
10
53.7582501661286
20
30.351018266121
30
0
41
1
10
53.748812886238
20
30.3158884257067
30
0
41
1
10
53.7435180270066
20
30.2985437056333
30
0
41
1
10
53.731765961031
20
30.2642974647809
30
0
41
1
10
53.7252817726384
20
30.2473369166868
30
0
41
1
10
53.7042357816759
20
30.1977701210704
30
0
41
1
10
53.68812226618
20
30.1663537873627
30
0
41
1
10
53.6647442263719
20
30.1294799765564
30
0
41
1
10
53.659902652759
20
30.1222278250125
30
0
41
1
10
53.6498499444221
20
30.1079923696866
30
0
41
1
10
53.6446268988738
20
30.10099609436
30
0
41
1
10
53.6285406106294
20
30.0807208900531
30
0
41
1
10
53.6172155015568
20
30.0680630977849
30
0
41
1
10
53.5990654292002
20
30.0506626024317
30
0
41
1
10
53.5928200157613
20
30.0451289454741
30
0
41
1
10
53.5798604901352
20
30.0346885355806
30
0
41
1
10
53.5731149261696
20
30.0297644515892
30
0
41
1
10
53.552445363016
20
30.0164208982095
30
0
41
1
10
53.5380199399649
20
30.0092816957643
30
0
41
1
10
53.5225873277911
20
30.0047815113686
30
0
0
SPLINE
5
123
100
AcDbEntity
8
1
62
256
6
ByLayer
370
18
48
1
60
0
100
AcDbSpline
70
4
71
3
72
8
73
4
40
0
40
0
40
0
40
0
40
1
40
1
40
1
40
1
41
1
10
53.7043004651688
20
30.7490178238972
30
0
41
1
10
53.7089104930264
20
30.7442009811456
30
0
41
1
10
53.7135211097545
20
30.7393835231056
30
0
41
1
10
53.7181323383098
20
30.7345654257907
30
0
0
SPLINE
5
124
100
AcDbEntity
8
1
62
256
6
ByLayer
370
18
48
1
60
0
100
AcDbSpline
70
4
71
3
72
8
73
4
40
0
40
0
40
0
40
0
40
1
40
1
40
1
40
1
41
1
10
53.5033823752159
20
29.9991813040332
30
0
41
1
10
53.5097831978285
20
30.0010477982933
30
0
41
1
10
53.5161848380622
20
30.0029145309736
30
0
41
1
10
53.5225873277911
20
30.0047815113686
30
0
0
SPLINE
5
125
100
AcDbEntity
8
1
62
256
6
ByLayer
370
18
48
1
60
0
100
AcDbSpline
70
4
71
3
72
32
73
28
40
0
40
0
40
0
40
0
40
0.125000000000002
40
0.125000000000002
40
0.250000000000004
40
0.250000000000004
40
0.375000000000006
40
0.375000000000006
40
0.500000000000009
40
0.500000000000009
40
0.562500000000003
40
0.562500000000003
40
0.624999999999997
40
0.624999999999997
40
0.687499999999991
40
0.687499999999991
40
0.749999999999986
40
0.749999999999986
40
0.81249999999998
40
0.81249999999998
40
0.843749999999996
40
0.843749999999996
40
0.875000000000013
40
0.875000000000013
40
0.937500000000006
40
0.937500000000006
40
1
40
1
40
1
40
1
41
1
10
56.619278055191
20
30.4338842472098
30
0
41
1
10
56.6250051049701
20
30.4125106064566
30
0
41
1
10
56.6298494999559
20
30.3909305795064
30
0
41
1
10
56.6377100474308
20
30.3473432054938
30
0
41
1
10
56.6407205850974
20
30.3253515208402
30
0
41
1
10
56.6446639387207
20
30.2812388342218
30
0
41
1
10
56.645602007168
20
30.2591183251499
30
0
41
1
10
56.6450072402153
20
30.2149342548296
30
0
41
1
10
56.6434847424726
20
30.1929393640874
30
0
41
1
10
56.6388089783683
20
30.1603000611235
30
0
41
1
10
56.6368558388633
20
30.1495352673743
30
0
41
1
10
56.6320206891971
20
30.1282817128868
30
0
41
1
10
56.6291267983501
20
30.1177533383609
30
0
41
1
10
56.6222504350765
20
30.0972349214473
30
0
41
1
10
56.6182889381585
20
30.0872909120787
30
0
41
1
10
56.6090842208654
20
30.0681885862545
30
0
41
1
10
56.603825890384
20
30.0589993731535
30
0
41
1
10
56.5916984884878
20
30.0417931023992
30
0
41
1
10
56.5849683474753
20
30.0339688863857
30
0
41
1
10
56.5736574809622
20
30.023677160382
30
0
41
1
10
56.5696699062073
20
30.0204858804781
30
0
41
1
10
56.561469947057
20
30.0148010994605
30
0
41
1
10
56.5572344263131
20
30.0122837102758
30
0
41
1
10
56.544112338045
20
30.0057366314568
30
0
41
1
10
56.5346645318636
20
30.0027134175891
30
0
41
1
10
56.5157671866393
20
29.9997042460415
30
0
41
1
10
56.506231046253
20
29.9996283949345
30
0
41
1
10
56.4966176247841
20
30.0008186959667
30
0
0
SPLINE
5
126
100
AcDbEntity
8
1
62
256
6
ByLayer
370
18
48
1
60
0
100
AcDbSpline
70
4
71
3
72
40
73
36
40
0
40
0
40
0
40
0
40
0.0625000000000148
40
0.0625000000000148
40
0.093750000000013
40
0.093750000000013
40
0.125000000000011
40
0.125000000000011
40
0.187500000000008
40
0.187500000000008
40
0.250000000000004
40
0.250000000000004
40
0.312500000000001
40
0.312500000000001
40
0.374999999999997
40
0.374999999999997
40
0.437499999999994
40
0.437499999999994
40
0.49999999999999
40
0.49999999999999
40
0.624999999999995
40
0.624999999999995
40
0.687499999999996
40
0.687499999999996
40
0.749999999999997
40
0.749999999999997
40
0.812499999999997
40
0.812499999999997
40
0.874999999999998
40
0.874999999999998
40
0.906249999999999
40
0.906249999999999
40
0.937499999999999
40
0.937499999999999
40
1
40
1
40
1
40
1
41
1
10
56.4774126722089
20
29.9952184886313
30
0
41
1
10
56.4620768636183
20
29.9907465323781
30
0
41
1
10
56.4477109545027
20
29.983658313586
30
0
41
1
10
56.4271037073277
20
29.9703873085682
30
0
41
1
10
56.4204002160085
20
29.9655073222012
30
0
41
1
10
56.4074540664134
20
29.9551054575401
30
0
41
1
10
56.4011840147649
20
29.9495660946512
30
0
41
1
10
56.3828934586017
20
29.9320617404978
30
0
41
1
10
56.3715142230625
20
29.9193429903488
30
0
41
1
10
56.3500584227687
20
29.8923104769065
30
0
41
1
10
56.3400175237937
20
29.8780262158249
30
0
41
1
10
56.3212230260718
20
29.8483908152427
30
0
41
1
10
56.3124211398347
20
29.8329552641164
30
0
41
1
10
56.2960564603467
20
29.8013267859683
30
0
41
1
10
56.288482993809
20
29.7851233098952
30
0
41
1
10
56.2744504795575
20
29.7519889482043
30
0
41
1
10
56.2679998434803
20
29.7350655291814
30
0
41
1
10
56.256291961234
20
29.7008554590896
30
0
41
1
10
56.2510162206492
20
29.6835261289519
30
0
41
1
10
56.2369127082791
20
29.630871844099
30
0
41
1
10
56.2299255287207
20
29.5954606573678
30
0
41
1
10
56.2232959596087
20
29.5418377666157
30
0
41
1
10
56.2217508535889
20
29.5239725784016
30
0
41
1
10
56.2201125081135
20
29.4884342124135
30
0
41
1
10
56.2200161139732
20
29.470690266202
30
0
41
1
10
56.2214799156245
20
29.4355562510953
30
0
41
1
10
56.2230384858972
20
29.4181522861643
30
0
41
1
10
56.2281086322486
20
29.3840206772715
30
0
41
1
10
56.2316236289783
20
29.3672557003833
30
0
41
1
10
56.2387024129777
20
29.3430103284982
30
0
41
1
10
56.2413608846403
20
29.3350886213958
30
0
41
1
10
56.2473751982013
20
29.3196098782506
30
0
41
1
10
56.2507441026956
20
29.312031637077
30
0
41
1
10
56.2619335174603
20
29.2902891586661
30
0
41
1
10
56.2708170351569
20
29.2769809535289
30
0
41
1
10
56.2818676616903
20
29.2654345742093
30
0
0
SPLINE
5
127
100
AcDbEntity
8
1
62
256
6
ByLayer
370
18
48
1
60
0
100
AcDbSpline
70
4
71
3
72
8
73
4
40
0
40
0
40
0
40
0
40
1
40
1
40
1
40
1
41
1
10
56.2818676616903
20
29.2654345742093
30
0
41
1
10
56.2864788902455
20
29.2606164768943
30
0
41
1
10
56.2910895069736
20
29.2557990188543
30
0
41
1
10
56.2956995348312
20
29.2509821761027
30
0
0
SPLINE
5
128
100
AcDbEntity
8
1
62
256
6
ByLayer
370
18
48
1
60
0
100
AcDbSpline
70
4
71
3
72
31
73
27
40
0
40
0
40
0
40
0
40
0.250000000000005
40
0.250000000000005
40
0.374999999999988
40
0.374999999999988
40
0.499999999999972
40
0.499999999999972
40
0.56249999999997
40
0.56249999999997
40
0.624999999999969
40
0.624999999999969
40
0.687499999999968
40
0.687499999999968
40
0.749999999999967
40
0.749999999999967
40
0.781249999999966
40
0.781249999999966
40
0.812499999999965
40
0.843749999999965
40
0.843749999999965
40
0.874999999999964
40
0.874999999999964
40
0.937499999999982
40
0.937499999999982
40
1
40
1
40
1
40
1
41
1
10
56.1853938079811
20
28.8146061920188
30
0
41
1
10
56.2166653477485
20
28.8458777317862
30
0
41
1
10
56.2455356871841
20
28.879818257569
30
0
41
1
10
56.2836979006374
20
28.9341042667112
30
0
41
1
10
56.295572779176
20
28.9527964301586
30
0
41
1
10
56.3171187566778
20
28.9912977237223
30
0
41
1
10
56.3268082141877
20
29.0111259483998
30
0
41
1
10
56.3390579142384
20
29.0416598728832
30
0
41
1
10
56.3427639195468
20
29.0519906043075
30
0
41
1
10
56.3492122563582
20
29.0728276511068
30
0
41
1
10
56.351972971919
20
29.0834001658055
30
0
41
1
10
56.3562706888057
20
29.1045413469569
30
0
41
1
10
56.3578089799614
20
29.1150838219456
30
0
41
1
10
56.359401395461
20
29.1360885151389
30
0
41
1
10
56.359460405334
20
29.1465511128893
30
0
41
1
10
56.3580960605129
20
29.1621557129033
30
0
41
1
10
56.357389383038
20
29.1673769481228
30
0
41
1
10
56.3554374199019
20
29.177576521564
30
0
41
1
10
56.3529561845487
20
29.1875287906632
30
0
41
1
10
56.3493326868125
20
29.1969416769372
30
0
41
1
10
56.3450806108701
20
29.2060550285649
30
0
41
1
10
56.3426318141297
20
29.2104614979448
30
0
41
1
10
56.3345262374839
20
29.2227957459088
30
0
41
1
10
56.3280549875474
20
29.2299892049196
30
0
41
1
10
56.3129781938621
20
29.2423018317516
30
0
41
1
10
56.304653436869
20
29.2471922078632
30
0
41
1
10
56.2956995348312
20
29.2509821761027
30
0
0
SPLINE
5
129
100
AcDbEntity
8
1
62
256
6
ByLayer
370
18
48
1
60
0
100
AcDbSpline
70
4
71
3
72
8
73
4
40
0
40
0
40
0
40
0
40
1
40
1
40
1
40
1
41
1
10
56.4966176247841
20
30.0008186959667
30
0
41
1
10
56.4902168021715
20
29.9989522017066
30
0
41
1
10
56.4838151619378
20
29.9970854690263
30
0
41
1
10
56.4774126722089
20
29.9952184886313
30
0
0
SPLINE
5
12A
100
AcDbEntity
8
1
62
256
6
ByLayer
370
18
48
1
60
0
100
AcDbSpline
70
4
71
3
72
40
73
36
40
0
40
0
40
0
40
0
40
0.062500000000021
40
0.062500000000021
40
0.0937500000000194
40
0.0937500000000194
40
0.125000000000018
40
0.125000000000018
40
0.187500000000015
40
0.187500000000015
40
0.250000000000012
40
0.250000000000012
40
0.312500000000009
40
0.312500000000009
40
0.375000000000006
40
0.375000000000006
40
0.437500000000003
40
0.437500000000003
40
0.5
40
0.5
40
0.624999999999997
40
0.624999999999997
40
0.687499999999993
40
0.687499999999993
40
0.749999999999989
40
0.749999999999989
40
0.812499999999985
40
0.812499999999985
40
0.874999999999981
40
0.874999999999981
40
0.906249999999983
40
0.906249999999983
40
0.937499999999985
40
0.937499999999985
40
1
40
1
40
1
40
1
41
1
10
55.7345654257907
20
28.7181323383097
30
0
41
1
10
55.7230246937755
20
28.7291775600101
30
0
41
1
10
55.7097031616762
20
28.7380746928567
30
0
41
1
10
55.6879065106095
20
28.7492855899033
30
0
41
1
10
55.680328572786
20
28.7526509904964
30
0
41
1
10
55.6648472189452
20
28.7586617525963
30
0
41
1
10
55.6569149641384
20
28.7613220951625
30
0
41
1
10
55.6326104706831
20
28.7684100043725
30
0
41
1
10
55.6159060921801
20
28.7719053363506
30
0
41
1
10
55.5817673486639
20
28.7769703477424
30
0
41
1
10
55.5643763662056
20
28.7785238907908
30
0
41
1
10
55.5293141075891
20
28.7799827029782
30
0
41
1
10
55.5115455850737
20
28.7798875844976
30
0
41
1
10
55.4759721797705
20
28.778245573585
30
0
41
1
10
55.4581528245927
20
28.7767026499648
30
0
41
1
10
55.4224413685044
20
28.7722879829401
30
0
41
1
10
55.404559939673
20
28.769412688142
30
0
41
1
10
55.3690792087852
20
28.762446976546
30
0
41
1
10
55.351433698363
20
28.7583512368474
30
0
41
1
10
55.2987819938772
20
28.7442380944159
30
0
41
1
10
55.2646214168106
20
28.7325835760488
30
0
41
1
10
55.214867846639
20
28.7115135059398
30
0
41
1
10
55.1986235867923
20
28.7039190128974
30
0
41
1
10
55.1670272862999
20
28.6875686787053
30
0
41
1
10
55.1516123810472
20
28.6787801853738
30
0
41
1
10
55.1219173322535
20
28.6599454884044
30
0
41
1
10
55.107624341633
20
28.6498937444892
30
0
41
1
10
55.0806005744355
20
28.6284370645015
30
0
41
1
10
55.0678391769214
20
28.6170104995952
30
0
41
1
10
55.0503814609443
20
28.5987574068813
30
0
41
1
10
55.0448502971836
20
28.592494249335
30
0
41
1
10
55.0344524691818
20
28.5795463294323
30
0
41
1
10
55.0295739720566
20
28.5728396519705
30
0
41
1
10
55.0163391407938
20
28.5522780953254
30
0
41
1
10
55.0092556559145
20
28.5379306407565
30
0
41
1
10
55.0047815113686
20
28.5225873277911
30
0
0
SPLINE
5
12B
100
AcDbEntity
8
1
62
256
6
ByLayer
370
18
48
1
60
0
100
AcDbSpline
70
4
71
3
72
8
73
4
40
0
40
0
40
0
40
0
40
1
40
1
40
1
40
1
41
1
10
55.0047815113686
20
28.5225873277911
30
0
41
1
10
55.0029145309737
20
28.5161848380622
30
0
41
1
10
55.0010477982934
20
28.5097831978285
30
0
41
1
10
54.9991813040333
20
28.5033823752159
30
0
0
SPLINE
5
12C
100
AcDbEntity
8
1
62
256
6
ByLayer
370
18
48
1
60
0
100
AcDbSpline
70
4
71
3
72
31
73
27
40
0
40
0
40
0
40
0
40
0.250000000000015
40
0.250000000000015
40
0.375000000000022
40
0.375000000000022
40
0.500000000000029
40
0.500000000000029
40
0.562500000000032
40
0.562500000000032
40
0.625000000000034
40
0.625000000000034
40
0.687500000000036
40
0.687500000000036
40
0.750000000000039
40
0.750000000000039
40
0.78125000000003
40
0.78125000000003
40
0.812500000000021
40
0.843750000000012
40
0.843750000000012
40
0.875000000000004
40
0.875000000000004
40
0.937500000000002
40
0.937500000000002
40
1
40
1
40
1
40
1
41
1
10
54.5661157527902
20
28.380721944809
30
0
41
1
10
54.6088334705278
20
28.3692757668387
30
0
41
1
10
54.6526619977914
20
28.3612435823629
30
0
41
1
10
54.7187561675053
20
28.3553371406188
30
0
41
1
10
54.7408814951717
20
28.3543992758613
30
0
41
1
10
54.7849975822273
20
28.3549905587772
30
0
41
1
10
54.8070140572649
20
28.3565133547635
30
0
41
1
10
54.8395820615701
20
28.3611717655726
30
0
41
1
10
54.8503817400774
20
28.363127636541
30
0
41
1
10
54.8716513203511
20
28.3679617364499
30
0
41
1
10
54.8821877444425
20
28.370857143991
30
0
41
1
10
54.902645402829
20
28.3777058025645
30
0
41
1
10
54.9125445995658
20
28.3816448408396
30
0
41
1
10
54.9315314052197
20
28.3907681151602
30
0
41
1
10
54.9406217855976
20
28.3959483099863
30
0
41
1
10
54.9534535932151
20
28.404932167268
30
0
41
1
10
54.9576219768169
20
28.4081547855231
30
0
41
1
10
54.9654790849567
20
28.4149450219069
30
0
41
1
10
54.9728573851453
20
28.4220699693052
30
0
41
1
10
54.9791974349134
20
28.4299144535323
30
0
41
1
10
54.9849637909654
20
28.4381535351311
30
0
41
1
10
54.9875555070192
20
28.4424774900069
30
0
41
1
10
54.9941844907697
20
28.4556642492765
30
0
41
1
10
54.9971785840459
20
28.4648652456212
30
0
41
1
10
55.0003032348271
20
28.4840784453762
30
0
41
1
10
55.0003760462772
20
28.4937330844684
30
0
41
1
10
54.9991813040333
20
28.5033823752159
30
0
0
SPLINE
5
12D
100
AcDbEntity
8
1
62
256
6
ByLayer
370
18
48
1
60
0
100
AcDbSpline
70
4
71
3
72
32
73
28
40
0
40
0
40
0
40
0
40
0.124999999999996
40
0.124999999999996
40
0.249999999999991
40
0.249999999999991
40
0.374999999999987
40
0.374999999999987
40
0.499999999999983
40
0.499999999999983
40
0.562500000000002
40
0.562500000000002
40
0.625000000000022
40
0.625000000000022
40
0.687500000000041
40
0.687500000000041
40
0.75000000000006
40
0.75000000000006
40
0.81250000000008
40
0.81250000000008
40
0.84375000000007
40
0.84375000000007
40
0.87500000000006
40
0.87500000000006
40
0.93750000000003
40
0.93750000000003
40
1
40
1
40
1
40
1
41
1
10
56.1853938079811
20
28.8146061920188
30
0
41
1
10
56.1697472170071
20
28.7989596010448
30
0
41
1
10
56.1534805629466
20
28.783974218446
30
0
41
1
10
56.1196630635049
20
28.7553730976388
30
0
41
1
10
56.1021229747562
20
28.7417700532137
30
0
41
1
10
56.0658919443272
20
28.7162986654906
30
0
41
1
10
56.04720405575
20
28.7044260198488
30
0
41
1
10
56.0086421449336
20
28.682849067979
30
0
41
1
10
55.9888327619261
20
28.6731701443303
30
0
41
1
10
55.9582284143453
20
28.6608998233447
30
0
41
1
10
55.9479292597395
20
28.6572088948987
30
0
41
1
10
55.9271055667995
20
28.6507694800969
30
0
41
1
10
55.9165407815761
20
28.6480114758232
30
0
41
1
10
55.8953331296467
20
28.6437073726471
30
0
41
1
10
55.8847406164589
20
28.6421661249307
30
0
41
1
10
55.8635951583773
20
28.6405864810292
30
0
41
1
10
55.8530079011504
20
28.640545722257
30
0
41
1
10
55.8320431326246
20
28.6424452250039
30
0
41
1
10
55.8219020922859
20
28.6443615900849
30
0
41
1
10
55.8073337628614
20
28.6490112248223
30
0
41
1
10
55.8025762460167
20
28.6508689259076
30
0
41
1
10
55.7935531016653
20
28.6551279083329
30
0
41
1
10
55.7892552183081
20
28.6575372823031
30
0
41
1
10
55.7770242375963
20
28.6656278046845
30
0
41
1
10
55.7696821544951
20
28.6722982379137
30
0
41
1
10
55.7576274628784
20
28.6871592331683
30
0
41
1
10
55.7527937036996
20
28.6953798474433
30
0
41
1
10
55.7490178238973
20
28.7043004651688
30
0
0
SPLINE
5
12E
100
AcDbEntity
8
1
62
256
6
ByLayer
370
18
48
1
60
0
100
AcDbSpline
70
4
71
3
72
8
73
4
40
0
40
0
40
0
40
0
40
1
40
1
40
1
40
1
41
1
10
55.7490178238973
20
28.7043004651688
30
0
41
1
10
55.7442009811456
20
28.7089104930264
30
0
41
1
10
55.7393835231056
20
28.7135211097545
30
0
41
1
10
55.7345654257907
20
28.7181323383097
30
0
0
SPLINE
5
12F
100
AcDbEntity
8
1
62
256
6
ByLayer
370
18
48
1
60
0
100
AcDbSpline
70
4
71
3
72
32
73
28
40
0
40
0
40
0
40
0
40
0.125000000000016
40
0.125000000000016
40
0.250000000000032
40
0.250000000000032
40
0.375000000000047
40
0.375000000000047
40
0.500000000000063
40
0.500000000000063
40
0.562500000000068
40
0.562500000000068
40
0.625000000000073
40
0.625000000000073
40
0.687500000000077
40
0.687500000000077
40
0.750000000000082
40
0.750000000000082
40
0.812500000000087
40
0.812500000000087
40
0.843750000000072
40
0.843750000000072
40
0.875000000000056
40
0.875000000000056
40
0.937500000000028
40
0.937500000000028
40
1
40
1
40
1
40
1
41
1
10
55.4338842472099
20
31.619278055191
30
0
41
1
10
55.4552578879631
20
31.6135510054118
30
0
41
1
10
55.4763689370092
20
31.6069563610603
30
0
41
1
10
55.5180469839259
20
31.5919701078549
30
0
41
1
10
55.5385976103412
20
31.5835814676265
30
0
41
1
10
55.5787719943935
20
31.5649401687311
30
0
41
1
10
55.5983979514181
20
31.5546923053011
30
0
41
1
10
55.6363650952818
20
31.5320851868505
30
0
41
1
10
55.6546519805466
20
31.5197692197571
30
0
41
1
10
55.680580564023
20
31.4994002377787
30
0
41
1
10
55.6889265791237
20
31.4923263724756
30
0
41
1
10
55.7049151223976
20
31.4775122327898
30
0
41
1
10
55.712586016774
20
31.4697418625377
30
0
41
1
10
55.7269173054299
20
31.4535275488002
30
0
41
1
10
55.7335483216996
20
31.4451247871479
30
0
41
1
10
55.7454890624881
20
31.4276021052254
30
0
41
1
10
55.7508179892337
20
31.4184536508965
30
0
41
1
10
55.7596553558632
20
31.3993478773953
30
0
41
1
10
55.7630662551894
20
31.3896072963007
30
0
41
1
10
55.7663237181008
20
31.3746659355596
30
0
41
1
10
55.7670936601907
20
31.3696169545705
30
0
41
1
10
55.7679168453918
20
31.3596731911275
30
0
41
1
10
55.767979208005
20
31.3547464279727
30
0
41
1
10
55.7670881004487
20
31.3401088267723
30
0
41
1
10
55.7649823773686
20
31.3304151796754
30
0
41
1
10
55.7581397237609
20
31.3125450128732
30
0
41
1
10
55.7534373425534
20
31.3042485474911
30
0
41
1
10
55.7475998008869
20
31.2965182307979
30
0
0
SPLINE
5
130
100
AcDbEntity
8
1
62
256
6
ByLayer
370
18
48
1
60
0
100
AcDbSpline
70
4
71
3
72
40
73
36
40
0
40
0
40
0
40
0
40
0.0625000000000074
40
0.0625000000000074
40
0.0937500000000112
40
0.0937500000000112
40
0.125000000000015
40
0.125000000000015
40
0.187500000000012
40
0.187500000000012
40
0.250000000000008
40
0.250000000000008
40
0.312500000000005
40
0.312500000000005
40
0.375000000000002
40
0.375000000000002
40
0.437499999999999
40
0.437499999999999
40
0.499999999999996
40
0.499999999999996
40
0.625000000000006
40
0.625000000000006
40
0.687500000000008
40
0.687500000000008
40
0.75000000000001
40
0.75000000000001
40
0.812500000000011
40
0.812500000000011
40
0.875000000000013
40
0.875000000000013
40
0.906250000000004
40
0.906250000000004
40
0.937499999999996
40
0.937499999999996
40
1
40
1
40
1
40
1
41
1
10
55.7428472464182
20
31.2770861503216
30
0
41
1
10
55.7390521698429
20
31.2615689723679
30
0
41
1
10
55.7380077928266
20
31.2455836207293
30
0
41
1
10
55.7391971967182
20
31.2211017186648
30
0
41
1
10
55.7400716432225
20
31.2128563317048
30
0
41
1
10
55.7426068474683
20
31.1964437049438
30
0
41
1
10
55.7442690506266
20
31.1882439994886
30
0
41
1
10
55.7502829879187
20
31.1636517361253
30
0
41
1
10
55.7556081308825
20
31.1474376539982
30
0
41
1
10
55.7682910741048
20
31.115340129164
30
0
41
1
10
55.7756411575881
20
31.099502325034
30
0
41
1
10
55.7919089184828
20
31.0684081122645
30
0
41
1
10
55.800875554761
20
31.0530676796187
30
0
41
1
10
55.8200842805763
20
31.0230812123833
30
0
41
1
10
55.8303301692164
20
31.0084206599304
30
0
41
1
10
55.8520091110531
20
30.9797009652641
30
0
41
1
10
55.8634399038073
20
30.9656528410393
30
0
41
1
10
55.8872127524489
20
30.9384084825436
30
0
41
1
10
55.8995825222862
20
30.9251748921046
30
0
41
1
10
55.938130714402
20
30.886633749683
30
0
41
1
10
55.9653041119101
20
30.862877081319
30
0
41
1
10
56.0084281129697
20
30.8303242606759
30
0
41
1
10
56.0231272667967
20
30.8200535655041
30
0
41
1
10
56.0530852218136
20
30.8008655337081
30
0
41
1
10
56.068403732926
20
30.7919100808282
30
0
41
1
10
56.099562583371
20
30.7756107626909
30
0
41
1
10
56.1154141442642
20
30.7682585416751
30
0
41
1
10
56.1475080578131
20
30.7555836127699
30
0
41
1
10
56.163784452057
20
30.7502452007881
30
0
41
1
10
56.1883209520334
20
30.7442529216169
30
0
41
1
10
56.1965105874567
20
30.7425943720607
30
0
41
1
10
56.2129227290196
20
30.7400635488183
30
0
41
1
10
56.2211701306391
20
30.7391919851065
30
0
41
1
10
56.2455943766665
20
30.7380110633407
30
0
41
1
10
56.2615613792424
20
30.7390503127723
30
0
41
1
10
56.2770861503217
20
30.7428472464181
30
0
0
SPLINE
5
131
100
AcDbEntity
8
1
62
256
6
ByLayer
370
18
48
1
60
0
100
AcDbSpline
70
4
71
3
72
8
73
4
40
0
40
0
40
0
40
0
40
1
40
1
40
1
40
1
41
1
10
56.2770861503217
20
30.7428472464181
30
0
41
1
10
56.2835643592719
20
30.7444316388322
30
0
41
1
10
56.2900417086802
20
30.7460158210258
30
0
41
1
10
56.296518230798
20
30.7475998008868
30
0
0
SPLINE
5
132
100
AcDbEntity
8
1
62
256
6
ByLayer
370
18
48
1
60
0
100
AcDbSpline
70
4
71
3
72
31
73
27
40
0
40
0
40
0
40
0
40
0.249999999999957
40
0.249999999999957
40
0.374999999999952
40
0.374999999999952
40
0.499999999999947
40
0.499999999999947
40
0.562499999999949
40
0.562499999999949
40
0.624999999999952
40
0.624999999999952
40
0.687499999999954
40
0.687499999999954
40
0.749999999999956
40
0.749999999999956
40
0.781249999999953
40
0.781249999999953
40
0.81249999999995
40
0.843749999999947
40
0.843749999999947
40
0.874999999999944
40
0.874999999999944
40
0.937499999999972
40
0.937499999999972
40
1
40
1
40
1
40
1
41
1
10
56.619278055191
20
30.4338842472098
30
0
41
1
10
56.6078318772207
20
30.4766019649475
30
0
41
1
10
56.5928736893928
20
30.5185746752061
30
0
41
1
10
56.5649417331322
20
30.5787671260924
30
0
41
1
10
56.5546912840044
20
30.5983971542973
30
0
41
1
10
56.5321211744505
20
30.6363071649451
30
0
41
1
10
56.5197941569229
20
30.6546125936363
30
0
41
1
10
56.4994758526683
20
30.6804881073106
30
0
41
1
10
56.4923821794694
20
30.6888629677665
30
0
41
1
10
56.4775609360071
20
30.7048659146568
30
0
41
1
10
56.4697852274765
20
30.7125430218145
30
0
41
1
10
56.4536252859768
20
30.7268355443924
30
0
41
1
10
56.4452643803956
20
30.733438981106
30
0
41
1
10
56.4278699902413
20
30.7453203999787
30
0
41
1
10
56.4188386197364
20
30.7506028029029
30
0
41
1
10
56.4046424672978
20
30.7572235456354
30
0
41
1
10
56.3997674062212
20
30.7592221625996
30
0
41
1
10
56.3899583349453
20
30.762631499657
30
0
41
1
10
56.3800987994035
20
30.765458821358
30
0
41
1
10
56.3701352518991
20
30.7670272234049
30
0
41
1
10
56.3601168199047
20
30.7679014934338
30
0
41
1
10
56.3550763071105
20
30.7679840079379
30
0
41
1
10
56.3403417467142
20
30.7671314966323
30
0
41
1
10
56.3308764035015
20
30.7651239592985
30
0
41
1
10
56.3126749590351
20
30.7582233863754
30
0
41
1
10
56.3042773905918
20
30.7534591233948
30
0
41
1
10
56.296518230798
20
30.7475998008868
30
0
0
SPLINE
5
133
100
AcDbEntity
8
1
62
256
6
ByLayer
370
18
48
1
60
0
100
AcDbSpline
70
4
71
3
72
8
73
4
40
0
40
0
40
0
40
0
40
1
40
1
40
1
40
1
41
1
10
55.7475998008869
20
31.2965182307979
30
0
41
1
10
55.7460158210259
20
31.2900417086802
30
0
41
1
10
55.7444316388322
20
31.2835643592718
30
0
41
1
10
55.7428472464182
20
31.2770861503216
30
0
0
SPLINE
5
134
100
AcDbEntity
8
1
62
256
6
ByLayer
370
18
48
1
60
0
100
AcDbSpline
70
4
71
3
72
40
73
36
40
0
40
0
40
0
40
0
40
0.0625000000000071
40
0.0625000000000071
40
0.0937500000000108
40
0.0937500000000108
40
0.125000000000014
40
0.125000000000014
40
0.187500000000011
40
0.187500000000011
40
0.250000000000007
40
0.250000000000007
40
0.312500000000003
40
0.312500000000003
40
0.375
40
0.375
40
0.437499999999996
40
0.437499999999996
40
0.499999999999993
40
0.499999999999993
40
0.625000000000011
40
0.625000000000011
40
0.687500000000016
40
0.687500000000016
40
0.750000000000022
40
0.750000000000022
40
0.812500000000027
40
0.812500000000027
40
0.875000000000032
40
0.875000000000032
40
0.906250000000024
40
0.906250000000024
40
0.937500000000016
40
0.937500000000016
40
1
40
1
40
1
40
1
41
1
10
54.2571527535819
20
28.7229138496783
30
0
41
1
10
54.2609478301572
20
28.738431027632
30
0
41
1
10
54.2619922071735
20
28.7544163792707
30
0
41
1
10
54.2608028032818
20
28.7788982813351
30
0
41
1
10
54.2599283567775
20
28.7871436682951
30
0
41
1
10
54.2573931525318
20
28.8035562950562
30
0
41
1
10
54.2557309493735
20
28.8117560005113
30
0
41
1
10
54.2497170120814
20
28.8363482638747
30
0
41
1
10
54.2443918691176
20
28.8525623460018
30
0
41
1
10
54.2317089258953
20
28.8846598708359
30
0
41
1
10
54.2243588424119
20
28.9004976749659
30
0
41
1
10
54.2080910815173
20
28.9315918877355
30
0
41
1
10
54.1991244452391
20
28.9469323203812
30
0
41
1
10
54.1799157194238
20
28.9769187876166
30
0
41
1
10
54.1696698307837
20
28.9915793400696
30
0
41
1
10
54.147990888947
20
29.0202990347358
30
0
41
1
10
54.1365600961928
20
29.0343471589606
30
0
41
1
10
54.1127872475512
20
29.0615915174564
30
0
41
1
10
54.1004174777138
20
29.0748251078954
30
0
41
1
10
54.0618692855981
20
29.1133662503169
30
0
41
1
10
54.03469588809
20
29.1371229186809
30
0
41
1
10
53.9915718870303
20
29.169675739324
30
0
41
1
10
53.9768727332034
20
29.1799464344958
30
0
41
1
10
53.9469147781864
20
29.1991344662918
30
0
41
1
10
53.931596267074
20
29.2080899191718
30
0
41
1
10
53.9004374166291
20
29.224389237309
30
0
41
1
10
53.8845858557359
20
29.2317414583248
30
0
41
1
10
53.8524919421869
20
29.24441638723
30
0
41
1
10
53.8362155479431
20
29.2497547992118
30
0
41
1
10
53.8116790479667
20
29.2557470783831
30
0
41
1
10
53.8034894125433
20
29.2574056279392
30
0
41
1
10
53.7870772709805
20
29.2599364511816
30
0
41
1
10
53.7788298693609
20
29.2608080148935
30
0
41
1
10
53.7544056233335
20
29.2619889366593
30
0
41
1
10
53.7384386207576
20
29.2609496872276
30
0
41
1
10
53.7229138496784
20
29.2571527535818
30
0
0
SPLINE
5
135
100
AcDbEntity
8
1
62
256
6
ByLayer
370
18
48
1
60
0
100
AcDbSpline
70
4
71
3
72
8
73
4
40
0
40
0
40
0
40
0
40
1
40
1
40
1
40
1
41
1
10
53.7229138496784
20
29.2571527535818
30
0
41
1
10
53.7164356407282
20
29.2555683611678
30
0
41
1
10
53.7099582913198
20
29.2539841789741
30
0
41
1
10
53.7034817692021
20
29.2524001991131
30
0
0
SPLINE
5
136
100
AcDbEntity
8
1
62
256
6
ByLayer
370
18
48
1
60
0
100
AcDbSpline
70
4
71
3
72
31
73
27
40
0
40
0
40
0
40
0
40
0.249999999999939
40
0.249999999999939
40
0.374999999999917
40
0.374999999999917
40
0.499999999999894
40
0.499999999999894
40
0.562499999999903
40
0.562499999999903
40
0.624999999999911
40
0.624999999999911
40
0.68749999999992
40
0.68749999999992
40
0.749999999999928
40
0.749999999999928
40
0.781249999999928
40
0.781249999999928
40
0.812499999999929
40
0.843749999999929
40
0.843749999999929
40
0.874999999999929
40
0.874999999999929
40
0.937499999999965
40
0.937499999999965
40
1
40
1
40
1
40
1
41
1
10
53.380721944809
20
29.5661157527901
30
0
41
1
10
53.3921681227794
20
29.5233980350524
30
0
41
1
10
53.4071263106072
20
29.4814253247939
30
0
41
1
10
53.4350582668678
20
29.4212328739075
30
0
41
1
10
53.4453087159957
20
29.4016028457026
30
0
41
1
10
53.4678788255495
20
29.3636928350548
30
0
41
1
10
53.4802058430772
20
29.3453874063636
30
0
41
1
10
53.5005241473317
20
29.3195118926893
30
0
41
1
10
53.5076178205306
20
29.3111370322335
30
0
41
1
10
53.522439063993
20
29.2951340853431
30
0
41
1
10
53.5302147725236
20
29.2874569781854
30
0
41
1
10
53.5463747140232
20
29.2731644556075
30
0
41
1
10
53.5547356196045
20
29.266561018894
30
0
41
1
10
53.5721300097587
20
29.2546796000213
30
0
41
1
10
53.5811613802636
20
29.249397197097
30
0
41
1
10
53.5953575327023
20
29.2427764543646
30
0
41
1
10
53.6002325937788
20
29.2407778374003
30
0
41
1
10
53.6100416650548
20
29.2373685003429
30
0
41
1
10
53.6199011863565
20
29.2345409888983
30
0
41
1
10
53.6298647481009
20
29.232972776595
30
0
41
1
10
53.6398831800953
20
29.2320985065662
30
0
41
1
10
53.6449236928895
20
29.232015992062
30
0
41
1
10
53.6596582532859
20
29.2328685033677
30
0
41
1
10
53.6691235964985
20
29.2348760407015
30
0
41
1
10
53.6873250409649
20
29.2417766136245
30
0
41
1
10
53.6957226094083
20
29.2465408766052
30
0
41
1
10
53.7034817692021
20
29.2524001991131
30
0
0
SPLINE
5
137
100
AcDbEntity
8
1
62
256
6
ByLayer
370
18
48
1
60
0
100
AcDbSpline
70
4
71
3
72
32
73
28
40
0
40
0
40
0
40
0
40
0.125000000000017
40
0.125000000000017
40
0.250000000000035
40
0.250000000000035
40
0.375000000000052
40
0.375000000000052
40
0.500000000000069
40
0.500000000000069
40
0.562500000000057
40
0.562500000000057
40
0.625000000000044
40
0.625000000000044
40
0.687500000000032
40
0.687500000000032
40
0.750000000000019
40
0.750000000000019
40
0.812500000000007
40
0.812500000000007
40
0.843750000000001
40
0.843750000000001
40
0.874999999999994
40
0.874999999999994
40
0.937499999999997
40
0.937499999999997
40
1
40
1
40
1
40
1
41
1
10
54.5661157527902
20
28.380721944809
30
0
41
1
10
54.544742112037
20
28.3864489945881
30
0
41
1
10
54.5236310629908
20
28.3930436389396
30
0
41
1
10
54.4819530160742
20
28.408029892145
30
0
41
1
10
54.4614023896589
20
28.4164185323735
30
0
41
1
10
54.4212280056065
20
28.4350598312688
30
0
41
1
10
54.401602048582
20
28.4453076946988
30
0
41
1
10
54.3636349047183
20
28.4679148131494
30
0
41
1
10
54.3453480194535
20
28.4802307802428
30
0
41
1
10
54.319419435977
20
28.5005997622212
30
0
41
1
10
54.3110734208763
20
28.5076736275243
30
0
41
1
10
54.2950848776024
20
28.5224877672101
30
0
41
1
10
54.287413983226
20
28.5302581374623
30
0
41
1
10
54.2730826945702
20
28.5464724511997
30
0
41
1
10
54.2664516783004
20
28.554875212852
30
0
41
1
10
54.2545109375119
20
28.5723978947746
30
0
41
1
10
54.2491820107664
20
28.5815463491034
30
0
41
1
10
54.2403446441368
20
28.6006521226046
30
0
41
1
10
54.2369337448106
20
28.6103927036993
30
0
41
1
10
54.2336762818992
20
28.6253340644403
30
0
41
1
10
54.2329063398093
20
28.6303830454294
30
0
41
1
10
54.2320831546082
20
28.6403268088724
30
0
41
1
10
54.2320207919951
20
28.6452535720273
30
0
41
1
10
54.2329118995513
20
28.6598911732276
30
0
41
1
10
54.2350176226315
20
28.6695848203246
30
0
41
1
10
54.2418602762391
20
28.6874549871267
30
0
41
1
10
54.2465626574467
20
28.6957514525088
30
0
41
1
10
54.2524001991131
20
28.703481769202
30
0
0
SPLINE
5
138
100
AcDbEntity
8
1
62
256
6
ByLayer
370
18
48
1
60
0
100
AcDbSpline
70
4
71
3
72
8
73
4
40
0
40
0
40
0
40
0
40
1
40
1
40
1
40
1
41
1
10
54.2524001991131
20
28.703481769202
30
0
41
1
10
54.2539841789742
20
28.7099582913198
30
0
41
1
10
54.2555683611678
20
28.7164356407281
30
0
41
1
10
54.2571527535819
20
28.7229138496783
30
0
0
SPLINE
5
139
100
AcDbEntity
8
1
62
256
6
ByLayer
370
18
48
1
60
0
100
AcDbSpline
70
4
71
3
72
31
73
27
40
0
40
0
40
0
40
0
40
0.250000000000005
40
0.250000000000005
40
0.375000000000006
40
0.375000000000006
40
0.500000000000007
40
0.500000000000007
40
0.562499999999991
40
0.562499999999991
40
0.624999999999975
40
0.624999999999975
40
0.687499999999959
40
0.687499999999959
40
0.749999999999943
40
0.749999999999943
40
0.78124999999995
40
0.78124999999995
40
0.812499999999957
40
0.843749999999964
40
0.843749999999964
40
0.874999999999971
40
0.874999999999971
40
0.937499999999986
40
0.937499999999986
40
1
40
1
40
1
40
1
41
1
10
55.4338842472099
20
31.619278055191
30
0
41
1
10
55.3911665294722
20
31.6307242331613
30
0
41
1
10
55.3473380022087
20
31.638756417637
30
0
41
1
10
55.2812438324948
20
31.6446628593811
30
0
41
1
10
55.2591185048284
20
31.6456007241387
30
0
41
1
10
55.2150024177727
20
31.6450094412228
30
0
41
1
10
55.1929859427352
20
31.6434866452365
30
0
41
1
10
55.16041793843
20
31.6388282344274
30
0
41
1
10
55.1496182599226
20
31.6368723634589
30
0
41
1
10
55.1283486796489
20
31.63203826355
30
0
41
1
10
55.1178122555575
20
31.6291428560089
30
0
41
1
10
55.0973545971711
20
31.6222941974355
30
0
41
1
10
55.0874554004342
20
31.6183551591603
30
0
41
1
10
55.0684685947803
20
31.6092318848397
30
0
41
1
10
55.0593782144025
20
31.6040516900136
30
0
41
1
10
55.046546406785
20
31.595067832732
30
0
41
1
10
55.0423780231832
20
31.5918452144768
30
0
41
1
10
55.0345209150434
20
31.585054978093
30
0
41
1
10
55.0271426148548
20
31.5779300306948
30
0
41
1
10
55.0208025650867
20
31.5700855464677
30
0
41
1
10
55.0150362090347
20
31.5618464648688
30
0
41
1
10
55.0124444929808
20
31.557522509993
30
0
41
1
10
55.0058155092304
20
31.5443357507234
30
0
41
1
10
55.0028214159541
20
31.5351347543788
30
0
41
1
10
54.999696765173
20
31.5159215546238
30
0
41
1
10
54.9996239537229
20
31.5062669155315
30
0
41
1
10
55.0008186959668
20
31.4966176247841
30
0
0
SPLINE
5
13A
100
AcDbEntity
8
1
62
256
6
ByLayer
370
18
48
1
60
0
100
AcDbSpline
70
4
71
3
72
8
73
4
40
0
40
0
40
0
40
0
40
1
40
1
40
1
40
1
41
1
10
54.9952184886314
20
31.4774126722089
30
0
41
1
10
54.9970854690264
20
31.4838151619378
30
0
41
1
10
54.9989522017066
20
31.4902168021714
30
0
41
1
10
55.0008186959668
20
31.4966176247841
30
0
0
SPLINE
5
13B
100
AcDbEntity
8
1
62
256
6
ByLayer
370
18
48
1
60
0
100
AcDbSpline
70
4
71
3
72
31
73
27
40
0
40
0
40
0
40
0
40
0.249999999999967
40
0.249999999999967
40
0.374999999999955
40
0.374999999999955
40
0.499999999999944
40
0.499999999999944
40
0.562499999999928
40
0.562499999999928
40
0.624999999999912
40
0.624999999999912
40
0.687499999999895
40
0.687499999999895
40
0.749999999999879
40
0.749999999999879
40
0.781249999999889
40
0.781249999999889
40
0.8124999999999
40
0.84374999999991
40
0.84374999999991
40
0.874999999999921
40
0.874999999999921
40
0.93749999999996
40
0.93749999999996
40
1
40
1
40
1
40
1
41
1
10
53.8146061920189
20
31.1853938079811
30
0
41
1
10
53.8458777317863
20
31.2166653477485
30
0
41
1
10
53.8798182575691
20
31.2455356871841
30
0
41
1
10
53.9341042667113
20
31.2836979006374
30
0
41
1
10
53.9527964301587
20
31.295572779176
30
0
41
1
10
53.9912977237224
20
31.3171187566778
30
0
41
1
10
54.0111259483999
20
31.3268082141877
30
0
41
1
10
54.0416598728833
20
31.3390579142383
30
0
41
1
10
54.0519906043076
20
31.3427639195468
30
0
41
1
10
54.0728276511068
20
31.3492122563581
30
0
41
1
10
54.0834001658056
20
31.3519729719189
30
0
41
1
10
54.104541346957
20
31.3562706888057
30
0
41
1
10
54.1150838219457
20
31.3578089799613
30
0
41
1
10
54.136088515139
20
31.359401395461
30
0
41
1
10
54.1465511128893
20
31.3594604053339
30
0
41
1
10
54.1621557129034
20
31.3580960605128
30
0
41
1
10
54.1673769481229
20
31.357389383038
30
0
41
1
10
54.1775765215641
20
31.3554374199019
30
0
41
1
10
54.1875288732028
20
31.3529563559915
30
0
41
1
10
54.1969416769373
20
31.3493326868124
30
0
41
1
10
54.206055028565
20
31.34508061087
30
0
41
1
10
54.2104614979449
20
31.3426318141297
30
0
41
1
10
54.2227957459089
20
31.3345262374838
30
0
41
1
10
54.2299892049197
20
31.3280549875473
30
0
41
1
10
54.2423018317517
20
31.3129781938621
30
0
41
1
10
54.2471922078633
20
31.3046534368689
30
0
41
1
10
54.2509821761028
20
31.2956995348312
30
0
0
SPLINE
5
13C
100
AcDbEntity
8
1
62
256
6
ByLayer
370
18
48
1
60
0
100
AcDbSpline
70
4
71
3
72
8
73
4
40
0
40
0
40
0
40
0
40
1
40
1
40
1
40
1
41
1
10
54.2654345742093
20
31.2818676616902
30
0
41
1
10
54.2606164768944
20
31.2864788902454
30
0
41
1
10
54.2557990188544
20
31.2910895069736
30
0
41
1
10
54.2509821761028
20
31.2956995348312
30
0
0
SPLINE
5
13D
100
AcDbEntity
8
1
62
256
6
ByLayer
370
18
48
1
60
0
100
AcDbSpline
70
4
71
3
72
40
73
36
40
0
40
0
40
0
40
0
40
0.0312500000000073
40
0.0312500000000073
40
0.0625000000000148
40
0.0625000000000148
40
0.12500000000003
40
0.12500000000003
40
0.156250000000037
40
0.156250000000037
40
0.187500000000045
40
0.187500000000045
40
0.250000000000046
40
0.250000000000046
40
0.312500000000048
40
0.312500000000048
40
0.375000000000049
40
0.375000000000049
40
0.50000000000003
40
0.50000000000003
40
0.62500000000001
40
0.62500000000001
40
0.687500000000012
40
0.687500000000012
40
0.750000000000014
40
0.750000000000014
40
0.812500000000017
40
0.812500000000017
40
0.875000000000019
40
0.875000000000019
40
0.906250000000021
40
0.906250000000021
40
0.937500000000024
40
0.937500000000024
40
1
40
1
40
1
40
1
41
1
10
54.9952184886314
20
31.4774126722089
30
0
41
1
10
54.9929725818162
20
31.4697107191756
30
0
41
1
10
54.9900397867844
20
31.4622192485123
30
0
41
1
10
54.9830513627287
20
31.4475743009431
30
0
41
1
10
54.9789939426331
20
31.4404345847245
30
0
41
1
10
54.9656536675154
20
31.4198234284391
30
0
41
1
10
54.9551511926782
20
31.4069898029415
30
0
41
1
10
54.9376073223693
20
31.3887037405444
30
0
41
1
10
54.931447489856
20
31.3827693882928
30
0
41
1
10
54.918762365336
20
31.3713524753212
30
0
41
1
10
54.9122150492716
20
31.3658461365974
30
0
41
1
10
54.8920272305476
20
31.3498556670066
30
0
41
1
10
54.877845318544
20
31.3398953982052
30
0
41
1
10
54.8482360285015
20
31.3211323483677
30
0
41
1
10
54.8327302370075
20
31.3122981231887
30
0
41
1
10
54.8011652113233
20
31.2959795291495
30
0
41
1
10
54.7850578404231
20
31.2884580819767
30
0
41
1
10
54.7358478670699
20
31.2676090729259
30
0
41
1
10
54.7018709519747
20
31.2559673798694
30
0
41
1
10
54.6316086290448
20
31.2370733875578
30
0
41
1
10
54.5958936398118
20
31.229997775653
30
0
41
1
10
54.5421830601265
20
31.2233294374478
30
0
41
1
10
54.5243028830505
20
31.2217745473141
30
0
41
1
10
54.4887217484535
20
31.2201174430761
30
0
41
1
10
54.4709568801303
20
31.2200128372328
30
0
41
1
10
54.4357783017964
20
31.2214629409986
30
0
41
1
10
54.4183526459123
20
31.2230159461267
30
0
41
1
10
54.384176366635
20
31.228078356884
30
0
41
1
10
54.3673898311544
20
31.2315909403208
30
0
41
1
10
54.3431118789369
20
31.2386695611044
30
0
41
1
10
54.335179601819
20
31.241328484613
30
0
41
1
10
54.3196803679222
20
31.2473448891099
30
0
41
1
10
54.3120918693634
20
31.2507155647342
30
0
41
1
10
54.2903199043379
20
31.2619128010159
30
0
41
1
10
54.2769943356196
20
31.2708042276367
30
0
41
1
10
54.2654345742093
20
31.2818676616902
30
0
0
LINE
5
84
100
AcDbEntity
8
80
62
256
6
ByLayer
370
18
48
1
60
0
100
AcDbLine
10
0
20
0
30
0
11
-5
21
0
31
0
39
0
210
0
220
0
230
1
0
LINE
5
85
100
AcDbEntity
8
81
62
256
6
ByLayer
370
18
48
1
60
0
100
AcDbLine
10
60
20
35
30
0
11
70
21
35
31
0
39
0
210
0
220
0
230
1
0
LINE
5
86
100
AcDbEntity
8
4
62
256
6
ByLayer
370
13
48
0.05
60
0
100
AcDbLine
10
0
20
0
30
0
11
60
21
0
31
0
39
0
210
0
220
0
230
1
0
LINE
5
88
100
AcDbEntity
8
SK4
62
256
6
ByLayer
370
13
48
0.05
60
0
100
AcDbLine
10
-33
20
0
30
0
11
55
21
0
31
0
39
0
210
0
220
0
230
1
0
LINE
5
8A
100
AcDbEntity
8
1
62
256
6
ByLayer
370
18
48
1
60
0
100
AcDbLine
10
0
20
-24.7
30
0
11
0.3
21
-25
31
0
39
0
210
0
220
0
230
1
0
LINE
5
8B
100
AcDbEntity
8
1
62
256
6
ByLayer
370
18
48
1
60
0
100
AcDbLine
10
0.3
20
25
30
0
11
0
21
24.7
31
0
39
0
210
0
220
0
230
1
0
LINE
5
8C
100
AcDbEntity
8
1
62
256
6
ByLayer
370
18
48
1
60
0
100
AcDbLine
10
20
20
25
30
0
11
0.3
21
25
31
0
39
0
210
0
220
0
230
1
0
LINE
5
8D
100
AcDbEntity
8
1
62
256
6
ByLayer
370
18
48
1
60
0
100
AcDbLine
10
0.3
20
-25
30
0
11
19.3
21
-25
31
0
39
0
210
0
220
0
230
1
0
LINE
5
8E
100
AcDbEntity
8
SK1
62
256
6
ByLayer
370
18
48
1
60
0
100
AcDbLine
10
0
20
17.570321
30
0
11
-0.105571
21
17.570321
31
0
39
0
210
0
220
0
230
1
0
LINE
5
90
100
AcDbEntity
8
SK1
62
256
6
ByLayer
370
18
48
1
60
0
100
AcDbLine
10
-0.105571
20
-17.570321
30
0
11
0
21
-17.570321
31
0
39
0
210
0
220
0
230
1
0
LINE
5
91
100
AcDbEntity
8
1
62
256
6
ByLayer
370
18
48
1
60
0
100
AcDbLine
10
50.550571
20
32.280863
30
0
11
49.535486
21
31.694804
31
0
39
0
210
0
220
0
230
1
0
LINE
5
92
100
AcDbEntity
8
1
62
256
6
ByLayer
370
18
48
1
60
0
100
AcDbLine
10
55.746206
20
24.806509
30
0
11
56.051509
21
25.111812
31
0
39
0
210
0
220
0
230
1
0
LINE
5
93
100
AcDbEntity
8
1
62
256
6
ByLayer
370
18
48
1
60
0
100
AcDbLine
10
49.10592
20
31.446794
30
0
11
49.535486
21
31.694804
31
0
39
0
210
0
220
0
230
1
0
LINE
5
94
100
AcDbEntity
8
1
62
256
6
ByLayer
370
18
48
1
60
0
100
AcDbLine
10
49.535486
20
31.694804
30
0
11
50.123926
21
31.106364
31
0
39
0
210
0
220
0
230
1
0
LINE
5
95
100
AcDbEntity
8
1
62
256
6
ByLayer
370
18
48
1
60
0
100
AcDbLine
10
55.746214
20
24.806517
30
0
11
55.568587
21
24.62889
31
0
39
0
210
0
220
0
230
1
0
LINE
5
96
100
AcDbEntity
8
1
62
256
6
ByLayer
370
18
48
1
60
0
100
AcDbLine
10
55.525078
20
25.027653
30
0
11
55.746214
21
24.806517
31
0
39
0
210
0
220
0
230
1
0
LINE
5
97
100
AcDbEntity
8
1
62
256
6
ByLayer
370
18
48
1
60
0
100
AcDbLine
10
48.880708
20
31.316768
30
0
11
49.105931
21
31.4468
31
0
39
0
210
0
220
0
230
1
0
LINE
5
98
100
AcDbEntity
8
1
62
256
6
ByLayer
370
18
48
1
60
0
100
AcDbLine
10
50.027636
20
30.525095
30
0
11
49.105931
21
31.4468
31
0
39
0
210
0
220
0
230
1
0
LINE
5
99
100
AcDbEntity
8
1
62
256
6
ByLayer
370
18
48
1
60
0
100
AcDbLine
10
53.444365
20
22.504668
30
0
11
55.568587
21
24.62889
31
0
39
0
210
0
220
0
230
1
0
LINE
5
9A
100
AcDbEntity
8
1
62
256
6
ByLayer
370
18
48
1
60
0
100
AcDbLine
10
46.187304
20
29.76173
30
0
11
48.880708
21
31.316768
31
0
39
0
210
0
220
0
230
1
0
LINE
5
9B
100
AcDbEntity
8
1
62
256
6
ByLayer
370
18
48
1
60
0
100
AcDbLine
10
55.568587
20
24.62889
30
0
11
55.193725
21
25.003751
31
0
39
0
210
0
220
0
230
1
0
LINE
5
9C
100
AcDbEntity
8
1
62
256
6
ByLayer
370
18
48
1
60
0
100
AcDbLine
10
48.880708
20
31.316768
30
0
11
50.003752
21
30.193724
31
0
39
0
210
0
220
0
230
1
0
LINE
5
9D
100
AcDbEntity
8
1
62
256
6
ByLayer
370
18
48
1
60
0
100
AcDbLine
10
52.312994
20
21.373297
30
0
11
53.444365
21
22.504668
31
0
39
0
210
0
220
0
230
1
0
LINE
5
9E
100
AcDbEntity
8
1
62
256
6
ByLayer
370
18
48
1
60
0
100
AcDbLine
10
44.752783
20
28.933509
30
0
11
46.187304
21
29.76173
31
0
39
0
210
0
220
0
230
1
0
LINE
5
9F
100
AcDbEntity
8
1
62
256
6
ByLayer
370
13
48
1
60
0
100
AcDbLine
10
46.187304
20
29.76173
30
0
11
53.444365
21
22.504668
31
0
39
0
210
0
220
0
230
1
0
LINE
5
A0
100
AcDbEntity
8
1
62
256
6
ByLayer
370
18
48
1
60
0
100
AcDbLine
10
24.645076
20
-6.294621
30
0
11
40.326135
21
9.386439
31
0
39
0
210
0
220
0
230
1
0
LINE
5
A1
100
AcDbEntity
8
1
62
256
6
ByLayer
370
18
48
1
60
0
100
AcDbLine
10
52.312994
20
21.373297
30
0
11
40.326135
21
9.386439
31
0
39
0
210
0
220
0
230
1
0
LINE
5
A2
100
AcDbEntity
8
1
62
256
6
ByLayer
370
18
48
1
60
0
100
AcDbLine
10
52.312994
20
21.373297
30
0
11
44.752783
21
28.933509
31
0
39
0
210
0
220
0
230
1
0
LINE
5
A3
100
AcDbEntity
8
1
62
256
6
ByLayer
370
18
48
1
60
0
100
AcDbLine
10
44.752783
20
28.933509
30
0
11
42.228077
21
27.475869
31
0
39
0
210
0
220
0
230
1
0
LINE
5
A4
100
AcDbEntity
8
1
62
256
6
ByLayer
370
13
48
1
60
0
100
AcDbLine
10
28.493062
20
21.219512
30
0
11
40.326135
21
9.386439
31
0
39
0
210
0
220
0
230
1
0
LINE
5
A5
100
AcDbEntity
8
1
62
256
6
ByLayer
370
13
48
1
60
0
100
AcDbLine
10
23.856726
20
24.86532
30
0
11
23.856726
21
23.731097
31
0
39
0
210
0
220
0
230
1
0
LINE
5
A6
100
AcDbEntity
8
1
62
256
6
ByLayer
370
18
48
1
60
0
100
AcDbLine
10
42.228077
20
27.475869
30
0
11
39.648172
21
25.98636
31
0
39
0
210
0
220
0
230
1
0
LINE
5
A7
100
AcDbEntity
8
1
62
256
6
ByLayer
370
18
48
1
60
0
100
AcDbLine
10
33.764278
20
24.519341
30
0
11
24.769554
21
24.833444
31
0
39
0
210
0
220
0
230
1
0
LINE
5
A8
100
AcDbEntity
8
1
62
256
6
ByLayer
370
18
48
1
60
0
100
AcDbLine
10
24.645076
20
21.219512
30
0
11
28.493062
21
21.219512
31
0
39
0
210
0
220
0
230
1
0
LINE
5
A9
100
AcDbEntity
8
1
62
256
6
ByLayer
370
13
48
1
60
0
100
AcDbLine
10
20.860155
20
20.187187
30
0
11
21.78987
21
20.187187
31
0
39
0
210
0
220
0
230
1
0
LINE
5
AA
100
AcDbEntity
8
1
62
256
6
ByLayer
370
18
48
1
60
0
100
AcDbLine
10
20.660297
20
-16.908599
30
0
11
21.416989
21
-12.407596
31
0
39
0
210
0
220
0
230
1
0
LINE
5
AB
100
AcDbEntity
8
1
62
256
6
ByLayer
370
18
48
1
60
0
100
AcDbLine
10
24.486587
20
-6.45311
30
0
11
24.645076
21
-6.294621
31
0
39
0
210
0
220
0
230
1
0
LINE
5
AC
100
AcDbEntity
8
1
62
256
6
ByLayer
370
13
48
1
60
0
100
AcDbLine
10
24.645076
20
21.219512
30
0
11
24.645076
21
-6.294621
31
0
39
0
210
0
220
0
230
1
0
LINE
5
AD
100
AcDbEntity
8
1
62
256
6
ByLayer
370
18
48
1
60
0
100
AcDbLine
10
20.860155
20
20.187187
30
0
11
20.860155
21
18.974396
31
0
39
0
210
0
220
0
230
1
0
LINE
5
AE
100
AcDbEntity
8
1
62
256
6
ByLayer
370
18
48
1
60
0
100
AcDbLine
10
20.988369
20
20.900739
30
0
11
20.988369
21
24.965485
31
0
39
0
210
0
220
0
230
1
0
LINE
5
AF
100
AcDbEntity
8
1
62
256
6
ByLayer
370
13
48
1
60
0
100
AcDbLine
10
11.461325
20
-7.529667
30
0
11
11.461325
21
-23.83913
31
0
39
0
210
0
220
0
230
1
0
LINE
5
B0
100
AcDbEntity
8
1
62
256
6
ByLayer
370
13
48
1
60
0
100
AcDbLine
10
11.894338
20
-8.055848
30
0
11
11.894338
21
-23.666502
31
0
39
0
210
0
220
0
230
1
0
LINE
5
B1
100
AcDbEntity
8
1
62
256
6
ByLayer
370
13
48
1
60
0
100
AcDbLine
10
8.105662
20
23.666502
30
0
11
8.105662
21
8.055848
31
0
39
0
210
0
220
0
230
1
0
LINE
5
B2
100
AcDbEntity
8
1
62
256
6
ByLayer
370
13
48
1
60
0
100
AcDbLine
10
8.538675
20
23.83913
30
0
11
8.538675
21
7.529667
31
0
39
0
210
0
220
0
230
1
0
LINE
5
B3
100
AcDbEntity
8
1
62
256
6
ByLayer
370
13
48
1
60
0
100
AcDbLine
10
8.105662
20
-8.055848
30
0
11
8.105662
21
-23.666502
31
0
39
0
210
0
220
0
230
1
0
LINE
5
B4
100
AcDbEntity
8
1
62
256
6
ByLayer
370
13
48
1
60
0
100
AcDbLine
10
8.538675
20
-7.529667
30
0
11
8.538675
21
-23.83913
31
0
39
0
210
0
220
0
230
1
0
LINE
5
B5
100
AcDbEntity
8
1
62
256
6
ByLayer
370
13
48
1
60
0
100
AcDbLine
10
11.461325
20
23.83913
30
0
11
11.461325
21
7.529667
31
0
39
0
210
0
220
0
230
1
0
LINE
5
B6
100
AcDbEntity
8
1
62
256
6
ByLayer
370
13
48
1
60
0
100
AcDbLine
10
11.894338
20
23.666502
30
0
11
11.894338
21
8.055848
31
0
39
0
210
0
220
0
230
1
0
LINE
5
B7
100
AcDbEntity
8
1
62
256
6
ByLayer
370
18
48
1
60
0
100
AcDbLine
10
0
20
-24.7
30
0
11
0
21
24.7
31
0
39
0
210
0
220
0
230
1
0
LINE
5
B8
100
AcDbEntity
8
1
62
256
6
ByLayer
370
18
48
1
60
0
100
AcDbLine
10
19.3
20
-25
30
0
11
20.279208
21
-19.175418
31
0
39
0
210
0
220
0
230
1
0
LINE
5
B9
100
AcDbEntity
8
1
62
256
6
ByLayer
370
13
48
1
60
0
100
AcDbLine
10
20.279208
20
-12.222239
30
0
11
20.279208
21
-19.175418
31
0
39
0
210
0
220
0
230
1
0
LINE
5
BA
100
AcDbEntity
8
1
62
256
6
ByLayer
370
13
48
1
60
0
100
AcDbLine
10
20.279208
20
24.99025
30
0
11
20.279208
21
12.222239
31
0
39
0
210
0
220
0
230
1
0
LINE
5
BB
100
AcDbEntity
8
1
62
256
6
ByLayer
370
18
48
1
60
0
100
AcDbLine
10
20
20
25
30
0
11
20.279208
21
24.99025
31
0
39
0
210
0
220
0
230
1
0
LINE
5
BC
100
AcDbEntity
8
1
62
256
6
ByLayer
370
18
48
1
60
0
100
AcDbLine
10
0.3
20
-25
30
0
11
0.3
21
25
31
0
39
0
210
0
220
0
230
1
0
LINE
5
BD
100
AcDbEntity
8
1
62
256
6
ByLayer
370
18
48
1
60
0
100
AcDbLine
10
11.461325
20
7.529667
30
0
11
8.538675
21
7.529667
31
0
39
0
210
0
220
0
230
1
0
LINE
5
BE
100
AcDbEntity
8
1
62
256
6
ByLayer
370
18
48
1
60
0
100
AcDbLine
10
8.538675
20
23.83913
30
0
11
11.461325
21
23.83913
31
0
39
0
210
0
220
0
230
1
0
LINE
5
BF
100
AcDbEntity
8
1
62
256
6
ByLayer
370
18
48
1
60
0
100
AcDbLine
10
8.538675
20
-7.529667
30
0
11
11.461325
21
-7.529667
31
0
39
0
210
0
220
0
230
1
0
LINE
5
C0
100
AcDbEntity
8
1
62
256
6
ByLayer
370
18
48
1
60
0
100
AcDbLine
10
11.461325
20
-23.83913
30
0
11
8.538675
21
-23.83913
31
0
39
0
210
0
220
0
230
1
0
LINE
5
C1
100
AcDbEntity
8
1
62
256
6
ByLayer
370
18
48
1
60
0
100
AcDbLine
10
20.600164
20
-17.266288
30
0
11
20.660297
21
-16.908599
31
0
39
0
210
0
220
0
230
1
0
LINE
5
C2
100
AcDbEntity
8
1
62
256
6
ByLayer
370
13
48
1
60
0
100
AcDbLine
10
20.660297
20
-16.908599
30
0
11
20.660297
21
17.986403
31
0
39
0
210
0
220
0
230
1
0
LINE
5
C3
100
AcDbEntity
8
SK1
62
256
6
ByLayer
370
18
48
1
60
0
100
AcDbLine
10
-0.2
20
6.128541
30
0
11
-0.2
21
6.078432
31
0
39
0
210
0
220
0
230
1
0
LINE
5
C4
100
AcDbEntity
8
SK1
62
256
6
ByLayer
370
18
48
1
60
0
100
AcDbLine
10
-0.2
20
-6.078431
30
0
11
-0.2
21
-6.128539
31
0
39
0
210
0
220
0
230
1
0
LINE
5
C5
100
AcDbEntity
8
SK1
62
256
6
ByLayer
370
13
48
1
60
0
100
AcDbLine
10
-1.307107
20
3.918083
30
0
11
-1.307107
21
-3.918083
31
0
39
0
210
0
220
0
230
1
0
LINE
5
C6
100
AcDbEntity
8
SK1
62
256
6
ByLayer
370
18
48
1
60
0
100
AcDbLine
10
-1.99504
20
17.325269
30
0
11
-1.99504
21
17.320045
31
0
39
0
210
0
220
0
230
1
0
LINE
5
C7
100
AcDbEntity
8
SK1
62
256
6
ByLayer
370
18
48
1
60
0
100
AcDbLine
10
-1.99504
20
-17.320045
30
0
11
-1.99504
21
-17.325269
31
0
39
0
210
0
220
0
230
1
0
LINE
5
C8
100
AcDbEntity
8
1
62
256
6
ByLayer
370
18
48
1
60
0
100
AcDbLine
10
41.136678
20
17.839792
30
0
11
41.629047
21
18.256262
31
0
39
0
210
0
220
0
230
1
0
LINE
5
C9
100
AcDbEntity
8
1
62
256
6
ByLayer
370
18
48
1
60
0
100
AcDbLine
10
41.912962
20
16.984035
30
0
11
42.374761
21
17.374647
31
0
39
0
210
0
220
0
230
1
0
LINE
5
CA
100
AcDbEntity
8
1
62
256
6
ByLayer
370
18
48
1
60
0
100
AcDbLine
10
41.069146
20
18.426717
30
0
11
41.629047
21
18.256262
31
0
39
0
210
0
220
0
230
1
0
LINE
5
CB
100
AcDbEntity
8
1
62
256
6
ByLayer
370
18
48
1
60
0
100
AcDbLine
10
41.629047
20
18.256262
30
0
11
42.374761
21
17.374647
31
0
39
0
210
0
220
0
230
1
0
LINE
5
CC
100
AcDbEntity
8
1
62
256
6
ByLayer
370
18
48
1
60
0
100
AcDbLine
10
42.374761
20
17.374647
30
0
11
42.44421
21
16.838791
31
0
39
0
210
0
220
0
230
1
0
MTEXT
5
13E
100
AcDbEntity
8
SK6
62
256
6
ByLayer
370
18
48
1
60
0
100
AcDbMText
10
-4.827563
20
-32.467366
30
0
210
0
220
0
230
1
1
\W0.7498;C5-SRSCR-35060-10XC
40
3.5
41
0
44
1.084337
50
0
71
7
72
5
7
iso_b_vert
0
DIMENSION
5
143
100
AcDbEntity
8
2
62
256
6
ByLayer
370
18
48
1
60
0
100
AcDbDimension
2
_U0
10
0
20
42.85
30
0
11
30
21
42.85
31
0
70
32
71
1
72
1
41
1
210
0
220
0
230
1
3
Standard
100
AcDbAlignedDimension
13
60
23
35
33
0
14
0
24
25
34
0
50
0
100
AcDbRotatedDimension
1001
ACAD
1000
DSTYLE
1002
{
1070
   371
1070
    13
1070
   372
1070
    13
1070
   170
1070
     0
1070
   144
1040
1.0
1070
   277
1070
     2
1070
   284
1070
     8
1070
   278
1070
    46
1070
   146
1040
1.0
1070
   345
1005
16
1070
   347
1005
16
1070
   346
1005
16
1070
   344
1005
0
1070
   343
1005
0
1070
   172
1070
     1
1070
    76
1070
     0
1070
    75
1070
     0
1070
   282
1070
     0
1070
   281
1070
     0
1070
    71
1070
     0
1070
    74
1070
     0
1070
   279
1070
     0
1070
   173
1070
     1
1070
   340
1005
13F
1070
   271
1070
     2
1070
   272
1070
     2
1070
    77
1070
     1
1070
    73
1070
     1
1070
   171
1070
     3
1070
   274
1070
     4
1070
   177
1070
     2
1070
   176
1070
     2
1070
   178
1070
     2
1070
    78
1070
     8
1070
    48
1040
-0.1
1070
    41
1040
3.5
1070
   147
1040
1.75
1070
    42
1040
1.5875
1070
    44
1040
2.0
1070
   140
1040
3.5
1002
}
1001
ACAD_DSTYLE_DIM_LINETYPE
1070
   380
1005
16
1001
ACAD_DSTYLE_DIM_EXT1_LINETYPE
1070
   381
1005
16
1001
ACAD_DSTYLE_DIM_EXT2_LINETYPE
1070
   382
1005
16
0
DIMENSION
5
15C
100
AcDbEntity
8
SK2
62
256
6
ByLayer
370
18
48
1
60
0
100
AcDbDimension
2
_U1
10
-37.85
20
25
30
0
11
-37.85
21
0
31
0
70
32
71
1
72
1
41
1
210
0
220
0
230
1
3
Standard
100
AcDbAlignedDimension
13
0
23
-25
33
0
14
0
24
25
34
0
50
90
100
AcDbRotatedDimension
1001
ACAD
1000
DSTYLE
1002
{
1070
   371
1070
    13
1070
   372
1070
    13
1070
   170
1070
     0
1070
   144
1040
1.0
1070
   277
1070
     2
1070
   284
1070
     8
1070
   278
1070
    46
1070
   146
1040
1.0
1070
   345
1005
16
1070
   347
1005
16
1070
   346
1005
16
1070
   344
1005
0
1070
   343
1005
0
1070
   172
1070
     1
1070
    76
1070
     0
1070
    75
1070
     0
1070
   282
1070
     0
1070
   281
1070
     0
1070
    71
1070
     0
1070
    74
1070
     0
1070
   279
1070
     0
1070
   173
1070
     1
1070
   340
1005
13F
1070
   271
1070
     2
1070
   272
1070
     2
1070
    77
1070
     1
1070
    73
1070
     0
1070
   171
1070
     3
1070
   274
1070
     4
1070
   177
1070
     2
1070
   176
1070
     2
1070
   178
1070
     2
1070
    78
1070
     8
1070
    48
1040
-0.1
1070
    41
1040
3.5
1070
   147
1040
1.75
1070
    42
1040
1.5875
1070
    44
1040
2.0
1070
   140
1040
3.5
1002
}
1001
ACAD_DSTYLE_DIM_LINETYPE
1070
   380
1005
16
1001
ACAD_DSTYLE_DIM_EXT1_LINETYPE
1070
   381
1005
16
1001
ACAD_DSTYLE_DIM_EXT2_LINETYPE
1070
   382
1005
16
0
DIMENSION
5
174
100
AcDbEntity
8
2
62
256
6
ByLayer
370
18
48
1
60
0
100
AcDbDimension
2
_U2
10
74.85
20
35
30
0
11
74.85
21
17.5
31
0
70
32
71
1
72
1
41
1
210
0
220
0
230
1
3
Standard
100
AcDbAlignedDimension
13
60
23
0
33
0
14
60
24
35
34
0
50
90
100
AcDbRotatedDimension
1001
ACAD
1000
DSTYLE
1002
{
1070
   371
1070
    13
1070
   372
1070
    13
1070
   170
1070
     0
1070
   144
1040
1.0
1070
   277
1070
     2
1070
   284
1070
     8
1070
   278
1070
    46
1070
   146
1040
1.0
1070
   345
1005
16
1070
   347
1005
16
1070
   346
1005
16
1070
   344
1005
0
1070
   343
1005
0
1070
   172
1070
     1
1070
    76
1070
     0
1070
    75
1070
     0
1070
   282
1070
     0
1070
   281
1070
     0
1070
    71
1070
     0
1070
    74
1070
     0
1070
   279
1070
     0
1070
   173
1070
     1
1070
   340
1005
13F
1070
   271
1070
     2
1070
   272
1070
     2
1070
    77
1070
     1
1070
    73
1070
     0
1070
   171
1070
     3
1070
   274
1070
     4
1070
   177
1070
     2
1070
   176
1070
     2
1070
   178
1070
     2
1070
    78
1070
     8
1070
    48
1040
-0.1
1070
    41
1040
3.5
1070
   147
1040
1.75
1070
    42
1040
1.5875
1070
    44
1040
2.0
1070
   140
1040
3.5
1002
}
1001
ACAD_DSTYLE_DIM_LINETYPE
1070
   380
1005
16
1001
ACAD_DSTYLE_DIM_EXT1_LINETYPE
1070
   381
1005
16
1001
ACAD_DSTYLE_DIM_EXT2_LINETYPE
1070
   382
1005
16
0
ENDSEC
0
SECTION
2
OBJECTS
0
DICTIONARY
5
1fc
330
0
100
AcDbDictionary
280
0
281
1
3
ACAD_GROUP
350
1fd
3
ACAD_MLINESTYLE
350
1fe
0
DICTIONARY
5
1fd
330
0
100
AcDbDictionary
280
0
281
1
0
DICTIONARY
5
1fe
330
0
100
AcDbDictionary
280
0
281
1
3
Standard
350
18
0
MLINESTYLE
5
18
330
1fe
100
AcDbMlineStyle
2
Standard
70
0
3

62
256
51
90
52
90
71
2
49
-0.5
62
256
6
ByLayer
49
0.5
62
256
6
ByLayer
0
RASTERVARIABLES
5
1ea
330

100
AcDbRasterVariables
90
0
70
1
71
1
72
1
0
ENDSEC
0
EOF
