0
SECTION
2
HEADER
9
$ACADVER
1
AC1015
9
$DWGCODEPAGE
3
ANSI_1252
9
$HANDSEED
5
1d7
9
$ANGBASE
50
0
9
$ANGDIR
70
0
9
$ATTMODE
70
1
9
$AUNITS
70
0
9
$AUPREC
70
0
9
$CECOLOR
62
256
9
$CELTSCALE
40
1
9
$CELTYPE
6
ByLayer
9
$CELWEIGHT
370
18
9
$CLAYER
8
0
9
$CMLJUST
70
0
9
$CMLSCALE
40
1
9
$CMLSTYLE
2
Standard
9
$DIMSTYLE
2
Standard
9
$TEXTSIZE
40
0.2
9
$TEXTSTYLE
7
Standard
9
$LUNITS
70
2
9
$LUPREC
70
4
9
$EXTNAMES
290
1
9
$INSUNITS
70
4
9
$LTSCALE
40
1
9
$LWDISPLAY
290
1
9
$PDMODE
70
0
9
$PDSIZE
40
0
9
$PLINEGEN
70
0
0
ENDSEC
0
SECTION
2
CLASSES
0
CLASS
1
RASTERVARIABLES
2
AcDbRasterVariables
3
ISM
90
0
280
0
281
0
0
ENDSEC
0
SECTION
2
TABLES
0
TABLE
2
VPORT
5
1cd
100
AcDbSymbolTable
0
VPORT
5
1
100
AcDbSymbolTableRecord
100
AcDbViewportTableRecord
2
*Active
70
0
10
0
20
0
11
1
21
1
12
-1
22
1
13
0
23
0
14
0.5
24
0.5
15
10
25
10
16
0
26
0
36
1
17
0
27
0
37
0
0
ENDTAB
0
TABLE
2
LTYPE
5
1ce
100
AcDbSymbolTable
0
LTYPE
5
14
100
AcDbSymbolTableRecord
100
AcDbLinetypeTableRecord
70
0
2
ByBlock
3

72
65
73
0
40
0
0
LTYPE
5
15
100
AcDbSymbolTableRecord
100
AcDbLinetypeTableRecord
70
0
2
ByLayer
3

72
65
73
0
40
0
0
LTYPE
5
16
100
AcDbSymbolTableRecord
100
AcDbLinetypeTableRecord
70
0
2
Continuous
3
Solid line
72
65
73
0
40
0
0
LTYPE
5
6E
100
AcDbSymbolTableRecord
100
AcDbLinetypeTableRecord
70
0
2
CENTER
3
____ _ ____ _ ____ _ ____
72
65
73
4
40
47.5
49
22
74
0
49
-8.5
74
0
49
8.5
74
0
49
-8.5
74
0
0
LTYPE
5
6F
100
AcDbSymbolTableRecord
100
AcDbLinetypeTableRecord
70
0
2
DASHED
3
__ __ __ __ __ __ __ __ __
72
65
73
2
40
25.72
49
12.86
74
0
49
-12.86
74
0
0
ENDTAB
0
TABLE
2
LAYER
5
1cf
100
AcDbSymbolTable
0
LAYER
5
10
100
AcDbSymbolTableRecord
100
AcDbLayerTableRecord
2
0
70
0
62
7
6
Continuous
290
1
370
-3
390
0
0
LAYER
5
71
100
AcDbSymbolTableRecord
100
AcDbLayerTableRecord
2
2
70
0
62
7
6
Continuous
290
1
370
-3
390
0
0
LAYER
5
76
100
AcDbSymbolTableRecord
100
AcDbLayerTableRecord
2
80
70
0
62
-6
6
Continuous
290
1
370
-3
390
0
0
LAYER
5
78
100
AcDbSymbolTableRecord
100
AcDbLayerTableRecord
2
1
70
0
62
4
6
Continuous
290
1
370
-3
390
0
0
LAYER
5
7A
100
AcDbSymbolTableRecord
100
AcDbLayerTableRecord
2
81
70
0
62
-3
6
Continuous
290
1
370
-3
390
0
0
LAYER
5
FC
100
AcDbSymbolTableRecord
100
AcDbLayerTableRecord
2
Defpoints
70
0
62
7
6
Continuous
290
0
370
-3
390
0
0
LAYER
5
1ba
100
AcDbSymbolTableRecord
100
AcDbLayerTableRecord
2
SK1
70
0
62
4
6
Continuous
290
1
370
-3
390
0
0
LAYER
5
1bb
100
AcDbSymbolTableRecord
100
AcDbLayerTableRecord
2
SK6
70
0
62
5
6
Continuous
290
1
370
-3
390
0
0
LAYER
5
1bc
100
AcDbSymbolTableRecord
100
AcDbLayerTableRecord
2
SK2
70
0
62
7
6
Continuous
290
1
370
-3
390
0
0
ENDTAB
0
TABLE
2
STYLE
5
1d0
100
AcDbSymbolTable
0
STYLE
5
11
100
AcDbSymbolTableRecord
100
AcDbTextStyleTableRecord
2
Standard
3
txt
70
0
71
0
40
0
41
1
42
0
50
0
0
STYLE
5
F5
100
AcDbSymbolTableRecord
100
AcDbTextStyleTableRecord
2
iso_b_vert
3
simplex.shx
70
0
71
0
40
0
41
1
42
0
50
0
0
STYLE
5
F6
100
AcDbSymbolTableRecord
100
AcDbTextStyleTableRecord
2
DWGDirectTextStyle
3
simplex
70
0
71
0
40
0
41
1
42
0
50
0
0
ENDTAB
0
TABLE
2
DIMSTYLE
5
1d1
100
AcDbSymbolTable
100
AcDbDimStyleTable
0
DIMSTYLE
105
27
100
AcDbSymbolTableRecord
100
AcDbDimStyleTableRecord
2
Standard
70
0
3
<>
41
0.18
42
0.0625
44
0.18
140
0.18
147
0.09
73
0
74
0
77
1
271
2
275
0
278
52
280
0
340
11
0
ENDTAB
0
TABLE
2
VIEW
5
1d2
100
AcDbSymbolTable
0
ENDTAB
0
TABLE
2
UCS
5
1d3
100
AcDbSymbolTable
0
ENDTAB
0
TABLE
2
APPID
5
1d4
100
AcDbSymbolTable
0
APPID
5
12
100
AcDbSymbolTableRecord
100
AcDbRegAppTableRecord
2
ACAD
70
0
0
APPID
5
F8
100
AcDbSymbolTableRecord
100
AcDbRegAppTableRecord
2
ACAD_DSTYLE_DIMBREAK
70
0
0
APPID
5
179
100
AcDbSymbolTableRecord
100
AcDbRegAppTableRecord
2
ACAD_DSTYLE_DIM_LINETYPE
70
0
0
APPID
5
17A
100
AcDbSymbolTableRecord
100
AcDbRegAppTableRecord
2
ACAD_DSTYLE_DIM_EXT1_LINETYPE
70
0
0
APPID
5
17B
100
AcDbSymbolTableRecord
100
AcDbRegAppTableRecord
2
ACAD_DSTYLE_DIM_EXT2_LINETYPE
70
0
0
APPID
5
1B6
100
AcDbSymbolTableRecord
100
AcDbRegAppTableRecord
2
ACAD_MLEADERVER
70
0
0
ENDTAB
0
TABLE
2
BLOCK_RECORD
5
1d5
100
AcDbSymbolTable
0
BLOCK_RECORD
5
1F
100
AcDbSymbolTableRecord
100
AcDbBlockTableRecord
2
*Model_Space
340
0
70
0
0
BLOCK_RECORD
5
1B
100
AcDbSymbolTableRecord
100
AcDbBlockTableRecord
2
*Paper_Space
340
0
70
0
0
BLOCK_RECORD
5
23
100
AcDbSymbolTableRecord
100
AcDbBlockTableRecord
2
*Paper_Space0
340
0
70
0
0
BLOCK_RECORD
5
FD
100
AcDbSymbolTableRecord
100
AcDbBlockTableRecord
2
*D1
340
0
70
0
0
BLOCK_RECORD
5
10A
100
AcDbSymbolTableRecord
100
AcDbBlockTableRecord
2
_U0
340
0
70
0
0
BLOCK_RECORD
5
116
100
AcDbSymbolTableRecord
100
AcDbBlockTableRecord
2
*D3
340
0
70
0
0
BLOCK_RECORD
5
122
100
AcDbSymbolTableRecord
100
AcDbBlockTableRecord
2
_U1
340
0
70
0
0
BLOCK_RECORD
5
12E
100
AcDbSymbolTableRecord
100
AcDbBlockTableRecord
2
*D5
340
0
70
0
0
BLOCK_RECORD
5
13A
100
AcDbSymbolTableRecord
100
AcDbBlockTableRecord
2
_U2
340
0
70
0
0
BLOCK_RECORD
5
146
100
AcDbSymbolTableRecord
100
AcDbBlockTableRecord
2
*D7
340
0
70
0
0
BLOCK_RECORD
5
152
100
AcDbSymbolTableRecord
100
AcDbBlockTableRecord
2
_U3
340
0
70
0
0
ENDTAB
0
ENDSEC
0
SECTION
2
BLOCKS
0
BLOCK
5
20
100
AcDbEntity
8
0
100
AcDbBlockBegin
2
*Model_Space
70
0
10
0
20
0
30
0
3
*Model_Space
0
ENDBLK
5
21
100
AcDbEntity
8
0
100
AcDbBlockEnd
0
BLOCK
5
1C
100
AcDbEntity
8
0
100
AcDbBlockBegin
2
*Paper_Space
70
0
10
0
20
0
30
0
3
*Paper_Space
0
ENDBLK
5
1D
100
AcDbEntity
8
0
100
AcDbBlockEnd
0
BLOCK
5
24
100
AcDbEntity
8
0
100
AcDbBlockBegin
2
*Paper_Space0
70
0
10
0
20
0
30
0
3
*Paper_Space0
0
ENDBLK
5
25
100
AcDbEntity
8
0
100
AcDbBlockEnd
0
BLOCK
5
FE
100
AcDbEntity
8
0
100
AcDbBlockBegin
2
*D1
70
1
10
0
20
0
30
0
3
*D1
0
LINE
5
100
100
AcDbEntity
8
0
62
256
6
ByLayer
370
-2
48
1
60
0
100
AcDbLine
10
43
20
15.5875
30
0
11
43
21
32.5
31
0
39
0
210
0
220
0
230
1
0
LINE
5
101
100
AcDbEntity
8
0
62
256
6
ByLayer
370
-2
48
1
60
0
100
AcDbLine
10
-84
20
14.0875
30
0
11
-84
21
32.5
31
0
39
0
210
0
220
0
230
1
0
LINE
5
102
100
AcDbEntity
8
0
62
256
6
ByLayer
370
-2
48
1
60
0
100
AcDbLine
10
39.5
20
30.5
30
0
11
-80.5
21
30.5
31
0
39
0
210
0
220
0
230
1
0
SOLID
5
103
100
AcDbEntity
8
0
62
256
6
ByLayer
370
-1
48
1
60
0
100
AcDbTrace
10
39.5
20
29.916667
30
0
11
39.5
21
31.083333
31
0
12
43
22
30.5
32
0
13
43
23
30.5
33
0
39
0
210
0
220
0
230
1
0
SOLID
5
104
100
AcDbEntity
8
0
62
256
6
ByLayer
370
-1
48
1
60
0
100
AcDbTrace
10
-80.5
20
31.083333
30
0
11
-80.5
21
29.916667
31
0
12
-84
22
30.5
32
0
13
-84
23
30.5
33
0
39
0
210
0
220
0
230
1
0
MTEXT
5
105
100
AcDbEntity
8
0
62
256
6
ByLayer
370
18
48
1
60
0
100
AcDbMText
10
-20.5
20
37.5
30
0
210
0
220
0
230
1
1
\A1;127
40
3.5
41
0
44
1
50
0
71
5
72
5
7
iso_b_vert
0
POINT
5
106
100
AcDbEntity
8
Defpoints
62
0
6
ByLayer
370
-1
48
1
60
0
100
AcDbPoint
10
43
20
14
30
0
39
0
210
0
220
0
230
1
50
360
0
POINT
5
107
100
AcDbEntity
8
Defpoints
62
0
6
ByLayer
370
-1
48
1
60
0
100
AcDbPoint
10
-84
20
12.5
30
0
39
0
210
0
220
0
230
1
50
360
0
POINT
5
108
100
AcDbEntity
8
Defpoints
62
0
6
ByLayer
370
-1
48
1
60
0
100
AcDbPoint
10
-84
20
30.5
30
0
39
0
210
0
220
0
230
1
50
360
0
ENDBLK
5
FF
100
AcDbEntity
8
0
100
AcDbBlockEnd
0
BLOCK
5
111
100
AcDbEntity
8
0
100
AcDbBlockBegin
2
_U0
70
0
10
0
20
0
30
0
3
_U0
0
MTEXT
5
10B
100
AcDbEntity
8
SK2
62
256
6
ByLayer
370
18
48
1
60
0
100
AcDbMText
10
-23.275266
20
31.532634
30
0
210
0
220
0
230
1
1
\W0.6217;127
40
3.5
41
0
44
1.084337
50
0
71
7
72
5
7
iso_b_vert
0
LINE
5
10C
100
AcDbEntity
8
SK2
62
256
6
ByLayer
370
13
48
1
60
0
100
AcDbLine
10
43
20
15.5875
30
0
11
43
21
32.5
31
0
39
0
210
0
220
0
230
1
0
LINE
5
10D
100
AcDbEntity
8
SK2
62
256
6
ByLayer
370
13
48
1
60
0
100
AcDbLine
10
-84
20
14.0875
30
0
11
-84
21
32.5
31
0
39
0
210
0
220
0
230
1
0
LINE
5
10E
100
AcDbEntity
8
SK2
62
256
6
ByLayer
370
13
48
1
60
0
100
AcDbLine
10
43
20
30.5
30
0
11
-84
21
30.5
31
0
39
0
210
0
220
0
230
1
0
SOLID
5
10F
100
AcDbEntity
8
SK2
62
256
6
ByLayer
370
18
48
1
60
0
100
AcDbTrace
10
43
20
30.5
30
0
11
39.500002
21
30.039216
31
0
12
39.499998
22
30.960784
32
0
13
39.499998
23
30.960784
33
0
39
0
210
0
220
0
230
1
0
SOLID
5
110
100
AcDbEntity
8
SK2
62
256
6
ByLayer
370
18
48
1
60
0
100
AcDbTrace
10
-84
20
30.5
30
0
11
-80.500002
21
30.960784
31
0
12
-80.499998
22
30.039216
32
0
13
-80.499998
23
30.039216
33
0
39
0
210
0
220
0
230
1
0
ENDBLK
5
112
100
AcDbEntity
8
0
100
AcDbBlockEnd
0
BLOCK
5
117
100
AcDbEntity
8
0
100
AcDbBlockBegin
2
*D3
70
1
10
0
20
0
30
0
3
*D3
0
LINE
5
119
100
AcDbEntity
8
0
62
256
6
ByLayer
370
-2
48
1
60
0
100
AcDbLine
10
43
20
15.5875
30
0
11
43
21
22.5
31
0
39
0
210
0
220
0
230
1
0
LINE
5
11A
100
AcDbEntity
8
0
62
256
6
ByLayer
370
-2
48
1
60
0
100
AcDbLine
10
0
20
14.0875
30
0
11
0
21
22.5
31
0
39
0
210
0
220
0
230
1
0
LINE
5
11B
100
AcDbEntity
8
0
62
256
6
ByLayer
370
-2
48
1
60
0
100
AcDbLine
10
39.5
20
20.5
30
0
11
3.5
21
20.5
31
0
39
0
210
0
220
0
230
1
0
SOLID
5
11C
100
AcDbEntity
8
0
62
256
6
ByLayer
370
-1
48
1
60
0
100
AcDbTrace
10
39.5
20
19.916667
30
0
11
39.5
21
21.083333
31
0
12
43
22
20.5
32
0
13
43
23
20.5
33
0
39
0
210
0
220
0
230
1
0
SOLID
5
11D
100
AcDbEntity
8
0
62
256
6
ByLayer
370
-1
48
1
60
0
100
AcDbTrace
10
3.5
20
21.083333
30
0
11
3.5
21
19.916667
31
0
12
0
22
20.5
32
0
13
0
23
20.5
33
0
39
0
210
0
220
0
230
1
0
MTEXT
5
11E
100
AcDbEntity
8
0
62
256
6
ByLayer
370
18
48
1
60
0
100
AcDbMText
10
21.5
20
27.5
30
0
210
0
220
0
230
1
1
\A1;43
40
3.5
41
0
44
1
50
0
71
5
72
5
7
iso_b_vert
0
POINT
5
11F
100
AcDbEntity
8
Defpoints
62
0
6
ByLayer
370
-1
48
1
60
0
100
AcDbPoint
10
43
20
14
30
0
39
0
210
0
220
0
230
1
50
360
0
POINT
5
120
100
AcDbEntity
8
Defpoints
62
0
6
ByLayer
370
-1
48
1
60
0
100
AcDbPoint
10
0
20
12.5
30
0
39
0
210
0
220
0
230
1
50
360
0
POINT
5
121
100
AcDbEntity
8
Defpoints
62
0
6
ByLayer
370
-1
48
1
60
0
100
AcDbPoint
10
0
20
20.5
30
0
39
0
210
0
220
0
230
1
50
360
0
ENDBLK
5
118
100
AcDbEntity
8
0
100
AcDbBlockEnd
0
BLOCK
5
129
100
AcDbEntity
8
0
100
AcDbBlockBegin
2
_U1
70
0
10
0
20
0
30
0
3
_U1
0
MTEXT
5
123
100
AcDbEntity
8
2
62
256
6
ByLayer
370
18
48
1
60
0
100
AcDbMText
10
19.410767
20
21.532634
30
0
210
0
220
0
230
1
1
\W0.7361;43
40
3.5
41
0
44
1.084337
50
0
71
7
72
5
7
iso_b_vert
0
LINE
5
124
100
AcDbEntity
8
2
62
256
6
ByLayer
370
13
48
1
60
0
100
AcDbLine
10
43
20
15.5875
30
0
11
43
21
22.5
31
0
39
0
210
0
220
0
230
1
0
LINE
5
125
100
AcDbEntity
8
2
62
256
6
ByLayer
370
13
48
1
60
0
100
AcDbLine
10
0
20
14.0875
30
0
11
0
21
22.5
31
0
39
0
210
0
220
0
230
1
0
LINE
5
126
100
AcDbEntity
8
2
62
256
6
ByLayer
370
13
48
1
60
0
100
AcDbLine
10
43
20
20.5
30
0
11
0
21
20.5
31
0
39
0
210
0
220
0
230
1
0
SOLID
5
127
100
AcDbEntity
8
2
62
256
6
ByLayer
370
18
48
1
60
0
100
AcDbTrace
10
43
20
20.5
30
0
11
39.500002
21
20.039216
31
0
12
39.499998
22
20.960784
32
0
13
39.499998
23
20.960784
33
0
39
0
210
0
220
0
230
1
0
SOLID
5
128
100
AcDbEntity
8
2
62
256
6
ByLayer
370
18
48
1
60
0
100
AcDbTrace
10
0
20
20.5
30
0
11
3.499998
21
20.960784
31
0
12
3.500002
22
20.039216
32
0
13
3.500002
23
20.039216
33
0
39
0
210
0
220
0
230
1
0
ENDBLK
5
12A
100
AcDbEntity
8
0
100
AcDbBlockEnd
0
BLOCK
5
12F
100
AcDbEntity
8
0
100
AcDbBlockBegin
2
*D5
70
1
10
0
20
0
30
0
3
*D5
0
LINE
5
131
100
AcDbEntity
8
0
62
256
6
ByLayer
370
-2
48
1
60
0
100
AcDbLine
10
-85.5875
20
-12.5
30
0
11
-93.85
21
-12.5
31
0
39
0
210
0
220
0
230
1
0
LINE
5
132
100
AcDbEntity
8
0
62
256
6
ByLayer
370
-2
48
1
60
0
100
AcDbLine
10
-85.5875
20
12.5
30
0
11
-93.85
21
12.5
31
0
39
0
210
0
220
0
230
1
0
LINE
5
133
100
AcDbEntity
8
0
62
256
6
ByLayer
370
-2
48
1
60
0
100
AcDbLine
10
-91.85
20
-9
30
0
11
-91.85
21
9
31
0
39
0
210
0
220
0
230
1
0
SOLID
5
134
100
AcDbEntity
8
0
62
256
6
ByLayer
370
-1
48
1
60
0
100
AcDbTrace
10
-92.433333
20
-9
30
0
11
-91.266667
21
-9
31
0
12
-91.85
22
-12.5
32
0
13
-91.85
23
-12.5
33
0
39
0
210
0
220
0
230
1
0
SOLID
5
135
100
AcDbEntity
8
0
62
256
6
ByLayer
370
-1
48
1
60
0
100
AcDbTrace
10
-91.266667
20
9
30
0
11
-92.433333
21
9
31
0
12
-91.85
22
12.5
32
0
13
-91.85
23
12.5
33
0
39
0
210
0
220
0
230
1
0
MTEXT
5
136
100
AcDbEntity
8
0
62
256
6
ByLayer
370
18
48
1
60
0
100
AcDbMText
10
-98.85
20
0
30
0
210
0
220
0
230
1
1
\A1;25
40
3.5
41
0
44
1
50
90
71
5
72
5
7
iso_b_vert
0
POINT
5
137
100
AcDbEntity
8
Defpoints
62
0
6
ByLayer
370
-1
48
1
60
0
100
AcDbPoint
10
-84
20
-12.5
30
0
39
0
210
0
220
0
230
1
50
360
0
POINT
5
138
100
AcDbEntity
8
Defpoints
62
0
6
ByLayer
370
-1
48
1
60
0
100
AcDbPoint
10
-84
20
12.5
30
0
39
0
210
0
220
0
230
1
50
360
0
POINT
5
139
100
AcDbEntity
8
Defpoints
62
0
6
ByLayer
370
-1
48
1
60
0
100
AcDbPoint
10
-91.85
20
12.5
30
0
39
0
210
0
220
0
230
1
50
360
0
ENDBLK
5
130
100
AcDbEntity
8
0
100
AcDbBlockEnd
0
BLOCK
5
141
100
AcDbEntity
8
0
100
AcDbBlockBegin
2
_U2
70
0
10
0
20
0
30
0
3
_U2
0
MTEXT
5
13B
100
AcDbEntity
8
SK2
62
256
6
ByLayer
370
18
48
1
60
0
100
AcDbMText
10
-92.539634
20
-1.932966
30
0
210
0
220
0
230
1
1
\W0.6740;25
40
3.5
41
0
44
1.084337
50
90
71
7
72
5
7
iso_b_vert
0
LINE
5
13C
100
AcDbEntity
8
SK2
62
256
6
ByLayer
370
13
48
1
60
0
100
AcDbLine
10
-85.5875
20
-12.5
30
0
11
-93.85
21
-12.5
31
0
39
0
210
0
220
0
230
1
0
LINE
5
13D
100
AcDbEntity
8
SK2
62
256
6
ByLayer
370
13
48
1
60
0
100
AcDbLine
10
-85.5875
20
12.5
30
0
11
-93.85
21
12.5
31
0
39
0
210
0
220
0
230
1
0
LINE
5
13E
100
AcDbEntity
8
SK2
62
256
6
ByLayer
370
13
48
1
60
0
100
AcDbLine
10
-91.85
20
-12.5
30
0
11
-91.85
21
12.5
31
0
39
0
210
0
220
0
230
1
0
SOLID
5
13F
100
AcDbEntity
8
SK2
62
256
6
ByLayer
370
18
48
1
60
0
100
AcDbTrace
10
-91.85
20
-12.5
30
0
11
-92.310784
21
-9.000002
31
0
12
-91.389216
22
-8.999998
32
0
13
-91.389216
23
-8.999998
33
0
39
0
210
0
220
0
230
1
0
SOLID
5
140
100
AcDbEntity
8
SK2
62
256
6
ByLayer
370
18
48
1
60
0
100
AcDbTrace
10
-91.85
20
12.5
30
0
11
-91.389216
21
9.000002
31
0
12
-92.310784
22
8.999998
32
0
13
-92.310784
23
8.999998
33
0
39
0
210
0
220
0
230
1
0
ENDBLK
5
142
100
AcDbEntity
8
0
100
AcDbBlockEnd
0
BLOCK
5
147
100
AcDbEntity
8
0
100
AcDbBlockBegin
2
*D7
70
1
10
0
20
0
30
0
3
*D7
0
LINE
5
149
100
AcDbEntity
8
0
62
256
6
ByLayer
370
-2
48
1
60
0
100
AcDbLine
10
1.5875
20
-12.5
30
0
11
64.85
21
-12.5
31
0
39
0
210
0
220
0
230
1
0
LINE
5
14A
100
AcDbEntity
8
0
62
256
6
ByLayer
370
-2
48
1
60
0
100
AcDbLine
10
44.5875
20
14
30
0
11
64.85
21
14
31
0
39
0
210
0
220
0
230
1
0
LINE
5
14B
100
AcDbEntity
8
0
62
256
6
ByLayer
370
-2
48
1
60
0
100
AcDbLine
10
62.85
20
-9
30
0
11
62.85
21
10.5
31
0
39
0
210
0
220
0
230
1
0
SOLID
5
14C
100
AcDbEntity
8
0
62
256
6
ByLayer
370
-1
48
1
60
0
100
AcDbTrace
10
62.266667
20
-9
30
0
11
63.433333
21
-9
31
0
12
62.85
22
-12.5
32
0
13
62.85
23
-12.5
33
0
39
0
210
0
220
0
230
1
0
SOLID
5
14D
100
AcDbEntity
8
0
62
256
6
ByLayer
370
-1
48
1
60
0
100
AcDbTrace
10
63.433333
20
10.5
30
0
11
62.266667
21
10.5
31
0
12
62.85
22
14
32
0
13
62.85
23
14
33
0
39
0
210
0
220
0
230
1
0
MTEXT
5
14E
100
AcDbEntity
8
0
62
256
6
ByLayer
370
18
48
1
60
0
100
AcDbMText
10
55.85
20
0.75
30
0
210
0
220
0
230
1
1
\A1;26.5
40
3.5
41
0
44
1
50
90
71
5
72
5
7
iso_b_vert
0
POINT
5
14F
100
AcDbEntity
8
Defpoints
62
0
6
ByLayer
370
-1
48
1
60
0
100
AcDbPoint
10
0
20
-12.5
30
0
39
0
210
0
220
0
230
1
50
360
0
POINT
5
150
100
AcDbEntity
8
Defpoints
62
0
6
ByLayer
370
-1
48
1
60
0
100
AcDbPoint
10
43
20
14
30
0
39
0
210
0
220
0
230
1
50
360
0
POINT
5
151
100
AcDbEntity
8
Defpoints
62
0
6
ByLayer
370
-1
48
1
60
0
100
AcDbPoint
10
62.85
20
14
30
0
39
0
210
0
220
0
230
1
50
360
0
ENDBLK
5
148
100
AcDbEntity
8
0
100
AcDbBlockEnd
0
BLOCK
5
159
100
AcDbEntity
8
0
100
AcDbBlockBegin
2
_U3
70
0
10
0
20
0
30
0
3
_U3
0
MTEXT
5
153
100
AcDbEntity
8
2
62
256
6
ByLayer
370
18
48
1
60
0
100
AcDbMText
10
62.160366
20
-3.199699
30
0
210
0
220
0
230
1
1
\W0.7346;26.5
40
3.5
41
0
44
1.084337
50
90
71
7
72
5
7
iso_b_vert
0
LINE
5
154
100
AcDbEntity
8
2
62
256
6
ByLayer
370
13
48
1
60
0
100
AcDbLine
10
1.5875
20
-12.5
30
0
11
64.85
21
-12.5
31
0
39
0
210
0
220
0
230
1
0
LINE
5
155
100
AcDbEntity
8
2
62
256
6
ByLayer
370
13
48
1
60
0
100
AcDbLine
10
44.5875
20
14
30
0
11
64.85
21
14
31
0
39
0
210
0
220
0
230
1
0
LINE
5
156
100
AcDbEntity
8
2
62
256
6
ByLayer
370
13
48
1
60
0
100
AcDbLine
10
62.85
20
-12.5
30
0
11
62.85
21
14
31
0
39
0
210
0
220
0
230
1
0
SOLID
5
157
100
AcDbEntity
8
2
62
256
6
ByLayer
370
18
48
1
60
0
100
AcDbTrace
10
62.85
20
-12.5
30
0
11
62.389216
21
-9.000002
31
0
12
63.310784
22
-8.999998
32
0
13
63.310784
23
-8.999998
33
0
39
0
210
0
220
0
230
1
0
SOLID
5
158
100
AcDbEntity
8
2
62
256
6
ByLayer
370
18
48
1
60
0
100
AcDbTrace
10
62.85
20
14
30
0
11
63.310784
21
10.500002
31
0
12
62.389216
22
10.499998
32
0
13
62.389216
23
10.499998
33
0
39
0
210
0
220
0
230
1
0
ENDBLK
5
15A
100
AcDbEntity
8
0
100
AcDbBlockEnd
0
ENDSEC
0
SECTION
2
ENTITIES
0
ARC
5
A9
100
AcDbEntity
8
1
62
256
6
ByLayer
370
18
48
1
60
0
100
AcDbCircle
39
0
10
38.000255
20
8.999999
30
0
40
5.07210244928542
210
0
220
0
230
1
100
AcDbArc
50
165.079927
51
194.920043
0
ARC
5
AA
100
AcDbEntity
8
1
62
256
6
ByLayer
370
18
48
1
60
0
100
AcDbCircle
39
0
10
35.8
20
9
30
0
40
3
210
0
220
0
230
1
100
AcDbArc
50
148.19609
51
211.80391
0
ARC
5
AB
100
AcDbEntity
8
1
62
256
6
ByLayer
370
18
48
1
60
0
100
AcDbCircle
39
0
10
37.725
20
9
30
0
40
4.74567911128869
210
0
220
0
230
1
100
AcDbArc
50
157.015213
51
160.539685
0
ARC
5
AC
100
AcDbEntity
8
1
62
256
6
ByLayer
370
18
48
1
60
0
100
AcDbCircle
39
0
10
37.725
20
9
30
0
40
4.74567911128869
210
0
220
0
230
1
100
AcDbArc
50
199.460315
51
202.984787
0
ARC
5
AD
100
AcDbEntity
8
1
62
256
6
ByLayer
370
18
48
1
60
0
100
AcDbCircle
39
0
10
21.618252
20
-6.2
30
0
40
11
210
0
220
0
230
1
100
AcDbArc
50
137.706816
51
165
0
ARC
5
AE
100
AcDbEntity
8
1
62
256
6
ByLayer
370
18
48
1
60
0
100
AcDbCircle
39
0
10
21.618252
20
-6.2
30
0
40
11
210
0
220
0
230
1
100
AcDbArc
50
90
51
101.118674
0
ARC
5
AF
100
AcDbEntity
8
1
62
256
6
ByLayer
370
13
48
1
60
0
100
AcDbCircle
39
0
10
6.650461
20
7.074493
30
0
40
5.51158896649231
210
0
220
0
230
1
100
AcDbArc
50
105.995795
51
260.728635
0
ARC
5
B0
100
AcDbEntity
8
1
62
256
6
ByLayer
370
13
48
1
60
0
100
AcDbCircle
39
0
10
15.217395
20
-22.810235
30
0
40
36.6
210
0
220
0
230
1
100
AcDbArc
50
100.299629
51
105.995795
0
ARC
5
B1
100
AcDbEntity
8
1
62
256
6
ByLayer
370
13
48
1
60
0
100
AcDbCircle
39
0
10
11.659134
20
37.756776
30
0
40
36.6
210
0
220
0
230
1
100
AcDbArc
50
260.728635
51
272.853908
0
ARC
5
B2
100
AcDbEntity
8
1
62
256
6
ByLayer
370
13
48
1
60
0
100
AcDbCircle
39
0
10
15.111125
20
9.189589
30
0
40
4.6
210
0
220
0
230
1
100
AcDbArc
50
2.303828
51
60.671826
0
ARC
5
B3
100
AcDbEntity
8
1
62
256
6
ByLayer
370
13
48
1
60
0
100
AcDbCircle
39
0
10
-21.858969
20
7.702242
30
0
40
41.6
210
0
220
0
230
1
100
AcDbArc
50
357.273507
51
2.303828
0
ARC
5
B4
100
AcDbEntity
8
1
62
256
6
ByLayer
370
13
48
1
60
0
100
AcDbCircle
39
0
10
15.099147
20
5.942215
30
0
40
4.6
210
0
220
0
230
1
100
AcDbArc
50
342.950807
51
357.273507
0
ARC
5
B5
100
AcDbEntity
8
1
62
256
6
ByLayer
370
18
48
1
60
0
100
AcDbCircle
39
0
10
38
20
9
30
0
40
1.2903
210
0
220
0
230
1
100
AcDbArc
50
60
51
120
0
ARC
5
B6
100
AcDbEntity
8
1
62
256
6
ByLayer
370
18
48
1
60
0
100
AcDbCircle
39
0
10
38
20
9
30
0
40
1.2903
210
0
220
0
230
1
100
AcDbArc
50
120
51
180
0
ARC
5
B7
100
AcDbEntity
8
1
62
256
6
ByLayer
370
18
48
1
60
0
100
AcDbCircle
39
0
10
38
20
9
30
0
40
1.2903
210
0
220
0
230
1
100
AcDbArc
50
180
51
240
0
ARC
5
B8
100
AcDbEntity
8
1
62
256
6
ByLayer
370
18
48
1
60
0
100
AcDbCircle
39
0
10
38
20
9
30
0
40
1.2903
210
0
220
0
230
1
100
AcDbArc
50
240
51
300
0
ARC
5
B9
100
AcDbEntity
8
1
62
256
6
ByLayer
370
18
48
1
60
0
100
AcDbCircle
39
0
10
38
20
9
30
0
40
1.2903
210
0
220
0
230
1
100
AcDbArc
50
0
51
60
0
ARC
5
BA
100
AcDbEntity
8
1
62
256
6
ByLayer
370
18
48
1
60
0
100
AcDbCircle
39
0
10
38
20
9
30
0
40
1.2903
210
0
220
0
230
1
100
AcDbArc
50
300
51
360
0
ARC
5
BD
100
AcDbEntity
8
1
62
256
6
ByLayer
370
18
48
1
60
0
100
AcDbCircle
39
0
10
38
20
9
30
0
40
1.6764
210
0
220
0
230
1
100
AcDbArc
50
90
51
150
0
ARC
5
BE
100
AcDbEntity
8
1
62
256
6
ByLayer
370
18
48
1
60
0
100
AcDbCircle
39
0
10
38
20
9
30
0
40
1.6764
210
0
220
0
230
1
100
AcDbArc
50
150
51
210
0
ARC
5
BF
100
AcDbEntity
8
1
62
256
6
ByLayer
370
18
48
1
60
0
100
AcDbCircle
39
0
10
38
20
9
30
0
40
1.6764
210
0
220
0
230
1
100
AcDbArc
50
210
51
270
0
ARC
5
C0
100
AcDbEntity
8
1
62
256
6
ByLayer
370
18
48
1
60
0
100
AcDbCircle
39
0
10
38
20
9
30
0
40
1.6764
210
0
220
0
230
1
100
AcDbArc
50
270
51
330
0
ARC
5
C1
100
AcDbEntity
8
1
62
256
6
ByLayer
370
18
48
1
60
0
100
AcDbCircle
39
0
10
38
20
9
30
0
40
1.6764
210
0
220
0
230
1
100
AcDbArc
50
330
51
30
0
ARC
5
C2
100
AcDbEntity
8
1
62
256
6
ByLayer
370
18
48
1
60
0
100
AcDbCircle
39
0
10
38
20
9
30
0
40
1.6764
210
0
220
0
230
1
100
AcDbArc
50
30
51
90
0
ARC
5
C3
100
AcDbEntity
8
SK1
62
256
6
ByLayer
370
18
48
1
60
0
100
AcDbCircle
39
0
10
-2.141498
20
14.025
30
0
40
1.6
210
0
220
0
230
1
100
AcDbArc
50
287.612439
51
328.96076
0
ARC
5
C4
100
AcDbEntity
8
SK1
62
256
6
ByLayer
370
18
48
1
60
0
100
AcDbCircle
39
0
10
-2.141498
20
14.025
30
0
40
1.60000000001429
210
0
220
0
230
1
100
AcDbArc
50
270
51
287.612439
0
CIRCLE
5
BB
100
AcDbEntity
8
1
62
256
6
ByLayer
370
18
48
1
60
0
100
AcDbCircle
10
38
20
9
30
0
40
2.625
39
0
210
0
220
0
230
1
0
CIRCLE
5
BC
100
AcDbEntity
8
1
62
256
6
ByLayer
370
18
48
1
60
0
100
AcDbCircle
10
38
20
9
30
0
40
1.8
39
0
210
0
220
0
230
1
0
CIRCLE
5
C5
100
AcDbEntity
8
1
62
256
6
ByLayer
370
13
48
1
60
0
100
AcDbCircle
10
38
20
9
30
0
40
2.89684381127729
39
0
210
0
220
0
230
1
0
CIRCLE
5
C6
100
AcDbEntity
8
1
62
256
6
ByLayer
370
13
48
1
60
0
100
AcDbCircle
10
38
20
9
30
0
40
3.01176647162009
39
0
210
0
220
0
230
1
0
CIRCLE
5
C7
100
AcDbEntity
8
1
62
256
6
ByLayer
370
18
48
1
60
0
100
AcDbCircle
10
38
20
9
30
0
40
3.07132534818235
39
0
210
0
220
0
230
1
0
CIRCLE
5
C8
100
AcDbEntity
8
1
62
256
6
ByLayer
370
18
48
1
60
0
100
AcDbCircle
10
38
20
9
30
0
40
4.99999999999999
39
0
210
0
220
0
230
1
0
POINT
5
70
100
AcDbEntity
8
2
62
256
6
ByLayer
370
18
48
1
60
0
100
AcDbPoint
10
16.9
20
5.809045
30
0
39
0
210
0
220
0
230
1
50
360
0
POINT
5
72
100
AcDbEntity
8
2
62
256
6
ByLayer
370
18
48
1
60
0
100
AcDbPoint
10
16.9
20
9.472368
30
0
39
0
210
0
220
0
230
1
50
360
0
POINT
5
73
100
AcDbEntity
8
2
62
256
6
ByLayer
370
18
48
1
60
0
100
AcDbPoint
10
37.73
20
9
30
0
39
0
210
0
220
0
230
1
50
360
0
POINT
5
74
100
AcDbEntity
8
2
62
256
6
ByLayer
370
18
48
1
60
0
100
AcDbPoint
10
38
20
9
30
0
39
0
210
0
220
0
230
1
50
360
0
POINT
5
75
100
AcDbEntity
8
80
62
256
6
ByLayer
370
18
48
1
60
0
100
AcDbPoint
10
0
20
0
30
0
39
0
210
0
220
0
230
1
50
360
0
POINT
5
77
100
AcDbEntity
8
1
62
256
6
ByLayer
370
18
48
1
60
0
100
AcDbPoint
10
0
20
0
30
0
39
0
210
0
220
0
230
1
50
360
0
POINT
5
79
100
AcDbEntity
8
81
62
256
6
ByLayer
370
18
48
1
60
0
100
AcDbPoint
10
43
20
14
30
0
39
0
210
0
220
0
230
1
50
360
0
POINT
5
7B
100
AcDbEntity
8
2
62
256
6
ByLayer
370
18
48
1
60
0
100
AcDbPoint
10
-84
20
-12.5
30
0
39
0
210
0
220
0
230
1
50
360
0
POINT
5
7C
100
AcDbEntity
8
2
62
256
6
ByLayer
370
18
48
1
60
0
100
AcDbPoint
10
0
20
-12.5
30
0
39
0
210
0
220
0
230
1
50
360
0
POINT
5
7D
100
AcDbEntity
8
2
62
256
6
ByLayer
370
18
48
1
60
0
100
AcDbPoint
10
-84
20
12.5
30
0
39
0
210
0
220
0
230
1
50
360
0
POINT
5
7E
100
AcDbEntity
8
2
62
256
6
ByLayer
370
18
48
1
60
0
100
AcDbPoint
10
43
20
14
30
0
39
0
210
0
220
0
230
1
50
360
0
POINT
5
7F
100
AcDbEntity
8
2
62
256
6
ByLayer
370
18
48
1
60
0
100
AcDbPoint
10
-84
20
12.5
30
0
39
0
210
0
220
0
230
1
50
360
0
POINT
5
80
100
AcDbEntity
8
2
62
256
6
ByLayer
370
18
48
1
60
0
100
AcDbPoint
10
0
20
12.5
30
0
39
0
210
0
220
0
230
1
50
360
0
SPLINE
5
C9
100
AcDbEntity
8
1
62
256
6
ByLayer
370
18
48
1
60
0
100
AcDbSpline
70
4
71
3
72
17
73
13
40
0
40
0
40
0
40
0
40
0.125
40
0.25
40
0.25
40
0.5
40
0.5
40
0.75
40
0.75
40
0.875
40
0.875
40
1
40
1
40
1
40
1
41
1
10
15.0978063137938
20
13.2
30
0
41
1
10
14.8300504655442
20
13.2
30
0
41
1
10
14.2945788658791
20
13.2
30
0
41
1
10
13.7591818871756
20
13.2
30
0
41
1
10
12.9561322129736
20
13.2
30
0
41
1
10
12.420828280697
20
13.2
30
0
41
1
10
11.3502504063758
20
13.2
30
0
41
1
10
10.8149760851572
20
13.2
30
0
41
1
10
10.0119839968943
20
13.2
30
0
41
1
10
9.74430625512639
20
13.2
30
0
41
1
10
9.20890264414948
20
13.2
30
0
41
1
10
8.94113775065378
20
13.2
30
0
41
1
10
8.67346741601057
20
13.2
30
0
0
SPLINE
5
CA
100
AcDbEntity
8
1
62
256
6
ByLayer
370
18
48
1
60
0
100
AcDbSpline
70
4
71
3
72
36
73
32
40
0
40
0
40
0
40
0
40
0.124999999999998
40
0.124999999999998
40
0.249999999999997
40
0.249999999999997
40
0.312499999999996
40
0.312499999999996
40
0.343749999999996
40
0.343749999999996
40
0.374999999999997
40
0.374999999999997
40
0.499999999999994
40
0.499999999999994
40
0.624999999999991
40
0.624999999999991
40
0.687499999999991
40
0.687499999999991
40
0.749999999999991
40
0.749999999999991
40
0.781249999999992
40
0.781249999999992
40
0.812499999999992
40
0.812499999999992
40
0.874999999999994
40
0.874999999999994
40
0.906249999999997
40
0.906249999999997
40
0.937499999999999
40
0.937499999999999
40
1
40
1
40
1
40
1
41
1
10
13.4814294211976
20
1.20216977671706
30
0
41
1
10
13.5638593608386
20
1.29278074875913
30
0
41
1
10
13.6470652498736
20
1.38120725539017
30
0
41
1
10
13.8150690412724
20
1.5540220135195
30
0
41
1
10
13.8998665713965
20
1.63840862524484
30
0
41
1
10
14.0282339687957
20
1.7621075412076
30
0
41
1
10
14.0712177829602
20
1.8028594877355
30
0
41
1
10
14.1359777739834
20
1.86327744400342
30
0
41
1
10
14.1576117789919
20
1.88329838820073
30
0
41
1
10
14.2009726908603
20
1.92310488637881
30
0
41
1
10
14.2227237601056
20
1.94291221366501
30
0
41
1
10
14.3314094166334
20
2.04109543410652
30
0
41
1
10
14.4177486256873
20
2.11657036885555
30
0
41
1
10
14.5889112366918
20
2.2617350464437
30
0
41
1
10
14.6737422113605
20
2.33142733502405
30
0
41
1
10
14.7993096129098
20
2.431621591137
30
0
41
1
10
14.8408816762354
20
2.4642926759264
30
0
41
1
10
14.9232954446368
20
2.52813111786546
30
0
41
1
10
14.964138447936
20
2.55929922472222
30
0
41
1
10
15.0246740763494
20
2.60484906893268
30
0
41
1
10
15.0447622405434
20
2.6198549671266
30
0
41
1
10
15.0844345720002
20
2.64928466492455
30
0
41
1
10
15.1040287878395
20
2.66371640104856
30
0
41
1
10
15.1619985178884
20
2.70612615954511
30
0
41
1
10
15.1995708218944
20
2.73322471203605
30
0
41
1
10
15.2538297740244
20
2.77187952149003
30
0
41
1
10
15.2715640542276
20
2.78443098185517
30
0
41
1
10
15.3062120024291
20
2.80880674793863
30
0
41
1
10
15.3231101613363
20
2.82061970834886
30
0
41
1
10
15.3718427602849
20
2.85449813693461
30
0
41
1
10
15.4019108868412
20
2.87513970010721
30
0
41
1
10
15.4288015572091
20
2.89344283086064
30
0
0
SPLINE
5
CB
100
AcDbEntity
8
1
62
256
6
ByLayer
370
18
48
1
60
0
100
AcDbSpline
70
4
71
3
72
16
73
12
40
0
40
0
40
0
40
0
40
0.250000000000017
40
0.250000000000017
40
0.500000000000035
40
0.500000000000035
40
0.625000000000031
40
0.625000000000031
40
0.750000000000028
40
0.750000000000028
40
1
40
1
40
1
40
1
41
1
10
15.4288015572091
20
2.89344283086064
30
0
41
1
10
15.4467921727409
20
2.90568814062451
30
0
41
1
10
15.4634516074627
20
2.91694891113579
30
0
41
1
10
15.4934145913203
20
2.93710523310611
30
0
41
1
10
15.5067212622683
20
2.94600298089639
30
0
41
1
10
15.5234290868825
20
2.95713807714159
30
0
41
1
10
15.5284674811727
20
2.96048859144122
30
0
41
1
10
15.5371895663047
20
2.96628094693577
30
0
41
1
10
15.5408856477655
20
2.96873112172816
30
0
41
1
10
15.5498503711629
20
2.97466906083
30
0
41
1
10
15.5529996536557
20
2.97674850817776
30
0
41
1
10
15.5529865090104
20
2.97673982886826
30
0
0
SPLINE
5
CC
100
AcDbEntity
8
1
62
256
6
ByLayer
370
18
48
1
60
0
100
AcDbSpline
70
4
71
3
72
16
73
12
40
0
40
0
40
0
40
0
40
0.25
40
0.25
40
0.5
40
0.5
40
0.75
40
0.75
40
0.875
40
0.875
40
1
40
1
40
1
40
1
41
1
10
17.364256349965
20
13.2
30
0
41
1
10
17.1751608721673
20
13.2
30
0
41
1
10
16.9862573360862
20
13.2
30
0
41
1
10
16.6086196383685
20
13.2
30
0
41
1
10
16.4198852690906
20
13.2
30
0
41
1
10
16.0423831319035
20
13.2
30
0
41
1
10
15.8536137000325
20
13.2
30
0
41
1
10
15.5703111397084
20
13.2
30
0
41
1
10
15.4758527071515
20
13.2
30
0
41
1
10
15.2868756728501
20
13.2
30
0
41
1
10
15.1923570327767
20
13.2
30
0
41
1
10
15.0978063137938
20
13.2
30
0
0
SPLINE
5
CD
100
AcDbEntity
8
1
62
256
6
ByLayer
370
18
48
1
60
0
100
AcDbSpline
70
4
71
3
72
41
73
37
40
0
40
0
40
0
40
0
40
0.0624999999999936
40
0.0624999999999936
40
0.0781249999999917
40
0.0781249999999917
40
0.0937499999999898
40
0.0937499999999898
40
0.124999999999989
40
0.124999999999989
40
0.187499999999984
40
0.187499999999984
40
0.218749999999982
40
0.218749999999982
40
0.24999999999998
40
0.24999999999998
40
0.312499999999982
40
0.312499999999982
40
0.374999999999983
40
0.374999999999983
40
0.437499999999985
40
0.437499999999985
40
0.468749999999984
40
0.468749999999984
40
0.499999999999984
40
0.499999999999984
40
0.624999999999986
40
0.624999999999986
40
0.749999999999987
40
0.749999999999987
40
0.781249999999989
40
0.781249999999989
40
0.812499999999991
40
0.874999999999994
40
0.874999999999994
40
1
40
1
40
1
40
1
41
1
10
17.3201894686297
20
3.92554481927215
30
0
41
1
10
17.3201986708734
20
3.92554873573886
30
0
41
1
10
17.3285180409668
20
3.92908945222805
30
0
41
1
10
17.3474803032987
20
3.93708664133138
30
0
41
1
10
17.351700275916
20
3.93886389444927
30
0
41
1
10
17.360949687763
20
3.94275119026958
30
0
41
1
10
17.3659952890241
20
3.94486798686501
30
0
41
1
10
17.3821523770133
20
3.95163020665228
30
0
41
1
10
17.394239415099
20
3.9566687477982
30
0
41
1
10
17.4337120845283
20
3.97302494881245
30
0
41
1
10
17.4642655102064
20
3.98556368139396
30
0
41
1
10
17.5146369703846
20
4.00591353869333
30
0
41
1
10
17.5322109012258
20
4.01296491467127
30
0
41
1
10
17.5686562109031
20
4.02747076056528
30
0
41
1
10
17.5874127532419
20
4.03487960695625
30
0
41
1
10
17.6450713840112
20
4.05746262832645
30
0
41
1
10
17.6853491590479
20
4.07298742786315
30
0
41
1
10
17.7689229831507
20
4.10459419768054
30
0
41
1
10
17.8122263878215
20
4.1206796429056
30
0
41
1
10
17.9015677686835
20
4.153188764183
30
0
41
1
10
17.9476089651508
20
4.16961407108974
30
0
41
1
10
18.0186594834234
20
4.19440053491638
30
0
41
1
10
18.0426757679926
20
4.20268792853975
30
0
41
1
10
18.091376607247
20
4.21929995244253
30
0
41
1
10
18.1160259038615
20
4.22761228088592
30
0
41
1
10
18.2402593505197
20
4.26900853675201
30
0
41
1
10
18.3432366301662
20
4.30174749810757
30
0
41
1
10
18.5567376878021
20
4.36596215812571
30
0
41
1
10
18.6672617869247
20
4.39744288511318
30
0
41
1
10
18.8108724026127
20
4.43576528436671
30
0
41
1
10
18.8398795275811
20
4.44338044242304
30
0
41
1
10
18.8980123926561
20
4.45838624383833
30
0
41
1
10
18.9855531288602
20
4.48060230203532
30
0
41
1
10
19.0741352807314
20
4.50192531278279
30
0
41
1
10
19.2527547129142
20
4.54334047642337
30
0
41
1
10
19.3737622394101
20
4.56930999174782
30
0
41
1
10
19.4969925105888
20
4.59352852126344
30
0
0
SPLINE
5
CE
100
AcDbEntity
8
1
62
256
6
ByLayer
370
18
48
1
60
0
100
AcDbSpline
70
4
71
3
72
43
73
39
40
0
40
0
40
0
40
0
40
0.0624999999999963
40
0.124999999999993
40
0.187499999999989
40
0.187499999999989
40
0.218749999999987
40
0.218749999999987
40
0.234374999999986
40
0.234374999999986
40
0.249999999999986
40
0.312499999999978
40
0.374999999999971
40
0.437499999999964
40
0.437499999999964
40
0.453124999999962
40
0.453124999999962
40
0.46874999999996
40
0.499999999999958
40
0.499999999999958
40
0.562499999999956
40
0.624999999999954
40
0.624999999999954
40
0.656249999999952
40
0.656249999999952
40
0.671874999999951
40
0.671874999999951
40
0.68749999999995
40
0.749999999999956
40
0.812499999999962
40
0.874999999999968
40
0.874999999999968
40
0.890624999999971
40
0.890624999999971
40
0.906249999999974
40
0.937499999999982
40
0.937499999999982
40
1
40
1
40
1
40
1
41
1
10
15.1011619173863
20
12.1895722386901
30
0
41
1
10
15.1973026972374
20
12.1898915196507
30
0
41
1
10
15.3881279596227
20
12.1813052131566
30
0
41
1
10
15.6701327458127
20
12.141625058626
30
0
41
1
10
15.8553232684652
20
12.097392134089
30
0
41
1
10
15.9931349885668
20
12.0574008270379
30
0
41
1
10
16.0388917181446
20
12.042932373924
30
0
41
1
10
16.1072496954566
20
12.0194855013014
30
0
41
1
10
16.1299568809413
20
12.0113894428358
30
0
41
1
10
16.1750430766318
20
11.9947012000154
30
0
41
1
10
16.28706455091
20
11.9516947612652
30
0
41
1
10
16.4825370011872
20
11.8628616492191
30
0
41
1
10
16.7302582289356
20
11.7205365148079
30
0
41
1
10
16.8867279249326
20
11.6096218729278
30
0
41
1
10
16.9817102974788
20
11.5351148950991
30
0
41
1
10
17.0005730475994
20
11.5199465622159
30
0
41
1
10
17.0378098783997
20
11.489255425566
30
0
41
1
10
17.0930094982246
20
11.4426273772162
30
0
41
1
10
17.1462626425283
20
11.3942440971615
30
0
41
1
10
17.250210289208
20
11.2951713312479
30
0
41
1
10
17.3819953568433
20
11.1569345794908
30
0
41
1
10
17.5002622395781
20
11.006524408536
30
0
41
1
10
17.5837927738074
20
10.8890655304397
30
0
41
1
10
17.6107732203729
20
10.8491360478303
30
0
41
1
10
17.649922721768
20
10.7880536338085
30
0
41
1
10
17.6627648095623
20
10.7674728593269
30
0
41
1
10
17.6878738860933
20
10.7261267887932
30
0
41
1
10
17.7492770823243
20
10.6221947293126
30
0
41
1
10
17.847650865376
20
10.4300876457559
30
0
41
1
10
17.9534902163466
20
10.1634686095539
30
0
41
1
10
18.007097328616
20
9.97871304543963
30
0
41
1
10
18.0351322501054
20
9.86098003056398
30
0
41
1
10
18.0404692375033
20
9.83729885659281
30
0
41
1
10
18.0505506104725
20
9.7898912712879
30
0
41
1
10
18.0647965210001
20
9.71866424643477
30
0
41
1
10
18.0764283824701
20
9.64709219687882
30
0
41
1
10
18.0962219698618
20
9.50349011197162
30
0
41
1
10
18.1047990566635
20
9.40714582754666
30
0
41
1
10
18.108699917209
20
9.31018443027921
30
0
0
SPLINE
5
CF
100
AcDbEntity
8
1
62
256
6
ByLayer
370
18
48
1
60
0
100
AcDbSpline
70
4
71
3
72
13
73
9
40
0
40
0
40
0
40
0
40
0.25
40
0.25
40
0.5
40
0.75
40
0.75
40
1
40
1
40
1
40
1
41
1
10
5.57255728848756
20
10.8346325913161
30
0
41
1
10
6.35093550597017
20
11.0577671269166
30
0
41
1
10
7.13318086845399
20
11.252818175185
30
0
41
1
10
8.70544919228124
20
11.5880305488968
30
0
41
1
10
10.2854953782225
20
11.8683483241387
30
0
41
1
10
11.8813017871776
20
12.0396856057055
30
0
41
1
10
13.4851477252567
20
12.1561174645942
30
0
41
1
10
14.2910903184413
20
12.1868820125586
30
0
41
1
10
15.1011619173863
20
12.1895722386901
30
0
0
SPLINE
5
D0
100
AcDbEntity
8
1
62
256
6
ByLayer
370
18
48
1
60
0
100
AcDbSpline
70
4
71
3
72
70
73
66
40
0
40
0
40
0
40
0
40
0.0312499999999996
40
0.0624999999999992
40
0.0624999999999992
40
0.124999999999998
40
0.124999999999998
40
0.132812499999998
40
0.132812499999998
40
0.140624999999998
40
0.156249999999997
40
0.156249999999997
40
0.187499999999996
40
0.218749999999996
40
0.249999999999995
40
0.249999999999995
40
0.257812499999995
40
0.257812499999995
40
0.265624999999995
40
0.281249999999996
40
0.281249999999996
40
0.312499999999998
40
0.343749999999999
40
0.375000000000001
40
0.375000000000001
40
0.390625000000001
40
0.390625000000001
40
0.406250000000001
40
0.406250000000001
40
0.437500000000002
40
0.468750000000003
40
0.500000000000004
40
0.500000000000004
40
0.515625000000004
40
0.515625000000004
40
0.531250000000004
40
0.531250000000004
40
0.562500000000004
40
0.593750000000005
40
0.625000000000006
40
0.625000000000006
40
0.632812500000006
40
0.632812500000006
40
0.640625000000006
40
0.656250000000005
40
0.656250000000005
40
0.687500000000004
40
0.718750000000003
40
0.750000000000002
40
0.750000000000002
40
0.765625000000002
40
0.765625000000002
40
0.781250000000002
40
0.781250000000002
40
0.812500000000002
40
0.843750000000002
40
0.843750000000002
40
0.859375000000002
40
0.859375000000002
40
0.875000000000002
40
0.875000000000002
40
0.906250000000002
40
0.937500000000001
40
0.968750000000001
40
1
40
1
40
1
40
1
41
1
10
6.02026293791434
20
3.21400344882511
30
0
41
1
10
5.91112630672933
20
3.23181925528871
30
0
41
1
10
5.6960219992969
20
3.27641682305671
30
0
41
1
10
5.48703262671066
20
3.33834367674692
30
0
41
1
10
5.17806741034568
20
3.44406878547648
30
0
41
1
10
4.97808322815257
20
3.53157015381245
30
0
41
1
10
4.76006947162136
20
3.6499189072197
30
0
41
1
10
4.73595371226713
20
3.66334254094275
30
0
41
1
10
4.68814283004832
20
3.69062051925218
30
0
41
1
10
4.61697343390821
20
3.73222884884211
30
0
41
1
10
4.54742873152725
20
3.77589210247248
30
0
41
1
10
4.41047437349053
20
3.8659222336656
30
0
41
1
10
4.23355449999977
20
3.99316251900569
30
0
41
1
10
3.98501673549495
20
4.20540316705618
30
0
41
1
10
3.83064819582299
20
4.36130861671873
30
0
41
1
10
3.73781546334755
20
4.46340419038214
30
0
41
1
10
3.71941239603078
20
4.48407916762068
30
0
41
1
10
3.68312995055237
20
4.52572150284297
30
0
41
1
10
3.62945365576493
20
4.5886629165384
30
0
41
1
10
3.57799828233857
20
4.65302532092687
30
0
41
1
10
3.47800832027789
20
4.78362100599787
30
0
41
1
10
3.35246677287975
20
4.96273101321654
30
0
41
1
10
3.18723324922414
20
5.24621092551843
30
0
41
1
10
3.09262278022084
20
5.44519627702456
30
0
41
1
10
3.02768606685149
20
5.5983149651257
30
0
41
1
10
3.00703020738086
20
5.65006001268964
30
0
41
1
10
2.96813945335342
20
5.75384723405352
30
0
41
1
10
2.94985107539168
20
5.80600783214473
30
0
41
1
10
2.89840809680104
20
5.96328000199409
30
0
41
1
10
2.83893101704555
20
6.17508113848152
30
0
41
1
10
2.77673235076654
20
6.4990317677279
30
0
41
1
10
2.75344845267682
20
6.71920853263325
30
0
41
1
10
2.74302103532486
20
6.88597097068904
30
0
41
1
10
2.74072392559432
20
6.94190153568456
30
0
41
1
10
2.73853414299464
20
7.05321597412711
30
0
41
1
10
2.73863012376472
20
7.10872797791285
30
0
41
1
10
2.74243619475894
20
7.27483498634803
30
0
41
1
10
2.7568799908461
20
7.49516853737723
30
0
41
1
10
2.80625527124721
20
7.82228971687661
30
0
41
1
10
2.85777909865647
20
8.03810104818925
30
0
41
1
10
2.89596681857949
20
8.17225293616909
30
0
41
1
10
2.903914119099
20
8.19907766605598
30
0
41
1
10
2.92034309311066
20
8.25242533895792
30
0
41
1
10
2.94579873911542
20
8.33203900183554
30
0
41
1
10
2.97366521721787
20
8.41044224321453
30
0
41
1
10
3.03256198299903
20
8.56566083459478
30
0
41
1
10
3.11951650193504
20
8.76839023331249
30
0
41
1
10
3.27484580735572
20
9.05999886680942
30
0
41
1
10
3.39510545713267
20
9.24603465828372
30
0
41
1
10
3.49174493881847
20
9.38233614596845
30
0
41
1
10
3.52487134933713
20
9.4269981859351
30
0
41
1
10
3.59271431889883
20
9.51452918101887
30
0
41
1
10
3.62746315363094
20
9.55744377264682
30
0
41
1
10
3.73415531513956
20
9.68367438417422
30
0
41
1
10
3.88292448648727
20
9.84528914992362
30
0
41
1
10
4.0445513539874
20
9.99371401886671
30
0
41
1
10
4.17063470095411
20
10.1000524076476
30
0
41
1
10
4.2134740957317
20
10.1346673865144
30
0
41
1
10
4.30079644080732
20
10.2022156449425
30
0
41
1
10
4.34532428227385
20
10.2351806110415
30
0
41
1
10
4.48113051432728
20
10.3313065670628
30
0
41
1
10
4.66628922017887
20
10.4508276906917
30
0
41
1
10
4.95589820113545
20
10.6050379946433
30
0
41
1
10
5.25726118211358
20
10.7344813518589
30
0
41
1
10
5.46609416140012
20
10.8041132372442
30
0
41
1
10
5.57255728848756
20
10.8346325913161
30
0
0
SPLINE
5
D1
100
AcDbEntity
8
1
62
256
6
ByLayer
370
18
48
1
60
0
100
AcDbSpline
70
4
71
3
72
13
73
9
40
0
40
0
40
0
40
0
40
0.25
40
0.25
40
0.5
40
0.75
40
0.75
40
1
40
1
40
1
40
1
41
1
10
15.4216482185947
20
2.95959964688493
30
0
41
1
10
14.6339075265294
20
2.87442360230821
30
0
41
1
10
13.8472410836462
20
2.81639363077267
30
0
41
1
10
12.2760713568041
20
2.75338299051526
30
0
41
1
10
10.7070646535353
20
2.74342461959833
30
0
41
1
10
9.1423539173455
20
2.83856124927951
30
0
41
1
10
7.57974785801318
20
2.98646519850649
30
0
41
1
10
6.79949721172707
20
3.0867987984586
30
0
41
1
10
6.02026293791431
20
3.21400344882511
30
0
0
SPLINE
5
D2
100
AcDbEntity
8
1
62
256
6
ByLayer
370
18
48
1
60
0
100
AcDbSpline
70
4
71
3
72
8
73
4
40
0
40
0
40
0
40
0
40
1
40
1
40
1
40
1
41
1
10
15.552990473256
20
2.97674244642954
30
0
41
1
10
15.5093223696078
20
2.97005936761647
30
0
41
1
10
15.4655415147119
20
2.96434569769119
30
0
41
1
10
15.4216482185947
20
2.95959964688493
30
0
0
SPLINE
5
D3
100
AcDbEntity
8
1
62
256
6
ByLayer
370
18
48
1
60
0
100
AcDbSpline
70
4
71
3
72
10
73
6
40
0
40
0
40
0
40
0
40
0.5
40
0.5
40
1
40
1
40
1
40
1
41
1
10
17.3201940697515
20
3.9255467775055
30
0
41
1
10
17.0111969651864
20
3.79438472746429
30
0
41
1
10
16.7094894507361
20
3.64965994769969
30
0
41
1
10
16.1204339906145
20
3.33340169717042
30
0
41
1
10
15.8330860482754
20
3.16186837109063
30
0
41
1
10
15.552990473256
20
2.97674244642954
30
0
0
SPLINE
5
D4
100
AcDbEntity
8
1
62
256
6
ByLayer
370
18
48
1
60
0
100
AcDbSpline
70
4
71
3
72
19
73
15
40
0
40
0
40
0
40
0
40
0.249999999999995
40
0.249999999999995
40
0.37499999999999
40
0.37499999999999
40
0.437499999999987
40
0.468749999999986
40
0.468749999999986
40
0.499999999999985
40
0.499999999999985
40
0.749999999999992
40
0.749999999999992
40
1
40
1
40
1
40
1
41
1
10
18.0957509289017
20
5.79950981758134
30
0
41
1
10
18.0874735393718
20
5.62569623451361
30
0
41
1
10
18.0643079535701
20
5.45509375232109
30
0
41
1
10
18.0081205691114
20
5.20381160538162
30
0
41
1
10
17.9857974646237
20
5.12082560947877
30
0
41
1
10
17.9468506291504
20
4.99752345715558
30
0
41
1
10
17.9260097861275
20
4.93616699374422
30
0
41
1
10
17.9030866298912
20
4.87525902942886
30
0
41
1
10
17.8873370093498
20
4.83475439889131
30
0
41
1
10
17.8792184524738
20
4.81452903436772
30
0
41
1
10
17.804365778402
20
4.63376706419831
30
0
41
1
10
17.7249404702478
20
4.48118610548036
30
0
41
1
10
17.5413881319816
20
4.19154222073442
30
0
41
1
10
17.4372618654037
20
4.05447880292084
30
0
41
1
10
17.3201940697515
20
3.9255467775055
30
0
0
SPLINE
5
D5
100
AcDbEntity
8
1
62
256
6
ByLayer
370
18
48
1
60
0
100
AcDbSpline
70
4
71
3
72
8
73
4
40
0
40
0
40
0
40
0
40
1
40
1
40
1
40
1
41
1
10
18.108699917209
20
9.31018443027924
30
0
41
1
10
18.1558134080624
20
8.1391120861299
30
0
41
1
10
18.1514392849592
20
6.96888727247295
30
0
41
1
10
18.0957509289017
20
5.79950981758134
30
0
0
SPLINE
5
D6
100
AcDbEntity
8
1
62
256
6
ByLayer
370
18
48
1
60
0
100
AcDbSpline
70
4
71
3
72
32
73
28
40
0
40
0
40
0
40
0
40
0.124999999999988
40
0.124999999999988
40
0.249999999999977
40
0.249999999999977
40
0.374999999999965
40
0.374999999999965
40
0.499999999999953
40
0.499999999999953
40
0.562499999999948
40
0.562499999999948
40
0.624999999999942
40
0.624999999999942
40
0.687499999999936
40
0.687499999999936
40
0.74999999999993
40
0.74999999999993
40
0.812499999999924
40
0.812499999999924
40
0.843749999999921
40
0.843749999999921
40
0.874999999999918
40
0.874999999999918
40
0.937499999999959
40
0.937499999999959
40
1
40
1
40
1
40
1
41
1
10
36.5481950130957
20
9.8382
30
0
41
1
10
36.5592588236759
20
9.85736308205026
30
0
41
1
10
36.5710927025255
20
9.87604796999017
30
0
41
1
10
36.5963553838406
20
9.91242714415193
30
0
41
1
10
36.6097770815897
20
9.93010638509924
30
0
41
1
10
36.6381810893463
20
9.9640871370311
30
0
41
1
10
36.653159336754
20
9.98039201355945
30
0
41
1
10
36.6848227562435
20
10.0112143055579
30
0
41
1
10
36.7014520611169
20
10.025690473475
30
0
41
1
10
36.7278377980813
20
10.0454636814286
30
0
41
1
10
36.736830734928
20
10.051694461898
30
0
41
1
10
36.7552782345475
20
10.0633040272835
30
0
41
1
10
36.7647692094114
20
10.0687024224637
30
0
41
1
10
36.784140244251
20
10.0783488111019
30
0
41
1
10
36.7939729220421
20
10.0825790862243
30
0
41
1
10
36.8139890241856
20
10.0895777523341
30
0
41
1
10
36.8242049802242
20
10.0923573060904
30
0
41
1
10
36.8449470190725
20
10.0959486087008
30
0
41
1
10
36.8552385036215
20
10.0967222365532
30
0
41
1
10
36.8705138432813
20
10.0960015953879
30
0
41
1
10
36.8755900600916
20
10.095438529899
30
0
41
1
10
36.8854080540194
20
10.0936600303855
30
0
41
1
10
36.8901830824227
20
10.092445127909
30
0
41
1
10
36.9040912838502
20
10.0877958941411
30
0
41
1
10
36.9129096266952
20
10.0832530213498
30
0
41
1
10
36.9283998732568
20
10.0720183860022
30
0
41
1
10
36.9351965776225
20
10.0653289513009
30
0
41
1
10
36.941152623202
20
10.0576895658583
30
0
0
SPLINE
5
D7
100
AcDbEntity
8
1
62
256
6
ByLayer
370
18
48
1
60
0
100
AcDbSpline
70
4
71
3
72
32
73
28
40
0
40
0
40
0
40
0
40
0.124999999999988
40
0.124999999999988
40
0.249999999999976
40
0.249999999999976
40
0.374999999999964
40
0.374999999999964
40
0.499999999999952
40
0.499999999999952
40
0.562499999999946
40
0.562499999999946
40
0.62499999999994
40
0.62499999999994
40
0.687499999999934
40
0.687499999999934
40
0.749999999999928
40
0.749999999999928
40
0.812499999999922
40
0.812499999999922
40
0.843749999999927
40
0.843749999999927
40
0.874999999999932
40
0.874999999999932
40
0.937499999999966
40
0.937499999999966
40
1
40
1
40
1
40
1
41
1
10
37.9999999999999
20
10.6764
30
0
41
1
10
37.9778723788395
20
10.6764
30
0
41
1
10
37.9557738517919
20
10.6754940042609
30
0
41
1
10
37.9116372221416
20
10.6718054675552
30
0
41
1
10
37.889615701487
20
10.6690215568162
30
0
41
1
10
37.845985503196
20
10.6614133404956
30
0
41
1
10
37.8243759422131
20
10.6565942360006
30
0
41
1
10
37.7818513445948
20
10.6445840563513
30
0
41
1
10
37.7609999629925
20
10.6374207398421
30
0
41
1
10
37.7306829941081
20
10.6244566253102
30
0
41
1
10
37.7207905115128
20
10.619783903781
30
0
41
1
10
37.7015125831524
20
10.609612683167
30
0
41
1
10
37.6920919483546
20
10.6040924554182
30
0
41
1
10
37.6740524133195
20
10.5921398414687
30
0
41
1
10
37.6654725487029
20
10.5857396302755
30
0
41
1
10
37.6494034749875
20
10.5719045103894
30
0
41
1
10
37.6418883328039
20
10.5644470098142
30
0
41
1
10
37.6284071540866
20
10.5482795285505
30
0
41
1
10
37.6225914304389
20
10.5397536554146
30
0
41
1
10
37.615577854165
20
10.5261645026351
30
0
41
1
10
37.6135273747773
20
10.5214868371778
30
0
41
1
10
37.6101586035727
20
10.5120949552654
30
0
41
1
10
37.6088232257789
20
10.5073522081261
30
0
41
1
10
37.6058954796162
20
10.492982735485
30
0
41
1
10
37.6054205514372
20
10.4830743901662
30
0
41
1
10
37.6074049077696
20
10.4640421254593
30
0
41
1
10
37.609799775975
20
10.4548112894659
30
0
41
1
10
37.6134376550479
20
10.4458335099667
30
0
0
SPLINE
5
D8
100
AcDbEntity
8
1
62
256
6
ByLayer
370
18
48
1
60
0
100
AcDbSpline
70
4
71
3
72
42
73
38
40
0
40
0
40
0
40
0
40
0.0625000000000311
40
0.0625000000000311
40
0.0937500000000434
40
0.0937500000000434
40
0.125000000000056
40
0.125000000000056
40
0.187500000000064
40
0.187500000000064
40
0.250000000000073
40
0.250000000000073
40
0.312500000000082
40
0.312500000000082
40
0.37500000000009
40
0.37500000000009
40
0.437500000000099
40
0.437500000000099
40
0.500000000000108
40
0.500000000000108
40
0.562500000000116
40
0.562500000000116
40
0.625000000000125
40
0.625000000000125
40
0.750000000000114
40
0.750000000000114
40
0.781250000000108
40
0.781250000000108
40
0.812500000000101
40
0.812500000000101
40
0.875000000000085
40
0.875000000000085
40
0.906250000000068
40
0.906250000000068
40
0.93750000000005
40
0.93750000000005
40
1
40
1
40
1
40
1
41
1
10
37.6129988776368
20
10.4258335099667
30
0
41
1
10
37.6126481413894
20
10.4098465316674
30
0
41
1
10
37.6095137300049
20
10.3941197835651
30
0
41
1
10
37.6020149168509
20
10.3707565868551
30
0
41
1
10
37.5990309954632
20
10.3630111930344
30
0
41
1
10
37.5923227687511
20
10.3477998010161
30
0
41
1
10
37.5885886240148
20
10.3403027739495
30
0
41
1
10
37.5763941025827
20
10.3180845805911
30
0
41
1
10
37.5670392741123
20
10.3037897575345
30
0
41
1
10
37.5464482503782
20
10.2760453097118
30
0
41
1
10
37.5352327882559
20
10.2626397961603
30
0
41
1
10
37.5114355812807
20
10.2367965146454
30
0
41
1
10
37.4987850549993
20
10.2242907569076
30
0
41
1
10
37.4724319656051
20
10.200283174089
30
0
41
1
10
37.4587210647554
20
10.1887674386256
30
0
41
1
10
37.4303064383359
20
10.1666256427013
30
0
41
1
10
37.4156093651966
20
10.156010838094
30
0
41
1
10
37.3855540557613
20
10.1358414868701
30
0
41
1
10
37.3701576682267
20
10.1262571243623
30
0
41
1
10
37.3386439552412
20
10.1080897405899
30
0
41
1
10
37.3226353551916
20
10.0995692022761
30
0
41
1
10
37.2901096405104
20
10.0836634186836
30
0
41
1
10
37.2735317083575
20
10.0762555136965
30
0
41
1
10
37.223600928129
20
10.0560882593209
30
0
41
1
10
37.1899922494485
20
10.045267532792
30
0
41
1
10
37.1473877573
20
10.0357245816019
30
0
41
1
10
37.1388362022318
20
10.0340200456003
30
0
41
1
10
37.1216618770032
20
10.0310623968403
30
0
41
1
10
37.113021512351
20
10.0298085340395
30
0
41
1
10
37.087310054394
20
10.0268465230859
30
0
41
1
10
37.0703515822234
20
10.0259041737612
30
0
41
1
10
37.0452135347208
20
10.0264342047433
30
0
41
1
10
37.0368844741673
20
10.0269374925778
30
0
41
1
10
37.0203382210821
20
10.0287187763949
30
0
41
1
10
37.0120865338777
20
10.0300067572364
30
0
41
1
10
36.9880356285277
20
10.0351870284266
30
0
41
1
10
36.9727871356055
20
10.0403391644262
30
0
41
1
10
36.9586925199832
20
10.0480695582429
30
0
0
SPLINE
5
D9
100
AcDbEntity
8
1
62
256
6
ByLayer
370
18
48
1
60
0
100
AcDbSpline
70
4
71
3
72
8
73
4
40
0
40
0
40
0
40
0
40
1
40
1
40
1
40
1
41
1
10
37.6134376550479
20
10.4458335099667
30
0
41
1
10
37.6132914148339
20
10.4391677058336
30
0
41
1
10
37.6131451559396
20
10.4325010502315
30
0
41
1
10
37.6129988776368
20
10.4258335099667
30
0
0
SPLINE
5
DA
100
AcDbEntity
8
1
62
256
6
ByLayer
370
18
48
1
60
0
100
AcDbSpline
70
4
71
3
72
8
73
4
40
0
40
0
40
0
40
0
40
1
40
1
40
1
40
1
41
1
10
36.941152623202
20
10.0576895658583
30
0
41
1
10
36.9469984990249
20
10.0544833115322
30
0
41
1
10
36.9528451215817
20
10.0512766476491
30
0
41
1
10
36.9586925199832
20
10.0480695582429
30
0
0
SPLINE
5
DB
100
AcDbEntity
8
1
62
256
6
ByLayer
370
18
48
1
60
0
100
AcDbSpline
70
4
71
3
72
40
73
36
40
0
40
0
40
0
40
0
40
0.0624999999999873
40
0.0624999999999873
40
0.0937499999999898
40
0.0937499999999898
40
0.124999999999992
40
0.124999999999992
40
0.187499999999993
40
0.187499999999993
40
0.249999999999993
40
0.249999999999993
40
0.312499999999993
40
0.312499999999993
40
0.374999999999993
40
0.374999999999993
40
0.437499999999994
40
0.437499999999994
40
0.499999999999994
40
0.499999999999994
40
0.625000000000007
40
0.625000000000007
40
0.687500000000005
40
0.687500000000005
40
0.750000000000004
40
0.750000000000004
40
0.812500000000003
40
0.812500000000003
40
0.875000000000002
40
0.875000000000002
40
0.906249999999996
40
0.906249999999996
40
0.937499999999991
40
0.937499999999991
40
1
40
1
40
1
40
1
41
1
10
36.5716913976201
20
8.62223604827619
30
0
41
1
10
36.5853472237575
20
8.63052482565055
30
0
41
1
10
36.5973890603712
20
8.64108969012358
30
0
41
1
10
36.61385934378
20
8.6592420446471
30
0
41
1
10
36.6190713857599
20
8.66569074073297
30
0
41
1
10
36.6288842053259
20
8.67908888052668
30
0
41
1
10
36.633506917532
20
8.68606230298266
30
0
41
1
10
36.6466437778801
20
8.70770415501246
30
0
41
1
10
36.6543434206023
20
8.72293468713576
30
0
41
1
10
36.668071602914
20
8.75459925976318
30
0
41
1
10
36.67407332774
20
8.77099557233598
30
0
41
1
10
36.6845572124018
20
8.8044855450843
30
0
41
1
10
36.6890641670351
20
8.82167323835122
30
0
41
1
10
36.6966851810792
20
8.85645949295912
30
0
41
1
10
36.6998068197979
20
8.87407100635124
30
0
41
1
10
36.7047853838683
20
8.90970822398506
30
0
41
1
10
36.7066361166998
20
8.92772453895819
30
0
41
1
10
36.7090908448586
20
8.9637991520822
30
0
41
1
10
36.7097016582638
20
8.9819034617548
30
0
41
1
10
36.7096966733772
20
9.03641385296325
30
0
41
1
10
36.7072806810299
20
9.07242684790774
30
0
41
1
10
36.6998057276723
20
9.12593844171241
30
0
41
1
10
36.696674334527
20
9.14359479126458
30
0
41
1
10
36.6890588487846
20
9.17834625180811
30
0
41
1
10
36.6845594871593
20
9.19551053635337
30
0
41
1
10
36.6740522110993
20
9.22906852918058
30
0
41
1
10
36.6680422702364
20
9.24547608071757
30
0
41
1
10
36.654310974511
20
9.27713243280277
30
0
41
1
10
36.6465766530811
20
9.292416408859
30
0
41
1
10
36.6334639087979
20
9.31400351561564
30
0
41
1
10
36.6288457336927
20
9.32096723399704
30
0
41
1
10
36.6190301593765
20
9.33436193286661
30
0
41
1
10
36.613814654375
20
9.34081001508977
30
0
41
1
10
36.5973791421724
20
9.35891560286981
30
0
41
1
10
36.5853539060552
20
9.36947111834598
30
0
41
1
10
36.5716913976201
20
9.37776395172384
30
0
0
SPLINE
5
DC
100
AcDbEntity
8
1
62
256
6
ByLayer
370
18
48
1
60
0
100
AcDbSpline
70
4
71
3
72
8
73
4
40
0
40
0
40
0
40
0
40
1
40
1
40
1
40
1
41
1
10
36.5716913976201
20
9.37776395172381
30
0
41
1
10
36.5659902775214
20
9.38122440258243
30
0
41
1
10
36.5602899138589
20
9.38468439430144
30
0
41
1
10
36.5545902782499
20
9.38814394410841
30
0
0
SPLINE
5
DD
100
AcDbEntity
8
1
62
256
6
ByLayer
370
18
48
1
60
0
100
AcDbSpline
70
4
71
3
72
31
73
27
40
0
40
0
40
0
40
0
40
0.250000000000014
40
0.250000000000014
40
0.375000000000012
40
0.375000000000012
40
0.50000000000001
40
0.50000000000001
40
0.562500000000008
40
0.562500000000008
40
0.625000000000005
40
0.625000000000005
40
0.687500000000003
40
0.687500000000003
40
0.750000000000001
40
0.750000000000001
40
0.781249999999996
40
0.781249999999996
40
0.812499999999992
40
0.843749999999988
40
0.843749999999988
40
0.874999999999983
40
0.874999999999983
40
0.937499999999992
40
0.937499999999992
40
1
40
1
40
1
40
1
41
1
10
36.5481950130957
20
9.8382
30
0
41
1
10
36.5260826952681
20
9.79990034204943
30
0
41
1
10
36.5069805432668
20
9.75964411795343
30
0
41
1
10
36.4841689287526
20
9.69733075207182
30
0
41
1
10
36.4775365647825
20
9.67620206392471
30
0
41
1
10
36.4666896166962
20
9.63343616080314
30
0
41
1
10
36.4624622416218
20
9.61177575035745
30
0
41
1
10
36.4585327011566
20
9.57911178845109
30
0
41
1
10
36.4576267649592
20
9.56817388340883
30
0
41
1
10
36.4567911744519
20
9.54637788938581
30
0
41
1
10
36.4568608961513
20
9.53545109862421
30
0
41
1
10
36.4581813607343
20
9.51391795477113
30
0
41
1
10
36.4594240788883
20
9.50333656685848
30
0
41
1
10
36.4633223382659
20
9.48263544377079
30
0
41
1
10
36.4659732586647
20
9.47251407751469
30
0
41
1
10
36.4713298822382
20
9.45779430977601
30
0
41
1
10
36.4733638353757
20
9.4529338854216
30
0
41
1
10
36.4778891308394
20
9.44358705925256
30
0
41
1
10
36.482861656933
20
9.43461609646423
30
0
41
1
10
36.488797921215
20
9.42646177673629
30
0
41
1
10
36.4952638201491
20
9.41875947327017
30
0
41
1
10
36.4987696543611
20
9.41513694592732
30
0
41
1
10
36.5097913784604
20
9.40532085487854
30
0
41
1
10
36.5179039300946
20
9.40004738976882
30
0
41
1
10
36.5356537368122
20
9.39205646686719
30
0
41
1
10
36.5449605570648
20
9.38948733193641
30
0
41
1
10
36.5545902782499
20
9.38814394410841
30
0
0
SPLINE
5
DE
100
AcDbEntity
8
1
62
256
6
ByLayer
370
18
48
1
60
0
100
AcDbSpline
70
4
71
3
72
32
73
28
40
0
40
0
40
0
40
0
40
0.125000000000009
40
0.125000000000009
40
0.250000000000018
40
0.250000000000018
40
0.375000000000027
40
0.375000000000027
40
0.500000000000036
40
0.500000000000036
40
0.562500000000029
40
0.562500000000029
40
0.625000000000021
40
0.625000000000021
40
0.687500000000014
40
0.687500000000014
40
0.750000000000006
40
0.750000000000006
40
0.812499999999999
40
0.812499999999999
40
0.843749999999995
40
0.843749999999995
40
0.874999999999992
40
0.874999999999992
40
0.937499999999996
40
0.937499999999996
40
1
40
1
40
1
40
1
41
1
10
36.5481950130957
20
8.1618
30
0
41
1
10
36.5371312025155
20
8.18096308205023
30
0
41
1
10
36.5268665543175
20
8.20055396572923
30
0
41
1
10
36.5079926059822
20
8.24062167659667
30
0
41
1
10
36.4993927830768
20
8.26108482828303
30
0
41
1
10
36.4841665925424
20
8.30267379653549
30
0
41
1
10
36.4775352789671
20
8.32379777755887
30
0
41
1
10
36.4666741008383
20
8.36663024920665
30
0
41
1
10
36.4624520241094
20
8.38826973363282
30
0
41
1
10
36.4585207921895
20
8.42100705611836
30
0
41
1
10
36.4576212464409
20
8.43191055811701
30
0
41
1
10
36.4567908176999
20
8.45369134411646
30
0
41
1
10
36.4568611577661
20
8.46460996704548
30
0
41
1
10
36.4581926575705
20
8.48620896963317
30
0
41
1
10
36.459445470745
20
8.4968394559487
30
0
41
1
10
36.4633924991731
20
8.51767324194466
30
0
41
1
10
36.4660933130282
20
8.52791029627622
30
0
41
1
10
36.4733541731592
20
8.54766908015026
30
0
41
1
10
36.4778299340604
20
8.55696858113851
30
0
41
1
10
36.4860916974464
20
8.56983709275278
30
0
41
1
10
36.489117434869
20
8.57395169272112
30
0
41
1
10
36.4955666575922
20
8.58156507512004
30
0
41
1
10
36.4990063082016
20
8.58509291978282
30
0
41
1
10
36.5099867634665
20
8.59481315865608
30
0
41
1
10
36.5183301781325
20
8.60017863118352
30
0
41
1
10
36.5358047810265
20
8.60797626054296
30
0
41
1
10
36.5449963535976
20
8.61051766183499
30
0
41
1
10
36.5545902782499
20
8.61185605589159
30
0
0
SPLINE
5
DF
100
AcDbEntity
8
1
62
256
6
ByLayer
370
18
48
1
60
0
100
AcDbSpline
70
4
71
3
72
8
73
4
40
0
40
0
40
0
40
0
40
1
40
1
40
1
40
1
41
1
10
36.5545902782499
20
8.61185605589159
30
0
41
1
10
36.5602899138589
20
8.61531560569856
30
0
41
1
10
36.5659902775214
20
8.61877559741757
30
0
41
1
10
36.5716913976201
20
8.62223604827619
30
0
0
SPLINE
5
E0
100
AcDbEntity
8
1
62
256
6
ByLayer
370
18
48
1
60
0
100
AcDbSpline
70
4
71
3
72
40
73
36
40
0
40
0
40
0
40
0
40
0.0625000000000118
40
0.0625000000000118
40
0.0937500000000118
40
0.0937500000000118
40
0.125000000000012
40
0.125000000000012
40
0.187500000000007
40
0.187500000000007
40
0.250000000000001
40
0.250000000000001
40
0.312499999999996
40
0.312499999999996
40
0.374999999999991
40
0.374999999999991
40
0.437499999999986
40
0.437499999999986
40
0.49999999999998
40
0.49999999999998
40
0.624999999999984
40
0.624999999999984
40
0.687499999999986
40
0.687499999999986
40
0.749999999999989
40
0.749999999999989
40
0.812499999999991
40
0.812499999999991
40
0.874999999999993
40
0.874999999999993
40
0.906249999999996
40
0.906249999999996
40
0.937499999999999
40
0.937499999999999
40
1
40
1
40
1
40
1
41
1
10
37.6129988776368
20
7.57416649003326
30
0
41
1
10
37.612648498933
20
7.59013717106515
30
0
41
1
10
37.6095199762187
20
7.60584813971735
30
0
41
1
10
37.6020347177672
20
7.6291880008186
30
0
41
1
10
37.5990560041255
20
7.63692610962178
30
0
41
1
10
37.5923592844837
20
7.65212333054549
30
0
41
1
10
37.5886314795886
20
7.65961342797837
30
0
41
1
10
37.5764575161199
20
7.68181120878072
30
0
41
1
10
37.5671173097491
20
7.69609456103987
30
0
41
1
10
37.5465590766096
20
7.72381580198331
30
0
41
1
10
37.5353603158061
20
7.73721160443552
30
0
41
1
10
37.5115990909649
20
7.76303590125713
30
0
41
1
10
37.49896758928
20
7.77553288509674
30
0
41
1
10
37.472652316109
20
7.79952600416544
30
0
41
1
10
37.4589611174718
20
7.81103517929338
30
0
41
1
10
37.4305876637159
20
7.8331653510696
30
0
41
1
10
37.4159104436823
20
7.84377629020389
30
0
41
1
10
37.3858962763646
20
7.8639394537108
30
0
41
1
10
37.3705228909728
20
7.87352058847296
30
0
41
1
10
37.3233130149728
20
7.90077146703877
30
0
41
1
10
37.2909168503108
20
7.91668565376293
30
0
41
1
10
37.2408369740001
20
7.9369679511654
30
0
41
1
10
37.2239804301772
20
7.94308425992847
30
0
41
1
10
37.1900770396567
20
7.95386478608515
30
0
41
1
10
37.1729626523901
20
7.95855036688951
30
0
41
1
10
37.1386469400717
20
7.96622979531048
30
0
41
1
10
37.1214326131953
20
7.96922880961648
30
0
41
1
10
37.0871517602357
20
7.97316533473406
30
0
41
1
10
37.0700482879852
20
7.97410920392278
30
0
41
1
10
37.0447969329982
20
7.97354678763858
30
0
41
1
10
37.0364570884225
20
7.97302918986901
30
0
41
1
10
37.0199491517673
20
7.97122600259326
30
0
41
1
10
37.0117571962556
20
7.96993328388001
30
0
41
1
10
36.9878595411863
20
7.96475250667828
30
0
41
1
10
36.9727055785753
20
7.95961610445244
30
0
41
1
10
36.9586925199832
20
7.9519304417571
30
0
0
SPLINE
5
E1
100
AcDbEntity
8
1
62
256
6
ByLayer
370
18
48
1
60
0
100
AcDbSpline
70
4
71
3
72
8
73
4
40
0
40
0
40
0
40
0
40
1
40
1
40
1
40
1
41
1
10
36.9586925199832
20
7.9519304417571
30
0
41
1
10
36.9528451215818
20
7.94872335235092
30
0
41
1
10
36.9469984990249
20
7.94551668846788
30
0
41
1
10
36.941152623202
20
7.94231043414166
30
0
0
SPLINE
5
E2
100
AcDbEntity
8
1
62
256
6
ByLayer
370
18
48
1
60
0
100
AcDbSpline
70
4
71
3
72
31
73
27
40
0
40
0
40
0
40
0
40
0.249999999999985
40
0.249999999999985
40
0.374999999999977
40
0.374999999999977
40
0.499999999999969
40
0.499999999999969
40
0.562499999999957
40
0.562499999999957
40
0.624999999999945
40
0.624999999999945
40
0.687499999999933
40
0.687499999999933
40
0.749999999999921
40
0.749999999999921
40
0.781249999999933
40
0.781249999999933
40
0.812499999999945
40
0.843749999999957
40
0.843749999999957
40
0.874999999999969
40
0.874999999999969
40
0.937499999999985
40
0.937499999999985
40
1
40
1
40
1
40
1
41
1
10
36.5481950130957
20
8.1618
30
0
41
1
10
36.5703073309234
20
8.1235003420494
30
0
41
1
10
36.5956191676503
20
8.08682928110139
30
0
41
1
10
36.638178318242
20
8.03591716048984
30
0
41
1
10
36.653160116941
20
8.01960902073111
30
0
41
1
10
36.6847730014168
20
7.98883233657403
30
0
41
1
10
36.701417779582
20
7.97434111714543
30
0
41
1
10
36.7277408301485
20
7.95460605432419
30
0
41
1
10
36.7367603656807
20
7.94835253804192
30
0
41
1
10
36.7552184549517
20
7.93673089842392
30
0
41
1
10
36.7647161941828
20
7.93132788380603
30
0
41
1
10
36.7840246760744
20
7.92170486775311
30
0
41
1
10
36.793809785891
20
7.91749039928791
30
0
41
1
10
36.8136866140607
20
7.91051582939568
30
0
41
1
10
36.8237774345588
20
7.90775091067633
30
0
41
1
10
36.8392034391451
20
7.90502999890015
30
0
41
1
10
36.8444296666779
20
7.90436124181017
30
0
41
1
10
36.8547869033169
20
7.90360684955687
30
0
41
1
10
36.8650422833892
20
7.9034275151169
30
0
41
1
10
36.8750722282108
20
7.90449149788853
30
0
41
1
10
36.8849755681472
20
7.90623997889071
30
0
41
1
10
36.889865685958
20
7.90746485670837
30
0
41
1
10
36.9038775322218
20
7.91210190424746
30
0
41
1
10
36.9125007627898
20
7.91649084749733
30
0
41
1
10
36.9282960083811
20
7.92786716957616
30
0
41
1
10
36.9351743546233
20
7.93464254487807
30
0
41
1
10
36.941152623202
20
7.94231043414166
30
0
0
SPLINE
5
E3
100
AcDbEntity
8
1
62
256
6
ByLayer
370
18
48
1
60
0
100
AcDbSpline
70
4
71
3
72
32
73
28
40
0
40
0
40
0
40
0
40
0.125000000000011
40
0.125000000000011
40
0.250000000000022
40
0.250000000000022
40
0.375000000000032
40
0.375000000000032
40
0.500000000000043
40
0.500000000000043
40
0.562500000000027
40
0.562500000000027
40
0.625000000000011
40
0.625000000000011
40
0.687499999999995
40
0.687499999999995
40
0.749999999999978
40
0.749999999999978
40
0.812499999999962
40
0.812499999999962
40
0.843749999999962
40
0.843749999999962
40
0.874999999999962
40
0.874999999999962
40
0.937499999999981
40
0.937499999999981
40
1
40
1
40
1
40
1
41
1
10
37.9999999999999
20
7.3236
30
0
41
1
10
37.9778723788395
20
7.3236
30
0
41
1
10
37.9557738517919
20
7.32450599573906
30
0
41
1
10
37.9116372221416
20
7.32819453244477
30
0
41
1
10
37.889615701487
20
7.33097844318382
30
0
41
1
10
37.845985503196
20
7.33858665950439
30
0
41
1
10
37.8243759422131
20
7.34340576399941
30
0
41
1
10
37.7818513445948
20
7.35541594364875
30
0
41
1
10
37.7609999629925
20
7.36257926015787
30
0
41
1
10
37.7306829941082
20
7.37554337468978
30
0
41
1
10
37.7207905115128
20
7.38021609621899
30
0
41
1
10
37.7015125831524
20
7.39038731683297
30
0
41
1
10
37.6920919483547
20
7.39590754458177
30
0
41
1
10
37.6740524133195
20
7.40786015853135
30
0
41
1
10
37.6654725487029
20
7.41426036972445
30
0
41
1
10
37.6494034749875
20
7.4280954896106
30
0
41
1
10
37.641888332804
20
7.43555299018578
30
0
41
1
10
37.6284071540866
20
7.45172047144951
30
0
41
1
10
37.6225914304389
20
7.46024634458539
30
0
41
1
10
37.615577854165
20
7.47383549736486
30
0
41
1
10
37.6135273747773
20
7.47851316282217
30
0
41
1
10
37.6101586035727
20
7.48790504473456
30
0
41
1
10
37.6088232257789
20
7.49264779187391
30
0
41
1
10
37.6058954796162
20
7.50701726451496
30
0
41
1
10
37.6054205514371
20
7.51692560983375
30
0
41
1
10
37.6074049077696
20
7.53595787454069
30
0
41
1
10
37.609799775975
20
7.54518871053406
30
0
41
1
10
37.6134376550479
20
7.55416649003328
30
0
0
SPLINE
5
E4
100
AcDbEntity
8
1
62
256
6
ByLayer
370
18
48
1
60
0
100
AcDbSpline
70
4
71
3
72
8
73
4
40
0
40
0
40
0
40
0
40
1
40
1
40
1
40
1
41
1
10
37.6134376550479
20
7.55416649003328
30
0
41
1
10
37.6132914148339
20
7.56083229416643
30
0
41
1
10
37.6131451559396
20
7.56749894976849
30
0
41
1
10
37.6129988776368
20
7.57416649003326
30
0
0
SPLINE
5
E5
100
AcDbEntity
8
1
62
256
6
ByLayer
370
18
48
1
60
0
100
AcDbSpline
70
4
71
3
72
32
73
28
40
0
40
0
40
0
40
0
40
0.124999999999991
40
0.124999999999991
40
0.249999999999981
40
0.249999999999981
40
0.374999999999972
40
0.374999999999972
40
0.499999999999963
40
0.499999999999963
40
0.562499999999958
40
0.562499999999958
40
0.624999999999953
40
0.624999999999953
40
0.687499999999948
40
0.687499999999948
40
0.749999999999944
40
0.749999999999944
40
0.812499999999939
40
0.812499999999939
40
0.843749999999936
40
0.843749999999936
40
0.874999999999934
40
0.874999999999934
40
0.937499999999967
40
0.937499999999967
40
1
40
1
40
1
40
1
41
1
10
39.4518049869042
20
8.1618
30
0
41
1
10
39.440741176324
20
8.14263691794977
30
0
41
1
10
39.4289072974744
20
8.12395203000986
30
0
41
1
10
39.4036446161593
20
8.08757285584809
30
0
41
1
10
39.3902229184101
20
8.06989361490079
30
0
41
1
10
39.3618189106536
20
8.0359128629689
30
0
41
1
10
39.3468406632459
20
8.01960798644055
30
0
41
1
10
39.3151772437564
20
7.9887856944421
30
0
41
1
10
39.298547938883
20
7.97430952652505
30
0
41
1
10
39.2721622019186
20
7.95453631857143
30
0
41
1
10
39.2631692650719
20
7.94830553810198
30
0
41
1
10
39.2447217654524
20
7.93669597271648
30
0
41
1
10
39.2352307905885
20
7.9312975775363
30
0
41
1
10
39.2158597557489
20
7.92165118889818
30
0
41
1
10
39.2060270779578
20
7.91742091377574
30
0
41
1
10
39.1860109758143
20
7.91042224766593
30
0
41
1
10
39.1757950197757
20
7.90764269390959
30
0
41
1
10
39.1550529809274
20
7.90405139129925
30
0
41
1
10
39.1447614963784
20
7.90327776344685
30
0
41
1
10
39.1294861567186
20
7.90399840461205
30
0
41
1
10
39.1244099399083
20
7.90456147010104
30
0
41
1
10
39.1145919459805
20
7.90633996961452
30
0
41
1
10
39.1098169175772
20
7.90755487209108
30
0
41
1
10
39.0959087161497
20
7.9122041058589
30
0
41
1
10
39.0870903733046
20
7.91674697865022
30
0
41
1
10
39.0716001267431
20
7.92798161399773
30
0
41
1
10
39.0648034223774
20
7.93467104869907
30
0
41
1
10
39.0588473767979
20
7.94231043414166
30
0
0
SPLINE
5
E6
100
AcDbEntity
8
1
62
256
6
ByLayer
370
18
48
1
60
0
100
AcDbSpline
70
4
71
3
72
40
73
36
40
0
40
0
40
0
40
0
40
0.0625000000000066
40
0.0625000000000066
40
0.0937500000000062
40
0.0937500000000062
40
0.125000000000006
40
0.125000000000006
40
0.1875
40
0.1875
40
0.249999999999995
40
0.249999999999995
40
0.31249999999999
40
0.31249999999999
40
0.374999999999985
40
0.374999999999985
40
0.437499999999979
40
0.437499999999979
40
0.499999999999974
40
0.499999999999974
40
0.624999999999984
40
0.624999999999984
40
0.687499999999989
40
0.687499999999989
40
0.749999999999994
40
0.749999999999994
40
0.812499999999999
40
0.812499999999999
40
0.875000000000004
40
0.875000000000004
40
0.906250000000002
40
0.906250000000002
40
0.9375
40
0.9375
40
1
40
1
40
1
40
1
41
1
10
39.0413074800167
20
7.9519304417571
30
0
41
1
10
39.0273012751755
20
7.9596123454146
30
0
41
1
10
39.0121309158474
20
7.96475844959377
30
0
41
1
10
38.9881753739872
20
7.9699459561715
30
0
41
1
10
38.9799846183656
20
7.97123536888881
30
0
41
1
10
38.9634750791578
20
7.97303445001884
30
0
41
1
10
38.9551245620565
20
7.97355112499571
30
0
41
1
10
38.9298137382397
20
7.97410705376822
30
0
41
1
10
38.9127738891467
20
7.97315987390411
30
0
41
1
10
38.8784874736955
20
7.9692165422201
30
0
41
1
10
38.8612869880661
20
7.96621603209957
30
0
41
1
10
38.8270418785631
20
7.95855035617279
30
0
41
1
10
38.8099034222448
20
7.95385964674554
30
0
41
1
10
38.7759671350298
20
7.94306651120633
30
0
41
1
10
38.7591542976738
20
7.93696417294214
30
0
41
1
10
38.7258022798475
20
7.92345712708456
30
0
41
1
10
38.7092743269824
20
7.9160517512457
30
0
41
1
10
38.6768054315059
20
7.90014030162862
30
0
41
1
10
38.6608212327089
20
7.89161712671816
30
0
41
1
10
38.6136163415955
20
7.86435761407554
30
0
41
1
10
38.5836361692808
20
7.84425880585519
30
0
41
1
10
38.5410312463278
20
7.81102950945299
30
0
41
1
10
38.5273060956501
20
7.79948946866386
30
0
41
1
10
38.5010181908721
20
7.77551853427704
30
0
41
1
10
38.4884031652307
20
7.76303983053611
30
0
41
1
10
38.4645947289724
20
7.73716126612993
30
0
41
1
10
38.4533903429589
20
7.72375272889892
30
0
41
1
10
38.4328407857246
20
7.69603290193126
30
0
41
1
10
38.4234716349041
20
7.68169279506378
30
0
41
1
10
38.4113330242002
20
7.65954327202294
30
0
41
1
10
38.4076113547297
20
7.652061955872
30
0
41
1
10
38.4009189923907
20
7.63686406972664
30
0
41
1
10
38.3979425418805
20
7.62912326879024
30
0
41
1
10
38.3904803990139
20
7.60583690380849
30
0
41
1
10
38.38735167252
20
7.59014498610645
30
0
41
1
10
38.3870011223631
20
7.57416649003326
30
0
0
SPLINE
5
E7
100
AcDbEntity
8
1
62
256
6
ByLayer
370
18
48
1
60
0
100
AcDbSpline
70
4
71
3
72
8
73
4
40
0
40
0
40
0
40
0
40
1
40
1
40
1
40
1
41
1
10
38.3870011223631
20
7.57416649003326
30
0
41
1
10
38.3868548440603
20
7.56749894976849
30
0
41
1
10
38.386708585166
20
7.56083229416643
30
0
41
1
10
38.386562344952
20
7.55416649003328
30
0
0
SPLINE
5
E8
100
AcDbEntity
8
1
62
256
6
ByLayer
370
18
48
1
60
0
100
AcDbSpline
70
4
71
3
72
31
73
27
40
0
40
0
40
0
40
0
40
0.250000000000044
40
0.250000000000044
40
0.375000000000067
40
0.375000000000067
40
0.500000000000089
40
0.500000000000089
40
0.562500000000077
40
0.562500000000077
40
0.625000000000065
40
0.625000000000065
40
0.687500000000053
40
0.687500000000053
40
0.750000000000041
40
0.750000000000041
40
0.78125000000004
40
0.78125000000004
40
0.812500000000039
40
0.843750000000038
40
0.843750000000038
40
0.875000000000037
40
0.875000000000037
40
0.937500000000018
40
0.937500000000018
40
1
40
1
40
1
40
1
41
1
10
37.9999999999999
20
7.3236
30
0
41
1
10
38.0442246356552
20
7.3236
30
0
41
1
10
38.0886386243834
20
7.32718516314796
30
0
41
1
10
38.1540093894894
20
7.33858640841808
30
0
41
1
10
38.1756235521584
20
7.3434069568064
30
0
41
1
10
38.2180833847206
20
7.35539617577089
30
0
41
1
10
38.2389555379602
20
7.36256536678798
30
0
41
1
10
38.2692081289919
20
7.3754942658731
30
0
41
1
10
38.2791336007214
20
7.38017865463311
30
0
41
1
10
38.2984272804997
20
7.39035300903814
30
0
41
1
10
38.3078552980314
20
7.39587678518183
30
0
41
1
10
38.3258433153401
20
7.407786912982
30
0
41
1
10
38.3343857070027
20
7.41415383242941
30
0
41
1
10
38.3503642757947
20
7.42788038562489
30
0
41
1
10
38.3578041758941
20
7.43523683316167
30
0
41
1
10
38.3678735569069
20
7.44723568912417
30
0
41
1
10
38.3710658313022
20
7.45142735638856
30
0
41
1
10
38.3768977724775
20
7.4600197903043
30
0
41
1
10
38.3821805911017
20
7.46881160561651
30
0
41
1
10
38.3862743069957
20
7.47802972115227
30
0
41
1
10
38.389711747998
20
7.4874805056206
30
0
41
1
10
38.3910960315968
20
7.49232791078106
30
0
41
1
10
38.3940861537613
20
7.50678104936893
30
0
41
1
10
38.3945968326952
20
7.51644345772849
30
0
41
1
10
38.3926422715689
20
7.53581070270897
30
0
41
1
10
38.3902137975584
20
7.54515521294166
30
0
41
1
10
38.386562344952
20
7.55416649003328
30
0
0
SPLINE
5
E9
100
AcDbEntity
8
1
62
256
6
ByLayer
370
18
48
1
60
0
100
AcDbSpline
70
4
71
3
72
8
73
4
40
0
40
0
40
0
40
0
40
1
40
1
40
1
40
1
41
1
10
39.0588473767979
20
7.94231043414166
30
0
41
1
10
39.0530015009749
20
7.94551668846785
30
0
41
1
10
39.0471548784182
20
7.94872335235092
30
0
41
1
10
39.0413074800167
20
7.9519304417571
30
0
0
SPLINE
5
EA
100
AcDbEntity
8
1
62
256
6
ByLayer
370
18
48
1
60
0
100
AcDbSpline
70
4
71
3
72
31
73
27
40
0
40
0
40
0
40
0
40
0.250000000000004
40
0.250000000000004
40
0.374999999999997
40
0.374999999999997
40
0.499999999999991
40
0.499999999999991
40
0.562499999999998
40
0.562499999999998
40
0.625000000000006
40
0.625000000000006
40
0.687500000000013
40
0.687500000000013
40
0.750000000000021
40
0.750000000000021
40
0.781250000000018
40
0.781250000000018
40
0.812500000000015
40
0.843750000000013
40
0.843750000000013
40
0.87500000000001
40
0.87500000000001
40
0.937500000000005
40
0.937500000000005
40
1
40
1
40
1
40
1
41
1
10
39.4518049869042
20
8.1618
30
0
41
1
10
39.4739173047318
20
8.20009965795057
30
0
41
1
10
39.4930194567331
20
8.2403558820466
30
0
41
1
10
39.5158310712474
20
8.30266924792821
30
0
41
1
10
39.5224634352174
20
8.32379793607529
30
0
41
1
10
39.5333103833037
20
8.36656383919686
30
0
41
1
10
39.5375377583781
20
8.38822424964255
30
0
41
1
10
39.5414672988433
20
8.42088821154891
30
0
41
1
10
39.5423732350407
20
8.43182611659117
30
0
41
1
10
39.543208825548
20
8.45362211061419
30
0
41
1
10
39.5431391038486
20
8.46454890137582
30
0
41
1
10
39.5418186392656
20
8.48608204522887
30
0
41
1
10
39.5405759211116
20
8.49666343314152
30
0
41
1
10
39.5366776617339
20
8.51736455622921
30
0
41
1
10
39.5340267413352
20
8.52748592248531
30
0
41
1
10
39.5286701177617
20
8.54220569022402
30
0
41
1
10
39.5266361646242
20
8.54706611457843
30
0
41
1
10
39.5221108691604
20
8.55641294074744
30
0
41
1
10
39.5171383430668
20
8.56538390353575
30
0
41
1
10
39.5112020787849
20
8.57353822326374
30
0
41
1
10
39.5047361798507
20
8.58124052672986
30
0
41
1
10
39.5012303456387
20
8.58486305407268
30
0
41
1
10
39.4902086215394
20
8.59467914512146
30
0
41
1
10
39.4820960699053
20
8.59995261023118
30
0
41
1
10
39.4643462631877
20
8.60794353313281
30
0
41
1
10
39.455039442935
20
8.61051266806359
30
0
41
1
10
39.44540972175
20
8.61185605589159
30
0
0
SPLINE
5
EB
100
AcDbEntity
8
1
62
256
6
ByLayer
370
18
48
1
60
0
100
AcDbSpline
70
4
71
3
72
40
73
36
40
0
40
0
40
0
40
0
40
0.0624999999999912
40
0.0624999999999912
40
0.0937499999999954
40
0.0937499999999954
40
0.125
40
0.125
40
0.187500000000004
40
0.187500000000004
40
0.250000000000008
40
0.250000000000008
40
0.312500000000012
40
0.312500000000012
40
0.375000000000016
40
0.375000000000016
40
0.43750000000002
40
0.43750000000002
40
0.500000000000024
40
0.500000000000024
40
0.62500000000002
40
0.62500000000002
40
0.687500000000017
40
0.687500000000017
40
0.750000000000013
40
0.750000000000013
40
0.81250000000001
40
0.81250000000001
40
0.875000000000006
40
0.875000000000006
40
0.90625
40
0.90625
40
0.937499999999993
40
0.937499999999993
40
1
40
1
40
1
40
1
41
1
10
39.4283086023798
20
9.37776395172381
30
0
41
1
10
39.4146527762424
20
9.36947517434945
30
0
41
1
10
39.4026109396287
20
9.35891030987642
30
0
41
1
10
39.3861406562199
20
9.34075795535293
30
0
41
1
10
39.38092861424
20
9.33430925926703
30
0
41
1
10
39.371115794674
20
9.32091111947332
30
0
41
1
10
39.3664930824679
20
9.31393769701734
30
0
41
1
10
39.3533562221198
20
9.29229584498754
30
0
41
1
10
39.3456565793976
20
9.27706531286424
30
0
41
1
10
39.3319283970859
20
9.24540074023682
30
0
41
1
10
39.3259266722599
20
9.22900442766402
30
0
41
1
10
39.3154427875981
20
9.1955144549157
30
0
41
1
10
39.3109358329648
20
9.17832676164878
30
0
41
1
10
39.3033148189207
20
9.14354050704088
30
0
41
1
10
39.300193180202
20
9.12592899364876
30
0
41
1
10
39.2952146161316
20
9.09029177601494
30
0
41
1
10
39.2933638833001
20
9.07227546104181
30
0
41
1
10
39.2909091551413
20
9.0362008479178
30
0
41
1
10
39.2902983417361
20
9.0180965382452
30
0
41
1
10
39.2903033266227
20
8.96358614703675
30
0
41
1
10
39.2927193189699
20
8.92757315209226
30
0
41
1
10
39.3001942723276
20
8.87406155828759
30
0
41
1
10
39.3033256654729
20
8.85640520873542
30
0
41
1
10
39.3109411512153
20
8.82165374819189
30
0
41
1
10
39.3154405128405
20
8.8044894636466
30
0
41
1
10
39.3259477889006
20
8.77093147081942
30
0
41
1
10
39.3319577297635
20
8.75452391928243
30
0
41
1
10
39.3456890254889
20
8.72286756719723
30
0
41
1
10
39.3534233469189
20
8.707583591141
30
0
41
1
10
39.366536091202
20
8.68599648438439
30
0
41
1
10
39.3711542663072
20
8.67903276600296
30
0
41
1
10
39.3809698406234
20
8.66563806713341
30
0
41
1
10
39.3861853456248
20
8.65918998491023
30
0
41
1
10
39.4026208578275
20
8.64108439713019
30
0
41
1
10
39.4146460939447
20
8.63052888165402
30
0
41
1
10
39.4283086023798
20
8.62223604827619
30
0
0
SPLINE
5
EC
100
AcDbEntity
8
1
62
256
6
ByLayer
370
18
48
1
60
0
100
AcDbSpline
70
4
71
3
72
8
73
4
40
0
40
0
40
0
40
0
40
1
40
1
40
1
40
1
41
1
10
39.4283086023798
20
8.62223604827619
30
0
41
1
10
39.4340097224785
20
8.61877559741757
30
0
41
1
10
39.439710086141
20
8.61531560569856
30
0
41
1
10
39.44540972175
20
8.61185605589159
30
0
0
SPLINE
5
ED
100
AcDbEntity
8
1
62
256
6
ByLayer
370
18
48
1
60
0
100
AcDbSpline
70
4
71
3
72
32
73
28
40
0
40
0
40
0
40
0
40
0.12499999999998
40
0.12499999999998
40
0.24999999999996
40
0.24999999999996
40
0.374999999999939
40
0.374999999999939
40
0.499999999999919
40
0.499999999999919
40
0.562499999999917
40
0.562499999999917
40
0.624999999999914
40
0.624999999999914
40
0.687499999999911
40
0.687499999999911
40
0.749999999999908
40
0.749999999999908
40
0.812499999999905
40
0.812499999999905
40
0.843749999999921
40
0.843749999999921
40
0.874999999999937
40
0.874999999999937
40
0.937499999999968
40
0.937499999999968
40
1
40
1
40
1
40
1
41
1
10
39.4518049869042
20
9.8382
30
0
41
1
10
39.4628687974844
20
9.81903691794977
30
0
41
1
10
39.4731334456824
20
9.79944603427077
30
0
41
1
10
39.4920073940177
20
9.75937832340333
30
0
41
1
10
39.5006072169231
20
9.73891517171694
30
0
41
1
10
39.5158334074575
20
9.69732620346451
30
0
41
1
10
39.5224647210328
20
9.67620222244113
30
0
41
1
10
39.5333258991615
20
9.63336975079335
30
0
41
1
10
39.5375479758905
20
9.61173026636718
30
0
41
1
10
39.5414792078104
20
9.57899294388164
30
0
41
1
10
39.542378753559
20
9.56808944188299
30
0
41
1
10
39.5432091823
20
9.54630865588351
30
0
41
1
10
39.5431388422337
20
9.53539003295452
30
0
41
1
10
39.5418073424294
20
9.51379103036683
30
0
41
1
10
39.5405545292548
20
9.5031605440513
30
0
41
1
10
39.5366075008267
20
9.48232675805534
30
0
41
1
10
39.5339066869716
20
9.47208970372378
30
0
41
1
10
39.5266458268407
20
9.45233091984971
30
0
41
1
10
39.5221700659395
20
9.44303141886147
30
0
41
1
10
39.5139083025535
20
9.43016290724722
30
0
41
1
10
39.5108825651309
20
9.42604830727888
30
0
41
1
10
39.5044333424077
20
9.41843492487996
30
0
41
1
10
39.5009936917983
20
9.41490708021715
30
0
41
1
10
39.4900132365334
20
9.40518684134392
30
0
41
1
10
39.4816698218674
20
9.39982136881648
30
0
41
1
10
39.4641952189734
20
9.39202373945704
30
0
41
1
10
39.4550036464023
20
9.38948233816501
30
0
41
1
10
39.44540972175
20
9.38814394410841
30
0
0
SPLINE
5
EE
100
AcDbEntity
8
1
62
256
6
ByLayer
370
18
48
1
60
0
100
AcDbSpline
70
4
71
3
72
8
73
4
40
0
40
0
40
0
40
0
40
1
40
1
40
1
40
1
41
1
10
39.44540972175
20
9.38814394410841
30
0
41
1
10
39.439710086141
20
9.38468439430144
30
0
41
1
10
39.4340097224785
20
9.38122440258243
30
0
41
1
10
39.4283086023798
20
9.37776395172384
30
0
0
SPLINE
5
EF
100
AcDbEntity
8
1
62
256
6
ByLayer
370
18
48
1
60
0
100
AcDbSpline
70
4
71
3
72
8
73
4
40
0
40
0
40
0
40
0
40
1
40
1
40
1
40
1
41
1
10
39.0413074800167
20
10.0480695582429
30
0
41
1
10
39.0471548784182
20
10.0512766476491
30
0
41
1
10
39.0530015009749
20
10.0544833115322
30
0
41
1
10
39.0588473767979
20
10.0576895658583
30
0
0
SPLINE
5
F0
100
AcDbEntity
8
1
62
256
6
ByLayer
370
18
48
1
60
0
100
AcDbSpline
70
4
71
3
72
31
73
27
40
0
40
0
40
0
40
0
40
0.250000000000014
40
0.250000000000014
40
0.375000000000013
40
0.375000000000013
40
0.500000000000012
40
0.500000000000012
40
0.562499999999989
40
0.562499999999989
40
0.624999999999966
40
0.624999999999966
40
0.687499999999943
40
0.687499999999943
40
0.749999999999921
40
0.749999999999921
40
0.78124999999993
40
0.78124999999993
40
0.81249999999994
40
0.84374999999995
40
0.84374999999995
40
0.87499999999996
40
0.87499999999996
40
0.93749999999998
40
0.93749999999998
40
1
40
1
40
1
40
1
41
1
10
39.4518049869042
20
9.8382
30
0
41
1
10
39.4296926690765
20
9.87649965795057
30
0
41
1
10
39.4043808323496
20
9.91317071889861
30
0
41
1
10
39.3618216817579
20
9.96408283951013
30
0
41
1
10
39.3468398830589
20
9.98039097926889
30
0
41
1
10
39.3152269985831
20
10.0111676634259
30
0
41
1
10
39.2985822204179
20
10.0256588828546
30
0
41
1
10
39.2722591698513
20
10.0453939456758
30
0
41
1
10
39.2632396343192
20
10.0516474619581
30
0
41
1
10
39.2447815450482
20
10.0632691015761
30
0
41
1
10
39.2352838058171
20
10.068672116194
30
0
41
1
10
39.2159753239255
20
10.0782951322469
30
0
41
1
10
39.2061902141089
20
10.0825096007121
30
0
41
1
10
39.1863133859392
20
10.0894841706043
30
0
41
1
10
39.1762225654411
20
10.0922490893237
30
0
41
1
10
39.1607965608548
20
10.0949700010999
30
0
41
1
10
39.155570333322
20
10.0956387581898
30
0
41
1
10
39.1452130966829
20
10.0963931504431
30
0
41
1
10
39.1349577519651
20
10.0965722979193
30
0
41
1
10
39.1249277717891
20
10.0955085021115
30
0
41
1
10
39.1150244318527
20
10.0937600211093
30
0
41
1
10
39.1101343140419
20
10.0925351432917
30
0
41
1
10
39.0961224677781
20
10.0878980957525
30
0
41
1
10
39.0874992372101
20
10.0835091525027
30
0
41
1
10
39.0717039916188
20
10.0721328304238
30
0
41
1
10
39.0648256453766
20
10.0653574551219
30
0
41
1
10
39.0588473767979
20
10.0576895658583
30
0
0
SPLINE
5
F1
100
AcDbEntity
8
1
62
256
6
ByLayer
370
18
48
1
60
0
100
AcDbSpline
70
4
71
3
72
31
73
27
40
0
40
0
40
0
40
0
40
0.249999999999938
40
0.249999999999938
40
0.374999999999907
40
0.374999999999907
40
0.499999999999875
40
0.499999999999875
40
0.562499999999879
40
0.562499999999879
40
0.624999999999883
40
0.624999999999883
40
0.687499999999886
40
0.687499999999886
40
0.74999999999989
40
0.74999999999989
40
0.781249999999904
40
0.781249999999904
40
0.812499999999918
40
0.843749999999931
40
0.843749999999931
40
0.874999999999945
40
0.874999999999945
40
0.937499999999972
40
0.937499999999972
40
1
40
1
40
1
40
1
41
1
10
37.9999999999999
20
10.6764
30
0
41
1
10
38.0442246356552
20
10.6764
30
0
41
1
10
38.0886386243834
20
10.672814836852
30
0
41
1
10
38.1540093894894
20
10.6614135915819
30
0
41
1
10
38.1756235521584
20
10.6565930431936
30
0
41
1
10
38.2180833847206
20
10.6446038242291
30
0
41
1
10
38.2389555379602
20
10.637434633212
30
0
41
1
10
38.269208128992
20
10.6245057341269
30
0
41
1
10
38.2791336007215
20
10.6198213453669
30
0
41
1
10
38.2984272804998
20
10.6096469909619
30
0
41
1
10
38.3078552980314
20
10.6041232148182
30
0
41
1
10
38.3258433153401
20
10.592213087018
30
0
41
1
10
38.3343857070027
20
10.5858461675706
30
0
41
1
10
38.3503642757947
20
10.5721196143751
30
0
41
1
10
38.3578041758941
20
10.5647631668383
30
0
41
1
10
38.3678735569069
20
10.5527643108758
30
0
41
1
10
38.3710658313022
20
10.5485726436114
30
0
41
1
10
38.3768977724774
20
10.5399802096957
30
0
41
1
10
38.3821805911018
20
10.5311883943835
30
0
41
1
10
38.3862743069957
20
10.5219702788477
30
0
41
1
10
38.389711747998
20
10.5125194943794
30
0
41
1
10
38.3910960315968
20
10.5076720892189
30
0
41
1
10
38.3940861537613
20
10.493218950631
30
0
41
1
10
38.3945968326952
20
10.4835565422715
30
0
41
1
10
38.3926422715689
20
10.464189297291
30
0
41
1
10
38.3902137975583
20
10.4548447870583
30
0
41
1
10
38.386562344952
20
10.4458335099667
30
0
0
SPLINE
5
F2
100
AcDbEntity
8
1
62
256
6
ByLayer
370
18
48
1
60
0
100
AcDbSpline
70
4
71
3
72
8
73
4
40
0
40
0
40
0
40
0
40
1
40
1
40
1
40
1
41
1
10
38.3870011223631
20
10.4258335099667
30
0
41
1
10
38.3868548440603
20
10.4325010502315
30
0
41
1
10
38.386708585166
20
10.4391677058336
30
0
41
1
10
38.386562344952
20
10.4458335099667
30
0
0
SPLINE
5
F3
100
AcDbEntity
8
1
62
256
6
ByLayer
370
18
48
1
60
0
100
AcDbSpline
70
4
71
3
72
40
73
36
40
0
40
0
40
0
40
0
40
0.0312499999999696
40
0.0312499999999696
40
0.0624999999999392
40
0.0624999999999392
40
0.124999999999905
40
0.124999999999905
40
0.156249999999896
40
0.156249999999896
40
0.187499999999888
40
0.187499999999888
40
0.249999999999895
40
0.249999999999895
40
0.312499999999901
40
0.312499999999901
40
0.374999999999907
40
0.374999999999907
40
0.499999999999919
40
0.499999999999919
40
0.624999999999932
40
0.624999999999932
40
0.687499999999939
40
0.687499999999939
40
0.749999999999946
40
0.749999999999946
40
0.812499999999953
40
0.812499999999953
40
0.87499999999996
40
0.87499999999996
40
0.906249999999968
40
0.906249999999968
40
0.937499999999977
40
0.937499999999977
40
1
40
1
40
1
40
1
41
1
10
39.0413074800167
20
10.0480695582429
30
0
41
1
10
39.0342732808596
20
10.0442115509636
30
0
41
1
10
39.0269022118977
20
10.0409880805114
30
0
41
1
10
39.0116051081218
20
10.0355741008147
30
0
41
1
10
39.0036875371041
20
10.0333945883245
30
0
41
1
10
38.9796802497281
20
10.0282532989457
30
0
41
1
10
38.9631791349348
20
10.0266049265057
30
0
41
1
10
38.9378435465489
20
10.0260801174472
30
0
41
1
10
38.9292916664888
20
10.0262395560692
30
0
41
1
10
38.912248952338
20
10.027136317055
30
0
41
1
10
38.9037257312993
20
10.0278723991916
30
0
41
1
10
38.8781438183001
20
10.0308403732267
30
0
41
1
10
38.8610727185403
20
10.0338255257628
30
0
41
1
10
38.8268683089892
20
10.0414949757621
30
0
41
1
10
38.8096573181455
20
10.0462124855446
30
0
41
1
10
38.7757984859314
20
10.0569933407497
30
0
41
1
10
38.7590903884405
20
10.0630645056401
30
0
41
1
10
38.7095512068997
20
10.0831187358193
30
0
41
1
10
38.6772939797274
20
10.0989121227822
30
0
41
1
10
38.6142509446345
20
10.1352350177006
30
0
41
1
10
38.5839934203989
20
10.1554861156184
30
0
41
1
10
38.5412990781179
20
10.1887500035711
30
0
41
1
10
38.527556410301
20
10.2002937246728
30
0
41
1
10
38.5012249991013
20
10.2242816365849
30
0
41
1
10
38.488589372742
20
10.236769327942
30
0
41
1
10
38.4647397396558
20
10.2626697174406
30
0
41
1
10
38.4535160806708
20
10.2760896573401
30
0
41
1
10
38.4329294668138
20
10.3038356011485
30
0
41
1
10
38.4235433653104
20
10.3181892457871
30
0
41
1
10
38.4113816014216
20
10.3403616911909
30
0
41
1
10
38.4076527773249
20
10.3478508009748
30
0
41
1
10
38.4009474043514
20
10.3630646547846
30
0
41
1
10
38.3979649531526
20
10.3708139611657
30
0
41
1
10
38.3904874907486
20
10.3941267069802
30
0
41
1
10
38.3873520788027
20
10.4098364950421
30
0
41
1
10
38.3870011223631
20
10.4258335099667
30
0
0
LINE
5
81
100
AcDbEntity
8
80
62
256
6
ByLayer
370
18
48
1
60
0
100
AcDbLine
10
0
20
0
30
0
11
-10
21
0
31
0
39
0
210
0
220
0
230
1
0
LINE
5
82
100
AcDbEntity
8
81
62
256
6
ByLayer
370
18
48
1
60
0
100
AcDbLine
10
43
20
14
30
0
11
53
21
14
31
0
39
0
210
0
220
0
230
1
0
LINE
5
83
100
AcDbEntity
8
1
62
256
6
ByLayer
370
18
48
1
60
0
100
AcDbLine
10
0
20
-12.5
30
0
11
0
21
13.2
31
0
39
0
210
0
220
0
230
1
0
LINE
5
84
100
AcDbEntity
8
1
62
256
6
ByLayer
370
18
48
1
60
0
100
AcDbLine
10
34.855294
20
13.2
30
0
11
35.287058
21
13.2
31
0
39
0
210
0
220
0
230
1
0
LINE
5
85
100
AcDbEntity
8
1
62
256
6
ByLayer
370
18
48
1
60
0
100
AcDbLine
10
35.287058
20
4.8
30
0
11
34.855294
21
4.8
31
0
39
0
210
0
220
0
230
1
0
LINE
5
86
100
AcDbEntity
8
1
62
256
6
ByLayer
370
18
48
1
60
0
100
AcDbLine
10
34.604103
20
13.2
30
0
11
32.6
21
13.2
31
0
39
0
210
0
220
0
230
1
0
LINE
5
87
100
AcDbEntity
8
1
62
256
6
ByLayer
370
18
48
1
60
0
100
AcDbLine
10
32.6
20
4.8
30
0
11
34.604103
21
4.8
31
0
39
0
210
0
220
0
230
1
0
LINE
5
88
100
AcDbEntity
8
1
62
256
6
ByLayer
370
18
48
1
60
0
100
AcDbLine
10
34.604103
20
13.2
30
0
11
34.855306
21
13.2
31
0
39
0
210
0
220
0
230
1
0
LINE
5
89
100
AcDbEntity
8
1
62
256
6
ByLayer
370
18
48
1
60
0
100
AcDbLine
10
34.604103
20
13.2
30
0
11
34.604103
21
12.669866
31
0
39
0
210
0
220
0
230
1
0
LINE
5
8A
100
AcDbEntity
8
1
62
256
6
ByLayer
370
18
48
1
60
0
100
AcDbLine
10
34.855306
20
12.887266
30
0
11
34.855306
21
13.2
31
0
39
0
210
0
220
0
230
1
0
LINE
5
8B
100
AcDbEntity
8
1
62
256
6
ByLayer
370
18
48
1
60
0
100
AcDbLine
10
34.604103
20
4.8
30
0
11
34.855306
21
4.8
31
0
39
0
210
0
220
0
230
1
0
LINE
5
8C
100
AcDbEntity
8
1
62
256
6
ByLayer
370
18
48
1
60
0
100
AcDbLine
10
34.604103
20
4.8
30
0
11
34.604103
21
5.330134
31
0
39
0
210
0
220
0
230
1
0
LINE
5
8D
100
AcDbEntity
8
1
62
256
6
ByLayer
370
18
48
1
60
0
100
AcDbLine
10
34.855306
20
5.112734
30
0
11
34.855306
21
4.8
31
0
39
0
210
0
220
0
230
1
0
LINE
5
8E
100
AcDbEntity
8
1
62
256
6
ByLayer
370
18
48
1
60
0
100
AcDbLine
10
8.673467
20
13.2
30
0
11
0
21
13.2
31
0
39
0
210
0
220
0
230
1
0
LINE
5
8F
100
AcDbEntity
8
1
62
256
6
ByLayer
370
18
48
1
60
0
100
AcDbLine
10
8.542134
20
-12.5
30
0
11
0
21
-12.5
31
0
39
0
210
0
220
0
230
1
0
LINE
5
90
100
AcDbEntity
8
1
62
256
6
ByLayer
370
18
48
1
60
0
100
AcDbLine
10
8.542134
20
-12.5
30
0
11
10.993068
21
-3.352991
31
0
39
0
210
0
220
0
230
1
0
LINE
5
91
100
AcDbEntity
8
1
62
256
6
ByLayer
370
18
48
1
60
0
100
AcDbLine
10
31.536057
20
13.2
30
0
11
17.364256
21
13.2
31
0
39
0
210
0
220
0
230
1
0
LINE
5
92
100
AcDbEntity
8
1
62
256
6
ByLayer
370
18
48
1
60
0
100
AcDbLine
10
21.618252
20
4.8
30
0
11
31.536057
21
4.8
31
0
39
0
210
0
220
0
230
1
0
LINE
5
93
100
AcDbEntity
8
1
62
256
6
ByLayer
370
18
48
1
60
0
100
AcDbLine
10
32.6
20
13.2
30
0
11
31.536057
21
13.2
31
0
39
0
210
0
220
0
230
1
0
LINE
5
94
100
AcDbEntity
8
1
62
256
6
ByLayer
370
18
48
1
60
0
100
AcDbLine
10
31.536057
20
4.8
30
0
11
32.6
21
4.8
31
0
39
0
210
0
220
0
230
1
0
LINE
5
95
100
AcDbEntity
8
1
62
256
6
ByLayer
370
13
48
1
60
0
100
AcDbLine
10
32.6
20
13.2
30
0
11
32.6
21
4.8
31
0
39
0
210
0
220
0
230
1
0
LINE
5
96
100
AcDbEntity
8
1
62
256
6
ByLayer
370
18
48
1
60
0
100
AcDbLine
10
31.536057
20
4.8
30
0
11
31.536057
21
13.2
31
0
39
0
210
0
220
0
230
1
0
LINE
5
97
100
AcDbEntity
8
1
62
256
6
ByLayer
370
13
48
1
60
0
100
AcDbLine
10
5.572557
20
10.834633
30
0
11
5.13165
21
12.372684
31
0
39
0
210
0
220
0
230
1
0
LINE
5
98
100
AcDbEntity
8
1
62
256
6
ByLayer
370
13
48
1
60
0
100
AcDbLine
10
5.762486
20
1.634905
30
0
11
6.020263
21
3.214003
31
0
39
0
210
0
220
0
230
1
0
LINE
5
99
100
AcDbEntity
8
1
62
256
6
ByLayer
370
13
48
1
60
0
100
AcDbLine
10
15.428802
20
2.893443
30
0
11
15.421648
21
2.9596
31
0
39
0
210
0
220
0
230
1
0
LINE
5
9A
100
AcDbEntity
8
1
62
256
6
ByLayer
370
13
48
1
60
0
100
AcDbLine
10
15.101162
20
12.189572
30
0
11
15.097806
21
13.2
31
0
39
0
210
0
220
0
230
1
0
LINE
5
9B
100
AcDbEntity
8
1
62
256
6
ByLayer
370
13
48
1
60
0
100
AcDbLine
10
18.1087
20
9.310184
30
0
11
19.707407
21
9.374502
31
0
39
0
210
0
220
0
230
1
0
LINE
5
9C
100
AcDbEntity
8
1
62
256
6
ByLayer
370
13
48
1
60
0
100
AcDbLine
10
19.69394
20
5.723401
30
0
11
18.095751
21
5.79951
31
0
39
0
210
0
220
0
230
1
0
LINE
5
9D
100
AcDbEntity
8
SK1
62
256
6
ByLayer
370
18
48
1
60
0
100
AcDbLine
10
-81
20
-12.5
30
0
11
-2.141498
21
-12.5
31
0
39
0
210
0
220
0
230
1
0
LINE
5
9F
100
AcDbEntity
8
SK1
62
256
6
ByLayer
370
18
48
1
60
0
100
AcDbLine
10
-81
20
12.425
30
0
11
-2.141498
21
12.425
31
0
39
0
210
0
220
0
230
1
0
LINE
5
A0
100
AcDbEntity
8
SK1
62
256
6
ByLayer
370
18
48
1
60
0
100
AcDbLine
10
-81
20
12.425
30
0
11
-84
21
9.425
31
0
39
0
210
0
220
0
230
1
0
LINE
5
A1
100
AcDbEntity
8
SK1
62
256
6
ByLayer
370
18
48
1
60
0
100
AcDbLine
10
-84
20
9.425
30
0
11
-84
21
-9.5
31
0
39
0
210
0
220
0
230
1
0
LINE
5
A2
100
AcDbEntity
8
SK1
62
256
6
ByLayer
370
18
48
1
60
0
100
AcDbLine
10
-81
20
-12.5
30
0
11
-84
21
-9.5
31
0
39
0
210
0
220
0
230
1
0
LINE
5
A3
100
AcDbEntity
8
SK1
62
256
6
ByLayer
370
18
48
1
60
0
100
AcDbLine
10
0
20
13.2
30
0
11
-0.770595
21
13.2
31
0
39
0
210
0
220
0
230
1
0
LINE
5
A4
100
AcDbEntity
8
SK1
62
256
6
ByLayer
370
18
48
1
60
0
100
AcDbLine
10
0
20
-12.5
30
0
11
-1.657375
21
-12.5
31
0
39
0
210
0
220
0
230
1
0
LINE
5
A5
100
AcDbEntity
8
SK1
62
256
6
ByLayer
370
18
48
1
60
0
100
AcDbLine
10
0
20
-12.5
30
0
11
0
21
13.2
31
0
39
0
210
0
220
0
230
1
0
LINE
5
A6
100
AcDbEntity
8
SK1
62
256
6
ByLayer
370
18
48
1
60
0
100
AcDbLine
10
-2.141498
20
-12.5
30
0
11
-1.657375
21
-12.5
31
0
39
0
210
0
220
0
230
1
0
LINE
5
A7
100
AcDbEntity
8
SK1
62
256
6
ByLayer
370
18
48
1
60
0
100
AcDbLine
10
-1.657375
20
-12.5
30
0
11
-1.657375
21
12.5
31
0
39
0
210
0
220
0
230
1
0
LINE
5
A8
100
AcDbEntity
8
SK1
62
256
6
ByLayer
370
13
48
1
60
0
100
AcDbLine
10
-2.141498
20
-12.5
30
0
11
-2.141498
21
12.425
31
0
39
0
210
0
220
0
230
1
0
MTEXT
5
F4
100
AcDbEntity
8
SK6
62
256
6
ByLayer
370
18
48
1
60
0
100
AcDbMText
10
-42.188096
20
-24.217366
30
0
210
0
220
0
230
1
1
\W0.7636;QS-SRDCR-252525-10XC
40
3.5
41
0
44
1.084337
50
0
71
7
72
5
7
iso_b_vert
0
DIMENSION
5
F9
100
AcDbEntity
8
SK2
62
256
6
ByLayer
370
18
48
1
60
0
100
AcDbDimension
2
_U0
10
-84
20
30.5
30
0
11
-20.5
21
30.5
31
0
70
32
71
1
72
1
41
1
210
0
220
0
230
1
3
Standard
100
AcDbAlignedDimension
13
43
23
14
33
0
14
-84
24
12.5
34
0
50
0
100
AcDbRotatedDimension
1001
ACAD
1000
DSTYLE
1002
{
1070
   371
1070
    13
1070
   372
1070
    13
1070
   170
1070
     0
1070
   144
1040
1.0
1070
   277
1070
     2
1070
   284
1070
     8
1070
   278
1070
    46
1070
   146
1040
1.0
1070
   345
1005
16
1070
   347
1005
16
1070
   346
1005
16
1070
   344
1005
0
1070
   343
1005
0
1070
   172
1070
     1
1070
    76
1070
     0
1070
    75
1070
     0
1070
   282
1070
     0
1070
   281
1070
     0
1070
    71
1070
     0
1070
    74
1070
     0
1070
   279
1070
     0
1070
   173
1070
     1
1070
   340
1005
F5
1070
   271
1070
     2
1070
   272
1070
     2
1070
    77
1070
     1
1070
    73
1070
     1
1070
   171
1070
     3
1070
   274
1070
     4
1070
   177
1070
     2
1070
   176
1070
     2
1070
   178
1070
     2
1070
    78
1070
     8
1070
    48
1040
-0.1
1070
    41
1040
3.5
1070
   147
1040
1.75
1070
    42
1040
1.5875
1070
    44
1040
2.0
1070
   140
1040
3.5
1002
}
1001
ACAD_DSTYLE_DIM_LINETYPE
1070
   380
1005
16
1001
ACAD_DSTYLE_DIM_EXT1_LINETYPE
1070
   381
1005
16
1001
ACAD_DSTYLE_DIM_EXT2_LINETYPE
1070
   382
1005
16
0
DIMENSION
5
113
100
AcDbEntity
8
2
62
256
6
ByLayer
370
18
48
1
60
0
100
AcDbDimension
2
_U1
10
0
20
20.5
30
0
11
21.5
21
20.5
31
0
70
32
71
1
72
1
41
1
210
0
220
0
230
1
3
Standard
100
AcDbAlignedDimension
13
43
23
14
33
0
14
0
24
12.5
34
0
50
0
100
AcDbRotatedDimension
1001
ACAD
1000
DSTYLE
1002
{
1070
   371
1070
    13
1070
   372
1070
    13
1070
   170
1070
     0
1070
   144
1040
1.0
1070
   277
1070
     2
1070
   284
1070
     8
1070
   278
1070
    46
1070
   146
1040
1.0
1070
   345
1005
16
1070
   347
1005
16
1070
   346
1005
16
1070
   344
1005
0
1070
   343
1005
0
1070
   172
1070
     1
1070
    76
1070
     0
1070
    75
1070
     0
1070
   282
1070
     0
1070
   281
1070
     0
1070
    71
1070
     0
1070
    74
1070
     0
1070
   279
1070
     0
1070
   173
1070
     1
1070
   340
1005
F5
1070
   271
1070
     2
1070
   272
1070
     2
1070
    77
1070
     1
1070
    73
1070
     1
1070
   171
1070
     3
1070
   274
1070
     4
1070
   177
1070
     2
1070
   176
1070
     2
1070
   178
1070
     2
1070
    78
1070
     8
1070
    48
1040
-0.1
1070
    41
1040
3.5
1070
   147
1040
1.75
1070
    42
1040
1.5875
1070
    44
1040
2.0
1070
   140
1040
3.5
1002
}
1001
ACAD_DSTYLE_DIM_LINETYPE
1070
   380
1005
16
1001
ACAD_DSTYLE_DIM_EXT1_LINETYPE
1070
   381
1005
16
1001
ACAD_DSTYLE_DIM_EXT2_LINETYPE
1070
   382
1005
16
0
DIMENSION
5
12B
100
AcDbEntity
8
SK2
62
256
6
ByLayer
370
18
48
1
60
0
100
AcDbDimension
2
_U2
10
-91.85
20
12.5
30
0
11
-91.85
21
0
31
0
70
32
71
1
72
1
41
1
210
0
220
0
230
1
3
Standard
100
AcDbAlignedDimension
13
-84
23
-12.5
33
0
14
-84
24
12.5
34
0
50
90
100
AcDbRotatedDimension
1001
ACAD
1000
DSTYLE
1002
{
1070
   371
1070
    13
1070
   372
1070
    13
1070
   170
1070
     0
1070
   144
1040
1.0
1070
   277
1070
     2
1070
   284
1070
     8
1070
   278
1070
    46
1070
   146
1040
1.0
1070
   345
1005
16
1070
   347
1005
16
1070
   346
1005
16
1070
   344
1005
0
1070
   343
1005
0
1070
   172
1070
     1
1070
    76
1070
     0
1070
    75
1070
     0
1070
   282
1070
     0
1070
   281
1070
     0
1070
    71
1070
     0
1070
    74
1070
     0
1070
   279
1070
     0
1070
   173
1070
     1
1070
   340
1005
F5
1070
   271
1070
     2
1070
   272
1070
     2
1070
    77
1070
     1
1070
    73
1070
     0
1070
   171
1070
     3
1070
   274
1070
     4
1070
   177
1070
     2
1070
   176
1070
     2
1070
   178
1070
     2
1070
    78
1070
     8
1070
    48
1040
-0.1
1070
    41
1040
3.5
1070
   147
1040
1.75
1070
    42
1040
1.5875
1070
    44
1040
2.0
1070
   140
1040
3.5
1002
}
1001
ACAD_DSTYLE_DIM_LINETYPE
1070
   380
1005
16
1001
ACAD_DSTYLE_DIM_EXT1_LINETYPE
1070
   381
1005
16
1001
ACAD_DSTYLE_DIM_EXT2_LINETYPE
1070
   382
1005
16
0
DIMENSION
5
143
100
AcDbEntity
8
2
62
256
6
ByLayer
370
18
48
1
60
0
100
AcDbDimension
2
_U3
10
62.85
20
14
30
0
11
62.85
21
0.75
31
0
70
32
71
1
72
1
41
1
210
0
220
0
230
1
3
Standard
100
AcDbAlignedDimension
13
0
23
-12.5
33
0
14
43
24
14
34
0
50
90
100
AcDbRotatedDimension
1001
ACAD
1000
DSTYLE
1002
{
1070
   371
1070
    13
1070
   372
1070
    13
1070
   170
1070
     0
1070
   144
1040
1.0
1070
   277
1070
     2
1070
   284
1070
     8
1070
   278
1070
    46
1070
   146
1040
1.0
1070
   345
1005
16
1070
   347
1005
16
1070
   346
1005
16
1070
   344
1005
0
1070
   343
1005
0
1070
   172
1070
     1
1070
    76
1070
     0
1070
    75
1070
     0
1070
   282
1070
     0
1070
   281
1070
     0
1070
    71
1070
     0
1070
    74
1070
     0
1070
   279
1070
     0
1070
   173
1070
     1
1070
   340
1005
F5
1070
   271
1070
     2
1070
   272
1070
     2
1070
    77
1070
     1
1070
    73
1070
     0
1070
   171
1070
     3
1070
   274
1070
     4
1070
   177
1070
     2
1070
   176
1070
     2
1070
   178
1070
     2
1070
    78
1070
     8
1070
    48
1040
-0.1
1070
    41
1040
3.5
1070
   147
1040
1.75
1070
    42
1040
1.5875
1070
    44
1040
2.0
1070
   140
1040
3.5
1002
}
1001
ACAD_DSTYLE_DIM_LINETYPE
1070
   380
1005
16
1001
ACAD_DSTYLE_DIM_EXT1_LINETYPE
1070
   381
1005
16
1001
ACAD_DSTYLE_DIM_EXT2_LINETYPE
1070
   382
1005
16
0
ENDSEC
0
SECTION
2
OBJECTS
0
DICTIONARY
5
1ca
330
0
100
AcDbDictionary
280
0
281
1
3
ACAD_GROUP
350
1cb
3
ACAD_MLINESTYLE
350
1cc
0
DICTIONARY
5
1cb
330
0
100
AcDbDictionary
280
0
281
1
0
DICTIONARY
5
1cc
330
0
100
AcDbDictionary
280
0
281
1
3
Standard
350
18
0
MLINESTYLE
5
18
330
1cc
100
AcDbMlineStyle
2
Standard
70
0
3

62
256
51
90
52
90
71
2
49
-0.5
62
256
6
ByLayer
49
0.5
62
256
6
ByLayer
0
RASTERVARIABLES
5
1b9
330

100
AcDbRasterVariables
90
0
70
1
71
1
72
1
0
ENDSEC
0
EOF
