0
SECTION
2
HEADER
9
$ACADVER
1
AC1015
9
$DWGCODEPAGE
3
ANSI_1252
9
$HANDSEED
5
1f2
9
$ANGBASE
50
0
9
$ANGDIR
70
0
9
$ATTMODE
70
1
9
$AUNITS
70
0
9
$AUPREC
70
0
9
$CECOLOR
62
256
9
$CELTSCALE
40
1
9
$CELTYPE
6
ByLayer
9
$CELWEIGHT
370
18
9
$CLAYER
8
0
9
$CMLJUST
70
0
9
$CMLSCALE
40
1
9
$CMLSTYLE
2
Standard
9
$DIMSTYLE
2
Standard
9
$TEXTSIZE
40
0.2
9
$TEXTSTYLE
7
Standard
9
$LUNITS
70
2
9
$LUPREC
70
4
9
$EXTNAMES
290
1
9
$INSUNITS
70
4
9
$LTSCALE
40
1
9
$LWDISPLAY
290
1
9
$PDMODE
70
0
9
$PDSIZE
40
0
9
$PLINEGEN
70
0
0
ENDSEC
0
SECTION
2
CLASSES
0
CLASS
1
RASTERVARIABLES
2
AcDbRasterVariables
3
ISM
90
0
280
0
281
0
0
ENDSEC
0
SECTION
2
TABLES
0
TABLE
2
VPORT
5
1e8
100
AcDbSymbolTable
0
VPORT
5
1
100
AcDbSymbolTableRecord
100
AcDbViewportTableRecord
2
*Active
70
0
10
0
20
0
11
1
21
1
12
-1
22
1
13
0
23
0
14
0.5
24
0.5
15
10
25
10
16
0
26
0
36
1
17
0
27
0
37
0
0
ENDTAB
0
TABLE
2
LTYPE
5
1e9
100
AcDbSymbolTable
0
LTYPE
5
14
100
AcDbSymbolTableRecord
100
AcDbLinetypeTableRecord
70
0
2
ByBlock
3

72
65
73
0
40
0
0
LTYPE
5
15
100
AcDbSymbolTableRecord
100
AcDbLinetypeTableRecord
70
0
2
ByLayer
3

72
65
73
0
40
0
0
LTYPE
5
16
100
AcDbSymbolTableRecord
100
AcDbLinetypeTableRecord
70
0
2
Continuous
3
Solid line
72
65
73
0
40
0
0
LTYPE
5
6E
100
AcDbSymbolTableRecord
100
AcDbLinetypeTableRecord
70
0
2
CENTER
3
____ _ ____ _ ____ _ ____
72
65
73
4
40
47.5
49
22
74
0
49
-8.5
74
0
49
8.5
74
0
49
-8.5
74
0
0
LTYPE
5
6F
100
AcDbSymbolTableRecord
100
AcDbLinetypeTableRecord
70
0
2
DASHED
3
__ __ __ __ __ __ __ __ __
72
65
73
2
40
25.72
49
12.86
74
0
49
-12.86
74
0
0
ENDTAB
0
TABLE
2
LAYER
5
1ea
100
AcDbSymbolTable
0
LAYER
5
10
100
AcDbSymbolTableRecord
100
AcDbLayerTableRecord
2
0
70
0
62
7
6
Continuous
290
1
370
-3
390
0
0
LAYER
5
71
100
AcDbSymbolTableRecord
100
AcDbLayerTableRecord
2
2
70
0
62
7
6
Continuous
290
1
370
-3
390
0
0
LAYER
5
79
100
AcDbSymbolTableRecord
100
AcDbLayerTableRecord
2
1
70
0
62
4
6
Continuous
290
1
370
-3
390
0
0
LAYER
5
7B
100
AcDbSymbolTableRecord
100
AcDbLayerTableRecord
2
81
70
0
62
-3
6
Continuous
290
1
370
-3
390
0
0
LAYER
5
7D
100
AcDbSymbolTableRecord
100
AcDbLayerTableRecord
2
80
70
0
62
-6
6
Continuous
290
1
370
-3
390
0
0
LAYER
5
FE
100
AcDbSymbolTableRecord
100
AcDbLayerTableRecord
2
Defpoints
70
0
62
7
6
Continuous
290
0
370
-3
390
0
0
LAYER
5
1d5
100
AcDbSymbolTableRecord
100
AcDbLayerTableRecord
2
SK1
70
0
62
4
6
Continuous
290
1
370
-3
390
0
0
LAYER
5
1d6
100
AcDbSymbolTableRecord
100
AcDbLayerTableRecord
2
SK6
70
0
62
5
6
Continuous
290
1
370
-3
390
0
0
LAYER
5
1d7
100
AcDbSymbolTableRecord
100
AcDbLayerTableRecord
2
SK2
70
0
62
7
6
Continuous
290
1
370
-3
390
0
0
ENDTAB
0
TABLE
2
STYLE
5
1eb
100
AcDbSymbolTable
0
STYLE
5
11
100
AcDbSymbolTableRecord
100
AcDbTextStyleTableRecord
2
Standard
3
txt
70
0
71
0
40
0
41
1
42
0
50
0
0
STYLE
5
F7
100
AcDbSymbolTableRecord
100
AcDbTextStyleTableRecord
2
iso_b_vert
3
simplex.shx
70
0
71
0
40
0
41
1
42
0
50
0
0
STYLE
5
F8
100
AcDbSymbolTableRecord
100
AcDbTextStyleTableRecord
2
DWGDirectTextStyle
3
simplex
70
0
71
0
40
0
41
1
42
0
50
0
0
ENDTAB
0
TABLE
2
DIMSTYLE
5
1ec
100
AcDbSymbolTable
100
AcDbDimStyleTable
0
DIMSTYLE
105
27
100
AcDbSymbolTableRecord
100
AcDbDimStyleTableRecord
2
Standard
70
0
3
<>
41
0.18
42
0.0625
44
0.18
140
0.18
147
0.09
73
0
74
0
77
1
271
2
275
0
278
52
280
0
340
11
0
ENDTAB
0
TABLE
2
VIEW
5
1ed
100
AcDbSymbolTable
0
ENDTAB
0
TABLE
2
UCS
5
1ee
100
AcDbSymbolTable
0
ENDTAB
0
TABLE
2
APPID
5
1ef
100
AcDbSymbolTable
0
APPID
5
12
100
AcDbSymbolTableRecord
100
AcDbRegAppTableRecord
2
ACAD
70
0
0
APPID
5
FA
100
AcDbSymbolTableRecord
100
AcDbRegAppTableRecord
2
ACAD_DSTYLE_DIMBREAK
70
0
0
APPID
5
194
100
AcDbSymbolTableRecord
100
AcDbRegAppTableRecord
2
ACAD_DSTYLE_DIM_LINETYPE
70
0
0
APPID
5
195
100
AcDbSymbolTableRecord
100
AcDbRegAppTableRecord
2
ACAD_DSTYLE_DIM_EXT1_LINETYPE
70
0
0
APPID
5
196
100
AcDbSymbolTableRecord
100
AcDbRegAppTableRecord
2
ACAD_DSTYLE_DIM_EXT2_LINETYPE
70
0
0
APPID
5
1D1
100
AcDbSymbolTableRecord
100
AcDbRegAppTableRecord
2
ACAD_MLEADERVER
70
0
0
ENDTAB
0
TABLE
2
BLOCK_RECORD
5
1f0
100
AcDbSymbolTable
0
BLOCK_RECORD
5
1F
100
AcDbSymbolTableRecord
100
AcDbBlockTableRecord
2
*Model_Space
340
0
70
0
0
BLOCK_RECORD
5
1B
100
AcDbSymbolTableRecord
100
AcDbBlockTableRecord
2
*Paper_Space
340
0
70
0
0
BLOCK_RECORD
5
23
100
AcDbSymbolTableRecord
100
AcDbBlockTableRecord
2
*Paper_Space0
340
0
70
0
0
BLOCK_RECORD
5
FF
100
AcDbSymbolTableRecord
100
AcDbBlockTableRecord
2
*D1
340
0
70
0
0
BLOCK_RECORD
5
10C
100
AcDbSymbolTableRecord
100
AcDbBlockTableRecord
2
_U0
340
0
70
0
0
BLOCK_RECORD
5
118
100
AcDbSymbolTableRecord
100
AcDbBlockTableRecord
2
*D3
340
0
70
0
0
BLOCK_RECORD
5
124
100
AcDbSymbolTableRecord
100
AcDbBlockTableRecord
2
_U1
340
0
70
0
0
BLOCK_RECORD
5
130
100
AcDbSymbolTableRecord
100
AcDbBlockTableRecord
2
*D5
340
0
70
0
0
BLOCK_RECORD
5
13C
100
AcDbSymbolTableRecord
100
AcDbBlockTableRecord
2
_U2
340
0
70
0
0
BLOCK_RECORD
5
148
100
AcDbSymbolTableRecord
100
AcDbBlockTableRecord
2
*D7
340
0
70
0
0
BLOCK_RECORD
5
154
100
AcDbSymbolTableRecord
100
AcDbBlockTableRecord
2
_U3
340
0
70
0
0
BLOCK_RECORD
5
160
100
AcDbSymbolTableRecord
100
AcDbBlockTableRecord
2
*D9
340
0
70
0
0
BLOCK_RECORD
5
16D
100
AcDbSymbolTableRecord
100
AcDbBlockTableRecord
2
_U4
340
0
70
0
0
ENDTAB
0
ENDSEC
0
SECTION
2
BLOCKS
0
BLOCK
5
20
100
AcDbEntity
8
0
100
AcDbBlockBegin
2
*Model_Space
70
0
10
0
20
0
30
0
3
*Model_Space
0
ENDBLK
5
21
100
AcDbEntity
8
0
100
AcDbBlockEnd
0
BLOCK
5
1C
100
AcDbEntity
8
0
100
AcDbBlockBegin
2
*Paper_Space
70
0
10
0
20
0
30
0
3
*Paper_Space
0
ENDBLK
5
1D
100
AcDbEntity
8
0
100
AcDbBlockEnd
0
BLOCK
5
24
100
AcDbEntity
8
0
100
AcDbBlockBegin
2
*Paper_Space0
70
0
10
0
20
0
30
0
3
*Paper_Space0
0
ENDBLK
5
25
100
AcDbEntity
8
0
100
AcDbBlockEnd
0
BLOCK
5
100
100
AcDbEntity
8
0
100
AcDbBlockBegin
2
*D1
70
1
10
0
20
0
30
0
3
*D1
0
LINE
5
102
100
AcDbEntity
8
0
62
256
6
ByLayer
370
-2
48
1
60
0
100
AcDbLine
10
38
20
7.55
30
0
11
38
21
38.5
31
0
39
0
210
0
220
0
230
1
0
LINE
5
103
100
AcDbEntity
8
0
62
256
6
ByLayer
370
-2
48
1
60
0
100
AcDbLine
10
-69
20
11.5875
30
0
11
-69
21
38.5
31
0
39
0
210
0
220
0
230
1
0
LINE
5
104
100
AcDbEntity
8
0
62
256
6
ByLayer
370
-2
48
1
60
0
100
AcDbLine
10
34.5
20
36.5
30
0
11
-65.5
21
36.5
31
0
39
0
210
0
220
0
230
1
0
SOLID
5
105
100
AcDbEntity
8
0
62
256
6
ByLayer
370
-1
48
1
60
0
100
AcDbTrace
10
34.5
20
35.916667
30
0
11
34.5
21
37.083333
31
0
12
38
22
36.5
32
0
13
38
23
36.5
33
0
39
0
210
0
220
0
230
1
0
SOLID
5
106
100
AcDbEntity
8
0
62
256
6
ByLayer
370
-1
48
1
60
0
100
AcDbTrace
10
-65.5
20
37.083333
30
0
11
-65.5
21
35.916667
31
0
12
-69
22
36.5
32
0
13
-69
23
36.5
33
0
39
0
210
0
220
0
230
1
0
MTEXT
5
107
100
AcDbEntity
8
0
62
256
6
ByLayer
370
18
48
1
60
0
100
AcDbMText
10
-15.5
20
43.5
30
0
210
0
220
0
230
1
1
\A1;107
40
3.5
41
0
44
1
50
0
71
5
72
5
7
iso_b_vert
0
POINT
5
108
100
AcDbEntity
8
Defpoints
62
0
6
ByLayer
370
-1
48
1
60
0
100
AcDbPoint
10
38
20
5.9625
30
0
39
0
210
0
220
0
230
1
50
360
0
POINT
5
109
100
AcDbEntity
8
Defpoints
62
0
6
ByLayer
370
-1
48
1
60
0
100
AcDbPoint
10
-69
20
10
30
0
39
0
210
0
220
0
230
1
50
360
0
POINT
5
10A
100
AcDbEntity
8
Defpoints
62
0
6
ByLayer
370
-1
48
1
60
0
100
AcDbPoint
10
-69
20
36.5
30
0
39
0
210
0
220
0
230
1
50
360
0
ENDBLK
5
101
100
AcDbEntity
8
0
100
AcDbBlockEnd
0
BLOCK
5
113
100
AcDbEntity
8
0
100
AcDbBlockBegin
2
_U0
70
0
10
0
20
0
30
0
3
_U0
0
MTEXT
5
10D
100
AcDbEntity
8
SK2
62
256
6
ByLayer
370
18
48
1
60
0
100
AcDbMText
10
-18.275266
20
37.532634
30
0
210
0
220
0
230
1
1
\W0.6217;107
40
3.5
41
0
44
1.084337
50
0
71
7
72
5
7
iso_b_vert
0
LINE
5
10E
100
AcDbEntity
8
SK2
62
256
6
ByLayer
370
13
48
1
60
0
100
AcDbLine
10
38
20
7.55
30
0
11
38
21
38.5
31
0
39
0
210
0
220
0
230
1
0
LINE
5
10F
100
AcDbEntity
8
SK2
62
256
6
ByLayer
370
13
48
1
60
0
100
AcDbLine
10
-69
20
11.5875
30
0
11
-69
21
38.5
31
0
39
0
210
0
220
0
230
1
0
LINE
5
110
100
AcDbEntity
8
SK2
62
256
6
ByLayer
370
13
48
1
60
0
100
AcDbLine
10
38
20
36.5
30
0
11
-69
21
36.5
31
0
39
0
210
0
220
0
230
1
0
SOLID
5
111
100
AcDbEntity
8
SK2
62
256
6
ByLayer
370
18
48
1
60
0
100
AcDbTrace
10
38
20
36.5
30
0
11
34.500002
21
36.039216
31
0
12
34.499998
22
36.960784
32
0
13
34.499998
23
36.960784
33
0
39
0
210
0
220
0
230
1
0
SOLID
5
112
100
AcDbEntity
8
SK2
62
256
6
ByLayer
370
18
48
1
60
0
100
AcDbTrace
10
-69
20
36.5
30
0
11
-65.500002
21
36.960784
31
0
12
-65.499998
22
36.039216
32
0
13
-65.499998
23
36.039216
33
0
39
0
210
0
220
0
230
1
0
ENDBLK
5
114
100
AcDbEntity
8
0
100
AcDbBlockEnd
0
BLOCK
5
119
100
AcDbEntity
8
0
100
AcDbBlockBegin
2
*D3
70
1
10
0
20
0
30
0
3
*D3
0
LINE
5
11B
100
AcDbEntity
8
0
62
256
6
ByLayer
370
-2
48
1
60
0
100
AcDbLine
10
38
20
7.55
30
0
11
38
21
28.5
31
0
39
0
210
0
220
0
230
1
0
LINE
5
11C
100
AcDbEntity
8
0
62
256
6
ByLayer
370
-2
48
1
60
0
100
AcDbLine
10
0
20
11.5875
30
0
11
0
21
28.5
31
0
39
0
210
0
220
0
230
1
0
LINE
5
11D
100
AcDbEntity
8
0
62
256
6
ByLayer
370
-2
48
1
60
0
100
AcDbLine
10
34.5
20
26.5
30
0
11
3.5
21
26.5
31
0
39
0
210
0
220
0
230
1
0
SOLID
5
11E
100
AcDbEntity
8
0
62
256
6
ByLayer
370
-1
48
1
60
0
100
AcDbTrace
10
34.5
20
25.916667
30
0
11
34.5
21
27.083333
31
0
12
38
22
26.5
32
0
13
38
23
26.5
33
0
39
0
210
0
220
0
230
1
0
SOLID
5
11F
100
AcDbEntity
8
0
62
256
6
ByLayer
370
-1
48
1
60
0
100
AcDbTrace
10
3.5
20
27.083333
30
0
11
3.5
21
25.916667
31
0
12
0
22
26.5
32
0
13
0
23
26.5
33
0
39
0
210
0
220
0
230
1
0
MTEXT
5
120
100
AcDbEntity
8
0
62
256
6
ByLayer
370
18
48
1
60
0
100
AcDbMText
10
19
20
33.5
30
0
210
0
220
0
230
1
1
\A1;38
40
3.5
41
0
44
1
50
0
71
5
72
5
7
iso_b_vert
0
POINT
5
121
100
AcDbEntity
8
Defpoints
62
0
6
ByLayer
370
-1
48
1
60
0
100
AcDbPoint
10
38
20
5.9625
30
0
39
0
210
0
220
0
230
1
50
360
0
POINT
5
122
100
AcDbEntity
8
Defpoints
62
0
6
ByLayer
370
-1
48
1
60
0
100
AcDbPoint
10
0
20
10
30
0
39
0
210
0
220
0
230
1
50
360
0
POINT
5
123
100
AcDbEntity
8
Defpoints
62
0
6
ByLayer
370
-1
48
1
60
0
100
AcDbPoint
10
0
20
26.5
30
0
39
0
210
0
220
0
230
1
50
360
0
ENDBLK
5
11A
100
AcDbEntity
8
0
100
AcDbBlockEnd
0
BLOCK
5
12B
100
AcDbEntity
8
0
100
AcDbBlockBegin
2
_U1
70
0
10
0
20
0
30
0
3
_U1
0
MTEXT
5
125
100
AcDbEntity
8
2
62
256
6
ByLayer
370
18
48
1
60
0
100
AcDbMText
10
17.095034
20
27.532634
30
0
210
0
220
0
230
1
1
\W0.6740;38
40
3.5
41
0
44
1.084337
50
0
71
7
72
5
7
iso_b_vert
0
LINE
5
126
100
AcDbEntity
8
2
62
256
6
ByLayer
370
13
48
1
60
0
100
AcDbLine
10
38
20
7.55
30
0
11
38
21
28.5
31
0
39
0
210
0
220
0
230
1
0
LINE
5
127
100
AcDbEntity
8
2
62
256
6
ByLayer
370
13
48
1
60
0
100
AcDbLine
10
0
20
11.5875
30
0
11
0
21
28.5
31
0
39
0
210
0
220
0
230
1
0
LINE
5
128
100
AcDbEntity
8
2
62
256
6
ByLayer
370
13
48
1
60
0
100
AcDbLine
10
38
20
26.5
30
0
11
0
21
26.5
31
0
39
0
210
0
220
0
230
1
0
SOLID
5
129
100
AcDbEntity
8
2
62
256
6
ByLayer
370
18
48
1
60
0
100
AcDbTrace
10
38
20
26.5
30
0
11
34.500002
21
26.039216
31
0
12
34.499998
22
26.960784
32
0
13
34.499998
23
26.960784
33
0
39
0
210
0
220
0
230
1
0
SOLID
5
12A
100
AcDbEntity
8
2
62
256
6
ByLayer
370
18
48
1
60
0
100
AcDbTrace
10
0
20
26.5
30
0
11
3.499998
21
26.960784
31
0
12
3.500002
22
26.039216
32
0
13
3.500002
23
26.039216
33
0
39
0
210
0
220
0
230
1
0
ENDBLK
5
12C
100
AcDbEntity
8
0
100
AcDbBlockEnd
0
BLOCK
5
131
100
AcDbEntity
8
0
100
AcDbBlockBegin
2
*D5
70
1
10
0
20
0
30
0
3
*D5
0
LINE
5
133
100
AcDbEntity
8
0
62
256
6
ByLayer
370
-2
48
1
60
0
100
AcDbLine
10
38
20
7.55
30
0
11
38
21
18.5
31
0
39
0
210
0
220
0
230
1
0
LINE
5
134
100
AcDbEntity
8
0
62
256
6
ByLayer
370
-2
48
1
60
0
100
AcDbLine
10
13
20
7.55
30
0
11
13
21
18.5
31
0
39
0
210
0
220
0
230
1
0
LINE
5
135
100
AcDbEntity
8
0
62
256
6
ByLayer
370
-2
48
1
60
0
100
AcDbLine
10
34.5
20
16.5
30
0
11
16.5
21
16.5
31
0
39
0
210
0
220
0
230
1
0
SOLID
5
136
100
AcDbEntity
8
0
62
256
6
ByLayer
370
-1
48
1
60
0
100
AcDbTrace
10
34.5
20
15.916667
30
0
11
34.5
21
17.083333
31
0
12
38
22
16.5
32
0
13
38
23
16.5
33
0
39
0
210
0
220
0
230
1
0
SOLID
5
137
100
AcDbEntity
8
0
62
256
6
ByLayer
370
-1
48
1
60
0
100
AcDbTrace
10
16.5
20
17.083333
30
0
11
16.5
21
15.916667
31
0
12
13
22
16.5
32
0
13
13
23
16.5
33
0
39
0
210
0
220
0
230
1
0
MTEXT
5
138
100
AcDbEntity
8
0
62
256
6
ByLayer
370
18
48
1
60
0
100
AcDbMText
10
25.5
20
23.5
30
0
210
0
220
0
230
1
1
\A1;25
40
3.5
41
0
44
1
50
0
71
5
72
5
7
iso_b_vert
0
POINT
5
139
100
AcDbEntity
8
Defpoints
62
0
6
ByLayer
370
-1
48
1
60
0
100
AcDbPoint
10
38
20
5.9625
30
0
39
0
210
0
220
0
230
1
50
360
0
POINT
5
13A
100
AcDbEntity
8
Defpoints
62
0
6
ByLayer
370
-1
48
1
60
0
100
AcDbPoint
10
13
20
5.9625
30
0
39
0
210
0
220
0
230
1
50
360
0
POINT
5
13B
100
AcDbEntity
8
Defpoints
62
0
6
ByLayer
370
-1
48
1
60
0
100
AcDbPoint
10
13
20
16.5
30
0
39
0
210
0
220
0
230
1
50
360
0
ENDBLK
5
132
100
AcDbEntity
8
0
100
AcDbBlockEnd
0
BLOCK
5
143
100
AcDbEntity
8
0
100
AcDbBlockBegin
2
_U2
70
0
10
0
20
0
30
0
3
_U2
0
MTEXT
5
13D
100
AcDbEntity
8
2
62
256
6
ByLayer
370
18
48
1
60
0
100
AcDbMText
10
23.595034
20
17.532634
30
0
210
0
220
0
230
1
1
\W0.6740;25
40
3.5
41
0
44
1.084337
50
0
71
7
72
5
7
iso_b_vert
0
LINE
5
13E
100
AcDbEntity
8
2
62
256
6
ByLayer
370
13
48
1
60
0
100
AcDbLine
10
38
20
7.55
30
0
11
38
21
18.5
31
0
39
0
210
0
220
0
230
1
0
LINE
5
13F
100
AcDbEntity
8
2
62
256
6
ByLayer
370
13
48
1
60
0
100
AcDbLine
10
13
20
7.55
30
0
11
13
21
18.5
31
0
39
0
210
0
220
0
230
1
0
LINE
5
140
100
AcDbEntity
8
2
62
256
6
ByLayer
370
13
48
1
60
0
100
AcDbLine
10
38
20
16.5
30
0
11
13
21
16.5
31
0
39
0
210
0
220
0
230
1
0
SOLID
5
141
100
AcDbEntity
8
2
62
256
6
ByLayer
370
18
48
1
60
0
100
AcDbTrace
10
38
20
16.5
30
0
11
34.500002
21
16.039216
31
0
12
34.499998
22
16.960784
32
0
13
34.499998
23
16.960784
33
0
39
0
210
0
220
0
230
1
0
SOLID
5
142
100
AcDbEntity
8
2
62
256
6
ByLayer
370
18
48
1
60
0
100
AcDbTrace
10
13
20
16.5
30
0
11
16.499998
21
16.960784
31
0
12
16.500002
22
16.039216
32
0
13
16.500002
23
16.039216
33
0
39
0
210
0
220
0
230
1
0
ENDBLK
5
144
100
AcDbEntity
8
0
100
AcDbBlockEnd
0
BLOCK
5
149
100
AcDbEntity
8
0
100
AcDbBlockBegin
2
*D7
70
1
10
0
20
0
30
0
3
*D7
0
LINE
5
14B
100
AcDbEntity
8
0
62
256
6
ByLayer
370
-2
48
1
60
0
100
AcDbLine
10
-70.5875
20
-10
30
0
11
-78.85
21
-10
31
0
39
0
210
0
220
0
230
1
0
LINE
5
14C
100
AcDbEntity
8
0
62
256
6
ByLayer
370
-2
48
1
60
0
100
AcDbLine
10
-70.5875
20
10
30
0
11
-78.85
21
10
31
0
39
0
210
0
220
0
230
1
0
LINE
5
14D
100
AcDbEntity
8
0
62
256
6
ByLayer
370
-2
48
1
60
0
100
AcDbLine
10
-76.85
20
-6.5
30
0
11
-76.85
21
6.5
31
0
39
0
210
0
220
0
230
1
0
SOLID
5
14E
100
AcDbEntity
8
0
62
256
6
ByLayer
370
-1
48
1
60
0
100
AcDbTrace
10
-77.433333
20
-6.5
30
0
11
-76.266667
21
-6.5
31
0
12
-76.85
22
-10
32
0
13
-76.85
23
-10
33
0
39
0
210
0
220
0
230
1
0
SOLID
5
14F
100
AcDbEntity
8
0
62
256
6
ByLayer
370
-1
48
1
60
0
100
AcDbTrace
10
-76.266667
20
6.5
30
0
11
-77.433333
21
6.5
31
0
12
-76.85
22
10
32
0
13
-76.85
23
10
33
0
39
0
210
0
220
0
230
1
0
MTEXT
5
150
100
AcDbEntity
8
0
62
256
6
ByLayer
370
18
48
1
60
0
100
AcDbMText
10
-83.85
20
0
30
0
210
0
220
0
230
1
1
\A1;20
40
3.5
41
0
44
1
50
90
71
5
72
5
7
iso_b_vert
0
POINT
5
151
100
AcDbEntity
8
Defpoints
62
0
6
ByLayer
370
-1
48
1
60
0
100
AcDbPoint
10
-69
20
-10
30
0
39
0
210
0
220
0
230
1
50
360
0
POINT
5
152
100
AcDbEntity
8
Defpoints
62
0
6
ByLayer
370
-1
48
1
60
0
100
AcDbPoint
10
-69
20
10
30
0
39
0
210
0
220
0
230
1
50
360
0
POINT
5
153
100
AcDbEntity
8
Defpoints
62
0
6
ByLayer
370
-1
48
1
60
0
100
AcDbPoint
10
-76.85
20
10
30
0
39
0
210
0
220
0
230
1
50
360
0
ENDBLK
5
14A
100
AcDbEntity
8
0
100
AcDbBlockEnd
0
BLOCK
5
15B
100
AcDbEntity
8
0
100
AcDbBlockBegin
2
_U3
70
0
10
0
20
0
30
0
3
_U3
0
MTEXT
5
155
100
AcDbEntity
8
SK2
62
256
6
ByLayer
370
18
48
1
60
0
100
AcDbMText
10
-77.539634
20
-1.932966
30
0
210
0
220
0
230
1
1
\W0.6740;20
40
3.5
41
0
44
1.084337
50
90
71
7
72
5
7
iso_b_vert
0
LINE
5
156
100
AcDbEntity
8
SK2
62
256
6
ByLayer
370
13
48
1
60
0
100
AcDbLine
10
-70.5875
20
-10
30
0
11
-78.85
21
-10
31
0
39
0
210
0
220
0
230
1
0
LINE
5
157
100
AcDbEntity
8
SK2
62
256
6
ByLayer
370
13
48
1
60
0
100
AcDbLine
10
-70.5875
20
10
30
0
11
-78.85
21
10
31
0
39
0
210
0
220
0
230
1
0
LINE
5
158
100
AcDbEntity
8
SK2
62
256
6
ByLayer
370
13
48
1
60
0
100
AcDbLine
10
-76.85
20
-10
30
0
11
-76.85
21
10
31
0
39
0
210
0
220
0
230
1
0
SOLID
5
159
100
AcDbEntity
8
SK2
62
256
6
ByLayer
370
18
48
1
60
0
100
AcDbTrace
10
-76.85
20
-10
30
0
11
-77.310784
21
-6.500002
31
0
12
-76.389216
22
-6.499998
32
0
13
-76.389216
23
-6.499998
33
0
39
0
210
0
220
0
230
1
0
SOLID
5
15A
100
AcDbEntity
8
SK2
62
256
6
ByLayer
370
18
48
1
60
0
100
AcDbTrace
10
-76.85
20
10
30
0
11
-76.389216
21
6.500002
31
0
12
-77.310784
22
6.499998
32
0
13
-77.310784
23
6.499998
33
0
39
0
210
0
220
0
230
1
0
ENDBLK
5
15C
100
AcDbEntity
8
0
100
AcDbBlockEnd
0
BLOCK
5
161
100
AcDbEntity
8
0
100
AcDbBlockBegin
2
*D9
70
1
10
0
20
0
30
0
3
*D9
0
LINE
5
163
100
AcDbEntity
8
0
62
256
6
ByLayer
370
-2
48
1
60
0
100
AcDbLine
10
1.5875
20
-10
30
0
11
59.85
21
-10
31
0
39
0
210
0
220
0
230
1
0
LINE
5
164
100
AcDbEntity
8
0
62
256
6
ByLayer
370
-2
48
1
60
0
100
AcDbLine
10
39.5875
20
5.9625
30
0
11
59.85
21
5.9625
31
0
39
0
210
0
220
0
230
1
0
LINE
5
165
100
AcDbEntity
8
0
62
256
6
ByLayer
370
-2
48
1
60
0
100
AcDbLine
10
57.85
20
-13.5
30
0
11
57.85
21
-17
31
0
39
0
210
0
220
0
230
1
0
LINE
5
166
100
AcDbEntity
8
0
62
256
6
ByLayer
370
-2
48
1
60
0
100
AcDbLine
10
57.85
20
9.4625
30
0
11
57.85
21
12.9625
31
0
39
0
210
0
220
0
230
1
0
SOLID
5
167
100
AcDbEntity
8
0
62
256
6
ByLayer
370
-1
48
1
60
0
100
AcDbTrace
10
58.433333
20
-13.5
30
0
11
57.266667
21
-13.5
31
0
12
57.85
22
-10
32
0
13
57.85
23
-10
33
0
39
0
210
0
220
0
230
1
0
SOLID
5
168
100
AcDbEntity
8
0
62
256
6
ByLayer
370
-1
48
1
60
0
100
AcDbTrace
10
57.266667
20
9.4625
30
0
11
58.433333
21
9.4625
31
0
12
57.85
22
5.9625
32
0
13
57.85
23
5.9625
33
0
39
0
210
0
220
0
230
1
0
MTEXT
5
169
100
AcDbEntity
8
0
62
256
6
ByLayer
370
18
48
1
60
0
100
AcDbMText
10
50.85
20
-2.01875
30
0
210
0
220
0
230
1
1
\A1;15.96
40
3.5
41
0
44
1
50
90
71
5
72
5
7
iso_b_vert
0
POINT
5
16A
100
AcDbEntity
8
Defpoints
62
0
6
ByLayer
370
-1
48
1
60
0
100
AcDbPoint
10
0
20
-10
30
0
39
0
210
0
220
0
230
1
50
360
0
POINT
5
16B
100
AcDbEntity
8
Defpoints
62
0
6
ByLayer
370
-1
48
1
60
0
100
AcDbPoint
10
38
20
5.9625
30
0
39
0
210
0
220
0
230
1
50
360
0
POINT
5
16C
100
AcDbEntity
8
Defpoints
62
0
6
ByLayer
370
-1
48
1
60
0
100
AcDbPoint
10
57.85
20
5.9625
30
0
39
0
210
0
220
0
230
1
50
360
0
ENDBLK
5
162
100
AcDbEntity
8
0
100
AcDbBlockEnd
0
BLOCK
5
174
100
AcDbEntity
8
0
100
AcDbBlockBegin
2
_U4
70
0
10
0
20
0
30
0
3
_U4
0
MTEXT
5
16E
100
AcDbEntity
8
2
62
256
6
ByLayer
370
18
48
1
60
0
100
AcDbMText
10
57.160366
20
-6.838749
30
0
210
0
220
0
230
1
1
\W0.6864;15.96
40
3.5
41
0
44
1.084337
50
90
71
7
72
5
7
iso_b_vert
0
LINE
5
16F
100
AcDbEntity
8
2
62
256
6
ByLayer
370
13
48
1
60
0
100
AcDbLine
10
1.5875
20
-10
30
0
11
59.85
21
-10
31
0
39
0
210
0
220
0
230
1
0
LINE
5
170
100
AcDbEntity
8
2
62
256
6
ByLayer
370
13
48
1
60
0
100
AcDbLine
10
39.5875
20
5.9625
30
0
11
59.85
21
5.9625
31
0
39
0
210
0
220
0
230
1
0
LINE
5
171
100
AcDbEntity
8
2
62
256
6
ByLayer
370
13
48
1
60
0
100
AcDbLine
10
57.85
20
-10
30
0
11
57.85
21
5.9625
31
0
39
0
210
0
220
0
230
1
0
SOLID
5
172
100
AcDbEntity
8
2
62
256
6
ByLayer
370
18
48
1
60
0
100
AcDbTrace
10
57.85
20
-10
30
0
11
57.389216
21
-6.500002
31
0
12
58.310784
22
-6.499998
32
0
13
58.310784
23
-6.499998
33
0
39
0
210
0
220
0
230
1
0
SOLID
5
173
100
AcDbEntity
8
2
62
256
6
ByLayer
370
18
48
1
60
0
100
AcDbTrace
10
57.85
20
5.9625
30
0
11
58.310784
21
2.462502
31
0
12
57.389216
22
2.462498
32
0
13
57.389216
23
2.462498
33
0
39
0
210
0
220
0
230
1
0
ENDBLK
5
175
100
AcDbEntity
8
0
100
AcDbBlockEnd
0
ENDSEC
0
SECTION
2
ENTITIES
0
ARC
5
B1
100
AcDbEntity
8
1
62
256
6
ByLayer
370
18
48
1
60
0
100
AcDbCircle
39
0
10
29.2
20
-0.0375
30
0
40
3.58
210
0
220
0
230
1
100
AcDbArc
50
139.938022
51
220.061977
0
ARC
5
B2
100
AcDbEntity
8
1
62
256
6
ByLayer
370
18
48
1
60
0
100
AcDbCircle
39
0
10
16.857752
20
-16.1375
30
0
40
11
210
0
220
0
230
1
100
AcDbArc
50
121.113605
51
146.085541
0
ARC
5
B3
100
AcDbEntity
8
1
62
256
6
ByLayer
370
18
48
1
60
0
100
AcDbCircle
39
0
10
16.857752
20
16.0625
30
0
40
11
210
0
220
0
230
1
100
AcDbArc
50
213.914459
51
238.886395
0
ARC
5
B4
100
AcDbEntity
8
1
62
256
6
ByLayer
370
13
48
1
60
0
100
AcDbCircle
39
0
10
8.781059
20
-0.0375
30
0
40
6.26106555896844
210
0
220
0
230
1
100
AcDbArc
50
101.412786
51
258.587214
0
ARC
5
B5
100
AcDbEntity
8
1
62
256
6
ByLayer
370
13
48
1
60
0
100
AcDbCircle
39
0
10
14.784408
20
29.701544
30
0
40
36.6
210
0
220
0
230
1
100
AcDbArc
50
258.587214
51
264.338296
0
ARC
5
B6
100
AcDbEntity
8
1
62
256
6
ByLayer
370
13
48
1
60
0
100
AcDbCircle
39
0
10
14.784408
20
-29.776544
30
0
40
36.6
210
0
220
0
230
1
100
AcDbArc
50
95.661704
51
101.412786
0
ARC
5
B7
100
AcDbEntity
8
1
62
256
6
ByLayer
370
13
48
1
60
0
100
AcDbCircle
39
0
10
16.543553
20
-2.250067
30
0
40
4.6
210
0
220
0
230
1
100
AcDbArc
50
321.119149
51
356.571719
0
ARC
5
B8
100
AcDbEntity
8
1
62
256
6
ByLayer
370
13
48
1
60
0
100
AcDbCircle
39
0
10
16.543553
20
2.175067
30
0
40
4.6
210
0
220
0
230
1
100
AcDbArc
50
3.428281
51
38.880851
0
ARC
5
B9
100
AcDbEntity
8
1
62
256
6
ByLayer
370
13
48
1
60
0
100
AcDbCircle
39
0
10
-20.390233
20
-0.0375
30
0
40
41.6
210
0
220
0
230
1
100
AcDbArc
50
356.571719
51
3.428281
0
ARC
5
BE
100
AcDbEntity
8
1
62
256
6
ByLayer
370
18
48
1
60
0
100
AcDbCircle
39
0
10
32
20
-0.0375
30
0
40
1.2903
210
0
220
0
230
1
100
AcDbArc
50
240
51
300
0
ARC
5
BF
100
AcDbEntity
8
1
62
256
6
ByLayer
370
18
48
1
60
0
100
AcDbCircle
39
0
10
32
20
-0.0375
30
0
40
1.2903
210
0
220
0
230
1
100
AcDbArc
50
300
51
360
0
ARC
5
C0
100
AcDbEntity
8
1
62
256
6
ByLayer
370
18
48
1
60
0
100
AcDbCircle
39
0
10
32
20
-0.0375
30
0
40
1.2903
210
0
220
0
230
1
100
AcDbArc
50
0
51
60
0
ARC
5
C1
100
AcDbEntity
8
1
62
256
6
ByLayer
370
18
48
1
60
0
100
AcDbCircle
39
0
10
32
20
-0.0375
30
0
40
1.2903
210
0
220
0
230
1
100
AcDbArc
50
60
51
120
0
ARC
5
C2
100
AcDbEntity
8
1
62
256
6
ByLayer
370
18
48
1
60
0
100
AcDbCircle
39
0
10
32
20
-0.0375
30
0
40
1.2903
210
0
220
0
230
1
100
AcDbArc
50
120
51
180
0
ARC
5
C3
100
AcDbEntity
8
1
62
256
6
ByLayer
370
18
48
1
60
0
100
AcDbCircle
39
0
10
32
20
-0.0375
30
0
40
1.2903
210
0
220
0
230
1
100
AcDbArc
50
180
51
240
0
ARC
5
C6
100
AcDbEntity
8
1
62
256
6
ByLayer
370
18
48
1
60
0
100
AcDbCircle
39
0
10
32
20
-0.0375
30
0
40
1.6764
210
0
220
0
230
1
100
AcDbArc
50
90
51
150
0
ARC
5
C7
100
AcDbEntity
8
1
62
256
6
ByLayer
370
18
48
1
60
0
100
AcDbCircle
39
0
10
32
20
-0.0375
30
0
40
1.6764
210
0
220
0
230
1
100
AcDbArc
50
150
51
210
0
ARC
5
C8
100
AcDbEntity
8
1
62
256
6
ByLayer
370
18
48
1
60
0
100
AcDbCircle
39
0
10
32
20
-0.0375
30
0
40
1.6764
210
0
220
0
230
1
100
AcDbArc
50
30
51
90
0
ARC
5
C9
100
AcDbEntity
8
1
62
256
6
ByLayer
370
18
48
1
60
0
100
AcDbCircle
39
0
10
32
20
-0.0375
30
0
40
1.6764
210
0
220
0
230
1
100
AcDbArc
50
210
51
270
0
ARC
5
CA
100
AcDbEntity
8
1
62
256
6
ByLayer
370
18
48
1
60
0
100
AcDbCircle
39
0
10
32
20
-0.0375
30
0
40
1.6764
210
0
220
0
230
1
100
AcDbArc
50
270
51
330
0
ARC
5
CB
100
AcDbEntity
8
1
62
256
6
ByLayer
370
18
48
1
60
0
100
AcDbCircle
39
0
10
32
20
-0.0375
30
0
40
1.6764
210
0
220
0
230
1
100
AcDbArc
50
330
51
30
0
CIRCLE
5
BA
100
AcDbEntity
8
1
62
256
6
ByLayer
370
13
48
1
60
0
100
AcDbCircle
10
32
20
-0.0375
30
0
40
2.9210477644158
39
0
210
0
220
0
230
1
0
CIRCLE
5
BB
100
AcDbEntity
8
1
62
256
6
ByLayer
370
13
48
1
60
0
100
AcDbCircle
10
32
20
-0.0375
30
0
40
3.00996076009769
39
0
210
0
220
0
230
1
0
CIRCLE
5
BC
100
AcDbEntity
8
1
62
256
6
ByLayer
370
18
48
1
60
0
100
AcDbCircle
10
32
20
-0.0375
30
0
40
3.07132534818235
39
0
210
0
220
0
230
1
0
CIRCLE
5
BD
100
AcDbEntity
8
1
62
256
6
ByLayer
370
18
48
1
60
0
100
AcDbCircle
10
32
20
-0.0375
30
0
40
5.99999999999999
39
0
210
0
220
0
230
1
0
CIRCLE
5
C4
100
AcDbEntity
8
1
62
256
6
ByLayer
370
18
48
1
60
0
100
AcDbCircle
10
32
20
-0.0375
30
0
40
2.625
39
0
210
0
220
0
230
1
0
CIRCLE
5
C5
100
AcDbEntity
8
1
62
256
6
ByLayer
370
18
48
1
60
0
100
AcDbCircle
10
32
20
-0.0375
30
0
40
1.8
39
0
210
0
220
0
230
1
0
POINT
5
70
100
AcDbEntity
8
2
62
256
6
ByLayer
370
18
48
1
60
0
100
AcDbPoint
10
18.3
20
2.394495
30
0
39
0
210
0
220
0
230
1
50
360
0
POINT
5
72
100
AcDbEntity
8
2
62
256
6
ByLayer
370
18
48
1
60
0
100
AcDbPoint
10
18.3
20
-2.469495
30
0
39
0
210
0
220
0
230
1
50
360
0
POINT
5
73
100
AcDbEntity
8
2
62
256
6
ByLayer
370
18
48
1
60
0
100
AcDbPoint
10
32
20
-0.0375
30
0
39
0
210
0
220
0
230
1
50
360
0
POINT
5
74
100
AcDbEntity
8
2
62
256
6
ByLayer
370
18
48
1
60
0
100
AcDbPoint
10
32
20
-0.0375
30
0
39
0
210
0
220
0
230
1
50
360
0
POINT
5
75
100
AcDbEntity
8
2
62
256
6
ByLayer
370
18
48
1
60
0
100
AcDbPoint
10
32
20
-0.0375
30
0
39
0
210
0
220
0
230
1
50
360
0
POINT
5
76
100
AcDbEntity
8
2
62
256
6
ByLayer
370
18
48
1
60
0
100
AcDbPoint
10
31.7
20
-0.0375
30
0
39
0
210
0
220
0
230
1
50
360
0
POINT
5
77
100
AcDbEntity
8
2
62
256
6
ByLayer
370
18
48
1
60
0
100
AcDbPoint
10
0
20
10
30
0
39
0
210
0
220
0
230
1
50
360
0
POINT
5
78
100
AcDbEntity
8
1
62
256
6
ByLayer
370
18
48
1
60
0
100
AcDbPoint
10
0
20
0
30
0
39
0
210
0
220
0
230
1
50
360
0
POINT
5
7A
100
AcDbEntity
8
81
62
256
6
ByLayer
370
18
48
1
60
0
100
AcDbPoint
10
38
20
5.9625
30
0
39
0
210
0
220
0
230
1
50
360
0
POINT
5
7C
100
AcDbEntity
8
80
62
256
6
ByLayer
370
18
48
1
60
0
100
AcDbPoint
10
0
20
0
30
0
39
0
210
0
220
0
230
1
50
360
0
POINT
5
7E
100
AcDbEntity
8
2
62
256
6
ByLayer
370
18
48
1
60
0
100
AcDbPoint
10
-69
20
-10
30
0
39
0
210
0
220
0
230
1
50
360
0
POINT
5
7F
100
AcDbEntity
8
2
62
256
6
ByLayer
370
18
48
1
60
0
100
AcDbPoint
10
0
20
10
30
0
39
0
210
0
220
0
230
1
50
360
0
POINT
5
80
100
AcDbEntity
8
2
62
256
6
ByLayer
370
18
48
1
60
0
100
AcDbPoint
10
-69
20
10
30
0
39
0
210
0
220
0
230
1
50
360
0
POINT
5
81
100
AcDbEntity
8
2
62
256
6
ByLayer
370
18
48
1
60
0
100
AcDbPoint
10
0
20
-10
30
0
39
0
210
0
220
0
230
1
50
360
0
POINT
5
82
100
AcDbEntity
8
2
62
256
6
ByLayer
370
18
48
1
60
0
100
AcDbPoint
10
13
20
5.9625
30
0
39
0
210
0
220
0
230
1
50
360
0
POINT
5
83
100
AcDbEntity
8
2
62
256
6
ByLayer
370
18
48
1
60
0
100
AcDbPoint
10
38
20
5.9625
30
0
39
0
210
0
220
0
230
1
50
360
0
POINT
5
84
100
AcDbEntity
8
2
62
256
6
ByLayer
370
18
48
1
60
0
100
AcDbPoint
10
-69
20
10
30
0
39
0
210
0
220
0
230
1
50
360
0
SPLINE
5
CC
100
AcDbEntity
8
1
62
256
6
ByLayer
370
18
48
1
60
0
100
AcDbSpline
70
4
71
3
72
50
73
46
40
0
40
0
40
0
40
0
40
0.125000000000004
40
0.125000000000004
40
0.187500000000005
40
0.187500000000005
40
0.218750000000005
40
0.218750000000005
40
0.250000000000005
40
0.250000000000005
40
0.375000000000005
40
0.375000000000005
40
0.500000000000004
40
0.500000000000004
40
0.625000000000003
40
0.625000000000003
40
0.687500000000002
40
0.687500000000002
40
0.750000000000002
40
0.750000000000002
40
0.781250000000001
40
0.781250000000001
40
0.8125
40
0.8125
40
0.843749999999999
40
0.843749999999999
40
0.874999999999998
40
0.874999999999998
40
0.906249999999998
40
0.906249999999998
40
0.921874999999997
40
0.921874999999997
40
0.937499999999996
40
0.937499999999996
40
0.945312499999995
40
0.945312499999995
40
0.953124999999995
40
0.953124999999995
40
0.968749999999996
40
0.968749999999996
40
0.976562499999997
40
0.976562499999997
40
0.984374999999998
40
0.984374999999998
40
1
40
1
40
1
40
1
41
1
10
11.1736487110531
20
-6.71991150543164
30
1.7E-15
41
1
10
11.3360943091732
20
-6.62186543847875
30
-1.4E-15
41
1
10
11.5002140923752
20
-6.52853544278253
30
-1E-15
41
1
10
11.7490591174056
20
-6.39531789014896
30
-4E-16
41
1
10
11.832450859906
20
-6.35204351931048
30
-2E-16
41
1
10
11.9582176085328
20
-6.28880631238346
30
1E-16
41
1
10
12.0002530219798
20
-6.26800638533373
30
2E-16
41
1
10
12.0845522571248
20
-6.22696193701947
30
4E-16
41
1
10
12.1268666587645
20
-6.2066939754649
30
5E-16
41
1
10
12.3381325135361
20
-6.1071485847568
30
1E-15
41
1
10
12.5064928187515
20
-6.03306819258972
30
1.4E-15
41
1
10
12.8424931227046
20
-5.89490781984148
30
-1.4E-15
41
1
10
13.0101330061825
20
-5.83083348172687
30
-1E-15
41
1
10
13.3448776350414
20
-5.7119899335834
30
-2E-16
41
1
10
13.5119952665299
20
-5.65722209054579
30
2E-16
41
1
10
13.7620030282625
20
-5.58174716604725
30
8E-16
41
1
10
13.8452228205607
20
-5.55770376099372
30
1E-15
41
1
10
14.0112662958517
20
-5.51182639514397
30
1.4E-15
41
1
10
14.0940948051106
20
-5.48999184559588
30
1.6E-15
41
1
10
14.2177870335579
20
-5.45890487524477
30
-1.7E-15
41
1
10
14.2588798295384
20
-5.44883188909296
30
-1.6E-15
41
1
10
14.3405087174755
20
-5.42931393730021
30
-1.4E-15
41
1
10
14.3810722781248
20
-5.41986215362638
30
-1.3E-15
41
1
10
14.4615342330126
20
-5.40158626069018
30
-1.1E-15
41
1
10
14.5014560023949
20
-5.39275729513855
30
-1E-15
41
1
10
14.5802765895938
20
-5.37577465822062
30
-8E-16
41
1
10
14.6191183028996
20
-5.36763347390277
30
-7E-16
41
1
10
14.6951267976475
20
-5.35211368283913
30
-5E-16
41
1
10
14.7323086204257
20
-5.34473280138971
30
-4E-16
41
1
10
14.7860595978289
20
-5.33433264903493
30
-3E-16
41
1
10
14.8036652974239
20
-5.33097284320024
30
-3E-16
41
1
10
14.8377183119799
20
-5.32455566221071
30
-2E-16
41
1
10
14.8541837370739
20
-5.32149472036821
30
-2E-16
41
1
10
14.8777353615152
20
-5.31716733616824
30
-1E-16
41
1
10
14.8853934953615
20
-5.31576908172082
30
-1E-16
41
1
10
14.9002515932715
20
-5.31307159533975
30
0
41
1
10
14.9074688516087
20
-5.31176927822875
30
0
41
1
10
14.928118098095
20
-5.30806281602079
30
0
41
1
10
14.9405833496945
20
-5.30585273331144
30
0
41
1
10
14.9565659622639
20
-5.30304006886118
30
1E-16
41
1
10
14.9614375812597
20
-5.30218680785427
30
1E-16
41
1
10
14.9700843636807
20
-5.30067706906425
30
1E-16
41
1
10
14.9738558887686
20
-5.30002123217201
30
1E-16
41
1
10
14.9829773928539
20
-5.29843826304946
30
1E-16
41
1
10
14.9862631683202
20
-5.29787221421594
30
2E-16
41
1
10
14.9862476454043
20
-5.2978748883879
30
2E-16
0
SPLINE
5
CD
100
AcDbEntity
8
1
62
256
6
ByLayer
370
18
48
1
60
0
100
AcDbSpline
70
4
71
3
72
50
73
46
40
0
40
0
40
0
40
0
40
0.0156250000000003
40
0.0156250000000003
40
0.0234375000000002
40
0.0234375000000002
40
0.0312500000000002
40
0.0312500000000002
40
0.0468749999999975
40
0.0468749999999975
40
0.054687499999997
40
0.054687499999997
40
0.0624999999999966
40
0.0624999999999966
40
0.0781249999999968
40
0.0781249999999968
40
0.093749999999997
40
0.093749999999997
40
0.124999999999996
40
0.124999999999996
40
0.140624999999996
40
0.140624999999996
40
0.156249999999995
40
0.156249999999995
40
0.187499999999995
40
0.187499999999995
40
0.249999999999996
40
0.249999999999996
40
0.312499999999998
40
0.312499999999998
40
0.374999999999999
40
0.374999999999999
40
0.4375
40
0.4375
40
0.500000000000001
40
0.500000000000001
40
0.625000000000001
40
0.625000000000001
40
0.750000000000001
40
0.750000000000001
40
0.875000000000001
40
0.875000000000001
40
0.9375
40
0.9375
40
1
40
1
40
1
40
1
41
1
10
14.9862572548303
20
5.22287323295797
30
2E-16
41
1
10
14.9862473990072
20
5.22287493082493
30
2E-16
41
1
10
14.9829077748086
20
5.22345024925576
30
1E-16
41
1
10
14.9736434072239
20
5.22505815644303
30
1E-16
41
1
10
14.9698234421984
20
5.22572248537739
30
1E-16
41
1
10
14.9609991945087
20
5.22726350324078
30
1E-16
41
1
10
14.9560321714966
20
5.22813370008436
30
1E-16
41
1
10
14.9397582465331
20
5.23099860758194
30
0
41
1
10
14.9270929473442
20
5.23324528262711
30
0
41
1
10
14.9061613775898
20
5.23700484223119
30
0
41
1
10
14.8988346697459
20
5.23832785291108
30
-1E-16
41
1
10
14.883764013923
20
5.24106612014691
30
-1E-16
41
1
10
14.8760178050391
20
5.24248172027174
30
-1E-16
41
1
10
14.8522557593337
20
5.2468518264993
30
-2E-16
41
1
10
14.8357219027138
20
5.24992880634733
30
-2E-16
41
1
10
14.8016599752573
20
5.25635419599482
30
-3E-16
41
1
10
14.7841288734407
20
5.25970309086466
30
-3E-16
41
1
10
14.7304033364608
20
5.27010824196032
30
-5E-16
41
1
10
14.6930961194897
20
5.27752018100466
30
-5E-16
41
1
10
14.6357333976439
20
5.28924536238659
30
-7E-16
41
1
10
14.616354637199
20
5.29325975969658
30
-7E-16
41
1
10
14.5773945943559
20
5.30144207727889
30
-8E-16
41
1
10
14.5577910303941
20
5.30561442969483
30
-9E-16
41
1
10
14.498678892817
20
5.31836668464697
30
-1E-15
41
1
10
14.4588724221738
20
5.32718128352698
30
-1.1E-15
41
1
10
14.3386204095342
20
5.35452462304477
30
-1.4E-15
41
1
10
14.2573613240564
20
5.37395018363975
30
-1.6E-15
41
1
10
14.0936106561682
20
5.41512231489054
30
1.6E-15
41
1
10
14.0111021048504
20
5.43687112269239
30
1.4E-15
41
1
10
13.8452353847388
20
5.48270092811245
30
1E-15
41
1
10
13.7618716546422
20
5.50678256437089
30
8E-16
41
1
10
13.5944767663607
20
5.55732601101167
30
4E-16
41
1
10
13.5104434020474
20
5.5837879956745
30
2E-16
41
1
10
13.3417843361611
20
5.63916792225879
30
-2E-16
41
1
10
13.2570778800656
20
5.66811819446721
30
-4E-16
41
1
10
13.0038574077966
20
5.75815143326423
30
-1E-15
41
1
10
12.8357053705043
20
5.82257976066532
30
-1.4E-15
41
1
10
12.5006716396998
20
5.96058550207604
30
1.3E-15
41
1
10
12.3337883767658
20
6.03416068977938
30
9E-16
41
1
10
12.0010288586661
20
6.19102206080069
30
2E-16
41
1
10
11.8351555890153
20
6.2743029039564
30
-2E-16
41
1
10
11.5867383441027
20
6.40717832687108
30
-8E-16
41
1
10
11.5039960796714
20
6.4527988503601
30
-1E-15
41
1
10
11.3385431198849
20
6.54686065877996
30
-1.4E-15
41
1
10
11.2556474642412
20
6.59542013516258
30
-1.6E-15
41
1
10
11.1736487110503
20
6.64491150543336
30
1.7E-15
0
SPLINE
5
CE
100
AcDbEntity
8
1
62
256
6
ByLayer
370
18
48
1
60
0
100
AcDbSpline
70
4
71
3
72
35
73
31
40
0
40
0
40
0
40
0
40
0.0322203306860943
40
0.0322203306860943
40
0.065592043421059
40
0.065592043421059
40
0.0989637561560236
40
0.0989637561560236
40
0.132335468890988
40
0.132335468890988
40
0.199078894360913
40
0.199078894360913
40
0.265822319830838
40
0.265822319830838
40
0.332565745300762
40
0.332565745300762
40
0.466052596240612
40
0.466052596240612
40
0.532796021710538
40
0.532796021710538
40
0.599539447180464
40
0.599539447180464
40
0.733026298120313
40
0.733026298120313
40
0.866513149060162
40
0.866513149060162
40
0.899884861795123
40
0.899884861795123
40
0.933256574530083
40
1
40
1
40
1
40
1
41
1
10
17.4070306047998
20
-5.13750000000007
30
-1.2E-15
41
1
10
17.4214092957429
20
-5.13750000000002
30
-1.2E-15
41
1
10
17.43803207708
20
-5.13749999999999
30
-1.1E-15
41
1
10
17.4750381503677
20
-5.13750000000002
30
-1E-15
41
1
10
17.4955469218752
20
-5.13750000000002
30
-1E-15
41
1
10
17.539010583275
20
-5.13750000000002
30
-9E-16
41
1
10
17.5619891466977
20
-5.13750000000002
30
-8E-16
41
1
10
17.6094515475916
20
-5.13749999999999
30
-7E-16
41
1
10
17.633945551342
20
-5.13749999999999
30
-6E-16
41
1
10
17.7095719772493
20
-5.13749999999999
30
-5E-16
41
1
10
17.7619529832413
20
-5.13750000000002
30
-3E-16
41
1
10
17.8693728220897
20
-5.13750000000002
30
-1E-16
41
1
10
17.9244345121403
20
-5.13750000000002
30
0
41
1
10
18.0367319390103
20
-5.13750000000002
30
3E-16
41
1
10
18.0939754472791
20
-5.13750000000002
30
4E-16
41
1
10
18.2686705054738
20
-5.13750000000002
30
9E-16
41
1
10
18.38904848881
20
-5.13750000000002
30
1.2E-15
41
1
10
18.5754882479607
20
-5.13750000000002
30
1.6E-15
41
1
10
18.6387575256968
20
-5.13750000000002
30
1.7E-15
41
1
10
18.7661609828688
20
-5.13749999999999
30
-1.5E-15
41
1
10
18.8304054022169
20
-5.13750000000002
30
-1.4E-15
41
1
10
19.0248246008083
20
-5.13750000000002
30
-9E-16
41
1
10
19.1566752770326
20
-5.13750000000002
30
-6E-16
41
1
10
19.4254080044492
20
-5.13749999999999
30
1E-16
41
1
10
19.5622841858679
20
-5.13749999999999
30
4E-16
41
1
10
19.7371145642304
20
-5.13750000000002
30
8E-16
41
1
10
19.772331022211
20
-5.13749999999999
30
9E-16
41
1
10
19.8428540522785
20
-5.13750000000002
30
1.1E-15
41
1
10
19.94858321703
20
-5.13749999999999
30
1.3E-15
41
1
10
20.0541429532667
20
-5.13750000000002
30
1.6E-15
41
1
10
20.124436604796
20
-5.13749999999999
30
1.7E-15
0
SPLINE
5
CF
100
AcDbEntity
8
1
62
256
6
ByLayer
370
18
48
1
60
0
100
AcDbSpline
70
4
71
3
72
50
73
46
40
0
40
0
40
0
40
0
40
0.0625040473060759
40
0.0625040473060759
40
0.0937560709591156
40
0.0937560709591156
40
0.125008094612155
40
0.125008094612155
40
0.250016189224311
40
0.250016189224311
40
0.375024283836467
40
0.375024283836467
40
0.406276307489506
40
0.406276307489506
40
0.437528331142545
40
0.437528331142545
40
0.500032378448622
40
0.500032378448622
40
0.625040473060777
40
0.625040473060777
40
0.687544520366855
40
0.687544520366855
40
0.750048567672933
40
0.750048567672933
40
0.781300591325973
40
0.781300591325973
40
0.812552614979013
40
0.812552614979013
40
0.843804638632053
40
0.843804638632053
40
0.875056662285093
40
0.875056662285093
40
0.906308685938133
40
0.906308685938133
40
0.921934697764652
40
0.921934697764652
40
0.937560709591171
40
0.937560709591171
40
0.968812733244208
40
0.968812733244208
40
0.976625739157468
40
0.976625739157468
40
0.984438745070729
40
0.984438745070729
40
1
40
1
40
1
40
1
41
1
10
20.124436604796
20
5.0625
30
1.7E-15
41
1
10
20.0542271087355
20
5.0625
30
1.6E-15
41
1
10
19.9838689802165
20
5.0625
30
1.4E-15
41
1
10
19.8781194318415
20
5.0625
30
1.1E-15
41
1
10
19.8427652016301
20
5.0625
30
1.1E-15
41
1
10
19.7723619141817
20
5.0625
30
9E-16
41
1
10
19.7373370336997
20
5.0625
30
8E-16
41
1
10
19.5630527616208
20
5.0625
30
4E-16
41
1
10
19.4262966021983
20
5.0625
30
1E-16
41
1
10
19.1573263087851
20
5.0625
30
-6E-16
41
1
10
19.0251167352838
20
5.0625
30
-9E-16
41
1
10
18.8624107405
20
5.0625
30
-1.3E-15
41
1
10
18.8299980304949
20
5.0625
30
-1.4E-15
41
1
10
18.7654251643173
20
5.0625
30
-1.5E-15
41
1
10
18.7332582585493
20
5.0625
30
-1.6E-15
41
1
10
18.6376037969287
20
5.0625
30
1.7E-15
41
1
10
18.5747982001556
20
5.0625
30
1.6E-15
41
1
10
18.3891287230239
20
5.0625
30
1.2E-15
41
1
10
18.2689657083387
20
5.0625
30
9E-16
41
1
10
18.0942163419243
20
5.0625
30
4E-16
41
1
10
18.0368910669274
20
5.0625
30
3E-16
41
1
10
17.9243035168188
20
5.0625
30
0
41
1
10
17.8690334229253
20
5.0625
30
-1E-16
41
1
10
17.7880558379581
20
5.0625
30
-3E-16
41
1
10
17.7613817833116
20
5.0625
30
-3E-16
41
1
10
17.7090491058939
20
5.0625
30
-5E-16
41
1
10
17.6833603809132
20
5.0625
30
-5E-16
41
1
10
17.6331502573506
20
5.0625
30
-6E-16
41
1
10
17.608752272231
20
5.0625
30
-7E-16
41
1
10
17.5616551305883
20
5.06250000000003
30
-8E-16
41
1
10
17.5389628367518
20
5.0625
30
-9E-16
41
1
10
17.4958438523486
20
5.0625
30
-1E-15
41
1
10
17.4754098362621
20
5.0625
30
-1E-15
41
1
10
17.447134749486
20
5.0625
30
-1.1E-15
41
1
10
17.4381091009302
20
5.0625
30
-1.1E-15
41
1
10
17.4210294690371
20
5.0625
30
-1.2E-15
41
1
10
17.4129419057573
20
5.0625
30
-1.2E-15
41
1
10
17.3907831241011
20
5.0625
30
-1.2E-15
41
1
10
17.3787892829907
20
5.0625
30
-1.3E-15
41
1
10
17.368387520484
20
5.0625
30
-1.3E-15
41
1
10
17.3665378393084
20
5.0625
30
-1.3E-15
41
1
10
17.3633321549271
20
5.0625
30
-1.3E-15
41
1
10
17.3619727325271
20
5.0625
30
-1.3E-15
41
1
10
17.3587228970967
20
5.0625
30
-1.3E-15
41
1
10
17.3576321106124
20
5.0625
30
-1.3E-15
41
1
10
17.3576386635074
20
5.0625
30
-1.3E-15
0
SPLINE
5
D0
100
AcDbEntity
8
1
62
256
6
ByLayer
370
18
48
1
60
0
100
AcDbSpline
70
4
71
3
72
9
73
5
40
0
40
0
40
0
40
0
40
0.5
40
1
40
1
40
1
40
1
41
1
10
19.5381841956916
20
2.3544638479909
30
3E-16
41
1
10
19.5859487656849
20
1.55714256532727
30
4E-16
41
1
10
19.6335850039854
20
-0.0375000000000227
30
6E-16
41
1
10
19.5859487656849
20
-1.63214256532731
30
4E-16
41
1
10
19.5381841956916
20
-2.42946384799097
30
3E-16
0
SPLINE
5
D1
100
AcDbEntity
8
1
62
256
6
ByLayer
370
18
48
1
60
0
100
AcDbSpline
70
4
71
3
72
33
73
29
40
0
40
0
40
0
40
0
40
0.124999999999998
40
0.124999999999998
40
0.249999999999996
40
0.249999999999996
40
0.281249999999996
40
0.281249999999996
40
0.312499999999996
40
0.374999999999994
40
0.374999999999994
40
0.499999999999993
40
0.499999999999993
40
0.531249999999992
40
0.531249999999992
40
0.562499999999992
40
0.562499999999992
40
0.624999999999992
40
0.624999999999992
40
0.749999999999993
40
0.749999999999993
40
0.812499999999993
40
0.812499999999993
40
0.843749999999993
40
0.843749999999993
40
0.874999999999994
40
0.874999999999994
40
1
40
1
40
1
40
1
41
1
10
17.3576340518431
20
5.0625
30
-1.3E-15
41
1
10
17.5077630783287
20
5.02017271741008
30
-9E-16
41
1
10
17.6525913218938
20
4.96677938786405
30
-6E-16
41
1
10
17.9321106438565
20
4.8388109405972
30
1E-16
41
1
10
18.066800729802
20
4.76423383454139
30
4E-16
41
1
10
18.2286528403212
20
4.65739261138324
30
8E-16
41
1
10
18.260761906169
20
4.6352913288076
30
8E-16
41
1
10
18.3239650258911
20
4.58994654576031
30
1E-15
41
1
10
18.4171484492977
20
4.52029902024518
30
1.2E-15
41
1
10
18.5055569008992
20
4.44584813857267
30
1.4E-15
41
1
10
18.6761310737355
20
4.2906622396803
30
-1.7E-15
41
1
10
18.7815604409082
20
4.17886330570369
30
-1.5E-15
41
1
10
18.9028347082051
20
4.02851787651244
30
-1.2E-15
41
1
10
18.9265609977136
20
3.99791598812769
30
-1.1E-15
41
1
10
18.972940417415
20
3.93563008383401
30
-1E-15
41
1
10
18.9956249134996
20
3.90389559365997
30
-1E-15
41
1
10
19.0614954811077
20
3.80785348760787
30
-8E-16
41
1
10
19.1026741653875
20
3.74249285529777
30
-7E-16
41
1
10
19.2182122460077
20
3.54251118302494
30
-4E-16
41
1
10
19.2846200222056
20
3.40401288749115
30
-3E-16
41
1
10
19.3682582376494
20
3.18846640924338
30
-1E-16
41
1
10
19.3934638516095
20
3.11531213547971
30
0
41
1
10
19.4271451767358
20
3.00356466682811
30
1E-16
41
1
10
19.4376675596569
20
2.96602175585679
30
1E-16
41
1
10
19.4571822657615
20
2.89079954376902
30
1E-16
41
1
10
19.4661940337366
20
2.85305735766335
30
2E-16
41
1
10
19.5075511444809
20
2.66369539895831
30
3E-16
41
1
10
19.5288585589796
20
2.51013422513282
30
3E-16
41
1
10
19.5381841956916
20
2.3544638479909
30
3E-16
0
SPLINE
5
D2
100
AcDbEntity
8
1
62
256
6
ByLayer
370
18
48
1
60
0
100
AcDbSpline
70
4
71
3
72
10
73
6
40
0
40
0
40
0
40
0
40
0.500000000000001
40
0.500000000000001
40
1
40
1
40
1
40
1
41
1
10
14.9862523269187
20
5.22287408189158
30
2E-16
41
1
10
15.2939874858451
20
5.16974252867797
30
9E-16
41
1
10
15.6038005712804
20
5.12972315464452
30
1.6E-15
41
1
10
16.227608981463
20
5.07610281278821
30
-4E-16
41
1
10
16.5416040120684
20
5.06250000000003
30
3E-16
41
1
10
16.8577517139001
20
5.06250000000003
30
1.1E-15
0
SPLINE
5
D3
100
AcDbEntity
8
1
62
256
6
ByLayer
370
18
48
1
60
0
100
AcDbSpline
70
4
71
3
72
11
73
7
40
0
40
0
40
0
40
0
40
0.25
40
0.5
40
0.75
40
1
40
1
40
1
40
1
41
1
10
7.85874504335067
20
4.53140249550114
30
9E-16
41
1
10
8.44680045065405
20
4.65011184027148
30
-1.2E-15
41
1
10
9.62589510660783
20
4.8566835358202
30
1.6E-15
41
1
10
11.4033757913003
20
5.07509129471859
30
-1.3E-15
41
1
10
13.1896549575509
20
5.202411937844
30
-6E-16
41
1
10
14.386393974638
20
5.22633350265926
30
-1.3E-15
41
1
10
14.9862523269187
20
5.22287408189158
30
2E-16
0
SPLINE
5
D4
100
AcDbEntity
8
1
62
256
6
ByLayer
370
18
48
1
60
0
100
AcDbSpline
70
4
71
3
72
76
73
72
40
0
40
0
40
0
40
0
40
0.03125
40
0.03125
40
0.0625
40
0.0937499999999999
40
0.0937499999999999
40
0.109375
40
0.1171875
40
0.1171875
40
0.125
40
0.125
40
0.15625
40
0.1875
40
0.218749999999999
40
0.218749999999999
40
0.234374999999999
40
0.242187499999999
40
0.242187499999999
40
0.249999999999999
40
0.249999999999999
40
0.281249999999999
40
0.312499999999998
40
0.343749999999998
40
0.343749999999998
40
0.359374999999998
40
0.367187499999998
40
0.367187499999998
40
0.374999999999998
40
0.374999999999998
40
0.406249999999998
40
0.437499999999999
40
0.468749999999999
40
0.468749999999999
40
0.484374999999999
40
0.484374999999999
40
0.499999999999999
40
0.499999999999999
40
0.531249999999999
40
0.562499999999999
40
0.593749999999998
40
0.593749999999998
40
0.609374999999998
40
0.609374999999998
40
0.617187499999998
40
0.617187499999998
40
0.624999999999998
40
0.656249999999998
40
0.687499999999998
40
0.718749999999998
40
0.718749999999998
40
0.734374999999999
40
0.734374999999999
40
0.742187499999999
40
0.742187499999999
40
0.749999999999999
40
0.781249999999999
40
0.812499999999999
40
0.843749999999999
40
0.843749999999999
40
0.859375
40
0.859375
40
0.875
40
0.875
40
0.90625
40
0.9375
40
0.96875
40
0.96875
40
0.984375
40
0.984375
40
1
40
1
40
1
40
1
41
1
10
7.85874504335064
20
-4.60640249550113
30
9E-16
41
1
10
7.72692308578161
20
-4.5797919108266
30
6E-16
41
1
10
7.59722482081224
20
-4.5476844288381
30
3E-16
41
1
10
7.34193778922105
20
-4.4728305780495
30
-3E-16
41
1
10
7.09076093021611
20
-4.38733609443892
30
-9E-16
41
1
10
6.84771733830956
20
-4.28078062953
30
-1.5E-15
41
1
10
6.66851915307259
20
-4.19287437777515
30
1.7E-15
41
1
10
6.57969223298088
20
-4.14692112493086
30
1.5E-15
41
1
10
6.49203991334718
20
-4.09792485326759
30
1.2E-15
41
1
10
6.43386859687763
20
-4.06457780363615
30
1.1E-15
41
1
10
6.40488052783027
20
-4.04754211566231
30
1E-15
41
1
10
6.26106755204279
20
-3.9609189919704
30
7E-16
41
1
10
6.038583165435
20
-3.81338366091714
30
2E-16
41
1
10
5.72699984330586
20
-3.56608060440854
30
-6E-16
41
1
10
5.53390515481928
20
-3.38402724223835
30
-1E-15
41
1
10
5.39464014295632
20
-3.24095627776077
30
-1.4E-15
41
1
10
5.32639853191316
20
-3.16778583261427
30
-1.5E-15
41
1
10
5.26027445721897
20
-3.09212557850071
30
-1.7E-15
41
1
10
5.2166670938575
20
-3.0411264087995
30
1.8E-15
41
1
10
5.19508669045226
20
-3.01532858634206
30
1.7E-15
41
1
10
5.08888595070647
20
-2.88555044724211
30
1.5E-15
41
1
10
4.92906660346949
20
-2.67199631774062
30
1.1E-15
41
1
10
4.71876560635721
20
-2.33444104802985
30
6E-16
41
1
10
4.59804264732799
20
-2.09799778373059
30
3E-16
41
1
10
4.51491331801031
20
-1.91632210778565
30
1E-16
41
1
10
4.47520440891356
20
-1.82439698235098
30
0
41
1
10
4.43832362130414
20
-1.730814493986
30
-1E-16
41
1
10
4.41437162884532
20
-1.66805388471803
30
-1E-16
41
1
10
4.40272840041868
20
-1.63652504389387
30
-2E-16
41
1
10
4.34636890413191
20
-1.47869263666453
30
-3E-16
41
1
10
4.26765789526573
20
-1.22393024910517
30
-5E-16
41
1
10
4.18304231342029
20
-0.835275983460804
30
-7E-16
41
1
10
4.1488058050781
20
-0.571856236083647
30
-8E-16
41
1
10
4.13157984870091
20
-0.372645805599433
30
-8E-16
41
1
10
4.12724835857898
20
-0.305967685726301
30
-8E-16
41
1
10
4.1214534492747
20
-0.172052970262314
30
-8E-16
41
1
10
4.11999596721685
20
-0.104706593925982
30
-8E-16
41
1
10
4.11998693415305
20
0.096284747310051
30
-8E-16
41
1
10
4.13150794127097
20
0.362575250221852
30
-8E-16
41
1
10
4.18248159957909
20
0.757050947591182
30
-7E-16
41
1
10
4.23882418351693
20
1.01674347333386
30
-6E-16
41
1
10
4.28961316908087
20
1.21025732803247
30
-4E-16
41
1
10
4.30796682004657
20
1.27455239949961
30
-4E-16
41
1
10
4.33767026124843
20
1.37067529733025
30
-3E-16
41
1
10
4.34794703426999
20
1.40270203924041
30
-3E-16
41
1
10
4.36915290459669
20
1.46641096781414
30
-3E-16
41
1
10
4.42379677110151
20
1.62482781624249
30
-1E-16
41
1
10
4.53662887499843
20
1.90237908316138
30
1E-16
41
1
10
4.71718020763973
20
2.25664581394329
30
6E-16
41
1
10
4.85756248113731
20
2.4823246489797
30
9E-16
41
1
10
4.97049882977129
20
2.64757325172118
30
1.2E-15
41
1
10
5.00942101449718
20
2.70198676072724
30
1.3E-15
41
1
10
5.069754287096
20
2.78258498962322
30
1.4E-15
41
1
10
5.09019724665629
20
2.80928758669745
30
1.5E-15
41
1
10
5.13153508751995
20
2.86209225027125
30
1.6E-15
41
1
10
5.23613127959857
20
2.99276412920798
30
-1.7E-15
41
1
10
5.43552913377084
20
3.21606659927539
30
-1.3E-15
41
1
10
5.72458285247512
20
3.48899684664249
30
-6E-16
41
1
10
5.93273161375384
20
3.65443677481562
30
-1E-16
41
1
10
6.09475871521312
20
3.77219596342735
30
3E-16
41
1
10
6.14975507078574
20
3.81039407107122
30
4E-16
41
1
10
6.26176051435212
20
3.8846402550945
30
7E-16
41
1
10
6.31844986800564
20
3.92047357186439
30
8E-16
41
1
10
6.49013662493681
20
4.02391169610374
30
1.2E-15
41
1
10
6.72371308674957
20
4.15124550528532
30
-1.8E-15
41
1
10
7.08776346590238
20
4.31118032791503
30
-9E-16
41
1
10
7.33959248957709
20
4.3970883417397
30
-3E-16
41
1
10
7.53196558436477
20
4.45357620546005
30
2E-16
41
1
10
7.59670675142439
20
4.4710877678389
30
3E-16
41
1
10
7.72724438883657
20
4.50337310398601
30
6E-16
41
1
10
7.7928341855237
20
4.51809722758128
30
8E-16
41
1
10
7.85874504335067
20
4.53140249550114
30
9E-16
0
SPLINE
5
D5
100
AcDbEntity
8
1
62
256
6
ByLayer
370
18
48
1
60
0
100
AcDbSpline
70
4
71
3
72
11
73
7
40
0
40
0
40
0
40
0
40
0.25
40
0.5
40
0.75
40
1
40
1
40
1
40
1
41
1
10
14.9862523269186
20
-5.29787408189159
30
2E-16
41
1
10
14.3863939746378
20
-5.30133350265928
30
-1.3E-15
41
1
10
13.1896549261341
20
-5.27741225918166
30
-6E-16
41
1
10
11.403375791472
20
-5.15009129830719
30
-1.3E-15
41
1
10
9.62589513836591
20
-4.93168322209311
30
1.6E-15
41
1
10
8.44680045065402
20
-4.72511184027147
30
-1.2E-15
41
1
10
7.85874504335064
20
-4.60640249550116
30
9E-16
0
SPLINE
5
D6
100
AcDbEntity
8
1
62
256
6
ByLayer
370
18
48
1
60
0
100
AcDbSpline
70
4
71
3
72
10
73
6
40
0
40
0
40
0
40
0
40
0.499999999999999
40
0.499999999999999
40
1
40
1
40
1
40
1
41
1
10
16.8577517139001
20
-5.13750000000002
30
1.1E-15
41
1
10
16.5412369191233
20
-5.13750000000002
30
3E-16
41
1
10
16.2270669450744
20
-5.15113398347597
30
-4E-16
41
1
10
15.6032659171883
20
-5.20478455906257
30
1.6E-15
41
1
10
15.2936352439721
20
-5.24480334447128
30
9E-16
41
1
10
14.9862523269186
20
-5.29787408189159
30
2E-16
0
SPLINE
5
D7
100
AcDbEntity
8
1
62
256
6
ByLayer
370
18
48
1
60
0
100
AcDbSpline
70
4
71
3
72
33
73
29
40
0
40
0
40
0
40
0
40
0.124999999999995
40
0.124999999999995
40
0.249999999999991
40
0.249999999999991
40
0.281249999999991
40
0.281249999999991
40
0.312499999999991
40
0.374999999999992
40
0.374999999999992
40
0.499999999999994
40
0.499999999999994
40
0.531249999999994
40
0.531249999999994
40
0.562499999999995
40
0.562499999999995
40
0.624999999999995
40
0.624999999999995
40
0.749999999999996
40
0.749999999999996
40
0.812499999999997
40
0.812499999999997
40
0.843749999999997
40
0.843749999999997
40
0.874999999999998
40
0.874999999999998
40
1
40
1
40
1
40
1
41
1
10
19.5381841956916
20
-2.42946384799097
30
3E-16
41
1
10
19.5288584145209
20
-2.58513663654372
30
3E-16
41
1
10
19.5075946137232
20
-2.73799793765093
30
3E-16
41
1
10
19.4422149188751
20
-3.03834240657622
30
1E-16
41
1
10
19.3980969345562
20
-3.18582506241367
30
0
41
1
10
19.3282570229963
20
-3.36672543076708
30
-2E-16
41
1
10
19.3135175524221
20
-3.40280606917477
30
-2E-16
41
1
10
19.2827036416851
20
-3.47422576781628
30
-3E-16
41
1
10
19.2345441423377
20
-3.58011952021727
30
-4E-16
41
1
10
19.1806734180838
20
-3.68237364461376
30
-5E-16
41
1
10
19.0654612087202
20
-3.88212396573917
30
-8E-16
41
1
10
18.9787362661988
20
-4.0089749875018
30
-1E-15
41
1
10
18.8577361385903
20
-4.15952937186813
30
-1.3E-15
41
1
10
18.8329028905275
20
-4.18923754283452
30
-1.3E-15
41
1
10
18.7819503965628
20
-4.24783634838221
30
-1.5E-15
41
1
10
18.7557865205403
20
-4.2767706966786
30
-1.5E-15
41
1
10
18.6760046765524
20
-4.3616248616147
30
-1.7E-15
41
1
10
18.6209314790104
20
-4.41580567266226
30
1.7E-15
41
1
10
18.4501959319043
20
-4.57136426791644
30
1.3E-15
41
1
10
18.3290496029565
20
-4.66579871349208
30
1E-15
41
1
10
18.1363026724458
20
-4.79350679566937
30
5E-16
41
1
10
18.0702078263394
20
-4.83374213447979
30
4E-16
41
1
10
17.9682150251898
20
-4.89049294710532
30
1E-16
41
1
10
17.9337741916134
20
-4.90878713438411
30
1E-16
41
1
10
17.8644350907192
20
-4.9439077897072
30
-1E-16
41
1
10
17.8294783245112
20
-4.96076740361244
30
-2E-16
41
1
10
17.6532681507956
20
-5.04158664573717
30
-6E-16
41
1
10
17.5077615874922
20
-5.09517313773563
30
-9E-16
41
1
10
17.3576340518432
20
-5.13750000000002
30
-1.3E-15
0
SPLINE
5
D8
100
AcDbEntity
8
1
62
256
6
ByLayer
370
18
48
1
60
0
100
AcDbSpline
70
4
71
3
72
32
73
28
40
0
40
0
40
0
40
0
40
0.125
40
0.125
40
0.25
40
0.25
40
0.375
40
0.375
40
0.499999999999999
40
0.499999999999999
40
0.562500000000001
40
0.562500000000001
40
0.625000000000003
40
0.625000000000003
40
0.687500000000005
40
0.687500000000005
40
0.750000000000007
40
0.750000000000007
40
0.812500000000009
40
0.812500000000009
40
0.843750000000009
40
0.843750000000009
40
0.87500000000001
40
0.87500000000001
40
0.937500000000005
40
0.937500000000005
40
1
40
1
40
1
40
1
41
1
10
31.9999999999999
20
1.63890000000001
30
1.6E-15
41
1
10
31.9778723788395
20
1.63890000000001
30
1.5E-15
41
1
10
31.9557738517919
20
1.63799400426092
30
1.5E-15
41
1
10
31.9116372221416
20
1.63430546755524
30
1.4E-15
41
1
10
31.889615701487
20
1.63152155681618
30
1.3E-15
41
1
10
31.845985503196
20
1.62391334049562
30
1.2E-15
41
1
10
31.824375942213
20
1.61909423600056
30
1.2E-15
41
1
10
31.7818513445948
20
1.60708405635125
30
1.1E-15
41
1
10
31.7609999629925
20
1.59992073984213
30
1E-15
41
1
10
31.7306829941082
20
1.58695662531019
30
9E-16
41
1
10
31.7207905115128
20
1.58228390378102
30
9E-16
41
1
10
31.7015125831524
20
1.57211268316703
30
9E-16
41
1
10
31.6920919483547
20
1.56659245541823
30
9E-16
41
1
10
31.6740524133195
20
1.55463984146869
30
8E-16
41
1
10
31.6654725487029
20
1.54823963027556
30
8E-16
41
1
10
31.6494034749875
20
1.53440451038938
30
8E-16
41
1
10
31.641888332804
20
1.52694700981419
30
7E-16
41
1
10
31.6284071540866
20
1.5107795285505
30
7E-16
41
1
10
31.6225914304389
20
1.50225365541462
30
7E-16
41
1
10
31.6155778541651
20
1.48866450263515
30
7E-16
41
1
10
31.6135273747774
20
1.48398683717781
30
7E-16
41
1
10
31.6101586035727
20
1.47459495526544
30
7E-16
41
1
10
31.6088232257789
20
1.4698522081261
30
7E-16
41
1
10
31.6058954796162
20
1.45548273548502
30
6E-16
41
1
10
31.6054205514371
20
1.44557439016626
30
6E-16
41
1
10
31.6074049077696
20
1.42654212545929
30
7E-16
41
1
10
31.609799775975
20
1.41731128946594
30
7E-16
41
1
10
31.6134376550479
20
1.40833350996672
30
7E-16
0
SPLINE
5
D9
100
AcDbEntity
8
1
62
256
6
ByLayer
370
18
48
1
60
0
100
AcDbSpline
70
4
71
3
72
32
73
28
40
0
40
0
40
0
40
0
40
0.125000000000019
40
0.125000000000019
40
0.250000000000038
40
0.250000000000038
40
0.375000000000056
40
0.375000000000056
40
0.500000000000075
40
0.500000000000075
40
0.562500000000077
40
0.562500000000077
40
0.625000000000078
40
0.625000000000078
40
0.68750000000008
40
0.68750000000008
40
0.750000000000081
40
0.750000000000081
40
0.812500000000083
40
0.812500000000083
40
0.843750000000075
40
0.843750000000075
40
0.875000000000067
40
0.875000000000067
40
0.937500000000033
40
0.937500000000033
40
1
40
1
40
1
40
1
41
1
10
30.5481950130957
20
0.800700000000006
30
1.7E-15
41
1
10
30.5592588236759
20
0.819863082050261
30
1.7E-15
41
1
10
30.5710927025255
20
0.838547969990145
30
1.7E-15
41
1
10
30.5963553838406
20
0.874927144151911
30
-1.8E-15
41
1
10
30.6097770815898
20
0.892606385099214
30
-1.7E-15
41
1
10
30.6381810893464
20
0.926587137031106
30
-1.7E-15
41
1
10
30.653159336754
20
0.942892013559458
30
-1.6E-15
41
1
10
30.6848227562435
20
0.973714305557905
30
-1.5E-15
41
1
10
30.7014520611169
20
0.988190473474958
30
-1.5E-15
41
1
10
30.7278377980813
20
1.00796368142858
30
-1.4E-15
41
1
10
30.736830734928
20
1.01419446189803
30
-1.4E-15
41
1
10
30.7552782345474
20
1.02580402728353
30
-1.4E-15
41
1
10
30.7647692094114
20
1.03120242246371
30
-1.4E-15
41
1
10
30.784140244251
20
1.04084881110182
30
-1.3E-15
41
1
10
30.7939729220421
20
1.04507908622426
30
-1.3E-15
41
1
10
30.8139890241856
20
1.05207775233407
30
-1.2E-15
41
1
10
30.8242049802242
20
1.05485730609044
30
-1.2E-15
41
1
10
30.8449470190725
20
1.05844860870076
30
-1.2E-15
41
1
10
30.8552385036215
20
1.05922223655315
30
-1.1E-15
41
1
10
30.8705138432813
20
1.05850159538792
30
-1.1E-15
41
1
10
30.8755900600916
20
1.05793852989893
30
-1.1E-15
41
1
10
30.8854080540194
20
1.05616003038549
30
-1.1E-15
41
1
10
30.8901830824227
20
1.05494512790892
30
-1.1E-15
41
1
10
30.9040912838502
20
1.0502958941411
30
-1E-15
41
1
10
30.9129096266953
20
1.04575302134975
30
-1E-15
41
1
10
30.9283998732568
20
1.03451838600225
30
-1E-15
41
1
10
30.9351965776225
20
1.02782895130093
30
-1E-15
41
1
10
30.941152623202
20
1.02018956585835
30
-9E-16
0
SPLINE
5
DA
100
AcDbEntity
8
1
62
256
6
ByLayer
370
18
48
1
60
0
100
AcDbSpline
70
4
71
3
72
42
73
38
40
0
40
0
40
0
40
0
40
0.0624999999999979
40
0.0624999999999979
40
0.0937499999999949
40
0.0937499999999949
40
0.124999999999992
40
0.124999999999992
40
0.187499999999996
40
0.187499999999996
40
0.250000000000001
40
0.250000000000001
40
0.312500000000005
40
0.312500000000005
40
0.375000000000009
40
0.375000000000009
40
0.437500000000013
40
0.437500000000013
40
0.500000000000018
40
0.500000000000018
40
0.562500000000022
40
0.562500000000022
40
0.625000000000027
40
0.625000000000027
40
0.750000000000001
40
0.750000000000001
40
0.781249999999998
40
0.781249999999998
40
0.812499999999994
40
0.812499999999994
40
0.874999999999995
40
0.874999999999995
40
0.906249999999995
40
0.906249999999995
40
0.937499999999995
40
0.937499999999995
40
1
40
1
40
1
40
1
41
1
10
31.6129988776368
20
1.38833350996674
30
7E-16
41
1
10
31.6126481413894
20
1.37234653166743
30
7E-16
41
1
10
31.6095137300049
20
1.35661978356507
30
7E-16
41
1
10
31.6020149168509
20
1.33325658685507
30
6E-16
41
1
10
31.5990309954632
20
1.32551119303437
30
6E-16
41
1
10
31.5923227687511
20
1.31029980101607
30
6E-16
41
1
10
31.5885886240148
20
1.30280277394954
30
6E-16
41
1
10
31.5763941025827
20
1.28058458059112
30
6E-16
41
1
10
31.5670392741123
20
1.26628975753445
30
6E-16
41
1
10
31.5464482503782
20
1.23854530971181
30
5E-16
41
1
10
31.5352327882559
20
1.22513979616028
30
5E-16
41
1
10
31.5114355812807
20
1.19929651464543
30
4E-16
41
1
10
31.4987850549993
20
1.18679075690758
30
4E-16
41
1
10
31.4724319656051
20
1.16278317408904
30
3E-16
41
1
10
31.4587210647554
20
1.15126743862561
30
3E-16
41
1
10
31.4303064383359
20
1.12912564270127
30
2E-16
41
1
10
31.4156093651966
20
1.11851083809401
30
2E-16
41
1
10
31.3855540557613
20
1.09834148687014
30
1E-16
41
1
10
31.3701576682267
20
1.08875712436227
30
1E-16
41
1
10
31.3386439552412
20
1.07058974058995
30
0
41
1
10
31.3226353551916
20
1.06206920227615
30
0
41
1
10
31.2901096405104
20
1.04616341868356
30
-1E-16
41
1
10
31.2735317083575
20
1.03875551369649
30
-1E-16
41
1
10
31.2236009281291
20
1.01858825932089
30
-3E-16
41
1
10
31.1899922494485
20
1.00776753279203
30
-3E-16
41
1
10
31.1473877572999
20
0.998224581601903
30
-4E-16
41
1
10
31.1388362022318
20
0.996520045600306
30
-5E-16
41
1
10
31.1216618770032
20
0.99356239684036
30
-5E-16
41
1
10
31.113021512351
20
0.992308534039552
30
-5E-16
41
1
10
31.087310054394
20
0.989346523085914
30
-6E-16
41
1
10
31.0703515822234
20
0.988404173761211
30
-6E-16
41
1
10
31.0452135347208
20
0.988934204743259
30
-7E-16
41
1
10
31.0368844741673
20
0.989437492577764
30
-7E-16
41
1
10
31.0203382210821
20
0.991218776394874
30
-7E-16
41
1
10
31.0120865338777
20
0.992506757236441
30
-8E-16
41
1
10
30.9880356285277
20
0.997687028426554
30
-8E-16
41
1
10
30.9727871356055
20
1.00283916442621
30
-9E-16
41
1
10
30.9586925199832
20
1.01056955824291
30
-9E-16
0
SPLINE
5
DB
100
AcDbEntity
8
1
62
256
6
ByLayer
370
18
48
1
60
0
100
AcDbSpline
70
4
71
3
72
8
73
4
40
0
40
0
40
0
40
0
40
1
40
1
40
1
40
1
41
1
10
31.6134376550479
20
1.40833350996672
30
7E-16
41
1
10
31.6132914148339
20
1.40166770583357
30
7E-16
41
1
10
31.6131451559396
20
1.39500105023151
30
7E-16
41
1
10
31.6129988776368
20
1.38833350996674
30
7E-16
0
SPLINE
5
DC
100
AcDbEntity
8
1
62
256
6
ByLayer
370
18
48
1
60
0
100
AcDbSpline
70
4
71
3
72
8
73
4
40
0
40
0
40
0
40
0
40
1
40
1
40
1
40
1
41
1
10
30.941152623202
20
1.02018956585835
30
-9E-16
41
1
10
30.9469984990249
20
1.01698331153213
30
-9E-16
41
1
10
30.9528451215818
20
1.01377664764908
30
-9E-16
41
1
10
30.9586925199832
20
1.01056955824291
30
-9E-16
0
SPLINE
5
DD
100
AcDbEntity
8
1
62
256
6
ByLayer
370
18
48
1
60
0
100
AcDbSpline
70
4
71
3
72
32
73
28
40
0
40
0
40
0
40
0
40
0.124999999999992
40
0.124999999999992
40
0.249999999999984
40
0.249999999999984
40
0.374999999999976
40
0.374999999999976
40
0.499999999999968
40
0.499999999999968
40
0.562499999999964
40
0.562499999999964
40
0.62499999999996
40
0.62499999999996
40
0.687499999999956
40
0.687499999999956
40
0.749999999999953
40
0.749999999999953
40
0.812499999999949
40
0.812499999999949
40
0.843749999999955
40
0.843749999999955
40
0.874999999999962
40
0.874999999999962
40
0.937499999999981
40
0.937499999999981
40
1
40
1
40
1
40
1
41
1
10
30.5481950130957
20
-0.875700000000023
30
1.7E-15
41
1
10
30.5371312025155
20
-0.856536917949768
30
1.7E-15
41
1
10
30.5268665543175
20
-0.836946034270795
30
1.6E-15
41
1
10
30.5079926059822
20
-0.79687832340332
30
1.6E-15
41
1
10
30.4993927830768
20
-0.776415171716963
30
1.6E-15
41
1
10
30.4841665925424
20
-0.734826203464536
30
1.5E-15
41
1
10
30.4775352789671
20
-0.713702222441128
30
1.5E-15
41
1
10
30.4666741008383
20
-0.670869750793344
30
1.5E-15
41
1
10
30.4624520241094
20
-0.649230266367169
30
1.5E-15
41
1
10
30.4585207921895
20
-0.616492943881639
30
1.5E-15
41
1
10
30.4576212464409
20
-0.605589441882984
30
1.5E-15
41
1
10
30.4567908176999
20
-0.58380865588353
30
1.5E-15
41
1
10
30.4568611577662
20
-0.572890032954518
30
1.5E-15
41
1
10
30.4581926575705
20
-0.551291030366826
30
1.5E-15
41
1
10
30.4594454707451
20
-0.540660544051292
30
1.5E-15
41
1
10
30.4633924991732
20
-0.519826758055331
30
1.5E-15
41
1
10
30.4660933130282
20
-0.509589703723805
30
1.5E-15
41
1
10
30.4733541731592
20
-0.489830919849737
30
1.5E-15
41
1
10
30.4778299340604
20
-0.480531418861489
30
1.5E-15
41
1
10
30.4860916974464
20
-0.467662907247217
30
1.5E-15
41
1
10
30.489117434869
20
-0.46354830727887
30
1.5E-15
41
1
10
30.4955666575922
20
-0.455934924879955
30
1.6E-15
41
1
10
30.4990063082016
20
-0.452407080217171
30
1.6E-15
41
1
10
30.5099867634665
20
-0.442686841343914
30
1.6E-15
41
1
10
30.5183301781325
20
-0.437321368816498
30
1.6E-15
41
1
10
30.5358047810264
20
-0.429523739457039
30
1.7E-15
41
1
10
30.5449963535976
20
-0.426982338165004
30
1.7E-15
41
1
10
30.5545902782499
20
-0.425643944108401
30
1.7E-15
0
SPLINE
5
DE
100
AcDbEntity
8
1
62
256
6
ByLayer
370
18
48
1
60
0
100
AcDbSpline
70
4
71
3
72
40
73
36
40
0
40
0
40
0
40
0
40
0.0624999999999876
40
0.0624999999999876
40
0.0937499999999858
40
0.0937499999999858
40
0.124999999999984
40
0.124999999999984
40
0.187499999999985
40
0.187499999999985
40
0.249999999999986
40
0.249999999999986
40
0.312499999999987
40
0.312499999999987
40
0.374999999999988
40
0.374999999999988
40
0.43749999999999
40
0.43749999999999
40
0.499999999999991
40
0.499999999999991
40
0.624999999999998
40
0.624999999999998
40
0.6875
40
0.6875
40
0.750000000000002
40
0.750000000000002
40
0.812500000000004
40
0.812500000000004
40
0.875000000000006
40
0.875000000000006
40
0.906250000000004
40
0.906250000000004
40
0.937500000000002
40
0.937500000000002
40
1
40
1
40
1
40
1
41
1
10
30.5716913976201
20
-0.41526395172383
30
1.7E-15
41
1
10
30.5853472237575
20
-0.406975174349441
30
1.8E-15
41
1
10
30.5973890603712
20
-0.396410309876416
30
-1.8E-15
41
1
10
30.61385934378
20
-0.378257955352922
30
-1.7E-15
41
1
10
30.6190713857599
20
-0.371809259267025
30
-1.7E-15
41
1
10
30.6288842053259
20
-0.358411119473345
30
-1.7E-15
41
1
10
30.633506917532
20
-0.351437697017332
30
-1.7E-15
41
1
10
30.6466437778801
20
-0.32979584498753
30
-1.6E-15
41
1
10
30.6543434206023
20
-0.314565312864232
30
-1.6E-15
41
1
10
30.668071602914
20
-0.282900740236812
30
-1.6E-15
41
1
10
30.67407332774
20
-0.266504427664046
30
-1.6E-15
41
1
10
30.6845572124018
20
-0.23301445491569
30
-1.5E-15
41
1
10
30.6890641670351
20
-0.215826761648771
30
-1.5E-15
41
1
10
30.6966851810792
20
-0.181040507040876
30
-1.5E-15
41
1
10
30.6998068197979
20
-0.16342899364875
30
-1.5E-15
41
1
10
30.7047853838683
20
-0.127791776014931
30
-1.5E-15
41
1
10
30.7066361166998
20
-0.109775461041806
30
-1.5E-15
41
1
10
30.7090908448587
20
-0.0737008479177916
30
-1.5E-15
41
1
10
30.7097016582638
20
-0.0555965382452257
30
-1.5E-15
41
1
10
30.7096966733772
20
-0.0010861470367729
30
-1.5E-15
41
1
10
30.70728068103
20
0.0349268479077409
30
-1.5E-15
41
1
10
30.6998057276723
20
0.0884384417124124
30
-1.5E-15
41
1
10
30.696674334527
20
0.106094791264582
30
-1.5E-15
41
1
10
30.6890588487846
20
0.140846251808114
30
-1.5E-15
41
1
10
30.6845594871594
20
0.158010536353373
30
-1.5E-15
41
1
10
30.6740522110993
20
0.191568529180557
30
-1.6E-15
41
1
10
30.6680422702364
20
0.207976080717572
30
-1.6E-15
41
1
10
30.654310974511
20
0.239632432802779
30
-1.6E-15
41
1
10
30.6465766530811
20
0.254916408859003
30
-1.6E-15
41
1
10
30.6334639087979
20
0.276503515615644
30
-1.7E-15
41
1
10
30.6288457336927
20
0.283467233997016
30
-1.7E-15
41
1
10
30.6190301593765
20
0.296861932866591
30
-1.7E-15
41
1
10
30.6138146543751
20
0.303310015089778
30
-1.7E-15
41
1
10
30.5973791421724
20
0.32141560286982
30
-1.8E-15
41
1
10
30.5853539060553
20
0.33197111834599
30
1.8E-15
41
1
10
30.5716913976201
20
0.340263951723813
30
1.7E-15
0
SPLINE
5
DF
100
AcDbEntity
8
1
62
256
6
ByLayer
370
18
48
1
60
0
100
AcDbSpline
70
4
71
3
72
8
73
4
40
0
40
0
40
0
40
0
40
1
40
1
40
1
40
1
41
1
10
30.5716913976201
20
0.340263951723813
30
1.7E-15
41
1
10
30.5659902775214
20
0.343724402582438
30
1.7E-15
41
1
10
30.5602899138589
20
0.34718439430145
30
1.7E-15
41
1
10
30.5545902782499
20
0.350643944108384
30
1.7E-15
0
SPLINE
5
E0
100
AcDbEntity
8
1
62
256
6
ByLayer
370
18
48
1
60
0
100
AcDbSpline
70
4
71
3
72
31
73
27
40
0
40
0
40
0
40
0
40
0.250000000000008
40
0.250000000000008
40
0.375000000000011
40
0.375000000000011
40
0.500000000000014
40
0.500000000000014
40
0.562500000000011
40
0.562500000000011
40
0.625000000000008
40
0.625000000000008
40
0.687500000000004
40
0.687500000000004
40
0.750000000000001
40
0.750000000000001
40
0.78125
40
0.78125
40
0.812499999999998
40
0.843749999999996
40
0.843749999999996
40
0.874999999999995
40
0.874999999999995
40
0.937499999999997
40
0.937499999999997
40
1
40
1
40
1
40
1
41
1
10
30.5481950130957
20
0.800700000000006
30
1.7E-15
41
1
10
30.5260826952681
20
0.762400342049403
30
1.6E-15
41
1
10
30.5069805432668
20
0.722144117953434
30
1.6E-15
41
1
10
30.4841689287525
20
0.659830752071798
30
1.5E-15
41
1
10
30.4775365647825
20
0.638702063924711
30
1.5E-15
41
1
10
30.4666896166962
20
0.595936160803177
30
1.5E-15
41
1
10
30.4624622416218
20
0.574275750357458
30
1.5E-15
41
1
10
30.4585327011566
20
0.541611788451092
30
1.5E-15
41
1
10
30.4576267649592
20
0.530673883408838
30
1.5E-15
41
1
10
30.4567911744519
20
0.508877889385815
30
1.5E-15
41
1
10
30.4568608961513
20
0.497951098624213
30
1.5E-15
41
1
10
30.4581813607343
20
0.476417954771137
30
1.5E-15
41
1
10
30.4594240788883
20
0.465836566858485
30
1.5E-15
41
1
10
30.4633223382659
20
0.445135443770795
30
1.5E-15
41
1
10
30.4659732586647
20
0.435014077514694
30
1.5E-15
41
1
10
30.4713298822382
20
0.420294309775983
30
1.5E-15
41
1
10
30.4733638353757
20
0.415433885421606
30
1.5E-15
41
1
10
30.4778891308394
20
0.40608705925257
30
1.5E-15
41
1
10
30.4828615126948
20
0.397115972364588
30
1.5E-15
41
1
10
30.488797921215
20
0.388961776736266
30
1.5E-15
41
1
10
30.4952638201492
20
0.381259473270148
30
1.6E-15
41
1
10
30.4987696543612
20
0.377636945927321
30
1.6E-15
41
1
10
30.5097913784604
20
0.367820854878545
30
1.6E-15
41
1
10
30.5179039300946
20
0.362547389768821
30
1.6E-15
41
1
10
30.5356537368122
20
0.354556466867166
30
1.7E-15
41
1
10
30.5449605570649
20
0.351987331936414
30
1.7E-15
41
1
10
30.5545902782499
20
0.350643944108384
30
1.7E-15
0
SPLINE
5
E1
100
AcDbEntity
8
1
62
256
6
ByLayer
370
18
48
1
60
0
100
AcDbSpline
70
4
71
3
72
8
73
4
40
0
40
0
40
0
40
0
40
1
40
1
40
1
40
1
41
1
10
30.5545902782499
20
-0.425643944108401
30
1.7E-15
41
1
10
30.5602899138589
20
-0.422184394301439
30
1.7E-15
41
1
10
30.5659902775214
20
-0.418724402582427
30
1.7E-15
41
1
10
30.5716913976201
20
-0.41526395172383
30
1.7E-15
0
SPLINE
5
E2
100
AcDbEntity
8
1
62
256
6
ByLayer
370
18
48
1
60
0
100
AcDbSpline
70
4
71
3
72
8
73
4
40
0
40
0
40
0
40
0
40
1
40
1
40
1
40
1
41
1
10
33.0413074800167
20
1.01056955824291
30
5E-16
41
1
10
33.0471548784182
20
1.01377664764908
30
5E-16
41
1
10
33.0530015009749
20
1.01698331153213
30
5E-16
41
1
10
33.0588473767979
20
1.02018956585835
30
6E-16
0
SPLINE
5
E3
100
AcDbEntity
8
1
62
256
6
ByLayer
370
18
48
1
60
0
100
AcDbSpline
70
4
71
3
72
31
73
27
40
0
40
0
40
0
40
0
40
0.249999999999936
40
0.249999999999936
40
0.374999999999904
40
0.374999999999904
40
0.499999999999872
40
0.499999999999872
40
0.562499999999868
40
0.562499999999868
40
0.624999999999863
40
0.624999999999863
40
0.687499999999858
40
0.687499999999858
40
0.749999999999853
40
0.749999999999853
40
0.781249999999872
40
0.781249999999872
40
0.81249999999989
40
0.843749999999908
40
0.843749999999908
40
0.874999999999927
40
0.874999999999927
40
0.937499999999963
40
0.937499999999963
40
1
40
1
40
1
40
1
41
1
10
33.4518049869042
20
0.800700000000006
30
1.5E-15
41
1
10
33.4296926690766
20
0.838999657950609
30
1.4E-15
41
1
10
33.4043808323496
20
0.875670718898618
30
1.4E-15
41
1
10
33.3618216817579
20
0.926582839510132
30
1.3E-15
41
1
10
33.3468398830589
20
0.942890979268896
30
1.2E-15
41
1
10
33.3152269985831
20
0.973667663425942
30
1.2E-15
41
1
10
33.2985822204179
20
0.988158882854577
30
1.1E-15
41
1
10
33.2722591698513
20
1.00789394567582
30
1.1E-15
41
1
10
33.2632396343192
20
1.01414746195806
30
1E-15
41
1
10
33.2447815450482
20
1.02576910157606
30
1E-15
41
1
10
33.2352838058171
20
1.03117211619397
30
1E-15
41
1
10
33.2159753239255
20
1.0407951322469
30
9E-16
41
1
10
33.2061902141089
20
1.04500960071209
30
9E-16
41
1
10
33.1863133859392
20
1.05198417060433
30
9E-16
41
1
10
33.1762225654411
20
1.05474908932365
30
8E-16
41
1
10
33.1607965608548
20
1.05747000109986
30
8E-16
41
1
10
33.155570333322
20
1.05813875818984
30
8E-16
41
1
10
33.145213096683
20
1.05889315044314
30
8E-16
41
1
10
33.1349577519651
20
1.05907229791927
30
7E-16
41
1
10
33.1249277717891
20
1.05800850211148
30
7E-16
41
1
10
33.1150244318527
20
1.05626002110927
30
7E-16
41
1
10
33.1101343140419
20
1.05503514329163
30
7E-16
41
1
10
33.0961224677781
20
1.05039809575254
30
6E-16
41
1
10
33.0874992372101
20
1.04600915250268
30
6E-16
41
1
10
33.0717039916188
20
1.03463283042385
30
6E-16
41
1
10
33.0648256453766
20
1.02785745512193
30
6E-16
41
1
10
33.0588473767979
20
1.02018956585835
30
6E-16
0
SPLINE
5
E4
100
AcDbEntity
8
1
62
256
6
ByLayer
370
18
48
1
60
0
100
AcDbSpline
70
4
71
3
72
31
73
27
40
0
40
0
40
0
40
0
40
0.249999999999965
40
0.249999999999965
40
0.374999999999947
40
0.374999999999947
40
0.499999999999929
40
0.499999999999929
40
0.562499999999938
40
0.562499999999938
40
0.624999999999946
40
0.624999999999946
40
0.687499999999955
40
0.687499999999955
40
0.749999999999963
40
0.749999999999963
40
0.781249999999967
40
0.781249999999967
40
0.812499999999972
40
0.843749999999976
40
0.843749999999976
40
0.87499999999998
40
0.87499999999998
40
0.93749999999999
40
0.93749999999999
40
1
40
1
40
1
40
1
41
1
10
31.9999999999999
20
1.63890000000001
30
1.6E-15
41
1
10
32.0442246356552
20
1.63890000000001
30
1.7E-15
41
1
10
32.0886386243834
20
1.63531483685202
30
-1.8E-15
41
1
10
32.1540093894894
20
1.62391359158192
30
-1.6E-15
41
1
10
32.1756235521584
20
1.6190930431936
30
-1.5E-15
41
1
10
32.2180833847206
20
1.60710382422911
30
-1.4E-15
41
1
10
32.2389555379602
20
1.59993463321203
30
-1.4E-15
41
1
10
32.269208128992
20
1.58700573412688
30
-1.3E-15
41
1
10
32.2791336007215
20
1.58232134536689
30
-1.3E-15
41
1
10
32.2984272804997
20
1.57214699096187
30
-1.3E-15
41
1
10
32.3078552980314
20
1.56662321481815
30
-1.2E-15
41
1
10
32.3258433153401
20
1.554713087018
30
-1.2E-15
41
1
10
32.3343857070027
20
1.54834616757057
30
-1.2E-15
41
1
10
32.3503642757947
20
1.53461961437509
30
-1.1E-15
41
1
10
32.3578041758941
20
1.52726316683834
30
-1.1E-15
41
1
10
32.3678735569069
20
1.51526431087581
30
-1.1E-15
41
1
10
32.3710658313022
20
1.51107264361141
30
-1.1E-15
41
1
10
32.3768977724775
20
1.50248020969568
30
-1.1E-15
41
1
10
32.3821807706944
20
1.49368845724766
30
-1.1E-15
41
1
10
32.3862743069958
20
1.48447027884771
30
-1E-15
41
1
10
32.389711747998
20
1.47501949437941
30
-1E-15
41
1
10
32.3910960315968
20
1.47017208921892
30
-1E-15
41
1
10
32.3940861537613
20
1.45571895063102
30
-1E-15
41
1
10
32.3945968326952
20
1.44605654227146
30
-1E-15
41
1
10
32.3926422715689
20
1.42668929729098
30
-1E-15
41
1
10
32.3902137975583
20
1.41734478705831
30
-1E-15
41
1
10
32.386562344952
20
1.40833350996672
30
-1E-15
0
SPLINE
5
E5
100
AcDbEntity
8
1
62
256
6
ByLayer
370
18
48
1
60
0
100
AcDbSpline
70
4
71
3
72
8
73
4
40
0
40
0
40
0
40
0
40
1
40
1
40
1
40
1
41
1
10
32.3870011223631
20
1.38833350996674
30
-1E-15
41
1
10
32.3868548440603
20
1.39500105023151
30
-1E-15
41
1
10
32.386708585166
20
1.40166770583357
30
-1E-15
41
1
10
32.386562344952
20
1.40833350996672
30
-1E-15
0
SPLINE
5
E6
100
AcDbEntity
8
1
62
256
6
ByLayer
370
18
48
1
60
0
100
AcDbSpline
70
4
71
3
72
40
73
36
40
0
40
0
40
0
40
0
40
0.0312499999999679
40
0.0312499999999679
40
0.0624999999999359
40
0.0624999999999359
40
0.124999999999897
40
0.124999999999897
40
0.156249999999891
40
0.156249999999891
40
0.187499999999885
40
0.187499999999885
40
0.249999999999895
40
0.249999999999895
40
0.312499999999906
40
0.312499999999906
40
0.374999999999916
40
0.374999999999916
40
0.499999999999935
40
0.499999999999935
40
0.624999999999953
40
0.624999999999953
40
0.687499999999962
40
0.687499999999962
40
0.74999999999997
40
0.74999999999997
40
0.812499999999979
40
0.812499999999979
40
0.874999999999987
40
0.874999999999987
40
0.906249999999992
40
0.906249999999992
40
0.937499999999996
40
0.937499999999996
40
1
40
1
40
1
40
1
41
1
10
33.0413074800167
20
1.01056955824291
30
5E-16
41
1
10
33.0342732808596
20
1.00671155096364
30
5E-16
41
1
10
33.0269022118977
20
1.0034880805114
30
5E-16
41
1
10
33.0116051081218
20
0.998074100814677
30
4E-16
41
1
10
33.0036875371041
20
0.995894588324489
30
4E-16
41
1
10
32.979680249728
20
0.990753298945663
30
4E-16
41
1
10
32.9631791349348
20
0.989104926505661
30
3E-16
41
1
10
32.9378435465489
20
0.988580117447242
30
3E-16
41
1
10
32.9292916664888
20
0.988739556069248
30
2E-16
41
1
10
32.912248952338
20
0.989636317055073
30
2E-16
41
1
10
32.9037257312993
20
0.990372399191642
30
2E-16
41
1
10
32.8781438183001
20
0.993340373226744
30
1E-16
41
1
10
32.8610727185403
20
0.996325525762813
30
1E-16
41
1
10
32.8268683089892
20
1.00399497576214
30
0
41
1
10
32.8096573181455
20
1.00871248554464
30
0
41
1
10
32.7757984859314
20
1.01949334074968
30
-1E-16
41
1
10
32.7590903884405
20
1.02556450564009
30
-2E-16
41
1
10
32.7095512068997
20
1.04561873581929
30
-3E-16
41
1
10
32.6772939797274
20
1.0614121227822
30
-4E-16
41
1
10
32.6142509446345
20
1.09773501770059
30
-5E-16
41
1
10
32.5839934203988
20
1.11798611561838
30
-6E-16
41
1
10
32.5412990781179
20
1.15125000357108
30
-7E-16
41
1
10
32.527556410301
20
1.16279372467281
30
-7E-16
41
1
10
32.5012249991013
20
1.18678163658493
30
-8E-16
41
1
10
32.488589372742
20
1.19926932794195
30
-8E-16
41
1
10
32.4647397396558
20
1.22516971744062
30
-9E-16
41
1
10
32.4535160806708
20
1.23858965734013
30
-9E-16
41
1
10
32.4329294668137
20
1.26633560114848
30
-9E-16
41
1
10
32.4235433653105
20
1.28068924578713
30
-1E-15
41
1
10
32.4113816014216
20
1.30286169119094
30
-1E-15
41
1
10
32.4076527773249
20
1.31035080097485
30
-1E-15
41
1
10
32.4009474043514
20
1.32556465478464
30
-1E-15
41
1
10
32.3979649531526
20
1.33331396116566
30
-1E-15
41
1
10
32.3904874907486
20
1.35662670698025
30
-1E-15
41
1
10
32.3873520788027
20
1.37233649504211
30
-1E-15
41
1
10
32.3870011223631
20
1.38833350996674
30
-1E-15
0
SPLINE
5
E7
100
AcDbEntity
8
1
62
256
6
ByLayer
370
18
48
1
60
0
100
AcDbSpline
70
4
71
3
72
40
73
36
40
0
40
0
40
0
40
0
40
0.0625000000000079
40
0.0625000000000079
40
0.093750000000006
40
0.093750000000006
40
0.125000000000004
40
0.125000000000004
40
0.187499999999999
40
0.187499999999999
40
0.249999999999994
40
0.249999999999994
40
0.312499999999989
40
0.312499999999989
40
0.374999999999984
40
0.374999999999984
40
0.437499999999979
40
0.437499999999979
40
0.499999999999973
40
0.499999999999973
40
0.624999999999981
40
0.624999999999981
40
0.687499999999983
40
0.687499999999983
40
0.749999999999986
40
0.749999999999986
40
0.812499999999988
40
0.812499999999988
40
0.874999999999991
40
0.874999999999991
40
0.906249999999995
40
0.906249999999995
40
0.937499999999998
40
0.937499999999998
40
1
40
1
40
1
40
1
41
1
10
31.6129988776368
20
-1.46333350996673
30
7E-16
41
1
10
31.612648498933
20
-1.44736282893484
30
7E-16
41
1
10
31.6095199762187
20
-1.43165186028267
30
7E-16
41
1
10
31.6020347177672
20
-1.40831199918142
30
6E-16
41
1
10
31.5990560041255
20
-1.40057389037821
30
6E-16
41
1
10
31.5923592844837
20
-1.3853766694545
30
6E-16
41
1
10
31.5886314795886
20
-1.37788657202162
30
6E-16
41
1
10
31.5764575161199
20
-1.35568879121931
30
6E-16
41
1
10
31.5671173097491
20
-1.34140543896012
30
6E-16
41
1
10
31.5465590766096
20
-1.31368419801672
30
5E-16
41
1
10
31.5353603158061
20
-1.30028839556448
30
5E-16
41
1
10
31.5115990909649
20
-1.2744640987429
30
4E-16
41
1
10
31.49896758928
20
-1.26196711490326
30
4E-16
41
1
10
31.472652316109
20
-1.23797399583455
30
3E-16
41
1
10
31.4589611174717
20
-1.22646482070664
30
3E-16
41
1
10
31.4305876637159
20
-1.2043346489304
30
2E-16
41
1
10
31.4159104436824
20
-1.1937237097961
30
2E-16
41
1
10
31.3858962763646
20
-1.17356054628919
30
1E-16
41
1
10
31.3705228909728
20
-1.16397941152704
30
1E-16
41
1
10
31.3233130149728
20
-1.13672853296123
30
0
41
1
10
31.2909168503108
20
-1.12081434623707
30
-1E-16
41
1
10
31.2408369740001
20
-1.10053204883459
30
-2E-16
41
1
10
31.2239804301772
20
-1.09441574007155
30
-3E-16
41
1
10
31.1900770396567
20
-1.08363521391487
30
-3E-16
41
1
10
31.1729626523901
20
-1.07894963311048
30
-4E-16
41
1
10
31.1386469400717
20
-1.07127020468951
30
-5E-16
41
1
10
31.1214326131953
20
-1.06827119038351
30
-5E-16
41
1
10
31.0871517602357
20
-1.06433466526593
30
-6E-16
41
1
10
31.0700482879852
20
-1.06339079607722
30
-6E-16
41
1
10
31.0447969329982
20
-1.06395321236141
30
-7E-16
41
1
10
31.0364570884224
20
-1.06447081013098
30
-7E-16
41
1
10
31.0199491517673
20
-1.06627399740674
30
-7E-16
41
1
10
31.0117571962556
20
-1.06756671611998
30
-8E-16
41
1
10
30.9878595411863
20
-1.07274749332171
30
-8E-16
41
1
10
30.9727055785753
20
-1.07788389554756
30
-9E-16
41
1
10
30.9586925199832
20
-1.0855695582429
30
-9E-16
0
SPLINE
5
E8
100
AcDbEntity
8
1
62
256
6
ByLayer
370
18
48
1
60
0
100
AcDbSpline
70
4
71
3
72
8
73
4
40
0
40
0
40
0
40
0
40
1
40
1
40
1
40
1
41
1
10
30.9586925199832
20
-1.0855695582429
30
-9E-16
41
1
10
30.9528451215817
20
-1.08877664764907
30
-9E-16
41
1
10
30.9469984990249
20
-1.09198331153215
30
-9E-16
41
1
10
30.941152623202
20
-1.09518956585833
30
-9E-16
0
SPLINE
5
E9
100
AcDbEntity
8
1
62
256
6
ByLayer
370
18
48
1
60
0
100
AcDbSpline
70
4
71
3
72
31
73
27
40
0
40
0
40
0
40
0
40
0.249999999999981
40
0.249999999999981
40
0.374999999999971
40
0.374999999999971
40
0.499999999999961
40
0.499999999999961
40
0.562499999999958
40
0.562499999999958
40
0.624999999999954
40
0.624999999999954
40
0.687499999999951
40
0.687499999999951
40
0.749999999999947
40
0.749999999999947
40
0.781249999999954
40
0.781249999999954
40
0.81249999999996
40
0.843749999999967
40
0.843749999999967
40
0.874999999999974
40
0.874999999999974
40
0.937499999999987
40
0.937499999999987
40
1
40
1
40
1
40
1
41
1
10
30.5481950130957
20
-0.875700000000023
30
1.7E-15
41
1
10
30.5703073309234
20
-0.913999657950598
30
1.7E-15
41
1
10
30.5956191676503
20
-0.950670718898607
30
-1.8E-15
41
1
10
30.638178318242
20
-1.00158283951012
30
-1.7E-15
41
1
10
30.6531601169409
20
-1.01789097926891
30
-1.6E-15
41
1
10
30.6847730014168
20
-1.04866766342596
30
-1.5E-15
41
1
10
30.701417779582
20
-1.06315888285457
30
-1.5E-15
41
1
10
30.7277408301486
20
-1.08289394567581
30
-1.4E-15
41
1
10
30.7367603656807
20
-1.08914746195808
30
-1.4E-15
41
1
10
30.7552184549517
20
-1.10076910157608
30
-1.4E-15
41
1
10
30.7647161941828
20
-1.10617211619396
30
-1.4E-15
41
1
10
30.7840246760744
20
-1.11579513224689
30
-1.3E-15
41
1
10
30.793809785891
20
-1.12000960071208
30
-1.3E-15
41
1
10
30.8136866140607
20
-1.12698417060432
30
-1.2E-15
41
1
10
30.8237774345588
20
-1.12974908932367
30
-1.2E-15
41
1
10
30.8392034391451
20
-1.13247000109985
30
-1.2E-15
41
1
10
30.8444296666779
20
-1.13313875818983
30
-1.2E-15
41
1
10
30.8547869033169
20
-1.13389315044313
30
-1.1E-15
41
1
10
30.8650422833891
20
-1.13407248488309
30
-1.1E-15
41
1
10
30.8750722282108
20
-1.13300850211147
30
-1.1E-15
41
1
10
30.8849755681472
20
-1.13126002110928
30
-1.1E-15
41
1
10
30.889865685958
20
-1.13003514329162
30
-1.1E-15
41
1
10
30.9038775322218
20
-1.12539809575253
30
-1E-15
41
1
10
30.9125007627898
20
-1.12100915250269
30
-1E-15
41
1
10
30.9282960083811
20
-1.10963283042386
30
-1E-15
41
1
10
30.9351743546233
20
-1.10285745512192
30
-1E-15
41
1
10
30.941152623202
20
-1.09518956585833
30
-9E-16
0
SPLINE
5
EA
100
AcDbEntity
8
1
62
256
6
ByLayer
370
18
48
1
60
0
100
AcDbSpline
70
4
71
3
72
32
73
28
40
0
40
0
40
0
40
0
40
0.125000000000021
40
0.125000000000021
40
0.250000000000043
40
0.250000000000043
40
0.375000000000064
40
0.375000000000064
40
0.500000000000086
40
0.500000000000086
40
0.562500000000077
40
0.562500000000077
40
0.625000000000068
40
0.625000000000068
40
0.687500000000059
40
0.687500000000059
40
0.75000000000005
40
0.75000000000005
40
0.812500000000041
40
0.812500000000041
40
0.843750000000036
40
0.843750000000036
40
0.875000000000032
40
0.875000000000032
40
0.937500000000016
40
0.937500000000016
40
1
40
1
40
1
40
1
41
1
10
31.9999999999999
20
-1.7139
30
1.6E-15
41
1
10
31.9778723788395
20
-1.7139
30
1.5E-15
41
1
10
31.9557738517919
20
-1.71299400426094
30
1.5E-15
41
1
10
31.9116372221416
20
-1.70930546755523
30
1.4E-15
41
1
10
31.889615701487
20
-1.70652155681617
30
1.3E-15
41
1
10
31.845985503196
20
-1.69891334049564
30
1.2E-15
41
1
10
31.824375942213
20
-1.69409423600058
30
1.2E-15
41
1
10
31.7818513445948
20
-1.68208405635124
30
1.1E-15
41
1
10
31.7609999629925
20
-1.67492073984212
30
1E-15
41
1
10
31.7306829941082
20
-1.66195662531021
30
9E-16
41
1
10
31.7207905115128
20
-1.65728390378103
30
9E-16
41
1
10
31.7015125831524
20
-1.64711268316702
30
9E-16
41
1
10
31.6920919483547
20
-1.64159245541822
30
9E-16
41
1
10
31.6740524133195
20
-1.62963984146867
30
8E-16
41
1
10
31.6654725487029
20
-1.62323963027555
30
8E-16
41
1
10
31.6494034749875
20
-1.6094045103894
30
8E-16
41
1
10
31.641888332804
20
-1.60194700981421
30
7E-16
41
1
10
31.6284071540866
20
-1.58577952855049
30
7E-16
41
1
10
31.6225914304389
20
-1.57725365541464
30
7E-16
41
1
10
31.615577854165
20
-1.56366450263514
30
7E-16
41
1
10
31.6135273747774
20
-1.55898683717783
30
7E-16
41
1
10
31.6101586035727
20
-1.54959495526543
30
7E-16
41
1
10
31.6088232257789
20
-1.54485220812609
30
7E-16
41
1
10
31.6058954796162
20
-1.53048273548501
30
6E-16
41
1
10
31.6054205514372
20
-1.52057439016625
30
6E-16
41
1
10
31.6074049077696
20
-1.50154212545931
30
7E-16
41
1
10
31.609799775975
20
-1.49231128946596
30
7E-16
41
1
10
31.6134376550479
20
-1.48333350996674
30
7E-16
0
SPLINE
5
EB
100
AcDbEntity
8
1
62
256
6
ByLayer
370
18
48
1
60
0
100
AcDbSpline
70
4
71
3
72
8
73
4
40
0
40
0
40
0
40
0
40
1
40
1
40
1
40
1
41
1
10
31.6134376550479
20
-1.48333350996674
30
7E-16
41
1
10
31.6132914148339
20
-1.47666770583356
30
7E-16
41
1
10
31.6131451559396
20
-1.4700010502315
30
7E-16
41
1
10
31.6129988776368
20
-1.46333350996673
30
7E-16
0
SPLINE
5
EC
100
AcDbEntity
8
1
62
256
6
ByLayer
370
18
48
1
60
0
100
AcDbSpline
70
4
71
3
72
32
73
28
40
0
40
0
40
0
40
0
40
0.124999999999992
40
0.124999999999992
40
0.249999999999983
40
0.249999999999983
40
0.374999999999975
40
0.374999999999975
40
0.499999999999966
40
0.499999999999966
40
0.562499999999962
40
0.562499999999962
40
0.624999999999958
40
0.624999999999958
40
0.687499999999954
40
0.687499999999954
40
0.749999999999949
40
0.749999999999949
40
0.812499999999945
40
0.812499999999945
40
0.843749999999943
40
0.843749999999943
40
0.874999999999941
40
0.874999999999941
40
0.937499999999971
40
0.937499999999971
40
1
40
1
40
1
40
1
41
1
10
33.4518049869042
20
-0.875699999999995
30
1.5E-15
41
1
10
33.440741176324
20
-0.89486308205025
30
1.5E-15
41
1
10
33.4289072974744
20
-0.913547969990162
30
1.4E-15
41
1
10
33.4036446161593
20
-0.949927144151928
30
1.4E-15
41
1
10
33.3902229184101
20
-0.967606385099231
30
1.3E-15
41
1
10
33.3618189106536
20
-1.00158713703112
30
1.3E-15
41
1
10
33.3468406632459
20
-1.01789201355945
30
1.2E-15
41
1
10
33.3151772437564
20
-1.04871430555792
30
1.2E-15
41
1
10
33.298547938883
20
-1.06319047347495
30
1.1E-15
41
1
10
33.2721622019186
20
-1.08296368142857
30
1.1E-15
41
1
10
33.2631692650719
20
-1.08919446189805
30
1E-15
41
1
10
33.2447217654524
20
-1.10080402728352
30
1E-15
41
1
10
33.2352307905885
20
-1.10620242246372
30
1E-15
41
1
10
33.2158597557489
20
-1.11584881110184
30
9E-16
41
1
10
33.2060270779578
20
-1.12007908622425
30
9E-16
41
1
10
33.1860109758142
20
-1.12707775233406
30
9E-16
41
1
10
33.1757950197757
20
-1.12985730609043
30
8E-16
41
1
10
33.1550529809274
20
-1.13344860870077
30
8E-16
41
1
10
33.1447614963784
20
-1.13422223655314
30
8E-16
41
1
10
33.1294861567186
20
-1.13350159538794
30
7E-16
41
1
10
33.1244099399083
20
-1.13293852989895
30
7E-16
41
1
10
33.1145919459805
20
-1.13116003038547
30
7E-16
41
1
10
33.1098169175772
20
-1.12994512790894
30
7E-16
41
1
10
33.0959087161497
20
-1.12529589414112
30
6E-16
41
1
10
33.0870903733046
20
-1.12075302134977
30
6E-16
41
1
10
33.0716001267431
20
-1.10951838600224
30
6E-16
41
1
10
33.0648034223774
20
-1.10282895130092
30
6E-16
41
1
10
33.0588473767979
20
-1.09518956585833
30
6E-16
0
SPLINE
5
ED
100
AcDbEntity
8
1
62
256
6
ByLayer
370
18
48
1
60
0
100
AcDbSpline
70
4
71
3
72
40
73
36
40
0
40
0
40
0
40
0
40
0.0625000000000032
40
0.0625000000000032
40
0.0937500000000022
40
0.0937500000000022
40
0.125000000000001
40
0.125000000000001
40
0.187499999999995
40
0.187499999999995
40
0.249999999999989
40
0.249999999999989
40
0.312499999999983
40
0.312499999999983
40
0.374999999999976
40
0.374999999999976
40
0.43749999999997
40
0.43749999999997
40
0.499999999999964
40
0.499999999999964
40
0.624999999999972
40
0.624999999999972
40
0.687499999999974
40
0.687499999999974
40
0.749999999999976
40
0.749999999999976
40
0.812499999999978
40
0.812499999999978
40
0.874999999999981
40
0.874999999999981
40
0.906249999999984
40
0.906249999999984
40
0.937499999999988
40
0.937499999999988
40
1
40
1
40
1
40
1
41
1
10
33.0413074800167
20
-1.0855695582429
30
5E-16
41
1
10
33.0273012751755
20
-1.07788765458543
30
5E-16
41
1
10
33.0121309158475
20
-1.07274155040622
30
4E-16
41
1
10
32.9881753739872
20
-1.06755404382849
30
4E-16
41
1
10
32.9799846183656
20
-1.06626463111118
30
4E-16
41
1
10
32.9634750791578
20
-1.06446554998118
30
3E-16
41
1
10
32.9551245620565
20
-1.06394887500429
30
3E-16
41
1
10
32.9298137382397
20
-1.06339294623177
30
2E-16
41
1
10
32.9127738891467
20
-1.06434012609588
30
2E-16
41
1
10
32.8784874736955
20
-1.0682834577799
30
1E-16
41
1
10
32.8612869880661
20
-1.07128396790046
30
1E-16
41
1
10
32.8270418785631
20
-1.0789496438272
30
0
41
1
10
32.8099034222448
20
-1.08364035325448
30
0
41
1
10
32.7759671350298
20
-1.09443348879367
30
-1E-16
41
1
10
32.7591542976738
20
-1.10053582705788
30
-2E-16
41
1
10
32.7258022798475
20
-1.11404287291546
30
-2E-16
41
1
10
32.7092743269824
20
-1.12144824875429
30
-3E-16
41
1
10
32.6768054315059
20
-1.13735969837137
30
-4E-16
41
1
10
32.6608212327089
20
-1.14588287328183
30
-4E-16
41
1
10
32.6136163415955
20
-1.17314238592448
30
-5E-16
41
1
10
32.5836361692808
20
-1.1932411941448
30
-6E-16
41
1
10
32.5410312463278
20
-1.226470490547
30
-7E-16
41
1
10
32.5273060956502
20
-1.23801053133613
30
-7E-16
41
1
10
32.5010181908721
20
-1.26198146572298
30
-8E-16
41
1
10
32.4884031652307
20
-1.27446016946388
30
-8E-16
41
1
10
32.4645947289724
20
-1.30033873387009
30
-9E-16
41
1
10
32.4533903429589
20
-1.31374727110108
30
-9E-16
41
1
10
32.4328407857246
20
-1.34146709806873
30
-9E-16
41
1
10
32.4234716349041
20
-1.35580720493621
30
-1E-15
41
1
10
32.4113330242002
20
-1.37795672797705
30
-1E-15
41
1
10
32.4076113547297
20
-1.38543804412799
30
-1E-15
41
1
10
32.4009189923907
20
-1.40063593027335
30
-1E-15
41
1
10
32.3979425418805
20
-1.40837673120976
30
-1E-15
41
1
10
32.3904803990139
20
-1.4316630961915
30
-1E-15
41
1
10
32.38735167252
20
-1.44735501389357
30
-1E-15
41
1
10
32.3870011223631
20
-1.46333350996673
30
-1E-15
0
SPLINE
5
EE
100
AcDbEntity
8
1
62
256
6
ByLayer
370
18
48
1
60
0
100
AcDbSpline
70
4
71
3
72
8
73
4
40
0
40
0
40
0
40
0
40
1
40
1
40
1
40
1
41
1
10
32.3870011223631
20
-1.46333350996673
30
-1E-15
41
1
10
32.3868548440603
20
-1.4700010502315
30
-1E-15
41
1
10
32.386708585166
20
-1.47666770583356
30
-1E-15
41
1
10
32.386562344952
20
-1.48333350996674
30
-1E-15
0
SPLINE
5
EF
100
AcDbEntity
8
1
62
256
6
ByLayer
370
18
48
1
60
0
100
AcDbSpline
70
4
71
3
72
31
73
27
40
0
40
0
40
0
40
0
40
0.250000000000003
40
0.250000000000003
40
0.375000000000004
40
0.375000000000004
40
0.500000000000005
40
0.500000000000005
40
0.56249999999999
40
0.56249999999999
40
0.624999999999975
40
0.624999999999975
40
0.687499999999959
40
0.687499999999959
40
0.749999999999944
40
0.749999999999944
40
0.781249999999955
40
0.781249999999955
40
0.812499999999966
40
0.843749999999977
40
0.843749999999977
40
0.874999999999988
40
0.874999999999988
40
0.937499999999994
40
0.937499999999994
40
1
40
1
40
1
40
1
41
1
10
31.9999999999999
20
-1.7139
30
1.6E-15
41
1
10
32.0442246356552
20
-1.7139
30
1.7E-15
41
1
10
32.0886386243834
20
-1.71031483685203
30
-1.8E-15
41
1
10
32.1540093894894
20
-1.69891359158194
30
-1.6E-15
41
1
10
32.1756235521584
20
-1.69409304319362
30
-1.5E-15
41
1
10
32.2180833847206
20
-1.6821038242291
30
-1.4E-15
41
1
10
32.2389555379602
20
-1.67493463321202
30
-1.4E-15
41
1
10
32.2692081289919
20
-1.66200573412689
30
-1.3E-15
41
1
10
32.2791336007214
20
-1.65732134536688
30
-1.3E-15
41
1
10
32.2984272804997
20
-1.64714699096189
30
-1.3E-15
41
1
10
32.3078552980314
20
-1.64162321481817
30
-1.2E-15
41
1
10
32.3258433153401
20
-1.62971308701802
30
-1.2E-15
41
1
10
32.3343857070027
20
-1.62334616757059
30
-1.2E-15
41
1
10
32.3503642757947
20
-1.60961961437511
30
-1.1E-15
41
1
10
32.3578041758941
20
-1.60226316683835
30
-1.1E-15
41
1
10
32.3678735569069
20
-1.59026431087582
30
-1.1E-15
41
1
10
32.3710658313022
20
-1.58607264361143
30
-1.1E-15
41
1
10
32.3768977724775
20
-1.57748020969572
30
-1.1E-15
41
1
10
32.3821805911017
20
-1.56868839438351
30
-1.1E-15
41
1
10
32.3862743069957
20
-1.55947027884773
30
-1E-15
41
1
10
32.389711747998
20
-1.55001949437943
30
-1E-15
41
1
10
32.3910960315968
20
-1.54517208921897
30
-1E-15
41
1
10
32.3940861537613
20
-1.53071895063107
30
-1E-15
41
1
10
32.3945968326952
20
-1.52105654227151
30
-1E-15
41
1
10
32.3926422715689
20
-1.50168929729102
30
-1E-15
41
1
10
32.3902137975584
20
-1.49234478705833
30
-1E-15
41
1
10
32.386562344952
20
-1.48333350996674
30
-1E-15
0
SPLINE
5
F0
100
AcDbEntity
8
1
62
256
6
ByLayer
370
18
48
1
60
0
100
AcDbSpline
70
4
71
3
72
8
73
4
40
0
40
0
40
0
40
0
40
1
40
1
40
1
40
1
41
1
10
33.0588473767979
20
-1.09518956585833
30
6E-16
41
1
10
33.0530015009749
20
-1.09198331153215
30
5E-16
41
1
10
33.0471548784182
20
-1.08877664764907
30
5E-16
41
1
10
33.0413074800167
20
-1.0855695582429
30
5E-16
0
SPLINE
5
F1
100
AcDbEntity
8
1
62
256
6
ByLayer
370
18
48
1
60
0
100
AcDbSpline
70
4
71
3
72
31
73
27
40
0
40
0
40
0
40
0
40
0.250000000000004
40
0.250000000000004
40
0.375000000000002
40
0.375000000000002
40
0.499999999999999
40
0.499999999999999
40
0.562499999999999
40
0.562499999999999
40
0.624999999999999
40
0.624999999999999
40
0.687499999999999
40
0.687499999999999
40
0.749999999999999
40
0.749999999999999
40
0.781249999999993
40
0.781249999999993
40
0.812499999999986
40
0.84374999999998
40
0.84374999999998
40
0.874999999999974
40
0.874999999999974
40
0.937499999999987
40
0.937499999999987
40
1
40
1
40
1
40
1
41
1
10
33.4518049869042
20
-0.875699999999995
30
1.5E-15
41
1
10
33.4739173047318
20
-0.83740034204942
30
1.5E-15
41
1
10
33.4930194567331
20
-0.797144117953422
30
1.6E-15
41
1
10
33.5158310712474
20
-0.734830752071815
30
1.6E-15
41
1
10
33.5224634352174
20
-0.7137020639247
30
1.7E-15
41
1
10
33.5333103833037
20
-0.670936160803166
30
1.7E-15
41
1
10
33.5375377583781
20
-0.649275750357475
30
1.7E-15
41
1
10
33.5414672988433
20
-0.616611788451081
30
1.7E-15
41
1
10
33.5423732350407
20
-0.605673883408826
30
1.7E-15
41
1
10
33.543208825548
20
-0.583877889385803
30
1.7E-15
41
1
10
33.5431391038486
20
-0.572951098624202
30
1.7E-15
41
1
10
33.5418186392656
20
-0.551417954771125
30
1.7E-15
41
1
10
33.5405759211116
20
-0.540836566858474
30
1.7E-15
41
1
10
33.5366776617339
20
-0.520135443770783
30
1.7E-15
41
1
10
33.5340267413352
20
-0.510014077514683
30
1.7E-15
41
1
10
33.5286701177617
20
-0.495294309775971
30
1.7E-15
41
1
10
33.5266361646242
20
-0.490433885421595
30
1.7E-15
41
1
10
33.5221108691605
20
-0.481087059252559
30
1.7E-15
41
1
10
33.5171383430669
20
-0.472116096464248
30
1.6E-15
41
1
10
33.5112020787849
20
-0.463961776736284
30
1.6E-15
41
1
10
33.5047361798508
20
-0.456259473270137
30
1.6E-15
41
1
10
33.5012303456387
20
-0.45263694592731
30
1.6E-15
41
1
10
33.4902086215394
20
-0.442820854878534
30
1.6E-15
41
1
10
33.4820960699053
20
-0.43754738976881
30
1.6E-15
41
1
10
33.4643462631877
20
-0.429556466867183
30
1.5E-15
41
1
10
33.455039442935
20
-0.426987331936402
30
1.5E-15
41
1
10
33.44540972175
20
-0.425643944108401
30
1.5E-15
0
SPLINE
5
F2
100
AcDbEntity
8
1
62
256
6
ByLayer
370
18
48
1
60
0
100
AcDbSpline
70
4
71
3
72
40
73
36
40
0
40
0
40
0
40
0
40
0.0625000000000075
40
0.0625000000000075
40
0.0937500000000036
40
0.0937500000000036
40
0.124999999999999
40
0.124999999999999
40
0.187499999999996
40
0.187499999999996
40
0.249999999999993
40
0.249999999999993
40
0.312499999999989
40
0.312499999999989
40
0.374999999999985
40
0.374999999999985
40
0.437499999999982
40
0.437499999999982
40
0.499999999999978
40
0.499999999999978
40
0.624999999999977
40
0.624999999999977
40
0.687499999999978
40
0.687499999999978
40
0.749999999999978
40
0.749999999999978
40
0.812499999999979
40
0.812499999999979
40
0.87499999999998
40
0.87499999999998
40
0.906249999999982
40
0.906249999999982
40
0.937499999999985
40
0.937499999999985
40
1
40
1
40
1
40
1
41
1
10
33.4283086023798
20
0.340263951723813
30
1.4E-15
41
1
10
33.4146527762424
20
0.331975174349452
30
1.4E-15
41
1
10
33.4026109396287
20
0.321410309876427
30
1.4E-15
41
1
10
33.38614065622
20
0.303257955352905
30
1.3E-15
41
1
10
33.38092861424
20
0.296809259267036
30
1.3E-15
41
1
10
33.371115794674
20
0.283411119473357
30
1.3E-15
41
1
10
33.3664930824679
20
0.276437697017343
30
1.3E-15
41
1
10
33.3533562221198
20
0.254795844987513
30
1.3E-15
41
1
10
33.3456565793976
20
0.239565312864244
30
1.2E-15
41
1
10
33.3319283970859
20
0.207900740236823
30
1.2E-15
41
1
10
33.3259266722599
20
0.191504427664029
30
1.2E-15
41
1
10
33.3154427875981
20
0.158014454915701
30
1.2E-15
41
1
10
33.3109358329648
20
0.140826761648782
30
1.2E-15
41
1
10
33.3033148189207
20
0.106040507040888
30
1.1E-15
41
1
10
33.300193180202
20
0.0884289936487619
30
1.1E-15
41
1
10
33.2952146161316
20
0.0527917760149421
30
1.1E-15
41
1
10
33.2933638833001
20
0.0347754610417894
30
1.1E-15
41
1
10
33.2909091551413
20
-0.001299152082197
30
1.1E-15
41
1
10
33.2902983417361
20
-0.0194034617547629
30
1.1E-15
41
1
10
33.2903033266227
20
-0.0739138529632442
30
1.1E-15
41
1
10
33.2927193189699
20
-0.10992684790773
30
1.1E-15
41
1
10
33.3001942723276
20
-0.163438441712401
30
1.1E-15
41
1
10
33.3033256654729
20
-0.18109479126457
30
1.1E-15
41
1
10
33.3109411512153
20
-0.215846251808102
30
1.2E-15
41
1
10
33.3154405128406
20
-0.23301053635339
30
1.2E-15
41
1
10
33.3259477889006
20
-0.266568529180574
30
1.2E-15
41
1
10
33.3319577297635
20
-0.28297608071756
30
1.2E-15
41
1
10
33.3456890254889
20
-0.314632432802767
30
1.2E-15
41
1
10
33.3534233469189
20
-0.32991640885902
30
1.3E-15
41
1
10
33.366536091202
20
-0.351503515615633
30
1.3E-15
41
1
10
33.3711542663072
20
-0.358467233997033
30
1.3E-15
41
1
10
33.3809698406234
20
-0.371861932866608
30
1.3E-15
41
1
10
33.3861853456249
20
-0.378310015089767
30
1.3E-15
41
1
10
33.4026208578275
20
-0.396415602869808
30
1.4E-15
41
1
10
33.4146460939447
20
-0.406971118345979
30
1.4E-15
41
1
10
33.4283086023798
20
-0.41526395172383
30
1.4E-15
0
SPLINE
5
F3
100
AcDbEntity
8
1
62
256
6
ByLayer
370
18
48
1
60
0
100
AcDbSpline
70
4
71
3
72
8
73
4
40
0
40
0
40
0
40
0
40
1
40
1
40
1
40
1
41
1
10
33.4283086023798
20
-0.41526395172383
30
1.4E-15
41
1
10
33.4340097224785
20
-0.418724402582427
30
1.4E-15
41
1
10
33.439710086141
20
-0.422184394301439
30
1.5E-15
41
1
10
33.44540972175
20
-0.425643944108401
30
1.5E-15
0
SPLINE
5
F4
100
AcDbEntity
8
1
62
256
6
ByLayer
370
18
48
1
60
0
100
AcDbSpline
70
4
71
3
72
32
73
28
40
0
40
0
40
0
40
0
40
0.124999999999994
40
0.124999999999994
40
0.249999999999988
40
0.249999999999988
40
0.374999999999981
40
0.374999999999981
40
0.499999999999975
40
0.499999999999975
40
0.562499999999977
40
0.562499999999977
40
0.624999999999979
40
0.624999999999979
40
0.68749999999998
40
0.68749999999998
40
0.749999999999982
40
0.749999999999982
40
0.812499999999984
40
0.812499999999984
40
0.843749999999988
40
0.843749999999988
40
0.874999999999993
40
0.874999999999993
40
0.937499999999997
40
0.937499999999997
40
1
40
1
40
1
40
1
41
1
10
33.4518049869042
20
0.800700000000006
30
1.5E-15
41
1
10
33.4628687974844
20
0.781536917949751
30
1.5E-15
41
1
10
33.4731334456824
20
0.761946034270778
30
1.5E-15
41
1
10
33.4920073940177
20
0.721878323403331
30
1.6E-15
41
1
10
33.5006072169231
20
0.701415171716945
30
1.6E-15
41
1
10
33.5158334074575
20
0.659826203464519
30
1.6E-15
41
1
10
33.5224647210328
20
0.63870222244114
30
1.7E-15
41
1
10
33.5333258991616
20
0.595869750793355
30
1.7E-15
41
1
10
33.5375479758905
20
0.574230266367181
30
1.7E-15
41
1
10
33.5414792078104
20
0.54149294388165
30
1.7E-15
41
1
10
33.542378753559
20
0.530589441882995
30
1.7E-15
41
1
10
33.5432091823
20
0.508808655883513
30
1.7E-15
41
1
10
33.5431388422337
20
0.49789003295453
30
1.7E-15
41
1
10
33.5418073424294
20
0.476291030366838
30
1.7E-15
41
1
10
33.5405545292548
20
0.465660544051303
30
1.7E-15
41
1
10
33.5366075008268
20
0.444826758055342
30
1.7E-15
41
1
10
33.5339066869716
20
0.434589703723788
30
1.7E-15
41
1
10
33.5266458268407
20
0.41483091984972
30
1.7E-15
41
1
10
33.5221700659395
20
0.405531418861472
30
1.7E-15
41
1
10
33.5139083025535
20
0.392662907247228
30
1.6E-15
41
1
10
33.5108825651309
20
0.388548307278853
30
1.6E-15
41
1
10
33.5044333424077
20
0.380934924879966
30
1.6E-15
41
1
10
33.5009936917982
20
0.377407080217154
30
1.6E-15
41
1
10
33.4900132365334
20
0.367686841343925
30
1.6E-15
41
1
10
33.4816698218674
20
0.362321368816481
30
1.6E-15
41
1
10
33.4641952189735
20
0.354523739457051
30
1.5E-15
41
1
10
33.4550036464023
20
0.351982338165016
30
1.5E-15
41
1
10
33.44540972175
20
0.350643944108384
30
1.5E-15
0
SPLINE
5
F5
100
AcDbEntity
8
1
62
256
6
ByLayer
370
18
48
1
60
0
100
AcDbSpline
70
4
71
3
72
8
73
4
40
0
40
0
40
0
40
0
40
1
40
1
40
1
40
1
41
1
10
33.44540972175
20
0.350643944108384
30
1.5E-15
41
1
10
33.439710086141
20
0.347184394301422
30
1.5E-15
41
1
10
33.4340097224785
20
0.343724402582438
30
1.4E-15
41
1
10
33.4283086023798
20
0.340263951723813
30
1.4E-15
0
LINE
5
85
100
AcDbEntity
8
80
62
256
6
ByLayer
370
18
48
1
60
0
100
AcDbLine
10
0
20
0
30
0
11
-10
21
0
31
0
39
0
210
0
220
0
230
1
0
LINE
5
86
100
AcDbEntity
8
81
62
256
6
ByLayer
370
18
48
1
60
0
100
AcDbLine
10
38
20
5.9625
30
0
11
48
21
5.9625
31
0
39
0
210
0
220
0
230
1
0
LINE
5
87
100
AcDbEntity
8
1
62
256
6
ByLayer
370
18
48
1
60
0
100
AcDbLine
10
0
20
-10
30
0
11
0
21
9.925
31
0
39
0
210
0
220
0
230
1
0
LINE
5
88
100
AcDbEntity
8
1
62
256
6
ByLayer
370
18
48
1
60
0
100
AcDbLine
10
28.099986
20
-5.1375
30
0
11
28.839264
21
-5.1375
31
0
39
0
210
0
220
0
230
1
0
LINE
5
89
100
AcDbEntity
8
1
62
256
6
ByLayer
370
18
48
1
60
0
100
AcDbLine
10
28.099986
20
5.0625
30
0
11
28.839264
21
5.0625
31
0
39
0
210
0
220
0
230
1
0
LINE
5
8A
100
AcDbEntity
8
1
62
256
6
ByLayer
370
18
48
1
60
0
100
AcDbLine
10
28.070282
20
5.0625
30
0
11
28.1
21
5.0625
31
0
39
0
210
0
220
0
230
1
0
LINE
5
8B
100
AcDbEntity
8
1
62
256
6
ByLayer
370
18
48
1
60
0
100
AcDbLine
10
28.1
20
5.0625
30
0
11
28.1
21
4.522105
31
0
39
0
210
0
220
0
230
1
0
LINE
5
8C
100
AcDbEntity
8
1
62
256
6
ByLayer
370
18
48
1
60
0
100
AcDbLine
10
28.1
20
-5.1375
30
0
11
28.070282
21
-5.1375
31
0
39
0
210
0
220
0
230
1
0
LINE
5
8D
100
AcDbEntity
8
1
62
256
6
ByLayer
370
18
48
1
60
0
100
AcDbLine
10
28.1
20
-5.1375
30
0
11
28.1
21
-4.597105
31
0
39
0
210
0
220
0
230
1
0
LINE
5
8E
100
AcDbEntity
8
1
62
256
6
ByLayer
370
18
48
1
60
0
100
AcDbLine
10
28.070311
20
-5.1375
30
0
11
27.76063
21
-5.1375
31
0
39
0
210
0
220
0
230
1
0
LINE
5
8F
100
AcDbEntity
8
1
62
256
6
ByLayer
370
18
48
1
60
0
100
AcDbLine
10
28.070311
20
-4.571544
30
0
11
28.070311
21
-5.1375
31
0
39
0
210
0
220
0
230
1
0
LINE
5
90
100
AcDbEntity
8
1
62
256
6
ByLayer
370
18
48
1
60
0
100
AcDbLine
10
28.070311
20
5.0625
30
0
11
27.76063
21
5.0625
31
0
39
0
210
0
220
0
230
1
0
LINE
5
91
100
AcDbEntity
8
1
62
256
6
ByLayer
370
18
48
1
60
0
100
AcDbLine
10
28.070311
20
4.496544
30
0
11
28.070311
21
5.0625
31
0
39
0
210
0
220
0
230
1
0
LINE
5
92
100
AcDbEntity
8
1
62
256
6
ByLayer
370
18
48
1
60
0
100
AcDbLine
10
24.6
20
-5.1375
30
0
11
27.76063
21
-5.1375
31
0
39
0
210
0
220
0
230
1
0
LINE
5
93
100
AcDbEntity
8
1
62
256
6
ByLayer
370
18
48
1
60
0
100
AcDbLine
10
27.76063
20
5.0625
30
0
11
24.6
21
5.0625
31
0
39
0
210
0
220
0
230
1
0
LINE
5
94
100
AcDbEntity
8
1
62
256
6
ByLayer
370
18
48
1
60
0
100
AcDbLine
10
27.76063
20
-4.283411
30
0
11
27.76063
21
-5.1375
31
0
39
0
210
0
220
0
230
1
0
LINE
5
95
100
AcDbEntity
8
1
62
256
6
ByLayer
370
18
48
1
60
0
100
AcDbLine
10
27.76063
20
4.208411
30
0
11
27.76063
21
5.0625
31
0
39
0
210
0
220
0
230
1
0
LINE
5
96
100
AcDbEntity
8
1
62
256
6
ByLayer
370
18
48
1
60
0
100
AcDbLine
10
7.729165
20
9.925
30
0
11
0
21
9.925
31
0
39
0
210
0
220
0
230
1
0
LINE
5
97
100
AcDbEntity
8
1
62
256
6
ByLayer
370
18
48
1
60
0
100
AcDbLine
10
7.729165
20
-10
30
0
11
0
21
-10
31
0
39
0
210
0
220
0
230
1
0
LINE
5
98
100
AcDbEntity
8
1
62
256
6
ByLayer
370
18
48
1
60
0
100
AcDbLine
10
20.124437
20
-5.1375
30
0
11
23.536057
21
-5.1375
31
0
39
0
210
0
220
0
230
1
0
LINE
5
99
100
AcDbEntity
8
1
62
256
6
ByLayer
370
18
48
1
60
0
100
AcDbLine
10
23.536057
20
5.0625
30
0
11
20.124437
21
5.0625
31
0
39
0
210
0
220
0
230
1
0
LINE
5
9A
100
AcDbEntity
8
1
62
256
6
ByLayer
370
18
48
1
60
0
100
AcDbLine
10
23.536057
20
-5.1375
30
0
11
24.6
21
-5.1375
31
0
39
0
210
0
220
0
230
1
0
LINE
5
9B
100
AcDbEntity
8
1
62
256
6
ByLayer
370
18
48
1
60
0
100
AcDbLine
10
24.6
20
5.0625
30
0
11
23.536057
21
5.0625
31
0
39
0
210
0
220
0
230
1
0
LINE
5
9C
100
AcDbEntity
8
1
62
256
6
ByLayer
370
13
48
1
60
0
100
AcDbLine
10
24.6
20
5.0625
30
0
11
24.6
21
-5.1375
31
0
39
0
210
0
220
0
230
1
0
LINE
5
9D
100
AcDbEntity
8
1
62
256
6
ByLayer
370
18
48
1
60
0
100
AcDbLine
10
23.536057
20
-5.1375
30
0
11
23.536057
21
5.0625
31
0
39
0
210
0
220
0
230
1
0
LINE
5
9E
100
AcDbEntity
8
1
62
256
6
ByLayer
370
13
48
1
60
0
100
AcDbLine
10
7.542143
20
-6.174766
30
0
11
7.858745
21
-4.606402
31
0
39
0
210
0
220
0
230
1
0
LINE
5
9F
100
AcDbEntity
8
1
62
256
6
ByLayer
370
13
48
1
60
0
100
AcDbLine
10
7.858745
20
4.531402
30
0
11
7.542143
21
6.099766
31
0
39
0
210
0
220
0
230
1
0
LINE
5
A0
100
AcDbEntity
8
1
62
256
6
ByLayer
370
13
48
1
60
0
100
AcDbLine
10
21.135321
20
-2.525142
30
0
11
19.538184
21
-2.429464
31
0
39
0
210
0
220
0
230
1
0
LINE
5
A1
100
AcDbEntity
8
1
62
256
6
ByLayer
370
13
48
1
60
0
100
AcDbLine
10
19.538184
20
2.354464
30
0
11
21.135321
21
2.450142
31
0
39
0
210
0
220
0
230
1
0
LINE
5
A2
100
AcDbEntity
8
1
62
256
6
ByLayer
370
18
48
1
60
0
100
AcDbLine
10
16.857752
20
5.0625
30
0
11
17.357634
21
5.0625
31
0
39
0
210
0
220
0
230
1
0
LINE
5
A3
100
AcDbEntity
8
1
62
256
6
ByLayer
370
18
48
1
60
0
100
AcDbLine
10
17.357634
20
-5.1375
30
0
11
16.857752
21
-5.1375
31
0
39
0
210
0
220
0
230
1
0
LINE
5
A4
100
AcDbEntity
8
SK1
62
256
6
ByLayer
370
18
48
1
60
0
100
AcDbLine
10
-66
20
-10
30
0
11
-0.877723
21
-10
31
0
39
0
210
0
220
0
230
1
0
LINE
5
A6
100
AcDbEntity
8
SK1
62
256
6
ByLayer
370
18
48
1
60
0
100
AcDbLine
10
-66
20
9.925
30
0
11
-0.877723
21
9.925
31
0
39
0
210
0
220
0
230
1
0
LINE
5
A7
100
AcDbEntity
8
SK1
62
256
6
ByLayer
370
18
48
1
60
0
100
AcDbLine
10
-66
20
9.925
30
0
11
-69
21
6.925
31
0
39
0
210
0
220
0
230
1
0
LINE
5
A8
100
AcDbEntity
8
SK1
62
256
6
ByLayer
370
18
48
1
60
0
100
AcDbLine
10
-69
20
6.925
30
0
11
-69
21
-7
31
0
39
0
210
0
220
0
230
1
0
LINE
5
A9
100
AcDbEntity
8
SK1
62
256
6
ByLayer
370
18
48
1
60
0
100
AcDbLine
10
-66
20
-10
30
0
11
-69
21
-7
31
0
39
0
210
0
220
0
230
1
0
LINE
5
AA
100
AcDbEntity
8
SK1
62
256
6
ByLayer
370
18
48
1
60
0
100
AcDbLine
10
-0.877723
20
-10
30
0
11
-0.3936
21
-10
31
0
39
0
210
0
220
0
230
1
0
LINE
5
AB
100
AcDbEntity
8
SK1
62
256
6
ByLayer
370
18
48
1
60
0
100
AcDbLine
10
-0.877723
20
9.925
30
0
11
-0.3936
21
9.925
31
0
39
0
210
0
220
0
230
1
0
LINE
5
AC
100
AcDbEntity
8
SK1
62
256
6
ByLayer
370
13
48
1
60
0
100
AcDbLine
10
-0.877723
20
-10
30
0
11
-0.877723
21
9.925
31
0
39
0
210
0
220
0
230
1
0
LINE
5
AD
100
AcDbEntity
8
SK1
62
256
6
ByLayer
370
18
48
1
60
0
100
AcDbLine
10
0
20
-10
30
0
11
-0.3936
21
-10
31
0
39
0
210
0
220
0
230
1
0
LINE
5
AE
100
AcDbEntity
8
SK1
62
256
6
ByLayer
370
18
48
1
60
0
100
AcDbLine
10
0
20
-10
30
0
11
0
21
9.925
31
0
39
0
210
0
220
0
230
1
0
LINE
5
AF
100
AcDbEntity
8
SK1
62
256
6
ByLayer
370
18
48
1
60
0
100
AcDbLine
10
0
20
9.925
30
0
11
-0.3936
21
9.925
31
0
39
0
210
0
220
0
230
1
0
LINE
5
B0
100
AcDbEntity
8
SK1
62
256
6
ByLayer
370
18
48
1
60
0
100
AcDbLine
10
-0.3936
20
-10
30
0
11
-0.3936
21
9.925
31
0
39
0
210
0
220
0
230
1
0
MTEXT
5
F6
100
AcDbEntity
8
SK6
62
256
6
ByLayer
370
18
48
1
60
0
100
AcDbMText
10
-37.188096
20
-22.504866
30
0
210
0
220
0
230
1
1
\W0.7617;QS-SRDCN-202025-12XC
40
3.5
41
0
44
1.084337
50
0
71
7
72
5
7
iso_b_vert
0
DIMENSION
5
FB
100
AcDbEntity
8
SK2
62
256
6
ByLayer
370
18
48
1
60
0
100
AcDbDimension
2
_U0
10
-69
20
36.5
30
0
11
-15.5
21
36.5
31
0
70
32
71
1
72
1
41
1
210
0
220
0
230
1
3
Standard
100
AcDbAlignedDimension
13
38
23
5.9625
33
0
14
-69
24
10
34
0
50
0
100
AcDbRotatedDimension
1001
ACAD
1000
DSTYLE
1002
{
1070
   371
1070
    13
1070
   372
1070
    13
1070
   170
1070
     0
1070
   144
1040
1.0
1070
   277
1070
     2
1070
   284
1070
     8
1070
   278
1070
    46
1070
   146
1040
1.0
1070
   345
1005
16
1070
   347
1005
16
1070
   346
1005
16
1070
   344
1005
0
1070
   343
1005
0
1070
   172
1070
     1
1070
    76
1070
     0
1070
    75
1070
     0
1070
   282
1070
     0
1070
   281
1070
     0
1070
    71
1070
     0
1070
    74
1070
     0
1070
   279
1070
     0
1070
   173
1070
     1
1070
   340
1005
F7
1070
   271
1070
     2
1070
   272
1070
     2
1070
    77
1070
     1
1070
    73
1070
     1
1070
   171
1070
     3
1070
   274
1070
     4
1070
   177
1070
     2
1070
   176
1070
     2
1070
   178
1070
     2
1070
    78
1070
     8
1070
    48
1040
-0.1
1070
    41
1040
3.5
1070
   147
1040
1.75
1070
    42
1040
1.5875
1070
    44
1040
2.0
1070
   140
1040
3.5
1002
}
1001
ACAD_DSTYLE_DIM_LINETYPE
1070
   380
1005
16
1001
ACAD_DSTYLE_DIM_EXT1_LINETYPE
1070
   381
1005
16
1001
ACAD_DSTYLE_DIM_EXT2_LINETYPE
1070
   382
1005
16
0
DIMENSION
5
115
100
AcDbEntity
8
2
62
256
6
ByLayer
370
18
48
1
60
0
100
AcDbDimension
2
_U1
10
0
20
26.5
30
0
11
19
21
26.5
31
0
70
32
71
1
72
1
41
1
210
0
220
0
230
1
3
Standard
100
AcDbAlignedDimension
13
38
23
5.9625
33
0
14
0
24
10
34
0
50
0
100
AcDbRotatedDimension
1001
ACAD
1000
DSTYLE
1002
{
1070
   371
1070
    13
1070
   372
1070
    13
1070
   170
1070
     0
1070
   144
1040
1.0
1070
   277
1070
     2
1070
   284
1070
     8
1070
   278
1070
    46
1070
   146
1040
1.0
1070
   345
1005
16
1070
   347
1005
16
1070
   346
1005
16
1070
   344
1005
0
1070
   343
1005
0
1070
   172
1070
     1
1070
    76
1070
     0
1070
    75
1070
     0
1070
   282
1070
     0
1070
   281
1070
     0
1070
    71
1070
     0
1070
    74
1070
     0
1070
   279
1070
     0
1070
   173
1070
     1
1070
   340
1005
F7
1070
   271
1070
     2
1070
   272
1070
     2
1070
    77
1070
     1
1070
    73
1070
     1
1070
   171
1070
     3
1070
   274
1070
     4
1070
   177
1070
     2
1070
   176
1070
     2
1070
   178
1070
     2
1070
    78
1070
     8
1070
    48
1040
-0.1
1070
    41
1040
3.5
1070
   147
1040
1.75
1070
    42
1040
1.5875
1070
    44
1040
2.0
1070
   140
1040
3.5
1002
}
1001
ACAD_DSTYLE_DIM_LINETYPE
1070
   380
1005
16
1001
ACAD_DSTYLE_DIM_EXT1_LINETYPE
1070
   381
1005
16
1001
ACAD_DSTYLE_DIM_EXT2_LINETYPE
1070
   382
1005
16
0
DIMENSION
5
12D
100
AcDbEntity
8
2
62
256
6
ByLayer
370
18
48
1
60
0
100
AcDbDimension
2
_U2
10
13
20
16.5
30
0
11
25.5
21
16.5
31
0
70
32
71
1
72
1
41
1
210
0
220
0
230
1
3
Standard
100
AcDbAlignedDimension
13
38
23
5.9625
33
0
14
13
24
5.9625
34
0
50
0
100
AcDbRotatedDimension
1001
ACAD
1000
DSTYLE
1002
{
1070
   371
1070
    13
1070
   372
1070
    13
1070
   170
1070
     0
1070
   144
1040
1.0
1070
   277
1070
     2
1070
   284
1070
     8
1070
   278
1070
    46
1070
   146
1040
1.0
1070
   345
1005
16
1070
   347
1005
16
1070
   346
1005
16
1070
   344
1005
0
1070
   343
1005
0
1070
   172
1070
     1
1070
    76
1070
     0
1070
    75
1070
     0
1070
   282
1070
     0
1070
   281
1070
     0
1070
    71
1070
     0
1070
    74
1070
     0
1070
   279
1070
     0
1070
   173
1070
     1
1070
   340
1005
F7
1070
   271
1070
     2
1070
   272
1070
     2
1070
    77
1070
     1
1070
    73
1070
     1
1070
   171
1070
     3
1070
   274
1070
     4
1070
   177
1070
     2
1070
   176
1070
     2
1070
   178
1070
     2
1070
    78
1070
     8
1070
    48
1040
-0.1
1070
    41
1040
3.5
1070
   147
1040
1.75
1070
    42
1040
1.5875
1070
    44
1040
2.0
1070
   140
1040
3.5
1002
}
1001
ACAD_DSTYLE_DIM_LINETYPE
1070
   380
1005
16
1001
ACAD_DSTYLE_DIM_EXT1_LINETYPE
1070
   381
1005
16
1001
ACAD_DSTYLE_DIM_EXT2_LINETYPE
1070
   382
1005
16
0
DIMENSION
5
145
100
AcDbEntity
8
SK2
62
256
6
ByLayer
370
18
48
1
60
0
100
AcDbDimension
2
_U3
10
-76.85
20
10
30
0
11
-76.85
21
0
31
0
70
32
71
1
72
1
41
1
210
0
220
0
230
1
3
Standard
100
AcDbAlignedDimension
13
-69
23
-10
33
0
14
-69
24
10
34
0
50
90
100
AcDbRotatedDimension
1001
ACAD
1000
DSTYLE
1002
{
1070
   371
1070
    13
1070
   372
1070
    13
1070
   170
1070
     0
1070
   144
1040
1.0
1070
   277
1070
     2
1070
   284
1070
     8
1070
   278
1070
    46
1070
   146
1040
1.0
1070
   345
1005
16
1070
   347
1005
16
1070
   346
1005
16
1070
   344
1005
0
1070
   343
1005
0
1070
   172
1070
     1
1070
    76
1070
     0
1070
    75
1070
     0
1070
   282
1070
     0
1070
   281
1070
     0
1070
    71
1070
     0
1070
    74
1070
     0
1070
   279
1070
     0
1070
   173
1070
     1
1070
   340
1005
F7
1070
   271
1070
     2
1070
   272
1070
     2
1070
    77
1070
     1
1070
    73
1070
     0
1070
   171
1070
     3
1070
   274
1070
     4
1070
   177
1070
     2
1070
   176
1070
     2
1070
   178
1070
     2
1070
    78
1070
     8
1070
    48
1040
-0.1
1070
    41
1040
3.5
1070
   147
1040
1.75
1070
    42
1040
1.5875
1070
    44
1040
2.0
1070
   140
1040
3.5
1002
}
1001
ACAD_DSTYLE_DIM_LINETYPE
1070
   380
1005
16
1001
ACAD_DSTYLE_DIM_EXT1_LINETYPE
1070
   381
1005
16
1001
ACAD_DSTYLE_DIM_EXT2_LINETYPE
1070
   382
1005
16
0
DIMENSION
5
15D
100
AcDbEntity
8
2
62
256
6
ByLayer
370
18
48
1
60
0
100
AcDbDimension
2
_U4
10
57.85
20
5.9625
30
0
11
57.85
21
-2.01875
31
0
70
32
71
1
72
1
41
1
210
0
220
0
230
1
3
Standard
100
AcDbAlignedDimension
13
0
23
-10
33
0
14
38
24
5.9625
34
0
50
90
100
AcDbRotatedDimension
1001
ACAD
1000
DSTYLE
1002
{
1070
   371
1070
    13
1070
   372
1070
    13
1070
   170
1070
     0
1070
   144
1040
1.0
1070
   277
1070
     2
1070
   284
1070
     8
1070
   278
1070
    46
1070
   146
1040
1.0
1070
   345
1005
16
1070
   347
1005
16
1070
   346
1005
16
1070
   344
1005
0
1070
   343
1005
0
1070
   172
1070
     1
1070
    76
1070
     0
1070
    75
1070
     0
1070
   282
1070
     0
1070
   281
1070
     0
1070
    71
1070
     0
1070
    74
1070
     0
1070
   279
1070
     0
1070
   173
1070
     1
1070
   340
1005
F7
1070
   271
1070
     2
1070
   272
1070
     2
1070
    77
1070
     1
1070
    73
1070
     0
1070
   171
1070
     3
1070
   274
1070
     4
1070
   177
1070
     2
1070
   176
1070
     2
1070
   178
1070
     2
1070
    78
1070
     8
1070
    48
1040
-0.1
1070
    41
1040
3.5
1070
   147
1040
1.75
1070
    42
1040
1.5875
1070
    44
1040
2.0
1070
   140
1040
3.5
1002
}
1001
ACAD_DSTYLE_DIM_LINETYPE
1070
   380
1005
16
1001
ACAD_DSTYLE_DIM_EXT1_LINETYPE
1070
   381
1005
16
1001
ACAD_DSTYLE_DIM_EXT2_LINETYPE
1070
   382
1005
16
0
ENDSEC
0
SECTION
2
OBJECTS
0
DICTIONARY
5
1e5
330
0
100
AcDbDictionary
280
0
281
1
3
ACAD_GROUP
350
1e6
3
ACAD_MLINESTYLE
350
1e7
0
DICTIONARY
5
1e6
330
0
100
AcDbDictionary
280
0
281
1
0
DICTIONARY
5
1e7
330
0
100
AcDbDictionary
280
0
281
1
3
Standard
350
18
0
MLINESTYLE
5
18
330
1e7
100
AcDbMlineStyle
2
Standard
70
0
3

62
256
51
90
52
90
71
2
49
-0.5
62
256
6
ByLayer
49
0.5
62
256
6
ByLayer
0
RASTERVARIABLES
5
1d4
330

100
AcDbRasterVariables
90
0
70
1
71
1
72
1
0
ENDSEC
0
EOF
