0
SECTION
2
HEADER
9
$ACADVER
1
AC1015
9
$DWGCODEPAGE
3
ANSI_1252
9
$HANDSEED
5
45c
9
$ANGBASE
50
0
9
$ANGDIR
70
0
9
$ATTMODE
70
1
9
$AUNITS
70
0
9
$AUPREC
70
0
9
$CECOLOR
62
256
9
$CELTSCALE
40
1
9
$CELTYPE
6
ByLayer
9
$CELWEIGHT
370
18
9
$CLAYER
8
0
9
$CMLJUST
70
0
9
$CMLSCALE
40
1
9
$CMLSTYLE
2
Standard
9
$DIMSTYLE
2
Standard
9
$TEXTSIZE
40
0.2
9
$TEXTSTYLE
7
Standard
9
$LUNITS
70
2
9
$LUPREC
70
4
9
$EXTNAMES
290
1
9
$INSUNITS
70
4
9
$LTSCALE
40
1
9
$LWDISPLAY
290
1
9
$PDMODE
70
0
9
$PDSIZE
40
0
9
$PLINEGEN
70
0
0
ENDSEC
0
SECTION
2
CLASSES
0
CLASS
1
RASTERVARIABLES
2
AcDbRasterVariables
3
ISM
90
0
280
0
281
0
0
ENDSEC
0
SECTION
2
TABLES
0
TABLE
2
VPORT
5
452
100
AcDbSymbolTable
0
VPORT
5
1
100
AcDbSymbolTableRecord
100
AcDbViewportTableRecord
2
*Active
70
0
10
0
20
0
11
1
21
1
12
-1
22
1
13
0
23
0
14
0.5
24
0.5
15
10
25
10
16
0
26
0
36
1
17
0
27
0
37
0
0
ENDTAB
0
TABLE
2
LTYPE
5
453
100
AcDbSymbolTable
0
LTYPE
5
14
100
AcDbSymbolTableRecord
100
AcDbLinetypeTableRecord
70
0
2
ByBlock
3

72
65
73
0
40
0
0
LTYPE
5
15
100
AcDbSymbolTableRecord
100
AcDbLinetypeTableRecord
70
0
2
ByLayer
3

72
65
73
0
40
0
0
LTYPE
5
16
100
AcDbSymbolTableRecord
100
AcDbLinetypeTableRecord
70
0
2
Continuous
3
Solid line
72
65
73
0
40
0
0
LTYPE
5
6E
100
AcDbSymbolTableRecord
100
AcDbLinetypeTableRecord
70
0
2
CENTER
3
____ _ ____ _ ____ _ ____
72
65
73
4
40
47.5
49
22
74
0
49
-8.5
74
0
49
8.5
74
0
49
-8.5
74
0
0
LTYPE
5
6F
100
AcDbSymbolTableRecord
100
AcDbLinetypeTableRecord
70
0
2
DASHED
3
__ __ __ __ __ __ __ __ __
72
65
73
2
40
25.72
49
12.86
74
0
49
-12.86
74
0
0
ENDTAB
0
TABLE
2
LAYER
5
454
100
AcDbSymbolTable
0
LAYER
5
10
100
AcDbSymbolTableRecord
100
AcDbLayerTableRecord
2
0
70
0
62
7
6
Continuous
290
1
370
-3
390
0
0
LAYER
5
71
100
AcDbSymbolTableRecord
100
AcDbLayerTableRecord
2
1
70
0
62
4
6
Continuous
290
1
370
-3
390
0
0
LAYER
5
73
100
AcDbSymbolTableRecord
100
AcDbLayerTableRecord
2
80
70
0
62
-6
6
Continuous
290
1
370
-3
390
0
0
LAYER
5
75
100
AcDbSymbolTableRecord
100
AcDbLayerTableRecord
2
81
70
0
62
-3
6
Continuous
290
1
370
-3
390
0
0
LAYER
5
148
100
AcDbSymbolTableRecord
100
AcDbLayerTableRecord
2
4
70
0
62
-2
6
CENTER
290
1
370
-3
390
0
0
LAYER
5
184
100
AcDbSymbolTableRecord
100
AcDbLayerTableRecord
2
2
70
0
62
7
6
Continuous
290
1
370
-3
390
0
0
LAYER
5
367
100
AcDbSymbolTableRecord
100
AcDbLayerTableRecord
2
Defpoints
70
0
62
7
6
Continuous
290
0
370
-3
390
0
0
LAYER
5
43e
100
AcDbSymbolTableRecord
100
AcDbLayerTableRecord
2
SK1
70
0
62
4
6
Continuous
290
1
370
-3
390
0
0
LAYER
5
43f
100
AcDbSymbolTableRecord
100
AcDbLayerTableRecord
2
SK4
70
0
62
2
6
CENTER
290
1
370
-3
390
0
0
LAYER
5
440
100
AcDbSymbolTableRecord
100
AcDbLayerTableRecord
2
SK2
70
0
62
7
6
Continuous
290
1
370
-3
390
0
0
LAYER
5
441
100
AcDbSymbolTableRecord
100
AcDbLayerTableRecord
2
SK6
70
0
62
5
6
Continuous
290
1
370
-3
390
0
0
ENDTAB
0
TABLE
2
STYLE
5
455
100
AcDbSymbolTable
0
STYLE
5
11
100
AcDbSymbolTableRecord
100
AcDbTextStyleTableRecord
2
Standard
3
txt
70
0
71
0
40
0
41
1
42
0
50
0
0
STYLE
5
342
100
AcDbSymbolTableRecord
100
AcDbTextStyleTableRecord
2
iso_b_vert
3
simplex.shx
70
0
71
0
40
0
41
1
42
0
50
0
0
STYLE
5
343
100
AcDbSymbolTableRecord
100
AcDbTextStyleTableRecord
2
DWGDirectTextStyle
3
simplex
70
0
71
0
40
0
41
1
42
0
50
0
0
ENDTAB
0
TABLE
2
DIMSTYLE
5
456
100
AcDbSymbolTable
100
AcDbDimStyleTable
0
DIMSTYLE
105
27
100
AcDbSymbolTableRecord
100
AcDbDimStyleTableRecord
2
Standard
70
0
3
<>
41
0.18
42
0.0625
44
0.18
140
0.18
147
0.09
73
0
74
0
77
1
271
2
275
0
278
52
280
0
340
11
0
ENDTAB
0
TABLE
2
VIEW
5
457
100
AcDbSymbolTable
0
ENDTAB
0
TABLE
2
UCS
5
458
100
AcDbSymbolTable
0
ENDTAB
0
TABLE
2
APPID
5
459
100
AcDbSymbolTable
0
APPID
5
12
100
AcDbSymbolTableRecord
100
AcDbRegAppTableRecord
2
ACAD
70
0
0
APPID
5
363
100
AcDbSymbolTableRecord
100
AcDbRegAppTableRecord
2
ACAD_DSTYLE_DIMBREAK
70
0
0
APPID
5
3FD
100
AcDbSymbolTableRecord
100
AcDbRegAppTableRecord
2
ACAD_DSTYLE_DIM_LINETYPE
70
0
0
APPID
5
3FE
100
AcDbSymbolTableRecord
100
AcDbRegAppTableRecord
2
ACAD_DSTYLE_DIM_EXT1_LINETYPE
70
0
0
APPID
5
3FF
100
AcDbSymbolTableRecord
100
AcDbRegAppTableRecord
2
ACAD_DSTYLE_DIM_EXT2_LINETYPE
70
0
0
APPID
5
43A
100
AcDbSymbolTableRecord
100
AcDbRegAppTableRecord
2
ACAD_MLEADERVER
70
0
0
ENDTAB
0
TABLE
2
BLOCK_RECORD
5
45a
100
AcDbSymbolTable
0
BLOCK_RECORD
5
1F
100
AcDbSymbolTableRecord
100
AcDbBlockTableRecord
2
*Model_Space
340
0
70
0
0
BLOCK_RECORD
5
1B
100
AcDbSymbolTableRecord
100
AcDbBlockTableRecord
2
*Paper_Space
340
0
70
0
0
BLOCK_RECORD
5
23
100
AcDbSymbolTableRecord
100
AcDbBlockTableRecord
2
*Paper_Space0
340
0
70
0
0
BLOCK_RECORD
5
368
100
AcDbSymbolTableRecord
100
AcDbBlockTableRecord
2
*D1
340
0
70
0
0
BLOCK_RECORD
5
374
100
AcDbSymbolTableRecord
100
AcDbBlockTableRecord
2
_U0
340
0
70
0
0
BLOCK_RECORD
5
380
100
AcDbSymbolTableRecord
100
AcDbBlockTableRecord
2
*D3
340
0
70
0
0
BLOCK_RECORD
5
38C
100
AcDbSymbolTableRecord
100
AcDbBlockTableRecord
2
_U1
340
0
70
0
0
BLOCK_RECORD
5
398
100
AcDbSymbolTableRecord
100
AcDbBlockTableRecord
2
*D5
340
0
70
0
0
BLOCK_RECORD
5
3A4
100
AcDbSymbolTableRecord
100
AcDbBlockTableRecord
2
_U2
340
0
70
0
0
BLOCK_RECORD
5
3B0
100
AcDbSymbolTableRecord
100
AcDbBlockTableRecord
2
*D7
340
0
70
0
0
BLOCK_RECORD
5
3BC
100
AcDbSymbolTableRecord
100
AcDbBlockTableRecord
2
_U3
340
0
70
0
0
BLOCK_RECORD
5
3C8
100
AcDbSymbolTableRecord
100
AcDbBlockTableRecord
2
*D9
340
0
70
0
0
BLOCK_RECORD
5
3D6
100
AcDbSymbolTableRecord
100
AcDbBlockTableRecord
2
_U4
340
0
70
0
0
ENDTAB
0
ENDSEC
0
SECTION
2
BLOCKS
0
BLOCK
5
20
100
AcDbEntity
8
0
100
AcDbBlockBegin
2
*Model_Space
70
0
10
0
20
0
30
0
3
*Model_Space
0
ENDBLK
5
21
100
AcDbEntity
8
0
100
AcDbBlockEnd
0
BLOCK
5
1C
100
AcDbEntity
8
0
100
AcDbBlockBegin
2
*Paper_Space
70
0
10
0
20
0
30
0
3
*Paper_Space
0
ENDBLK
5
1D
100
AcDbEntity
8
0
100
AcDbBlockEnd
0
BLOCK
5
24
100
AcDbEntity
8
0
100
AcDbBlockBegin
2
*Paper_Space0
70
0
10
0
20
0
30
0
3
*Paper_Space0
0
ENDBLK
5
25
100
AcDbEntity
8
0
100
AcDbBlockEnd
0
BLOCK
5
369
100
AcDbEntity
8
0
100
AcDbBlockBegin
2
*D1
70
1
10
0
20
0
30
0
3
*D1
0
LINE
5
36B
100
AcDbEntity
8
0
62
256
6
ByLayer
370
-2
48
1
60
0
100
AcDbLine
10
0
20
-17.5875
30
0
11
0
21
-68.037225
31
0
39
0
210
0
220
0
230
1
0
LINE
5
36C
100
AcDbEntity
8
0
62
256
6
ByLayer
370
-2
48
1
60
0
100
AcDbLine
10
123
20
-11.3375
30
0
11
123
21
-68.037225
31
0
39
0
210
0
220
0
230
1
0
LINE
5
36D
100
AcDbEntity
8
0
62
256
6
ByLayer
370
-2
48
1
60
0
100
AcDbLine
10
4.175
20
-64.862225
30
0
11
118.825
21
-64.862225
31
0
39
0
210
0
220
0
230
1
0
SOLID
5
36E
100
AcDbEntity
8
0
62
256
6
ByLayer
370
-1
48
1
60
0
100
AcDbTrace
10
4.175
20
-64.166391
30
0
11
4.175
21
-65.558058
31
0
12
0
22
-64.862225
32
0
13
0
23
-64.862225
33
0
39
0
210
0
220
0
230
1
0
SOLID
5
36F
100
AcDbEntity
8
0
62
256
6
ByLayer
370
-1
48
1
60
0
100
AcDbTrace
10
118.825
20
-65.558058
30
0
11
118.825
21
-64.166391
31
0
12
123
22
-64.862225
32
0
13
123
23
-64.862225
33
0
39
0
210
0
220
0
230
1
0
MTEXT
5
370
100
AcDbEntity
8
0
62
256
6
ByLayer
370
18
48
1
60
0
100
AcDbMText
10
61.5
20
-55.468475
30
0
210
0
220
0
230
1
1
\A1;123
40
4.5
41
0
44
1
50
0
71
5
72
5
7
iso_b_vert
0
POINT
5
371
100
AcDbEntity
8
Defpoints
62
0
6
ByLayer
370
-1
48
1
60
0
100
AcDbPoint
10
0
20
-16
30
0
39
0
210
0
220
0
230
1
50
360
0
POINT
5
372
100
AcDbEntity
8
Defpoints
62
0
6
ByLayer
370
-1
48
1
60
0
100
AcDbPoint
10
123
20
-9.75
30
0
39
0
210
0
220
0
230
1
50
360
0
POINT
5
373
100
AcDbEntity
8
Defpoints
62
0
6
ByLayer
370
-1
48
1
60
0
100
AcDbPoint
10
123
20
-64.862225
30
0
39
0
210
0
220
0
230
1
50
360
0
ENDBLK
5
36A
100
AcDbEntity
8
0
100
AcDbBlockEnd
0
BLOCK
5
37B
100
AcDbEntity
8
0
100
AcDbBlockBegin
2
_U0
70
0
10
0
20
0
30
0
3
_U0
0
MTEXT
5
375
100
AcDbEntity
8
2
62
256
6
ByLayer
370
18
48
1
60
0
100
AcDbMText
10
57.931801
20
-63.534553
30
0
210
0
220
0
230
1
1
\W0.6217;123
40
4.5
41
0
44
1.084337
50
0
71
7
72
5
7
iso_b_vert
0
LINE
5
376
100
AcDbEntity
8
2
62
256
6
ByLayer
370
13
48
1
60
0
100
AcDbLine
10
0
20
-17.5875
30
0
11
0
21
-68.037225
31
0
39
0
210
0
220
0
230
1
0
LINE
5
377
100
AcDbEntity
8
2
62
256
6
ByLayer
370
13
48
1
60
0
100
AcDbLine
10
123
20
-11.3375
30
0
11
123
21
-68.037225
31
0
39
0
210
0
220
0
230
1
0
LINE
5
378
100
AcDbEntity
8
2
62
256
6
ByLayer
370
13
48
1
60
0
100
AcDbLine
10
0
20
-64.862225
30
0
11
123
21
-64.862225
31
0
39
0
210
0
220
0
230
1
0
SOLID
5
379
100
AcDbEntity
8
2
62
256
6
ByLayer
370
18
48
1
60
0
100
AcDbTrace
10
0
20
-64.862225
30
0
11
4.174997
21
-63.936649
31
0
12
4.175003
22
-65.7878
32
0
13
4.175003
23
-65.7878
33
0
39
0
210
0
220
0
230
1
0
SOLID
5
37A
100
AcDbEntity
8
2
62
256
6
ByLayer
370
18
48
1
60
0
100
AcDbTrace
10
123
20
-64.862225
30
0
11
118.825003
21
-65.7878
31
0
12
118.824997
22
-63.936649
32
0
13
118.824997
23
-63.936649
33
0
39
0
210
0
220
0
230
1
0
ENDBLK
5
37C
100
AcDbEntity
8
0
100
AcDbBlockEnd
0
BLOCK
5
381
100
AcDbEntity
8
0
100
AcDbBlockBegin
2
*D3
70
1
10
0
20
0
30
0
3
*D3
0
LINE
5
383
100
AcDbEntity
8
0
62
256
6
ByLayer
370
-2
48
1
60
0
100
AcDbLine
10
-56
20
-14.0875
30
0
11
-56
21
-68.037225
31
0
39
0
210
0
220
0
230
1
0
LINE
5
384
100
AcDbEntity
8
0
62
256
6
ByLayer
370
-2
48
1
60
0
100
AcDbLine
10
0
20
-17.5875
30
0
11
0
21
-68.037225
31
0
39
0
210
0
220
0
230
1
0
LINE
5
385
100
AcDbEntity
8
0
62
256
6
ByLayer
370
-2
48
1
60
0
100
AcDbLine
10
-51.825
20
-64.862225
30
0
11
-4.175
21
-64.862225
31
0
39
0
210
0
220
0
230
1
0
SOLID
5
386
100
AcDbEntity
8
0
62
256
6
ByLayer
370
-1
48
1
60
0
100
AcDbTrace
10
-51.825
20
-64.166391
30
0
11
-51.825
21
-65.558058
31
0
12
-56
22
-64.862225
32
0
13
-56
23
-64.862225
33
0
39
0
210
0
220
0
230
1
0
SOLID
5
387
100
AcDbEntity
8
0
62
256
6
ByLayer
370
-1
48
1
60
0
100
AcDbTrace
10
-4.175
20
-65.558058
30
0
11
-4.175
21
-64.166391
31
0
12
0
22
-64.862225
32
0
13
0
23
-64.862225
33
0
39
0
210
0
220
0
230
1
0
MTEXT
5
388
100
AcDbEntity
8
0
62
256
6
ByLayer
370
18
48
1
60
0
100
AcDbMText
10
-28
20
-55.468475
30
0
210
0
220
0
230
1
1
\A1;56
40
4.5
41
0
44
1
50
0
71
5
72
5
7
iso_b_vert
0
POINT
5
389
100
AcDbEntity
8
Defpoints
62
0
6
ByLayer
370
-1
48
1
60
0
100
AcDbPoint
10
-56
20
-12.5
30
0
39
0
210
0
220
0
230
1
50
360
0
POINT
5
38A
100
AcDbEntity
8
Defpoints
62
0
6
ByLayer
370
-1
48
1
60
0
100
AcDbPoint
10
0
20
-16
30
0
39
0
210
0
220
0
230
1
50
360
0
POINT
5
38B
100
AcDbEntity
8
Defpoints
62
0
6
ByLayer
370
-1
48
1
60
0
100
AcDbPoint
10
0
20
-64.862225
30
0
39
0
210
0
220
0
230
1
50
360
0
ENDBLK
5
382
100
AcDbEntity
8
0
100
AcDbBlockEnd
0
BLOCK
5
393
100
AcDbEntity
8
0
100
AcDbBlockBegin
2
_U1
70
0
10
0
20
0
30
0
3
_U1
0
MTEXT
5
38D
100
AcDbEntity
8
SK2
62
256
6
ByLayer
370
18
48
1
60
0
100
AcDbMText
10
-30.449242
20
-63.534553
30
0
210
0
220
0
230
1
1
\W0.6740;56
40
4.5
41
0
44
1.084337
50
0
71
7
72
5
7
iso_b_vert
0
LINE
5
38E
100
AcDbEntity
8
SK2
62
256
6
ByLayer
370
13
48
1
60
0
100
AcDbLine
10
-56
20
-14.0875
30
0
11
-56
21
-68.037225
31
0
39
0
210
0
220
0
230
1
0
LINE
5
38F
100
AcDbEntity
8
SK2
62
256
6
ByLayer
370
13
48
1
60
0
100
AcDbLine
10
0
20
-17.5875
30
0
11
0
21
-68.037225
31
0
39
0
210
0
220
0
230
1
0
LINE
5
390
100
AcDbEntity
8
SK2
62
256
6
ByLayer
370
13
48
1
60
0
100
AcDbLine
10
-56
20
-64.862225
30
0
11
0
21
-64.862225
31
0
39
0
210
0
220
0
230
1
0
SOLID
5
391
100
AcDbEntity
8
SK2
62
256
6
ByLayer
370
18
48
1
60
0
100
AcDbTrace
10
-56
20
-64.862225
30
0
11
-51.825003
21
-63.936649
31
0
12
-51.824997
22
-65.7878
32
0
13
-51.824997
23
-65.7878
33
0
39
0
210
0
220
0
230
1
0
SOLID
5
392
100
AcDbEntity
8
SK2
62
256
6
ByLayer
370
18
48
1
60
0
100
AcDbTrace
10
0
20
-64.862225
30
0
11
-4.174997
21
-65.7878
31
0
12
-4.175003
22
-63.936649
32
0
13
-4.175003
23
-63.936649
33
0
39
0
210
0
220
0
230
1
0
ENDBLK
5
394
100
AcDbEntity
8
0
100
AcDbBlockEnd
0
BLOCK
5
399
100
AcDbEntity
8
0
100
AcDbBlockBegin
2
*D5
70
1
10
0
20
0
30
0
3
*D5
0
LINE
5
39B
100
AcDbEntity
8
0
62
256
6
ByLayer
370
-2
48
1
60
0
100
AcDbLine
10
123
20
-11.3375
30
0
11
123
21
-58.037225
31
0
39
0
210
0
220
0
230
1
0
LINE
5
39C
100
AcDbEntity
8
0
62
256
6
ByLayer
370
-2
48
1
60
0
100
AcDbLine
10
6.0606
20
-17.5875
30
0
11
6.0606
21
-58.037225
31
0
39
0
210
0
220
0
230
1
0
LINE
5
39D
100
AcDbEntity
8
0
62
256
6
ByLayer
370
-2
48
1
60
0
100
AcDbLine
10
118.825
20
-54.862225
30
0
11
10.2356
21
-54.862225
31
0
39
0
210
0
220
0
230
1
0
SOLID
5
39E
100
AcDbEntity
8
0
62
256
6
ByLayer
370
-1
48
1
60
0
100
AcDbTrace
10
118.825
20
-55.558058
30
0
11
118.825
21
-54.166391
31
0
12
123
22
-54.862225
32
0
13
123
23
-54.862225
33
0
39
0
210
0
220
0
230
1
0
SOLID
5
39F
100
AcDbEntity
8
0
62
256
6
ByLayer
370
-1
48
1
60
0
100
AcDbTrace
10
10.2356
20
-54.166391
30
0
11
10.2356
21
-55.558058
31
0
12
6.0606
22
-54.862225
32
0
13
6.0606
23
-54.862225
33
0
39
0
210
0
220
0
230
1
0
MTEXT
5
3A0
100
AcDbEntity
8
0
62
256
6
ByLayer
370
18
48
1
60
0
100
AcDbMText
10
64.5303
20
-45.468475
30
0
210
0
220
0
230
1
1
\A1;116.9
40
4.5
41
0
44
1
50
0
71
5
72
5
7
iso_b_vert
0
POINT
5
3A1
100
AcDbEntity
8
Defpoints
62
0
6
ByLayer
370
-1
48
1
60
0
100
AcDbPoint
10
123
20
-9.75
30
0
39
0
210
0
220
0
230
1
50
360
0
POINT
5
3A2
100
AcDbEntity
8
Defpoints
62
0
6
ByLayer
370
-1
48
1
60
0
100
AcDbPoint
10
6.0606
20
-16
30
0
39
0
210
0
220
0
230
1
50
360
0
POINT
5
3A3
100
AcDbEntity
8
Defpoints
62
0
6
ByLayer
370
-1
48
1
60
0
100
AcDbPoint
10
6.0606
20
-54.862225
30
0
39
0
210
0
220
0
230
1
50
360
0
ENDBLK
5
39A
100
AcDbEntity
8
0
100
AcDbBlockEnd
0
BLOCK
5
3AB
100
AcDbEntity
8
0
100
AcDbBlockBegin
2
_U2
70
0
10
0
20
0
30
0
3
_U2
0
MTEXT
5
3A5
100
AcDbEntity
8
SK2
62
256
6
ByLayer
370
18
48
1
60
0
100
AcDbMText
10
58.931573
20
-53.534553
30
0
210
0
220
0
230
1
1
\W0.6334;116.9
40
4.5
41
0
44
1.084337
50
0
71
7
72
5
7
iso_b_vert
0
LINE
5
3A6
100
AcDbEntity
8
SK2
62
256
6
ByLayer
370
13
48
1
60
0
100
AcDbLine
10
123
20
-11.3375
30
0
11
123
21
-58.037225
31
0
39
0
210
0
220
0
230
1
0
LINE
5
3A7
100
AcDbEntity
8
SK2
62
256
6
ByLayer
370
13
48
1
60
0
100
AcDbLine
10
6.0606
20
-17.5875
30
0
11
6.0606
21
-58.037225
31
0
39
0
210
0
220
0
230
1
0
LINE
5
3A8
100
AcDbEntity
8
SK2
62
256
6
ByLayer
370
13
48
1
60
0
100
AcDbLine
10
123
20
-54.862225
30
0
11
6.0606
21
-54.862225
31
0
39
0
210
0
220
0
230
1
0
SOLID
5
3A9
100
AcDbEntity
8
SK2
62
256
6
ByLayer
370
18
48
1
60
0
100
AcDbTrace
10
123
20
-54.862225
30
0
11
118.825003
21
-55.7878
31
0
12
118.824997
22
-53.936649
32
0
13
118.824997
23
-53.936649
33
0
39
0
210
0
220
0
230
1
0
SOLID
5
3AA
100
AcDbEntity
8
SK2
62
256
6
ByLayer
370
18
48
1
60
0
100
AcDbTrace
10
6.0606
20
-54.862225
30
0
11
10.235597
21
-53.936649
31
0
12
10.235603
22
-55.7878
32
0
13
10.235603
23
-55.7878
33
0
39
0
210
0
220
0
230
1
0
ENDBLK
5
3AC
100
AcDbEntity
8
0
100
AcDbBlockEnd
0
BLOCK
5
3B1
100
AcDbEntity
8
0
100
AcDbBlockBegin
2
*D7
70
1
10
0
20
0
30
0
3
*D7
0
LINE
5
3B3
100
AcDbEntity
8
0
62
256
6
ByLayer
370
-2
48
1
60
0
100
AcDbLine
10
22
20
-11.3375
30
0
11
22
21
-48.037225
31
0
39
0
210
0
220
0
230
1
0
LINE
5
3B4
100
AcDbEntity
8
0
62
256
6
ByLayer
370
-2
48
1
60
0
100
AcDbLine
10
123
20
-11.3375
30
0
11
123
21
-48.037225
31
0
39
0
210
0
220
0
230
1
0
LINE
5
3B5
100
AcDbEntity
8
0
62
256
6
ByLayer
370
-2
48
1
60
0
100
AcDbLine
10
26.175
20
-44.862225
30
0
11
118.825
21
-44.862225
31
0
39
0
210
0
220
0
230
1
0
SOLID
5
3B6
100
AcDbEntity
8
0
62
256
6
ByLayer
370
-1
48
1
60
0
100
AcDbTrace
10
26.175
20
-44.166391
30
0
11
26.175
21
-45.558058
31
0
12
22
22
-44.862225
32
0
13
22
23
-44.862225
33
0
39
0
210
0
220
0
230
1
0
SOLID
5
3B7
100
AcDbEntity
8
0
62
256
6
ByLayer
370
-1
48
1
60
0
100
AcDbTrace
10
118.825
20
-45.558058
30
0
11
118.825
21
-44.166391
31
0
12
123
22
-44.862225
32
0
13
123
23
-44.862225
33
0
39
0
210
0
220
0
230
1
0
MTEXT
5
3B8
100
AcDbEntity
8
0
62
256
6
ByLayer
370
18
48
1
60
0
100
AcDbMText
10
72.5
20
-35.468475
30
0
210
0
220
0
230
1
1
\A1;101
40
4.5
41
0
44
1
50
0
71
5
72
5
7
iso_b_vert
0
POINT
5
3B9
100
AcDbEntity
8
Defpoints
62
0
6
ByLayer
370
-1
48
1
60
0
100
AcDbPoint
10
22
20
-9.75
30
0
39
0
210
0
220
0
230
1
50
360
0
POINT
5
3BA
100
AcDbEntity
8
Defpoints
62
0
6
ByLayer
370
-1
48
1
60
0
100
AcDbPoint
10
123
20
-9.75
30
0
39
0
210
0
220
0
230
1
50
360
0
POINT
5
3BB
100
AcDbEntity
8
Defpoints
62
0
6
ByLayer
370
-1
48
1
60
0
100
AcDbPoint
10
123
20
-44.862225
30
0
39
0
210
0
220
0
230
1
50
360
0
ENDBLK
5
3B2
100
AcDbEntity
8
0
100
AcDbBlockEnd
0
BLOCK
5
3C3
100
AcDbEntity
8
0
100
AcDbBlockBegin
2
_U3
70
0
10
0
20
0
30
0
3
_U3
0
MTEXT
5
3BD
100
AcDbEntity
8
SK2
62
256
6
ByLayer
370
18
48
1
60
0
100
AcDbMText
10
69.494215
20
-43.534553
30
0
210
0
220
0
230
1
1
\W0.5919;101
40
4.5
41
0
44
1.084337
50
0
71
7
72
5
7
iso_b_vert
0
LINE
5
3BE
100
AcDbEntity
8
SK2
62
256
6
ByLayer
370
13
48
1
60
0
100
AcDbLine
10
22
20
-11.3375
30
0
11
22
21
-48.037225
31
0
39
0
210
0
220
0
230
1
0
LINE
5
3BF
100
AcDbEntity
8
SK2
62
256
6
ByLayer
370
13
48
1
60
0
100
AcDbLine
10
123
20
-11.3375
30
0
11
123
21
-48.037225
31
0
39
0
210
0
220
0
230
1
0
LINE
5
3C0
100
AcDbEntity
8
SK2
62
256
6
ByLayer
370
13
48
1
60
0
100
AcDbLine
10
22
20
-44.862225
30
0
11
123
21
-44.862225
31
0
39
0
210
0
220
0
230
1
0
SOLID
5
3C1
100
AcDbEntity
8
SK2
62
256
6
ByLayer
370
18
48
1
60
0
100
AcDbTrace
10
22
20
-44.862225
30
0
11
26.174997
21
-43.936649
31
0
12
26.175003
22
-45.7878
32
0
13
26.175003
23
-45.7878
33
0
39
0
210
0
220
0
230
1
0
SOLID
5
3C2
100
AcDbEntity
8
SK2
62
256
6
ByLayer
370
18
48
1
60
0
100
AcDbTrace
10
123
20
-44.862225
30
0
11
118.825003
21
-45.7878
31
0
12
118.824997
22
-43.936649
32
0
13
118.824997
23
-43.936649
33
0
39
0
210
0
220
0
230
1
0
ENDBLK
5
3C4
100
AcDbEntity
8
0
100
AcDbBlockEnd
0
BLOCK
5
3C9
100
AcDbEntity
8
0
100
AcDbBlockBegin
2
*D9
70
1
10
0
20
0
30
0
3
*D9
0
LINE
5
3CB
100
AcDbEntity
8
0
62
256
6
ByLayer
370
-2
48
1
60
0
100
AcDbLine
10
122.4423
20
-6.4625
30
0
11
122.4423
21
-38.037225
31
0
39
0
210
0
220
0
230
1
0
LINE
5
3CC
100
AcDbEntity
8
0
62
256
6
ByLayer
370
-2
48
1
60
0
100
AcDbLine
10
123
20
-1.5875
30
0
11
123
21
-38.037225
31
0
39
0
210
0
220
0
230
1
0
LINE
5
3CD
100
AcDbEntity
8
0
62
256
6
ByLayer
370
-2
48
1
60
0
100
AcDbLine
10
123
20
-34.862225
30
0
11
159.351786
21
-34.862225
31
0
39
0
210
0
220
0
230
1
0
LINE
5
3CE
100
AcDbEntity
8
0
62
256
6
ByLayer
370
-2
48
1
60
0
100
AcDbLine
10
118.2673
20
-34.862225
30
0
11
114.0923
21
-34.862225
31
0
39
0
210
0
220
0
230
1
0
LINE
5
3CF
100
AcDbEntity
8
0
62
256
6
ByLayer
370
-2
48
1
60
0
100
AcDbLine
10
127.175
20
-34.862225
30
0
11
131.35
21
-34.862225
31
0
39
0
210
0
220
0
230
1
0
SOLID
5
3D0
100
AcDbEntity
8
0
62
256
6
ByLayer
370
-1
48
1
60
0
100
AcDbTrace
10
118.2673
20
-35.558058
30
0
11
118.2673
21
-34.166391
31
0
12
122.4423
22
-34.862225
32
0
13
122.4423
23
-34.862225
33
0
39
0
210
0
220
0
230
1
0
SOLID
5
3D1
100
AcDbEntity
8
0
62
256
6
ByLayer
370
-1
48
1
60
0
100
AcDbTrace
10
127.175
20
-34.166391
30
0
11
127.175
21
-35.558058
31
0
12
123
22
-34.862225
32
0
13
123
23
-34.862225
33
0
39
0
210
0
220
0
230
1
0
MTEXT
5
3D2
100
AcDbEntity
8
0
62
256
6
ByLayer
370
18
48
1
60
0
100
AcDbMText
10
145.350893
20
-25.468475
30
0
210
0
220
0
230
1
1
\A1;0.56
40
4.5
41
0
44
1
50
0
71
5
72
5
7
iso_b_vert
0
POINT
5
3D3
100
AcDbEntity
8
Defpoints
62
0
6
ByLayer
370
-1
48
1
60
0
100
AcDbPoint
10
122.4423
20
-4.875
30
0
39
0
210
0
220
0
230
1
50
360
0
POINT
5
3D4
100
AcDbEntity
8
Defpoints
62
0
6
ByLayer
370
-1
48
1
60
0
100
AcDbPoint
10
123
20
0
30
0
39
0
210
0
220
0
230
1
50
360
0
POINT
5
3D5
100
AcDbEntity
8
Defpoints
62
0
6
ByLayer
370
-1
48
1
60
0
100
AcDbPoint
10
123
20
-34.862225
30
0
39
0
210
0
220
0
230
1
50
360
0
ENDBLK
5
3CA
100
AcDbEntity
8
0
100
AcDbBlockEnd
0
BLOCK
5
3DD
100
AcDbEntity
8
0
100
AcDbBlockBegin
2
_U4
70
0
10
0
20
0
30
0
3
_U4
0
MTEXT
5
3D7
100
AcDbEntity
8
2
62
256
6
ByLayer
370
18
48
1
60
0
100
AcDbMText
10
135.351
20
-33.534553
30
0
210
0
220
0
230
1
1
\W0.7346;0.56
40
4.5
41
0
44
1.084337
50
0
71
7
72
5
7
iso_b_vert
0
LINE
5
3D8
100
AcDbEntity
8
2
62
256
6
ByLayer
370
13
48
1
60
0
100
AcDbLine
10
122.4423
20
-6.4625
30
0
11
122.4423
21
-38.037225
31
0
39
0
210
0
220
0
230
1
0
LINE
5
3D9
100
AcDbEntity
8
2
62
256
6
ByLayer
370
13
48
1
60
0
100
AcDbLine
10
123
20
-1.5875
30
0
11
123
21
-38.037225
31
0
39
0
210
0
220
0
230
1
0
LINE
5
3DA
100
AcDbEntity
8
2
62
256
6
ByLayer
370
13
48
1
60
0
100
AcDbLine
10
145.673869
20
-34.862225
30
0
11
111.1923
21
-34.862225
31
0
39
0
210
0
220
0
230
1
0
SOLID
5
3DB
100
AcDbEntity
8
2
62
256
6
ByLayer
370
18
48
1
60
0
100
AcDbTrace
10
122.4423
20
-34.862225
30
0
11
118.267303
21
-35.7878
31
0
12
118.267297
22
-33.936649
32
0
13
118.267297
23
-33.936649
33
0
39
0
210
0
220
0
230
1
0
SOLID
5
3DC
100
AcDbEntity
8
2
62
256
6
ByLayer
370
18
48
1
60
0
100
AcDbTrace
10
123
20
-34.862225
30
0
11
127.174997
21
-33.936649
31
0
12
127.175003
22
-35.7878
32
0
13
127.175003
23
-35.7878
33
0
39
0
210
0
220
0
230
1
0
ENDBLK
5
3DE
100
AcDbEntity
8
0
100
AcDbBlockEnd
0
ENDSEC
0
SECTION
2
ENTITIES
0
ARC
5
18D
100
AcDbEntity
8
SK1
62
256
6
ByLayer
370
13
48
1
60
0
100
AcDbCircle
39
0
10
-53.894505
20
-12.8967
30
0
40
0.800000000000004
210
0
220
0
230
1
100
AcDbArc
50
70.982
51
141
0
ARC
5
18E
100
AcDbEntity
8
SK1
62
256
6
ByLayer
370
13
48
1
60
0
100
AcDbCircle
39
0
10
-53.894505
20
12.8967
30
0
40
0.800000000000004
210
0
220
0
230
1
100
AcDbArc
50
219
51
289.018
0
ARC
5
18F
100
AcDbEntity
8
SK1
62
256
6
ByLayer
370
13
48
1
60
0
100
AcDbCircle
39
0
10
-0.15
20
12.64675
30
0
40
0.400000000000002
210
0
220
0
230
1
100
AcDbArc
50
270
51
292.024313
0
ARC
5
190
100
AcDbEntity
8
SK1
62
256
6
ByLayer
370
13
48
1
60
0
100
AcDbCircle
39
0
10
-0.15
20
-12.64675
30
0
40
0.400000000000002
210
0
220
0
230
1
100
AcDbArc
50
67.975687
51
90
0
ARC
5
191
100
AcDbEntity
8
SK1
62
256
6
ByLayer
370
13
48
1
60
0
100
AcDbCircle
39
0
10
-1.375195
20
12.64675
30
0
40
0.399999999999998
210
0
220
0
230
1
100
AcDbArc
50
245
51
270
0
ARC
5
192
100
AcDbEntity
8
SK1
62
256
6
ByLayer
370
13
48
1
60
0
100
AcDbCircle
39
0
10
-1.375195
20
-12.64675
30
0
40
0.399999999999998
210
0
220
0
230
1
100
AcDbArc
50
90
51
115
0
ARC
5
193
100
AcDbEntity
8
1
62
256
6
ByLayer
370
13
48
1
60
0
100
AcDbCircle
39
0
10
121.047632
20
9.052133
30
0
40
0.1
210
0
220
0
230
1
100
AcDbArc
50
8.974534
51
93
0
ARC
5
194
100
AcDbEntity
8
1
62
256
6
ByLayer
370
13
48
1
60
0
100
AcDbCircle
39
0
10
121.08906
20
3.801299
30
0
40
0.1
210
0
220
0
230
1
100
AcDbArc
50
273
51
352.543899
0
ARC
5
195
100
AcDbEntity
8
1
62
256
6
ByLayer
370
13
48
1
60
0
100
AcDbCircle
39
0
10
115.075302
20
8.624841
30
0
40
0.1
210
0
220
0
230
1
100
AcDbArc
50
71.611938
51
93
0
ARC
5
196
100
AcDbEntity
8
1
62
256
6
ByLayer
370
13
48
1
60
0
100
AcDbCircle
39
0
10
115.116729
20
3.374007
30
0
40
0.1
210
0
220
0
230
1
100
AcDbArc
50
273
51
303.659979
0
ELLIPSE
5
197
100
AcDbEntity
8
1
62
256
6
ByLayer
370
13
48
1
60
0
100
AcDbEllipse
10
118.080004
20
6.212956
30
0
11
0.0541703315092572
21
-1.03363149994772
31
0
210
0
220
0
230
1
40
0.995725
41
1.5707963267949
42
2.61799387799149
0
ELLIPSE
5
198
100
AcDbEntity
8
1
62
256
6
ByLayer
370
13
48
1
60
0
100
AcDbEllipse
10
118.040158
20
5.296565
30
0
11
-0.240336834259066
21
-0.0125955197631628
31
0
210
0
220
0
230
1
40
0.506302
41
-1.5707963267949
42
-0.33914606505211
0
ELLIPSE
5
199
100
AcDbEntity
8
1
62
256
6
ByLayer
370
13
48
1
60
0
100
AcDbEllipse
10
118.754745
20
6.705469
30
0
11
-0.130868635434716
21
0.202898866253418
31
0
210
0
220
0
230
1
40
0.503053
41
1.57329528827173
42
2.80494555002141
0
ELLIPSE
5
19A
100
AcDbEntity
8
1
62
256
6
ByLayer
370
13
48
1
60
0
100
AcDbEllipse
10
118.080004
20
6.212956
30
0
11
0.0643732261788185
21
-1.22831432774812
31
0
210
0
220
0
230
1
40
0.995725
41
0
42
6.28318530717959
0
ELLIPSE
5
19B
100
AcDbEntity
8
1
62
256
6
ByLayer
370
13
48
1
60
0
100
AcDbEllipse
10
118.080004
20
6.212956
30
0
11
0.0541703315092572
21
-1.03363149994772
31
0
210
0
220
0
230
1
40
0.995725
41
-2.61799387799151
42
-1.5707963267949
0
ELLIPSE
5
19C
100
AcDbEntity
8
1
62
256
6
ByLayer
370
13
48
1
60
0
100
AcDbEllipse
10
118.015434
20
6.209572
30
0
11
0.0811207321765604
21
-1.54787577886959
31
0
210
0
220
0
230
1
40
0.995725
41
3.1415867987545
42
-1.62293299150808
0
ELLIPSE
5
19D
100
AcDbEntity
8
1
62
256
6
ByLayer
370
13
48
1
60
0
100
AcDbEllipse
10
118.015434
20
6.209572
30
0
11
0.0811207321765604
21
-1.54787577886959
31
0
210
0
220
0
230
1
40
0.995725
41
-1.62293299150808
42
0
0
ELLIPSE
5
19E
100
AcDbEntity
8
1
62
256
6
ByLayer
370
13
48
1
60
0
100
AcDbEllipse
10
117.992373
20
6.208363
30
0
11
-0.0414082085794103
21
0.790115687897819
31
0
210
0
220
0
230
1
40
0.995725
41
-3.03608720020582
42
-2.0943951023932
0
ELLIPSE
5
19F
100
AcDbEntity
8
1
62
256
6
ByLayer
370
13
48
1
60
0
100
AcDbEllipse
10
117.944587
20
7.120162
30
0
11
-0.240336834257695
21
-0.0125955197628465
31
0
210
0
220
0
230
1
40
0.506302
41
0.339146065053155
42
1.5707963267949
0
ELLIPSE
5
1A0
100
AcDbEntity
8
1
62
256
6
ByLayer
370
13
48
1
60
0
100
AcDbEllipse
10
117.992373
20
6.208363
30
0
11
0.0414082085794159
21
-0.790115687897819
31
0
210
0
220
0
230
1
40
0.995725
41
-3.14159265358978
42
-2.34312059445259
0
ELLIPSE
5
1A1
100
AcDbEntity
8
1
62
256
6
ByLayer
370
13
48
1
60
0
100
AcDbEllipse
10
117.579738
20
5.394798
30
0
11
-0.214323340834713
21
0.110049228609652
31
0
210
0
220
0
230
1
40
0.505213
41
2.43642482912274
42
-2.94403294056807
0
ELLIPSE
5
1A2
100
AcDbEntity
8
1
62
256
6
ByLayer
370
13
48
1
60
0
100
AcDbEllipse
10
117.992373
20
6.208363
30
0
11
0.0414082085794159
21
-0.790115687897819
31
0
210
0
220
0
230
1
40
0.995725
41
-0.778411789590715
42
0
0
ELLIPSE
5
1A3
100
AcDbEntity
8
1
62
256
6
ByLayer
370
13
48
1
60
0
100
AcDbEllipse
10
118.80253
20
5.79367
30
0
11
-0.108943016668598
21
-0.215466862385965
31
0
210
0
220
0
230
1
40
0.503053
41
-2.80494555002159
42
-1.57329528827021
0
ELLIPSE
5
1A4
100
AcDbEntity
8
1
62
256
6
ByLayer
370
13
48
1
60
0
100
AcDbEllipse
10
118.080004
20
6.212956
30
0
11
0.0541703315092572
21
-1.03363149994772
31
0
210
0
220
0
230
1
40
0.995725
41
-0.523598775598281
42
0.523598775598298
0
ELLIPSE
5
1A5
100
AcDbEntity
8
1
62
256
6
ByLayer
370
13
48
1
60
0
100
AcDbEllipse
10
118.064535
20
6.212145
30
0
11
0.0811207321765604
21
-1.54787577886959
31
0
210
0
220
0
230
1
40
0.995725
41
0
42
6.28318530717959
0
ELLIPSE
5
1A6
100
AcDbEntity
8
1
62
256
6
ByLayer
370
13
48
1
60
0
100
AcDbEllipse
10
118.754745
20
6.705469
30
0
11
-0.13086863543418
21
0.202898866255097
31
0
210
0
220
0
230
1
40
0.503053
41
0.341645026538833
42
1.57329528828408
0
ELLIPSE
5
1A7
100
AcDbEntity
8
1
62
256
6
ByLayer
370
13
48
1
60
0
100
AcDbEllipse
10
118.900422
20
6.255952
30
0
11
-0.0126496006239249
21
0.241368758550186
31
0
210
0
220
0
230
1
40
0.501982
41
-2.88888761101849
42
-0.55455622496268
0
ELLIPSE
5
1A8
100
AcDbEntity
8
1
62
256
6
ByLayer
370
13
48
1
60
0
100
AcDbEllipse
10
118.080004
20
6.212956
30
0
11
0.0541703315092572
21
-1.03363149994772
31
0
210
0
220
0
230
1
40
0.995725
41
-1.5707963267949
42
-0.523598775598281
0
ELLIPSE
5
1A9
100
AcDbEntity
8
1
62
256
6
ByLayer
370
13
48
1
60
0
100
AcDbEllipse
10
118.80253
20
5.79367
30
0
11
-0.108943016666074
21
-0.215466862386745
31
0
210
0
220
0
230
1
40
0.503053
41
-1.57329528829334
42
-0.341645026540133
0
ELLIPSE
5
1AA
100
AcDbEntity
8
1
62
256
6
ByLayer
370
13
48
1
60
0
100
AcDbEllipse
10
118.487788
20
5.442387
30
0
11
-0.201645978398229
21
-0.131849256880531
31
0
210
0
220
0
230
1
40
0.505213
41
0.601424803179847
42
-2.94906700001429
0
ELLIPSE
5
1AB
100
AcDbEntity
8
1
62
256
6
ByLayer
370
13
48
1
60
0
100
AcDbEllipse
10
117.496958
20
6.974339
30
0
11
-0.201645978398235
21
-0.131849256880534
31
0
210
0
220
0
230
1
40
0.505213
41
2.94403294056811
42
-2.5401625448461
0
ELLIPSE
5
1AC
100
AcDbEntity
8
1
62
256
6
ByLayer
370
13
48
1
60
0
100
AcDbEllipse
10
118.405007
20
7.021928
30
0
11
-0.214323340834721
21
0.110049228609662
31
0
210
0
220
0
230
1
40
0.505213
41
2.94906700001369
42
-0.705168385471224
0
ELLIPSE
5
1AD
100
AcDbEntity
8
1
62
256
6
ByLayer
370
13
48
1
60
0
100
AcDbEllipse
10
117.992373
20
6.208363
30
0
11
0.0414082085794159
21
-0.790115687897819
31
0
210
0
220
0
230
1
40
0.995725
41
2.0943951023932
42
-3.14159265358978
0
ELLIPSE
5
1AE
100
AcDbEntity
8
1
62
256
6
ByLayer
370
13
48
1
60
0
100
AcDbEllipse
10
117.992373
20
6.208363
30
0
11
0.0414082085794159
21
-0.790115687897819
31
0
210
0
220
0
230
1
40
0.995725
41
1.0471975511966
42
2.0943951023932
0
ELLIPSE
5
1AF
100
AcDbEntity
8
1
62
256
6
ByLayer
370
13
48
1
60
0
100
AcDbEllipse
10
117.992373
20
6.208363
30
0
11
0.0414082085794159
21
-0.790115687897819
31
0
210
0
220
0
230
1
40
0.995725
41
-1.89951813695372
42
-1.22654676685741
0
ELLIPSE
5
1B0
100
AcDbEntity
8
1
62
256
6
ByLayer
370
13
48
1
60
0
100
AcDbEllipse
10
118.080004
20
6.212956
30
0
11
0.0541703315092572
21
-1.03363149994772
31
0
210
0
220
0
230
1
40
0.995725
41
2.61799387799149
42
-2.61799387799151
0
ELLIPSE
5
1B1
100
AcDbEntity
8
1
62
256
6
ByLayer
370
13
48
1
60
0
100
AcDbEllipse
10
118.080004
20
6.212956
30
0
11
0.0541703315092572
21
-1.03363149994772
31
0
210
0
220
0
230
1
40
0.995725
41
0.523598775598299
42
1.5707963267949
0
ELLIPSE
5
1B2
100
AcDbEntity
8
1
62
256
6
ByLayer
370
13
48
1
60
0
100
AcDbEllipse
10
119.297345
20
-2.061575
30
0
11
-0.75
21
7.57979291311772E-16
31
0
210
0
220
0
230
1
40
0.992674
41
0
42
6.28318530717959
0
ELLIPSE
5
1B3
100
AcDbEntity
8
1
62
256
6
ByLayer
370
13
48
1
60
0
100
AcDbEllipse
10
119.297345
20
-2.09706
30
0
11
-1.1
21
1.1117029605906E-15
31
0
210
0
220
0
230
1
40
0.992674
41
-2.86032165740577
42
-4.06696925173883E-16
0
ELLIPSE
5
1B4
100
AcDbEntity
8
1
62
256
6
ByLayer
370
18
48
1
60
0
100
AcDbEllipse
10
119.297345
20
-2.632468
30
0
11
-1.25
21
1.26329881885295E-15
31
0
210
0
220
0
230
1
40
0.992674
41
-0.497352997991244
42
-0.351269134870192
0
ELLIPSE
5
1B5
100
AcDbEntity
8
1
62
256
6
ByLayer
370
18
48
1
60
0
100
AcDbEllipse
10
119.297345
20
-2.541694
30
0
11
-1.25
21
1.26329881885295E-15
31
0
210
0
220
0
230
1
40
0.992674
41
-0.516595848402375
42
-0.293248524676276
0
ELLIPSE
5
1B6
100
AcDbEntity
8
1
62
256
6
ByLayer
370
13
48
1
60
0
100
AcDbEllipse
10
114.940724
20
3.211798
30
0
11
0.00523359562429438
21
-0.0998629534754605
31
0
210
0
220
0
230
1
40
0.995725
41
0.681851009804208
42
1.67551608191461
0
ELLIPSE
5
1B7
100
AcDbEntity
8
1
62
256
6
ByLayer
370
13
48
1
60
0
100
AcDbEllipse
10
121.08906
20
3.801299
30
0
11
-0.0991544576165245
21
0.0129766534504414
31
0
210
0
220
0
230
1
40
0.016833
41
3.14144809811138
42
-1.66175841710562
0
ELLIPSE
5
1B8
100
AcDbEntity
8
1
62
256
6
ByLayer
370
13
48
1
60
0
100
AcDbEllipse
10
114.819189
20
8.621458
30
0
11
-0.04358520651642
21
-0.158111345862357
31
0
210
0
220
0
230
1
40
0.080185
41
-3.1149071453352
42
-1.54411081852851
0
ELLIPSE
5
1B9
100
AcDbEntity
8
1
62
256
6
ByLayer
370
13
48
1
60
0
100
AcDbEllipse
10
118.037048
20
6.210705
30
0
11
0.0855426305566229
21
-1.63225062627881
31
0
210
0
220
0
230
1
40
0.995725
41
-0.853733178408453
42
0
0
ELLIPSE
5
1BA
100
AcDbEntity
8
1
62
256
6
ByLayer
370
13
48
1
60
0
100
AcDbEllipse
10
118.037048
20
6.210705
30
0
11
0.0855426305566229
21
-1.63225062627881
31
0
210
0
220
0
230
1
40
0.995725
41
0
42
-2.28787052676348
0
ELLIPSE
5
1BB
100
AcDbEntity
8
1
62
256
6
ByLayer
370
13
48
1
60
0
100
AcDbEllipse
10
121.761224
20
7.790654
30
0
11
0.0994383168615901
21
-1.89739611603369
31
0
210
0
220
0
230
1
40
0.995725
41
3.10590021439813
42
3.1328660073299
0
ELLIPSE
5
1BC
100
AcDbEntity
8
1
62
256
6
ByLayer
370
13
48
1
60
0
100
AcDbEllipse
10
114.266956
20
11.633491
30
0
11
-0.457939617125683
21
8.73800842910253
31
0
210
0
220
0
230
1
40
0.995725
41
3.07256533766189
42
3.10590021439803
0
ELLIPSE
5
1BD
100
AcDbEntity
8
1
62
256
6
ByLayer
370
13
48
1
60
0
100
AcDbEllipse
10
122.366164
20
3.967064
30
0
11
-0.0436352238356023
21
-0.25615713181785
31
0
210
0
220
0
230
1
40
0.958209
41
0.305044217485341
42
1.61107014525733
0
ELLIPSE
5
1BE
100
AcDbEntity
8
1
62
256
6
ByLayer
370
13
48
1
60
0
100
AcDbEllipse
10
122.259369
20
9.329182
30
0
11
0.148163665863161
21
0.0233993187505415
31
0
210
0
220
0
230
1
40
0.009655
41
0.0919985744698924
42
1.66279490126857
0
ELLIPSE
5
1BF
100
AcDbEntity
8
1
62
256
6
ByLayer
370
13
48
1
60
0
100
AcDbEllipse
10
114.578632
20
2.941485
30
0
11
0.0104671912485883
21
-0.199725906950912
31
0
210
0
220
0
230
1
40
0.995725
41
0.0113995454448949
42
0.948264232193911
0
ELLIPSE
5
1C0
100
AcDbEntity
8
1
62
256
6
ByLayer
370
13
48
1
60
0
100
AcDbEllipse
10
121.047632
20
9.052133
30
0
11
-0.0554263173694344
21
0.0832341476971005
31
0
210
0
220
0
230
1
40
0.079546
41
-1.6179174222715
42
-0.0471210954766254
0
ELLIPSE
5
1C1
100
AcDbEntity
8
1
62
256
6
ByLayer
370
13
48
1
60
0
100
AcDbEllipse
10
121.373274
20
9.448277
30
0
11
-0.393028439387446
21
-0.302859451947819
31
0
210
0
220
0
230
1
40
0.479615
41
-2.21479145068017
42
-1.58610255774069
0
ELLIPSE
5
1C2
100
AcDbEntity
8
1
62
256
6
ByLayer
370
13
48
1
60
0
100
AcDbEllipse
10
121.08906
20
3.801299
30
0
11
0.0315451332107833
21
0.0948941756416796
31
0
210
0
220
0
230
1
40
0.086058
41
-3.10790031584621
42
-1.53710398905407
0
ELLIPSE
5
1C3
100
AcDbEntity
8
1
62
256
6
ByLayer
370
13
48
1
60
0
100
AcDbEllipse
10
115.33115
20
5.905198
30
0
11
-0.0314015737457611
21
0.599177720852745
31
0
210
0
220
0
230
1
40
0.995725
41
1.3875367553355
42
1.67551608191457
0
ELLIPSE
5
1C4
100
AcDbEntity
8
1
62
256
6
ByLayer
370
13
48
1
60
0
100
AcDbEllipse
10
121.534588
20
9.51117
30
0
11
0.12643516018392
21
-0.0807102860189853
31
0
210
0
220
0
230
1
40
0.053861
41
-2.90515367206485
42
-1.64601862314121
0
ELLIPSE
5
1C5
100
AcDbEntity
8
1
62
256
6
ByLayer
370
13
48
1
60
0
100
AcDbEllipse
10
122.44752
20
6.541985
30
0
11
0.020934382497177
21
-0.399451813901833
31
0
210
0
220
0
230
1
40
0.995725
41
1.38753675533537
42
1.67551608191451
0
ELLIPSE
5
1C6
100
AcDbEntity
8
1
62
256
6
ByLayer
370
13
48
1
60
0
100
AcDbEllipse
10
121.742775
20
7.789687
30
0
11
-0.0915879234251363
21
1.7476016858205
31
0
210
0
220
0
230
1
40
0.995725
41
-0.0356924391917548
42
-0.00872664625998709
0
ELLIPSE
5
1C7
100
AcDbEntity
8
1
62
256
6
ByLayer
370
13
48
1
60
0
100
AcDbEllipse
10
114.481387
20
5.771692
30
0
11
-0.148163665863161
21
-0.0233993187505441
31
0
210
0
220
0
230
1
40
0.009655
41
-3.04959407911743
42
-1.47879775232081
0
ELLIPSE
5
1C8
100
AcDbEntity
8
1
62
256
6
ByLayer
370
13
48
1
60
0
100
AcDbEllipse
10
120.444112
20
2.256261
30
0
11
-0.0732703387401094
21
1.3980813486564
31
0
210
0
220
0
230
1
40
0.995725
41
-0.901238604216687
42
-0.897555942335501
0
ELLIPSE
5
1C9
100
AcDbEntity
8
1
62
256
6
ByLayer
370
13
48
1
60
0
100
AcDbEllipse
10
113.798198
20
8.459076
30
0
11
-0.0436352238545273
21
-0.256157131812651
31
0
210
0
220
0
230
1
40
0.958209
41
-2.83654843603361
42
-1.53052250825334
0
ELLIPSE
5
1CA
100
AcDbEntity
8
1
62
256
6
ByLayer
370
13
48
1
60
0
100
AcDbEllipse
10
121.676984
20
6.41005
30
0
11
0.148731686424787
21
-0.0194649801756601
31
0
210
0
220
0
230
1
40
0.016833
41
3.05063056327992
42
-1.66175841710557
0
ELLIPSE
5
1CB
100
AcDbEntity
8
1
62
256
6
ByLayer
370
13
48
1
60
0
100
AcDbEllipse
10
121.434785
20
6.442978
30
0
11
0.0991544576165246
21
-0.0129766534504403
31
0
210
0
220
0
230
1
40
0.016833
41
-0.000144555461525762
42
1.47983423648446
0
ELLIPSE
5
1CC
100
AcDbEntity
8
1
62
256
6
ByLayer
370
13
48
1
60
0
100
AcDbEllipse
10
122.694331
20
6.509298
30
0
11
0.148731686424787
21
-0.0194649801756601
31
0
210
0
220
0
230
1
40
0.016833
41
-1.66175841710557
42
-0.090962090310219
0
ELLIPSE
5
1CD
100
AcDbEntity
8
1
62
256
6
ByLayer
370
13
48
1
60
0
100
AcDbEllipse
10
117.953696
20
8.664705
30
0
11
0.00523359562429422
21
-0.0998629534754574
31
0
210
0
220
0
230
1
40
0.092371
41
1.5707963267949
42
3.14159265358979
0
ELLIPSE
5
1CE
100
AcDbEntity
8
1
62
256
6
ByLayer
370
13
48
1
60
0
100
AcDbEllipse
10
120.582478
20
2.263513
30
0
11
-0.0732703387401094
21
1.3980813486564
31
0
210
0
220
0
230
1
40
0.995725
41
-0.496200779837521
42
9.11105791667369E-14
0
ELLIPSE
5
1CF
100
AcDbEntity
8
1
62
256
6
ByLayer
370
13
48
1
60
0
100
AcDbEllipse
10
114.403138
20
4.635486
30
0
11
0.0994383168615901
21
-1.89739611603369
31
0
210
0
220
0
230
1
40
0.995725
41
-0.0356924391918669
42
-0.00872664626007187
0
ELLIPSE
5
1D0
100
AcDbEntity
8
1
62
256
6
ByLayer
370
13
48
1
60
0
100
AcDbEllipse
10
120.137491
20
10.401376
30
0
11
0.0863543278008542
21
-1.64773873234504
31
0
210
0
220
0
230
1
40
0.995725
41
0.698370805678866
42
0.948264232193969
0
ELLIPSE
5
1D1
100
AcDbEntity
8
1
62
256
6
ByLayer
370
13
48
1
60
0
100
AcDbEllipse
10
121.432502
20
6.615153
30
0
11
0.0987757772421076
21
0.0155995458336943
31
0
210
0
220
0
230
1
40
0.009655
41
-1.47879775232099
42
0.000129454972680298
0
ELLIPSE
5
1D2
100
AcDbEntity
8
1
62
256
6
ByLayer
370
13
48
1
60
0
100
AcDbEllipse
10
115.18199
20
10.14167
30
0
11
-1.38057267989176
21
0.959665598842385
31
0
210
0
220
0
230
1
40
0.713274
41
1.49691563335594
42
1.90195345772731
0
ELLIPSE
5
1D3
100
AcDbEntity
8
1
62
256
6
ByLayer
370
13
48
1
60
0
100
AcDbEllipse
10
114.194214
20
9.072038
30
0
11
-0.422532821576473
21
0.260117697396897
31
0
210
0
220
0
230
1
40
0.479615
41
-1.55549009584199
42
-0.926801202911516
0
ELLIPSE
5
1D4
100
AcDbEntity
8
1
62
256
6
ByLayer
370
13
48
1
60
0
100
AcDbEllipse
10
120.666178
20
10.429084
30
0
11
-1.60310752571505
21
-1.23532096476106
31
0
210
0
220
0
230
1
40
0.479615
41
1.50478180422819
42
1.55549008862741
0
ELLIPSE
5
1D5
100
AcDbEntity
8
1
62
256
6
ByLayer
370
13
48
1
60
0
100
AcDbEllipse
10
122.433683
20
6.54126
30
0
11
-0.013083989060734
21
0.249657383688647
31
0
210
0
220
0
230
1
40
0.995725
41
-1.75405589825443
42
-1.46607657167526
0
ELLIPSE
5
1D6
100
AcDbEntity
8
1
62
256
6
ByLayer
370
13
48
1
60
0
100
AcDbEllipse
10
114.881773
20
8.680944
30
0
11
0.00523359562429432
21
-0.0998629534754594
31
0
210
0
220
0
230
1
40
0.995725
41
1.38753675533563
42
-3.04559954473031
0
ELLIPSE
5
1D7
100
AcDbEntity
8
1
62
256
6
ByLayer
370
13
48
1
60
0
100
AcDbEllipse
10
113.71223
20
5.883913
30
0
11
0.020934382497177
21
-0.399451813901833
31
0
210
0
220
0
230
1
40
0.995725
41
-1.75405589825449
42
-1.46607657167536
0
ELLIPSE
5
1D8
100
AcDbEntity
8
1
62
256
6
ByLayer
370
13
48
1
60
0
100
AcDbEllipse
10
116.00381
20
2.023555
30
0
11
-0.0785039343644027
21
1.49794430213186
31
0
210
0
220
0
230
1
40
0.995725
41
0.68185100980449
42
0.948264232193961
0
ELLIPSE
5
1D9
100
AcDbEntity
8
1
62
256
6
ByLayer
370
13
48
1
60
0
100
AcDbEllipse
10
115.116729
20
3.374007
30
0
11
0.00523359562429422
21
-0.0998629534754574
31
0
210
0
220
0
230
1
40
0.995725
41
-1.46607657167532
42
-1.22376086542447E-05
0
ELLIPSE
5
1DA
100
AcDbEntity
8
1
62
256
6
ByLayer
370
13
48
1
60
0
100
AcDbEllipse
10
113.693781
20
5.882946
30
0
11
-0.013083989060734
21
0.249657383688647
31
0
210
0
220
0
230
1
40
0.995725
41
1.38753675533542
42
1.67551608191453
0
ELLIPSE
5
1DB
100
AcDbEntity
8
1
62
256
6
ByLayer
370
13
48
1
60
0
100
AcDbEllipse
10
114.547
20
2.965071
30
0
11
0.0179634425224119
21
-0.342762902152301
31
0
210
0
220
0
230
1
40
0.995725
41
0.319575339230833
42
0.948264232193973
0
ELLIPSE
5
1DC
100
AcDbEntity
8
1
62
256
6
ByLayer
370
13
48
1
60
0
100
AcDbEllipse
10
121.999672
20
9.289403
30
0
11
-0.0130839890607334
21
0.249657383688636
31
0
210
0
220
0
230
1
40
0.995725
41
-1.46607657167526
42
-0.0690273159278095
0
ELLIPSE
5
1DD
100
AcDbEntity
8
1
62
256
6
ByLayer
370
13
48
1
60
0
100
AcDbEllipse
10
114.819189
20
8.621458
30
0
11
-0.157303252991728
21
-0.046073144419517
31
0
210
0
220
0
230
1
40
0.019548
41
-3.05924451048929
42
-1.48844818372731
0
ELLIPSE
5
1DE
100
AcDbEntity
8
1
62
256
6
ByLayer
370
13
48
1
60
0
100
AcDbEllipse
10
115.989973
20
2.02283
30
0
11
0.0863543278008542
21
-1.64773873234504
31
0
210
0
220
0
230
1
40
0.995725
41
-2.44322184791094
42
-2.19332842139582
0
ELLIPSE
5
1DF
100
AcDbEntity
8
1
62
256
6
ByLayer
370
13
48
1
60
0
100
AcDbEllipse
10
121.562669
20
9.483446
30
0
11
-0.00261679781214662
21
0.0499314767377261
31
0
210
0
220
0
230
1
40
0.995725
41
-0.00872664626012818
42
0.948264232193809
0
ELLIPSE
5
1E0
100
AcDbEntity
8
1
62
256
6
ByLayer
370
13
48
1
60
0
100
AcDbEllipse
10
122.365012
20
3.957974
30
0
11
0.00785039343644143
21
-0.149794430213188
31
0
210
0
220
0
230
1
40
0.995725
41
0.0959931088589512
42
1.38753675533558
0
ELLIPSE
5
1E1
100
AcDbEntity
8
1
62
256
6
ByLayer
370
13
48
1
60
0
100
AcDbEllipse
10
114.427959
20
2.885501
30
0
11
0.00247703513347986
21
-0.149979546261974
31
0
210
0
220
0
230
1
40
0.092312
41
-1.56748595439539
42
-0.0473509076689965
0
ELLIPSE
5
1E2
100
AcDbEntity
8
1
62
256
6
ByLayer
370
13
48
1
60
0
100
AcDbEllipse
10
114.137536
20
2.885566
30
0
11
-0.0025443087031605
21
-0.149978420091769
31
0
210
0
220
0
230
1
40
0.092151
41
-1.56439802758329
42
-0.0696307375421683
0
ELLIPSE
5
1E3
100
AcDbEntity
8
1
62
256
6
ByLayer
370
13
48
1
60
0
100
AcDbEllipse
10
121.581117
20
9.484413
30
0
11
0.0104671912485883
21
-0.199725906950912
31
0
210
0
220
0
230
1
40
0.995725
41
3.13286600733002
42
-2.19332842139571
0
ELLIPSE
5
1E4
100
AcDbEntity
8
1
62
256
6
ByLayer
370
13
48
1
60
0
100
AcDbEllipse
10
115.303477
20
5.903747
30
0
11
0.0444855628065009
21
-0.848835104541388
31
0
210
0
220
0
230
1
40
0.995725
41
-1.7540558982543
42
-1.46607657167522
0
ELLIPSE
5
1E5
100
AcDbEntity
8
1
62
256
6
ByLayer
370
13
48
1
60
0
100
AcDbEllipse
10
121.08906
20
3.801299
30
0
11
0.00523359562429422
21
-0.0998629534754574
31
0
210
0
220
0
230
1
40
0.995725
41
-0.37183953075526
42
1.88673430780634E-05
0
ELLIPSE
5
1E6
100
AcDbEntity
8
1
62
256
6
ByLayer
370
13
48
1
60
0
100
AcDbEllipse
10
114.384689
20
4.634519
30
0
11
-0.0915879234251363
21
1.7476016858205
31
0
210
0
220
0
230
1
40
0.995725
41
3.10590021439802
42
3.13286600732981
0
ELLIPSE
5
1E7
100
AcDbEntity
8
1
62
256
6
ByLayer
370
13
48
1
60
0
100
AcDbEllipse
10
115.581884
20
10.162627
30
0
11
-0.0732703387401094
21
1.3980813486564
31
0
210
0
220
0
230
1
40
0.995725
41
2.64539187375207
42
3.14159265358968
0
ELLIPSE
5
1E8
100
AcDbEntity
8
1
62
256
6
ByLayer
370
13
48
1
60
0
100
AcDbEllipse
10
118.014179
20
6.209506
30
0
11
0.0810185496332995
21
-1.54592601979453
31
0
210
0
220
0
230
1
40
0.995725
41
-2.90578250564739
42
-1.62293306778969
0
ELLIPSE
5
1E9
100
AcDbEntity
8
1
62
256
6
ByLayer
370
13
48
1
60
0
100
AcDbEllipse
10
118.014179
20
6.209506
30
0
11
0.0810185496332995
21
-1.54592601979453
31
0
210
0
220
0
230
1
40
0.995725
41
-1.62293306778968
42
-0.0763856142116226
0
ELLIPSE
5
1EA
100
AcDbEntity
8
1
62
256
6
ByLayer
370
13
48
1
60
0
100
AcDbEllipse
10
115.075302
20
8.624841
30
0
11
0.0991544576165246
21
-0.0129766534504403
31
0
210
0
220
0
230
1
40
0.016833
41
1.47983423648446
42
3.05063056328134
0
ELLIPSE
5
1EB
100
AcDbEntity
8
1
62
256
6
ByLayer
370
13
48
1
60
0
100
AcDbEllipse
10
118.091405
20
6.213553
30
0
11
0.0876992016580916
21
-1.67340045424274
31
0
210
0
220
0
230
1
40
0.995725
41
0
42
6.28318530717959
0
ELLIPSE
5
1EC
100
AcDbEntity
8
1
62
256
6
ByLayer
370
13
48
1
60
0
100
AcDbEllipse
10
121.047632
20
9.052133
30
0
11
-0.0987757772421074
21
-0.0155995458336961
31
0
210
0
220
0
230
1
40
0.009655
41
1.66279490126427
42
-3.14146319909455
0
ELLIPSE
5
1ED
100
AcDbEntity
8
1
62
256
6
ByLayer
370
13
48
1
60
0
100
AcDbEllipse
10
113.79935
20
8.468165
30
0
11
0.00785039343644143
21
-0.149794430213188
31
0
210
0
220
0
230
1
40
0.995725
41
-3.04559954473103
42
-1.75405589825431
0
ELLIPSE
5
1EE
100
AcDbEntity
8
1
62
256
6
ByLayer
370
13
48
1
60
0
100
AcDbEllipse
10
122.3604
20
3.957733
30
0
11
0.148731686424787
21
-0.0194649801756601
31
0
210
0
220
0
230
1
40
0.016833
41
-1.66175841710557
42
-0.0909620903096935
0
ELLIPSE
5
1EF
100
AcDbEntity
8
1
62
256
6
ByLayer
370
13
48
1
60
0
100
AcDbEllipse
10
113.460806
20
5.916358
30
0
11
-0.148731686424787
21
0.0194649801756622
31
0
210
0
220
0
230
1
40
0.016833
41
-0.0909620903105779
42
1.47983423648422
0
ELLIPSE
5
1F0
100
AcDbEntity
8
1
62
256
6
ByLayer
370
13
48
1
60
0
100
AcDbEllipse
10
114.73186
20
5.810987
30
0
11
-0.0987757772421074
21
-0.0155995458336961
31
0
210
0
220
0
230
1
40
0.009655
41
0.0919985744772859
42
1.66279490126824
0
ELLIPSE
5
1F1
100
AcDbEntity
8
1
62
256
6
ByLayer
370
13
48
1
60
0
100
AcDbEllipse
10
120.305746
20
2.24901
30
0
11
0.0732703387401189
21
-1.3980813486564
31
0
210
0
220
0
230
1
40
0.995725
41
2.1933284213959
42
-3.14159265358969
0
ELLIPSE
5
1F2
100
AcDbEntity
8
1
62
256
6
ByLayer
370
13
48
1
60
0
100
AcDbEllipse
10
116.008422
20
2.023796
30
0
11
-0.0732703387401091
21
1.3980813486564
31
0
210
0
220
0
230
1
40
0.995725
41
0
42
0.948264232193869
0
ELLIPSE
5
1F3
100
AcDbEntity
8
1
62
256
6
ByLayer
370
13
48
1
60
0
100
AcDbEllipse
10
114.936112
20
3.211556
30
0
11
0.00523359562429438
21
-0.0998629534754605
31
0
210
0
220
0
230
1
40
0.995725
41
0.681851009804226
42
1.67551608191418
0
ELLIPSE
5
1F4
100
AcDbEntity
8
1
62
256
6
ByLayer
370
13
48
1
60
0
100
AcDbEllipse
10
115.116729
20
3.374007
30
0
11
0.0554263173694329
21
-0.0832341476971015
31
0
210
0
220
0
230
1
40
0.079546
41
7.03908619338774E-06
42
1.52367523131844
0
ELLIPSE
5
1F5
100
AcDbEntity
8
1
62
256
6
ByLayer
370
13
48
1
60
0
100
AcDbEllipse
10
122.013508
20
9.290129
30
0
11
0.0209343824971765
21
-0.399451813901822
31
0
210
0
220
0
230
1
40
0.995725
41
1.67551608191455
42
3.07256533766189
0
ELLIPSE
5
1F6
100
AcDbEntity
8
1
62
256
6
ByLayer
370
13
48
1
60
0
100
AcDbEllipse
10
113.794738
20
8.467924
30
0
11
-0.148731686424787
21
0.0194649801756622
31
0
210
0
220
0
230
1
40
0.016833
41
0.263130755736533
42
1.47983423648428
0
ELLIPSE
5
1F7
100
AcDbEntity
8
1
62
256
6
ByLayer
370
13
48
1
60
0
100
AcDbEllipse
10
115.321925
20
5.904714
30
0
11
0.0366351693700595
21
-0.699040674328202
31
0
210
0
220
0
230
1
40
0.995725
41
-1.75405589825429
42
-1.46607657167524
0
ELLIPSE
5
1F8
100
AcDbEntity
8
1
62
256
6
ByLayer
370
13
48
1
60
0
100
AcDbEllipse
10
121.878957
20
0.791682
30
0
11
0.465790010562185
21
-8.88780285931571
31
0
210
0
220
0
230
1
40
0.995725
41
3.07256533766199
42
3.10590021439813
0
ELLIPSE
5
1F9
100
AcDbEntity
8
1
62
256
6
ByLayer
370
13
48
1
60
0
100
AcDbEllipse
10
121.335948
20
3.804198
30
0
11
-0.0435852065157935
21
-0.15811134586119
31
0
210
0
220
0
230
1
40
0.080185
41
-1.54411081855387
42
0.0266855082582135
0
ELLIPSE
5
1FA
100
AcDbEntity
8
1
62
256
6
ByLayer
370
13
48
1
60
0
100
AcDbEllipse
10
114.580815
20
2.891532
30
0
11
0.00653729335064122
21
-0.149857478277354
31
0
210
0
220
0
230
1
40
0.092367
41
-1.56998679074968
42
-0.0232440763765839
0
ELLIPSE
5
1FB
100
AcDbEntity
8
1
62
256
6
ByLayer
370
13
48
1
60
0
100
AcDbEllipse
10
114.877161
20
8.680702
30
0
11
0.00523359562429432
21
-0.0998629534754594
31
0
210
0
220
0
230
1
40
0.995725
41
1.38753675533577
42
3.14158141713651
0
ELLIPSE
5
1FC
100
AcDbEntity
8
1
62
256
6
ByLayer
370
13
48
1
60
0
100
AcDbEllipse
10
120.842437
20
6.521426
30
0
11
0.0366351693700595
21
-0.699040674328202
31
0
210
0
220
0
230
1
40
0.995725
41
1.3875367553355
42
1.67551608191457
0
ELLIPSE
5
1FD
100
AcDbEntity
8
1
62
256
6
ByLayer
370
13
48
1
60
0
100
AcDbEllipse
10
121.680212
20
9.538743
30
0
11
-0.00653729335064154
21
0.149857478277354
31
0
210
0
220
0
230
1
40
0.092367
41
0.000809536045656119
42
1.57160586284012
0
ELLIPSE
5
1FE
100
AcDbEntity
8
1
62
256
6
ByLayer
370
13
48
1
60
0
100
AcDbEllipse
10
115.075302
20
8.624841
30
0
11
-0.0315451332107752
21
-0.0948941756416823
31
0
210
0
220
0
230
1
40
0.086058
41
1.60448866453572
42
-3.10790031584951
0
ELLIPSE
5
1FF
100
AcDbEntity
8
1
62
256
6
ByLayer
370
13
48
1
60
0
100
AcDbEllipse
10
114.794913
20
10.121383
30
0
11
-1.72345119085186
21
1.0609830060606
31
0
210
0
220
0
230
1
40
0.479615
41
1.58610253587014
42
1.6368108368266
0
ELLIPSE
5
200
100
AcDbEntity
8
1
62
256
6
ByLayer
370
13
48
1
60
0
100
AcDbEllipse
10
115.116729
20
3.374007
30
0
11
0.0987757772421076
21
0.0155995458336943
31
0
210
0
220
0
230
1
40
0.009655
41
-3.04959407912129
42
-1.47879775231632
0
ELLIPSE
5
201
100
AcDbEntity
8
1
62
256
6
ByLayer
370
13
48
1
60
0
100
AcDbEllipse
10
113.895769
20
3.096475
30
0
11
-0.148163665863161
21
-0.0233993187505441
31
0
210
0
220
0
230
1
40
0.009655
41
-1.47879775232126
42
0.0919985744726666
0
ELLIPSE
5
202
100
AcDbEntity
8
1
62
256
6
ByLayer
370
13
48
1
60
0
100
AcDbEllipse
10
121.874345
20
0.79144
30
0
11
0.465790010562185
21
-8.88780285931571
31
0
210
0
220
0
230
1
40
0.995725
41
3.0725653376619
42
3.10590021439804
0
ELLIPSE
5
203
100
AcDbEntity
8
1
62
256
6
ByLayer
370
13
48
1
60
0
100
AcDbEllipse
10
114.583245
20
2.941726
30
0
11
0.0104671912485883
21
-0.199725906950912
31
0
210
0
220
0
230
1
40
0.995725
41
-0.00872664625998484
42
0.948264232193912
0
ELLIPSE
5
204
100
AcDbEntity
8
1
62
256
6
ByLayer
370
13
48
1
60
0
100
AcDbEllipse
10
121.335948
20
3.804198
30
0
11
-0.157303252987888
21
-0.0460731444183071
31
0
210
0
220
0
230
1
40
0.019548
41
-1.48844818369447
42
0.0823481430975323
0
ELLIPSE
5
205
100
AcDbEntity
8
1
62
256
6
ByLayer
370
13
48
1
60
0
100
AcDbEllipse
10
120.15594
20
10.402343
30
0
11
-0.0785039343644027
21
1.49794430213186
31
0
210
0
220
0
230
1
40
0.995725
41
-2.4597416437852
42
-2.19332842139573
0
ELLIPSE
5
206
100
AcDbEntity
8
1
62
256
6
ByLayer
370
13
48
1
60
0
100
AcDbEllipse
10
116.008422
20
2.023796
30
0
11
-0.0785039343644027
21
1.49794430213186
31
0
210
0
220
0
230
1
40
0.995725
41
0.68185100980441
42
0.948264232193868
0
ELLIPSE
5
207
100
AcDbEntity
8
1
62
256
6
ByLayer
370
13
48
1
60
0
100
AcDbEllipse
10
114.620549
20
2.914487
30
0
11
-0.126435160183924
21
0.0807102860189802
31
0
210
0
220
0
230
1
40
0.053861
41
1.49557403044867
42
3.06637035724177
0
ELLIPSE
5
208
100
AcDbEntity
8
1
62
256
6
ByLayer
370
13
48
1
60
0
100
AcDbEllipse
10
114.729577
20
5.983162
30
0
11
-0.0991544576165245
21
0.0129766534504414
31
0
210
0
220
0
230
1
40
0.016833
41
-1.66175841710576
42
-0.0909620903105779
0
ELLIPSE
5
209
100
AcDbEntity
8
1
62
256
6
ByLayer
370
13
48
1
60
0
100
AcDbEllipse
10
114.146241
20
3.135769
30
0
11
0.0209343824971765
21
-0.399451813901822
31
0
210
0
220
0
230
1
40
0.995725
41
-1.46607657167535
42
-0.0690273159279321
0
ELLIPSE
5
20A
100
AcDbEntity
8
1
62
256
6
ByLayer
370
13
48
1
60
0
100
AcDbEllipse
10
122.3604
20
3.957733
30
0
11
-0.0222321776352508
21
0.148343285246062
31
0
210
0
220
0
230
1
40
0.091945
41
1.56190521945469
42
3.1327015462494
0
ELLIPSE
5
20B
100
AcDbEntity
8
1
62
256
6
ByLayer
370
13
48
1
60
0
100
AcDbEllipse
10
114.127793
20
3.134803
30
0
11
-0.0130839890607334
21
0.249657383688636
31
0
210
0
220
0
230
1
40
0.995725
41
1.67551608191453
42
3.07256533766204
0
ELLIPSE
5
20C
100
AcDbEntity
8
1
62
256
6
ByLayer
370
13
48
1
60
0
100
AcDbEllipse
10
113.740906
20
8.870371
30
0
11
-0.0436352238393452
21
-0.256157131816875
31
0
210
0
220
0
230
1
40
0.958209
41
-2.83654843609102
42
-1.53052250831741
0
ELLIPSE
5
20D
100
AcDbEntity
8
1
62
256
6
ByLayer
370
13
48
1
60
0
100
AcDbEllipse
10
121.047632
20
9.052133
30
0
11
0.00523359562429422
21
-0.0998629534754574
31
0
210
0
220
0
230
1
40
0.995725
41
3.14157742130944
42
-2.60835254622866
0
ELLIPSE
5
20E
100
AcDbEntity
8
1
62
256
6
ByLayer
370
13
48
1
60
0
100
AcDbEllipse
10
120.851661
20
6.521909
30
0
11
-0.0314015737457611
21
0.599177720852745
31
0
210
0
220
0
230
1
40
0.995725
41
-1.75405589825429
42
-1.46607657167523
0
ELLIPSE
5
20F
100
AcDbEntity
8
1
62
256
6
ByLayer
370
13
48
1
60
0
100
AcDbEllipse
10
120.017574
20
10.395092
30
0
11
0.0732703387401189
21
-1.3980813486564
31
0
210
0
220
0
230
1
40
0.995725
41
0.897555942335463
42
0.901238604216673
0
ELLIPSE
5
210
100
AcDbEntity
8
1
62
256
6
ByLayer
370
13
48
1
60
0
100
AcDbEllipse
10
121.756612
20
7.790412
30
0
11
0.0994383168615901
21
-1.89739611603369
31
0
210
0
220
0
230
1
40
0.995725
41
3.10590021439803
42
3.13286600732982
0
ELLIPSE
5
211
100
AcDbEntity
8
1
62
256
6
ByLayer
370
13
48
1
60
0
100
AcDbEllipse
10
113.779706
20
3.517067
30
0
11
-0.0701718968577758
21
0.250192753355753
31
0
210
0
220
0
230
1
40
0.958209
41
1.53052250833263
42
1.89045646709199
0
ELLIPSE
5
212
100
AcDbEntity
8
1
62
256
6
ByLayer
370
13
48
1
60
0
100
AcDbEllipse
10
122.3604
20
3.957733
30
0
11
0.00785039343644143
21
-0.149794430213188
31
0
210
0
220
0
230
1
40
0.995725
41
0.0959931088587677
42
1.38753675533548
0
ELLIPSE
5
213
100
AcDbEntity
8
1
62
256
6
ByLayer
370
13
48
1
60
0
100
AcDbEllipse
10
122.69338
20
6.581038
30
0
11
0.148163665863161
21
0.0233993187505415
31
0
210
0
220
0
230
1
40
0.009655
41
0.0919985744705118
42
1.66279490126879
0
ELLIPSE
5
214
100
AcDbEntity
8
1
62
256
6
ByLayer
370
13
48
1
60
0
100
AcDbEllipse
10
121.860508
20
0.790715
30
0
11
-0.457939617125683
21
8.73800842910253
31
0
210
0
220
0
230
1
40
0.995725
41
-0.0690273159278968
42
-0.0356924391917572
0
ELLIPSE
5
215
100
AcDbEntity
8
1
62
256
6
ByLayer
370
13
48
1
60
0
100
AcDbEllipse
10
120.182585
20
2.242555
30
0
11
-1.13371805623846
21
-1.17994814655687
31
0
210
0
220
0
230
1
40
0.704685
41
2.88504843521142
42
-2.99309904757465
0
ELLIPSE
5
216
100
AcDbEntity
8
1
62
256
6
ByLayer
370
13
48
1
60
0
100
AcDbEllipse
10
122.017601
20
9.54009
30
0
11
0.00254430870316021
21
0.149978420091769
31
0
210
0
220
0
230
1
40
0.092151
41
0.00639829921253762
42
1.57719462600651
0
ELLIPSE
5
217
100
AcDbEntity
8
1
62
256
6
ByLayer
370
13
48
1
60
0
100
AcDbEllipse
10
113.794738
20
8.467924
30
0
11
0.0222321776352624
21
-0.148343285246061
31
0
210
0
220
0
230
1
40
0.091945
41
-3.0544852985635
42
-1.57968743413492
0
ELLIPSE
5
218
100
AcDbEntity
8
1
62
256
6
ByLayer
370
13
48
1
60
0
100
AcDbEllipse
10
120.15594
20
10.402343
30
0
11
-0.0732703387401091
21
1.3980813486564
31
0
210
0
220
0
230
1
40
0.995725
41
-3.14159265358973
42
-2.19332842139572
0
ELLIPSE
5
219
100
AcDbEntity
8
1
62
256
6
ByLayer
370
13
48
1
60
0
100
AcDbEllipse
10
121.223637
20
9.214342
30
0
11
0.00523359562429438
21
-0.0998629534754605
31
0
210
0
220
0
230
1
40
0.995725
41
-2.45974164378555
42
-1.4660765716749
0
ELLIPSE
5
21A
100
AcDbEntity
8
1
62
256
6
ByLayer
370
13
48
1
60
0
100
AcDbEllipse
10
120.823988
20
6.520459
30
0
11
0.0444855628065009
21
-0.848835104541388
31
0
210
0
220
0
230
1
40
0.995725
41
1.3875367553355
42
1.67551608191457
0
ELLIPSE
5
21B
100
AcDbEntity
8
1
62
256
6
ByLayer
370
13
48
1
60
0
100
AcDbEllipse
10
121.67375
20
6.653964
30
0
11
0.148163665863161
21
0.0233993187505415
31
0
210
0
220
0
230
1
40
0.009655
41
1.66279490126851
42
2.86621140934452
0
ELLIPSE
5
21C
100
AcDbEntity
8
1
62
256
6
ByLayer
370
13
48
1
60
0
100
AcDbEllipse
10
115.075302
20
8.624841
30
0
11
0.00523359562429422
21
-0.0998629534754574
31
0
210
0
220
0
230
1
40
0.995725
41
-3.14157313675498
42
-1.75405589825446
0
ELLIPSE
5
21D
100
AcDbEntity
8
1
62
256
6
ByLayer
370
13
48
1
60
0
100
AcDbEllipse
10
122.018121
20
9.29037
30
0
11
0.0209343824971765
21
-0.399451813901822
31
0
210
0
220
0
230
1
40
0.995725
41
1.67551608191465
42
3.07256533766204
0
ELLIPSE
5
21E
100
AcDbEntity
8
1
62
256
6
ByLayer
370
13
48
1
60
0
100
AcDbEllipse
10
114.478153
20
6.015607
30
0
11
-0.148731686424787
21
0.0194649801756622
31
0
210
0
220
0
230
1
40
0.016833
41
1.47983423648451
42
3.05063056327992
0
ELLIPSE
5
21F
100
AcDbEntity
8
1
62
256
6
ByLayer
370
13
48
1
60
0
100
AcDbEllipse
10
118.210666
20
3.761434
30
0
11
0.00523359562429422
21
-0.0998629534754574
31
0
210
0
220
0
230
1
40
0.092371
41
0
42
1.5707963267949
0
ELLIPSE
5
220
100
AcDbEntity
8
1
62
256
6
ByLayer
370
13
48
1
60
0
100
AcDbEllipse
10
115.317313
20
5.904472
30
0
11
-0.0366351693700546
21
0.699040674328202
31
0
210
0
220
0
230
1
40
0.995725
41
1.3875367553355
42
1.67551608191455
0
ELLIPSE
5
221
100
AcDbEntity
8
1
62
256
6
ByLayer
370
13
48
1
60
0
100
AcDbEllipse
10
121.617362
20
9.461069
30
0
11
0.0179634425224119
21
-0.342762902152301
31
0
210
0
220
0
230
1
40
0.995725
41
-2.82201731435876
42
-2.19332842139561
0
ELLIPSE
5
222
100
AcDbEntity
8
1
62
256
6
ByLayer
370
13
48
1
60
0
100
AcDbEllipse
10
114.285405
20
11.634458
30
0
11
0.465790010562185
21
-8.88780285931571
31
0
210
0
220
0
230
1
40
0.995725
41
-0.0690273159279922
42
-0.035692439191859
0
ELLIPSE
5
223
100
AcDbEntity
8
1
62
256
6
ByLayer
370
13
48
1
60
0
100
AcDbEllipse
10
113.461757
20
5.844619
30
0
11
-0.148163665863161
21
-0.0233993187505441
31
0
210
0
220
0
230
1
40
0.009655
41
-1.47879775232091
42
0.0919985744723613
0
ELLIPSE
5
224
100
AcDbEntity
8
1
62
256
6
ByLayer
370
13
48
1
60
0
100
AcDbEllipse
10
122.146724
20
3.541266
30
0
11
-0.0436352238370132
21
-0.256157131817539
31
0
210
0
220
0
230
1
40
0.958209
41
0.305044217490425
42
1.25113576947537
0
ELLIPSE
5
225
100
AcDbEntity
8
1
62
256
6
ByLayer
370
13
48
1
60
0
100
AcDbEllipse
10
114.564796
20
2.94076
30
0
11
-0.00261679781214662
21
0.0499314767377261
31
0
210
0
220
0
230
1
40
0.995725
41
3.13286600732995
42
-2.19332842139599
0
ELLIPSE
5
226
100
AcDbEntity
8
1
62
256
6
ByLayer
370
13
48
1
60
0
100
AcDbEllipse
10
122.452132
20
6.542227
30
0
11
0.020934382497177
21
-0.399451813901833
31
0
210
0
220
0
230
1
40
0.995725
41
1.38753675533548
42
1.67551608191461
0
ELLIPSE
5
227
100
AcDbEntity
8
1
62
256
6
ByLayer
370
13
48
1
60
0
100
AcDbEllipse
10
119.795508
20
2.222269
30
0
11
-1.58689101757105
21
-1.24226428121846
31
0
210
0
220
0
230
1
40
0.477356
41
2.79074220985731
42
2.84145050096197
0
ELLIPSE
5
228
100
AcDbEntity
8
1
62
256
6
ByLayer
370
13
48
1
60
0
100
AcDbEllipse
10
114.474925
20
2.886913
30
0
11
0.00653729335064122
21
-0.149857478277354
31
0
210
0
220
0
230
1
40
0.092367
41
-1.56998679074968
42
0.000809536046713852
0
ELLIPSE
5
229
100
AcDbEntity
8
1
62
256
6
ByLayer
370
13
48
1
60
0
100
AcDbEllipse
10
121.282589
20
3.745196
30
0
11
0.00523359562429432
21
-0.0998629534754594
31
0
210
0
220
0
230
1
40
0.995725
41
-1.75405589825402
42
0.0959931088596233
0
ELLIPSE
5
22A
100
AcDbEntity
8
1
62
256
6
ByLayer
370
13
48
1
60
0
100
AcDbEllipse
10
120.279102
20
10.408798
30
0
11
-1.27269738801057
21
-1.09871759094586
31
0
210
0
220
0
230
1
40
0.713274
41
1.23963919586515
42
1.64467702023374
0
ELLIPSE
5
22B
100
AcDbEntity
8
1
62
256
6
ByLayer
370
13
48
1
60
0
100
AcDbEllipse
10
121.727178
20
9.540155
30
0
11
-0.00247703513348021
21
0.149979546261974
31
0
210
0
220
0
230
1
40
0.092312
41
0.00331037239983202
42
1.5741066991944
0
ELLIPSE
5
22C
100
AcDbEntity
8
1
62
256
6
ByLayer
370
13
48
1
60
0
100
AcDbEllipse
10
119.879208
20
10.38784
30
0
11
0.0732703387401189
21
-1.3980813486564
31
0
210
0
220
0
230
1
40
0.995725
41
0
42
0.496200779837674
0
ELLIPSE
5
22D
100
AcDbEntity
8
1
62
256
6
ByLayer
370
13
48
1
60
0
100
AcDbEllipse
10
121.574322
20
9.534124
30
0
11
-0.00653729335064154
21
0.149857478277354
31
0
210
0
220
0
230
1
40
0.092367
41
0.000809536045656119
42
1.57160586284012
0
ELLIPSE
5
22E
100
AcDbEntity
8
1
62
256
6
ByLayer
370
13
48
1
60
0
100
AcDbEllipse
10
118.862611
20
-3.284101
30
0
11
-4.81253821701003
21
4.19854386878287
31
0
210
0
220
0
230
1
40
0.878833
41
-0.736570845028429
42
-0.510544720694244
0
ELLIPSE
5
22F
100
AcDbEntity
8
1
62
256
6
ByLayer
370
13
48
1
60
0
100
AcDbEllipse
10
119.705719
20
3.118799
30
0
11
-0.318392675348107
21
-0.395166626857062
31
0
210
0
220
0
230
1
40
0.966608
41
-2.21492179298616
42
-1.95857477988422
0
ELLIPSE
5
230
100
AcDbEntity
8
1
62
256
6
ByLayer
370
13
48
1
60
0
100
AcDbEllipse
10
117.764746
20
-3.341638
30
0
11
-0.314015737457611
21
5.99177720852745
31
0
210
0
220
0
230
1
40
0.995725
41
0
42
0.245129312672933
0
ELLIPSE
5
231
100
AcDbEntity
8
1
62
256
6
ByLayer
370
13
48
1
60
0
100
AcDbEllipse
10
125.967446
20
0.437926
30
0
11
-4.02200414774075
21
-0.0150076976870346
31
0
210
0
220
0
230
1
40
0.987236
41
0.0552647439987441
42
0.152547158849163
0
ELLIPSE
5
232
100
AcDbEntity
8
1
62
256
6
ByLayer
370
13
48
1
60
0
100
AcDbEllipse
10
115.171221
20
3.525222
30
0
11
0.0261679781214711
21
-0.499314767377287
31
0
210
0
220
0
230
1
40
0.092371
41
-0.684395096575216
42
-0.462193096515997
0
ELLIPSE
5
233
100
AcDbEntity
8
1
62
256
6
ByLayer
370
13
48
1
60
0
100
AcDbEllipse
10
114.223409
20
3.632581
30
0
11
-0.0444855628064949
21
0.848835104541388
31
0
210
0
220
0
230
1
40
0.995725
41
1.40030273980258
42
2.30143074670042
0
ELLIPSE
5
234
100
AcDbEntity
8
1
62
256
6
ByLayer
370
13
48
1
60
0
100
AcDbEllipse
10
122.367297
20
2.995274
30
0
11
-0.019069070762874
21
-0.501607026696954
31
0
210
0
220
0
230
1
40
0.195483
41
-0.226349809586722
42
-0.0511850734245097
0
ELLIPSE
5
235
100
AcDbEntity
8
1
62
256
6
ByLayer
370
13
48
1
60
0
100
AcDbEllipse
10
130.346804
20
-4E-06
30
0
11
-102.61612625713
21
0.0465531029867501
31
0
210
0
220
0
230
1
40
0.092638
41
-1.40587497057898
42
-1.39029645967437
0
ELLIPSE
5
236
100
AcDbEntity
8
1
62
256
6
ByLayer
370
13
48
1
60
0
100
AcDbEllipse
10
113.865904
20
0
30
0
11
-0.502519937497271
21
9.50613601497093
31
0
210
0
220
0
230
1
40
0.092638
41
-0.145427482051596
42
-0.00490070568769601
0
ELLIPSE
5
237
100
AcDbEntity
8
1
62
256
6
ByLayer
370
13
48
1
60
0
100
AcDbEllipse
10
115.275802
20
3.188214
30
0
11
0.0261679781214711
21
-0.499314767377288
31
0
210
0
220
0
230
1
40
0.092371
41
-0.190832052365434
42
-6.07364039800196E-06
0
ELLIPSE
5
238
100
AcDbEntity
8
1
62
256
6
ByLayer
370
13
48
1
60
0
100
AcDbEllipse
10
122.345288
20
-0.091377
30
0
11
-0.0229748589106526
21
1.01138210439271
31
0
210
0
220
0
230
1
40
0.101908
41
-0.135775351166735
42
0.820449760713396
0
ELLIPSE
5
239
100
AcDbEntity
8
1
62
256
6
ByLayer
370
13
48
1
60
0
100
AcDbEllipse
10
607.396909
20
0
30
0
11
-849.554586641698
21
7.74410498814305
31
0
210
0
220
0
230
1
40
0.00649
41
0.948182305898754
42
0.96184510968442
0
ELLIPSE
5
23A
100
AcDbEntity
8
1
62
256
6
ByLayer
370
13
48
1
60
0
100
AcDbEllipse
10
119.160163
20
-2.365584
30
0
11
1.1
21
0
31
0
210
0
220
0
230
1
40
0.992674
41
2.53389116898482
42
2.94956330641007
0
ELLIPSE
5
23B
100
AcDbEntity
8
1
62
256
6
ByLayer
370
13
48
1
60
0
100
AcDbEllipse
10
114.402621
20
3.641973
30
0
11
-0.859659687634789
21
-1.06695019751948
31
0
210
0
220
0
230
1
40
0.966608
41
1.76533256124474
42
1.83734005293957
0
ELLIPSE
5
23C
100
AcDbEntity
8
1
62
256
6
ByLayer
370
13
48
1
60
0
100
AcDbEllipse
10
114.527815
20
3.648534
30
0
11
0.0706535409279717
21
-1.34814987191867
31
0
210
0
220
0
230
1
40
0.995725
41
-1.7412899137872
42
-1.29370592484074
0
ELLIPSE
5
23D
100
AcDbEntity
8
1
62
256
6
ByLayer
370
13
48
1
60
0
100
AcDbEllipse
10
114.259733
20
8.13192
30
0
11
0.314015737457653
21
-5.99177720852744
31
0
210
0
220
0
230
1
40
0.995725
41
-7.10313029294511E-06
42
0.245129312672931
0
ELLIPSE
5
23E
100
AcDbEntity
8
1
62
256
6
ByLayer
370
13
48
1
60
0
100
AcDbEllipse
10
122.014442
20
-5.553233
30
0
11
-0.0631584996959166
21
-0.51580027876799
31
0
210
0
220
0
230
1
40
0.114988
41
-1.6576642553111
42
-0.0868679285152713
0
ELLIPSE
5
23F
100
AcDbEntity
8
1
62
256
6
ByLayer
370
13
48
1
60
0
100
AcDbEllipse
10
122.199533
20
0
30
0
11
-1.62684743190107
21
9.50529253283363
31
0
210
0
220
0
230
1
40
0.082925
41
1.56635113753474
42
1.67620681105447
0
ELLIPSE
5
240
100
AcDbEntity
8
1
62
256
6
ByLayer
370
13
48
1
60
0
100
AcDbEllipse
10
94.57211
20
0
30
0
11
-102.616102867157
21
0.0465523715857152
31
0
210
0
220
0
230
1
40
0.092638
41
-1.82710744604961
42
-1.7635629668977
0
ELLIPSE
5
241
100
AcDbEntity
8
1
62
256
6
ByLayer
370
13
48
1
60
0
100
AcDbEllipse
10
112.394087
20
3.851028
30
0
11
0.0523359562429422
21
-0.998629534754574
31
0
210
0
220
0
230
1
40
0.995725
41
1.40030273980262
42
1.67551608191456
0
ELLIPSE
5
242
100
AcDbEntity
8
1
62
256
6
ByLayer
370
13
48
1
60
0
100
AcDbEllipse
10
112.121904
20
0.000354
30
0
11
-1.26937502230069
21
-9.50520321168873
31
0
210
0
220
0
230
1
40
0.0904
41
2.99363731042148
42
3.00534676580569
0
ELLIPSE
5
243
100
AcDbEntity
8
1
62
256
6
ByLayer
370
13
48
1
60
0
100
AcDbEllipse
10
112.698492
20
3.866981
30
0
11
-0.0261679781214676
21
0.499314767377287
31
0
210
0
220
0
230
1
40
0.995725
41
-1.74128991378717
42
-1.46607657167523
0
ELLIPSE
5
244
100
AcDbEntity
8
1
62
256
6
ByLayer
370
13
48
1
60
0
100
AcDbEllipse
10
125.42479
20
1.057083
30
0
11
-3.93224028824234
21
-1.21009789674273
31
0
210
0
220
0
230
1
40
0.81994
41
-0.352604846368582
42
-0.205052776847329
0
ELLIPSE
5
245
100
AcDbEntity
8
1
62
256
6
ByLayer
370
13
48
1
60
0
100
AcDbEllipse
10
114.269531
20
3.634998
30
0
11
0.0706535409279717
21
-1.34814987191867
31
0
210
0
220
0
230
1
40
0.995725
41
0.0592770815293941
42
0.967857446913113
0
ELLIPSE
5
246
100
AcDbEntity
8
1
62
256
6
ByLayer
370
13
48
1
60
0
100
AcDbEllipse
10
173.984653
20
-0.019627
30
0
11
-124.386644225828
21
0.056368901419179
31
0
210
0
220
0
230
1
40
0.08675
41
-1.04843819589718
42
-1.02637017352148
0
ELLIPSE
5
247
100
AcDbEntity
8
1
62
256
6
ByLayer
370
13
48
1
60
0
100
AcDbEllipse
10
122.239384
20
0.119994
30
0
11
-0.0114874294535624
21
0.505691052146959
31
0
210
0
220
0
230
1
40
0.101908
41
-0.135775351173238
42
0.457312057839911
0
ELLIPSE
5
248
100
AcDbEntity
8
1
62
256
6
ByLayer
370
13
48
1
60
0
100
AcDbEllipse
10
114.304692
20
5.505749
30
0
11
0.0706535409279717
21
-1.34814987191867
31
0
210
0
220
0
230
1
40
0.995725
41
-2.01983957028345
42
-1.46607657167526
0
ELLIPSE
5
249
100
AcDbEntity
8
1
62
256
6
ByLayer
370
13
48
1
60
0
100
AcDbEllipse
10
112.218521
20
2.726411
30
0
11
-3.9687966721592
21
-0.704906652267935
31
0
210
0
220
0
230
1
40
0.015321
41
-3.01817314099636
42
-2.80577404745375
0
ELLIPSE
5
24A
100
AcDbEntity
8
1
62
256
6
ByLayer
370
13
48
1
60
0
100
AcDbEllipse
10
109.5
20
2.620413
30
0
11
-1.5
21
1.51595858262354E-15
31
0
210
0
220
0
230
1
40
0.750452
41
-3.11888483361637
42
-1.69501726987759
0
ELLIPSE
5
24B
100
AcDbEntity
8
1
62
256
6
ByLayer
370
13
48
1
60
0
100
AcDbEllipse
10
109.5
20
2.434447
30
0
11
-0.196616958382064
21
5.80740874769628
31
0
210
0
220
0
230
1
40
0.342719
41
-0.540864087669723
42
-0.457850133266613
0
ELLIPSE
5
24C
100
AcDbEntity
8
1
62
256
6
ByLayer
370
13
48
1
60
0
100
AcDbEllipse
10
117.398395
20
3.648769
30
0
11
0.0523359562429422
21
-0.998629534754574
31
0
210
0
220
0
230
1
40
0.092371
41
-1.21322522314936
42
-4.80766918026288E-15
0
ELLIPSE
5
24D
100
AcDbEntity
8
1
62
256
6
ByLayer
370
13
48
1
60
0
100
AcDbEllipse
10
118.298149
20
-2.533285
30
0
11
-4.02200415480478
21
-0.0150077328595236
31
0
210
0
220
0
230
1
40
0.987236
41
3.00771645927035
42
-2.98904550350393
0
ELLIPSE
5
24E
100
AcDbEntity
8
1
62
256
6
ByLayer
370
13
48
1
60
0
100
AcDbEllipse
10
123.019657
20
0
30
0
11
-1.13784710849686
21
-9.50529461195218
31
0
210
0
220
0
230
1
40
0.118444
41
-1.31111236632779
42
-0.0986107626479699
0
ELLIPSE
5
24F
100
AcDbEntity
8
1
62
256
6
ByLayer
370
13
48
1
60
0
100
AcDbEllipse
10
113.429032
20
3.735366
30
0
11
0.496557167385187
21
-0.0585745637491195
31
0
210
0
220
0
230
1
40
0.015672
41
-2.07611590382602
42
-1.66196507056977
0
ELLIPSE
5
250
100
AcDbEntity
8
1
62
256
6
ByLayer
370
13
48
1
60
0
100
AcDbEllipse
10
119.160163
20
-2.015185
30
0
11
1.1
21
0
31
0
210
0
220
0
230
1
40
0.992674
41
0.956614630452154
42
3.14159205912205
0
ELLIPSE
5
251
100
AcDbEntity
8
1
62
256
6
ByLayer
370
13
48
1
60
0
100
AcDbEllipse
10
121.967176
20
3.888209
30
0
11
-0.0207219034017372
21
1.00028086149276
31
0
210
0
220
0
230
1
40
0.104654
41
-3.13827961229929
42
-2.58346857934307
0
ELLIPSE
5
252
100
AcDbEntity
8
1
62
256
6
ByLayer
370
13
48
1
60
0
100
AcDbEllipse
10
113.210483
20
5.359433
30
0
11
0.493878886210538
21
0.0779977291684717
31
0
210
0
220
0
230
1
40
0.009655
41
1.82323785567448
42
2.07211126091353
0
ELLIPSE
5
253
100
AcDbEntity
8
1
62
256
6
ByLayer
370
13
48
1
60
0
100
AcDbEllipse
10
116.076305
20
2.928589
30
0
11
-0.318392676581007
21
-0.395166625653406
31
0
210
0
220
0
230
1
40
0.966608
41
-2.21492178962483
42
-1.3042521552534
0
ELLIPSE
5
254
100
AcDbEntity
8
1
62
256
6
ByLayer
370
13
48
1
60
0
100
AcDbEllipse
10
112.805175
20
3.350778
30
0
11
-0.293690420649016
21
-0.955900589401955
31
0
210
0
220
0
230
1
40
0.0868
41
-1.53907871771949
42
-0.303439853475616
0
ELLIPSE
5
255
100
AcDbEntity
8
1
62
256
6
ByLayer
370
13
48
1
60
0
100
AcDbEllipse
10
121.6946
20
-5.518256
30
0
11
-0.117161794824299
21
-0.993116553181419
31
0
210
0
220
0
230
1
40
0.118926
41
0
42
6.28318530717959
0
ELLIPSE
5
256
100
AcDbEntity
8
1
62
256
6
ByLayer
370
13
48
1
60
0
100
AcDbEllipse
10
119.160163
20
-2.015185
30
0
11
-1.2
21
1.21276686609884E-15
31
0
210
0
220
0
230
1
40
0.992674
41
-2.84009818880612
42
-0.157963533094171
0
ELLIPSE
5
257
100
AcDbEntity
8
1
62
256
6
ByLayer
370
13
48
1
60
0
100
AcDbEllipse
10
113.423652
20
4.009657
30
0
11
0.493878886210538
21
0.0779977291684717
31
0
210
0
220
0
230
1
40
0.009655
41
1.66279490126865
42
2.07294360323004
0
ELLIPSE
5
258
100
AcDbEntity
8
1
62
256
6
ByLayer
370
13
48
1
60
0
100
AcDbEllipse
10
119.856596
20
0
30
0
11
-19.6479326328402
21
8.36195095798936
31
0
210
0
220
0
230
1
40
0.219516
41
0.799380153481055
42
1.00045084315914
0
ELLIPSE
5
259
100
AcDbEntity
8
1
62
256
6
ByLayer
370
13
48
1
60
0
100
AcDbEllipse
10
118.842821
20
4.72584
30
0
11
-0.859660226909672
21
-1.06694988912579
31
0
210
0
220
0
230
1
40
0.966608
41
0.713732916909914
42
1.1830178772768
0
ELLIPSE
5
25A
100
AcDbEntity
8
1
62
256
6
ByLayer
370
13
48
1
60
0
100
AcDbEllipse
10
122.329126
20
2.993273
30
0
11
-0.0103609516988565
21
0.500140430704038
31
0
210
0
220
0
230
1
40
0.104654
41
1.92317521848258
42
-3.06938484219268
0
ELLIPSE
5
25B
100
AcDbEntity
8
1
62
256
6
ByLayer
370
13
48
1
60
0
100
AcDbEllipse
10
115.720155
20
3.351271
30
0
11
0.294086657459361
21
-0.955778759914856
31
0
210
0
220
0
230
1
40
0.089609
41
-1.2582164315428
42
-0.0225091052267646
0
ELLIPSE
5
25C
100
AcDbEntity
8
1
62
256
6
ByLayer
370
13
48
1
60
0
100
AcDbEllipse
10
122.507203
20
-1.015421
30
0
11
-1.13129814194965
21
1.92980873525498
31
0
210
0
220
0
230
1
40
0.331868
41
-0.822103492673766
42
-0.650316293580737
0
ELLIPSE
5
25D
100
AcDbEntity
8
1
62
256
6
ByLayer
370
13
48
1
60
0
100
AcDbEllipse
10
115.847936
20
2.916621
30
0
11
-3.96879666778977
21
-0.704906651478128
31
0
210
0
220
0
230
1
40
0.015321
41
-3.01817314093698
42
-2.80577404726747
0
ELLIPSE
5
25E
100
AcDbEntity
8
1
62
256
6
ByLayer
370
13
48
1
60
0
100
AcDbEllipse
10
114.167489
20
8.127085
30
0
11
-0.261679781214676
21
4.99314767377287
31
0
210
0
220
0
230
1
40
0.995725
41
2.79252680319533
42
2.90488366949343
0
ELLIPSE
5
25F
100
AcDbEntity
8
1
62
256
6
ByLayer
370
13
48
1
60
0
100
AcDbEllipse
10
114.075515
20
3.62483
30
0
11
-1.19084823658076
21
0.959487295671129
31
0
210
0
220
0
230
1
40
0.775936
41
-3.08479702363504
42
-2.88746812417879
0
POINT
5
70
100
AcDbEntity
8
1
62
256
6
ByLayer
370
18
48
1
60
0
100
AcDbPoint
10
0
20
0
30
0
39
0
210
0
220
0
230
1
50
360
0
POINT
5
72
100
AcDbEntity
8
80
62
256
6
ByLayer
370
18
48
1
60
0
100
AcDbPoint
10
0
20
0
30
0
39
0
210
0
220
0
230
1
50
360
0
POINT
5
74
100
AcDbEntity
8
81
62
256
6
ByLayer
370
18
48
1
60
0
100
AcDbPoint
10
123
20
0
30
0
39
0
210
0
220
0
230
1
50
360
0
POINT
5
76
100
AcDbEntity
8
1
62
256
6
ByLayer
370
18
48
1
60
1
100
AcDbPoint
10
0
20
-16
30
0
39
0
210
0
220
0
230
1
50
360
0
POINT
5
77
100
AcDbEntity
8
1
62
256
6
ByLayer
370
18
48
1
60
1
100
AcDbPoint
10
123
20
-9.75
30
0
39
0
210
0
220
0
230
1
50
360
0
POINT
5
78
100
AcDbEntity
8
1
62
256
6
ByLayer
370
18
48
1
60
1
100
AcDbPoint
10
-56
20
-12.5
30
0
39
0
210
0
220
0
230
1
50
360
0
POINT
5
79
100
AcDbEntity
8
1
62
256
6
ByLayer
370
18
48
1
60
1
100
AcDbPoint
10
0
20
-16
30
0
39
0
210
0
220
0
230
1
50
360
0
POINT
5
7A
100
AcDbEntity
8
1
62
256
6
ByLayer
370
18
48
1
60
1
100
AcDbPoint
10
123
20
-9.75
30
0
39
0
210
0
220
0
230
1
50
360
0
POINT
5
7B
100
AcDbEntity
8
1
62
256
6
ByLayer
370
18
48
1
60
1
100
AcDbPoint
10
6.0606
20
-16
30
0
39
0
210
0
220
0
230
1
50
360
0
POINT
5
7C
100
AcDbEntity
8
1
62
256
6
ByLayer
370
18
48
1
60
1
100
AcDbPoint
10
22
20
-9.75
30
0
39
0
210
0
220
0
230
1
50
360
0
POINT
5
7D
100
AcDbEntity
8
1
62
256
6
ByLayer
370
18
48
1
60
1
100
AcDbPoint
10
123
20
-9.75
30
0
39
0
210
0
220
0
230
1
50
360
0
POINT
5
7E
100
AcDbEntity
8
1
62
256
6
ByLayer
370
18
48
1
60
1
100
AcDbPoint
10
122.4423
20
-4.875
30
0
39
0
210
0
220
0
230
1
50
360
0
SPLINE
5
260
100
AcDbEntity
8
SK1
62
256
6
ByLayer
370
13
48
1
60
0
100
AcDbSpline
70
4
71
3
72
8
73
4
40
0
40
0
40
0
40
0
40
1
40
1
40
1
40
1
41
1
10
-53.6338131992802
20
6.34032812085854
30
0
41
1
10
-53.2931973263098
20
6.56512996075952
30
0
41
1
10
-52.9482491695224
20
6.7841493260708
30
0
41
1
10
-52.5998571439059
20
6.99857202024131
30
0
0
SPLINE
5
261
100
AcDbEntity
8
SK1
62
256
6
ByLayer
370
13
48
1
60
0
100
AcDbSpline
70
4
71
3
72
18
73
14
40
0
40
0
40
0
40
0
40
0.125
40
0.125
40
0.250000000000001
40
0.250000000000001
40
0.375000000000001
40
0.375000000000001
40
0.500000000000001
40
0.500000000000001
40
0.750000000000001
40
0.750000000000001
40
1
40
1
40
1
40
1
41
1
10
-53.6338131992802
20
-6.3403281208584
30
0
41
1
10
-53.6738141958612
20
-6.31392800758456
30
0
41
1
10
-53.7178002036947
20
-6.29177848365677
30
0
41
1
10
-53.8095125775276
20
-6.2624499739369
30
0
41
1
10
-53.8584225384109
20
-6.25510027396828
30
0
41
1
10
-53.954380672524
20
-6.25785951942993
30
0
41
1
10
-54.0027856924058
20
-6.26797384899598
30
0
41
1
10
-54.0930673480267
20
-6.30196986632177
30
0
41
1
10
-54.1359763206845
20
-6.32601182555067
30
0
41
1
10
-54.2531658331207
20
-6.40990335070128
30
0
41
1
10
-54.3191410537013
20
-6.48264182751294
30
0
41
1
10
-54.4307896521674
20
-6.63931052396157
30
0
41
1
10
-54.4773867263329
20
-6.72477868031578
30
0
41
1
10
-54.5162221138916
20
-6.81202898183304
30
0
0
SPLINE
5
262
100
AcDbEntity
8
SK1
62
256
6
ByLayer
370
13
48
1
60
0
100
AcDbSpline
70
4
71
3
72
8
73
4
40
0
40
0
40
0
40
0
40
1
40
1
40
1
40
1
41
1
10
-56
20
4.99865085022955
30
0
41
1
10
-55.7014870272612
20
5.68522191153457
30
0
41
1
10
-55.3636283470437
20
6.34927205836655
30
0
41
1
10
-55
20
6.99857202024106
30
0
0
SPLINE
5
263
100
AcDbEntity
8
1
62
256
6
ByLayer
370
13
48
1
60
0
100
AcDbSpline
70
4
71
3
72
16
73
12
40
0
40
0
40
0
40
0
40
0.250000000000007
40
0.250000000000007
40
0.500000000000014
40
0.500000000000014
40
0.750000000000021
40
0.750000000000021
40
0.87500000000001
40
0.87500000000001
40
1
40
1
40
1
40
1
41
1
10
117.612311037967
20
5.29083528847605
30
0
41
1
10
117.587932978056
20
5.30331361393002
30
0
41
1
10
117.564544790999
20
5.31784252412746
30
0
41
1
10
117.520789106174
20
5.35107641842188
30
0
41
1
10
117.500367100553
20
5.36976685415002
30
0
41
1
10
117.465639495083
20
5.41195650773608
30
0
41
1
10
117.450989411656
20
5.43569245251979
30
0
41
1
10
117.442097234646
20
5.47368164326031
30
0
41
1
10
117.441621230637
20
5.48657929505771
30
0
41
1
10
117.447219530411
20
5.50975198486205
30
0
41
1
10
117.453257504504
20
5.51987773858011
30
0
41
1
10
117.461551284825
20
5.52780536885192
30
0
0
SPLINE
5
264
100
AcDbEntity
8
1
62
256
6
ByLayer
370
13
48
1
60
0
100
AcDbSpline
70
4
71
3
72
16
73
12
40
0
40
0
40
0
40
0
40
0.249999999999998
40
0.249999999999998
40
0.499999999999996
40
0.499999999999996
40
0.749999999999995
40
0.749999999999995
40
0.874999999999997
40
0.874999999999997
40
1
40
1
40
1
40
1
41
1
10
118.547697684847
20
7.13507629967984
30
0
41
1
10
118.572075744758
20
7.12259797422584
30
0
41
1
10
118.595334913302
20
7.10806230245467
30
0
41
1
10
118.638506462323
20
7.07479779489995
30
0
41
1
10
118.658479869705
20
7.0560838491343
30
0
41
1
10
118.691711389076
20
7.01381578899822
30
0
41
1
10
118.705325701054
20
6.99002556173298
30
0
41
1
10
118.711645626351
20
6.9519015649924
30
0
41
1
10
118.711083986344
20
6.9389495325764
30
0
41
1
10
118.703153885716
20
6.91565463826763
30
0
41
1
10
118.6958346637
20
6.90546173719119
30
0
41
1
10
118.686271557199
20
6.89746758435314
30
0
0
SPLINE
5
265
100
AcDbEntity
8
1
62
256
6
ByLayer
370
13
48
1
60
0
100
AcDbSpline
70
4
71
3
72
18
73
14
40
0
40
0
40
0
40
0
40
0.125000000000009
40
0.125000000000009
40
0.250000000000018
40
0.250000000000018
40
0.500000000000032
40
0.500000000000032
40
0.750000000000045
40
0.750000000000045
40
0.875000000000023
40
0.875000000000023
40
1
40
1
40
1
40
1
41
1
10
118.744103318872
20
5.61323842354136
30
0
41
1
10
118.734099023783
20
5.63024405869103
30
0
41
1
10
118.729233922979
20
5.64979497584497
30
0
41
1
10
118.725257706025
20
5.69025038847366
30
0
41
1
10
118.726262336741
20
5.7108487603567
30
0
41
1
10
118.735315307531
20
5.77281362747004
30
0
41
1
10
118.749216329338
20
5.81372122344251
30
0
41
1
10
118.788539102539
20
5.8914219452665
30
0
41
1
10
118.813747894487
20
5.92765467321448
30
0
41
1
10
118.859240068293
20
5.97302419674312
30
0
41
1
10
118.875725778582
20
5.98663218097974
30
0
41
1
10
118.911192467935
20
6.00838165837644
30
0
41
1
10
118.9301291023
20
6.01664445677861
30
0
41
1
10
118.95008859848
20
6.01936620142084
30
0
0
SPLINE
5
266
100
AcDbEntity
8
1
62
256
6
ByLayer
370
13
48
1
60
0
100
AcDbSpline
70
4
71
3
72
18
73
14
40
0
40
0
40
0
40
0
40
0.124999999999998
40
0.124999999999998
40
0.249999999999995
40
0.249999999999995
40
0.49999999999999
40
0.49999999999999
40
0.749999999999986
40
0.749999999999986
40
0.874999999999993
40
0.874999999999993
40
1
40
1
40
1
40
1
41
1
10
118.925086563366
20
6.49643345090547
30
0
41
1
10
118.904983645586
20
6.49705297199833
30
0
41
1
10
118.885224278843
20
6.50329566976768
30
0
41
1
10
118.847553796989
20
6.52130070134624
30
0
41
1
10
118.829803801552
20
6.53309096077658
30
0
41
1
10
118.779930218969
20
6.573382414761
30
0
41
1
10
118.751026555994
20
6.60681896150197
30
0
41
1
10
118.703810928778
20
6.67997234646029
30
0
41
1
10
118.685745571713
20
6.71906416977083
30
0
41
1
10
118.670214512228
20
6.77996178512203
30
0
41
1
10
118.66708173542
20
6.80041735130922
30
0
41
1
10
118.666814331254
20
6.8407704064546
30
0
41
1
10
118.66959688662
20
6.86082715842267
30
0
41
1
10
118.677777780161
20
6.8788050935909
30
0
0
SPLINE
5
267
100
AcDbEntity
8
1
62
256
6
ByLayer
370
13
48
1
60
0
100
AcDbSpline
70
4
71
3
72
18
73
14
40
0
40
0
40
0
40
0
40
0.124999999999998
40
0.124999999999998
40
0.249999999999996
40
0.249999999999996
40
0.499999999999996
40
0.499999999999996
40
0.749999999999996
40
0.749999999999996
40
0.874999999999998
40
0.874999999999998
40
1
40
1
40
1
40
1
41
1
10
117.468037243372
20
5.54636263430584
30
0
41
1
10
117.474254411679
20
5.56414705994425
30
0
41
1
10
117.47536767634
20
5.58385877606074
30
0
41
1
10
117.472202348669
20
5.62426970196856
30
0
41
1
10
117.467820688808
20
5.64474243772059
30
0
41
1
10
117.449358092759
20
5.70539452181359
30
0
41
1
10
117.430010957275
20
5.74498074389962
30
0
41
1
10
117.382787112102
20
5.81800187777941
30
0
41
1
10
117.354929618133
20
5.85141952948311
30
0
41
1
10
117.308013881634
20
5.89181680348122
30
0
41
1
10
117.291444739741
20
5.90367208377151
30
0
41
1
10
117.25688611923
20
5.92170450355599
30
0
41
1
10
117.238911536948
20
5.92801402614222
30
0
41
1
10
117.220728460167
20
5.92873427699124
30
0
0
SPLINE
5
268
100
AcDbEntity
8
1
62
256
6
ByLayer
370
13
48
1
60
0
100
AcDbSpline
70
4
71
3
72
8
73
4
40
0
40
0
40
0
40
0
40
1
40
1
40
1
40
1
41
1
10
117.220728460167
20
5.92873427699124
30
0
41
1
10
117.214401123794
20
5.92898490945842
30
0
41
1
10
117.208076322904
20
5.9292354856151
30
0
41
1
10
117.201753906595
20
5.92948600870423
30
0
0
SPLINE
5
269
100
AcDbEntity
8
1
62
256
6
ByLayer
370
13
48
1
60
0
100
AcDbSpline
70
4
71
3
72
8
73
4
40
0
40
0
40
0
40
0
40
1
40
1
40
1
40
1
41
1
10
117.461551284825
20
5.52780536885192
30
0
41
1
10
117.463712136056
20
5.53398916828999
30
0
41
1
10
117.465874098523
20
5.54017488341791
30
0
41
1
10
117.468037243372
20
5.54636263430581
30
0
0
SPLINE
5
26A
100
AcDbEntity
8
1
62
256
6
ByLayer
370
13
48
1
60
0
100
AcDbSpline
70
4
71
3
72
16
73
12
40
0
40
0
40
0
40
0
40
0.125000000000001
40
0.125000000000001
40
0.250000000000002
40
0.250000000000002
40
0.500000000000001
40
0.500000000000001
40
0.750000000000001
40
0.750000000000001
40
1
40
1
40
1
40
1
41
1
10
117.882343813175
20
5.31241554141894
30
0
41
1
10
117.881815855576
20
5.30052172156451
30
0
41
1
10
117.878174992469
20
5.28908974948553
30
0
41
1
10
117.864582469498
20
5.27000727221193
30
0
41
1
10
117.854700697934
20
5.26243079415491
30
0
41
1
10
117.821303253559
20
5.24647977746645
30
0
41
1
10
117.793983944193
20
5.24387383853968
30
0
41
1
10
117.74075707644
20
5.24671234741368
30
0
41
1
10
117.714039057642
20
5.25215118942299
30
0
41
1
10
117.662042077406
20
5.26793879702129
30
0
41
1
10
117.636685793464
20
5.27835865444303
30
0
41
1
10
117.612311037967
20
5.29083528847605
30
0
0
SPLINE
5
26B
100
AcDbEntity
8
1
62
256
6
ByLayer
370
13
48
1
60
0
100
AcDbSpline
70
4
71
3
72
8
73
4
40
0
40
0
40
0
40
0
40
1
40
1
40
1
40
1
41
1
10
118.744103318873
20
5.61323842354119
30
0
41
1
10
118.747569956496
20
5.60734571705052
30
0
41
1
10
118.751035947176
20
5.60145495044895
30
0
41
1
10
118.754501327592
20
5.59556600931722
30
0
0
SPLINE
5
26C
100
AcDbEntity
8
1
62
256
6
ByLayer
370
13
48
1
60
0
100
AcDbSpline
70
4
71
3
72
8
73
4
40
0
40
0
40
0
40
0
40
1
40
1
40
1
40
1
41
1
10
118.686271557199
20
6.89746758435314
30
0
41
1
10
118.683440722466
20
6.89124867256754
30
0
41
1
10
118.680609471627
20
6.88502788152235
30
0
41
1
10
118.677777780161
20
6.87880509359093
30
0
0
SPLINE
5
26D
100
AcDbEntity
8
1
62
256
6
ByLayer
370
13
48
1
60
0
100
AcDbSpline
70
4
71
3
72
16
73
12
40
0
40
0
40
0
40
0
40
0.125
40
0.125
40
0.25
40
0.25
40
0.5
40
0.5
40
0.75
40
0.75
40
1
40
1
40
1
40
1
41
1
10
117.393321514432
20
6.82970694388783
30
0
41
1
10
117.38425112621
20
6.83671909115668
30
0
41
1
10
117.377149094079
20
6.8462171785053
30
0
41
1
10
117.369179774923
20
6.86869300074574
30
0
41
1
10
117.36833618213
20
6.88156950255143
30
0
41
1
10
117.373115974253
20
6.91980356097233
30
0
41
1
10
117.385290236946
20
6.94537144217475
30
0
41
1
10
117.415418390222
20
6.99095291164716
30
0
41
1
10
117.433783409329
20
7.01168138450743
30
0
41
1
10
117.473800504519
20
7.04928120679142
30
0
41
1
10
117.495548206876
20
7.06618142122548
30
0
41
1
10
117.518485271529
20
7.08113756268645
30
0
0
SPLINE
5
26E
100
AcDbEntity
8
1
62
256
6
ByLayer
370
13
48
1
60
0
100
AcDbSpline
70
4
71
3
72
16
73
12
40
0
40
0
40
0
40
0
40
0.250000000000027
40
0.250000000000027
40
0.500000000000054
40
0.500000000000054
40
0.750000000000081
40
0.750000000000081
40
0.875000000000041
40
0.875000000000041
40
1
40
1
40
1
40
1
41
1
10
117.518485271529
20
7.08113756268645
30
0
41
1
10
117.541425445693
20
7.09609573170798
30
0
41
1
10
117.565545551716
20
7.1091057196538
30
0
41
1
10
117.61564065759
20
7.13025424567871
30
0
41
1
10
117.641635085254
20
7.13845056153477
30
0
41
1
10
117.694279412442
20
7.14683337516433
30
0
41
1
10
117.721314080287
20
7.14720657878283
30
0
41
1
10
117.756645875216
20
7.13471128006944
30
0
41
1
10
117.767251310648
20
7.12817941599215
30
0
41
1
10
117.782741436439
20
7.11060942265701
30
0
41
1
10
117.787524930742
20
7.09968371134781
30
0
41
1
10
117.789294529619
20
7.08790163965244
30
0
0
SPLINE
5
26F
100
AcDbEntity
8
1
62
256
6
ByLayer
370
13
48
1
60
0
100
AcDbSpline
70
4
71
3
72
16
73
12
40
0
40
0
40
0
40
0
40
0.125
40
0.125
40
0.25
40
0.25
40
0.5
40
0.5
40
0.75
40
0.75
40
1
40
1
40
1
40
1
41
1
10
118.970888448592
20
6.02220242130321
30
0
41
1
10
118.982847087874
20
6.01845050243494
30
0
41
1
10
118.995666487772
20
6.01775146526745
30
0
41
1
10
119.020252445914
20
6.02356331396513
30
0
41
1
10
119.031917999496
20
6.030036795999
30
0
41
1
10
119.061864129404
20
6.05538903550075
30
0
41
1
10
119.076119283435
20
6.07989177700571
30
0
41
1
10
119.096273554158
20
6.13057854825391
30
0
41
1
10
119.102518461282
20
6.15751090700192
30
0
41
1
10
119.109727688545
20
6.21190399564688
30
0
41
1
10
119.110654465569
20
6.23946175557558
30
0
41
1
10
119.109216774725
20
6.26689453106962
30
0
0
SPLINE
5
270
100
AcDbEntity
8
1
62
256
6
ByLayer
370
13
48
1
60
0
100
AcDbSpline
70
4
71
3
72
8
73
4
40
0
40
0
40
0
40
0
40
1
40
1
40
1
40
1
41
1
10
117.891924267273
20
5.32938883658409
30
0
41
1
10
117.888729295215
20
5.32372924403884
30
0
41
1
10
117.885535840819
20
5.3180715156353
30
0
41
1
10
117.882343813175
20
5.31241554141894
30
0
0
SPLINE
5
271
100
AcDbEntity
8
1
62
256
6
ByLayer
370
13
48
1
60
0
100
AcDbSpline
70
4
71
3
72
16
73
12
40
0
40
0
40
0
40
0
40
0.250000000000001
40
0.250000000000001
40
0.500000000000002
40
0.500000000000002
40
0.750000000000003
40
0.750000000000003
40
0.875000000000002
40
0.875000000000002
40
1
40
1
40
1
40
1
41
1
10
119.109216774725
20
6.26689453106962
30
0
41
1
10
119.107778888979
20
6.29433102554515
30
0
41
1
10
119.103978853068
20
6.32163241399755
30
0
41
1
10
119.091113445501
20
6.37500835189761
30
0
41
1
10
119.082088221585
20
6.40113007327423
30
0
41
1
10
119.056739258114
20
6.44943508201004
30
0
41
1
10
119.040348768338
20
6.47203619267503
30
0
41
1
10
119.007530774486
20
6.4944245248636
30
0
41
1
10
118.995234961116
20
6.49961505530422
30
0
41
1
10
118.97017871762
20
6.50279941214222
30
0
41
1
10
118.957578276813
20
6.50077196430317
30
0
41
1
10
118.946068935428
20
6.49578694450079
30
0
0
SPLINE
5
272
100
AcDbEntity
8
1
62
256
6
ByLayer
370
13
48
1
60
0
100
AcDbSpline
70
4
71
3
72
16
73
12
40
0
40
0
40
0
40
0
40
0.124999999999965
40
0.124999999999965
40
0.24999999999993
40
0.24999999999993
40
0.499999999999953
40
0.499999999999953
40
0.749999999999977
40
0.749999999999977
40
1
40
1
40
1
40
1
41
1
10
117.201753906595
20
5.92948600870423
30
0
41
1
10
117.191521360618
20
5.92457109909682
30
0
41
1
10
117.180134062258
20
5.92260344262991
30
0
41
1
10
117.157406575071
20
5.92593569872778
30
0
41
1
10
117.146163561638
20
5.93120859363788
30
0
41
1
10
117.116274422633
20
5.95342499957323
30
0
41
1
10
117.100598292611
20
5.97635910894991
30
0
41
1
10
117.076751791684
20
6.02473989746909
30
0
41
1
10
117.068174493576
20
6.05089545735677
30
0
41
1
10
117.055902783435
20
6.10426759333393
30
0
41
1
10
117.052229638933
20
6.13158428159056
30
0
41
1
10
117.050791948089
20
6.15901705708455
30
0
0
SPLINE
5
273
100
AcDbEntity
8
1
62
256
6
ByLayer
370
13
48
1
60
0
100
AcDbSpline
70
4
71
3
72
18
73
14
40
0
40
0
40
0
40
0
40
0.125000000000009
40
0.125000000000009
40
0.250000000000017
40
0.250000000000017
40
0.500000000000035
40
0.500000000000035
40
0.750000000000053
40
0.750000000000053
40
0.875000000000026
40
0.875000000000026
40
1
40
1
40
1
40
1
41
1
10
118.345218330086
20
5.35314497177831
30
0
41
1
10
118.33246405896
20
5.368261727499
30
0
41
1
10
118.315561320296
20
5.37980572629462
30
0
41
1
10
118.278328046486
20
5.39851660523652
30
0
41
1
10
118.258148507735
20
5.40546940075649
30
0
41
1
10
118.195810605712
20
5.42101529581177
30
0
41
1
10
118.151729636311
20
5.4244269195421
30
0
41
1
10
118.065166560704
20
5.41989441345075
30
0
41
1
10
118.022708650099
20
5.41195880597047
30
0
41
1
10
117.965244383142
20
5.39011436773356
30
0
41
1
10
117.947080255998
20
5.3811144655034
30
0
41
1
10
117.915065283917
20
5.35884266726904
30
0
41
1
10
117.901105764639
20
5.34565299573987
30
0
41
1
10
117.891924267273
20
5.32938883658409
30
0
0
SPLINE
5
274
100
AcDbEntity
8
1
62
256
6
ByLayer
370
13
48
1
60
0
100
AcDbSpline
70
4
71
3
72
8
73
4
40
0
40
0
40
0
40
0
40
1
40
1
40
1
40
1
41
1
10
118.946068935428
20
6.49578694450079
30
0
41
1
10
118.939076535618
20
6.49600235524247
30
0
41
1
10
118.932082446355
20
6.49621785548183
30
0
41
1
10
118.925086563366
20
6.49643345090547
30
0
0
SPLINE
5
275
100
AcDbEntity
8
1
62
256
6
ByLayer
370
13
48
1
60
0
100
AcDbSpline
70
4
71
3
72
8
73
4
40
0
40
0
40
0
40
0
40
1
40
1
40
1
40
1
41
1
10
117.40171170466
20
6.81192930435552
30
0
41
1
10
117.398913613654
20
6.81785704788973
30
0
41
1
10
117.396116911347
20
6.82378289040858
30
0
41
1
10
117.393321514432
20
6.82970694388783
30
0
0
SPLINE
5
276
100
AcDbEntity
8
1
62
256
6
ByLayer
370
13
48
1
60
0
100
AcDbSpline
70
4
71
3
72
16
73
12
40
0
40
0
40
0
40
0
40
0.250000000000022
40
0.250000000000022
40
0.500000000000045
40
0.500000000000045
40
0.750000000000068
40
0.750000000000068
40
0.875000000000034
40
0.875000000000034
40
1
40
1
40
1
40
1
41
1
10
117.050791948089
20
6.15901705708455
30
0
41
1
10
117.049354062342
20
6.18645355156008
30
0
41
1
10
117.050150490565
20
6.21399583049021
30
0
41
1
10
117.056781979516
20
6.26839355743968
30
0
41
1
10
117.062578700678
20
6.29529206404263
30
0
41
1
10
117.081243465446
20
6.34590373453327
30
0
41
1
10
117.094145935588
20
6.37004002417623
30
0
41
1
10
117.121871679363
20
6.39560131920337
30
0
41
1
10
117.132519932795
20
6.40199429723279
30
0
41
1
10
117.154774258787
20
6.40765809595422
30
0
41
1
10
117.166236351144
20
6.40689171204227
30
0
41
1
10
117.176934393432
20
6.40307053190185
30
0
0
SPLINE
5
277
100
AcDbEntity
8
1
62
256
6
ByLayer
370
13
48
1
60
0
100
AcDbSpline
70
4
71
3
72
8
73
4
40
0
40
0
40
0
40
0
40
1
40
1
40
1
40
1
41
1
10
117.176934393432
20
6.40307053190185
30
0
41
1
10
117.183195988089
20
6.4039805550602
30
0
41
1
10
117.189459948717
20
6.40489088025194
30
0
41
1
10
117.195726425053
20
6.40580152647587
30
0
0
SPLINE
5
278
100
AcDbEntity
8
1
62
256
6
ByLayer
370
13
48
1
60
0
100
AcDbSpline
70
4
71
3
72
8
73
4
40
0
40
0
40
0
40
0
40
1
40
1
40
1
40
1
41
1
10
118.358528312405
20
5.33737131355258
30
0
41
1
10
118.354092577228
20
5.3426275336586
30
0
41
1
10
118.349655934881
20
5.34788538563609
30
0
41
1
10
118.345218330086
20
5.35314497177828
30
0
0
SPLINE
5
279
100
AcDbEntity
8
1
62
256
6
ByLayer
370
13
48
1
60
0
100
AcDbSpline
70
4
71
3
72
16
73
12
40
0
40
0
40
0
40
0
40
0.124999999999997
40
0.124999999999997
40
0.249999999999994
40
0.249999999999994
40
0.499999999999996
40
0.499999999999996
40
0.749999999999998
40
0.749999999999998
40
1
40
1
40
1
40
1
41
1
10
118.754501327592
20
5.59556600931722
30
0
41
1
10
118.764840116127
20
5.58862033609205
30
0
41
1
10
118.773230954502
20
5.57918979221654
30
0
41
1
10
118.783531563776
20
5.55683614771405
30
0
41
1
10
118.785410454722
20
5.54401390358547
30
0
41
1
10
118.783173636105
20
5.50591311675879
30
0
41
1
10
118.772061540111
20
5.48040090135433
30
0
41
1
10
118.743428959734
20
5.4348978115363
30
0
41
1
10
118.725512537461
20
5.41419284863986
30
0
41
1
10
118.68607909246
20
5.37662361416614
30
0
41
1
10
118.664460515938
20
5.35973016693038
30
0
41
1
10
118.641523451285
20
5.34477402546941
30
0
0
SPLINE
5
27A
100
AcDbEntity
8
1
62
256
6
ByLayer
370
13
48
1
60
0
100
AcDbSpline
70
4
71
3
72
8
73
4
40
0
40
0
40
0
40
0
40
1
40
1
40
1
40
1
41
1
10
118.25389075626
20
7.09577889131265
30
0
41
1
10
118.257754274934
20
7.10147352090141
30
0
41
1
10
118.261617017703
20
7.10716632522227
30
0
41
1
10
118.265479028849
20
7.11285741178611
30
0
0
SPLINE
5
27B
100
AcDbEntity
8
1
62
256
6
ByLayer
370
13
48
1
60
0
100
AcDbSpline
70
4
71
3
72
8
73
4
40
0
40
0
40
0
40
0
40
1
40
1
40
1
40
1
41
1
10
117.789294529619
20
7.08790163965244
30
0
41
1
10
117.793060281294
20
7.08261030719896
30
0
41
1
10
117.796827635269
20
7.07731737930419
30
0
41
1
10
117.800596693447
20
7.07202275611843
30
0
0
SPLINE
5
27C
100
AcDbEntity
8
1
62
256
6
ByLayer
370
13
48
1
60
0
100
AcDbSpline
70
4
71
3
72
16
73
12
40
0
40
0
40
0
40
0
40
0.249999999999999
40
0.249999999999999
40
0.499999999999999
40
0.499999999999999
40
0.749999999999998
40
0.749999999999998
40
0.874999999999999
40
0.874999999999999
40
1
40
1
40
1
40
1
41
1
10
118.641523451285
20
5.34477402546941
30
0
41
1
10
118.618583277121
20
5.32981585644788
30
0
41
1
10
118.594334152585
20
5.3167991069283
30
0
41
1
10
118.543654910908
20
5.29561996764312
30
0
41
1
10
118.517211885004
20
5.28740014174954
30
0
41
1
10
118.463071471718
20
5.27893892156996
30
0
41
1
10
118.435001032424
20
5.27851143546997
30
0
41
1
10
118.397096985781
20
5.29087192818329
30
0
41
1
10
118.385453906333
20
5.29734941164202
30
0
41
1
10
118.367631979688
20
5.3147972004727
30
0
41
1
10
118.361567237462
20
5.32565576442349
30
0
41
1
10
118.358528312405
20
5.33737131355258
30
0
0
SPLINE
5
27D
100
AcDbEntity
8
1
62
256
6
ByLayer
370
13
48
1
60
0
100
AcDbSpline
70
4
71
3
72
16
73
12
40
0
40
0
40
0
40
0
40
0.124999999999958
40
0.124999999999958
40
0.249999999999915
40
0.249999999999915
40
0.499999999999943
40
0.499999999999943
40
0.749999999999972
40
0.749999999999972
40
1
40
1
40
1
40
1
41
1
10
118.265479028849
20
7.11285741178611
30
0
41
1
10
118.267275386761
20
7.12481770568419
30
0
41
1
10
118.272205056111
20
7.13631722123628
30
0
41
1
10
118.288128869201
20
7.15552187624786
30
0
41
1
10
118.299045938918
20
7.16315261198201
30
0
41
1
10
118.334986356799
20
7.1792369002647
30
0
41
1
10
118.363367832864
20
7.18189850498936
30
0
41
1
10
118.418090273516
20
7.17913837576978
30
0
41
1
10
118.445256889148
20
7.17372304372432
30
0
41
1
10
118.497837519573
20
7.1579660239363
30
0
41
1
10
118.523322929351
20
7.14755293371286
30
0
41
1
10
118.547697684847
20
7.13507629967984
30
0
0
SPLINE
5
27E
100
AcDbEntity
8
1
62
256
6
ByLayer
370
13
48
1
60
0
100
AcDbSpline
70
4
71
3
72
18
73
14
40
0
40
0
40
0
40
0
40
0.125000000000027
40
0.125000000000027
40
0.250000000000054
40
0.250000000000054
40
0.500000000000036
40
0.500000000000036
40
0.750000000000018
40
0.750000000000018
40
0.875000000000009
40
0.875000000000009
40
1
40
1
40
1
40
1
41
1
10
117.800596693447
20
7.07202275611843
30
0
41
1
10
117.811429471965
20
7.0568052992372
30
0
41
1
10
117.826643462772
20
7.04517279691666
30
0
41
1
10
117.8609303379
20
7.02630750376292
30
0
41
1
10
117.879878589762
20
7.01929017923143
30
0
41
1
10
117.939244059456
20
7.00358850559874
30
0
41
1
10
117.982305948529
20
7.00012347413156
30
0
41
1
10
118.068868328466
20
7.00465594376436
30
0
41
1
10
118.112343564578
20
7.01264486701527
30
0
41
1
10
118.172783446431
20
7.03464525062091
30
0
41
1
10
118.192184191853
20
7.0437099612688
30
0
41
1
10
118.227135735732
20
7.06613565870981
30
0
41
1
10
118.242788034267
20
7.07941404504061
30
0
41
1
10
118.25389075626
20
7.09577889131265
30
0
0
SPLINE
5
27F
100
AcDbEntity
8
1
62
256
6
ByLayer
370
13
48
1
60
0
100
AcDbSpline
70
4
71
3
72
8
73
4
40
0
40
0
40
0
40
0
40
1
40
1
40
1
40
1
41
1
10
118.95008859848
20
6.01936620142084
30
0
41
1
10
118.957023621432
20
6.02031188468831
30
0
41
1
10
118.963956870433
20
6.02125728579736
30
0
41
1
10
118.970888448592
20
6.02220242130321
30
0
0
SPLINE
5
280
100
AcDbEntity
8
1
62
256
6
ByLayer
370
13
48
1
60
0
100
AcDbSpline
70
4
71
3
72
18
73
14
40
0
40
0
40
0
40
0
40
0.12499999999998
40
0.12499999999998
40
0.24999999999996
40
0.24999999999996
40
0.499999999999972
40
0.499999999999972
40
0.749999999999983
40
0.749999999999983
40
0.874999999999992
40
0.874999999999992
40
1
40
1
40
1
40
1
41
1
10
117.195726425053
20
6.4058015264759
30
0
41
1
10
117.213737118182
20
6.40841884581334
30
0
41
1
10
117.230908747578
20
6.41654231137179
30
0
41
1
10
117.263503494376
20
6.4381651512318
30
0
41
1
10
117.278685729821
20
6.45165282695808
30
0
41
1
10
117.32107481963
20
6.4966811267071
30
0
41
1
10
117.345299113384
20
6.53282902119435
30
0
41
1
10
117.384637995983
20
6.61038264293623
30
0
41
1
10
117.399747075373
20
6.65176256000552
30
0
41
1
10
117.411783413278
20
6.7140822449249
30
0
41
1
10
117.413996707669
20
6.73496983165424
30
0
41
1
10
117.412921345137
20
6.77535099927636
30
0
41
1
10
117.409752671762
20
6.79489455079261
30
0
41
1
10
117.40171170466
20
6.81192930435552
30
0
0
SPLINE
5
281
100
AcDbEntity
8
1
62
256
6
ByLayer
370
18
48
1
60
0
100
AcDbSpline
70
4
71
3
72
8
73
4
40
0
40
0
40
0
40
0
40
1
40
1
40
1
40
1
41
1
10
122.576089871008
20
-0.139810784904853
30
0
41
1
10
122.58170943864
20
-0.159264964144825
30
0
41
1
10
122.586113879416
20
-0.178986556854568
30
0
41
1
10
122.589303193336
20
-0.198975563034025
30
0
0
SPLINE
5
282
100
AcDbEntity
8
1
62
256
6
ByLayer
370
18
48
1
60
0
100
AcDbSpline
70
4
71
1
72
4
73
2
40
0
40
0
40
1
40
1
41
1
10
122.372614545188
20
-5.97515105242019
30
0
41
1
10
122.139038639433
20
-5.52162642466985
30
0
0
SPLINE
5
283
100
AcDbEntity
8
1
62
256
6
ByLayer
370
18
48
1
60
0
100
AcDbSpline
70
4
71
1
72
4
73
2
40
0
40
0
40
1
40
1
41
1
10
121.978083711574
20
0.497671080247358
30
0
41
1
10
122.179345588197
20
0.475798415775927
30
0
0
SPLINE
5
284
100
AcDbEntity
8
1
62
256
6
ByLayer
370
18
48
1
60
0
100
AcDbSpline
70
4
71
3
72
12
73
8
40
0
40
0
40
0
40
0
40
0.499999999999967
40
0.499999999999967
40
0.749999999999983
40
0.749999999999983
40
1
40
1
40
1
40
1
41
1
10
122.623147172134
20
-5.68659434190567
30
0
41
1
10
122.614252882574
20
-5.75322385532286
30
0
41
1
10
122.585254237981
20
-5.81695263846996
30
0
41
1
10
122.519151723252
20
-5.89361304101689
30
0
41
1
10
122.493342055476
20
-5.91608085523578
30
0
41
1
10
122.436283876677
20
-5.95200764508735
30
0
41
1
10
122.404894004813
20
-5.96484820217358
30
0
41
1
10
122.372614545188
20
-5.97521394401275
30
0
0
SPLINE
5
285
100
AcDbEntity
8
1
62
256
6
ByLayer
370
18
48
1
60
0
100
AcDbSpline
70
4
71
1
72
4
73
2
40
0
40
0
40
1
40
1
41
1
10
122.995751741353
20
-2.87704658168588
30
0
41
1
10
122.735230217408
20
-2.62669472196546
30
0
0
SPLINE
5
286
100
AcDbEntity
8
1
62
256
6
ByLayer
370
18
48
1
60
0
100
AcDbSpline
70
4
71
3
72
12
73
8
40
0
40
0
40
0
40
0
40
0.499999999999961
40
0.499999999999961
40
0.749999999999981
40
0.749999999999981
40
1
40
1
40
1
40
1
41
1
10
122.179345588197
20
0.475727920958292
30
0
41
1
10
122.246466996747
20
0.466898928211407
30
0
41
1
10
122.310660578322
20
0.438107227953026
30
0
41
1
10
122.387894761747
20
0.372496938441998
30
0
41
1
10
122.410528988859
20
0.346876948278577
30
0
41
1
10
122.446722543281
20
0.290238397765563
30
0
41
1
10
122.459659368224
20
0.259079989161393
30
0
41
1
10
122.470103014498
20
0.227038413057414
30
0
0
SPLINE
5
287
100
AcDbEntity
8
1
62
256
6
ByLayer
370
18
48
1
60
0
100
AcDbSpline
70
4
71
1
72
4
73
2
40
0
40
0
40
1
40
1
41
1
10
122.323883895289
20
0.0584234253731779
30
0
41
1
10
122.576089871008
20
-0.139810784904853
30
0
0
SPLINE
5
288
100
AcDbEntity
8
1
62
256
6
ByLayer
370
18
48
1
60
0
100
AcDbSpline
70
4
71
1
72
4
73
2
40
0
40
0
40
1
40
1
41
1
10
122.389571266379
20
-5.2329992193377
30
0
41
1
10
122.623147172134
20
-5.68652384708807
30
0
0
SPLINE
5
289
100
AcDbEntity
8
1
62
256
6
ByLayer
370
18
48
1
60
0
100
AcDbSpline
70
4
71
3
72
10
73
6
40
0
40
0
40
0
40
0
40
0.121101542991285
40
0.121101542991285
40
1
40
1
40
1
40
1
41
1
10
121.969329948313
20
-6.08874936387193
30
0
41
1
10
121.970700418596
20
-6.08845964874558
30
0
41
1
10
121.972069640061
20
-6.08816421083324
30
0
41
1
10
121.98336165163
20
-6.08567823216882
30
0
41
1
10
121.993222977648
20
-6.08319090681809
30
0
41
1
10
122.002994450944
20
-6.08040963313144
30
0
0
SPLINE
5
28A
100
AcDbEntity
8
1
62
256
6
ByLayer
370
18
48
1
60
0
100
AcDbSpline
70
4
71
1
72
4
73
2
40
0
40
0
40
1
40
1
41
1
10
122.98191899162
20
-2.98134695559929
30
0
41
1
10
122.995751741353
20
-2.87704658168588
30
0
0
SPLINE
5
28B
100
AcDbEntity
8
1
62
256
6
ByLayer
370
18
48
1
60
0
100
AcDbSpline
70
4
71
2
72
12
73
9
40
0
40
0
40
0
40
0.25
40
0.5
40
0.5
40
0.75
40
0.75
40
0.875
40
1
40
1
40
1
41
1
10
122.139038639433
20
-5.52162642466982
30
0
41
1
10
122.187522759583
20
-5.50782568368004
30
0
41
1
10
122.273252738203
20
-5.4538123529168
30
0
41
1
10
122.307518265066
20
-5.41466633127303
30
0
41
1
10
122.340288604167
20
-5.37722845941872
30
0
41
1
10
122.361855298326
20
-5.32996627745575
30
0
41
1
10
122.371871242524
20
-5.30801690618276
30
0
41
1
10
122.386154224345
20
-5.2587640722212
30
0
41
1
10
122.389571266379
20
-5.2329992193381
30
0
0
SPLINE
5
28C
100
AcDbEntity
8
1
62
256
6
ByLayer
370
18
48
1
60
0
100
AcDbSpline
70
4
71
1
72
4
73
2
40
0
40
0
40
1
40
1
41
1
10
122.733351957018
20
-2.48426559539374
30
0
41
1
10
122.993873480962
20
-2.73461745511301
30
0
0
SPLINE
5
28D
100
AcDbEntity
8
1
62
256
6
ByLayer
370
18
48
1
60
0
100
AcDbSpline
70
4
71
1
72
4
73
2
40
0
40
0
40
1
40
1
41
1
10
122.470103014498
20
0.227101304649722
30
0
41
1
10
122.268841137874
20
0.248973969120783
30
0
0
SPLINE
5
28E
100
AcDbEntity
8
1
62
256
6
ByLayer
370
18
48
1
60
0
100
AcDbSpline
70
4
71
1
72
4
73
2
40
0
40
0
40
1
40
1
41
1
10
121.943393005556
20
-6.09347791660525
30
0
41
1
10
121.887480286842
20
-5.58938242935997
30
0
0
SPLINE
5
28F
100
AcDbEntity
8
1
62
256
6
ByLayer
370
18
48
1
60
0
100
AcDbSpline
70
4
71
3
72
24
73
20
40
0
40
0
40
0
40
0
40
0.0121820017000339
40
0.042186803827366
40
0.072191605954698
40
0.132201210209362
40
0.25222041871869
40
0.372239627228018
40
0.47725643467368
40
0.492258835737346
40
0.522263637864678
40
0.55226843999201
40
0.612278044246675
40
0.732297252756003
40
0.852316461265331
40
0.912326065519995
40
0.942330867647327
40
0.972335669774659
40
1
40
1
40
1
40
1
41
1
10
121.954362845818
20
-5.3868622905992
30
0
41
1
10
121.9810121126
20
-5.37658290615082
30
0
41
1
10
122.07251119375
20
-5.33226845727327
30
0
41
1
10
122.212261043338
20
-5.18751065560042
30
0
41
1
10
122.243266561266
20
-4.92042304070128
30
0
41
1
10
122.297101998953
20
-4.53040533331699
30
0
41
1
10
122.370592532884
20
-3.96643115514149
30
0
41
1
10
122.457526849869
20
-3.31995928081358
30
0
41
1
10
122.517220611799
20
-2.87058173617018
30
0
41
1
10
122.55807863239
20
-2.57841305257673
30
0
41
1
10
122.548220172805
20
-2.41603248022173
30
0
41
1
10
122.490947922626
20
-2.18805864737033
30
0
41
1
10
122.442015280499
20
-1.80020070842397
30
0
41
1
10
122.344138614789
20
-1.23960417592806
30
0
41
1
10
122.262861740112
20
-0.675344451939395
30
0
41
1
10
122.188135462454
20
-0.293276249238772
30
0
41
1
10
122.172763419944
20
-0.0539160535561507
30
0
41
1
10
122.115613090216
20
0.14341713903147
30
0
41
1
10
122.002199387371
20
0.254976460529974
30
0
41
1
10
121.943824780609
20
0.288584920737321
30
0
0
SPLINE
5
290
100
AcDbEntity
8
1
62
256
6
ByLayer
370
18
48
1
60
0
100
AcDbSpline
70
4
71
1
72
4
73
2
40
0
40
0
40
1
40
1
41
1
10
122.179345588197
20
0.475798415775927
30
0
41
1
10
122.012159259725
20
0.497647654578145
30
0
0
SPLINE
5
291
100
AcDbEntity
8
1
62
256
6
ByLayer
370
18
48
1
60
0
100
AcDbSpline
70
4
71
3
72
8
73
4
40
0
40
0
40
0
40
0
40
1
40
1
40
1
40
1
41
1
10
122.99432620782
20
-2.73455768577676
30
0
41
1
10
122.997494067926
20
-2.75820475792548
30
0
41
1
10
122.999699096199
20
-2.78192115000289
30
0
41
1
10
123.000013525548
20
-2.80576443351663
30
0
0
SPLINE
5
292
100
AcDbEntity
8
1
62
256
6
ByLayer
370
18
48
1
60
0
100
AcDbSpline
70
4
71
1
72
4
73
2
40
0
40
0
40
1
40
1
41
1
10
122.908130518138
20
-3.53771973206091
30
0
41
1
10
122.956206000912
20
-3.17522558401333
30
0
0
SPLINE
5
293
100
AcDbEntity
8
1
62
256
6
ByLayer
370
18
48
1
60
0
100
AcDbSpline
70
4
71
1
72
4
73
2
40
0
40
0
40
1
40
1
41
1
10
122.623147172134
20
-5.68652384708807
30
0
41
1
10
122.908130518138
20
-3.53771973206091
30
0
0
SPLINE
5
294
100
AcDbEntity
8
1
62
256
6
ByLayer
370
18
48
1
60
0
100
AcDbSpline
70
4
71
1
72
4
73
2
40
0
40
0
40
1
40
1
41
1
10
122.993873480962
20
-2.73461745511301
30
0
41
1
10
122.979786663232
20
-2.64632840805527
30
0
0
SPLINE
5
295
100
AcDbEntity
8
1
62
256
6
ByLayer
370
18
48
1
60
0
100
AcDbSpline
70
4
71
2
72
12
73
9
40
0
40
0
40
0
40
0.25
40
0.5
40
0.5
40
0.75
40
0.75
40
0.875
40
1
40
1
40
1
41
1
10
122.268841137874
20
0.248973969120783
30
0
41
1
10
122.254938540139
20
0.297102872586009
30
0
41
1
10
122.200526562511
20
0.382204754445411
30
0
41
1
10
122.161091622589
20
0.416219236491372
30
0
41
1
10
122.123377439495
20
0.44874948520652
30
0
41
1
10
122.075766437712
20
0.470158171965266
30
0
41
1
10
122.053655068503
20
0.480100734807394
30
0
41
1
10
122.004038722658
20
0.494279073015207
30
0
41
1
10
121.978083711575
20
0.497671080247301
30
0
0
SPLINE
5
296
100
AcDbEntity
8
1
62
256
6
ByLayer
370
18
48
1
60
0
100
AcDbSpline
70
4
71
1
72
4
73
2
40
0
40
0
40
1
40
1
41
1
10
121.950883812145
20
-5.61054454258058
30
0
41
1
10
122.002994450944
20
-6.08036140107751
30
0
0
SPLINE
5
297
100
AcDbEntity
8
1
62
256
6
ByLayer
370
18
48
1
60
0
100
AcDbSpline
70
4
71
1
72
4
73
2
40
0
40
0
40
1
40
1
41
1
10
122.589303193336
20
-0.198975563034054
30
0
41
1
10
122.337097217613
20
-0.0007413527551705
30
0
0
SPLINE
5
298
100
AcDbEntity
8
1
62
256
6
ByLayer
370
18
48
1
60
0
100
AcDbSpline
70
4
71
2
72
6
73
3
40
0
40
0
40
0
40
1
40
1
40
1
41
1
10
122.337097217613
20
-0.0007413527551421
30
0
41
1
10
122.33231324673
20
0.0292421565733036
30
0
41
1
10
122.323883895289
20
0.0584234253731495
30
0
0
SPLINE
5
299
100
AcDbEntity
8
1
62
256
6
ByLayer
370
18
48
1
60
0
100
AcDbSpline
70
4
71
2
72
6
73
3
40
0
40
0
40
0
40
1
40
1
40
1
41
1
10
122.735230217408
20
-2.62669472196546
30
0
41
1
10
122.744692915998
20
-2.55534498890634
30
0
41
1
10
122.733351957018
20
-2.48426559539374
30
0
0
SPLINE
5
29A
100
AcDbEntity
8
1
62
256
6
ByLayer
370
18
48
1
60
0
100
AcDbSpline
70
4
71
1
72
4
73
2
40
0
40
0
40
1
40
1
41
1
10
122.979786663232
20
-2.64632840805527
30
0
41
1
10
122.952054310362
20
-2.47251604996865
30
0
0
SPLINE
5
29B
100
AcDbEntity
8
1
62
256
6
ByLayer
370
18
48
1
60
0
100
AcDbSpline
70
4
71
3
72
23
73
19
40
0
40
0
40
0
40
0
40
0.0126364556053413
40
0.044386519626636
40
0.107886647669225
40
0.234886903754404
40
0.361887159839583
40
0.473012383914115
40
0.488887415924762
40
0.520637479946057
40
0.552387543967351
40
0.615887672009941
40
0.74288792809512
40
0.869888184180298
40
0.933388312222888
40
0.965138376244183
40
0.996888440265477
40
1
40
1
40
1
40
1
41
1
10
122.024917673039
20
-5.15377776731907
30
0
41
1
10
122.038104621955
20
-5.13781447928153
30
0
41
1
10
122.077760823082
20
-5.07632774232746
30
0
41
1
10
122.09950808354
20
-4.88899257380154
30
0
41
1
10
122.153480313024
20
-4.49798386076418
30
0
41
1
10
122.22693860961
20
-3.93425707540987
30
0
41
1
10
122.31389657998
20
-3.28760930681224
30
0
41
1
10
122.373639898737
20
-2.8378586959625
30
0
41
1
10
122.412585852132
20
-2.5593628762866
30
0
41
1
10
122.404398768318
20
-2.42451185374989
30
0
41
1
10
122.348261954543
20
-2.20105765803532
30
0
41
1
10
122.298672837905
20
-1.80799626308451
30
0
41
1
10
122.201011949641
20
-1.24863561339069
30
0
41
1
10
122.119941833074
20
-0.685811294922473
30
0
41
1
10
122.044131348463
20
-0.298199647330165
30
0
41
1
10
122.029168812669
20
-0.0652159372430958
30
0
41
1
10
121.998722638357
20
0.0399110289134512
30
0
41
1
10
121.967743560569
20
0.0873587943794689
30
0
41
1
10
121.964862866528
20
0.0915246407698476
30
0
0
SPLINE
5
29C
100
AcDbEntity
8
1
62
256
6
ByLayer
370
18
48
1
60
0
100
AcDbSpline
70
4
71
1
72
4
73
2
40
0
40
0
40
1
40
1
41
1
10
122.956206000912
20
-3.17522558401333
30
0
41
1
10
122.98191899162
20
-2.98134695559929
30
0
0
SPLINE
5
29D
100
AcDbEntity
8
1
62
256
6
ByLayer
370
18
48
1
60
0
100
AcDbSpline
70
4
71
1
72
4
73
2
40
0
40
0
40
1
40
1
41
1
10
122.898688224781
20
-2.13804442327225
30
0
41
1
10
122.589303193336
20
-0.198975563034025
30
0
0
SPLINE
5
29E
100
AcDbEntity
8
1
62
256
6
ByLayer
370
18
48
1
60
0
100
AcDbSpline
70
4
71
1
72
4
73
2
40
0
40
0
40
1
40
1
41
1
10
122.952054310362
20
-2.47251604996865
30
0
41
1
10
122.898688224781
20
-2.13804442327225
30
0
0
SPLINE
5
29F
100
AcDbEntity
8
1
62
256
6
ByLayer
370
18
48
1
60
0
100
AcDbSpline
70
4
71
3
72
8
73
4
40
0
40
0
40
0
40
0
40
1
40
1
40
1
40
1
41
1
10
123.000013525548
20
-2.80576443351663
30
0
41
1
10
123.000328025633
20
-2.82961308119115
30
0
41
1
10
122.998861294842
20
-2.85338608746346
30
0
41
1
10
122.996419196306
20
-2.87711427688589
30
0
0
SPLINE
5
2A0
100
AcDbEntity
8
1
62
256
6
ByLayer
370
18
48
1
60
0
100
AcDbSpline
70
4
71
3
72
10
73
6
40
0
40
0
40
0
40
0
40
0.621763709777762
40
0.621763709777762
40
1
40
1
40
1
40
1
41
1
10
122.002994450944
20
-6.08040963313144
30
0
41
1
10
122.080075061267
20
-6.05847002722317
30
0
41
1
10
122.157155659188
20
-6.03653707090334
30
0
41
1
10
122.281126564384
20
-6.00125202647951
30
0
41
1
10
122.328016866357
20
-5.98790477389755
30
0
41
1
10
122.374907152615
20
-5.97456154935861
30
0
0
SPLINE
5
2A1
100
AcDbEntity
8
1
62
256
6
ByLayer
370
13
48
1
60
0
100
AcDbSpline
70
4
71
3
72
10
73
6
40
0
40
0
40
0
40
0
40
0.5
40
0.5
40
1
40
1
40
1
40
1
41
1
10
121.152294198054
20
9.28835051418042
30
0
41
1
10
121.148613982712
20
9.28815764226707
30
0
41
1
10
121.158110082271
20
9.27752361298965
30
0
41
1
10
121.197369014697
20
9.24258411858665
30
0
41
1
10
121.227175791849
20
9.21837576592262
30
0
41
1
10
121.258547703069
20
9.19467454075152
30
0
0
SPLINE
5
2A2
100
AcDbEntity
8
1
62
256
6
ByLayer
370
13
48
1
60
0
100
AcDbSpline
70
4
71
2
72
6
73
3
40
0
40
0
40
0
40
1
40
1
40
1
41
1
10
113.214406075828
20
5.87748020535332
30
0
41
0.997409491337352
10
113.214884127481
20
5.84142387179713
30
0
41
1
10
113.220509020883
20
5.80580724400207
30
0
0
SPLINE
5
2A3
100
AcDbEntity
8
1
62
256
6
ByLayer
370
13
48
1
60
0
100
AcDbSpline
70
4
71
3
72
11
73
7
40
0
40
0
40
0
40
0
40
0.25
40
0.5
40
0.75
40
1
40
1
40
1
40
1
41
1
10
114.43677620551
20
2.6357795491881
30
0
41
1
10
114.450082116678
20
2.63599930721691
30
0
41
1
10
114.476689697665
20
2.63670518018719
30
0
41
1
10
114.516570722888
20
2.6385545890189
30
0
41
1
10
114.556456564455
20
2.64027261265883
30
0
41
1
10
114.58304659027
20
2.64143256010323
30
0
41
1
10
114.596341603299
20
2.64201253383072
30
0
0
SPLINE
5
2A4
100
AcDbEntity
8
1
62
256
6
ByLayer
370
13
48
1
60
0
100
AcDbSpline
70
4
71
3
72
18
73
14
40
0
40
0
40
0
40
0
40
0.0944468797061547
40
0.0944468797061547
40
0.188893759412309
40
0.188893759412309
40
0.377787518824606
40
0.377787518824606
40
0.566681278236903
40
0.566681278236903
40
0.7555750376492
40
0.7555750376492
40
1
40
1
40
1
40
1
41
1
10
113.624489056897
20
3.05682040238085
30
0
41
1
10
113.627844193122
20
3.03755542942133
30
0
41
1
10
113.632944118969
20
3.01427379601205
30
0
41
1
10
113.64300789947
20
2.97646925328149
30
0
41
1
10
113.647653854604
20
2.96226929091
30
0
41
1
10
113.660351092037
20
2.92639377779352
30
0
41
1
10
113.667437623377
20
2.91071618831589
30
0
41
1
10
113.680583782102
20
2.88453703306962
30
0
41
1
10
113.686524141673
20
2.87468462411667
30
0
41
1
10
113.697690199585
20
2.85831388646443
30
0
41
1
10
113.702922767898
20
2.85183235732464
30
0
41
1
10
113.714427952156
20
2.83938609788694
30
0
41
1
10
113.720549774251
20
2.83416432503151
30
0
41
1
10
113.726399151556
20
2.83025701022211
30
0
0
SPLINE
5
2A5
100
AcDbEntity
8
1
62
256
6
ByLayer
370
13
48
1
60
0
100
AcDbSpline
70
4
71
3
72
10
73
6
40
0
40
0
40
0
40
0
40
0.5
40
0.5
40
1
40
1
40
1
40
1
41
1
10
113.936792225741
20
9.22616870977637
30
0
41
1
10
113.965476464157
20
9.22725059397325
30
0
41
1
10
113.992499231428
20
9.22689616524875
30
0
41
1
10
114.046578826287
20
9.22632561539734
30
0
41
1
10
114.073734717465
20
9.22612189862315
30
0
41
1
10
114.100828184211
20
9.22587431459959
30
0
0
SPLINE
5
2A6
100
AcDbEntity
8
1
62
256
6
ByLayer
370
13
48
1
60
0
100
AcDbSpline
70
4
71
3
72
8
73
4
40
0
40
0
40
0
40
0
40
1
40
1
40
1
40
1
41
1
10
113.092811271891
20
6.04266540477943
30
0
41
1
10
113.089604263103
20
6.05897103446142
30
0
41
1
10
113.087144496065
20
6.07784981476911
30
0
41
1
10
113.087384935857
20
6.10111725265841
30
0
0
SPLINE
5
2A7
100
AcDbEntity
8
1
62
256
6
ByLayer
370
13
48
1
60
0
100
AcDbSpline
70
4
71
3
72
10
73
6
40
0
40
0
40
0
40
0
40
0.5
40
0.5
40
1
40
1
40
1
40
1
41
1
10
115.034456495944
20
3.22717705104682
30
0
41
1
10
115.030774723208
20
3.22698409751394
30
0
41
1
10
115.010411179082
20
3.22717087171142
30
0
41
1
10
114.949081101211
20
3.2280854000374
30
0
41
1
10
114.908174463195
20
3.22880048494938
30
0
41
1
10
114.868916645535
20
3.22953146902384
30
0
0
SPLINE
5
2A8
100
AcDbEntity
8
1
62
256
6
ByLayer
370
13
48
1
60
0
100
AcDbSpline
70
4
71
1
72
4
73
2
40
0
40
0
40
1
40
1
41
1
10
121.760529482699
20
3.18438563493581
30
0
41
1
10
121.645469696031
20
3.01144168305245
30
0
0
SPLINE
5
2A9
100
AcDbEntity
8
1
62
256
6
ByLayer
370
13
48
1
60
0
100
AcDbSpline
70
4
71
3
72
14
73
10
40
0
40
0
40
0
40
0
40
0.230706644368766
40
0.230706644368766
40
0.461413288737532
40
0.461413288737532
40
0.922826577475064
40
0.922826577475064
40
1
40
1
40
1
40
1
41
1
10
122.568639103446
20
3.52556344389478
30
0
41
1
10
122.567316085026
20
3.506053299239
30
0
41
1
10
122.564677690469
20
3.48236611764207
30
0
41
1
10
122.558620691167
20
3.44371672064173
30
0
41
1
10
122.555484487307
20
3.42910891259939
30
0
41
1
10
122.546606818924
20
3.39210270658089
30
0
41
1
10
122.54119786268
20
3.37577025634795
30
0
41
1
10
122.535164513662
20
3.35977309790357
30
0
41
1
10
122.534308139576
20
3.35757279565198
30
0
41
1
10
122.533459388978
20
3.35545696342916
30
0
0
SPLINE
5
2AA
100
AcDbEntity
8
1
62
256
6
ByLayer
370
13
48
1
60
0
100
AcDbSpline
70
4
71
3
72
10
73
6
40
0
40
0
40
0
40
0
40
0.260901105532143
40
0.260901105532143
40
1
40
1
40
1
40
1
41
1
10
122.49096934238
20
3.28958846479122
30
0
41
1
10
122.488018237278
20
3.28713473570886
30
0
41
1
10
122.485106888433
20
3.28507862707804
30
0
41
1
10
122.474072820133
20
3.27841573802465
30
0
41
1
10
122.466209682584
20
3.27611494026377
30
0
41
1
10
122.458537903448
20
3.27553280804776
30
0
0
SPLINE
5
2AB
100
AcDbEntity
8
1
62
256
6
ByLayer
370
13
48
1
60
0
100
AcDbSpline
70
4
71
1
72
4
73
2
40
0
40
0
40
1
40
1
41
1
10
113.102108736027
20
5.87056561653796
30
0
41
1
10
113.214406075828
20
5.87748020535332
30
0
0
SPLINE
5
2AC
100
AcDbEntity
8
1
62
256
6
ByLayer
370
13
48
1
60
0
100
AcDbSpline
70
4
71
3
72
22
73
18
40
0
40
0
40
0
40
0
40
0.124999999999972
40
0.124999999999972
40
0.187499999999958
40
0.187499999999958
40
0.249999999999944
40
0.249999999999944
40
0.281249999999944
40
0.281249999999944
40
0.312499999999943
40
0.312499999999943
40
0.374999999999943
40
0.374999999999943
40
0.499999999999954
40
0.499999999999954
40
1
40
1
40
1
40
1
41
1
10
115.12595387741
20
3.37449024957169
30
0
41
1
10
115.237165824439
20
3.44854721827832
30
0
41
1
10
115.355213153476
20
3.50746398704447
30
0
41
1
10
115.542236068262
20
3.57379588393084
30
0
41
1
10
115.606718872433
20
3.59227880898013
30
0
41
1
10
115.735954314533
20
3.62081671017484
30
0
41
1
10
115.800864652374
20
3.63096183291213
30
0
41
1
10
115.89865106851
20
3.64024767081727
30
0
41
1
10
115.931342800635
20
3.64198636358515
30
0
41
1
10
115.996729234661
20
3.64542189628412
30
0
41
1
10
116.029424359535
20
3.64711277526953
30
0
41
1
10
116.127505559434
20
3.65224424633706
30
0
41
1
10
116.19289184509
20
3.65568186999826
30
0
41
1
10
116.389051956431
20
3.66597706319294
30
0
41
1
10
116.51982620364
20
3.6728286922143
30
0
41
1
10
117.173697687568
20
3.70708334393964
30
0
41
1
10
117.696793710996
20
3.73450346546738
30
0
41
1
10
118.219890145908
20
3.76191778797201
30
0
0
SPLINE
5
2AD
100
AcDbEntity
8
1
62
256
6
ByLayer
370
13
48
1
60
0
100
AcDbSpline
70
4
71
3
72
8
73
4
40
0
40
0
40
0
40
0
40
1
40
1
40
1
40
1
41
1
10
121.876946054949
20
9.79157419683324
30
0
41
1
10
121.82715879365
20
9.7915917132346
30
0
41
1
10
121.777372047079
20
9.79116596223273
30
0
41
1
10
121.727585741801
20
9.79036018179633
30
0
0
SPLINE
5
2AE
100
AcDbEntity
8
1
62
256
6
ByLayer
370
13
48
1
60
0
100
AcDbSpline
70
4
71
3
72
22
73
18
40
0
40
0
40
0
40
0
40
0.12499999999999
40
0.12499999999999
40
0.249999999999979
40
0.249999999999979
40
0.374999999999969
40
0.374999999999969
40
0.499999999999959
40
0.499999999999959
40
0.624999999999948
40
0.624999999999948
40
0.687499999999943
40
0.687499999999943
40
0.749999999999938
40
0.749999999999938
40
1
40
1
40
1
40
1
41
1
10
113.654520236019
20
3.05766344777643
30
0
41
1
10
113.660202227557
20
3.01602298663758
30
0
41
1
10
113.671349867573
20
2.97629998608608
30
0
41
1
10
113.703952731358
20
2.90047009488671
30
0
41
1
10
113.725438865584
20
2.8639205634168
30
0
41
1
10
113.776114334192
20
2.79863827876179
30
0
41
1
10
113.80549290514
20
2.76891269915515
30
0
41
1
10
113.871079370148
20
2.71765678548033
30
0
41
1
10
113.906393690534
20
2.69644091619156
30
0
41
1
10
113.982057202987
20
2.66282057004358
30
0
41
1
10
114.022289180311
20
2.65060978581241
30
0
41
1
10
114.083095531227
20
2.63982275343142
30
0
41
1
10
114.103575957612
20
2.63743261295718
30
0
41
1
10
114.144999792108
20
2.63528951944971
30
0
41
1
10
114.165902221221
20
2.63542616990523
30
0
41
1
10
114.270086132711
20
2.63417573922499
30
0
41
1
10
114.353431804299
20
2.63443063832588
30
0
41
1
10
114.43677620551
20
2.63577954918813
30
0
0
SPLINE
5
2AF
100
AcDbEntity
8
1
62
256
6
ByLayer
370
13
48
1
60
0
100
AcDbSpline
70
4
71
3
72
10
73
6
40
0
40
0
40
0
40
0
40
0.5
40
0.5
40
1
40
1
40
1
40
1
41
1
10
115.00284334958
20
3.13730578650174
30
0
41
1
10
114.999163134238
20
3.13711291458839
30
0
41
1
10
114.982469213195
20
3.14736972202613
30
0
41
1
10
114.933032660546
20
3.18177582995492
30
0
41
1
10
114.900288556755
20
3.20583024385272
30
0
41
1
10
114.868916645535
20
3.22953146902384
30
0
0
SPLINE
5
2B0
100
AcDbEntity
8
1
62
256
6
ByLayer
370
13
48
1
60
0
100
AcDbSpline
70
4
71
2
72
6
73
3
40
0
40
0
40
0
40
1
40
1
40
1
41
0.999375529729871
10
113.09281127189
20
6.04266540479046
30
0
41
0.999636859374533
10
113.093152116995
20
6.03789805754706
30
0
41
1
10
113.093588650013
20
6.03313854237277
30
0
0
SPLINE
5
2B1
100
AcDbEntity
8
1
62
256
6
ByLayer
370
13
48
1
60
0
100
AcDbSpline
70
4
71
1
72
4
73
2
40
0
40
0
40
1
40
1
41
1
10
113.806085464529
20
9.37521194367454
30
0
41
1
10
113.936792225741
20
9.22616870977637
30
0
0
SPLINE
5
2B2
100
AcDbEntity
8
1
62
256
6
ByLayer
370
13
48
1
60
0
100
AcDbSpline
70
4
71
3
72
10
73
6
40
0
40
0
40
0
40
0
40
0.135419914600261
40
0.135419914600261
40
1
40
1
40
1
40
1
41
1
10
113.51843356392
20
9.34517618101626
30
0
41
1
10
113.531379740672
20
9.34678354487392
30
0
41
1
10
113.54438807461
20
9.34815568123011
30
0
41
1
10
113.640140893599
20
9.35938311064726
30
0
41
1
10
113.723056633089
20
9.36784160288144
30
0
41
1
10
113.806085464529
20
9.37521194367454
30
0
0
SPLINE
5
2B3
100
AcDbEntity
8
1
62
256
6
ByLayer
370
13
48
1
60
0
100
AcDbSpline
70
4
71
3
72
22
73
18
40
0
40
0
40
0
40
0
40
0.125000000000012
40
0.125000000000012
40
0.250000000000024
40
0.250000000000024
40
0.375000000000036
40
0.375000000000036
40
0.500000000000048
40
0.500000000000048
40
0.750000000000072
40
0.750000000000072
40
0.812500000000054
40
0.812500000000054
40
0.875000000000036
40
0.875000000000036
40
1
40
1
40
1
40
1
41
1
10
122.509841711292
20
9.36847628320803
30
0
41
1
10
122.505008263151
20
9.40389819612994
30
0
41
1
10
122.496249639558
20
9.43794307771572
30
0
41
1
10
122.471102293055
20
9.50335604694902
30
0
41
1
10
122.454751738492
20
9.53521454453505
30
0
41
1
10
122.415711815732
20
9.59421092541865
30
0
41
1
10
122.393314356214
20
9.62125918733327
30
0
41
1
10
122.343006917792
20
9.67066230117373
30
0
41
1
10
122.314846720745
20
9.69286329414894
30
0
41
1
10
122.225997062091
20
9.74923170592137
30
0
41
1
10
122.158136385116
20
9.77430876970521
30
0
41
1
10
122.071545458333
20
9.78742855916684
30
0
41
1
10
122.054075858739
20
9.78919004732236
30
0
41
1
10
122.01878554191
20
9.79071302454071
30
0
41
1
10
122.001020602096
20
9.79069425282469
30
0
41
1
10
121.947845528032
20
9.79130228946892
30
0
41
1
10
121.912395648102
20
9.79156172478145
30
0
41
1
10
121.876946054949
20
9.79157419683324
30
0
0
SPLINE
5
2B4
100
AcDbEntity
8
1
62
256
6
ByLayer
370
13
48
1
60
0
100
AcDbSpline
70
4
71
3
72
18
73
14
40
0
40
0
40
0
40
0
40
0.0552541904068033
40
0.0552541904068033
40
0.28537865029009
40
0.28537865029009
40
0.515503110173377
40
0.515503110173377
40
0.630565340114984
40
0.630565340114984
40
0.74562757005659
40
0.74562757005659
40
1
40
1
40
1
40
1
41
1
10
122.409680800886
20
3.21285163343848
30
0
41
1
10
122.402941154784
20
3.2054973433971
30
0
41
1
10
122.395974126601
20
3.19834023421845
30
0
41
1
10
122.358851889402
20
3.16248209427403
30
0
41
1
10
122.325948686773
20
3.13769109609586
30
0
41
1
10
122.254213950075
20
3.09634593503967
30
0
41
1
10
122.215478742243
20
3.07999665599829
30
0
41
1
10
122.156133046798
20
3.06291272169113
30
0
41
1
10
122.136014652042
20
3.05839488715941
30
0
41
1
10
122.095041755917
20
3.05193356397987
30
0
41
1
10
122.074239548635
20
3.04988456705613
30
0
41
1
10
122.007788527881
20
3.04209289937381
30
0
41
1
10
121.96199436601
20
3.03710935762791
30
0
41
1
10
121.916163381712
20
3.03248011499463
30
0
0
SPLINE
5
2B5
100
AcDbEntity
8
1
62
256
6
ByLayer
370
13
48
1
60
0
100
AcDbSpline
70
4
71
1
72
4
73
2
40
0
40
0
40
1
40
1
41
1
10
113.04267822382
20
5.9608241775536
30
0
41
1
10
113.1046602496
20
5.96588143217281
30
0
0
SPLINE
5
2B6
100
AcDbEntity
8
1
62
256
6
ByLayer
370
13
48
1
60
0
100
AcDbSpline
70
4
71
3
72
22
73
18
40
0
40
0
40
0
40
0
40
0.125000000000005
40
0.125000000000005
40
0.187500000000007
40
0.187500000000007
40
0.25000000000001
40
0.25000000000001
40
0.281250000000011
40
0.281250000000011
40
0.312500000000012
40
0.312500000000012
40
0.375000000000015
40
0.375000000000015
40
0.500000000000007
40
0.500000000000007
40
1
40
1
40
1
40
1
41
1
10
121.056856869254
20
9.0526163420173
30
0
41
1
10
120.945644922225
20
8.97855937331065
30
0
41
1
10
120.827597593188
20
8.91964260454455
30
0
41
1
10
120.640574678402
20
8.85331070765815
30
0
41
1
10
120.576091874231
20
8.83482778260887
30
0
41
1
10
120.446856432131
20
8.80628988141416
30
0
41
1
10
120.38194609429
20
8.79614475867689
30
0
41
1
10
120.284159678154
20
8.78685892077172
30
0
41
1
10
120.251467946029
20
8.78512022800385
30
0
41
1
10
120.186081512004
20
8.78168469530488
30
0
41
1
10
120.153386387129
20
8.77999381631946
30
0
41
1
10
120.05530518723
20
8.77486234525193
30
0
41
1
10
119.989918901574
20
8.77142472159073
30
0
41
1
10
119.793758790233
20
8.76112952839605
30
0
41
1
10
119.662984543024
20
8.7542778993747
30
0
41
1
10
119.009113059096
20
8.72002324764935
30
0
41
1
10
118.486017035668
20
8.69260312612161
30
0
41
1
10
117.962920600756
20
8.66518880361699
30
0
0
SPLINE
5
2B7
100
AcDbEntity
8
1
62
256
6
ByLayer
370
13
48
1
60
0
100
AcDbSpline
70
4
71
2
72
6
73
3
40
0
40
0
40
0
40
1
40
1
40
1
41
1
10
113.10608940186
20
5.93861158254174
30
0
41
0.997409491337352
10
113.101655717642
20
5.90473385316133
30
0
41
1
10
113.102108736027
20
5.87056561653796
30
0
0
SPLINE
5
2B8
100
AcDbEntity
8
1
62
256
6
ByLayer
370
13
48
1
60
0
100
AcDbSpline
70
4
71
3
72
8
73
4
40
0
40
0
40
0
40
0
40
1
40
1
40
1
40
1
41
1
10
113.102331444751
20
5.86100968513995
30
0
41
1
10
113.104269425683
20
5.84463754852624
30
0
41
1
10
113.106913752541
20
5.82576844058877
30
0
41
1
10
113.111218407419
20
5.80273920101772
30
0
0
SPLINE
5
2B9
100
AcDbEntity
8
1
62
256
6
ByLayer
370
13
48
1
60
0
100
AcDbSpline
70
4
71
2
72
6
73
3
40
0
40
0
40
0
40
1
40
1
40
1
41
1
10
113.1046602496
20
5.96588143217281
30
0
41
0.997409491337352
10
113.096709666577
20
5.99911012960907
30
0
41
1
10
113.093588650013
20
6.03313854237277
30
0
0
SPLINE
5
2BA
100
AcDbEntity
8
1
62
256
6
ByLayer
370
13
48
1
60
0
100
AcDbSpline
70
4
71
1
72
4
73
2
40
0
40
0
40
1
40
1
41
1
10
113.218606708615
20
5.94928631212662
30
0
41
1
10
113.10608940186
20
5.93861158254174
30
0
0
SPLINE
5
2BB
100
AcDbEntity
8
1
62
256
6
ByLayer
370
13
48
1
60
0
100
AcDbSpline
70
4
71
2
72
6
73
3
40
0
40
0
40
0
40
1
40
1
40
1
41
1
10
113.214406075828
20
5.87748020535332
30
0
41
0.997409491337352
10
113.213928024175
20
5.91353653890811
30
0
41
1
10
113.218606708615
20
5.94928631212662
30
0
0
SPLINE
5
2BC
100
AcDbEntity
8
1
62
256
6
ByLayer
370
13
48
1
60
0
100
AcDbSpline
70
4
71
3
72
18
73
14
40
0
40
0
40
0
40
0
40
0.500000000000014
40
0.500000000000014
40
0.750000000000028
40
0.750000000000028
40
0.78125000000003
40
0.78125000000003
40
0.812500000000032
40
0.812500000000032
40
0.875000000000021
40
0.875000000000021
40
1
40
1
40
1
40
1
41
1
10
117.962920600755
20
8.66518880361696
30
0
41
1
10
117.481247754087
20
8.63994539938213
30
0
41
1
10
116.999573372668
20
8.61473181717341
30
0
41
1
10
116.277064493319
20
8.57685814349952
30
0
41
1
10
116.036232373028
20
8.56415142792184
30
0
41
1
10
115.7652886858
20
8.55000506032951
30
0
41
1
10
115.735182462194
20
8.54846020482813
30
0
41
1
10
115.674975255509
20
8.54526731446612
30
0
41
1
10
115.644867844645
20
8.54374583459676
30
0
41
1
10
115.554380756116
20
8.54242720091705
30
0
41
1
10
115.494269299089
20
8.54503202313876
30
0
41
1
10
115.315970072475
20
8.56264982186948
30
0
41
1
10
115.19916170691
20
8.58721697937091
30
0
41
1
10
115.084526428738
20
8.62532453545771
30
0
0
SPLINE
5
2BD
100
AcDbEntity
8
1
62
256
6
ByLayer
370
13
48
1
60
0
100
AcDbSpline
70
4
71
3
72
8
73
4
40
0
40
0
40
0
40
0
40
1
40
1
40
1
40
1
41
1
10
122.055351763602
20
3.18325039180914
30
0
41
1
10
122.004415209748
20
3.18206956226493
30
0
41
1
10
121.95624854955
20
3.18267490733265
30
0
41
1
10
121.908168788088
20
3.18323192758339
30
0
0
SPLINE
5
2BE
100
AcDbEntity
8
1
62
256
6
ByLayer
370
13
48
1
60
0
100
AcDbSpline
70
4
71
3
72
24
73
20
40
0
40
0
40
0
40
0
40
0.116593406333824
40
0.116593406333824
40
0.204934065700477
40
0.204934065700477
40
0.293274725067129
40
0.293274725067129
40
0.381615384433781
40
0.381615384433781
40
0.425785714117108
40
0.425785714117108
40
0.469956043800434
40
0.469956043800434
40
0.558296703167001
40
0.558296703167001
40
0.646637362533568
40
0.646637362533568
40
1
40
1
40
1
40
1
41
1
10
113.493889040421
20
9.1904397406463
30
0
41
1
10
113.50689717515
20
9.1954573222682
30
0
41
1
10
113.52127882607
20
9.20026007954911
30
0
41
1
10
113.549608855212
20
9.2078087286134
30
0
41
1
10
113.562505496538
20
9.21069390589116
30
0
41
1
10
113.590047657407
20
9.21544723194631
30
0
41
1
10
113.603866955077
20
9.21711422849222
30
0
41
1
10
113.631585390573
20
9.21927312555084
30
0
41
1
10
113.645233817461
20
9.21990141813677
30
0
41
1
10
113.665241953733
20
9.22042663539105
30
0
41
1
10
113.671788369492
20
9.22047329436717
30
0
41
1
10
113.685356909195
20
9.22106340669009
30
0
41
1
10
113.692476891891
20
9.22170877183692
30
0
41
1
10
113.713607191223
20
9.22340536715848
30
0
41
1
10
113.726904503874
20
9.2237162732157
30
0
41
1
10
113.753891306297
20
9.22474546364276
30
0
41
1
10
113.767316624371
20
9.22518933674391
30
0
41
1
10
113.833777884795
20
9.22671758342585
30
0
41
1
10
113.885346178743
20
9.22642858332225
30
0
41
1
10
113.936792225741
20
9.2261687097764
30
0
0
SPLINE
5
2BF
100
AcDbEntity
8
1
62
256
6
ByLayer
370
13
48
1
60
0
100
AcDbSpline
70
4
71
3
72
10
73
6
40
0
40
0
40
0
40
0
40
0.470475711164585
40
0.470475711164585
40
1
40
1
40
1
40
1
41
1
10
121.120071698948
20
9.19840115000105
30
0
41
1
10
121.120089854981
20
9.19815851995693
30
0
41
1
10
121.133017001418
20
9.19764156612729
30
0
41
1
10
121.181320771189
20
9.19627455883673
30
0
41
1
10
121.219289885409
20
9.19540552482601
30
0
41
1
10
121.258547703069
20
9.19467454075152
30
0
0
SPLINE
5
2C0
100
AcDbEntity
8
1
62
256
6
ByLayer
370
13
48
1
60
0
100
AcDbSpline
70
4
71
1
72
4
73
2
40
0
40
0
40
1
40
1
41
1
10
113.654520236019
20
3.05766344777643
30
0
41
1
10
113.624489056897
20
3.05682040238085
30
0
0
SPLINE
5
2C1
100
AcDbEntity
8
1
62
256
6
ByLayer
370
13
48
1
60
0
100
AcDbSpline
70
4
71
2
72
6
73
3
40
0
40
0
40
0
40
1
40
1
40
1
41
1
10
122.949955871483
20
6.54865952563114
30
0
41
0.997409491337352
10
122.950433923136
20
6.51260319207633
30
0
41
1
10
122.945755238696
20
6.47685341885781
30
0
0
SPLINE
5
2C2
100
AcDbEntity
8
1
62
256
6
ByLayer
370
13
48
1
60
0
100
AcDbSpline
70
4
71
1
72
4
73
2
40
0
40
0
40
1
40
1
41
1
10
121.804812502181
20
3.02192196917349
30
0
41
1
10
121.908168788088
20
3.18323192758339
30
0
0
SPLINE
5
2C3
100
AcDbEntity
8
1
62
256
6
ByLayer
370
13
48
1
60
0
100
AcDbSpline
70
4
71
1
72
4
73
2
40
0
40
0
40
1
40
1
41
1
10
114.100828184211
20
9.22587431459959
30
0
41
1
10
113.965428270679
20
9.38569222979555
30
0
0
SPLINE
5
2C4
100
AcDbEntity
8
1
62
256
6
ByLayer
370
13
48
1
60
0
100
AcDbSpline
70
4
71
3
72
22
73
18
40
0
40
0
40
0
40
0
40
0.125000000000002
40
0.125000000000002
40
0.187499999999997
40
0.187499999999997
40
0.249999999999993
40
0.249999999999993
40
0.28124999999999
40
0.28124999999999
40
0.312499999999988
40
0.312499999999988
40
0.374999999999996
40
0.374999999999996
40
0.5
40
0.5
40
1
40
1
40
1
40
1
41
1
10
115.171782400505
20
3.29065738291268
30
0
41
1
10
115.280193206861
20
3.36284904853986
30
0
41
1
10
115.39625796263
20
3.420215970047
30
0
41
1
10
115.581992483467
20
3.48372618671343
30
0
41
1
10
115.645454111601
20
3.50089906942966
30
0
41
1
10
115.772269658249
20
3.52662648485244
30
0
41
1
10
115.836072051528
20
3.53539897272586
30
0
41
1
10
115.932386919713
20
3.5422202810565
30
0
41
1
10
115.964578211442
20
3.54359896603353
30
0
41
1
10
116.028903831482
20
3.54694690384395
30
0
41
1
10
116.061065821437
20
3.54862937476599
30
0
41
1
10
116.157550859451
20
3.55368644849258
30
0
41
1
10
116.221873364873
20
3.55706667708742
30
0
41
1
10
116.414842396766
20
3.56719164961129
30
0
41
1
10
116.543489444415
20
3.57393107035176
30
0
41
1
10
117.186724575654
20
3.60762829477272
30
0
41
1
10
117.701311792944
20
3.63460301350909
30
0
41
1
10
118.215899341856
20
3.66157140419426
30
0
0
SPLINE
5
2C5
100
AcDbEntity
8
1
62
256
6
ByLayer
370
13
48
1
60
0
100
AcDbSpline
70
4
71
1
72
4
73
2
40
0
40
0
40
1
40
1
41
1
10
113.074272306811
20
6.1006486371268
30
0
41
1
10
113.087384935857
20
6.10111725265841
30
0
0
SPLINE
5
2C6
100
AcDbEntity
8
1
62
256
6
ByLayer
370
13
48
1
60
0
100
AcDbSpline
70
4
71
2
72
6
73
3
40
0
40
0
40
0
40
1
40
1
40
1
41
0.999375529729871
10
113.102331444751
20
5.86100968512886
30
0
41
0.999636859374533
10
113.10217209919
20
5.86578654436031
30
0
41
1
10
113.102108736027
20
5.87056561653796
30
0
0
SPLINE
5
2C7
100
AcDbEntity
8
1
62
256
6
ByLayer
370
13
48
1
60
0
100
AcDbSpline
70
4
71
3
72
18
73
14
40
0
40
0
40
0
40
0
40
0.499999999999957
40
0.499999999999957
40
0.749999999999935
40
0.749999999999935
40
0.781249999999941
40
0.781249999999941
40
0.812499999999948
40
0.812499999999948
40
0.87499999999996
40
0.87499999999996
40
1
40
1
40
1
40
1
41
1
10
117.948462605455
20
8.76456832679014
30
0
41
1
10
117.474760147625
20
8.73974263293437
30
0
41
1
10
117.001056311765
20
8.71494422693556
30
0
41
1
10
116.290502770013
20
8.67770124401045
30
0
41
1
10
116.053655001128
20
8.66521417336949
30
0
41
1
10
115.787195810625
20
8.65128243261975
30
0
41
1
10
115.757589115858
20
8.6497369783379
30
0
41
1
10
115.698375414556
20
8.64665271715319
30
0
41
1
10
115.668782403514
20
8.64481550344308
30
0
41
1
10
115.579898824302
20
8.64153295596546
30
0
41
1
10
115.520380231774
20
8.64277387517171
30
0
41
1
10
115.34228423322
20
8.65731472471751
30
0
41
1
10
115.22410376906
20
8.68069652433931
30
0
41
1
10
115.106554166103
20
8.71977287290383
30
0
0
SPLINE
5
2C8
100
AcDbEntity
8
1
62
256
6
ByLayer
370
13
48
1
60
0
100
AcDbSpline
70
4
71
3
72
22
73
18
40
0
40
0
40
0
40
0
40
0.125
40
0.125
40
0.187499999999995
40
0.187499999999995
40
0.249999999999989
40
0.249999999999989
40
0.281249999999986
40
0.281249999999986
40
0.312499999999983
40
0.312499999999983
40
0.374999999999991
40
0.374999999999991
40
0.499999999999993
40
0.499999999999993
40
1
40
1
40
1
40
1
41
1
10
120.992579546805
20
9.13548234807178
30
0
41
1
10
120.88416874045
20
9.0632906824446
30
0
41
1
10
120.768103984681
20
9.00592376093746
30
0
41
1
10
120.582369463843
20
8.94241354427101
30
0
41
1
10
120.51890783571
20
8.92524066155477
30
0
41
1
10
120.392092289062
20
8.89951324613202
30
0
41
1
10
120.328289895783
20
8.8907407582586
30
0
41
1
10
120.231975027598
20
8.88391944992796
30
0
41
1
10
120.199783735869
20
8.8825407649509
30
0
41
1
10
120.135458115829
20
8.87919282714049
30
0
41
1
10
120.103296125874
20
8.87751035621844
30
0
41
1
10
120.006811087859
20
8.87245328249188
30
0
41
1
10
119.942488582438
20
8.86907305389704
30
0
41
1
10
119.749519550544
20
8.85894808137317
30
0
41
1
10
119.620872502895
20
8.8522086606327
30
0
41
1
10
118.977637371656
20
8.81851143621174
30
0
41
1
10
118.463050154367
20
8.79153671747537
30
0
41
1
10
117.948462605455
20
8.76456832679017
30
0
0
SPLINE
5
2C9
100
AcDbEntity
8
1
62
256
6
ByLayer
370
13
48
1
60
0
100
AcDbSpline
70
4
71
3
72
10
73
6
40
0
40
0
40
0
40
0
40
0.5
40
0.5
40
1
40
1
40
1
40
1
41
1
10
121.908168788088
20
3.18323192758339
30
0
41
1
10
121.881604792223
20
3.18226116059017
30
0
41
1
10
121.857484788206
20
3.18276771669054
30
0
41
1
10
121.809122929624
20
3.18363792040276
30
0
41
1
10
121.784783621111
20
3.18398924801957
30
0
41
1
10
121.760529482699
20
3.18438563493578
30
0
0
SPLINE
5
2CA
100
AcDbEntity
8
1
62
256
6
ByLayer
370
13
48
1
60
0
100
AcDbSpline
70
4
71
3
72
18
73
14
40
0
40
0
40
0
40
0
40
0.500000000000007
40
0.500000000000007
40
0.750000000000004
40
0.750000000000004
40
0.781250000000003
40
0.781250000000003
40
0.812500000000003
40
0.812500000000003
40
0.875000000000002
40
0.875000000000002
40
1
40
1
40
1
40
1
41
1
10
118.219890145908
20
3.76191778797204
30
0
41
1
10
118.701562992577
20
3.78716119220687
30
0
41
1
10
119.183237373996
20
3.81237477441559
30
0
41
1
10
119.905746253345
20
3.85024844808947
30
0
41
1
10
120.146578373636
20
3.86295516366715
30
0
41
1
10
120.417522060864
20
3.87710153125948
30
0
41
1
10
120.44762828447
20
3.87864638676086
30
0
41
1
10
120.507835491155
20
3.88183927712288
30
0
41
1
10
120.537942902019
20
3.88336075699223
30
0
41
1
10
120.628429990548
20
3.88467939067195
30
0
41
1
10
120.688541447575
20
3.88207456845026
30
0
41
1
10
120.86684067419
20
3.86445676971954
30
0
41
1
10
120.983649039754
20
3.83988961221812
30
0
41
1
10
121.098284317926
20
3.80178205613129
30
0
0
SPLINE
5
2CB
100
AcDbEntity
8
1
62
256
6
ByLayer
370
13
48
1
60
0
100
AcDbSpline
70
4
71
3
72
11
73
7
40
0
40
0
40
0
40
0
40
0.25
40
0.5
40
0.75
40
1
40
1
40
1
40
1
41
1
10
113.806085464529
20
9.37521194367454
30
0
41
1
10
113.819341455492
20
9.37638423594998
30
0
41
1
10
113.845877061184
20
9.37846347937759
30
0
41
1
10
113.885732929841
20
9.38079290408103
30
0
41
1
10
113.925579854966
20
9.38325349767953
30
0
41
1
10
113.952145465361
20
9.38487931908529
30
0
41
1
10
113.965428270679
20
9.38569222979555
30
0
0
SPLINE
5
2CC
100
AcDbEntity
8
1
62
256
6
ByLayer
370
13
48
1
60
0
100
AcDbSpline
70
4
71
2
72
6
73
3
40
0
40
0
40
0
40
1
40
1
40
1
41
1
10
122.949955871483
20
6.54865952563114
30
0
41
0.997409491337352
10
122.94947781983
20
6.58471585918733
30
0
41
1
10
122.943852926428
20
6.62033248698239
30
0
0
SPLINE
5
2CD
100
AcDbEntity
8
1
62
256
6
ByLayer
370
13
48
1
60
0
100
AcDbSpline
70
4
71
3
72
11
73
7
40
0
40
0
40
0
40
0
40
0.25
40
0.5
40
0.75
40
1
40
1
40
1
40
1
41
1
10
121.727585741801
20
9.79036018179633
30
0
41
1
10
121.714279830633
20
9.79014042376755
30
0
41
1
10
121.687672249646
20
9.78943455079727
30
0
41
1
10
121.647791224423
20
9.78758514196554
30
0
41
1
10
121.607905382855
20
9.78586711832563
30
0
41
1
10
121.58131535704
20
9.78470717088121
30
0
41
1
10
121.568020344012
20
9.78412719715374
30
0
0
SPLINE
5
2CE
100
AcDbEntity
8
1
62
256
6
ByLayer
370
13
48
1
60
0
100
AcDbSpline
70
4
71
1
72
4
73
2
40
0
40
0
40
1
40
1
41
1
10
113.220509020883
20
5.80580724400207
30
0
41
1
10
113.111218407419
20
5.80273920101772
30
0
0
SPLINE
5
2CF
100
AcDbEntity
8
1
62
256
6
ByLayer
370
13
48
1
60
0
100
AcDbSpline
70
4
71
3
72
18
73
14
40
0
40
0
40
0
40
0
40
0.499999999999971
40
0.499999999999971
40
0.749999999999956
40
0.749999999999956
40
0.781249999999964
40
0.781249999999964
40
0.812499999999971
40
0.812499999999971
40
0.874999999999985
40
0.874999999999985
40
1
40
1
40
1
40
1
41
1
10
118.215899341856
20
3.66157140419429
30
0
41
1
10
118.689601799686
20
3.68639709805006
30
0
41
1
10
119.163305635546
20
3.71119550404887
30
0
41
1
10
119.873859177298
20
3.74843848697401
30
0
41
1
10
120.110706946183
20
3.76092555761497
30
0
41
1
10
120.377166136686
20
3.77485729836471
30
0
41
1
10
120.406772831453
20
3.77640275264656
30
0
41
1
10
120.465986532755
20
3.77948701383127
30
0
41
1
10
120.495579543797
20
3.78132422754135
30
0
41
1
10
120.584463123008
20
3.784606775019
30
0
41
1
10
120.643981715537
20
3.78336585581272
30
0
41
1
10
120.822077714091
20
3.76882500626695
30
0
41
1
10
120.940258178251
20
3.74544320664509
30
0
41
1
10
121.057807781208
20
3.70636685808063
30
0
0
SPLINE
5
2D0
100
AcDbEntity
8
1
62
256
6
ByLayer
370
13
48
1
60
0
100
AcDbSpline
70
4
71
3
72
24
73
20
40
0
40
0
40
0
40
0
40
0.249999999999939
40
0.249999999999939
40
0.374999999999937
40
0.374999999999937
40
0.499999999999935
40
0.499999999999935
40
0.624999999999933
40
0.624999999999933
40
0.749999999999931
40
0.749999999999931
40
0.81249999999993
40
0.81249999999993
40
0.843749999999929
40
0.843749999999929
40
0.874999999999929
40
0.874999999999929
40
1
40
1
40
1
40
1
41
1
10
122.458537903448
20
3.27553280804773
30
0
41
1
10
122.436843885736
20
3.26325791750807
30
0
41
1
10
122.412562315647
20
3.25078289447291
30
0
41
1
10
122.370435122034
20
3.23255281812962
30
0
41
1
10
122.355449060021
20
3.22657096130948
30
0
41
1
10
122.322549040133
20
3.21490149205607
30
0
41
1
10
122.304942633634
20
3.20932605630665
30
0
41
1
10
122.26620603301
20
3.1993586996503
30
0
41
1
10
122.245419016217
20
3.19510711096643
30
0
41
1
10
122.205010690738
20
3.18969110817724
30
0
41
1
10
122.185656777185
20
3.18860787586681
30
0
41
1
10
122.158174581581
20
3.18775307066303
30
0
41
1
10
122.149527393752
20
3.18782031285682
30
0
41
1
10
122.13515527194
20
3.18696985745348
30
0
41
1
10
122.130072556279
20
3.18648900491064
30
0
41
1
10
122.120105739032
20
3.18566153077541
30
0
41
1
10
122.115338021565
20
3.18539325195874
30
0
41
1
10
122.091838340279
20
3.18428041004029
30
0
41
1
10
122.073453641204
20
3.18367003605789
30
0
41
1
10
122.055351763602
20
3.18325039180914
30
0
0
SPLINE
5
2D1
100
AcDbEntity
8
SK1
62
256
6
ByLayer
370
13
48
1
60
0
100
AcDbSpline
70
4
71
3
72
8
73
4
40
0
40
0
40
0
40
0
40
1
40
1
40
1
40
1
41
1
10
-52.5998571439056
20
-6.99857202024091
30
0
41
1
10
-52.9479487851792
20
-6.78433420177186
30
0
41
1
10
-53.2928798234837
20
-6.56533950830294
30
0
41
1
10
-53.6338131992802
20
-6.34032812085843
30
0
0
SPLINE
5
2D2
100
AcDbEntity
8
SK1
62
256
6
ByLayer
370
13
48
1
60
0
100
AcDbSpline
70
4
71
3
72
18
73
14
40
0
40
0
40
0
40
0
40
0.250000000000001
40
0.250000000000001
40
0.500000000000001
40
0.500000000000001
40
0.625000000000001
40
0.625000000000001
40
0.750000000000001
40
0.750000000000001
40
0.875
40
0.875
40
1
40
1
40
1
40
1
41
1
10
-54.5162221138916
20
6.81202898183318
30
0
41
1
10
-54.4772970244431
20
6.72457714976824
30
0
41
1
10
-54.4307065013895
20
6.63918003305162
30
0
41
1
10
-54.3191104436761
20
6.48261269990277
30
0
41
1
10
-54.2534817600869
20
6.41019877906004
30
0
41
1
10
-54.136283787001
20
6.32619750079633
30
0
41
1
10
-54.0935094971742
20
6.30217611468402
30
0
41
1
10
-54.0030350925562
20
6.26802830974705
30
0
41
1
10
-53.954986307026
20
6.25793437821719
30
0
41
1
10
-53.8587999994146
20
6.25505426790869
30
0
41
1
10
-53.8097812214382
20
6.26239551321621
30
0
41
1
10
-53.7180788416409
20
6.29165811737894
30
0
41
1
10
-53.6739760596325
20
6.31382117969852
30
0
41
1
10
-53.63381319928
20
6.34032812085832
30
0
0
SPLINE
5
2D3
100
AcDbEntity
8
SK1
62
256
6
ByLayer
370
13
48
1
60
0
100
AcDbSpline
70
4
71
3
72
8
73
4
40
0
40
0
40
0
40
0
40
1
40
1
40
1
40
1
41
1
10
-55
20
-6.99857202024091
30
0
41
1
10
-55.3647894321562
20
-6.34719880823223
30
0
41
1
10
-55.7025751082723
20
-5.68271935719741
30
0
41
1
10
-56
20
-4.99865085022941
30
0
0
SPLINE
5
2D4
100
AcDbEntity
8
SK1
62
256
6
ByLayer
370
13
48
1
60
0
100
AcDbSpline
70
4
71
3
72
8
73
4
40
0
40
0
40
0
40
0
40
1
40
1
40
1
40
1
41
1
10
-54.5162221138916
20
-6.81202898183307
30
0
41
1
10
-54.5439351414378
20
-6.87429101039413
30
0
41
1
10
-54.5718768490337
20
-6.93647114421498
30
0
41
1
10
-54.6000398733642
20
-6.99857202024091
30
0
0
SPLINE
5
2D5
100
AcDbEntity
8
SK1
62
256
6
ByLayer
370
13
48
1
60
0
100
AcDbSpline
70
4
71
3
72
71
73
67
40
0
40
0
40
0
40
0
40
0.0312500000000003
40
0.0312500000000003
40
0.0468750000000004
40
0.0468750000000004
40
0.0625000000000005
40
0.0625000000000005
40
0.0781250000000005
40
0.0781250000000005
40
0.0937500000000006
40
0.0937500000000006
40
0.125000000000001
40
0.125000000000001
40
0.140625000000001
40
0.140625000000001
40
0.156250000000001
40
0.156250000000001
40
0.187500000000001
40
0.187500000000001
40
0.218750000000001
40
0.218750000000001
40
0.250000000000001
40
0.250000000000001
40
0.312500000000001
40
0.312500000000001
40
0.375000000000002
40
0.375000000000002
40
0.406250000000002
40
0.406250000000002
40
0.437500000000002
40
0.437500000000002
40
0.500000000000002
40
0.562500000000002
40
0.562500000000002
40
0.593750000000002
40
0.593750000000002
40
0.625000000000002
40
0.625000000000002
40
0.687500000000002
40
0.687500000000002
40
0.750000000000002
40
0.750000000000002
40
0.781250000000002
40
0.781250000000002
40
0.812500000000001
40
0.812500000000001
40
0.843750000000001
40
0.843750000000001
40
0.859375000000001
40
0.859375000000001
40
0.875000000000001
40
0.875000000000001
40
0.906250000000001
40
0.906250000000001
40
0.921875000000001
40
0.921875000000001
40
0.937500000000001
40
0.937500000000001
40
0.953125
40
0.953125
40
0.96875
40
0.96875
40
0.984375
40
0.984375
40
1
40
1
40
1
40
1
41
1
10
-6.50000000009538
20
6.998572020241
30
0
41
1
10
-6.31571533004515
20
6.99857202024967
30
0
41
1
10
-6.13743573179397
20
6.97387109270571
30
0
41
1
10
-5.87807007883168
20
6.90321966844968
30
0
41
1
10
-5.79249754001009
20
6.87371201184882
30
0
41
1
10
-5.6293361169906
20
6.80569256211214
30
0
41
1
10
-5.55109427743696
20
6.76707109549224
30
0
41
1
10
-5.40055384552451
20
6.68141826816264
30
0
41
1
10
-5.32815416062539
20
6.63430399969613
30
0
41
1
10
-5.18925210594989
20
6.53244521628065
30
0
41
1
10
-5.12377844902809
20
6.47848470758717
30
0
41
1
10
-4.93748624451072
20
6.3085827822143
30
0
41
1
10
-4.8267115899061
20
6.1846770027818
30
0
41
1
10
-4.6761911608582
20
5.98533103669445
30
0
41
1
10
-4.62855056556253
20
5.91642308507087
30
0
41
1
10
-4.53922153852642
20
5.77634068999626
30
0
41
1
10
-4.49736020419419
20
5.70496414000004
30
0
41
1
10
-4.37902027112833
20
5.48717552116739
30
0
41
1
10
-4.30973548429904
20
5.33712034908373
30
0
41
1
10
-4.18597550641348
20
5.02855833309758
30
0
41
1
10
-4.13152858900258
20
4.87004242457732
30
0
41
1
10
-4.03445407647325
20
4.54538526361949
30
0
41
1
10
-3.99218870828807
20
4.38036541349672
30
0
41
1
10
-3.8806630298719
20
3.8815043831257
30
0
41
1
10
-3.82597090267365
20
3.54235643247728
30
0
41
1
10
-3.74047959020675
20
2.85273429591121
30
0
41
1
10
-3.70981920131712
20
2.50224542423098
30
0
41
1
10
-3.67535340381019
20
1.96866904162033
30
0
41
1
10
-3.66582822790039
20
1.78937635765021
30
0
41
1
10
-3.65011537208733
20
1.4316899722499
30
0
41
1
10
-3.64389707389739
20
1.25286356942047
30
0
41
1
10
-3.62929622079273
20
0.716432949039586
30
0
41
1
10
-3.62042488526302
20
0.0013212454733491
30
0
41
1
10
-3.62924953065914
20
-0.713539660438329
30
0
41
1
10
-3.64379211765163
20
-1.24958871665936
30
0
41
1
10
-3.64998697783565
20
-1.42825557634492
30
0
41
1
10
-3.66563837164477
20
-1.78555583380015
30
0
41
1
10
-3.67511786137808
20
-1.96455406997464
30
0
41
1
10
-3.70953832715443
20
-2.49881887149942
30
0
41
1
10
-3.74017720125841
20
-2.84981522124173
30
0
41
1
10
-3.82568979373829
20
-3.54056541591115
30
0
41
1
10
-3.88042216361382
20
-3.88033387025806
30
0
41
1
10
-3.99214803643076
20
-4.3802299370825
30
0
41
1
10
-4.03457139272209
20
-4.54577117988887
30
0
41
1
10
-4.13137165046336
20
-4.86952399241147
30
0
41
1
10
-4.18572933619737
20
-5.02789660502796
30
0
41
1
10
-4.30959364920602
20
-5.33681454089182
30
0
41
1
10
-4.37906730976638
20
-5.48736926922894
30
0
41
1
10
-4.49817195127201
20
-5.70640389482426
30
0
41
1
10
-4.54042880204571
20
-5.77832989383157
30
0
41
1
10
-4.62961647910464
20
-5.917996111653
30
0
41
1
10
-4.67665158712001
20
-5.98594616406356
30
0
41
1
10
-4.82600204453692
20
-6.18372658725997
30
0
41
1
10
-4.9364153318723
20
-6.30756945151506
30
0
41
1
10
-5.12387444002081
20
-6.47859050811525
30
0
41
1
10
-5.18982034314945
20
-6.53284983481481
30
0
41
1
10
-5.32716069139138
20
-6.63358751533818
30
0
41
1
10
-5.39883736540122
20
-6.68033932325883
30
0
41
1
10
-5.54894893429449
20
-6.76595018463183
30
0
41
1
10
-5.62776164553696
20
-6.80497288448146
30
0
41
1
10
-5.79153203652811
20
-6.87337183942776
30
0
41
1
10
-5.87542610285047
20
-6.90235315140345
30
0
41
1
10
-6.04744974985599
20
-6.94949997275469
30
0
41
1
10
-6.13557688289623
20
-6.9676718536326
30
0
41
1
10
-6.31646604914351
20
-6.99230795215647
30
0
41
1
10
-6.40810473763941
20
-6.99857202024529
30
0
41
1
10
-6.50000000009538
20
-6.99857202024097
30
0
0
SPLINE
5
2D6
100
AcDbEntity
8
SK1
62
256
6
ByLayer
370
13
48
1
60
0
100
AcDbSpline
70
4
71
3
72
8
73
4
40
0
40
0
40
0
40
0
40
1
40
1
40
1
40
1
41
1
10
-54.6000398733642
20
6.99857202024106
30
0
41
1
10
-54.571876118047
20
6.93646953235279
30
0
41
1
10
-54.5439344142792
20
6.87428937670879
30
0
41
1
10
-54.5162221138915
20
6.81202898183318
30
0
0
SPLINE
5
2D7
100
AcDbEntity
8
1
62
256
6
ByLayer
370
13
48
1
60
0
100
AcDbSpline
70
4
71
3
72
12
73
8
40
0
40
0
40
0
40
0
40
0.250000000000011
40
0.250000000000011
40
0.500000000000022
40
0.500000000000022
40
1
40
1
40
1
40
1
41
1
10
119.000906053843
20
3.38227271197249
30
0
41
1
10
119.049096121668
20
3.38479824641067
30
0
41
1
10
119.09803311357
20
3.39034647971801
30
0
41
1
10
119.194589963666
20
3.40742485944574
30
0
41
1
10
119.242524790673
20
3.41896658393344
30
0
41
1
10
119.384292297025
20
3.46245534593297
30
0
41
1
10
119.476617086792
20
3.50307838149485
30
0
41
1
10
119.567793234018
20
3.55812824447025
30
0
0
SPLINE
5
2D8
100
AcDbEntity
8
1
62
256
6
ByLayer
370
13
48
1
60
0
100
AcDbSpline
70
4
71
3
72
12
73
8
40
0
40
0
40
0
40
0
40
0.5
40
0.5
40
0.75
40
0.75
40
1
40
1
40
1
40
1
41
1
10
116.88525696611
20
3.41754247582295
30
0
41
1
10
116.990975987501
20
3.37281145138636
30
0
41
1
10
117.097487139916
20
3.34260896599585
30
0
41
1
10
117.259570305341
20
3.31504434293788
30
0
41
1
10
117.314136038278
20
3.30887444517208
30
0
41
1
10
117.423473560441
20
3.30258653226133
30
0
41
1
10
117.478597563783
20
3.3024919046247
30
0
41
1
10
117.532554445822
20
3.30531966498941
30
0
0
SPLINE
5
2D9
100
AcDbEntity
8
1
62
256
6
ByLayer
370
13
48
1
60
0
100
AcDbSpline
70
4
71
3
72
8
73
4
40
0
40
0
40
0
40
0
40
1
40
1
40
1
40
1
41
1
10
121.586848042153
20
-1.13426107440881
30
0
41
1
10
121.65789804326
20
-1.52855383849433
30
0
41
1
10
121.673644314716
20
-1.92075278752512
30
0
41
1
10
121.639385490869
20
-2.31047024751214
30
0
0
SPLINE
5
2DA
100
AcDbEntity
8
1
62
256
6
ByLayer
370
13
48
1
60
0
100
AcDbSpline
70
4
71
3
72
14
73
10
40
0
40
0
40
0
40
0
40
0.25
40
0.25
40
0.5
40
0.5
40
0.75
40
0.75
40
1
40
1
40
1
40
1
41
1
10
62.4
20
-9.38735672822082
30
0
41
1
10
59.450030366456
20
-9.39653291390772
30
0
41
1
10
56.5000287962122
20
-9.40481308269929
30
0
41
1
10
50.6000217098952
20
-9.42120366139048
30
0
41
1
10
47.650017426778
20
-9.42921909160793
30
0
41
1
10
41.7500101017098
20
-9.44555158187222
30
0
41
1
10
38.8000068810596
20
-9.45385681087251
30
0
41
1
10
32.9000033976906
20
-9.47056038887902
30
0
41
1
10
29.9500029065961
20
-9.47897486594266
30
0
41
1
10
27
20
-9.48726259072717
30
0
0
SPLINE
5
2DB
100
AcDbEntity
8
1
62
256
6
ByLayer
370
13
48
1
60
0
100
AcDbSpline
70
4
71
3
72
8
73
4
40
0
40
0
40
0
40
0
40
1
40
1
40
1
40
1
41
1
10
115.174077446877
20
3.07721945595856
30
0
41
1
10
115.201792334127
20
3.0712529260816
30
0
41
1
10
115.228131657491
20
3.06491874139346
30
0
41
1
10
115.25326789314
20
3.05903108797273
30
0
0
SPLINE
5
2DC
100
AcDbEntity
8
1
62
256
6
ByLayer
370
13
48
1
60
0
100
AcDbSpline
70
4
71
3
72
44
73
40
40
0
40
0
40
0
40
0
40
0.0747663560707481
40
0.0747663560707481
40
0.112149534106122
40
0.112149534106122
40
0.149532712141496
40
0.149532712141496
40
0.299065424282995
40
0.299065424282995
40
0.33644860231837
40
0.33644860231837
40
0.373831780353744
40
0.373831780353744
40
0.448598136424493
40
0.448598136424493
40
0.523364492495241
40
0.523364492495241
40
0.560747670530615
40
0.560747670530615
40
0.598130848565989
40
0.598130848565989
40
0.635514026601363
40
0.635514026601363
40
0.672897204636736
40
0.672897204636736
40
0.747663560707485
40
0.747663560707485
40
0.785046738742859
40
0.785046738742859
40
0.822429916778234
40
0.822429916778234
40
0.897196272848982
40
0.897196272848982
40
0.934579450884357
40
0.934579450884357
40
0.971962628919731
40
0.971962628919731
40
1
40
1
40
1
40
1
41
1
10
104.843039930141
20
2.73741881559766
30
0
41
1
10
103.993254472875
20
3.10302788198894
30
0
41
1
10
103.1432044139
20
3.46163352516132
30
0
41
1
10
101.866275724776
20
3.98596381977029
30
0
41
1
10
101.440067517157
20
4.15857613189303
30
0
41
1
10
100.588175302385
20
4.49818320855235
30
0
41
1
10
100.162575246639
20
4.66514780551475
30
0
41
1
10
98.0356677059331
20
5.48459743703273
30
0
41
1
10
96.3373161659695
20
6.09050137178679
30
0
41
1
10
94.2106297591881
20
6.77107973152175
30
0
41
1
10
93.7848579362968
20
6.90343200807533
30
0
41
1
10
92.9343937283978
20
7.15958104949149
30
0
41
1
10
92.5096674272314
20
7.28339507885784
30
0
41
1
10
91.2357516122169
20
7.64020015707584
30
0
41
1
10
90.3871068822758
20
7.85870173908171
30
0
41
1
10
88.6814411195334
20
8.2472631026283
30
0
41
1
10
87.8238436309123
20
8.41659147686633
30
0
41
1
10
86.5219793965214
20
8.63100551305837
30
0
41
1
10
86.0851670938121
20
8.69605034498952
30
0
41
1
10
85.2080316463463
20
8.81336780222964
30
0
41
1
10
84.7675313749434
20
8.86574205840839
30
0
41
1
10
83.8833945500307
20
8.96048839575329
30
0
41
1
10
83.4397600195804
20
9.00285975073547
30
0
41
1
10
82.5501422524393
20
9.07959620824604
30
0
41
1
10
82.104145994311
20
9.11392590448187
30
0
41
1
10
80.7623722254592
20
9.20610563413288
30
0
41
1
10
79.8628134307074
20
9.25314684170297
30
0
41
1
10
78.5049567314459
20
9.30725596709212
30
0
41
1
10
78.0506780545061
20
9.32255402417704
30
0
41
1
10
77.141712018156
20
9.34845964632058
30
0
41
1
10
76.6867593907082
20
9.35907662009885
30
0
41
1
10
75.3203137769569
20
9.38521181748621
30
0
41
1
10
74.4072333743365
20
9.39502555861085
30
0
41
1
10
73.0337027589289
20
9.40356210322619
30
0
41
1
10
72.575206942748
20
9.40537602001268
30
0
41
1
10
71.6567908228427
20
9.40773848140904
30
0
41
1
10
71.1968774895892
20
9.40829689770834
30
0
41
1
10
70.3909476035082
20
9.40875452361141
30
0
41
1
10
70.0452012096198
20
9.40879575420979
30
0
41
1
10
69.6991459170496
20
9.40874578783234
30
0
0
SPLINE
5
2DD
100
AcDbEntity
8
1
62
256
6
ByLayer
370
13
48
1
60
0
100
AcDbSpline
70
4
71
3
72
10
73
6
40
0
40
0
40
0
40
0
40
0.420946271716546
40
0.420946271716546
40
1
40
1
40
1
40
1
41
1
10
22.45
20
-8.96025401155885
30
0
41
1
10
22.45
20
-8.45608509889627
30
0
41
1
10
22.45
20
-7.95191619551596
30
0
41
1
10
22.45
20
-6.75421252648542
30
0
41
1
10
22.45
20
-6.06067776911613
30
0
41
1
10
22.45
20
-5.36714302930434
30
0
0
SPLINE
5
2DE
100
AcDbEntity
8
1
62
256
6
ByLayer
370
13
48
1
60
0
100
AcDbSpline
70
4
71
3
72
8
73
4
40
0
40
0
40
0
40
0
40
1
40
1
40
1
40
1
41
1
10
110.100325238599
20
0.913503720471482
30
0
41
1
10
110.118686948967
20
0.909972618527206
30
0
41
1
10
110.137056746345
20
0.906511388062285
30
0
41
1
10
110.155434544557
20
0.90312001772682
30
0
0
SPLINE
5
2DF
100
AcDbEntity
8
1
62
256
6
ByLayer
370
13
48
1
60
0
100
AcDbSpline
70
4
71
3
72
10
73
6
40
0
40
0
40
0
40
0
40
0.5
40
0.5
40
1
40
1
40
1
40
1
41
1
10
111.948870289731
20
4.61946944148249
30
0
41
1
10
111.955063072264
20
4.69095347283567
30
0
41
1
10
111.953272710981
20
4.76270434055124
30
0
41
1
10
111.925743037812
20
4.90606996095846
30
0
41
1
10
111.900655968937
20
4.97343719425913
30
0
41
1
10
111.862668860152
20
5.0358874542226
30
0
0
SPLINE
5
2E0
100
AcDbEntity
8
1
62
256
6
ByLayer
370
13
48
1
60
0
100
AcDbSpline
70
4
71
3
72
16
73
12
40
0
40
0
40
0
40
0
40
0.25
40
0.25
40
0.375
40
0.375
40
0.5
40
0.5
40
0.75
40
0.75
40
1
40
1
40
1
40
1
41
1
10
108.743454907987
20
1.01163834438381
30
0
41
1
10
108.851699180282
20
0.969385177531677
30
0
41
1
10
108.962860059447
20
0.935334654626701
30
0
41
1
10
109.133970241163
20
0.896763211265238
30
0
41
1
10
109.192040135195
20
0.885961069638029
30
0
41
1
10
109.308125457142
20
0.868925042924701
30
0
41
1
10
109.365965928811
20
0.862688543949844
30
0
41
1
10
109.538926554339
20
0.850570729326677
30
0
41
1
10
109.653493380676
20
0.8512392589885
30
0
41
1
10
109.881185514444
20
0.869863898182643
30
0
41
1
10
109.992581366472
20
0.88774643193122
30
0
41
1
10
110.100325238599
20
0.913503720471482
30
0
0
SPLINE
5
2E1
100
AcDbEntity
8
1
62
256
6
ByLayer
370
13
48
1
60
0
100
AcDbSpline
70
4
71
3
72
8
73
4
40
0
40
0
40
0
40
0
40
1
40
1
40
1
40
1
41
1
10
113.26227777579
20
6.45279016662053
30
0
41
1
10
113.245081594289
20
6.40465094445605
30
0
41
1
10
113.221777193484
20
6.36157382524286
30
0
41
1
10
113.196150662733
20
6.32511010595675
30
0
0
SPLINE
5
2E2
100
AcDbEntity
8
1
62
256
6
ByLayer
370
13
48
1
60
0
100
AcDbSpline
70
4
71
3
72
24
73
20
40
0
40
0
40
0
40
0
40
0.229552883867498
40
0.229552883867498
40
0.34432932580125
40
0.34432932580125
40
0.401717546768126
40
0.401717546768126
40
0.459105767735002
40
0.459105767735002
40
0.688658651602507
40
0.688658651602507
40
0.803435093536256
40
0.803435093536256
40
0.918211535470005
40
0.918211535470005
40
0.975599756436876
40
0.975599756436876
40
1
40
1
40
1
40
1
41
1
10
109.593002811407
20
3.39751602980533
30
0
41
1
10
109.195115295501
20
3.49038269060142
30
0
41
1
10
108.789049941707
20
3.54984885866554
30
0
41
1
10
108.168654354612
20
3.600822252174
30
0
41
1
10
107.959917054708
20
3.61125153563674
30
0
41
1
10
107.643606832933
20
3.61730817844094
30
0
41
1
10
107.537633544541
20
3.61772301072958
30
0
41
1
10
107.324532876323
20
3.61531744786018
30
0
41
1
10
107.217303679974
20
3.61248474918941
30
0
41
1
10
106.683093235198
20
3.59034401811277
30
0
41
1
10
106.258117793234
20
3.54751524329819
30
0
41
1
10
105.624137393759
20
3.44432773311519
30
0
41
1
10
105.41202057742
20
3.40301388623334
30
0
41
1
10
104.999144041307
20
3.30808135406326
30
0
41
1
10
104.797761772624
20
3.25449049673046
30
0
41
1
10
104.504617761121
20
3.16389901577645
30
0
41
1
10
104.408400431813
20
3.13198776575274
30
0
41
1
10
104.273702086957
20
3.08375281828745
30
0
41
1
10
104.234026398973
20
3.0690837843222
30
0
41
1
10
104.194909820369
20
3.05413538504214
30
0
0
SPLINE
5
2E3
100
AcDbEntity
8
1
62
256
6
ByLayer
370
13
48
1
60
0
100
AcDbSpline
70
4
71
3
72
8
73
4
40
0
40
0
40
0
40
0
40
1
40
1
40
1
40
1
41
1
10
109.392189657327
20
8.90320933262038
30
0
41
1
10
109.450980324801
20
9.01496822113958
30
0
41
1
10
109.508759306457
20
9.12726248153604
30
0
41
1
10
109.565598337695
20
9.24005415230488
30
0
0
SPLINE
5
2E4
100
AcDbEntity
8
1
62
256
6
ByLayer
370
13
48
1
60
0
100
AcDbSpline
70
4
71
3
72
8
73
4
40
0
40
0
40
0
40
0
40
1
40
1
40
1
40
1
41
1
10
110.356213053522
20
4.26635400320259
30
0
41
1
10
110.327514149761
20
4.25670573454576
30
0
41
1
10
110.296396229042
20
4.25148343955775
30
0
41
1
10
110.264572122453
20
4.2500221178658
30
0
0
SPLINE
5
2E5
100
AcDbEntity
8
1
62
256
6
ByLayer
370
13
48
1
60
0
100
AcDbSpline
70
4
71
3
72
10
73
6
40
0
40
0
40
0
40
0
40
0.117597368089932
40
0.117597368089932
40
1
40
1
40
1
40
1
41
1
10
120.921240724983
20
3.47688611929334
30
0
41
1
10
120.91617677491
20
3.4703067961045
30
0
41
1
10
120.911117024424
20
3.46387706691996
30
0
41
1
10
120.868087237593
20
3.41052756470134
30
0
41
1
10
120.831612527891
20
3.37412923867973
30
0
41
1
10
120.793209588974
20
3.34936712960638
30
0
0
SPLINE
5
2E6
100
AcDbEntity
8
1
62
256
6
ByLayer
370
13
48
1
60
0
100
AcDbSpline
70
4
71
3
72
8
73
4
40
0
40
0
40
0
40
0
40
1
40
1
40
1
40
1
41
1
10
109.685852575758
20
3.73741723967601
30
0
41
1
10
109.686037446243
20
3.73814162410088
30
0
41
1
10
109.686246204566
20
3.73886235956934
30
0
41
1
10
109.686478145074
20
3.73957956038595
30
0
0
SPLINE
5
2E7
100
AcDbEntity
8
1
62
256
6
ByLayer
370
13
48
1
60
0
100
AcDbSpline
70
4
71
3
72
10
73
6
40
0
40
0
40
0
40
0
40
0.34210525770361
40
0.34210525770361
40
1
40
1
40
1
40
1
41
1
10
101.609645843146
20
4.09130837122368
30
0
41
1
10
102.543357077224
20
4.144860888084
30
0
41
1
10
103.476962339039
20
4.18615888635208
30
0
41
1
10
106.206625969987
20
4.26995726397453
30
0
41
1
10
108.003353648347
20
4.27834131011611
30
0
41
1
10
109.79982257555
20
4.23805539611939
30
0
0
SPLINE
5
2E8
100
AcDbEntity
8
1
62
256
6
ByLayer
370
13
48
1
60
0
100
AcDbSpline
70
4
71
3
72
18
73
14
40
0
40
0
40
0
40
0
40
0.125
40
0.125
40
0.25
40
0.25
40
0.375000000000001
40
0.375000000000001
40
0.500000000000001
40
0.500000000000001
40
0.75
40
0.75
40
1
40
1
40
1
40
1
41
1
10
111.797422425221
20
3.3875508546972
30
0
41
1
10
111.809710891558
20
3.3331588685773
30
0
41
1
10
111.825640605706
20
3.28048438195182
30
0
41
1
10
111.862795124703
20
3.17936989949553
30
0
41
1
10
111.884101744334
20
3.13065948663487
30
0
41
1
10
111.93140617556
20
3.03643011109435
30
0
41
1
10
111.957495994027
20
2.99084643549782
30
0
41
1
10
112.012625562985
20
2.90461243939299
30
0
41
1
10
112.041807855596
20
2.86365930805474
30
0
41
1
10
112.133705144051
20
2.74653864582589
30
0
41
1
10
112.201064560184
20
2.6757513007808
30
0
41
1
10
112.345039199053
20
2.54910820837603
30
0
41
1
10
112.42075309379
20
2.4939573295118
30
0
41
1
10
112.500109764819
20
2.44616599006645
30
0
0
SPLINE
5
2E9
100
AcDbEntity
8
1
62
256
6
ByLayer
370
13
48
1
60
0
100
AcDbSpline
70
4
71
3
72
18
73
14
40
0
40
0
40
0
40
0
40
0.317920811518218
40
0.317920811518218
40
0.476881217277327
40
0.476881217277327
40
0.635841623036436
40
0.635841623036436
40
0.794802028795544
40
0.794802028795544
40
0.953762434554653
40
0.953762434554653
40
1
40
1
40
1
40
1
41
1
10
22.01
20
-5.36714302930434
30
0
41
1
10
22.01
20
-5.15582292115397
30
0
41
1
10
22.01
20
-4.92610525183363
30
0
41
1
10
22.01
20
-4.56357687384235
30
0
41
1
10
22.01
20
-4.44233894609363
30
0
41
1
10
22.01
20
-4.19909350298659
30
0
41
1
10
22.01
20
-4.07582374298366
30
0
41
1
10
22.01
20
-3.83578938355697
30
0
41
1
10
22.01
20
-3.71910361454445
30
0
41
1
10
22.01
20
-3.4923246616938
30
0
41
1
10
22.01
20
-3.38138544309879
30
0
41
1
10
22.01
20
-3.24788452659217
30
0
41
1
10
22.01
20
-3.21830771384384
30
0
41
1
10
22.0099999999999
20
-3.18926902929985
30
0
0
SPLINE
5
2EA
100
AcDbEntity
8
1
62
256
6
ByLayer
370
13
48
1
60
0
100
AcDbSpline
70
4
71
3
72
50
73
46
40
0
40
0
40
0
40
0
40
0.0075360607472828
40
0.0075360607472828
40
0.0442939844233096
40
0.0442939844233096
40
0.062672946261323
40
0.062672946261323
40
0.0810519080993364
40
0.0810519080993364
40
0.0994308699373498
40
0.0994308699373498
40
0.117809831775363
40
0.117809831775363
40
0.136188793613377
40
0.136188793613377
40
0.15456775545139
40
0.15456775545139
40
0.191325679127417
40
0.191325679127417
40
0.228083602803444
40
0.228083602803444
40
0.264841526479471
40
0.264841526479471
40
0.301599450155497
40
0.301599450155497
40
0.338357373831524
40
0.338357373831524
40
0.356736335669538
40
0.356736335669538
40
0.375115297507551
40
0.375115297507551
40
0.411873221183577
40
0.411873221183577
40
0.448631144859604
40
0.448631144859604
40
0.48538906853563
40
0.48538906853563
40
0.558904915887683
40
0.558904915887683
40
0.705936610591788
40
0.705936610591788
40
0.852968305295894
40
0.852968305295894
40
1
40
1
40
1
40
1
41
1
10
94.9902649365925
20
-7.57752201090847
30
0
41
1
10
94.8197337372055
20
-7.61604783955207
30
0
41
1
10
94.6491511120069
20
-7.65387193187561
30
0
41
1
10
93.6462067047918
20
-7.87176565370069
30
0
41
1
10
92.8137958743637
20
-8.03428392922177
30
0
41
1
10
91.5588569167201
20
-8.24263577829356
30
0
41
1
10
91.1394670725787
20
-8.30622793404669
30
0
41
1
10
90.2973215653705
20
-8.4210194194834
30
0
41
1
10
89.874494726074
20
-8.47183176961644
30
0
41
1
10
89.02479392627
20
-8.56421500627275
30
0
41
1
10
88.5979087546855
20
-8.60638761941294
30
0
41
1
10
87.7403470647589
20
-8.68445588699848
30
0
41
1
10
87.3097078785565
20
-8.72001548935535
30
0
41
1
10
86.4451108135301
20
-8.78330376072117
30
0
41
1
10
86.0118795642906
20
-8.81092501872919
30
0
41
1
10
85.1437370934024
20
-8.85759620677669
30
0
41
1
10
84.7088027281543
20
-8.87691454866911
30
0
41
1
10
83.4011542178365
20
-8.92589311184238
30
0
41
1
10
82.525561319199
20
-8.94635247234027
30
0
41
1
10
80.7653871600361
20
-8.97566562725342
30
0
41
1
10
79.8808414269124
20
-8.98444291386687
30
0
41
1
10
78.1021974596836
20
-8.993223739244
30
0
41
1
10
77.2109085749333
20
-8.99323507176112
30
0
41
1
10
75.4269055004425
20
-8.98751021367042
30
0
41
1
10
74.53376584552
20
-8.98158478207438
30
0
41
1
10
72.7450224989512
20
-8.96748475947769
30
0
41
1
10
71.8494147814559
20
-8.95981860494138
30
0
41
1
10
70.5044787108807
20
-8.96558332752073
30
0
41
1
10
70.0559363291809
20
-8.96885751956896
30
0
41
1
10
69.1586269459606
20
-8.97050675413482
30
0
41
1
10
68.7098441012823
20
-8.96988934809869
30
0
41
1
10
67.3632454151719
20
-8.96661342939723
30
0
41
1
10
66.4651947761562
20
-8.963032665448
30
0
41
1
10
64.6688541160911
20
-8.95773532897411
30
0
41
1
10
63.7705715134232
20
-8.95623536080655
30
0
41
1
10
61.9740299198707
20
-8.95567951731792
30
0
41
1
10
61.0757590073133
20
-8.95670760466359
30
0
41
1
10
58.3809441150525
20
-8.95882278222513
30
0
41
1
10
56.5843987030996
20
-8.95998580032202
30
0
41
1
10
51.1947595913483
20
-8.96060080960649
30
0
41
1
10
47.6016636494487
20
-8.95855285956173
30
0
41
1
10
40.4154741235671
20
-8.9596180990568
30
0
41
1
10
36.822379366453
20
-8.96145440755163
30
0
41
1
10
29.6361896895656
20
-8.96188571525045
30
0
41
1
10
26.0430947772638
20
-8.96061855850124
30
0
41
1
10
22.45
20
-8.96025401155885
30
0
0
SPLINE
5
2EB
100
AcDbEntity
8
1
62
256
6
ByLayer
370
13
48
1
60
0
100
AcDbSpline
70
4
71
3
72
20
73
16
40
0
40
0
40
0
40
0
40
0.25
40
0.25
40
0.375
40
0.375
40
0.5
40
0.5
40
0.625
40
0.625
40
0.75
40
0.75
40
0.875
40
0.875
40
1
40
1
40
1
40
1
41
1
10
6.42857954342151
20
-11.8098607498814
30
0
41
1
10
6.32062285906832
20
-11.9641980554744
30
0
41
1
10
6.23746985544963
20
-12.1175497972375
30
0
41
1
10
6.15131223330178
20
-12.3459655831682
30
0
41
1
10
6.12906321946303
20
-12.4223407470223
30
0
41
1
10
6.09955849500719
20
-12.5706057645056
30
0
41
1
10
6.09209692340332
20
-12.6428039870439
30
0
41
1
10
6.09206568931896
20
-12.7833226547114
30
0
41
1
10
6.09938087196133
20
-12.8516573098266
30
0
41
1
10
6.12867216245172
20
-12.984427207422
30
0
41
1
10
6.15069168227387
20
-13.0485180741046
30
0
41
1
10
6.20772369061578
20
-13.1693175501608
30
0
41
1
10
6.24282376033597
20
-13.2264896273491
30
0
41
1
10
6.32579342079811
20
-13.3345755125049
30
0
41
1
10
6.37383339947752
20
-13.3856295382456
30
0
41
1
10
6.42799086240379
20
-13.4331589218621
30
0
0
SPLINE
5
2EC
100
AcDbEntity
8
1
62
256
6
ByLayer
370
13
48
1
60
0
100
AcDbSpline
70
4
71
3
72
32
73
28
40
0
40
0
40
0
40
0
40
0.125
40
0.125
40
0.1875
40
0.1875
40
0.25
40
0.25
40
0.375000000000001
40
0.375000000000001
40
0.437500000000001
40
0.437500000000001
40
0.500000000000001
40
0.500000000000001
40
0.562500000000001
40
0.562500000000001
40
0.625000000000001
40
0.625000000000001
40
0.750000000000001
40
0.750000000000001
40
0.812500000000001
40
0.812500000000001
40
0.875000000000001
40
0.875000000000001
40
0.9375
40
0.9375
40
1
40
1
40
1
40
1
41
1
10
9.35496754356279
20
-7.94856596378372
30
0
41
1
10
9.09889470843254
20
-8.01086493047214
30
0
41
1
10
8.84821186391937
20
-8.09310641483467
30
0
41
1
10
8.47969307541265
20
-8.24447185727718
30
0
41
1
10
8.35811934130862
20
-8.29964931713542
30
0
41
1
10
8.11759295029574
20
-8.41981742034449
30
0
41
1
10
7.99927305225634
20
-8.48456394951978
30
0
41
1
10
7.65689810069523
20
-8.68910525591642
30
0
41
1
10
7.44256161449695
20
-8.84029821471543
30
0
41
1
10
7.14417653273932
20
-9.09168097056863
30
0
41
1
10
7.04829098795926
20
-9.18007887312223
30
0
41
1
10
6.87073072943957
20
-9.36040652309768
30
0
41
1
10
6.78826000702566
20
-9.45286491487295
30
0
41
1
10
6.63584162845851
20
-9.64227035516998
30
0
41
1
10
6.56588908350364
20
-9.73921555268112
30
0
41
1
10
6.43913972802923
20
-9.93777340868644
30
0
41
1
10
6.38222283897375
20
-10.0399047657499
30
0
41
1
10
6.2377653951971
20
-10.3436164623562
30
0
41
1
10
6.1736710510462
20
-10.5454718019829
30
0
41
1
10
6.13179813417315
20
-10.8474211968652
30
0
41
1
10
6.12739779521499
20
-10.946055196962
30
0
41
1
10
6.13794950649924
20
-11.1366827336078
30
0
41
1
10
6.15273280517951
20
-11.2291321017686
30
0
41
1
10
6.20094825441626
20
-11.4083673064393
30
0
41
1
10
6.23471896423089
20
-11.4955929836099
30
0
41
1
10
6.31905369489038
20
-11.6596614875866
30
0
41
1
10
6.36964641291803
20
-11.7370463079163
30
0
41
1
10
6.42857954342151
20
-11.8098607498814
30
0
0
SPLINE
5
2ED
100
AcDbEntity
8
1
62
256
6
ByLayer
370
13
48
1
60
0
100
AcDbSpline
70
4
71
3
72
8
73
4
40
0
40
0
40
0
40
0
40
1
40
1
40
1
40
1
41
1
10
115.816401847738
20
3.21537991841302
30
0
41
1
10
115.798436868983
20
3.18797841161708
30
0
41
1
10
115.783532812609
20
3.15918767902448
30
0
41
1
10
115.771655810984
20
3.12913611387154
30
0
0
SPLINE
5
2EE
100
AcDbEntity
8
1
62
256
6
ByLayer
370
13
48
1
60
0
100
AcDbSpline
70
4
71
3
72
16
73
12
40
0
40
0
40
0
40
0
40
0.200803296741305
40
0.200803296741305
40
0.300702884648641
40
0.300702884648641
40
0.400602472555979
40
0.400602472555979
40
0.600401648370652
40
0.600401648370652
40
1
40
1
40
1
40
1
41
1
10
8.598066005915
20
-8.19253488084979
30
0
41
1
10
8.36404385056423
20
-8.5093647297121
30
0
41
1
10
8.14616343570819
20
-8.83529763335588
30
0
41
1
10
7.84469854025986
20
-9.33727191780619
30
0
41
1
10
7.74857991313431
20
-9.50660620922366
30
0
41
1
10
7.56559934335829
20
-9.84906152600445
30
0
41
1
10
7.47912300230081
20
-10.0214586627417
30
0
41
1
10
7.23417419150897
20
-10.5420182399567
30
0
41
1
10
7.09013636033393
20
-10.8935349163874
30
0
41
1
10
6.71288709013524
20
-11.9606836216354
30
0
41
1
10
6.5337177901668
20
-12.6887435741078
30
0
41
1
10
6.42799086240379
20
-13.4331589218621
30
0
0
SPLINE
5
2EF
100
AcDbEntity
8
1
62
256
6
ByLayer
370
13
48
1
60
0
100
AcDbSpline
70
4
71
3
72
16
73
12
40
0
40
0
40
0
40
0
40
0.250000000000003
40
0.250000000000003
40
0.500000000000007
40
0.500000000000007
40
0.625000000000005
40
0.625000000000005
40
0.750000000000003
40
0.750000000000003
40
1
40
1
40
1
40
1
41
1
10
112.886339386121
20
2.29329066596614
30
0
41
1
10
113.20506774374
20
2.22446018715769
30
0
41
1
10
113.51793226559
20
2.18089717873886
30
0
41
1
10
114.131074760615
20
2.13503965594703
30
0
41
1
10
114.431353792212
20
2.13284147683223
30
0
41
1
10
114.870552690074
20
2.1556179047833
30
0
41
1
10
115.015074303297
20
2.16759089300851
30
0
41
1
10
115.297475608891
20
2.19909228308924
30
0
41
1
10
115.435687418747
20
2.21863361686587
30
0
41
1
10
115.840835102912
20
2.28699119290394
30
0
41
1
10
116.098423817656
20
2.34564475987841
30
0
41
1
10
116.340823445105
20
2.41236122250041
30
0
0
SPLINE
5
2F0
100
AcDbEntity
8
1
62
256
6
ByLayer
370
13
48
1
60
0
100
AcDbSpline
70
2053
71
3
72
74
73
70
40
0
40
0
40
0
40
0
40
0.0312500000000002
40
0.0312500000000002
40
0.0625000000000004
40
0.0625000000000004
40
0.0937500000000005
40
0.0937500000000005
40
0.125000000000001
40
0.125000000000001
40
0.156250000000001
40
0.156250000000001
40
0.187500000000001
40
0.187500000000001
40
0.218750000000001
40
0.218750000000001
40
0.250000000000001
40
0.250000000000001
40
0.281250000000002
40
0.281250000000002
40
0.312500000000002
40
0.312500000000002
40
0.343750000000002
40
0.343750000000002
40
0.375000000000002
40
0.375000000000002
40
0.406250000000002
40
0.406250000000002
40
0.437500000000003
40
0.437500000000003
40
0.468750000000003
40
0.468750000000003
40
0.500000000000003
40
0.500000000000003
40
0.531250000000003
40
0.531250000000003
40
0.562500000000003
40
0.562500000000003
40
0.593750000000003
40
0.593750000000003
40
0.625000000000004
40
0.625000000000004
40
0.656250000000004
40
0.656250000000004
40
0.687500000000004
40
0.687500000000004
40
0.718750000000004
40
0.718750000000004
40
0.750000000000004
40
0.750000000000004
40
0.781250000000005
40
0.781250000000005
40
0.796875000000005
40
0.796875000000005
40
0.812500000000006
40
0.812500000000006
40
0.843750000000005
40
0.843750000000005
40
0.875000000000004
40
0.875000000000004
40
0.906250000000003
40
0.906250000000003
40
0.921875000000002
40
0.921875000000002
40
0.937500000000002
40
0.937500000000002
40
0.968750000000001
40
0.968750000000001
40
1
40
1
40
1
40
1
41
1
10
119.160163024521
20
-0.381490122887271
30
0
41
1
10
119.241318866516
20
-0.381490122887271
30
0
41
1
10
119.321067766489
20
-0.389737564358285
30
0
41
1
10
119.477866172272
20
-0.42205082806251
30
0
41
1
10
119.555766965025
20
-0.446551339446472
30
0
41
1
10
119.703411863534
20
-0.510162815162431
30
0
41
1
10
119.773294398145
20
-0.549061661022336
30
0
41
1
10
119.90520369794
20
-0.64097221508257
30
0
41
1
10
119.967017966071
20
-0.694126340925209
30
0
41
1
10
120.077242695378
20
-0.809886310480948
30
0
41
1
10
120.126506978384
20
-0.873080044047612
30
0
41
1
10
120.212679818696
20
-1.00977936954408
30
0
41
1
10
120.248292300425
20
-1.08118657752394
30
0
41
1
10
120.305427000713
20
-1.22970649610926
30
0
41
1
10
120.327041530859
20
-1.3076720133559
30
0
41
1
10
120.354755979558
20
-1.46441281188598
30
0
41
1
10
120.361075042557
20
-1.54319451626952
30
0
41
1
10
120.359041417332
20
-1.70153648334124
30
0
41
1
10
120.350478464107
20
-1.78130866874343
30
0
41
1
10
120.319368654609
20
-1.93542811473995
30
0
41
1
10
120.296871142126
20
-2.01058340180049
30
0
41
1
10
120.237739561117
20
-2.15707487078404
30
0
41
1
10
120.201333062006
20
-2.22750802100038
30
0
41
1
10
120.11692758572
20
-2.35924772435826
30
0
41
1
10
120.068707380851
20
-2.42115006563262
30
0
41
1
10
119.959299655764
20
-2.53655251944616
30
0
41
1
10
119.899695458497
20
-2.58833231742366
30
0
41
1
10
119.771364957489
20
-2.67955650155514
30
0
41
1
10
119.701931459678
20
-2.7193842726596
30
0
41
1
10
119.555288304618
20
-2.78441601533026
30
0
41
1
10
119.479626609217
20
-2.80907592474188
30
0
41
1
10
119.323573704343
20
-2.84263725198869
30
0
41
1
10
119.242132551662
20
-2.85143673550525
30
0
41
1
10
119.081551411607
20
-2.85167207541198
30
0
41
1
10
119.001959088767
20
-2.84343093010943
30
0
41
1
10
118.844175610212
20
-2.81013215560998
30
0
41
1
10
118.767317658706
20
-2.7851985198748
30
0
41
1
10
118.621652900865
20
-2.72104926896668
30
0
41
1
10
118.551470939902
20
-2.68115537232245
30
0
41
1
10
118.421803560361
20
-2.58934619941255
30
0
41
1
10
118.362265735638
20
-2.53766075311049
30
0
41
1
10
118.253286781316
20
-2.42310335024487
30
0
41
1
10
118.204118862532
20
-2.36025166881677
30
0
41
1
10
118.119392421102
20
-2.22825032494254
30
0
41
1
10
118.083267539459
20
-2.15854762092795
30
0
41
1
10
118.02373336141
20
-2.01148428066108
30
0
41
1
10
118.00112479789
20
-1.93602596125925
30
0
41
1
10
117.969974436192
20
-1.78216639435883
30
0
41
1
10
117.961374976883
20
-1.70309655953361
30
0
41
1
10
117.959190263371
20
-1.54386322128499
30
0
41
1
10
117.965523697389
20
-1.46508663024392
30
0
41
1
10
117.986084847778
20
-1.34818879554749
30
0
41
1
10
117.994794314961
20
-1.3094356575275
30
0
41
1
10
118.016066914989
20
-1.23237700291267
30
0
41
1
10
118.02869729571
20
-1.19395226219453
30
0
41
1
10
118.071664388483
20
-1.0819241757506
30
0
41
1
10
118.107197792234
20
-1.01073684593126
30
0
41
1
10
118.192159199225
20
-0.875473085596269
30
0
41
1
10
118.242210485122
20
-0.810919633050958
30
0
41
1
10
118.352525574302
20
-0.694833260993818
30
0
41
1
10
118.413048329142
20
-0.642621085686244
30
0
41
1
10
118.512089384795
20
-0.573311096481945
30
0
41
1
10
118.546620368381
20
-0.551671618609419
30
0
41
1
10
118.616934157131
20
-0.512438610358885
30
0
41
1
10
118.652883425835
20
-0.494711390221454
30
0
41
1
10
118.763067489032
20
-0.44710484601373
30
0
41
1
10
118.840019364437
20
-0.422661847931039
30
0
41
1
10
118.998692459003
20
-0.389748123137281
30
0
41
1
10
119.079007182525
20
-0.381490122887271
30
0
41
1
10
119.160163024521
20
-0.381490122887271
30
0
0
SPLINE
5
2F1
100
AcDbEntity
8
1
62
256
6
ByLayer
370
13
48
1
60
0
100
AcDbSpline
70
4
71
3
72
8
73
4
40
0
40
0
40
0
40
0
40
1
40
1
40
1
40
1
41
1
10
110.302491053031
20
0.0975249978541513
30
0
41
1
10
110.844744035446
20
0.0773793794949142
30
0
41
1
10
111.387000933354
20
0.0572806473654168
30
0
41
1
10
111.929261594279
20
0.0372273911128502
30
0
0
SPLINE
5
2F2
100
AcDbEntity
8
1
62
256
6
ByLayer
370
13
48
1
60
0
100
AcDbSpline
70
4
71
3
72
8
73
4
40
0
40
0
40
0
40
0
40
1
40
1
40
1
40
1
41
1
10
112.989249476948
20
5.59751938654111
30
0
41
1
10
113.000577784047
20
5.5989456227305
30
0
41
1
10
113.01209132111
20
5.60030911781109
30
0
41
1
10
113.023766307119
20
5.60159532226734
30
0
0
SPLINE
5
2F3
100
AcDbEntity
8
1
62
256
6
ByLayer
370
13
48
1
60
0
100
AcDbSpline
70
4
71
3
72
14
73
10
40
0
40
0
40
0
40
0
40
0.25
40
0.25
40
0.5
40
0.5
40
0.75
40
0.75
40
1
40
1
40
1
40
1
41
1
10
121.85003594654
20
3.03090310953868
30
0
41
1
10
121.742449452102
20
3.02526474028434
30
0
41
1
10
121.637535927653
20
3.03246849765782
30
0
41
1
10
121.431112555831
20
3.06875599324312
30
0
41
1
10
121.334166567291
20
3.0970115956975
30
0
41
1
10
121.14825169686
20
3.17201700562333
30
0
41
1
10
121.058590803314
20
3.21946939280571
30
0
41
1
10
120.892181785317
20
3.3319713160879
30
0
41
1
10
120.814644367765
20
3.39713484854065
30
0
41
1
10
120.743157309941
20
3.47358023112739
30
0
0
SPLINE
5
2F4
100
AcDbEntity
8
1
62
256
6
ByLayer
370
13
48
1
60
0
100
AcDbSpline
70
4
71
3
72
10
73
6
40
0
40
0
40
0
40
0
40
0.5
40
0.5
40
1
40
1
40
1
40
1
41
1
10
119.567793234018
20
3.55812824447025
30
0
41
1
10
119.598079551246
20
3.57641436056684
30
0
41
1
10
119.632240882858
20
3.59193001839364
30
0
41
1
10
119.706329254137
20
3.61462315901761
30
0
41
1
10
119.744990422747
20
3.62152111340487
30
0
41
1
10
119.785214267912
20
3.62365099656066
30
0
0
SPLINE
5
2F5
100
AcDbEntity
8
1
62
256
6
ByLayer
370
13
48
1
60
0
100
AcDbSpline
70
4
71
3
72
22
73
18
40
0
40
0
40
0
40
0
40
0.325057913249871
40
0.325057913249871
40
0.406322391562338
40
0.406322391562338
40
0.487586869874805
40
0.487586869874805
40
0.65011582649974
40
0.65011582649974
40
0.812644783124674
40
0.812644783124674
40
0.893909261437142
40
0.893909261437142
40
0.975173739749609
40
0.975173739749609
40
1
40
1
40
1
40
1
41
1
10
108.929261594279
20
9.27095579951018
30
0
41
1
10
107.060870130846
20
9.41449205210981
30
0
41
1
10
105.199245037951
20
9.44601332586339
30
0
41
1
10
102.868979526757
20
9.34479070152503
30
0
41
1
10
102.402729404055
20
9.31751151437763
30
0
41
1
10
101.469458978534
20
9.24890568206072
30
0
41
1
10
101.002436132955
20
9.20756680568451
30
0
41
1
10
99.6034455619883
20
9.06301556051227
30
0
41
1
10
98.672228450155
20
8.93926576074418
30
0
41
1
10
96.8109428448705
20
8.63788117398596
30
0
41
1
10
95.8811583946177
20
8.45971341020402
30
0
41
1
10
94.4815265808098
20
8.1575430397539
30
0
41
1
10
94.0138602714446
20
8.05096478717351
30
0
41
1
10
93.0776290409437
20
7.8284174875208
30
0
41
1
10
92.6090673375352
20
7.71246637632123
30
0
41
1
10
91.9961217584495
20
7.5563770961906
30
0
41
1
10
91.8525999905635
20
7.51951154288221
30
0
41
1
10
91.7089864454265
20
7.48232645492317
30
0
0
SPLINE
5
2F6
100
AcDbEntity
8
1
62
256
6
ByLayer
370
13
48
1
60
0
100
AcDbSpline
70
4
71
3
72
32
73
28
40
0
40
0
40
0
40
0
40
0.125
40
0.125
40
0.25
40
0.25
40
0.3125
40
0.3125
40
0.375
40
0.375
40
0.4375
40
0.4375
40
0.5
40
0.5
40
0.5625
40
0.5625
40
0.625
40
0.625
40
0.6875
40
0.6875
40
0.75
40
0.75
40
0.875
40
0.875
40
0.9375
40
0.9375
40
1
40
1
40
1
40
1
41
1
10
115.729094450556
20
3.03227886013468
30
0
41
1
10
115.672066422168
20
2.91481575143132
30
0
41
1
10
115.599296012509
20
2.80762664142955
30
0
41
1
10
115.431889391834
20
2.62323810442356
30
0
41
1
10
115.335519239777
20
2.54385613038877
30
0
41
1
10
115.176865242999
20
2.44859945665795
30
0
41
1
10
115.121450356919
20
2.42061663463775
30
0
41
1
10
115.004089637081
20
2.37234445745824
30
0
41
1
10
114.941378477828
20
2.35191823044596
30
0
41
1
10
114.812458424214
20
2.32109015831659
30
0
41
1
10
114.745988105268
20
2.31047139022505
30
0
41
1
10
114.60836920041
20
2.29952530708761
30
0
41
1
10
114.539446358956
20
2.2994222689139
30
0
41
1
10
114.403160504833
20
2.30915415572494
30
0
41
1
10
114.33493629564
20
2.31913936440978
30
0
41
1
10
114.203672880911
20
2.34781816935592
30
0
41
1
10
114.140156837729
20
2.36646922989402
30
0
41
1
10
114.016462867831
20
2.41206678229398
30
0
41
1
10
113.955920447227
20
2.43923349517249
30
0
41
1
10
113.839873216223
20
2.50126392939936
30
0
41
1
10
113.784466190668
20
2.53599637229266
30
0
41
1
10
113.62559925439
20
2.65179210440277
30
0
41
1
10
113.528476873312
20
2.74575675010675
30
0
41
1
10
113.40700386956
20
2.90627063414155
30
0
41
1
10
113.370064837525
20
2.96356917016067
30
0
41
1
10
113.305195956951
20
3.08487427225177
30
0
41
1
10
113.277961360397
20
3.14748612444865
30
0
41
1
10
113.25596102313
20
3.21206869463521
30
0
0
SPLINE
5
2F7
100
AcDbEntity
8
1
62
256
6
ByLayer
370
13
48
1
60
0
100
AcDbSpline
70
4
71
3
72
16
73
12
40
0
40
0
40
0
40
0
40
0.249999999999997
40
0.249999999999997
40
0.499999999999995
40
0.499999999999995
40
0.624999999999996
40
0.624999999999996
40
0.749999999999998
40
0.749999999999998
40
1
40
1
40
1
40
1
41
1
10
121.94850222164
20
0.399734712407678
30
0
41
1
10
121.949612917112
20
0.45106881666436
30
0
41
1
10
121.951447819093
20
0.500233781184789
30
0
41
1
10
121.956587151919
20
0.587974328554452
30
0
41
1
10
121.959964827671
20
0.62753712041993
30
0
41
1
10
121.965957171995
20
0.674992188706597
30
0
41
1
10
121.96811761786
20
0.68901319774946
30
0
41
1
10
121.972789783972
20
0.713181776183347
30
0
41
1
10
121.975293827188
20
0.723218565969546
30
0
41
1
10
121.98304162551
20
0.746014940134103
30
0
41
1
10
121.988701984298
20
0.752068257733242
30
0
41
1
10
121.994558701798
20
0.74780524530351
30
0
0
SPLINE
5
2F8
100
AcDbEntity
8
1
62
256
6
ByLayer
370
13
48
1
60
0
100
AcDbSpline
70
4
71
3
72
12
73
8
40
0
40
0
40
0
40
0
40
0.500000000000006
40
0.500000000000006
40
0.750000000000003
40
0.750000000000003
40
1
40
1
40
1
40
1
41
1
10
109.686478145075
20
3.73957956038592
30
0
41
1
10
109.707945657713
20
3.80596088244408
30
0
41
1
10
109.726618542813
20
3.8887409232083
30
0
41
1
10
109.752815839643
20
4.02039750942967
30
0
41
1
10
109.761209696738
20
4.06553407220548
30
0
41
1
10
109.778651476265
20
4.15403206152109
30
0
41
1
10
109.787350816144
20
4.1978080494934
30
0
41
1
10
109.799822575543
20
4.23805539612141
30
0
0
SPLINE
5
2F9
100
AcDbEntity
8
1
62
256
6
ByLayer
370
13
48
1
60
0
100
AcDbSpline
70
4
71
3
72
14
73
10
40
0
40
0
40
0
40
0
40
0.499999999999994
40
0.499999999999994
40
0.624999999999994
40
0.624999999999994
40
0.749999999999994
40
0.749999999999994
40
1
40
1
40
1
40
1
41
1
10
22
20
-9.48712685618156
30
0
41
1
10
21.7004117612705
20
-9.48710671639108
30
0
41
1
10
21.4083291900049
20
-9.49931533893982
30
0
41
1
10
21.0524366406098
20
-9.52538793956128
30
0
41
1
10
20.9814787355969
20
-9.53114896144194
30
0
41
1
10
20.8426829223881
20
-9.54331744711976
30
0
41
1
10
20.7746475531117
20
-9.5497354642132
30
0
41
1
10
20.5745498193776
20
-9.56956244187163
30
0
41
1
10
20.4464745803283
20
-9.5835632727277
30
0
41
1
10
20.323776393037
20
-9.59703078795417
30
0
0
SPLINE
5
2FA
100
AcDbEntity
8
1
62
256
6
ByLayer
370
13
48
1
60
0
100
AcDbSpline
70
4
71
3
72
9
73
5
40
0
40
0
40
0
40
0
40
0.936522760972718
40
1
40
1
40
1
40
1
41
1
10
121.357800396775
20
3.1553211153323
30
0
41
1
10
121.345836824356
20
3.14472772813596
30
0
41
1
10
121.333542065421
20
3.13343731838231
30
0
41
1
10
121.321786788018
20
3.12219724335554
30
0
41
1
10
121.321042772738
20
3.12148396299446
30
0
0
SPLINE
5
2FB
100
AcDbEntity
8
1
62
256
6
ByLayer
370
13
48
1
60
0
100
AcDbSpline
70
4
71
3
72
8
73
4
40
0
40
0
40
0
40
0
40
1
40
1
40
1
40
1
41
1
10
111.375380486919
20
2.75399292172662
30
0
41
1
10
111.518786937986
20
2.96736753070769
30
0
41
1
10
111.65667164053
20
3.18055309211255
30
0
41
1
10
111.797422425221
20
3.3875508546972
30
0
0
SPLINE
5
2FC
100
AcDbEntity
8
1
62
256
6
ByLayer
370
13
48
1
60
0
100
AcDbSpline
70
4
71
3
72
14
73
10
40
0
40
0
40
0
40
0
40
0.25
40
0.25
40
0.5
40
0.5
40
0.75
40
0.75
40
1
40
1
40
1
40
1
41
1
10
111.375380486919
20
2.75399292172665
30
0
41
1
10
111.355836659908
20
2.71871565541917
30
0
41
1
10
111.332317797755
20
2.68578335139429
30
0
41
1
10
111.274822987892
20
2.62991937651509
30
0
41
1
10
111.240713887417
20
2.60764243247968
30
0
41
1
10
111.167377382365
20
2.58587853714533
30
0
41
1
10
111.128823014562
20
2.5872136758023
30
0
41
1
10
111.059891938944
20
2.60727664735319
30
0
41
1
10
111.028330298289
20
2.62523154847466
30
0
41
1
10
110.999613282799
20
2.64597262308345
30
0
0
SPLINE
5
2FD
100
AcDbEntity
8
1
62
256
6
ByLayer
370
13
48
1
60
0
100
AcDbSpline
70
4
71
3
72
8
73
4
40
0
40
0
40
0
40
0
40
1
40
1
40
1
40
1
41
1
10
22.45
20
-8.96025424537399
30
0
41
1
10
22.3033333174632
20
-8.96040133584378
30
0
41
1
10
22.1566666493626
20
-8.96055945586096
30
0
41
1
10
22.01
20
-8.96072911964393
30
0
0
SPLINE
5
2FE
100
AcDbEntity
8
1
62
256
6
ByLayer
370
13
48
1
60
0
100
AcDbSpline
70
4
71
3
72
8
73
4
40
0
40
0
40
0
40
0
40
1
40
1
40
1
40
1
41
1
10
111.929261594279
20
-9.44584850657569
30
0
41
1
10
111.569603028234
20
-9.43424483834778
30
0
41
1
10
111.209944462238
20
-9.42264116863461
30
0
41
1
10
110.850285896291
20
-9.41103749741961
30
0
0
SPLINE
5
2FF
100
AcDbEntity
8
1
62
256
6
ByLayer
370
13
48
1
60
0
100
AcDbSpline
70
4
71
3
72
26
73
22
40
0
40
0
40
0
40
0
40
0.294507449802776
40
0.294507449802776
40
0.36813431225347
40
0.36813431225347
40
0.441761174704163
40
0.441761174704163
40
0.589014899605551
40
0.589014899605551
40
0.662641762056245
40
0.662641762056245
40
0.736268624506939
40
0.736268624506939
40
0.809895486957633
40
0.809895486957633
40
0.883522349408328
40
0.883522349408328
40
0.957149211859022
40
0.957149211859022
40
1
40
1
40
1
40
1
41
1
10
109.392189657319
20
8.9032093326245
30
0
41
1
10
107.683402958378
20
9.0592200219896
30
0
41
1
10
105.979144648309
20
9.12675675287878
30
0
41
1
10
103.845241716823
20
9.09268229705242
30
0
41
1
10
103.418266811881
20
9.08002545668228
30
0
41
1
10
102.563671901162
20
9.04321477010672
30
0
41
1
10
102.135978073898
20
9.0190487868162
30
0
41
1
10
100.854553443201
20
8.92981727905007
30
0
41
1
10
100.001476950555
20
8.84823779975287
30
0
41
1
10
98.7222922962635
20
8.69294975717821
30
0
41
1
10
98.2959762990993
20
8.63557538981061
30
0
41
1
10
97.4432477319008
20
8.50904143574039
30
0
41
1
10
97.0168308565912
20
8.4396302727433
30
0
41
1
10
96.1636057345376
20
8.29034907074558
30
0
41
1
10
95.7368003036932
20
8.21065880973595
30
0
41
1
10
94.8827185440115
20
8.0437411902459
30
0
41
1
10
94.455503564802
20
7.95631997352641
30
0
41
1
10
93.6009936319498
20
7.77333403548963
30
0
41
1
10
93.1735243092998
20
7.67774677579138
30
0
41
1
10
92.496027119462
20
7.5202635000762
30
0
41
1
10
92.2464954127683
20
7.46098959429216
30
0
41
1
10
91.996641963372
20
7.40057896818041
30
0
0
SPLINE
5
300
100
AcDbEntity
8
1
62
256
6
ByLayer
370
13
48
1
60
0
100
AcDbSpline
70
4
71
3
72
12
73
8
40
0
40
0
40
0
40
0
40
0.361767961805303
40
0.361767961805303
40
0.723535923610605
40
0.723535923610605
40
1
40
1
40
1
40
1
41
1
10
6.42857954342151
20
-11.8098607498814
30
0
41
1
10
6.48150712540436
20
-11.4589904541396
30
0
41
1
10
6.55323295656518
20
-11.1103247016111
30
0
41
1
10
6.73390690215976
20
-10.4172069449315
30
0
41
1
10
6.84334287177271
20
-10.0716976777978
30
0
41
1
10
7.06740629425178
20
-9.47330089244187
30
0
41
1
10
7.17476799156071
20
-9.21735600053182
30
0
41
1
10
7.29252357547273
20
-8.96472269707039
30
0
0
SPLINE
5
301
100
AcDbEntity
8
1
62
256
6
ByLayer
370
13
48
1
60
0
100
AcDbSpline
70
4
71
3
72
18
73
14
40
0
40
0
40
0
40
0
40
0.125
40
0.125
40
0.25
40
0.25
40
0.375
40
0.375
40
0.5
40
0.5
40
0.75
40
0.75
40
1
40
1
40
1
40
1
41
1
10
110.264572122454
20
4.25002211786912
30
0
41
1
10
110.348048768588
20
4.21123686522856
30
0
41
1
10
110.428664684009
20
4.16694053883071
30
0
41
1
10
110.583265898115
20
4.06768799815089
30
0
41
1
10
110.655229192546
20
4.01410009753991
30
0
41
1
10
110.789726875995
20
3.90075197788192
30
0
41
1
10
110.852278918876
20
3.84102592524661
30
0
41
1
10
110.968731565776
20
3.71660070402095
30
0
41
1
10
111.022848497752
20
3.6515229435571
30
0
41
1
10
111.167595134616
20
3.45461586533548
30
0
41
1
10
111.242635545216
20
3.31897655857932
30
0
41
1
10
111.34639188785
20
3.03616351435531
30
0
41
1
10
111.373393948566
20
2.89528705871408
30
0
41
1
10
111.375380486919
20
2.75399292172648
30
0
0
SPLINE
5
302
100
AcDbEntity
8
1
62
256
6
ByLayer
370
13
48
1
60
0
100
AcDbSpline
70
4
71
3
72
8
73
4
40
0
40
0
40
0
40
0
40
1
40
1
40
1
40
1
41
1
10
0.0999999999999659
20
-3.96862696659682
30
0
41
1
10
0.0650328392778476
20
-3.82765262553048
30
0
41
1
10
0.0316759574587309
20
-3.68612145608716
30
0
41
1
10
0
20
-3.54400902933392
30
0
0
SPLINE
5
303
100
AcDbEntity
8
1
62
256
6
ByLayer
370
13
48
1
60
0
100
AcDbSpline
70
4
71
3
72
8
73
4
40
0
40
0
40
0
40
0
40
1
40
1
40
1
40
1
41
1
10
108.743209417281
20
1.01173418784487
30
0
41
1
10
108.353566152249
20
1.16388269332236
30
0
41
1
10
107.968137411216
20
1.32474026684423
30
0
41
1
10
107.590378912301
20
1.5024420315745
30
0
0
SPLINE
5
304
100
AcDbEntity
8
1
62
256
6
ByLayer
370
13
48
1
60
0
100
AcDbSpline
70
4
71
3
72
14
73
10
40
0
40
0
40
0
40
0
40
0.25
40
0.25
40
0.5
40
0.5
40
0.75
40
0.75
40
1
40
1
40
1
40
1
41
1
10
111.856655775445
20
3.60902569188383
30
0
41
1
10
111.883199743752
20
3.6896601993208
30
0
41
1
10
111.906417859648
20
3.77138941116584
30
0
41
1
10
111.944697030038
20
3.93753273182983
30
0
41
1
10
111.959827226948
20
4.02245287635131
30
0
41
1
10
111.979093623223
20
4.19304141531575
30
0
41
1
10
111.983283037936
20
4.27848470208684
30
0
41
1
10
111.977665609566
20
4.44975440703402
30
0
41
1
10
111.967640707135
20
4.53613185783897
30
0
41
1
10
111.948870289728
20
4.61946944148258
30
0
0
SPLINE
5
305
100
AcDbEntity
8
1
62
256
6
ByLayer
370
13
48
1
60
0
100
AcDbSpline
70
4
71
3
72
10
73
6
40
0
40
0
40
0
40
0
40
0.378463507753684
40
0.378463507753684
40
1
40
1
40
1
40
1
41
1
10
101.608790608339
20
4.09148205149978
30
0
41
1
10
102.105029749102
20
3.89882927367017
30
0
41
1
10
102.60121770438
20
3.70272504130654
30
0
41
1
10
103.911073772297
20
3.17713404560874
30
0
41
1
10
104.724690502898
20
2.84261034178923
30
0
41
1
10
105.538570382865
20
2.50193503508913
30
0
0
SPLINE
5
306
100
AcDbEntity
8
1
62
256
6
ByLayer
370
13
48
1
60
0
100
AcDbSpline
70
4
71
3
72
8
73
4
40
0
40
0
40
0
40
0
40
1
40
1
40
1
40
1
41
1
10
121.950778644538
20
0.234319346067224
30
0
41
1
10
121.948105416468
20
0.291032683294759
30
0
41
1
10
121.947345290567
20
0.346263691925031
30
0
41
1
10
121.94850222164
20
0.39973471240765
30
0
0
SPLINE
5
307
100
AcDbEntity
8
1
62
256
6
ByLayer
370
13
48
1
60
0
100
AcDbSpline
70
4
71
3
72
12
73
8
40
0
40
0
40
0
40
0
40
0.25
40
0.25
40
0.5
40
0.5
40
1
40
1
40
1
40
1
41
1
10
110.595338976671
20
4.31706008640828
30
0
41
1
10
110.715874671342
20
4.33187770841667
30
0
41
1
10
110.833082948665
20
4.35092659531028
30
0
41
1
10
111.063666121367
20
4.3943355175617
30
0
41
1
10
111.177001491502
20
4.41871658601679
30
0
41
1
10
111.513205797918
20
4.49719756596193
30
0
41
1
10
111.732365839466
20
4.55648663135671
30
0
41
1
10
111.948870289726
20
4.61946944148261
30
0
0
SPLINE
5
308
100
AcDbEntity
8
1
62
256
6
ByLayer
370
13
48
1
60
0
100
AcDbSpline
70
4
71
3
72
10
73
6
40
0
40
0
40
0
40
0
40
0.5
40
0.5
40
1
40
1
40
1
40
1
41
1
10
116.653248314833
20
3.45951165255391
30
0
41
1
10
116.693526061719
20
3.46162251982275
30
0
41
1
10
116.733826719469
20
3.45880190189351
30
0
41
1
10
116.812755091601
20
3.44406314285644
30
0
41
1
10
116.850090194868
20
3.43242197132989
30
0
41
1
10
116.88525696611
20
3.41754247582295
30
0
0
SPLINE
5
309
100
AcDbEntity
8
1
62
256
6
ByLayer
370
13
48
1
60
0
100
AcDbSpline
70
4
71
3
72
18
73
14
40
0
40
0
40
0
40
0
40
0.249999999999996
40
0.249999999999996
40
0.374999999999989
40
0.374999999999989
40
0.499999999999981
40
0.499999999999981
40
0.749999999999964
40
0.749999999999964
40
0.874999999999982
40
0.874999999999982
40
1
40
1
40
1
40
1
41
1
10
115.805689021906
20
3.2148184830013
30
0
41
1
10
115.800368472069
20
3.2145396447998
30
0
41
1
10
115.80163241629
20
3.22479809693436
30
0
41
1
10
115.816897511954
20
3.25321642780426
30
0
41
1
10
115.824256166428
20
3.26472093658123
30
0
41
1
10
115.844198425622
20
3.29021929616414
30
0
41
1
10
115.857049506394
20
3.30446408106243
30
0
41
1
10
115.903132768007
20
3.3469310898148
30
0
41
1
10
115.945320462082
20
3.37562382894291
30
0
41
1
10
116.018609427491
20
3.40680909782017
30
0
41
1
10
116.045121541282
20
3.41548708009549
30
0
41
1
10
116.099266264065
20
3.42796861814492
30
0
41
1
10
116.127131587436
20
3.43192344049609
30
0
41
1
10
116.155799931773
20
3.43344145110561
30
0
0
SPLINE
5
30A
100
AcDbEntity
8
1
62
256
6
ByLayer
370
13
48
1
60
0
100
AcDbSpline
70
4
71
3
72
8
73
4
40
0
40
0
40
0
40
0
40
1
40
1
40
1
40
1
41
1
10
107.703188424211
20
0.88445659235154
30
0
41
1
10
108.088916715653
20
0.652052949483988
30
0
41
1
10
108.49711097179
20
0.469440290985801
30
0
41
1
10
108.929261594279
20
0.340555274886498
30
0
0
SPLINE
5
30B
100
AcDbEntity
8
1
62
256
6
ByLayer
370
13
48
1
60
0
100
AcDbSpline
70
4
71
3
72
8
73
4
40
0
40
0
40
0
40
0
40
1
40
1
40
1
40
1
41
1
10
107.590378912301
20
1.50244203157448
30
0
41
1
10
106.903601717848
20
1.82550959929645
30
0
41
1
10
106.219739288707
20
2.15893602636055
30
0
41
1
10
105.538570382865
20
2.50193503508913
30
0
0
SPLINE
5
30C
100
AcDbEntity
8
1
62
256
6
ByLayer
370
13
48
1
60
0
100
AcDbSpline
70
4
71
3
72
8
73
4
40
0
40
0
40
0
40
0
40
1
40
1
40
1
40
1
41
1
10
109.89346048544
20
4.2765646542816
30
0
41
1
10
110.00352141833
20
5.41136224997462
30
0
41
1
10
110.107851876641
20
6.54322436192422
30
0
41
1
10
110.203717023022
20
7.67326307131123
30
0
0
SPLINE
5
30D
100
AcDbEntity
8
1
62
256
6
ByLayer
370
13
48
1
60
0
100
AcDbSpline
70
4
71
3
72
8
73
4
40
0
40
0
40
0
40
0
40
1
40
1
40
1
40
1
41
1
10
109.593002811404
20
3.39751602979678
30
0
41
1
10
109.626347146344
20
3.51042447221184
30
0
41
1
10
109.656855540582
20
3.62379715265956
30
0
41
1
10
109.68585257576
20
3.73741723967569
30
0
0
SPLINE
5
30E
100
AcDbEntity
8
1
62
256
6
ByLayer
370
13
48
1
60
0
100
AcDbSpline
70
4
71
3
72
8
73
4
40
0
40
0
40
0
40
0
40
1
40
1
40
1
40
1
41
1
10
109.565598337695
20
9.24005415230531
30
0
41
1
10
109.353542374172
20
9.251732026345
30
0
41
1
10
109.141433913748
20
9.26203077015367
30
0
41
1
10
108.929261594279
20
9.2709557995102
30
0
0
SPLINE
5
30F
100
AcDbEntity
8
1
62
256
6
ByLayer
370
13
48
1
60
0
100
AcDbSpline
70
4
71
3
72
8
73
4
40
0
40
0
40
0
40
0
40
1
40
1
40
1
40
1
41
1
10
113.496225402403
20
9.40188537180734
30
0
41
1
10
113.494451087888
20
9.40555668483762
30
0
41
1
10
113.494505969163
20
9.40910509106169
30
0
41
1
10
113.496304777441
20
9.41253585138327
30
0
0
SPLINE
5
310
100
AcDbEntity
8
1
62
256
6
ByLayer
370
13
48
1
60
0
100
AcDbSpline
70
4
71
3
72
14
73
10
40
0
40
0
40
0
40
0
40
0.25
40
0.25
40
0.5
40
0.5
40
0.75
40
0.75
40
1
40
1
40
1
40
1
41
1
10
115.31024358972
20
2.69842155240582
30
0
41
1
10
115.323830254661
20
2.70822105997885
30
0
41
1
10
115.343431544595
20
2.72480455017612
30
0
41
1
10
115.387141767473
20
2.76666063824399
30
0
41
1
10
115.411196139987
20
2.79181602267016
30
0
41
1
10
115.461002767922
20
2.85002429425157
30
0
41
1
10
115.486494146401
20
2.88285918291257
30
0
41
1
10
115.535109103352
20
2.95342671906485
30
0
41
1
10
115.558570652601
20
2.99151244902507
30
0
41
1
10
115.58067222697
20
3.03294645418003
30
0
0
SPLINE
5
311
100
AcDbEntity
8
1
62
256
6
ByLayer
370
13
48
1
60
0
100
AcDbSpline
70
4
71
3
72
8
73
4
40
0
40
0
40
0
40
0
40
1
40
1
40
1
40
1
41
1
10
121.963888539742
20
0.504700771909171
30
0
41
1
10
122.044547575778
20
0.537247258683635
30
0
41
1
10
122.125147752236
20
0.559365878762492
30
0
41
1
10
122.206322591665
20
0.573204810613674
30
0
0
SPLINE
5
312
100
AcDbEntity
8
1
62
256
6
ByLayer
370
13
48
1
60
0
100
AcDbSpline
70
4
71
1
72
4
73
2
40
0
40
0
40
1
40
1
41
1
10
22.0000000000135
20
-8.96733246014199
30
0
41
1
10
22.0000000000135
20
-9.48712685618156
30
0
0
SPLINE
5
313
100
AcDbEntity
8
1
62
256
6
ByLayer
370
13
48
1
60
0
100
AcDbSpline
70
4
71
3
72
8
73
4
40
0
40
0
40
0
40
0
40
1
40
1
40
1
40
1
41
1
10
104.843039930141
20
2.73741881559764
30
0
41
1
10
105.076122300941
20
2.65482629575516
30
0
41
1
10
105.30802452864
20
2.57613739361403
30
0
41
1
10
105.538570382865
20
2.50193503508916
30
0
0
SPLINE
5
314
100
AcDbEntity
8
1
62
256
6
ByLayer
370
13
48
1
60
0
100
AcDbSpline
70
4
71
3
72
10
73
6
40
0
40
0
40
0
40
0
40
0.5
40
0.5
40
1
40
1
40
1
40
1
41
1
10
110.35621305352
20
4.26635400320689
30
0
41
1
10
110.395100998213
20
4.27759101683475
30
0
41
1
10
110.434285899103
20
4.2879780479897
30
0
41
1
10
110.51372227176
20
4.30569924740152
30
0
41
1
10
110.554073361964
20
4.31323195012615
30
0
41
1
10
110.595338976671
20
4.31706008640819
30
0
0
SPLINE
5
315
100
AcDbEntity
8
1
62
256
6
ByLayer
370
13
48
1
60
0
100
AcDbSpline
70
4
71
3
72
10
73
6
40
0
40
0
40
0
40
0
40
0.5
40
0.5
40
1
40
1
40
1
40
1
41
1
10
115.292747125835
20
2.69750460158946
30
0
41
1
10
115.289503371123
20
2.69134337475666
30
0
41
1
10
115.289217561789
20
2.68825771276252
30
0
41
1
10
115.295103384957
20
2.68856142957915
30
0
41
1
10
115.301371630158
20
2.69202256963257
30
0
41
1
10
115.310243589721
20
2.69842155240704
30
0
0
SPLINE
5
316
100
AcDbEntity
8
1
62
256
6
ByLayer
370
13
48
1
60
0
100
AcDbSpline
70
4
71
3
72
30
73
26
40
0
40
0
40
0
40
0
40
0.017593924508371
40
0.017593924508371
40
0.0622487461216269
40
0.0622487461216269
40
0.106903567734883
40
0.106903567734883
40
0.151558389348139
40
0.151558389348139
40
0.196213210961395
40
0.196213210961395
40
0.218540621768023
40
0.218540621768023
40
0.240868032574651
40
0.240868032574651
40
0.285522854187907
40
0.285522854187907
40
0.374832497414419
40
0.374832497414419
40
0.46414214064093
40
0.46414214064093
40
0.642761427093953
40
0.642761427093953
40
1
40
1
40
1
40
1
41
1
10
84.1998003686756
20
-4.91460139206816
30
0
41
1
10
83.8423060770276
20
-4.94139543624044
30
0
41
1
10
83.4845314361075
20
-4.96702221231482
30
0
41
1
10
82.2176296024621
20
-5.05352129588601
30
0
41
1
10
81.3068029405154
20
-5.10783254060323
30
0
41
1
10
79.4804485704596
20
-5.19974595481037
30
0
41
1
10
78.5649191869018
20
-5.23722356142997
30
0
41
1
10
76.7289990935854
20
-5.29646440529186
30
0
41
1
10
75.8088531446085
20
-5.31818124205518
30
0
41
1
10
73.9698232659849
20
-5.34709126817606
30
0
41
1
10
73.0501812082775
20
-5.35434833581482
30
0
41
1
10
71.6705202522506
20
-5.36129138453802
30
0
41
1
10
71.2105989418531
20
-5.36306397904389
30
0
41
1
10
70.2906998685666
20
-5.36608727115421
30
0
41
1
10
69.8307294840865
20
-5.3670894439947
30
0
41
1
10
68.4507990223142
20
-5.36889162918479
30
0
41
1
10
67.5308120586086
20
-5.36922268193428
30
0
41
1
10
64.770800081973
20
-5.36994586569054
30
0
41
1
10
62.9307142089519
20
-5.36869382520666
30
0
41
1
10
59.2505881014869
20
-5.36723051095484
30
0
41
1
10
57.4105420298094
20
-5.36655264516827
30
0
41
1
10
51.890441534262
20
-5.36602133003879
30
0
41
1
10
48.2104209502083
20
-5.36721266846445
30
0
41
1
10
37.1702706986696
20
-5.36823320425449
30
0
41
1
10
29.8101261239751
20
-5.36621180505142
30
0
41
1
10
22.45
20
-5.36714302930434
30
0
0
SPLINE
5
317
100
AcDbEntity
8
1
62
256
6
ByLayer
370
13
48
1
60
0
100
AcDbSpline
70
4
71
3
72
28
73
24
40
0
40
0
40
0
40
0
40
0.25
40
0.25
40
0.5
40
0.5
40
0.625000000000001
40
0.625000000000001
40
0.640625000000001
40
0.640625000000001
40
0.656250000000001
40
0.656250000000001
40
0.687500000000001
40
0.687500000000001
40
0.750000000000002
40
0.750000000000002
40
0.812500000000002
40
0.812500000000002
40
0.843750000000002
40
0.843750000000002
40
0.875000000000002
40
0.875000000000002
40
1
40
1
40
1
40
1
41
1
10
9.3519913346947
20
-14.5685132998007
30
0
41
1
10
10.3424680097362
20
-14.2862287600021
30
0
41
1
10
11.2990126861639
20
-13.9469179823504
30
0
41
1
10
13.1460995324023
20
-13.1573723790987
30
0
41
1
10
14.0366573113524
20
-12.7071637862737
30
0
41
1
10
15.321040019574
20
-11.9453771880619
30
0
41
1
10
15.7409602830284
20
-11.6766550748576
30
0
41
1
10
16.2009050128808
20
-11.358934295916
30
0
41
1
10
16.2518434335062
20
-11.3234141406468
30
0
41
1
10
16.353385652791
20
-11.2519361447025
30
0
41
1
10
16.4038996133391
20
-11.2158607958115
30
0
41
1
10
16.5570485949756
20
-11.1097368353249
30
0
41
1
10
16.6606322685174
20
-11.0409290607819
30
0
41
1
10
16.97583043309
20
-10.8403225997656
30
0
41
1
10
17.1918829034098
20
-10.7143287885352
30
0
41
1
10
17.6360143182195
20
-10.4780717897719
30
0
41
1
10
17.8640921620318
20
-10.3678071625529
30
0
41
1
10
18.2155971471425
20
-10.2146900091634
30
0
41
1
10
18.3343326706142
20
-10.1657008486376
30
0
41
1
10
18.5750323178648
20
-10.0719455355751
30
0
41
1
10
18.6973512631045
20
-10.0270625773829
30
0
41
1
10
19.3118993502147
20
-9.81540320179107
30
0
41
1
10
19.8130875603457
20
-9.68623875488348
30
0
41
1
10
20.3237763930369
20
-9.59703078795417
30
0
0
SPLINE
5
318
100
AcDbEntity
8
1
62
256
6
ByLayer
370
13
48
1
60
0
100
AcDbSpline
70
4
71
3
72
8
73
4
40
0
40
0
40
0
40
0
40
1
40
1
40
1
40
1
41
1
10
115.771655810984
20
3.12913611387151
30
0
41
1
10
115.758645995916
20
3.09621826831517
30
0
41
1
10
115.744437889457
20
3.06388240811631
30
0
41
1
10
115.729094450556
20
3.03227886013468
30
0
0
SPLINE
5
319
100
AcDbEntity
8
1
62
256
6
ByLayer
370
13
48
1
60
0
100
AcDbSpline
70
4
71
3
72
14
73
10
40
0
40
0
40
0
40
0
40
0.0488353886489583
40
0.0488353886489583
40
0.365890259099306
40
0.365890259099306
40
0.682945129549653
40
0.682945129549653
40
1
40
1
40
1
40
1
41
1
10
22.4500058721866
20
-3.18323507337334
30
0
41
1
10
22.4499951728213
20
-3.2139659745838
30
0
41
1
10
22.449984824347
20
-3.24531164119816
30
0
41
1
10
22.449910064186
20
-3.48443918872152
30
0
41
1
10
22.4498609263538
20
-3.71558152856755
30
0
41
1
10
22.4498004094933
20
-4.19529094366627
30
0
41
1
10
22.4497890485505
20
-4.44371465644079
30
0
41
1
10
22.4498056176861
20
-4.92498684749094
30
0
41
1
10
22.4498335428127
20
-5.15769149624856
30
0
41
1
10
22.4498792698622
20
-5.36714304457971
30
0
0
SPLINE
5
31A
100
AcDbEntity
8
1
62
256
6
ByLayer
370
13
48
1
60
0
100
AcDbSpline
70
4
71
3
72
8
73
4
40
0
40
0
40
0
40
0
40
1
40
1
40
1
40
1
41
1
10
109.392189657329
20
8.90320933262339
30
0
41
1
10
109.639566940812
20
8.47851408932266
30
0
41
1
10
109.909003113996
20
8.06779800209424
30
0
41
1
10
110.203702485337
20
7.67309170478356
30
0
0
SPLINE
5
31B
100
AcDbEntity
8
1
62
256
6
ByLayer
370
13
48
1
60
0
100
AcDbSpline
70
4
71
3
72
38
73
34
40
0
40
0
40
0
40
0
40
0.125000000000002
40
0.125000000000002
40
0.250000000000005
40
0.250000000000005
40
0.312500000000006
40
0.312500000000006
40
0.375000000000007
40
0.375000000000007
40
0.437500000000008
40
0.437500000000008
40
0.50000000000001
40
0.50000000000001
40
0.625000000000012
40
0.625000000000012
40
0.656250000000011
40
0.656250000000011
40
0.687500000000011
40
0.687500000000011
40
0.75000000000001
40
0.75000000000001
40
0.781250000000008
40
0.781250000000008
40
0.812500000000006
40
0.812500000000006
40
0.875000000000004
40
0.875000000000004
40
0.906250000000003
40
0.906250000000003
40
0.937500000000002
40
0.937500000000002
40
1
40
1
40
1
40
1
41
1
10
110.155434544542
20
0.903120017729577
30
0
41
1
10
110.482580233848
20
0.842749772431461
30
0
41
1
10
110.811794264039
20
0.78799018286486
30
0
41
1
10
111.476861593568
20
0.69648092355601
30
0
41
1
10
111.812695083759
20
0.659677518809104
30
0
41
1
10
112.323803503886
20
0.624432488027111
30
0
41
1
10
112.49606688006
20
0.616020880876249
30
0
41
1
10
112.83987014987
20
0.607434924538808
30
0
41
1
10
113.011248179607
20
0.60723098610319
30
0
41
1
10
113.352798522854
20
0.616239023855655
30
0
41
1
10
113.522971844839
20
0.625443124467324
30
0
41
1
10
113.861908270875
20
0.654864274977484
30
0
41
1
10
114.031469180678
20
0.675267214480243
30
0
41
1
10
114.524516541507
20
0.753902649162058
30
0
41
1
10
114.836244821025
20
0.829260378915336
30
0
41
1
10
115.198855002076
20
0.960014575267479
30
0
41
1
10
115.270354694996
20
0.988190163046511
30
0
41
1
10
115.407999618155
20
1.04758451398376
30
0
41
1
10
115.474245189529
20
1.07880961021684
30
0
41
1
10
115.665133943373
20
1.1771382060077
30
0
41
1
10
115.781977705231
20
1.24886623193376
30
0
41
1
10
115.940399066161
20
1.36644578521396
30
0
41
1
10
115.99046648792
20
1.40743029118625
30
0
41
1
10
116.082737019496
20
1.49108449161065
30
0
41
1
10
116.125227240868
20
1.53394583738992
30
0
41
1
10
116.241945114859
20
1.66558087335858
30
0
41
1
10
116.305480687529
20
1.7573883362617
30
0
41
1
10
116.378998594359
20
1.90128093878843
30
0
41
1
10
116.39971851959
20
1.95009227555272
30
0
41
1
10
116.433216366958
20
2.04781334901574
30
0
41
1
10
116.446113520524
20
2.09694615033155
30
0
41
1
10
116.47371388651
20
2.24512853468261
30
0
41
1
10
116.477339841232
20
2.34528831542673
30
0
41
1
10
116.466813629475
20
2.44575304837846
30
0
0
SPLINE
5
31C
100
AcDbEntity
8
1
62
256
6
ByLayer
370
13
48
1
60
0
100
AcDbSpline
70
4
71
1
72
4
73
2
40
0
40
0
40
1
40
1
41
1
10
22.45
20
-5.36714302930434
30
0
41
1
10
22
20
-5.36714302930434
30
0
0
SPLINE
5
31D
100
AcDbEntity
8
1
62
256
6
ByLayer
370
13
48
1
60
0
100
AcDbSpline
70
4
71
1
72
4
73
2
40
0
40
0
40
1
40
1
41
1
10
22.01
20
-8.96981145951943
30
0
41
1
10
22.01
20
-5.37235725284665
30
0
0
SPLINE
5
31E
100
AcDbEntity
8
1
62
256
6
ByLayer
370
13
48
1
60
0
100
AcDbSpline
70
4
71
3
72
8
73
4
40
0
40
0
40
0
40
0
40
1
40
1
40
1
40
1
41
1
10
109.686478145074
20
3.73957956038595
30
0
41
1
10
107.325842100726
20
3.80174629379971
30
0
41
1
10
104.968343871957
20
3.7894176266102
30
0
41
1
10
102.609840264563
20
3.70652565560371
30
0
0
SPLINE
5
31F
100
AcDbEntity
8
1
62
256
6
ByLayer
370
13
48
1
60
0
100
AcDbSpline
70
4
71
3
72
8
73
4
40
0
40
0
40
0
40
0
40
1
40
1
40
1
40
1
41
1
10
115.306704309586
20
2.71934205858881
30
0
41
1
10
115.300329264522
20
2.71012437601411
30
0
41
1
10
115.29551960947
20
2.70277069045415
30
0
41
1
10
115.292747125834
20
2.69750460158824
30
0
0
SPLINE
5
320
100
AcDbEntity
8
1
62
256
6
ByLayer
370
13
48
1
60
0
100
AcDbSpline
70
4
71
3
72
14
73
10
40
0
40
0
40
0
40
0
40
0.25
40
0.25
40
0.5
40
0.5
40
0.75
40
0.75
40
1
40
1
40
1
40
1
41
1
10
115.25326789314
20
3.05903108797284
30
0
41
1
10
115.283094167157
20
3.05204488818188
30
0
41
1
10
115.310294556569
20
3.04352160549044
30
0
41
1
10
115.355672191697
20
3.02443528552436
30
0
41
1
10
115.37455178432
20
3.01357929889693
30
0
41
1
10
115.402315696261
20
2.99068189191254
30
0
41
1
10
115.411395701105
20
2.97868317613148
30
0
41
1
10
115.420304344011
20
2.95362609916981
30
0
41
1
10
115.419913853351
20
2.94093885248606
30
0
41
1
10
115.415283301176
20
2.92845522385875
30
0
0
SPLINE
5
321
100
AcDbEntity
8
1
62
256
6
ByLayer
370
13
48
1
60
0
100
AcDbSpline
70
4
71
3
72
12
73
8
40
0
40
0
40
0
40
0
40
0.138424874322292
40
0.138424874322292
40
0.425616582881528
40
0.425616582881528
40
1
40
1
40
1
40
1
41
1
10
113.494271083477
20
9.30427654497859
30
0
41
1
10
113.494314599383
20
9.2670848913462
30
0
41
1
10
113.49475859555
20
9.22798789663094
30
0
41
1
10
113.496702528819
20
9.10613742834528
30
0
41
1
10
113.498829218656
20
9.02123791571475
30
0
41
1
10
113.506175570928
20
8.76470511134758
30
0
41
1
10
113.512422835779
20
8.59068299369727
30
0
41
1
10
113.519210726536
20
8.41601184563964
30
0
0
SPLINE
5
322
100
AcDbEntity
8
1
62
256
6
ByLayer
370
13
48
1
60
0
100
AcDbSpline
70
4
71
3
72
16
73
12
40
0
40
0
40
0
40
0
40
0.250000000000004
40
0.250000000000004
40
0.375000000000003
40
0.375000000000003
40
0.500000000000003
40
0.500000000000003
40
0.750000000000001
40
0.750000000000001
40
1
40
1
40
1
40
1
41
1
10
22
20
-8.97393348864568
30
0
41
1
10
21.8422706692701
20
-8.97411675628712
30
0
41
1
10
21.6878553184002
20
-8.98926952962992
30
0
41
1
10
21.4607911263564
20
-9.03259129986705
30
0
41
1
10
21.3858671310075
20
-9.05048324775095
30
0
41
1
10
21.2375237347286
20
-9.09306351395367
30
0
41
1
10
21.163908941317
20
-9.11786683761218
30
0
41
1
10
20.9500099657988
20
-9.20044622980265
30
0
41
1
10
20.8150108672083
20
-9.26670314263589
30
0
41
1
10
20.5582384839144
20
-9.4187140154001
30
0
41
1
10
20.4362013211274
20
-9.50495469686805
30
0
41
1
10
20.3237763930368
20
-9.5970307879542
30
0
0
SPLINE
5
323
100
AcDbEntity
8
1
62
256
6
ByLayer
370
13
48
1
60
0
100
AcDbSpline
70
4
71
3
72
38
73
34
40
0
40
0
40
0
40
0
40
0.125
40
0.125
40
0.1875
40
0.1875
40
0.25
40
0.25
40
0.3125
40
0.3125
40
0.34375
40
0.34375
40
0.375
40
0.375
40
0.4375
40
0.4375
40
0.46875
40
0.46875
40
0.5
40
0.5
40
0.625
40
0.625
40
0.75
40
0.75
40
0.78125
40
0.78125
40
0.8125
40
0.8125
40
0.875
40
0.875
40
0.9375
40
0.9375
40
1
40
1
40
1
40
1
41
1
10
5.56059999999999
20
-3.96862696659693
30
0
41
1
10
5.92018903571557
20
-3.76488116270193
30
0
41
1
10
6.25338936208215
20
-3.52680061937338
30
0
41
1
10
6.70979750886397
20
-3.11322138640153
30
0
41
1
10
6.85534210110251
20
-2.96489289221253
30
0
41
1
10
7.12406122460479
20
-2.65444686348411
30
0
41
1
10
7.24788187676469
20
-2.49194030512066
30
0
41
1
10
7.47345811947366
20
-2.15167780745006
30
0
41
1
10
7.57522618735285
20
-1.97393049134834
30
0
41
1
10
7.70970677154958
20
-1.69475100277009
30
0
41
1
10
7.75133727654222
20
-1.59983185480112
30
0
41
1
10
7.82697266109364
20
-1.40894885412959
30
0
41
1
10
7.86116285671511
20
-1.31261282511585
30
0
41
1
10
7.95284394454038
20
-1.02091942362554
30
0
41
1
10
7.99949121870435
20
-0.822888050802646
30
0
41
1
10
8.04693144970918
20
-0.520285000334809
30
0
41
1
10
8.0589787074542
20
-0.418488596072308
30
0
41
1
10
8.07525519324435
20
-0.212967887279404
30
0
41
1
10
8.07944638436524
20
-0.109003654010479
30
0
41
1
10
8.08022119882577
20
0.405958915936765
30
0
41
1
10
8.01798755071485
20
0.810348413079851
30
0
41
1
10
7.77135540604721
20
1.60157666366101
30
0
41
1
10
7.59289189698885
20
1.97011700532747
30
0
41
1
10
7.30857209654621
20
2.4007273954949
30
0
41
1
10
7.2485354226873
20
2.48535356879529
30
0
41
1
10
7.12397780682471
20
2.64942760142364
30
0
41
1
10
7.05927299915038
20
2.72916956817966
30
0
41
1
10
6.85821115306672
20
2.96182305215979
30
0
41
1
10
6.71493279601936
20
3.10818684845867
30
0
41
1
10
6.41093083549237
20
3.38441085104938
30
0
41
1
10
6.24951672621319
20
3.51469658857655
30
0
41
1
10
5.91446150014653
20
3.75564195734918
30
0
41
1
10
5.74057075345237
20
3.86665420825969
30
0
41
1
10
5.56060000000002
20
3.96862696659693
30
0
0
SPLINE
5
324
100
AcDbEntity
8
1
62
256
6
ByLayer
370
13
48
1
60
0
100
AcDbSpline
70
4
71
3
72
30
73
26
40
0
40
0
40
0
40
0
40
0.0949908107466173
40
0.227313442495438
40
0.377997168876386
40
0.54707504151817
40
0.5629505514616
40
0.579701987138843
40
0.597331937353108
40
0.615842832492324
40
0.635236920344687
40
0.655516237189656
40
0.676682574690271
40
0.698737443005124
40
0.721682030478777
40
0.745517160244481
40
0.770243244073663
40
0.795860233827185
40
0.822367570899612
40
0.849764134097151
40
0.878048186450277
40
0.907217321532033
40
0.937268409931063
40
0.968197546613641
40
1
40
1
40
1
40
1
41
1
10
20.9942722825797
20
-3.33604955330219
30
0
41
1
10
21.0135442981501
20
-3.39728107663578
30
0
41
1
10
21.0633843980849
20
-3.54703345389962
30
0
41
1
10
21.1595748448666
20
-3.80702890215772
30
0
41
1
10
21.2954388332293
20
-4.12778440205241
30
0
41
1
10
21.4114695424038
20
-4.36829125059074
30
0
41
1
10
21.4844396026476
20
-4.51095080151171
30
0
41
1
10
21.5027251209284
20
-4.54644353357287
30
0
41
1
10
21.5221183964039
20
-4.583699920143
30
0
41
1
10
21.5426513313046
20
-4.62269069421137
30
0
41
1
10
21.5643595143329
20
-4.66337623468442
30
0
41
1
10
21.5872743179457
20
-4.70571275934921
30
0
41
1
10
21.6114243737047
20
-4.7496499304346
30
0
41
1
10
21.6368342955449
20
-4.7951309310701
30
0
41
1
10
21.6635241452454
20
-4.84209183171757
30
0
41
1
10
21.6915086390754
20
-4.89046116962624
30
0
41
1
10
21.7207963835191
20
-4.94015946486479
30
0
41
1
10
21.7513890666489
20
-4.99109882897767
30
0
41
1
10
21.7832806104099
20
-5.04318234931495
30
0
41
1
10
21.8164563679118
20
-5.09630444348278
30
0
41
1
10
21.8508920358617
20
-5.15034754822892
30
0
41
1
10
21.8865536098693
20
-5.20519332120082
30
0
41
1
10
21.9233932234984
20
-5.26067731102842
30
0
41
1
10
21.9613610521136
20
-5.31676447987795
30
0
41
1
10
21.987001366977
20
-5.35365304696958
30
0
41
1
10
22
20
-5.37235410227731
30
0
0
SPLINE
5
325
100
AcDbEntity
8
1
62
256
6
ByLayer
370
13
48
1
60
0
100
AcDbSpline
70
4
71
3
72
52
73
48
40
0
40
0
40
0
40
0
40
0.0312499999999979
40
0.0312499999999979
40
0.0624999999999957
40
0.0624999999999957
40
0.0781249999999947
40
0.0781249999999947
40
0.0937499999999936
40
0.0937499999999936
40
0.109374999999993
40
0.109374999999993
40
0.117187499999992
40
0.117187499999992
40
0.124999999999992
40
0.124999999999992
40
0.156249999999993
40
0.156249999999993
40
0.187499999999993
40
0.187499999999993
40
0.249999999999993
40
0.249999999999993
40
0.312499999999992
40
0.312499999999992
40
0.343749999999992
40
0.343749999999992
40
0.374999999999993
40
0.374999999999993
40
0.499999999999994
40
0.499999999999994
40
0.562499999999995
40
0.562499999999995
40
0.624999999999996
40
0.624999999999996
40
0.687499999999997
40
0.687499999999997
40
0.718749999999997
40
0.718749999999997
40
0.749999999999997
40
0.749999999999997
40
0.812499999999997
40
0.812499999999997
40
0.874999999999998
40
0.874999999999998
40
0.937499999999999
40
0.937499999999999
40
1
40
1
40
1
40
1
41
1
10
108.929261594279
20
-9.32181672785072
30
0
41
1
10
108.427592929852
20
-9.31535430085475
30
0
41
1
10
107.923693792348
20
-9.3097454740321
30
0
41
1
10
106.919116448901
20
-9.29621497926382
30
0
41
1
10
106.418552908846
20
-9.28827963615211
30
0
41
1
10
105.676759226391
20
-9.26961899890571
30
0
41
1
10
105.43096786957
20
-9.26227704156653
30
0
41
1
10
104.94367837672
20
-9.24392326630792
30
0
41
1
10
104.702186467904
20
-9.23292325726351
30
0
41
1
10
104.225431351737
20
-9.20481292924194
30
0
41
1
10
103.990531937458
20
-9.18740126167046
30
0
41
1
10
103.642741021704
20
-9.15537658084685
30
0
41
1
10
103.527595042178
20
-9.14368417416017
30
0
41
1
10
103.297711140757
20
-9.11910794687745
30
0
41
1
10
103.182772613248
20
-9.10641237053227
30
0
41
1
10
102.607277944186
20
-9.04172828667453
30
0
41
1
10
102.146958264279
20
-8.9836527308785
30
0
41
1
10
101.22672459839
20
-8.85428254253412
30
0
41
1
10
100.766490912439
20
-8.78306633445672
30
0
41
1
10
99.3867943396342
20
-8.55108992694022
30
0
41
1
10
98.4684655044808
20
-8.3720192012625
30
0
41
1
10
96.6284704010578
20
-7.97331284181953
30
0
41
1
10
95.7068632818662
20
-7.75352333452594
30
0
41
1
10
94.315833463105
20
-7.40496243498683
30
0
41
1
10
93.8507216127057
20
-7.28567761062553
30
0
41
1
10
92.9166695793192
20
-7.04333716602505
30
0
41
1
10
92.447757461002
20
-6.92029738056308
30
0
41
1
10
90.0976695547065
20
-6.30378067238669
30
0
41
1
10
88.1955740741316
20
-5.80413558993487
30
0
41
1
10
85.2948145325457
20
-5.12737800075556
30
0
41
1
10
84.3193735010933
20
-4.91364883132022
30
0
41
1
10
82.3617278203423
20
-4.51902194528591
30
0
41
1
10
81.3784801808099
20
-4.33792935643987
30
0
41
1
10
79.4027350208454
20
-4.01433736973641
30
0
41
1
10
78.4104105449609
20
-3.87106364267223
30
0
41
1
10
76.916587204575
20
-3.67977017780404
30
0
41
1
10
76.4174560663815
20
-3.62021992447282
30
0
41
1
10
75.4191529403475
20
-3.51183549457358
30
0
41
1
10
74.9197884878207
20
-3.46303823109264
30
0
41
1
10
73.4209843917266
20
-3.33507892000932
30
0
41
1
10
72.4208391343773
20
-3.27425230188968
30
0
41
1
10
70.4187283401034
20
-3.20102837841972
30
0
41
1
10
69.416847083956
20
-3.18637443491886
30
0
41
1
10
67.4125417158935
20
-3.17161173885603
30
0
41
1
10
66.410086522242
20
-3.17231393484323
30
0
41
1
10
64.4050986643249
20
-3.17579125981158
30
0
41
1
10
63.4025420877146
20
-3.17920413783079
30
0
41
1
10
62.4
20
-3.1822290228989
30
0
0
SPLINE
5
326
100
AcDbEntity
8
1
62
256
6
ByLayer
370
13
48
1
60
0
100
AcDbSpline
70
4
71
3
72
25
73
21
40
0
40
0
40
0
40
0
40
0.0625000000000002
40
0.0625000000000002
40
0.125
40
0.125
40
0.25
40
0.25
40
0.3125
40
0.3125
40
0.34375
40
0.34375
40
0.359375
40
0.359375
40
0.375
40
0.5
40
0.5
40
0.75
40
0.75
40
1
40
1
40
1
40
1
41
1
10
20.3160925991143
20
-3.70866123022853
30
0
41
1
10
20.0625709361418
20
-3.7466247021992
30
0
41
1
10
19.8110960740619
20
-3.79308132449023
30
0
41
1
10
19.3122387825511
20
-3.90297601841095
30
0
41
1
10
19.0637219812588
20
-3.96679144973317
30
0
41
1
10
18.3367142399827
20
-4.18034720126295
30
0
41
1
10
17.8743978365525
20
-4.35213553118928
30
0
41
1
10
17.2122601060509
20
-4.65105467688613
30
0
41
1
10
16.996804035833
20
-4.75761150591009
30
0
41
1
10
16.6815200377095
20
-4.92784261584291
30
0
41
1
10
16.5777480437782
20
-4.98631909996797
30
0
41
1
10
16.4240705654632
20
-5.07667333761728
30
0
41
1
10
16.3733338047732
20
-5.10744364172214
30
0
41
1
10
16.2716302373964
20
-5.16867745717971
30
0
41
1
10
15.8126179975443
20
-5.44243433225515
30
0
41
1
10
15.3416157119039
20
-5.70020110450179
30
0
41
1
10
14.0583621426482
20
-6.35124152823988
30
0
41
1
10
13.1666785010562
20
-6.73701660985114
30
0
41
1
10
11.3128641072334
20
-7.41461746186994
30
0
41
1
10
10.3507265479541
20
-7.70643415429689
30
0
41
1
10
9.35189378089652
20
-7.94931357358413
30
0
0
SPLINE
5
327
100
AcDbEntity
8
1
62
256
6
ByLayer
370
13
48
1
60
0
100
AcDbSpline
70
4
71
3
72
18
73
14
40
0
40
0
40
0
40
0
40
0.25
40
0.25
40
0.5
40
0.5
40
0.625
40
0.625
40
0.75
40
0.75
40
0.875
40
0.875
40
1
40
1
40
1
40
1
41
1
10
120.282662650968
20
3.64972119800873
30
0
41
1
10
120.331281235035
20
3.65226919003155
30
0
41
1
10
120.380527334425
20
3.64747961309092
30
0
41
1
10
120.473588290095
20
3.62551154708871
30
0
41
1
10
120.518049701786
20
3.60802975956835
30
0
41
1
10
120.575558015817
20
3.57814388161378
30
0
41
1
10
120.593582422723
20
3.56742577754241
30
0
41
1
10
120.625728461286
20
3.54653441268329
30
0
41
1
10
120.640004967929
20
3.536306171847
30
0
41
1
10
120.665458402237
20
3.51718252508735
30
0
41
1
10
120.676552352476
20
3.50834801438353
30
0
41
1
10
120.695244045726
20
3.49346641090557
30
0
41
1
10
120.702996687579
20
3.4872976637468
30
0
41
1
10
120.70937246848
20
3.482635289727
30
0
0
SPLINE
5
328
100
AcDbEntity
8
1
62
256
6
ByLayer
370
13
48
1
60
0
100
AcDbSpline
70
4
71
3
72
10
73
6
40
0
40
0
40
0
40
0
40
0.5
40
0.5
40
1
40
1
40
1
40
1
41
1
10
108.929261594279
20
0.340555274886526
30
0
41
1
10
109.153363482543
20
0.268669164826747
30
0
41
1
10
109.379868625825
20
0.212470153473731
30
0
41
1
10
109.837594120243
20
0.13124553861428
30
0
41
1
10
110.068812531054
20
0.106206551437367
30
0
41
1
10
110.302491053031
20
0.0975249978541228
30
0
0
SPLINE
5
329
100
AcDbEntity
8
1
62
256
6
ByLayer
370
13
48
1
60
0
100
AcDbSpline
70
4
71
3
72
8
73
4
40
0
40
0
40
0
40
0
40
1
40
1
40
1
40
1
41
1
10
27
20
-3.19661027135024
30
0
41
1
10
25.3333329432518
20
-3.19661000698892
30
0
41
1
10
23.6666662052414
20
-3.19598942315139
30
0
41
1
10
22
20
-3.19433170101641
30
0
0
SPLINE
5
32A
100
AcDbEntity
8
1
62
256
6
ByLayer
370
13
48
1
60
0
100
AcDbSpline
70
4
71
3
72
12
73
8
40
0
40
0
40
0
40
0
40
0.250000000000083
40
0.250000000000083
40
0.500000000000166
40
0.500000000000166
40
1
40
1
40
1
40
1
41
1
10
109.799822575543
20
4.23805539611956
30
0
41
1
10
109.80241895359
20
4.24643411189822
30
0
41
1
10
109.808845021237
20
4.25309165418639
30
0
41
1
10
109.823366626571
20
4.26302208182381
30
0
41
1
10
109.831677175574
20
4.2665658883819
30
0
41
1
10
109.857248784947
20
4.27454666810718
30
0
41
1
10
109.87512045235
20
4.27650013720282
30
0
41
1
10
109.893459634259
20
4.2765558780662
30
0
0
SPLINE
5
32B
100
AcDbEntity
8
1
62
256
6
ByLayer
370
13
48
1
60
0
100
AcDbSpline
70
4
71
3
72
12
73
8
40
0
40
0
40
0
40
0
40
0.367456493674394
40
0.367456493674394
40
0.734912987348789
40
0.734912987348789
40
1
40
1
40
1
40
1
41
1
10
113.196150662733
20
6.32511010595675
30
0
41
1
10
113.175600979713
20
6.29587017955626
30
0
41
1
10
113.15692093912
20
6.26643037801887
30
0
41
1
10
113.123137766847
20
6.20762378661232
30
0
41
1
10
113.107985681048
20
6.17812146273724
30
0
41
1
10
113.085617865685
20
6.12932944919581
30
0
41
1
10
113.077279411885
20
6.10930912909299
30
0
41
1
10
113.070391668352
20
6.09083439033304
30
0
0
SPLINE
5
32C
100
AcDbEntity
8
1
62
256
6
ByLayer
370
13
48
1
60
0
100
AcDbSpline
70
4
71
3
72
14
73
10
40
0
40
0
40
0
40
0
40
0.125
40
0.125
40
0.25
40
0.25
40
0.5
40
0.5
40
1
40
1
40
1
40
1
41
1
10
62.4
20
-3.1822290228989
30
0
41
1
10
60.9250038030754
20
-3.18682658548556
30
0
41
1
10
59.4500073660752
20
-3.19117319816363
30
0
41
1
10
56.5000113857386
20
-3.19653986529761
30
0
41
1
10
55.025011112699
20
-3.19729534913591
30
0
41
1
10
50.6000103710272
20
-3.19625161832656
30
0
41
1
10
47.6500166612476
20
-3.19142605378363
30
0
41
1
10
38.8000180253146
20
-3.18756699681552
30
0
41
1
10
32.9000054777774
20
-3.19601109148263
30
0
41
1
10
27
20
-3.19661027135024
30
0
0
SPLINE
5
32D
100
AcDbEntity
8
1
62
256
6
ByLayer
370
13
48
1
60
0
100
AcDbSpline
70
4
71
3
72
10
73
6
40
0
40
0
40
0
40
0
40
0.5
40
0.5
40
1
40
1
40
1
40
1
41
1
10
110.999613282802
20
2.64597262308772
30
0
41
1
10
110.78943547697
20
2.79777508157102
30
0
41
1
10
110.564032736961
20
2.93291658673874
30
0
41
1
10
110.092890319254
20
3.18094447495048
30
0
41
1
10
109.846982895276
20
3.29364728984865
30
0
41
1
10
109.593002811411
20
3.39751602980448
30
0
0
SPLINE
5
32E
100
AcDbEntity
8
1
62
256
6
ByLayer
370
13
48
1
60
0
100
AcDbSpline
70
4
71
3
72
10
73
6
40
0
40
0
40
0
40
0
40
0.5
40
0.5
40
1
40
1
40
1
40
1
41
1
10
109.893491251346
20
4.27655597397529
30
0
41
1
10
109.956495979641
20
4.27674671871787
30
0
41
1
10
110.018957913593
20
4.27468721470996
30
0
41
1
10
110.142778787079
20
4.26590641990117
30
0
41
1
10
110.20446775351
20
4.25912651510583
30
0
41
1
10
110.264572122453
20
4.25002211786574
30
0
0
SPLINE
5
32F
100
AcDbEntity
8
1
62
256
6
ByLayer
370
13
48
1
60
0
100
AcDbSpline
70
4
71
2
72
12
73
9
40
0
40
0
40
0
40
0.281637058293859
40
0.281637058293859
40
0.563274116587717
40
0.563274116587717
40
0.844911174881576
40
0.844911174881576
40
1
40
1
40
1
41
1
10
21.9999999999991
20
-5.37235410227731
30
0
41
1
10
19.5010847189398
20
-5.54138087561316
30
0
41
1
10
17.2403540892162
20
-6.40945824027767
30
0
41
1
10
14.8512628516055
20
-7.32682362570699
30
0
41
1
10
13.0230662593336
20
-8.89529697096998
30
0
41
1
10
11.2072759312428
20
-10.453126551353
30
0
41
1
10
10.1712656561166
20
-12.457533838386
30
0
41
1
10
9.63848934415688
20
-13.488315817764
30
0
41
1
10
9.3521744772361
20
-14.5678226922888
30
0
0
SPLINE
5
330
100
AcDbEntity
8
1
62
256
6
ByLayer
370
13
48
1
60
0
100
AcDbSpline
70
4
71
3
72
8
73
4
40
0
40
0
40
0
40
0
40
1
40
1
40
1
40
1
41
1
10
111.797422425221
20
3.3875508546972
30
0
41
1
10
111.812974068381
20
3.46094137605709
30
0
41
1
10
111.83235064504
20
3.53519226216599
30
0
41
1
10
111.856655775445
20
3.60902569188383
30
0
0
SPLINE
5
331
100
AcDbEntity
8
1
62
256
6
ByLayer
370
13
48
1
60
0
100
AcDbSpline
70
4
71
3
72
8
73
4
40
0
40
0
40
0
40
0
40
1
40
1
40
1
40
1
41
1
10
27
20
-9.4872625907276
30
0
41
1
10
25.333332966922
20
-9.4872713866763
30
0
41
1
10
23.6666662152473
20
-9.48723889765728
30
0
41
1
10
22
20
-9.48712685618159
30
0
0
SPLINE
5
332
100
AcDbEntity
8
1
62
256
6
ByLayer
370
13
48
1
60
0
100
AcDbSpline
70
4
71
3
72
34
73
30
40
0
40
0
40
0
40
0
40
0.0276894394170939
40
0.0276894394170939
40
0.0699638116163501
40
0.0699638116163501
40
0.154512556014861
40
0.154512556014861
40
0.239061300413372
40
0.239061300413372
40
0.281335672612629
40
0.281335672612629
40
0.323610044811885
40
0.323610044811885
40
0.492707533608912
40
0.492707533608912
40
0.534981905808169
40
0.534981905808169
40
0.577256278007427
40
0.577256278007427
40
0.661805022405941
40
0.661805022405941
40
0.746353766804456
40
0.746353766804456
40
0.830902511202971
40
0.830902511202971
40
0.915451255601485
40
0.915451255601485
40
1
40
1
40
1
40
1
41
1
10
95.5296734026961
20
-7.72457469006702
30
0
41
1
10
95.2414204125815
20
-7.79742086568274
30
0
41
1
10
94.9531035724413
20
-7.86819452683764
30
0
41
1
10
94.224082724617
20
-8.04130842484642
30
0
41
1
10
93.7828068059957
20
-8.14063408796349
30
0
41
1
10
92.4574028481155
20
-8.4200266958868
30
0
41
1
10
91.5719585600012
20
-8.58115692339285
30
0
41
1
10
89.7851185147108
20
-8.84892451420706
30
0
41
1
10
88.8829127775086
20
-8.9553635116327
30
0
41
1
10
87.5167002514812
20
-9.0841284863084
30
0
41
1
10
87.0591829260347
20
-9.12190628518141
30
0
41
1
10
86.1400956833698
20
-9.18867504499701
30
0
41
1
10
85.6783717949463
20
-9.21766918941333
30
0
41
1
10
83.3654857042845
20
-9.34370814167883
30
0
41
1
10
81.4977372765131
20
-9.38482706035725
30
0
41
1
10
79.1356259037415
20
-9.40435562060503
30
0
41
1
10
78.6618273769233
20
-9.40664482330263
30
0
41
1
10
77.711330250111
20
-9.40895364029609
30
0
41
1
10
77.2350407621574
20
-9.40897228610282
30
0
41
1
10
75.8062034875447
20
-9.40698540998315
30
0
41
1
10
74.8524306984382
20
-9.40301228916763
30
0
41
1
10
72.942246463895
20
-9.39561880802529
30
0
41
1
10
71.9857963540531
20
-9.39230535512169
30
0
41
1
10
70.0710776554786
20
-9.38804416963239
30
0
41
1
10
69.1128084464567
20
-9.38701873901843
30
0
41
1
10
67.1955267022324
20
-9.38613956210355
30
0
41
1
10
66.2365323794463
20
-9.38621996137294
30
0
41
1
10
64.3183372683042
20
-9.38668798316937
30
0
41
1
10
63.3591401007225
20
-9.38706592983976
30
0
41
1
10
62.4
20
-9.38735672822071
30
0
0
SPLINE
5
333
100
AcDbEntity
8
1
62
256
6
ByLayer
370
13
48
1
60
0
100
AcDbSpline
70
4
71
3
72
14
73
10
40
0
40
0
40
0
40
0
40
0.249999999999994
40
0.249999999999994
40
0.374999999999994
40
0.374999999999994
40
0.499999999999994
40
0.499999999999994
40
1
40
1
40
1
40
1
41
1
10
20.3160925991143
20
-3.70866123022856
30
0
41
1
10
20.4395403234401
20
-3.62544037751016
30
0
41
1
10
20.568444490182
20
-3.55175710601179
30
0
41
1
10
20.7699068205886
20
-3.45559179782921
30
0
41
1
10
20.8384174102588
20
-3.42593910679602
30
0
41
1
10
20.9782067338256
20
-3.37156320132169
30
0
41
1
10
21.0493431223072
20
-3.34692424384011
30
0
41
1
10
21.4060693810386
20
-3.23804252602557
30
0
41
1
10
21.6991069622531
20
-3.1940324227042
30
0
41
1
10
22
20
-3.19433170101641
30
0
0
SPLINE
5
334
100
AcDbEntity
8
1
62
256
6
ByLayer
370
13
48
1
60
0
100
AcDbSpline
70
4
71
3
72
8
73
4
40
0
40
0
40
0
40
0
40
1
40
1
40
1
40
1
41
1
10
110.850285896291
20
-9.4110374974199
30
0
41
1
10
110.213146352119
20
-9.37934816574642
30
0
41
1
10
109.572001455345
20
-9.34987673188118
30
0
41
1
10
108.929261594279
20
-9.32181672785072
30
0
0
SPLINE
5
335
100
AcDbEntity
8
1
62
256
6
ByLayer
370
13
48
1
60
0
100
AcDbSpline
70
4
71
3
72
8
73
4
40
0
40
0
40
0
40
0
40
1
40
1
40
1
40
1
41
1
10
112.500109764819
20
2.44616599006713
30
0
41
1
10
112.621270711431
20
2.37319866606109
30
0
41
1
10
112.749804141384
20
2.32277591898759
30
0
41
1
10
112.886339386121
20
2.29329066596614
30
0
0
SPLINE
5
336
100
AcDbEntity
8
1
62
256
6
ByLayer
370
13
48
1
60
0
100
AcDbSpline
70
4
71
3
72
8
73
4
40
0
40
0
40
0
40
0
40
1
40
1
40
1
40
1
41
1
10
116.340823445105
20
2.41236122250041
30
0
41
1
10
116.38372669771
20
2.42416962863885
30
0
41
1
10
116.42572623681
20
2.43527851325575
30
0
41
1
10
116.466813629478
20
2.4457530483852
30
0
0
SPLINE
5
337
100
AcDbEntity
8
1
62
256
6
ByLayer
370
13
48
1
60
0
100
AcDbSpline
70
4
71
3
72
34
73
30
40
0
40
0
40
0
40
0
40
0.125
40
0.125
40
0.1875
40
0.1875
40
0.25
40
0.25
40
0.3125
40
0.3125
40
0.375
40
0.375
40
0.4375
40
0.4375
40
0.5
40
0.5
40
0.5625
40
0.5625
40
0.625
40
0.625
40
0.6875
40
0.6875
40
0.75
40
0.75
40
0.875
40
0.875
40
0.9375
40
0.9375
40
1
40
1
40
1
40
1
41
1
10
6.42799086240385
20
-13.433158921862
30
0
41
1
10
6.31073699865692
20
-13.5790683461193
30
0
41
1
10
6.22663626778441
20
-13.7207831893073
30
0
41
1
10
6.15323148477984
20
-13.9264822814068
30
0
41
1
10
6.13820932563618
20
-13.9927249487373
30
0
41
1
10
6.12737772817036
20
-14.118954709872
30
0
41
1
10
6.13157193034129
20
-14.1792055893288
30
0
41
1
10
6.15864039735359
20
-14.2940180849608
30
0
41
1
10
6.18175864913087
20
-14.3486705115423
30
0
41
1
10
6.24468239168871
20
-14.4490198029446
30
0
41
1
10
6.28453349212029
20
-14.4951961371283
30
0
41
1
10
6.38031538178555
20
-14.5798638610736
30
0
41
1
10
6.43673129058107
20
-14.6185686475879
30
0
41
1
10
6.56313765197044
20
-14.6867588858312
30
0
41
1
10
6.63303532754713
20
-14.7163584991582
30
0
41
1
10
6.78568182487305
20
-14.7670183396053
30
0
41
1
10
6.8684343638221
20
-14.7880762157148
30
0
41
1
10
7.04702773796603
20
-14.821631436174
30
0
41
1
10
7.14173370687115
20
-14.8338505246376
30
0
41
1
10
7.3393988257811
20
-14.849737710506
30
0
41
1
10
7.44262470010179
20
-14.8534520880654
30
0
41
1
10
7.65747437317742
20
-14.8528201254568
30
0
41
1
10
7.76974749999414
20
-14.8484150223597
30
0
41
1
10
8.11378702546571
20
-14.8235833230503
30
0
41
1
10
8.35191736701458
20
-14.791979265321
30
0
41
1
10
8.72173067578183
20
-14.7233874084537
30
0
41
1
10
8.84760607436576
20
-14.6968244818629
30
0
41
1
10
9.1002699123961
20
-14.6371752766818
30
0
41
1
10
9.22728753488954
20
-14.6040712643583
30
0
41
1
10
9.35501801899787
20
-14.5676504900403
30
0
0
SPLINE
5
338
100
AcDbEntity
8
1
62
256
6
ByLayer
370
13
48
1
60
0
100
AcDbSpline
70
4
71
3
72
8
73
4
40
0
40
0
40
0
40
0
40
1
40
1
40
1
40
1
41
1
10
0
20
3.54400902933392
30
0
41
1
10
0.0316790368941895
20
3.68613527180352
30
0
41
1
10
0.0650361897271239
20
3.82766613327235
30
0
41
1
10
0.0999999999999943
20
3.96862696659682
30
0
0
SPLINE
5
339
100
AcDbEntity
8
1
62
256
6
ByLayer
370
13
48
1
60
0
100
AcDbSpline
70
4
71
3
72
10
73
6
40
0
40
0
40
0
40
0
40
0.5
40
0.5
40
1
40
1
40
1
40
1
41
1
10
117.330302815678
20
3.29472010619722
30
0
41
1
10
117.078487292771
20
3.28152301385262
30
0
41
1
10
116.826303002819
20
3.2683065952462
30
0
41
1
10
116.321490814557
20
3.24185050950433
30
0
41
1
10
116.06887095643
20
3.22861126373712
30
0
41
1
10
115.816401847738
20
3.21537991841302
30
0
0
SPLINE
5
33A
100
AcDbEntity
8
1
62
256
6
ByLayer
370
13
48
1
60
0
100
AcDbSpline
70
4
71
3
72
8
73
4
40
0
40
0
40
0
40
0
40
1
40
1
40
1
40
1
41
1
10
121.952400863405
20
0.203614849877994
30
0
41
1
10
121.951783824894
20
0.213936634060133
30
0
41
1
10
121.951243698922
20
0.224170965387259
30
0
41
1
10
121.950778644538
20
0.234319346067167
30
0
0
SPLINE
5
33B
100
AcDbEntity
8
1
62
256
6
ByLayer
370
13
48
1
60
0
100
AcDbSpline
70
4
71
2
72
6
73
3
40
0
40
0
40
0
40
1
40
1
40
1
41
1
10
101.555889756991
20
4.11201173757235
30
0
41
1
10
101.495575102277
20
4.13523864122723
30
0
41
1
10
101.435274967447
20
4.15972061046767
30
0
0
SPLINE
5
33C
100
AcDbEntity
8
1
62
256
6
ByLayer
370
13
48
1
60
0
100
AcDbSpline
70
4
71
3
72
17
73
13
40
0
40
0
40
0
40
0
40
0.139289279333175
40
0.279736076381358
40
0.420494880686485
40
0.560708891553842
40
0.633680624565585
40
0.706232039123718
40
0.779639611241661
40
0.853576468052153
40
0.92727953360371
40
1
40
1
40
1
40
1
41
1
10
5.56059999999999
20
-16
30
0
41
1
10
6.38807384314711
20
-15.8834299932607
30
0
41
1
10
8.02584112126016
20
-15.5612005978176
30
0
41
1
10
10.4287372570491
20
-14.8067855759752
30
0
41
1
10
12.7363522028635
20
-13.790770284778
30
0
41
1
10
14.5695995240128
20
-12.7282213453847
30
0
41
1
10
15.9699885203783
20
-11.7523525240283
30
0
41
1
10
16.9989048862135
20
-10.9417923244244
30
0
41
1
10
18.1599033042559
20
-10.3141547916287
30
0
41
1
10
19.3988046216425
20
-9.84841742671676
30
0
41
1
10
20.6915283160135
20
-9.56841483956029
30
0
41
1
10
21.5623977995741
20
-9.50656171763234
30
0
41
1
10
22
20
-9.50625000000002
30
0
0
SPLINE
5
33D
100
AcDbEntity
8
1
62
256
6
ByLayer
370
13
48
1
60
0
100
AcDbSpline
70
4
71
3
72
16
73
12
40
0
40
0
40
0
40
0
40
0.0927208335784855
40
0.186703272309132
40
0.280389594629238
40
0.372828824080507
40
0.465828058849
40
0.559373363784612
40
0.706826316746208
40
0.85402647107464
40
1
40
1
40
1
40
1
41
1
10
22
20
9.50624999999997
30
0
41
1
10
21.4395357792213
20
9.50707336004251
30
0
41
1
10
20.3314185593859
20
9.60656656353194
30
0
41
1
10
18.7088060746175
20
10.0634785470337
30
0
41
1
10
17.1902836918011
20
10.793802608129
30
0
41
1
10
15.8777296911241
20
11.8292215515085
30
0
41
1
10
14.4985509378333
20
12.7647078182715
30
0
41
1
10
12.7684960239702
20
13.7611462103813
30
0
41
1
10
10.6550157779127
20
14.7252957121954
30
0
41
1
10
8.14316108831204
20
15.5356405806323
30
0
41
1
10
6.42801854666334
20
15.8777593811466
30
0
41
1
10
5.56060000000002
20
16
30
0
0
SPLINE
5
33E
100
AcDbEntity
8
1
62
256
6
ByLayer
370
18
48
1
60
0
100
AcDbSpline
70
4
71
3
72
9
73
5
40
0
40
0
40
0
40
0
40
0.272784950124084
40
1
40
1
40
1
40
1
41
1
10
118.123345263468
20
-2.20865362619605
30
0
41
1
10
118.130121380502
20
-2.19130131643021
30
0
41
1
10
118.156383326636
20
-2.12819613235297
30
0
41
1
10
118.187118884502
20
-2.06722356373697
30
0
41
1
10
118.21193699855
20
-2.0243117589846
30
0
0
SPLINE
5
33F
100
AcDbEntity
8
1
62
256
6
ByLayer
370
13
48
1
60
0
100
AcDbSpline
70
4
71
1
72
4
73
2
40
0
40
0
40
1
40
1
41
1
10
122.407681346831
20
3.21069987512192
30
0
41
1
10
122.49644239785
20
3.29113983695939
30
0
0
SPLINE
5
340
100
AcDbEntity
8
1
62
256
6
ByLayer
370
13
48
1
60
0
100
AcDbSpline
70
4
71
1
72
4
73
2
40
0
40
0
40
1
40
1
41
1
10
113.720794200772
20
2.83122760318128
30
0
41
1
10
113.817477275062
20
2.76050635613234
30
0
0
LINE
5
7F
100
AcDbEntity
8
SK1
62
256
6
ByLayer
370
13
48
1
60
0
100
AcDbLine
10
-2
20
-12.49675
30
0
11
-2
21
12.49675
31
0
39
0
210
0
220
0
230
1
0
LINE
5
81
100
AcDbEntity
8
SK1
62
256
6
ByLayer
370
13
48
1
60
0
100
AcDbLine
10
-55
20
6.998572
30
0
11
-54.60004
21
6.998572
31
0
39
0
210
0
220
0
230
1
0
LINE
5
82
100
AcDbEntity
8
SK1
62
256
6
ByLayer
370
13
48
1
60
0
100
AcDbLine
10
-1.544243
20
-12.284227
30
0
11
-1.544243
21
12.284227
31
0
39
0
210
0
220
0
230
1
0
LINE
5
83
100
AcDbEntity
8
SK1
62
256
6
ByLayer
370
13
48
1
60
0
100
AcDbLine
10
-55
20
-12.49675
30
0
11
-55
21
-6.998572
31
0
39
0
210
0
220
0
230
1
0
LINE
5
84
100
AcDbEntity
8
SK1
62
256
6
ByLayer
370
13
48
1
60
0
100
AcDbLine
10
-55
20
6.998572
30
0
11
-55
21
12.49675
31
0
39
0
210
0
220
0
230
1
0
LINE
5
85
100
AcDbEntity
8
SK1
62
256
6
ByLayer
370
13
48
1
60
0
100
AcDbLine
10
-1.375195
20
-12.24675
30
0
11
-1.375195
21
12.24675
31
0
39
0
210
0
220
0
230
1
0
LINE
5
86
100
AcDbEntity
8
1
62
256
6
ByLayer
370
13
48
1
60
0
100
AcDbLine
10
117.720062
20
7.067802
30
0
11
117.707756
21
7.083628
31
0
39
0
210
0
220
0
230
1
0
LINE
5
87
100
AcDbEntity
8
1
62
256
6
ByLayer
370
13
48
1
60
0
100
AcDbLine
10
118.970888
20
6.022202
30
0
11
118.88935
21
6.017929
31
0
39
0
210
0
220
0
230
1
0
LINE
5
88
100
AcDbEntity
8
1
62
256
6
ByLayer
370
13
48
1
60
0
100
AcDbLine
10
118.744103
20
5.613238
30
0
11
118.663568
21
5.609018
31
0
39
0
210
0
220
0
230
1
0
LINE
5
89
100
AcDbEntity
8
1
62
256
6
ByLayer
370
13
48
1
60
0
100
AcDbLine
10
117.882344
20
5.312416
30
0
11
117.800805
21
5.308142
31
0
39
0
210
0
220
0
230
1
0
LINE
5
8A
100
AcDbEntity
8
1
62
256
6
ByLayer
370
13
48
1
60
0
100
AcDbLine
10
117.891924
20
5.329389
30
0
11
117.811389
21
5.325168
31
0
39
0
210
0
220
0
230
1
0
LINE
5
8B
100
AcDbEntity
8
1
62
256
6
ByLayer
370
13
48
1
60
0
100
AcDbLine
10
118.672962
20
5.591293
30
0
11
118.663568
21
5.609018
31
0
39
0
210
0
220
0
230
1
0
LINE
5
8C
100
AcDbEntity
8
1
62
256
6
ByLayer
370
13
48
1
60
0
100
AcDbLine
10
117.176934
20
6.403071
30
0
11
117.135119
21
6.400879
31
0
39
0
210
0
220
0
230
1
0
LINE
5
8D
100
AcDbEntity
8
1
62
256
6
ByLayer
370
13
48
1
60
0
100
AcDbLine
10
118.869554
20
6.015146
30
0
11
118.88935
21
6.017929
31
0
39
0
210
0
220
0
230
1
0
LINE
5
8E
100
AcDbEntity
8
1
62
256
6
ByLayer
370
13
48
1
60
0
100
AcDbLine
10
118.096554
20
4.661696
30
0
11
118.096697
21
4.661703
31
0
39
0
210
0
220
0
230
1
0
LINE
5
8F
100
AcDbEntity
8
1
62
256
6
ByLayer
370
13
48
1
60
0
100
AcDbLine
10
118.86453
20
6.491514
30
0
11
118.844552
21
6.492213
31
0
39
0
210
0
220
0
230
1
0
LINE
5
90
100
AcDbEntity
8
1
62
256
6
ByLayer
370
13
48
1
60
0
100
AcDbLine
10
118.677778
20
6.878805
30
0
11
118.597243
21
6.874584
31
0
39
0
210
0
220
0
230
1
0
LINE
5
91
100
AcDbEntity
8
1
62
256
6
ByLayer
370
13
48
1
60
0
100
AcDbLine
10
118.925087
20
6.496433
30
0
11
118.844552
21
6.492213
31
0
39
0
210
0
220
0
230
1
0
LINE
5
92
100
AcDbEntity
8
1
62
256
6
ByLayer
370
13
48
1
60
0
100
AcDbLine
10
117.800597
20
7.072023
30
0
11
117.720062
21
7.067802
31
0
39
0
210
0
220
0
230
1
0
LINE
5
93
100
AcDbEntity
8
1
62
256
6
ByLayer
370
13
48
1
60
0
100
AcDbLine
10
117.201754
20
5.929486
30
0
11
117.159516
21
5.927272
31
0
39
0
210
0
220
0
230
1
0
LINE
5
94
100
AcDbEntity
8
1
62
256
6
ByLayer
370
13
48
1
60
0
100
AcDbLine
10
118.754501
20
5.595566
30
0
11
118.672962
21
5.591293
31
0
39
0
210
0
220
0
230
1
0
LINE
5
95
100
AcDbEntity
8
1
62
256
6
ByLayer
370
13
48
1
60
0
100
AcDbLine
10
118.950089
20
6.019366
30
0
11
118.869554
21
6.015146
31
0
39
0
210
0
220
0
230
1
0
LINE
5
96
100
AcDbEntity
8
1
62
256
6
ByLayer
370
13
48
1
60
0
100
AcDbLine
10
118.946069
20
6.495787
30
0
11
118.86453
21
6.491514
31
0
39
0
210
0
220
0
230
1
0
LINE
5
97
100
AcDbEntity
8
1
62
256
6
ByLayer
370
13
48
1
60
0
100
AcDbLine
10
117.800805
20
5.308142
30
0
11
117.811389
21
5.325168
31
0
39
0
210
0
220
0
230
1
0
LINE
5
98
100
AcDbEntity
8
1
62
256
6
ByLayer
370
13
48
1
60
0
100
AcDbLine
10
117.789295
20
7.087902
30
0
11
117.707756
21
7.083628
31
0
39
0
210
0
220
0
230
1
0
LINE
5
99
100
AcDbEntity
8
1
62
256
6
ByLayer
370
13
48
1
60
0
100
AcDbLine
10
118.686272
20
6.897468
30
0
11
118.604733
21
6.893194
31
0
39
0
210
0
220
0
230
1
0
LINE
5
9A
100
AcDbEntity
8
1
62
256
6
ByLayer
370
13
48
1
60
0
100
AcDbLine
10
118.597243
20
6.874584
30
0
11
118.604733
21
6.893194
31
0
39
0
210
0
220
0
230
1
0
LINE
5
9B
100
AcDbEntity
8
1
62
256
6
ByLayer
370
18
48
1
60
0
100
AcDbLine
10
122.002994
20
-6.080361
30
0
11
122.372615
21
-5.975151
31
0
39
0
210
0
220
0
230
1
0
LINE
5
9C
100
AcDbEntity
8
1
62
256
6
ByLayer
370
18
48
1
60
0
100
AcDbLine
10
122.337097
20
-0.000741
30
0
11
122.733352
21
-2.484266
31
0
39
0
210
0
220
0
230
1
0
LINE
5
9D
100
AcDbEntity
8
1
62
256
6
ByLayer
370
18
48
1
60
0
100
AcDbLine
10
122.57609
20
-0.139811
30
0
11
122.470103
21
0.227101
31
0
39
0
210
0
220
0
230
1
0
LINE
5
9E
100
AcDbEntity
8
1
62
256
6
ByLayer
370
18
48
1
60
0
100
AcDbLine
10
122.73523
20
-2.626695
30
0
11
122.389571
21
-5.232999
31
0
39
0
210
0
220
0
230
1
0
LINE
5
9F
100
AcDbEntity
8
1
62
256
6
ByLayer
370
18
48
1
60
0
100
AcDbLine
10
122.268841
20
0.248974
30
0
11
122.323884
21
0.058423
31
0
39
0
210
0
220
0
230
1
0
LINE
5
A0
100
AcDbEntity
8
1
62
256
6
ByLayer
370
18
48
1
60
0
100
AcDbLine
10
122.139039
20
-5.521626
30
0
11
121.95168
21
-5.574957
31
0
39
0
210
0
220
0
230
1
0
LINE
5
A1
100
AcDbEntity
8
1
62
256
6
ByLayer
370
13
48
1
60
0
100
AcDbLine
10
113.220509
20
5.805807
30
0
11
113.65452
21
3.057663
31
0
39
0
210
0
220
0
230
1
0
LINE
5
A2
100
AcDbEntity
8
1
62
256
6
ByLayer
370
13
48
1
60
0
100
AcDbLine
10
113.107891
20
5.952378
30
0
11
113.106089
21
5.938612
31
0
39
0
210
0
220
0
230
1
0
LINE
5
A3
100
AcDbEntity
8
1
62
256
6
ByLayer
370
13
48
1
60
0
100
AcDbLine
10
114.464317
20
6.014882
30
0
11
114.805353
21
8.620733
31
0
39
0
210
0
220
0
230
1
0
LINE
5
A4
100
AcDbEntity
8
1
62
256
6
ByLayer
370
13
48
1
60
0
100
AcDbLine
10
113.752864
20
3.073285
30
0
11
113.318853
21
5.821428
31
0
39
0
210
0
220
0
230
1
0
LINE
5
A5
100
AcDbEntity
8
1
62
256
6
ByLayer
370
13
48
1
60
0
100
AcDbLine
10
114.805353
20
8.620733
30
0
11
113.780901
21
8.467198
31
0
39
0
210
0
220
0
230
1
0
LINE
5
A6
100
AcDbEntity
8
1
62
256
6
ByLayer
370
13
48
1
60
0
100
AcDbLine
10
113.447921
20
5.843893
30
0
11
113.881932
21
3.09575
31
0
39
0
210
0
220
0
230
1
0
LINE
5
A7
100
AcDbEntity
8
1
62
256
6
ByLayer
370
13
48
1
60
0
100
AcDbLine
10
121.572386
20
9.684223
30
0
11
121.678276
21
9.688842
31
0
39
0
210
0
220
0
230
1
0
LINE
5
A8
100
AcDbEntity
8
1
62
256
6
ByLayer
370
13
48
1
60
0
100
AcDbLine
10
122.38251
20
3.809377
30
0
11
121.292717
21
3.64605
31
0
39
0
210
0
220
0
230
1
0
LINE
5
A9
100
AcDbEntity
8
1
62
256
6
ByLayer
370
13
48
1
60
0
100
AcDbLine
10
121.536106
20
3.188053
30
0
11
121.490181
21
3.181171
31
0
39
0
210
0
220
0
230
1
0
LINE
5
AA
100
AcDbEntity
8
1
62
256
6
ByLayer
370
13
48
1
60
0
100
AcDbLine
10
121.098284
20
3.801782
30
0
11
121.444009
21
6.443461
31
0
39
0
210
0
220
0
230
1
0
LINE
5
AB
100
AcDbEntity
8
1
62
256
6
ByLayer
370
13
48
1
60
0
100
AcDbLine
10
121.441726
20
6.615636
30
0
11
121.056857
21
9.052616
31
0
39
0
210
0
220
0
230
1
0
LINE
5
AC
100
AcDbEntity
8
1
62
256
6
ByLayer
370
13
48
1
60
0
100
AcDbLine
10
122.178821
20
3.284377
30
0
11
122.398261
21
3.710175
31
0
39
0
210
0
220
0
230
1
0
LINE
5
AD
100
AcDbEntity
8
1
62
256
6
ByLayer
370
13
48
1
60
0
100
AcDbLine
10
121.258548
20
9.194675
30
0
11
121.659914
21
6.653239
31
0
39
0
210
0
220
0
230
1
0
LINE
5
AE
100
AcDbEntity
8
1
62
256
6
ByLayer
370
13
48
1
60
0
100
AcDbLine
10
115.084526
20
8.625325
30
0
11
114.738802
21
5.983645
31
0
39
0
210
0
220
0
230
1
0
LINE
5
AF
100
AcDbEntity
8
1
62
256
6
ByLayer
370
13
48
1
60
0
100
AcDbLine
10
121.186626
20
3.779368
30
0
11
121.183864
21
3.75827
31
0
39
0
210
0
220
0
230
1
0
LINE
5
B0
100
AcDbEntity
8
1
62
256
6
ByLayer
370
13
48
1
60
0
100
AcDbLine
10
121.663148
20
6.409325
30
0
11
121.322112
21
3.803473
31
0
39
0
210
0
220
0
230
1
0
LINE
5
B1
100
AcDbEntity
8
1
62
256
6
ByLayer
370
13
48
1
60
0
100
AcDbLine
10
122.945755
20
6.476853
30
0
11
122.613173
21
3.9356
31
0
39
0
210
0
220
0
230
1
0
LINE
5
B2
100
AcDbEntity
8
1
62
256
6
ByLayer
370
13
48
1
60
0
100
AcDbLine
10
114.976577
20
8.637916
30
0
11
114.980497
21
8.66787
31
0
39
0
210
0
220
0
230
1
0
LINE
5
B3
100
AcDbEntity
8
1
62
256
6
ByLayer
370
13
48
1
60
0
100
AcDbLine
10
114.040295
20
9.390274
30
0
11
113.965428
21
9.385692
31
0
39
0
210
0
220
0
230
1
0
LINE
5
B4
100
AcDbEntity
8
1
62
256
6
ByLayer
370
13
48
1
60
0
100
AcDbLine
10
121.493084
20
9.780858
30
0
11
121.56802
21
9.784127
31
0
39
0
210
0
220
0
230
1
0
LINE
5
B5
100
AcDbEntity
8
1
62
256
6
ByLayer
370
13
48
1
60
0
100
AcDbLine
10
121.48954
20
3.128502
30
0
11
121.393975
21
3.123493
31
0
39
0
210
0
220
0
230
1
0
LINE
5
B6
100
AcDbEntity
8
1
62
256
6
ByLayer
370
13
48
1
60
0
100
AcDbLine
10
114.630853
20
5.996236
30
0
11
114.62624
21
5.995995
31
0
39
0
210
0
220
0
230
1
0
LINE
5
B7
100
AcDbEntity
8
1
62
256
6
ByLayer
370
13
48
1
60
0
100
AcDbLine
10
115.007456
20
3.137548
30
0
11
115.002843
21
3.137306
31
0
39
0
210
0
220
0
230
1
0
LINE
5
B8
100
AcDbEntity
8
1
62
256
6
ByLayer
370
13
48
1
60
0
100
AcDbLine
10
122.847031
20
6.489928
30
0
11
122.513099
21
3.938363
31
0
39
0
210
0
220
0
230
1
0
LINE
5
B9
100
AcDbEntity
8
1
62
256
6
ByLayer
370
13
48
1
60
0
100
AcDbLine
10
121.157263
20
9.584475
30
0
11
121.154592
21
9.584593
31
0
39
0
210
0
220
0
230
1
0
LINE
5
BA
100
AcDbEntity
8
1
62
256
6
ByLayer
370
13
48
1
60
0
100
AcDbLine
10
113.708808
20
9.12726
30
0
11
113.49735
21
9.095569
31
0
39
0
210
0
220
0
230
1
0
LINE
5
BB
100
AcDbEntity
8
1
62
256
6
ByLayer
370
13
48
1
60
0
100
AcDbLine
10
122.178821
20
3.284377
30
0
11
122.446707
21
3.324525
31
0
39
0
210
0
220
0
230
1
0
LINE
5
BC
100
AcDbEntity
8
1
62
256
6
ByLayer
370
13
48
1
60
0
100
AcDbLine
10
113.145822
20
6.242209
30
0
11
113.107891
21
5.952378
31
0
39
0
210
0
220
0
230
1
0
LINE
5
BD
100
AcDbEntity
8
1
62
256
6
ByLayer
370
13
48
1
60
0
100
AcDbLine
10
114.351524
20
9.223583
30
0
11
114.397449
21
9.230466
31
0
39
0
210
0
220
0
230
1
0
LINE
5
BE
100
AcDbEntity
8
1
62
256
6
ByLayer
370
13
48
1
60
0
100
AcDbLine
10
114.983553
20
8.898424
30
0
11
113.766101
21
8.715964
31
0
39
0
210
0
220
0
230
1
0
LINE
5
BF
100
AcDbEntity
8
1
62
256
6
ByLayer
370
13
48
1
60
0
100
AcDbLine
10
114.630853
20
5.996236
30
0
11
114.976577
21
8.637916
31
0
39
0
210
0
220
0
230
1
0
LINE
5
C0
100
AcDbEntity
8
1
62
256
6
ByLayer
370
13
48
1
60
0
100
AcDbLine
10
113.77724
20
8.616521
30
0
11
114.867033
21
8.779848
31
0
39
0
210
0
220
0
230
1
0
LINE
5
C1
100
AcDbEntity
8
1
62
256
6
ByLayer
370
13
48
1
60
0
100
AcDbLine
10
114.980497
20
8.66787
30
0
11
114.975885
21
8.667628
31
0
39
0
210
0
220
0
230
1
0
LINE
5
C2
100
AcDbEntity
8
1
62
256
6
ByLayer
370
13
48
1
60
0
100
AcDbLine
10
113.537338
20
3.459956
30
0
11
113.553838
21
3.434804
31
0
39
0
210
0
220
0
230
1
0
LINE
5
C3
100
AcDbEntity
8
1
62
256
6
ByLayer
370
13
48
1
60
0
100
AcDbLine
10
113.087385
20
6.101117
30
0
11
113.088504
21
6.209402
31
0
39
0
210
0
220
0
230
1
0
LINE
5
C4
100
AcDbEntity
8
1
62
256
6
ByLayer
370
13
48
1
60
0
100
AcDbLine
10
113.111218
20
5.802739
30
0
11
113.624489
21
3.05682
31
0
39
0
210
0
220
0
230
1
0
LINE
5
C5
100
AcDbEntity
8
1
62
256
6
ByLayer
370
13
48
1
60
0
100
AcDbLine
10
121.23405
20
9.641393
30
0
11
121.329615
21
9.646401
31
0
39
0
210
0
220
0
230
1
0
LINE
5
C6
100
AcDbEntity
8
1
62
256
6
ByLayer
370
13
48
1
60
0
100
AcDbLine
10
115.655154
20
8.764546
30
0
11
120.229211
21
9.004262
31
0
39
0
210
0
220
0
230
1
0
LINE
5
C7
100
AcDbEntity
8
1
62
256
6
ByLayer
370
13
48
1
60
0
100
AcDbLine
10
114.975885
20
8.667628
30
0
11
114.62624
21
5.995995
31
0
39
0
210
0
220
0
230
1
0
LINE
5
C8
100
AcDbEntity
8
1
62
256
6
ByLayer
370
13
48
1
60
0
100
AcDbLine
10
121.180808
20
3.527716
30
0
11
122.197238
21
3.680048
31
0
39
0
210
0
220
0
230
1
0
LINE
5
C9
100
AcDbEntity
8
1
62
256
6
ByLayer
370
13
48
1
60
0
100
AcDbLine
10
122.197238
20
3.680048
30
0
11
122.055352
21
3.18325
31
0
39
0
210
0
220
0
230
1
0
LINE
5
CA
100
AcDbEntity
8
1
62
256
6
ByLayer
370
13
48
1
60
0
100
AcDbLine
10
113.780901
20
8.467198
30
0
11
113.44697
21
5.915633
31
0
39
0
210
0
220
0
230
1
0
LINE
5
CB
100
AcDbEntity
8
1
62
256
6
ByLayer
370
13
48
1
60
0
100
AcDbLine
10
121.729268
20
9.690375
30
0
11
121.724655
21
9.690133
31
0
39
0
210
0
220
0
230
1
0
LINE
5
CC
100
AcDbEntity
8
1
62
256
6
ByLayer
370
13
48
1
60
0
100
AcDbLine
10
122.483901
20
3.649805
30
0
11
122.446707
21
3.324525
31
0
39
0
210
0
220
0
230
1
0
LINE
5
CD
100
AcDbEntity
8
1
62
256
6
ByLayer
370
13
48
1
60
0
100
AcDbLine
10
114.671278
20
2.645281
30
0
11
114.596342
21
2.642013
31
0
39
0
210
0
220
0
230
1
0
LINE
5
CE
100
AcDbEntity
8
1
62
256
6
ByLayer
370
13
48
1
60
0
100
AcDbLine
10
122.024669
20
9.690309
30
0
11
122.020057
21
9.690067
31
0
39
0
210
0
220
0
230
1
0
LINE
5
CF
100
AcDbEntity
8
1
62
256
6
ByLayer
370
13
48
1
60
0
100
AcDbLine
10
113.092811
20
6.042665
30
0
11
113.10778
21
6.173577
31
0
39
0
210
0
220
0
230
1
0
LINE
5
D0
100
AcDbEntity
8
1
62
256
6
ByLayer
370
13
48
1
60
0
100
AcDbLine
10
122.406885
20
9.352613
30
0
11
122.840896
21
6.60447
31
0
39
0
210
0
220
0
230
1
0
LINE
5
D1
100
AcDbEntity
8
1
62
256
6
ByLayer
370
13
48
1
60
0
100
AcDbLine
10
121.536106
20
3.188053
30
0
11
121.760529
21
3.184386
31
0
39
0
210
0
220
0
230
1
0
LINE
5
D2
100
AcDbEntity
8
1
62
256
6
ByLayer
370
13
48
1
60
0
100
AcDbLine
10
122.458538
20
3.275533
30
0
11
122.446707
21
3.324525
31
0
39
0
210
0
220
0
230
1
0
LINE
5
D3
100
AcDbEntity
8
1
62
256
6
ByLayer
370
13
48
1
60
0
100
AcDbLine
10
115.018385
20
3.358386
30
0
11
114.633516
21
5.795366
31
0
39
0
210
0
220
0
230
1
0
LINE
5
D4
100
AcDbEntity
8
1
62
256
6
ByLayer
370
13
48
1
60
0
100
AcDbLine
10
121.678276
20
9.688842
30
0
11
121.673664
21
9.6886
31
0
39
0
210
0
220
0
230
1
0
LINE
5
D5
100
AcDbEntity
8
1
62
256
6
ByLayer
370
13
48
1
60
0
100
AcDbLine
10
120.509208
20
3.661594
30
0
11
115.935151
21
3.421878
31
0
39
0
210
0
220
0
230
1
0
LINE
5
D6
100
AcDbEntity
8
1
62
256
6
ByLayer
370
13
48
1
60
0
100
AcDbLine
10
114.591976
20
2.741917
30
0
11
114.486086
21
2.737298
31
0
39
0
210
0
220
0
230
1
0
LINE
5
D7
100
AcDbEntity
8
1
62
256
6
ByLayer
370
13
48
1
60
0
100
AcDbLine
10
122.411497
20
9.352855
30
0
11
122.845509
21
6.604711
31
0
39
0
210
0
220
0
230
1
0
LINE
5
D8
100
AcDbEntity
8
1
62
256
6
ByLayer
370
13
48
1
60
0
100
AcDbLine
10
114.741084
20
5.81147
30
0
11
115.125954
21
3.37449
31
0
39
0
210
0
220
0
230
1
0
LINE
5
D9
100
AcDbEntity
8
1
62
256
6
ByLayer
370
13
48
1
60
0
100
AcDbLine
10
122.596341
20
3.870801
30
0
11
122.568639
21
3.525563
31
0
39
0
210
0
220
0
230
1
0
LINE
5
DA
100
AcDbEntity
8
1
62
256
6
ByLayer
370
13
48
1
60
0
100
AcDbLine
10
122.197238
20
3.680048
30
0
11
122.398261
21
3.710175
31
0
39
0
210
0
220
0
230
1
0
LINE
5
DB
100
AcDbEntity
8
1
62
256
6
ByLayer
370
13
48
1
60
0
100
AcDbLine
10
121.572386
20
9.684223
30
0
11
121.567774
21
9.683981
31
0
39
0
210
0
220
0
230
1
0
LINE
5
DC
100
AcDbEntity
8
1
62
256
6
ByLayer
370
13
48
1
60
0
100
AcDbLine
10
114.633516
20
5.795366
30
0
11
114.628904
21
5.795124
31
0
39
0
210
0
220
0
230
1
0
LINE
5
DD
100
AcDbEntity
8
1
62
256
6
ByLayer
370
13
48
1
60
0
100
AcDbLine
10
114.750913
20
2.833735
30
0
11
114.7463
21
2.833493
31
0
39
0
210
0
220
0
230
1
0
LINE
5
DE
100
AcDbEntity
8
1
62
256
6
ByLayer
370
13
48
1
60
0
100
AcDbLine
10
113.708808
20
9.12726
30
0
11
113.766101
21
8.715964
31
0
39
0
210
0
220
0
230
1
0
LINE
5
DF
100
AcDbEntity
8
1
62
256
6
ByLayer
370
13
48
1
60
0
100
AcDbLine
10
112.985563
20
5.766048
30
0
11
113.537338
21
3.459956
31
0
39
0
210
0
220
0
230
1
0
LINE
5
E0
100
AcDbEntity
8
1
62
256
6
ByLayer
370
13
48
1
60
0
100
AcDbLine
10
122.845509
20
6.604711
30
0
11
122.840896
21
6.60447
31
0
39
0
210
0
220
0
230
1
0
LINE
5
E1
100
AcDbEntity
8
1
62
256
6
ByLayer
370
13
48
1
60
0
100
AcDbLine
10
122.513099
20
3.938363
30
0
11
122.508487
21
3.938121
31
0
39
0
210
0
220
0
230
1
0
LINE
5
E2
100
AcDbEntity
8
1
62
256
6
ByLayer
370
13
48
1
60
0
100
AcDbLine
10
122.411497
20
9.352855
30
0
11
122.406885
21
9.352613
31
0
39
0
210
0
220
0
230
1
0
LINE
5
E3
100
AcDbEntity
8
1
62
256
6
ByLayer
370
13
48
1
60
0
100
AcDbLine
10
121.297329
20
3.646292
30
0
11
121.292717
21
3.64605
31
0
39
0
210
0
220
0
230
1
0
LINE
5
E4
100
AcDbEntity
8
1
62
256
6
ByLayer
370
13
48
1
60
0
100
AcDbLine
10
122.387122
20
3.809619
30
0
11
122.38251
21
3.809377
31
0
39
0
210
0
220
0
230
1
0
LINE
5
E5
100
AcDbEntity
8
1
62
256
6
ByLayer
370
13
48
1
60
0
100
AcDbLine
10
121.285709
20
3.645253
30
0
11
121.292717
21
3.64605
31
0
39
0
210
0
220
0
230
1
0
LINE
5
E6
100
AcDbEntity
8
1
62
256
6
ByLayer
370
13
48
1
60
0
100
AcDbLine
10
115.039069
20
3.227419
30
0
11
115.018385
21
3.358386
31
0
39
0
210
0
220
0
230
1
0
LINE
5
E7
100
AcDbEntity
8
1
62
256
6
ByLayer
370
13
48
1
60
0
100
AcDbLine
10
122.387122
20
3.809619
30
0
11
121.297329
21
3.646292
31
0
39
0
210
0
220
0
230
1
0
LINE
5
E8
100
AcDbEntity
8
1
62
256
6
ByLayer
370
13
48
1
60
0
100
AcDbLine
10
113.107891
20
5.952378
30
0
11
113.10466
21
5.965881
31
0
39
0
210
0
220
0
230
1
0
LINE
5
E9
100
AcDbEntity
8
1
62
256
6
ByLayer
370
13
48
1
60
0
100
AcDbLine
10
113.317331
20
5.936212
30
0
11
113.651263
21
8.487777
31
0
39
0
210
0
220
0
230
1
0
LINE
5
EA
100
AcDbEntity
8
1
62
256
6
ByLayer
370
13
48
1
60
0
100
AcDbLine
10
115.039069
20
3.227419
30
0
11
115.034456
21
3.227177
31
0
39
0
210
0
220
0
230
1
0
LINE
5
EB
100
AcDbEntity
8
1
62
256
6
ByLayer
370
13
48
1
60
0
100
AcDbLine
10
114.351524
20
9.223583
30
0
11
114.100828
21
9.225874
31
0
39
0
210
0
220
0
230
1
0
LINE
5
EC
100
AcDbEntity
8
1
62
256
6
ByLayer
370
13
48
1
60
0
100
AcDbLine
10
122.943853
20
6.620332
30
0
11
122.509842
21
9.368476
31
0
39
0
210
0
220
0
230
1
0
LINE
5
ED
100
AcDbEntity
8
1
62
256
6
ByLayer
370
13
48
1
60
0
100
AcDbLine
10
114.628904
20
5.795124
30
0
11
115.034456
21
3.227177
31
0
39
0
210
0
220
0
230
1
0
LINE
5
EE
100
AcDbEntity
8
1
62
256
6
ByLayer
370
13
48
1
60
0
100
AcDbLine
10
122.679544
20
6.580313
30
0
11
122.245532
21
9.328456
31
0
39
0
210
0
220
0
230
1
0
LINE
5
EF
100
AcDbEntity
8
1
62
256
6
ByLayer
370
13
48
1
60
0
100
AcDbLine
10
121.568386
20
9.684008
30
0
11
121.673664
21
9.6886
31
0
39
0
210
0
220
0
230
1
0
LINE
5
F0
100
AcDbEntity
8
1
62
256
6
ByLayer
370
13
48
1
60
0
100
AcDbLine
10
122.847031
20
6.489928
30
0
11
122.842418
21
6.489686
31
0
39
0
210
0
220
0
230
1
0
LINE
5
F1
100
AcDbEntity
8
1
62
256
6
ByLayer
370
13
48
1
60
0
100
AcDbLine
10
114.868917
20
3.229531
30
0
11
114.467551
21
5.770967
31
0
39
0
210
0
220
0
230
1
0
LINE
5
F2
100
AcDbEntity
8
1
62
256
6
ByLayer
370
13
48
1
60
0
100
AcDbLine
10
121.322112
20
3.803473
30
0
11
122.346563
21
3.957008
31
0
39
0
210
0
220
0
230
1
0
LINE
5
F3
100
AcDbEntity
8
1
62
256
6
ByLayer
370
13
48
1
60
0
100
AcDbLine
10
113.218607
20
5.949286
30
0
11
113.551188
21
8.49054
31
0
39
0
210
0
220
0
230
1
0
LINE
5
F4
100
AcDbEntity
8
1
62
256
6
ByLayer
370
13
48
1
60
0
100
AcDbLine
10
121.125293
20
9.198721
30
0
11
121.144557
21
9.076742
31
0
39
0
210
0
220
0
230
1
0
LINE
5
F5
100
AcDbEntity
8
1
62
256
6
ByLayer
370
13
48
1
60
0
100
AcDbLine
10
122.346563
20
3.957008
30
0
11
122.680495
21
6.508573
31
0
39
0
210
0
220
0
230
1
0
LINE
5
F6
100
AcDbEntity
8
1
62
256
6
ByLayer
370
13
48
1
60
0
100
AcDbLine
10
114.461088
20
2.886188
30
0
11
114.566979
21
2.890807
31
0
39
0
210
0
220
0
230
1
0
LINE
5
F7
100
AcDbEntity
8
1
62
256
6
ByLayer
370
13
48
1
60
0
100
AcDbLine
10
121.666376
20
9.538018
30
0
11
121.560486
21
9.533399
31
0
39
0
210
0
220
0
230
1
0
LINE
5
F8
100
AcDbEntity
8
1
62
256
6
ByLayer
370
13
48
1
60
0
100
AcDbLine
10
122.842418
20
6.489686
30
0
11
122.508487
21
3.938121
31
0
39
0
210
0
220
0
230
1
0
LINE
5
F9
100
AcDbEntity
8
1
62
256
6
ByLayer
370
13
48
1
60
0
100
AcDbLine
10
113.551188
20
8.49054
30
0
11
113.493896
21
8.901835
31
0
39
0
210
0
220
0
230
1
0
LINE
5
FA
100
AcDbEntity
8
SK1
62
256
6
ByLayer
370
13
48
1
60
0
100
AcDbLine
10
-56
20
-11.49675
30
0
11
-56
21
-4.998651
31
0
39
0
210
0
220
0
230
1
0
LINE
5
FB
100
AcDbEntity
8
SK1
62
256
6
ByLayer
370
13
48
1
60
0
100
AcDbLine
10
-56
20
4.998651
30
0
11
-56
21
11.49675
31
0
39
0
210
0
220
0
230
1
0
LINE
5
FC
100
AcDbEntity
8
SK1
62
256
6
ByLayer
370
13
48
1
60
0
100
AcDbLine
10
-6.5
20
-6.998572
30
0
11
-6.5
21
6.998572
31
0
39
0
210
0
220
0
230
1
0
LINE
5
FD
100
AcDbEntity
8
SK1
62
256
6
ByLayer
370
13
48
1
60
0
100
AcDbLine
10
-52.599857
20
6.998572
30
0
11
-6.5
21
6.998572
31
0
39
0
210
0
220
0
230
1
0
LINE
5
FE
100
AcDbEntity
8
SK1
62
256
6
ByLayer
370
13
48
1
60
0
100
AcDbLine
10
-54.516222
20
12.393244
30
0
11
-54.516222
21
6.812029
31
0
39
0
210
0
220
0
230
1
0
LINE
5
FF
100
AcDbEntity
8
SK1
62
256
6
ByLayer
370
13
48
1
60
0
100
AcDbLine
10
-54.516222
20
-6.812029
30
0
11
-54.516222
21
-12.393244
31
0
39
0
210
0
220
0
230
1
0
LINE
5
100
100
AcDbEntity
8
SK1
62
256
6
ByLayer
370
13
48
1
60
0
100
AcDbLine
10
-0.15
20
-12.24675
30
0
11
-0.15
21
12.24675
31
0
39
0
210
0
220
0
230
1
0
LINE
5
101
100
AcDbEntity
8
SK1
62
256
6
ByLayer
370
13
48
1
60
0
100
AcDbLine
10
-56
20
4.998651
30
0
11
-56
21
-4.998651
31
0
39
0
210
0
220
0
230
1
0
LINE
5
102
100
AcDbEntity
8
SK1
62
256
6
ByLayer
370
13
48
1
60
0
100
AcDbLine
10
-54.60004
20
-6.998572
30
0
11
-55
21
-6.998572
31
0
39
0
210
0
220
0
230
1
0
LINE
5
103
100
AcDbEntity
8
SK1
62
256
6
ByLayer
370
13
48
1
60
0
100
AcDbLine
10
-6.5
20
-6.998572
30
0
11
-52.599857
21
-6.998572
31
0
39
0
210
0
220
0
230
1
0
LINE
5
104
100
AcDbEntity
8
SK1
62
256
6
ByLayer
370
13
48
1
60
0
100
AcDbLine
10
-54.60004
20
-12.49675
30
0
11
-54.60004
21
-6.998572
31
0
39
0
210
0
220
0
230
1
0
LINE
5
105
100
AcDbEntity
8
SK1
62
256
6
ByLayer
370
13
48
1
60
0
100
AcDbLine
10
-54.60004
20
6.998572
30
0
11
-54.60004
21
12.49675
31
0
39
0
210
0
220
0
230
1
0
LINE
5
106
100
AcDbEntity
8
SK1
62
256
6
ByLayer
370
13
48
1
60
0
100
AcDbLine
10
-52.599857
20
12.49675
30
0
11
-52.599857
21
6.998572
31
0
39
0
210
0
220
0
230
1
0
LINE
5
107
100
AcDbEntity
8
SK1
62
256
6
ByLayer
370
13
48
1
60
0
100
AcDbLine
10
-52.599857
20
-6.998572
30
0
11
-52.599857
21
-12.49675
31
0
39
0
210
0
220
0
230
1
0
LINE
5
108
100
AcDbEntity
8
SK1
62
256
6
ByLayer
370
13
48
1
60
0
100
AcDbLine
10
-53.633813
20
12.140367
30
0
11
-53.633813
21
6.340328
31
0
39
0
210
0
220
0
230
1
0
LINE
5
109
100
AcDbEntity
8
SK1
62
256
6
ByLayer
370
13
48
1
60
0
100
AcDbLine
10
-53.633813
20
-6.340328
30
0
11
-53.633813
21
-12.140367
31
0
39
0
210
0
220
0
230
1
0
LINE
5
10A
100
AcDbEntity
8
1
62
256
6
ByLayer
370
13
48
1
60
0
100
AcDbLine
10
110.155435
20
0.90312
30
0
11
110.302491
21
0.097525
31
0
39
0
210
0
220
0
230
1
0
LINE
5
10B
100
AcDbEntity
8
1
62
256
6
ByLayer
370
13
48
1
60
0
100
AcDbLine
10
0.1
20
3.968627
30
0
11
5.5606
21
3.968627
31
0
39
0
210
0
220
0
230
1
0
LINE
5
10C
100
AcDbEntity
8
1
62
256
6
ByLayer
370
13
48
1
60
0
100
AcDbLine
10
122.192971
20
-6.30559
30
0
11
121.946376
21
-6.066458
31
0
39
0
210
0
220
0
230
1
0
LINE
5
10D
100
AcDbEntity
8
1
62
256
6
ByLayer
370
13
48
1
60
0
100
AcDbLine
10
121.586848
20
-1.134261
30
0
11
122.271195
21
-1.915084
31
0
39
0
210
0
220
0
230
1
0
LINE
5
10E
100
AcDbEntity
8
1
62
256
6
ByLayer
370
13
48
1
60
0
100
AcDbLine
10
62.4
20
-9.387357
30
0
11
62.4
21
-9.40875
31
0
39
0
210
0
220
0
230
1
0
LINE
5
10F
100
AcDbEntity
8
1
62
256
6
ByLayer
370
13
48
1
60
0
100
AcDbLine
10
121.619089
20
2.868594
30
0
11
121.391823
21
1.034892
31
0
39
0
210
0
220
0
230
1
0
LINE
5
110
100
AcDbEntity
8
1
62
256
6
ByLayer
370
13
48
1
60
0
100
AcDbLine
10
119.785215
20
3.623651
30
0
11
120.282663
21
3.649721
31
0
39
0
210
0
220
0
230
1
0
LINE
5
111
100
AcDbEntity
8
1
62
256
6
ByLayer
370
13
48
1
60
0
100
AcDbLine
10
110.595339
20
4.31706
30
0
11
111.862669
21
5.035887
31
0
39
0
210
0
220
0
230
1
0
LINE
5
112
100
AcDbEntity
8
1
62
256
6
ByLayer
370
13
48
1
60
0
100
AcDbLine
10
0.1
20
16
30
0
11
0.1
21
3.968627
31
0
39
0
210
0
220
0
230
1
0
LINE
5
113
100
AcDbEntity
8
1
62
256
6
ByLayer
370
13
48
1
60
0
100
AcDbLine
10
122.254232
20
0.596564
30
0
11
122.212908
21
0.601965
31
0
39
0
210
0
220
0
230
1
0
LINE
5
114
100
AcDbEntity
8
1
62
256
6
ByLayer
370
13
48
1
60
0
100
AcDbLine
10
116.012239
20
2.395141
30
0
11
116.340823
21
2.412361
31
0
39
0
210
0
220
0
230
1
0
LINE
5
115
100
AcDbEntity
8
1
62
256
6
ByLayer
370
13
48
1
60
0
100
AcDbLine
10
116.1558
20
3.433442
30
0
11
116.653248
21
3.459512
31
0
39
0
210
0
220
0
230
1
0
LINE
5
116
100
AcDbEntity
8
1
62
256
6
ByLayer
370
13
48
1
60
0
100
AcDbLine
10
0
20
15.9
30
0
11
0
21
3.544009
31
0
39
0
210
0
220
0
230
1
0
LINE
5
117
100
AcDbEntity
8
1
62
256
6
ByLayer
370
13
48
1
60
0
100
AcDbLine
10
113.321493
20
4.362062
30
0
11
113.37753
21
4.00724
31
0
39
0
210
0
220
0
230
1
0
LINE
5
118
100
AcDbEntity
8
1
62
256
6
ByLayer
370
13
48
1
60
0
100
AcDbLine
10
122.040193
20
3.040869
30
0
11
121.850036
21
3.030903
31
0
39
0
210
0
220
0
230
1
0
LINE
5
119
100
AcDbEntity
8
1
62
256
6
ByLayer
370
13
48
1
60
0
100
AcDbLine
10
122.343237
20
2.494514
30
0
11
122.345984
21
0.898854
31
0
39
0
210
0
220
0
230
1
0
LINE
5
11A
100
AcDbEntity
8
1
62
256
6
ByLayer
370
13
48
1
60
0
100
AcDbLine
10
22
20
-9.487127
30
0
11
22
21
-9.50625
31
0
39
0
210
0
220
0
230
1
0
LINE
5
11B
100
AcDbEntity
8
1
62
256
6
ByLayer
370
13
48
1
60
0
100
AcDbLine
10
122.286141
20
-3.048403
30
0
11
121.960835
21
-5.501247
31
0
39
0
210
0
220
0
230
1
0
LINE
5
11C
100
AcDbEntity
8
1
62
256
6
ByLayer
370
13
48
1
60
0
100
AcDbLine
10
120.743157
20
3.47358
30
0
11
117.330303
21
3.29472
31
0
39
0
210
0
220
0
230
1
0
LINE
5
11D
100
AcDbEntity
8
1
62
256
6
ByLayer
370
13
48
1
60
0
100
AcDbLine
10
117.776237
20
2.667198
30
0
11
121.619089
21
2.868594
31
0
39
0
210
0
220
0
230
1
0
LINE
5
11E
100
AcDbEntity
8
1
62
256
6
ByLayer
370
13
48
1
60
0
100
AcDbLine
10
121.9944
20
-0.180275
30
0
11
122.271195
21
-1.915084
31
0
39
0
210
0
220
0
230
1
0
LINE
5
11F
100
AcDbEntity
8
1
62
256
6
ByLayer
370
13
48
1
60
0
100
AcDbLine
10
113.190214
20
3.945087
30
0
11
112.977045
21
5.294863
31
0
39
0
210
0
220
0
230
1
0
LINE
5
120
100
AcDbEntity
8
1
62
256
6
ByLayer
370
13
48
1
60
0
100
AcDbLine
10
122.234978
20
0.62119
30
0
11
122.254232
21
0.596564
31
0
39
0
210
0
220
0
230
1
0
LINE
5
121
100
AcDbEntity
8
1
62
256
6
ByLayer
370
13
48
1
60
0
100
AcDbLine
10
115.771656
20
3.129136
30
0
11
115.623958
21
3.121396
31
0
39
0
210
0
220
0
230
1
0
LINE
5
122
100
AcDbEntity
8
1
62
256
6
ByLayer
370
13
48
1
60
0
100
AcDbLine
10
121.776497
20
-9.445849
30
0
11
122.192971
21
-6.30559
31
0
39
0
210
0
220
0
230
1
0
LINE
5
123
100
AcDbEntity
8
1
62
256
6
ByLayer
370
13
48
1
60
0
100
AcDbLine
10
121.9944
20
-0.180275
30
0
11
121.372897
21
0.528845
31
0
39
0
210
0
220
0
230
1
0
LINE
5
124
100
AcDbEntity
8
1
62
256
6
ByLayer
370
13
48
1
60
0
100
AcDbLine
10
122.345984
20
0.898854
30
0
11
122.292819
21
0.873964
31
0
39
0
210
0
220
0
230
1
0
LINE
5
125
100
AcDbEntity
8
1
62
256
6
ByLayer
370
13
48
1
60
0
100
AcDbLine
10
107.590379
20
1.502442
30
0
11
107.703188
21
0.884457
31
0
39
0
210
0
220
0
230
1
0
LINE
5
126
100
AcDbEntity
8
1
62
256
6
ByLayer
370
13
48
1
60
0
100
AcDbLine
10
121.619089
20
2.868594
30
0
11
121.988245
21
2.88794
31
0
39
0
210
0
220
0
230
1
0
LINE
5
127
100
AcDbEntity
8
1
62
256
6
ByLayer
370
13
48
1
60
0
100
AcDbLine
10
5.5606
20
-3.968627
30
0
11
5.5606
21
-16
31
0
39
0
210
0
220
0
230
1
0
LINE
5
128
100
AcDbEntity
8
1
62
256
6
ByLayer
370
13
48
1
60
0
100
AcDbLine
10
108.929262
20
-9.321817
30
0
11
108.929262
21
0.340555
31
0
39
0
210
0
220
0
230
1
0
LINE
5
129
100
AcDbEntity
8
1
62
256
6
ByLayer
370
13
48
1
60
0
100
AcDbLine
10
122.336476
20
0.911014
30
0
11
122.311689
21
0.914254
31
0
39
0
210
0
220
0
230
1
0
LINE
5
12A
100
AcDbEntity
8
1
62
256
6
ByLayer
370
13
48
1
60
0
100
AcDbLine
10
111.929262
20
-9.445849
30
0
11
111.929262
21
0.037227
31
0
39
0
210
0
220
0
230
1
0
LINE
5
12B
100
AcDbEntity
8
1
62
256
6
ByLayer
370
13
48
1
60
0
100
AcDbLine
10
121.776497
20
-9.445849
30
0
11
111.929262
21
-9.445849
31
0
39
0
210
0
220
0
230
1
0
LINE
5
12C
100
AcDbEntity
8
1
62
256
6
ByLayer
370
13
48
1
60
0
100
AcDbLine
10
111.862669
20
5.035887
30
0
11
110.356213
21
7.447625
31
0
39
0
210
0
220
0
230
1
0
LINE
5
12D
100
AcDbEntity
8
1
62
256
6
ByLayer
370
13
48
1
60
0
100
AcDbLine
10
121.372897
20
0.528845
30
0
11
121.40408
21
-0.092653
31
0
39
0
210
0
220
0
230
1
0
LINE
5
12E
100
AcDbEntity
8
1
62
256
6
ByLayer
370
13
48
1
60
0
100
AcDbLine
10
115.60341
20
3.077381
30
0
11
115.253268
21
3.059031
31
0
39
0
210
0
220
0
230
1
0
LINE
5
12F
100
AcDbEntity
8
1
62
256
6
ByLayer
370
13
48
1
60
0
100
AcDbLine
10
22
20
9.50625
30
0
11
22
21
-3.194332
31
0
39
0
210
0
220
0
230
1
0
LINE
5
130
100
AcDbEntity
8
1
62
256
6
ByLayer
370
13
48
1
60
0
100
AcDbLine
10
122.286141
20
-3.048403
30
0
11
121.639385
21
-2.31047
31
0
39
0
210
0
220
0
230
1
0
LINE
5
131
100
AcDbEntity
8
1
62
256
6
ByLayer
370
13
48
1
60
0
100
AcDbLine
10
113.064715
20
6.027609
30
0
11
113.50408
21
9.384793
31
0
39
0
210
0
220
0
230
1
0
LINE
5
132
100
AcDbEntity
8
1
62
256
6
ByLayer
370
13
48
1
60
0
100
AcDbLine
10
122.269757
20
3.0529
30
0
11
122.040193
21
3.040869
31
0
39
0
210
0
220
0
230
1
0
LINE
5
133
100
AcDbEntity
8
1
62
256
6
ByLayer
370
13
48
1
60
0
100
AcDbLine
10
113.519211
20
8.416012
30
0
11
113.262278
21
6.45279
31
0
39
0
210
0
220
0
230
1
0
LINE
5
134
100
AcDbEntity
8
1
62
256
6
ByLayer
370
13
48
1
60
0
100
AcDbLine
10
115.805689
20
3.214818
30
0
11
115.816402
21
3.21538
31
0
39
0
210
0
220
0
230
1
0
LINE
5
135
100
AcDbEntity
8
1
62
256
6
ByLayer
370
13
48
1
60
0
100
AcDbLine
10
27
20
-9.487263
30
0
11
27
21
-9.50625
31
0
39
0
210
0
220
0
230
1
0
LINE
5
136
100
AcDbEntity
8
1
62
256
6
ByLayer
370
13
48
1
60
0
100
AcDbLine
10
122.336476
20
0.911014
30
0
11
122.345984
21
0.898854
31
0
39
0
210
0
220
0
230
1
0
LINE
5
137
100
AcDbEntity
8
1
62
256
6
ByLayer
370
13
48
1
60
0
100
AcDbLine
10
111.856656
20
3.609026
30
0
11
112.712931
21
3.345944
31
0
39
0
210
0
220
0
230
1
0
LINE
5
138
100
AcDbEntity
8
1
62
256
6
ByLayer
370
13
48
1
60
0
100
AcDbLine
10
0
20
-3.544009
30
0
11
0
21
3.544009
31
0
39
0
210
0
220
0
230
1
0
LINE
5
139
100
AcDbEntity
8
1
62
256
6
ByLayer
370
13
48
1
60
0
100
AcDbLine
10
5.5606
20
-3.968627
30
0
11
0.1
21
-3.968627
31
0
39
0
210
0
220
0
230
1
0
LINE
5
13A
100
AcDbEntity
8
1
62
256
6
ByLayer
370
13
48
1
60
0
100
AcDbLine
10
110.356213
20
4.266354
30
0
11
110.356213
21
7.447625
31
0
39
0
210
0
220
0
230
1
0
LINE
5
13B
100
AcDbEntity
8
1
62
256
6
ByLayer
370
13
48
1
60
0
100
AcDbLine
10
62.4
20
9.40875
30
0
11
62.4
21
-3.182229
31
0
39
0
210
0
220
0
230
1
0
LINE
5
13C
100
AcDbEntity
8
1
62
256
6
ByLayer
370
13
48
1
60
0
100
AcDbLine
10
0.1
20
-16
30
0
11
0.1
21
-3.968627
31
0
39
0
210
0
220
0
230
1
0
LINE
5
13D
100
AcDbEntity
8
1
62
256
6
ByLayer
370
13
48
1
60
0
100
AcDbLine
10
121.391823
20
1.034892
30
0
11
121.948502
21
0.399735
31
0
39
0
210
0
220
0
230
1
0
LINE
5
13E
100
AcDbEntity
8
1
62
256
6
ByLayer
370
13
48
1
60
0
100
AcDbLine
10
117.450731
20
2.650139
30
0
11
117.776237
21
2.667198
31
0
39
0
210
0
220
0
230
1
0
LINE
5
13F
100
AcDbEntity
8
1
62
256
6
ByLayer
370
13
48
1
60
0
100
AcDbLine
10
27
20
9.50625
30
0
11
27
21
-3.19661
31
0
39
0
210
0
220
0
230
1
0
LINE
5
140
100
AcDbEntity
8
1
62
256
6
ByLayer
370
13
48
1
60
0
100
AcDbLine
10
0
20
-15.9
30
0
11
0
21
-3.544009
31
0
39
0
210
0
220
0
230
1
0
LINE
5
141
100
AcDbEntity
8
1
62
256
6
ByLayer
370
13
48
1
60
0
100
AcDbLine
10
122.234978
20
0.62119
30
0
11
122.222568
21
0.622811
31
0
39
0
210
0
220
0
230
1
0
LINE
5
142
100
AcDbEntity
8
1
62
256
6
ByLayer
370
13
48
1
60
0
100
AcDbLine
10
5.5606
20
16
30
0
11
5.5606
21
3.968627
31
0
39
0
210
0
220
0
230
1
0
LINE
5
143
100
AcDbEntity
8
1
62
256
6
ByLayer
370
13
48
1
60
0
100
AcDbLine
10
111.929262
20
9.50625
30
0
11
111.929262
21
9.360057
31
0
39
0
210
0
220
0
230
1
0
LINE
5
144
100
AcDbEntity
8
1
62
256
6
ByLayer
370
13
48
1
60
0
100
AcDbLine
10
108.929262
20
9.40875
30
0
11
108.929262
21
9.270956
31
0
39
0
210
0
220
0
230
1
0
LINE
5
145
100
AcDbEntity
8
1
62
256
6
ByLayer
370
13
48
1
60
0
100
AcDbLine
10
122.283577
20
2.819641
30
0
11
122.269757
21
3.0529
31
0
39
0
210
0
220
0
230
1
0
LINE
5
146
100
AcDbEntity
8
1
62
256
6
ByLayer
370
13
48
1
60
0
100
AcDbLine
10
119.567793
20
3.558128
30
0
11
119.472503
21
3.553134
31
0
39
0
210
0
220
0
230
1
0
LINE
5
147
100
AcDbEntity
8
4
62
256
6
ByLayer
370
18
48
0.05
60
0
100
AcDbLine
10
123
20
0
30
0
11
0
21
0
31
0
39
0
210
0
220
0
230
1
0
LINE
5
149
100
AcDbEntity
8
SK4
62
256
6
ByLayer
370
13
48
0.05
60
0
100
AcDbLine
10
123
20
0
30
0
11
-56
21
0
31
0
39
0
210
0
220
0
230
1
0
LINE
5
14B
100
AcDbEntity
8
1
62
256
6
ByLayer
370
13
48
1
60
0
100
AcDbLine
10
62.4
20
-9.40875
30
0
11
77.230216
21
-9.40875
31
0
39
0
210
0
220
0
230
1
0
LINE
5
14C
100
AcDbEntity
8
SK1
62
256
6
ByLayer
370
13
48
1
60
0
100
AcDbLine
10
-54.60004
20
12.49675
30
0
11
-55
21
12.49675
31
0
39
0
210
0
220
0
230
1
0
LINE
5
14D
100
AcDbEntity
8
SK1
62
256
6
ByLayer
370
13
48
1
60
0
100
AcDbLine
10
-55
20
-12.49675
30
0
11
-54.60004
21
-12.49675
31
0
39
0
210
0
220
0
230
1
0
LINE
5
14E
100
AcDbEntity
8
SK1
62
256
6
ByLayer
370
13
48
1
60
0
100
AcDbLine
10
-56
20
-11.49675
30
0
11
-55
21
-12.49675
31
0
39
0
210
0
220
0
230
1
0
LINE
5
14F
100
AcDbEntity
8
SK1
62
256
6
ByLayer
370
13
48
1
60
0
100
AcDbLine
10
-55
20
12.49675
30
0
11
-56
21
11.49675
31
0
39
0
210
0
220
0
230
1
0
LINE
5
150
100
AcDbEntity
8
SK1
62
256
6
ByLayer
370
13
48
1
60
0
100
AcDbLine
10
-53.633813
20
-12.140367
30
0
11
-52.599857
21
-12.49675
31
0
39
0
210
0
220
0
230
1
0
LINE
5
151
100
AcDbEntity
8
SK1
62
256
6
ByLayer
370
13
48
1
60
0
100
AcDbLine
10
-52.599857
20
12.49675
30
0
11
-53.633813
21
12.140367
31
0
39
0
210
0
220
0
230
1
0
LINE
5
152
100
AcDbEntity
8
SK1
62
256
6
ByLayer
370
13
48
1
60
0
100
AcDbLine
10
-54.516222
20
12.393244
30
0
11
-54.60004
21
12.49675
31
0
39
0
210
0
220
0
230
1
0
LINE
5
153
100
AcDbEntity
8
SK1
62
256
6
ByLayer
370
13
48
1
60
0
100
AcDbLine
10
-54.60004
20
-12.49675
30
0
11
-54.516222
21
-12.393244
31
0
39
0
210
0
220
0
230
1
0
LINE
5
154
100
AcDbEntity
8
SK1
62
256
6
ByLayer
370
13
48
1
60
0
100
AcDbLine
10
-0.15
20
12.24675
30
0
11
-1.375195
21
12.24675
31
0
39
0
210
0
220
0
230
1
0
LINE
5
155
100
AcDbEntity
8
SK1
62
256
6
ByLayer
370
13
48
1
60
0
100
AcDbLine
10
-1.375195
20
-12.24675
30
0
11
-0.15
21
-12.24675
31
0
39
0
210
0
220
0
230
1
0
LINE
5
156
100
AcDbEntity
8
SK1
62
256
6
ByLayer
370
13
48
1
60
0
100
AcDbLine
10
-1.544243
20
12.284227
30
0
11
-2
21
12.49675
31
0
39
0
210
0
220
0
230
1
0
LINE
5
157
100
AcDbEntity
8
SK1
62
256
6
ByLayer
370
13
48
1
60
0
100
AcDbLine
10
-2
20
-12.49675
30
0
11
-1.544243
21
-12.284227
31
0
39
0
210
0
220
0
230
1
0
LINE
5
158
100
AcDbEntity
8
SK1
62
256
6
ByLayer
370
13
48
1
60
0
100
AcDbLine
10
-2
20
12.49675
30
0
11
-52.599857
21
12.49675
31
0
39
0
210
0
220
0
230
1
0
LINE
5
159
100
AcDbEntity
8
SK1
62
256
6
ByLayer
370
13
48
1
60
0
100
AcDbLine
10
-52.599857
20
-12.49675
30
0
11
-2
21
-12.49675
31
0
39
0
210
0
220
0
230
1
0
LINE
5
15A
100
AcDbEntity
8
1
62
256
6
ByLayer
370
13
48
1
60
0
100
AcDbLine
10
22
20
-9.50625
30
0
11
27
21
-9.50625
31
0
39
0
210
0
220
0
230
1
0
LINE
5
15B
100
AcDbEntity
8
1
62
256
6
ByLayer
370
13
48
1
60
0
100
AcDbLine
10
27
20
-9.50625
30
0
11
62.4
21
-9.40875
31
0
39
0
210
0
220
0
230
1
0
LINE
5
15C
100
AcDbEntity
8
1
62
256
6
ByLayer
370
13
48
1
60
0
100
AcDbLine
10
113.367567
20
9.50625
30
0
11
111.929262
21
9.50625
31
0
39
0
210
0
220
0
230
1
0
LINE
5
15D
100
AcDbEntity
8
1
62
256
6
ByLayer
370
13
48
1
60
0
100
AcDbLine
10
111.929262
20
9.50625
30
0
11
108.929262
21
9.40875
31
0
39
0
210
0
220
0
230
1
0
LINE
5
15E
100
AcDbEntity
8
1
62
256
6
ByLayer
370
13
48
1
60
0
100
AcDbLine
10
108.929262
20
9.40875
30
0
11
105.347578
21
9.40875
31
0
39
0
210
0
220
0
230
1
0
LINE
5
15F
100
AcDbEntity
8
1
62
256
6
ByLayer
370
13
48
1
60
0
100
AcDbLine
10
69.723032
20
9.40875
30
0
11
62.4
21
9.40875
31
0
39
0
210
0
220
0
230
1
0
LINE
5
160
100
AcDbEntity
8
1
62
256
6
ByLayer
370
13
48
1
60
0
100
AcDbLine
10
27
20
9.50625
30
0
11
22
21
9.50625
31
0
39
0
210
0
220
0
230
1
0
LINE
5
161
100
AcDbEntity
8
1
62
256
6
ByLayer
370
13
48
1
60
0
100
AcDbLine
10
62.4
20
9.40875
30
0
11
27
21
9.50625
31
0
39
0
210
0
220
0
230
1
0
LINE
5
162
100
AcDbEntity
8
1
62
256
6
ByLayer
370
13
48
1
60
0
100
AcDbLine
10
5.5606
20
16
30
0
11
0.1
21
16
31
0
39
0
210
0
220
0
230
1
0
LINE
5
163
100
AcDbEntity
8
1
62
256
6
ByLayer
370
13
48
1
60
0
100
AcDbLine
10
0.1
20
16
30
0
11
0
21
15.9
31
0
39
0
210
0
220
0
230
1
0
LINE
5
164
100
AcDbEntity
8
1
62
256
6
ByLayer
370
13
48
1
60
0
100
AcDbLine
10
0
20
-15.9
30
0
11
0.1
21
-16
31
0
39
0
210
0
220
0
230
1
0
LINE
5
165
100
AcDbEntity
8
1
62
256
6
ByLayer
370
13
48
1
60
0
100
AcDbLine
10
0.1
20
-16
30
0
11
5.5606
21
-16
31
0
39
0
210
0
220
0
230
1
0
LINE
5
166
100
AcDbEntity
8
1
62
256
6
ByLayer
370
13
48
1
60
0
100
AcDbLine
10
122.366031
20
3.421078
30
0
11
122.58547
21
3.846877
31
0
39
0
210
0
220
0
230
1
0
LINE
5
167
100
AcDbEntity
8
1
62
256
6
ByLayer
370
13
48
1
60
0
100
AcDbLine
10
121.531278
20
6.630752
30
0
11
121.146408
21
9.067732
31
0
39
0
210
0
220
0
230
1
0
LINE
5
168
100
AcDbEntity
8
1
62
256
6
ByLayer
370
13
48
1
60
0
100
AcDbLine
10
121.188214
20
3.788322
30
0
11
121.533939
21
6.430001
31
0
39
0
210
0
220
0
230
1
0
LINE
5
169
100
AcDbEntity
8
1
62
256
6
ByLayer
370
13
48
1
60
0
100
AcDbLine
10
118.108426
20
5.422159
30
0
11
118.033781
21
5.418248
31
0
39
0
210
0
220
0
230
1
0
LINE
5
16A
100
AcDbEntity
8
1
62
256
6
ByLayer
370
13
48
1
60
0
100
AcDbLine
10
117.950964
20
6.998479
30
0
11
118.025609
21
7.002391
31
0
39
0
210
0
220
0
230
1
0
LINE
5
16B
100
AcDbEntity
8
1
62
256
6
ByLayer
370
13
48
1
60
0
100
AcDbLine
10
117.983415
20
7.760021
30
0
11
117.934313
21
7.757448
31
0
39
0
210
0
220
0
230
1
0
LINE
5
16C
100
AcDbEntity
8
1
62
256
6
ByLayer
370
13
48
1
60
0
100
AcDbLine
10
118.096554
20
4.661696
30
0
11
118.145656
21
4.664269
31
0
39
0
210
0
220
0
230
1
0
LINE
5
16D
100
AcDbEntity
8
1
62
256
6
ByLayer
370
13
48
1
60
0
100
AcDbLine
10
118.197345
20
-2.09706
30
0
11
118.197345
21
-2.322328
31
0
39
0
210
0
220
0
230
1
0
LINE
5
16E
100
AcDbEntity
8
81
62
256
6
ByLayer
370
18
48
1
60
0
100
AcDbLine
10
123
20
0
30
0
11
130
21
0
31
0
39
0
210
0
220
0
230
1
0
LINE
5
16F
100
AcDbEntity
8
80
62
256
6
ByLayer
370
18
48
1
60
0
100
AcDbLine
10
0
20
0
30
0
11
-7
21
0
31
0
39
0
210
0
220
0
230
1
0
LINE
5
170
100
AcDbEntity
8
SK2
62
256
6
ByLayer
370
13
48
1
60
0
100
AcDbLine
10
-76.725
20
23.75
30
0
11
-76.725
21
-23.75
31
0
39
0
210
0
220
0
230
1
0
LINE
5
172
100
AcDbEntity
8
SK2
62
256
6
ByLayer
370
13
48
1
60
0
100
AcDbLine
10
-57.5875
20
-12.5
30
0
11
-79.9
21
-12.5
31
0
39
0
210
0
220
0
230
1
0
LINE
5
173
100
AcDbEntity
8
SK2
62
256
6
ByLayer
370
13
48
1
60
0
100
AcDbLine
10
-57.5875
20
12.5
30
0
11
-79.9
21
12.5
31
0
39
0
210
0
220
0
230
1
0
LINE
5
174
100
AcDbEntity
8
1
62
256
6
ByLayer
370
18
48
1
60
1
100
AcDbLine
10
-76.725
20
-12.5
30
0
11
-75.799425
21
-16.674997
31
0
39
0
210
0
220
0
230
1
0
LINE
5
175
100
AcDbEntity
8
1
62
256
6
ByLayer
370
18
48
1
60
1
100
AcDbLine
10
-75.799425
20
-16.674997
30
0
11
-77.650575
21
-16.675003
31
0
39
0
210
0
220
0
230
1
0
LINE
5
176
100
AcDbEntity
8
1
62
256
6
ByLayer
370
18
48
1
60
1
100
AcDbLine
10
-77.650575
20
-16.675003
30
0
11
-76.725
21
-12.5
31
0
39
0
210
0
220
0
230
1
0
LINE
5
177
100
AcDbEntity
8
1
62
256
6
ByLayer
370
18
48
1
60
1
100
AcDbLine
10
-76.725
20
12.5
30
0
11
-77.650575
21
16.674997
31
0
39
0
210
0
220
0
230
1
0
LINE
5
178
100
AcDbEntity
8
1
62
256
6
ByLayer
370
18
48
1
60
1
100
AcDbLine
10
-77.650575
20
16.674997
30
0
11
-75.799425
21
16.675003
31
0
39
0
210
0
220
0
230
1
0
LINE
5
179
100
AcDbEntity
8
1
62
256
6
ByLayer
370
18
48
1
60
1
100
AcDbLine
10
-75.799425
20
16.675003
30
0
11
-76.725
21
12.5
31
0
39
0
210
0
220
0
230
1
0
LINE
5
17A
100
AcDbEntity
8
SK2
62
256
6
ByLayer
370
13
48
1
60
0
100
AcDbLine
10
-86.725
20
-16
30
0
11
-86.725
21
16
31
0
39
0
210
0
220
0
230
1
0
LINE
5
17B
100
AcDbEntity
8
SK2
62
256
6
ByLayer
370
13
48
1
60
0
100
AcDbLine
10
-1.5875
20
16
30
0
11
-89.9
21
16
31
0
39
0
210
0
220
0
230
1
0
LINE
5
17C
100
AcDbEntity
8
SK2
62
256
6
ByLayer
370
13
48
1
60
0
100
AcDbLine
10
-1.5875
20
-16
30
0
11
-89.9
21
-16
31
0
39
0
210
0
220
0
230
1
0
LINE
5
17D
100
AcDbEntity
8
1
62
256
6
ByLayer
370
18
48
1
60
1
100
AcDbLine
10
-86.725
20
16
30
0
11
-85.799425
21
11.825003
31
0
39
0
210
0
220
0
230
1
0
LINE
5
17E
100
AcDbEntity
8
1
62
256
6
ByLayer
370
18
48
1
60
1
100
AcDbLine
10
-85.799425
20
11.825003
30
0
11
-87.650575
21
11.824997
31
0
39
0
210
0
220
0
230
1
0
LINE
5
17F
100
AcDbEntity
8
1
62
256
6
ByLayer
370
18
48
1
60
1
100
AcDbLine
10
-87.650575
20
11.824997
30
0
11
-86.725
21
16
31
0
39
0
210
0
220
0
230
1
0
LINE
5
180
100
AcDbEntity
8
1
62
256
6
ByLayer
370
18
48
1
60
1
100
AcDbLine
10
-86.725
20
-16
30
0
11
-87.650575
21
-11.825003
31
0
39
0
210
0
220
0
230
1
0
LINE
5
181
100
AcDbEntity
8
1
62
256
6
ByLayer
370
18
48
1
60
1
100
AcDbLine
10
-87.650575
20
-11.825003
30
0
11
-85.799425
21
-11.824997
31
0
39
0
210
0
220
0
230
1
0
LINE
5
182
100
AcDbEntity
8
1
62
256
6
ByLayer
370
18
48
1
60
1
100
AcDbLine
10
-85.799425
20
-11.824997
30
0
11
-86.725
21
-16
31
0
39
0
210
0
220
0
230
1
0
LINE
5
183
100
AcDbEntity
8
2
62
256
6
ByLayer
370
13
48
1
60
0
100
AcDbLine
10
149.975
20
-9.75
30
0
11
149.975
21
44.796294
31
0
39
0
210
0
220
0
230
1
0
LINE
5
185
100
AcDbEntity
8
2
62
256
6
ByLayer
370
13
48
1
60
0
100
AcDbLine
10
124.5875
20
-9.75
30
0
11
153.15
21
-9.75
31
0
39
0
210
0
220
0
230
1
0
LINE
5
186
100
AcDbEntity
8
2
62
256
6
ByLayer
370
13
48
1
60
0
100
AcDbLine
10
124.5875
20
9.75
30
0
11
153.15
21
9.75
31
0
39
0
210
0
220
0
230
1
0
LINE
5
187
100
AcDbEntity
8
1
62
256
6
ByLayer
370
18
48
1
60
1
100
AcDbLine
10
149.975
20
-9.75
30
0
11
149.049425
21
-5.575003
31
0
39
0
210
0
220
0
230
1
0
LINE
5
188
100
AcDbEntity
8
1
62
256
6
ByLayer
370
18
48
1
60
1
100
AcDbLine
10
149.049425
20
-5.575003
30
0
11
150.900575
21
-5.574997
31
0
39
0
210
0
220
0
230
1
0
LINE
5
189
100
AcDbEntity
8
1
62
256
6
ByLayer
370
18
48
1
60
1
100
AcDbLine
10
150.900575
20
-5.574997
30
0
11
149.975
21
-9.75
31
0
39
0
210
0
220
0
230
1
0
LINE
5
18A
100
AcDbEntity
8
1
62
256
6
ByLayer
370
18
48
1
60
1
100
AcDbLine
10
149.975
20
9.75
30
0
11
150.900575
21
5.575003
31
0
39
0
210
0
220
0
230
1
0
LINE
5
18B
100
AcDbEntity
8
1
62
256
6
ByLayer
370
18
48
1
60
1
100
AcDbLine
10
150.900575
20
5.575003
30
0
11
149.049425
21
5.574997
31
0
39
0
210
0
220
0
230
1
0
LINE
5
18C
100
AcDbEntity
8
1
62
256
6
ByLayer
370
18
48
1
60
1
100
AcDbLine
10
149.049425
20
5.574997
30
0
11
149.975
21
9.75
31
0
39
0
210
0
220
0
230
1
0
LINE
5
345
100
AcDbEntity
8
1
62
256
6
ByLayer
370
18
48
1
60
1
100
AcDbLine
10
-76.725
20
-12.5
30
0
11
-75.799425
21
-16.674997
31
0
39
0
210
0
220
0
230
1
0
LINE
5
346
100
AcDbEntity
8
1
62
256
6
ByLayer
370
18
48
1
60
1
100
AcDbLine
10
-75.799425
20
-16.674997
30
0
11
-77.650575
21
-16.675003
31
0
39
0
210
0
220
0
230
1
0
LINE
5
347
100
AcDbEntity
8
1
62
256
6
ByLayer
370
18
48
1
60
1
100
AcDbLine
10
-77.650575
20
-16.675003
30
0
11
-76.725
21
-12.5
31
0
39
0
210
0
220
0
230
1
0
LINE
5
349
100
AcDbEntity
8
1
62
256
6
ByLayer
370
18
48
1
60
1
100
AcDbLine
10
-76.725
20
12.5
30
0
11
-77.650575
21
16.674997
31
0
39
0
210
0
220
0
230
1
0
LINE
5
34A
100
AcDbEntity
8
1
62
256
6
ByLayer
370
18
48
1
60
1
100
AcDbLine
10
-77.650575
20
16.674997
30
0
11
-75.799425
21
16.675003
31
0
39
0
210
0
220
0
230
1
0
LINE
5
34B
100
AcDbEntity
8
1
62
256
6
ByLayer
370
18
48
1
60
1
100
AcDbLine
10
-75.799425
20
16.675003
30
0
11
-76.725
21
12.5
31
0
39
0
210
0
220
0
230
1
0
LINE
5
34F
100
AcDbEntity
8
1
62
256
6
ByLayer
370
18
48
1
60
1
100
AcDbLine
10
-86.725
20
16
30
0
11
-85.799425
21
11.825003
31
0
39
0
210
0
220
0
230
1
0
LINE
5
350
100
AcDbEntity
8
1
62
256
6
ByLayer
370
18
48
1
60
1
100
AcDbLine
10
-85.799425
20
11.825003
30
0
11
-87.650575
21
11.824997
31
0
39
0
210
0
220
0
230
1
0
LINE
5
351
100
AcDbEntity
8
1
62
256
6
ByLayer
370
18
48
1
60
1
100
AcDbLine
10
-87.650575
20
11.824997
30
0
11
-86.725
21
16
31
0
39
0
210
0
220
0
230
1
0
LINE
5
353
100
AcDbEntity
8
1
62
256
6
ByLayer
370
18
48
1
60
1
100
AcDbLine
10
-86.725
20
-16
30
0
11
-87.650575
21
-11.825003
31
0
39
0
210
0
220
0
230
1
0
LINE
5
354
100
AcDbEntity
8
1
62
256
6
ByLayer
370
18
48
1
60
1
100
AcDbLine
10
-87.650575
20
-11.825003
30
0
11
-85.799425
21
-11.824997
31
0
39
0
210
0
220
0
230
1
0
LINE
5
355
100
AcDbEntity
8
1
62
256
6
ByLayer
370
18
48
1
60
1
100
AcDbLine
10
-85.799425
20
-11.824997
30
0
11
-86.725
21
-16
31
0
39
0
210
0
220
0
230
1
0
LINE
5
359
100
AcDbEntity
8
1
62
256
6
ByLayer
370
18
48
1
60
1
100
AcDbLine
10
149.975
20
-9.75
30
0
11
149.049425
21
-5.575003
31
0
39
0
210
0
220
0
230
1
0
LINE
5
35A
100
AcDbEntity
8
1
62
256
6
ByLayer
370
18
48
1
60
1
100
AcDbLine
10
149.049425
20
-5.575003
30
0
11
150.900575
21
-5.574997
31
0
39
0
210
0
220
0
230
1
0
LINE
5
35B
100
AcDbEntity
8
1
62
256
6
ByLayer
370
18
48
1
60
1
100
AcDbLine
10
150.900575
20
-5.574997
30
0
11
149.975
21
-9.75
31
0
39
0
210
0
220
0
230
1
0
LINE
5
35D
100
AcDbEntity
8
1
62
256
6
ByLayer
370
18
48
1
60
1
100
AcDbLine
10
149.975
20
9.75
30
0
11
150.900575
21
5.575003
31
0
39
0
210
0
220
0
230
1
0
LINE
5
35E
100
AcDbEntity
8
1
62
256
6
ByLayer
370
18
48
1
60
1
100
AcDbLine
10
150.900575
20
5.575003
30
0
11
149.049425
21
5.574997
31
0
39
0
210
0
220
0
230
1
0
LINE
5
35F
100
AcDbEntity
8
1
62
256
6
ByLayer
370
18
48
1
60
1
100
AcDbLine
10
149.049425
20
5.574997
30
0
11
149.975
21
9.75
31
0
39
0
210
0
220
0
230
1
0
MTEXT
5
341
100
AcDbEntity
8
SK2
62
256
6
ByLayer
370
18
48
1
60
0
100
AcDbMText
10
-78.736672
20
-6.949399
30
0
210
0
220
0
230
1
1
%%c
40
4.5
41
0
44
1.084337
50
90
71
7
72
5
7
iso_b_vert
0
MTEXT
5
344
100
AcDbEntity
8
SK2
62
256
6
ByLayer
370
18
48
1
60
0
100
AcDbMText
10
-78.736672
20
4.265444
30
0
210
0
220
0
230
1
1
\W0.6740;25
40
4.5
41
0
44
1.084337
50
90
71
7
72
5
7
iso_b_vert
0
MTEXT
5
34D
100
AcDbEntity
8
SK2
62
256
6
ByLayer
370
18
48
1
60
0
100
AcDbMText
10
-88.736672
20
-6.949399
30
0
210
0
220
0
230
1
1
%%c
40
4.5
41
0
44
1.084337
50
90
71
7
72
5
7
iso_b_vert
0
MTEXT
5
34E
100
AcDbEntity
8
SK2
62
256
6
ByLayer
370
18
48
1
60
0
100
AcDbMText
10
-88.736672
20
4.265444
30
0
210
0
220
0
230
1
1
\W0.6740;32
40
4.5
41
0
44
1.084337
50
90
71
7
72
5
7
iso_b_vert
0
MTEXT
5
357
100
AcDbEntity
8
2
62
256
6
ByLayer
370
18
48
1
60
0
100
AcDbMText
10
147.963328
20
24.350156
30
0
210
0
220
0
230
1
1
%%c
40
4.5
41
0
44
1.084337
50
90
71
7
72
5
7
iso_b_vert
0
MTEXT
5
358
100
AcDbEntity
8
2
62
256
6
ByLayer
370
18
48
1
60
0
100
AcDbMText
10
147.963328
20
35.565
30
0
210
0
220
0
230
1
1
\W0.6563;19.5
40
4.5
41
0
44
1.084337
50
90
71
7
72
5
7
iso_b_vert
0
MTEXT
5
361
100
AcDbEntity
8
SK6
62
256
6
ByLayer
370
18
48
1
60
0
100
AcDbMText
10
9.308916
20
-94.592562
30
0
210
0
220
0
230
1
1
\W0.7503;DS20-D1950L25-05
40
3.5
41
0
44
1.084337
50
0
71
7
72
5
7
iso_b_vert
0
HATCH
5
348
100
AcDbEntity
8
SK2
62
256
6
ByLayer
370
13
48
1
60
0
100
AcDbHatch
10
0
20
0
30
0
210
0
220
0
230
1
2
ANSI31
70
0
71
0
91
1
92
5
93
3
72
1
10
-76.725
20
-12.4999999999999
11
-75.799424783472
21
-16.6749966001723
72
1
10
-75.799424783472
20
-16.6749966001723
11
-77.650575216528
21
-16.6750033998275
72
1
10
-77.650575216528
20
-16.6750033998275
11
-76.725
21
-12.4999999999999
97
0
75
0
76
1
52
0
41
0.0062
77
0
78
1
53
45
43
0
44
0
45
-0.0139193969876572
46
0.0139193969876572
79
0
47
0
98
1
10
0
20
0
0
HATCH
5
34C
100
AcDbEntity
8
SK2
62
256
6
ByLayer
370
13
48
1
60
0
100
AcDbHatch
10
0
20
0
30
0
210
0
220
0
230
1
2
ANSI31
70
0
71
0
91
1
92
5
93
3
72
1
10
-76.725
20
12.5000000000001
11
-77.650575216528
21
16.6749966001725
72
1
10
-77.650575216528
20
16.6749966001725
11
-75.799424783472
21
16.6750033998277
72
1
10
-75.799424783472
20
16.6750033998277
11
-76.725
21
12.5000000000001
97
0
75
0
76
1
52
0
41
0.0062
77
0
78
1
53
45
43
0
44
0
45
-0.0139193969876572
46
0.0139193969876572
79
0
47
0
98
1
10
0
20
0
0
HATCH
5
352
100
AcDbEntity
8
SK2
62
256
6
ByLayer
370
13
48
1
60
0
100
AcDbHatch
10
0
20
0
30
0
210
0
220
0
230
1
2
ANSI31
70
0
71
0
91
1
92
5
93
3
72
1
10
-86.725
20
16
11
-85.799424783472
21
11.8250033998276
72
1
10
-85.799424783472
20
11.8250033998276
11
-87.650575216528
21
11.8249966001724
72
1
10
-87.650575216528
20
11.8249966001724
11
-86.725
21
16
97
0
75
0
76
1
52
0
41
0.0062
77
0
78
1
53
45
43
0
44
0
45
-0.0139193969876572
46
0.0139193969876572
79
0
47
0
98
1
10
0
20
0
0
HATCH
5
356
100
AcDbEntity
8
SK2
62
256
6
ByLayer
370
13
48
1
60
0
100
AcDbHatch
10
0
20
0
30
0
210
0
220
0
230
1
2
ANSI31
70
0
71
0
91
1
92
5
93
3
72
1
10
-86.725
20
-16
11
-87.650575216528
21
-11.8250033998276
72
1
10
-87.650575216528
20
-11.8250033998276
11
-85.799424783472
21
-11.8249966001724
72
1
10
-85.799424783472
20
-11.8249966001724
11
-86.725
21
-16
97
0
75
0
76
1
52
0
41
0.0062
77
0
78
1
53
45
43
0
44
0
45
-0.0139193969876572
46
0.0139193969876572
79
0
47
0
98
1
10
0
20
0
0
HATCH
5
35C
100
AcDbEntity
8
2
62
256
6
ByLayer
370
13
48
1
60
0
100
AcDbHatch
10
0
20
0
30
0
210
0
220
0
230
1
2
ANSI31
70
0
71
0
91
1
92
5
93
3
72
1
10
149.975
20
-9.75000000000014
11
149.049424783472
21
-5.57500339982775
72
1
10
149.049424783472
20
-5.57500339982775
11
150.900575216528
21
-5.57499660017251
72
1
10
150.900575216528
20
-5.57499660017251
11
149.975
21
-9.75000000000014
97
0
75
0
76
1
52
0
41
0.0062
77
0
78
1
53
45
43
0
44
0
45
-0.0139193969876572
46
0.0139193969876572
79
0
47
0
98
1
10
0
20
0
0
HATCH
5
360
100
AcDbEntity
8
2
62
256
6
ByLayer
370
13
48
1
60
0
100
AcDbHatch
10
0
20
0
30
0
210
0
220
0
230
1
2
ANSI31
70
0
71
0
91
1
92
5
93
3
72
1
10
149.975
20
9.74999999999986
11
150.900575216528
21
5.57500339982747
72
1
10
150.900575216528
20
5.57500339982747
11
149.049424783472
21
5.57499660017223
72
1
10
149.049424783472
20
5.57499660017223
11
149.975
21
9.74999999999986
97
0
75
0
76
1
52
0
41
0.0062
77
0
78
1
53
45
43
0
44
0
45
-0.0139193969876572
46
0.0139193969876572
79
0
47
0
98
1
10
0
20
0
0
DIMENSION
5
364
100
AcDbEntity
8
2
62
256
6
ByLayer
370
18
48
1
60
0
100
AcDbDimension
2
_U0
10
123
20
-64.862225
30
0
11
61.5
21
-64.862225
31
0
70
32
71
1
72
1
41
1
210
0
220
0
230
1
3
Standard
100
AcDbAlignedDimension
13
0
23
-16
33
0
14
123
24
-9.75
34
0
50
0
100
AcDbRotatedDimension
1001
ACAD
1000
DSTYLE
1002
{
1070
   371
1070
    13
1070
   372
1070
    13
1070
   170
1070
     0
1070
   144
1040
1.0
1070
   277
1070
     2
1070
   284
1070
     8
1070
   278
1070
    46
1070
   146
1040
0.777778
1070
   345
1005
16
1070
   347
1005
16
1070
   346
1005
16
1070
   344
1005
0
1070
   343
1005
0
1070
   172
1070
     1
1070
    76
1070
     0
1070
    75
1070
     0
1070
   282
1070
     0
1070
   281
1070
     0
1070
    71
1070
     0
1070
    74
1070
     0
1070
   279
1070
     0
1070
   173
1070
     1
1070
   340
1005
342
1070
   271
1070
     1
1070
   272
1070
     2
1070
    77
1070
     1
1070
    73
1070
     1
1070
   171
1070
     3
1070
   274
1070
     4
1070
   177
1070
   150
1070
   176
1070
     9
1070
   178
1070
    43
1070
    78
1070
     8
1070
    48
1040
-0.1
1070
    41
1040
4.175
1070
   147
1040
2.25
1070
    42
1040
1.5875
1070
    44
1040
3.175
1070
   140
1040
4.5
1002
}
1001
ACAD_DSTYLE_DIM_LINETYPE
1070
   380
1005
16
1001
ACAD_DSTYLE_DIM_EXT1_LINETYPE
1070
   381
1005
16
1001
ACAD_DSTYLE_DIM_EXT2_LINETYPE
1070
   382
1005
16
0
DIMENSION
5
37D
100
AcDbEntity
8
SK2
62
256
6
ByLayer
370
18
48
1
60
0
100
AcDbDimension
2
_U1
10
0
20
-64.862225
30
0
11
-28
21
-64.862225
31
0
70
32
71
1
72
1
41
1
210
0
220
0
230
1
3
Standard
100
AcDbAlignedDimension
13
-56
23
-12.5
33
0
14
0
24
-16
34
0
50
0
100
AcDbRotatedDimension
1001
ACAD
1000
DSTYLE
1002
{
1070
   371
1070
    13
1070
   372
1070
    13
1070
   170
1070
     0
1070
   144
1040
1.0
1070
   277
1070
     2
1070
   284
1070
     8
1070
   278
1070
    46
1070
   146
1040
0.777778
1070
   345
1005
16
1070
   347
1005
16
1070
   346
1005
16
1070
   344
1005
0
1070
   343
1005
0
1070
   172
1070
     1
1070
    76
1070
     0
1070
    75
1070
     0
1070
   282
1070
     0
1070
   281
1070
     0
1070
    71
1070
     0
1070
    74
1070
     0
1070
   279
1070
     0
1070
   173
1070
     1
1070
   340
1005
342
1070
   271
1070
     1
1070
   272
1070
     2
1070
    77
1070
     1
1070
    73
1070
     1
1070
   171
1070
     3
1070
   274
1070
     4
1070
   177
1070
   150
1070
   176
1070
     9
1070
   178
1070
    43
1070
    78
1070
     8
1070
    48
1040
-0.1
1070
    41
1040
4.175
1070
   147
1040
2.25
1070
    42
1040
1.5875
1070
    44
1040
3.175
1070
   140
1040
4.5
1002
}
1001
ACAD_DSTYLE_DIM_LINETYPE
1070
   380
1005
16
1001
ACAD_DSTYLE_DIM_EXT1_LINETYPE
1070
   381
1005
16
1001
ACAD_DSTYLE_DIM_EXT2_LINETYPE
1070
   382
1005
16
0
DIMENSION
5
395
100
AcDbEntity
8
SK2
62
256
6
ByLayer
370
18
48
1
60
0
100
AcDbDimension
2
_U2
10
6.0606
20
-54.862225
30
0
11
64.5303
21
-54.862225
31
0
70
32
71
1
72
1
41
1
210
0
220
0
230
1
3
Standard
100
AcDbAlignedDimension
13
123
23
-9.75
33
0
14
6.0606
24
-16
34
0
50
0
100
AcDbRotatedDimension
1001
ACAD
1000
DSTYLE
1002
{
1070
   371
1070
    13
1070
   372
1070
    13
1070
   170
1070
     0
1070
   144
1040
1.0
1070
   277
1070
     2
1070
   284
1070
     8
1070
   278
1070
    46
1070
   146
1040
0.777778
1070
   345
1005
16
1070
   347
1005
16
1070
   346
1005
16
1070
   344
1005
0
1070
   343
1005
0
1070
   172
1070
     1
1070
    76
1070
     0
1070
    75
1070
     0
1070
   282
1070
     0
1070
   281
1070
     0
1070
    71
1070
     0
1070
    74
1070
     0
1070
   279
1070
     0
1070
   173
1070
     1
1070
   340
1005
342
1070
   271
1070
     1
1070
   272
1070
     2
1070
    77
1070
     1
1070
    73
1070
     1
1070
   171
1070
     3
1070
   274
1070
     4
1070
   177
1070
   150
1070
   176
1070
     9
1070
   178
1070
    43
1070
    78
1070
     8
1070
    48
1040
-0.1
1070
    41
1040
4.175
1070
   147
1040
2.25
1070
    42
1040
1.5875
1070
    44
1040
3.175
1070
   140
1040
4.5
1002
}
1001
ACAD_DSTYLE_DIM_LINETYPE
1070
   380
1005
16
1001
ACAD_DSTYLE_DIM_EXT1_LINETYPE
1070
   381
1005
16
1001
ACAD_DSTYLE_DIM_EXT2_LINETYPE
1070
   382
1005
16
0
DIMENSION
5
3AD
100
AcDbEntity
8
SK2
62
256
6
ByLayer
370
18
48
1
60
0
100
AcDbDimension
2
_U3
10
123
20
-44.862225
30
0
11
72.5
21
-44.862225
31
0
70
32
71
1
72
1
41
1
210
0
220
0
230
1
3
Standard
100
AcDbAlignedDimension
13
22
23
-9.75
33
0
14
123
24
-9.75
34
0
50
0
100
AcDbRotatedDimension
1001
ACAD
1000
DSTYLE
1002
{
1070
   371
1070
    13
1070
   372
1070
    13
1070
   170
1070
     0
1070
   144
1040
1.0
1070
   277
1070
     2
1070
   284
1070
     8
1070
   278
1070
    46
1070
   146
1040
0.777778
1070
   345
1005
16
1070
   347
1005
16
1070
   346
1005
16
1070
   344
1005
0
1070
   343
1005
0
1070
   172
1070
     1
1070
    76
1070
     0
1070
    75
1070
     0
1070
   282
1070
     0
1070
   281
1070
     0
1070
    71
1070
     0
1070
    74
1070
     0
1070
   279
1070
     0
1070
   173
1070
     1
1070
   340
1005
342
1070
   271
1070
     1
1070
   272
1070
     2
1070
    77
1070
     1
1070
    73
1070
     1
1070
   171
1070
     3
1070
   274
1070
     4
1070
   177
1070
   150
1070
   176
1070
     9
1070
   178
1070
    43
1070
    78
1070
     8
1070
    48
1040
-0.1
1070
    41
1040
4.175
1070
   147
1040
2.25
1070
    42
1040
1.5875
1070
    44
1040
3.175
1070
   140
1040
4.5
1002
}
1001
ACAD_DSTYLE_DIM_LINETYPE
1070
   380
1005
16
1001
ACAD_DSTYLE_DIM_EXT1_LINETYPE
1070
   381
1005
16
1001
ACAD_DSTYLE_DIM_EXT2_LINETYPE
1070
   382
1005
16
0
DIMENSION
5
3C5
100
AcDbEntity
8
2
62
256
6
ByLayer
370
18
48
1
60
0
100
AcDbDimension
2
_U4
10
123
20
-34.862225
30
0
11
145.350893
21
-34.862225
31
0
70
32
71
1
72
1
41
1
210
0
220
0
230
1
3
Standard
100
AcDbAlignedDimension
13
122.4423
23
-4.875
33
0
14
123
24
0
34
0
50
0
100
AcDbRotatedDimension
1001
ACAD
1000
DSTYLE
1002
{
1070
   371
1070
    13
1070
   372
1070
    13
1070
   170
1070
     0
1070
   144
1040
1.0
1070
   277
1070
     2
1070
   284
1070
     8
1070
   278
1070
    46
1070
   146
1040
0.777778
1070
   345
1005
16
1070
   347
1005
16
1070
   346
1005
16
1070
   344
1005
0
1070
   343
1005
0
1070
   172
1070
     1
1070
    76
1070
     0
1070
    75
1070
     0
1070
   282
1070
     0
1070
   281
1070
     0
1070
    71
1070
     0
1070
    74
1070
     0
1070
   279
1070
     0
1070
   173
1070
     1
1070
   340
1005
342
1070
   271
1070
     2
1070
   272
1070
     2
1070
    77
1070
     1
1070
    73
1070
     1
1070
   171
1070
     3
1070
   274
1070
     4
1070
   177
1070
   150
1070
   176
1070
     9
1070
   178
1070
    43
1070
    78
1070
     8
1070
    48
1040
-0.1
1070
    41
1040
4.175
1070
   147
1040
2.25
1070
    42
1040
1.5875
1070
    44
1040
3.175
1070
   140
1040
4.5
1002
}
1001
ACAD_DSTYLE_DIM_LINETYPE
1070
   380
1005
16
1001
ACAD_DSTYLE_DIM_EXT1_LINETYPE
1070
   381
1005
16
1001
ACAD_DSTYLE_DIM_EXT2_LINETYPE
1070
   382
1005
16
0
ENDSEC
0
SECTION
2
OBJECTS
0
DICTIONARY
5
44f
330
0
100
AcDbDictionary
280
0
281
1
3
ACAD_GROUP
350
450
3
ACAD_MLINESTYLE
350
451
0
DICTIONARY
5
450
330
0
100
AcDbDictionary
280
0
281
1
0
DICTIONARY
5
451
330
0
100
AcDbDictionary
280
0
281
1
3
Standard
350
18
0
MLINESTYLE
5
18
330
451
100
AcDbMlineStyle
2
Standard
70
0
3

62
256
51
90
52
90
71
2
49
-0.5
62
256
6
ByLayer
49
0.5
62
256
6
ByLayer
0
RASTERVARIABLES
5
43d
330

100
AcDbRasterVariables
90
0
70
1
71
1
72
1
0
ENDSEC
0
EOF
