0
SECTION
2
HEADER
9
$ACADVER
1
AC1015
9
$DWGCODEPAGE
3
ANSI_1252
9
$HANDSEED
5
45d
9
$ANGBASE
50
0
9
$ANGDIR
70
0
9
$ATTMODE
70
1
9
$AUNITS
70
0
9
$AUPREC
70
0
9
$CECOLOR
62
256
9
$CELTSCALE
40
1
9
$CELTYPE
6
ByLayer
9
$CELWEIGHT
370
18
9
$CLAYER
8
0
9
$CMLJUST
70
0
9
$CMLSCALE
40
1
9
$CMLSTYLE
2
Standard
9
$DIMSTYLE
2
Standard
9
$TEXTSIZE
40
0.2
9
$TEXTSTYLE
7
Standard
9
$LUNITS
70
2
9
$LUPREC
70
4
9
$EXTNAMES
290
1
9
$INSUNITS
70
4
9
$LTSCALE
40
1
9
$LWDISPLAY
290
1
9
$PDMODE
70
0
9
$PDSIZE
40
0
9
$PLINEGEN
70
0
0
ENDSEC
0
SECTION
2
CLASSES
0
CLASS
1
RASTERVARIABLES
2
AcDbRasterVariables
3
ISM
90
0
280
0
281
0
0
ENDSEC
0
SECTION
2
TABLES
0
TABLE
2
VPORT
5
453
100
AcDbSymbolTable
0
VPORT
5
1
100
AcDbSymbolTableRecord
100
AcDbViewportTableRecord
2
*Active
70
0
10
0
20
0
11
1
21
1
12
-1
22
1
13
0
23
0
14
0.5
24
0.5
15
10
25
10
16
0
26
0
36
1
17
0
27
0
37
0
0
ENDTAB
0
TABLE
2
LTYPE
5
454
100
AcDbSymbolTable
0
LTYPE
5
14
100
AcDbSymbolTableRecord
100
AcDbLinetypeTableRecord
70
0
2
ByBlock
3

72
65
73
0
40
0
0
LTYPE
5
15
100
AcDbSymbolTableRecord
100
AcDbLinetypeTableRecord
70
0
2
ByLayer
3

72
65
73
0
40
0
0
LTYPE
5
16
100
AcDbSymbolTableRecord
100
AcDbLinetypeTableRecord
70
0
2
Continuous
3
Solid line
72
65
73
0
40
0
0
LTYPE
5
6E
100
AcDbSymbolTableRecord
100
AcDbLinetypeTableRecord
70
0
2
CENTER
3
____ _ ____ _ ____ _ ____
72
65
73
4
40
47.5
49
22
74
0
49
-8.5
74
0
49
8.5
74
0
49
-8.5
74
0
0
LTYPE
5
6F
100
AcDbSymbolTableRecord
100
AcDbLinetypeTableRecord
70
0
2
DASHED
3
__ __ __ __ __ __ __ __ __
72
65
73
2
40
25.72
49
12.86
74
0
49
-12.86
74
0
0
ENDTAB
0
TABLE
2
LAYER
5
455
100
AcDbSymbolTable
0
LAYER
5
10
100
AcDbSymbolTableRecord
100
AcDbLayerTableRecord
2
0
70
0
62
7
6
Continuous
290
1
370
-3
390
0
0
LAYER
5
71
100
AcDbSymbolTableRecord
100
AcDbLayerTableRecord
2
1
70
0
62
4
6
Continuous
290
1
370
-3
390
0
0
LAYER
5
73
100
AcDbSymbolTableRecord
100
AcDbLayerTableRecord
2
80
70
0
62
-6
6
Continuous
290
1
370
-3
390
0
0
LAYER
5
75
100
AcDbSymbolTableRecord
100
AcDbLayerTableRecord
2
81
70
0
62
-3
6
Continuous
290
1
370
-3
390
0
0
LAYER
5
14E
100
AcDbSymbolTableRecord
100
AcDbLayerTableRecord
2
4
70
0
62
-2
6
CENTER
290
1
370
-3
390
0
0
LAYER
5
189
100
AcDbSymbolTableRecord
100
AcDbLayerTableRecord
2
2
70
0
62
7
6
Continuous
290
1
370
-3
390
0
0
LAYER
5
368
100
AcDbSymbolTableRecord
100
AcDbLayerTableRecord
2
Defpoints
70
0
62
7
6
Continuous
290
0
370
-3
390
0
0
LAYER
5
43f
100
AcDbSymbolTableRecord
100
AcDbLayerTableRecord
2
SK1
70
0
62
4
6
Continuous
290
1
370
-3
390
0
0
LAYER
5
440
100
AcDbSymbolTableRecord
100
AcDbLayerTableRecord
2
SK4
70
0
62
2
6
CENTER
290
1
370
-3
390
0
0
LAYER
5
441
100
AcDbSymbolTableRecord
100
AcDbLayerTableRecord
2
SK2
70
0
62
7
6
Continuous
290
1
370
-3
390
0
0
LAYER
5
442
100
AcDbSymbolTableRecord
100
AcDbLayerTableRecord
2
SK6
70
0
62
5
6
Continuous
290
1
370
-3
390
0
0
ENDTAB
0
TABLE
2
STYLE
5
456
100
AcDbSymbolTable
0
STYLE
5
11
100
AcDbSymbolTableRecord
100
AcDbTextStyleTableRecord
2
Standard
3
txt
70
0
71
0
40
0
41
1
42
0
50
0
0
STYLE
5
343
100
AcDbSymbolTableRecord
100
AcDbTextStyleTableRecord
2
iso_b_vert
3
simplex.shx
70
0
71
0
40
0
41
1
42
0
50
0
0
STYLE
5
344
100
AcDbSymbolTableRecord
100
AcDbTextStyleTableRecord
2
DWGDirectTextStyle
3
simplex
70
0
71
0
40
0
41
1
42
0
50
0
0
ENDTAB
0
TABLE
2
DIMSTYLE
5
457
100
AcDbSymbolTable
100
AcDbDimStyleTable
0
DIMSTYLE
105
27
100
AcDbSymbolTableRecord
100
AcDbDimStyleTableRecord
2
Standard
70
0
3
<>
41
0.18
42
0.0625
44
0.18
140
0.18
147
0.09
73
0
74
0
77
1
271
2
275
0
278
52
280
0
340
11
0
ENDTAB
0
TABLE
2
VIEW
5
458
100
AcDbSymbolTable
0
ENDTAB
0
TABLE
2
UCS
5
459
100
AcDbSymbolTable
0
ENDTAB
0
TABLE
2
APPID
5
45a
100
AcDbSymbolTable
0
APPID
5
12
100
AcDbSymbolTableRecord
100
AcDbRegAppTableRecord
2
ACAD
70
0
0
APPID
5
364
100
AcDbSymbolTableRecord
100
AcDbRegAppTableRecord
2
ACAD_DSTYLE_DIMBREAK
70
0
0
APPID
5
3FE
100
AcDbSymbolTableRecord
100
AcDbRegAppTableRecord
2
ACAD_DSTYLE_DIM_LINETYPE
70
0
0
APPID
5
3FF
100
AcDbSymbolTableRecord
100
AcDbRegAppTableRecord
2
ACAD_DSTYLE_DIM_EXT1_LINETYPE
70
0
0
APPID
5
400
100
AcDbSymbolTableRecord
100
AcDbRegAppTableRecord
2
ACAD_DSTYLE_DIM_EXT2_LINETYPE
70
0
0
APPID
5
43B
100
AcDbSymbolTableRecord
100
AcDbRegAppTableRecord
2
ACAD_MLEADERVER
70
0
0
ENDTAB
0
TABLE
2
BLOCK_RECORD
5
45b
100
AcDbSymbolTable
0
BLOCK_RECORD
5
1F
100
AcDbSymbolTableRecord
100
AcDbBlockTableRecord
2
*Model_Space
340
0
70
0
0
BLOCK_RECORD
5
1B
100
AcDbSymbolTableRecord
100
AcDbBlockTableRecord
2
*Paper_Space
340
0
70
0
0
BLOCK_RECORD
5
23
100
AcDbSymbolTableRecord
100
AcDbBlockTableRecord
2
*Paper_Space0
340
0
70
0
0
BLOCK_RECORD
5
369
100
AcDbSymbolTableRecord
100
AcDbBlockTableRecord
2
*D1
340
0
70
0
0
BLOCK_RECORD
5
375
100
AcDbSymbolTableRecord
100
AcDbBlockTableRecord
2
_U0
340
0
70
0
0
BLOCK_RECORD
5
381
100
AcDbSymbolTableRecord
100
AcDbBlockTableRecord
2
*D3
340
0
70
0
0
BLOCK_RECORD
5
38D
100
AcDbSymbolTableRecord
100
AcDbBlockTableRecord
2
_U1
340
0
70
0
0
BLOCK_RECORD
5
399
100
AcDbSymbolTableRecord
100
AcDbBlockTableRecord
2
*D5
340
0
70
0
0
BLOCK_RECORD
5
3A5
100
AcDbSymbolTableRecord
100
AcDbBlockTableRecord
2
_U2
340
0
70
0
0
BLOCK_RECORD
5
3B1
100
AcDbSymbolTableRecord
100
AcDbBlockTableRecord
2
*D7
340
0
70
0
0
BLOCK_RECORD
5
3BD
100
AcDbSymbolTableRecord
100
AcDbBlockTableRecord
2
_U3
340
0
70
0
0
BLOCK_RECORD
5
3C9
100
AcDbSymbolTableRecord
100
AcDbBlockTableRecord
2
*D9
340
0
70
0
0
BLOCK_RECORD
5
3D7
100
AcDbSymbolTableRecord
100
AcDbBlockTableRecord
2
_U4
340
0
70
0
0
ENDTAB
0
ENDSEC
0
SECTION
2
BLOCKS
0
BLOCK
5
20
100
AcDbEntity
8
0
100
AcDbBlockBegin
2
*Model_Space
70
0
10
0
20
0
30
0
3
*Model_Space
0
ENDBLK
5
21
100
AcDbEntity
8
0
100
AcDbBlockEnd
0
BLOCK
5
1C
100
AcDbEntity
8
0
100
AcDbBlockBegin
2
*Paper_Space
70
0
10
0
20
0
30
0
3
*Paper_Space
0
ENDBLK
5
1D
100
AcDbEntity
8
0
100
AcDbBlockEnd
0
BLOCK
5
24
100
AcDbEntity
8
0
100
AcDbBlockBegin
2
*Paper_Space0
70
0
10
0
20
0
30
0
3
*Paper_Space0
0
ENDBLK
5
25
100
AcDbEntity
8
0
100
AcDbBlockEnd
0
BLOCK
5
36A
100
AcDbEntity
8
0
100
AcDbBlockBegin
2
*D1
70
1
10
0
20
0
30
0
3
*D1
0
LINE
5
36C
100
AcDbEntity
8
0
62
256
6
ByLayer
370
-2
48
1
60
0
100
AcDbLine
10
0
20
-32.8375
30
0
11
0
21
-83.474914
31
0
39
0
210
0
220
0
230
1
0
LINE
5
36D
100
AcDbEntity
8
0
62
256
6
ByLayer
370
-2
48
1
60
0
100
AcDbLine
10
288
20
-32.5875
30
0
11
288
21
-83.474914
31
0
39
0
210
0
220
0
230
1
0
LINE
5
36E
100
AcDbEntity
8
0
62
256
6
ByLayer
370
-2
48
1
60
0
100
AcDbLine
10
4.175
20
-80.299914
30
0
11
283.825
21
-80.299914
31
0
39
0
210
0
220
0
230
1
0
SOLID
5
36F
100
AcDbEntity
8
0
62
256
6
ByLayer
370
-1
48
1
60
0
100
AcDbTrace
10
4.175
20
-79.60408
30
0
11
4.175
21
-80.995747
31
0
12
0
22
-80.299914
32
0
13
0
23
-80.299914
33
0
39
0
210
0
220
0
230
1
0
SOLID
5
370
100
AcDbEntity
8
0
62
256
6
ByLayer
370
-1
48
1
60
0
100
AcDbTrace
10
283.825
20
-80.995747
30
0
11
283.825
21
-79.60408
31
0
12
288
22
-80.299914
32
0
13
288
23
-80.299914
33
0
39
0
210
0
220
0
230
1
0
MTEXT
5
371
100
AcDbEntity
8
0
62
256
6
ByLayer
370
18
48
1
60
0
100
AcDbMText
10
144
20
-70.906164
30
0
210
0
220
0
230
1
1
\A1;288
40
4.5
41
0
44
1
50
0
71
5
72
5
7
iso_b_vert
0
POINT
5
372
100
AcDbEntity
8
Defpoints
62
0
6
ByLayer
370
-1
48
1
60
0
100
AcDbPoint
10
0
20
-31.25
30
0
39
0
210
0
220
0
230
1
50
360
0
POINT
5
373
100
AcDbEntity
8
Defpoints
62
0
6
ByLayer
370
-1
48
1
60
0
100
AcDbPoint
10
288
20
-31
30
0
39
0
210
0
220
0
230
1
50
360
0
POINT
5
374
100
AcDbEntity
8
Defpoints
62
0
6
ByLayer
370
-1
48
1
60
0
100
AcDbPoint
10
288
20
-80.299914
30
0
39
0
210
0
220
0
230
1
50
360
0
ENDBLK
5
36B
100
AcDbEntity
8
0
100
AcDbBlockEnd
0
BLOCK
5
37C
100
AcDbEntity
8
0
100
AcDbBlockBegin
2
_U0
70
0
10
0
20
0
30
0
3
_U0
0
MTEXT
5
376
100
AcDbEntity
8
2
62
256
6
ByLayer
370
18
48
1
60
0
100
AcDbMText
10
139.869387
20
-78.972242
30
0
210
0
220
0
230
1
1
\W0.7138;288
40
4.5
41
0
44
1.084337
50
0
71
7
72
5
7
iso_b_vert
0
LINE
5
377
100
AcDbEntity
8
2
62
256
6
ByLayer
370
13
48
1
60
0
100
AcDbLine
10
0
20
-32.8375
30
0
11
0
21
-83.474914
31
0
39
0
210
0
220
0
230
1
0
LINE
5
378
100
AcDbEntity
8
2
62
256
6
ByLayer
370
13
48
1
60
0
100
AcDbLine
10
288
20
-32.5875
30
0
11
288
21
-83.474914
31
0
39
0
210
0
220
0
230
1
0
LINE
5
379
100
AcDbEntity
8
2
62
256
6
ByLayer
370
13
48
1
60
0
100
AcDbLine
10
0
20
-80.299914
30
0
11
288
21
-80.299914
31
0
39
0
210
0
220
0
230
1
0
SOLID
5
37A
100
AcDbEntity
8
2
62
256
6
ByLayer
370
18
48
1
60
0
100
AcDbTrace
10
0
20
-80.299914
30
0
11
4.174997
21
-79.374338
31
0
12
4.175003
22
-81.225489
32
0
13
4.175003
23
-81.225489
33
0
39
0
210
0
220
0
230
1
0
SOLID
5
37B
100
AcDbEntity
8
2
62
256
6
ByLayer
370
18
48
1
60
0
100
AcDbTrace
10
288
20
-80.299914
30
0
11
283.825003
21
-81.225489
31
0
12
283.824997
22
-79.374338
32
0
13
283.824997
23
-79.374338
33
0
39
0
210
0
220
0
230
1
0
ENDBLK
5
37D
100
AcDbEntity
8
0
100
AcDbBlockEnd
0
BLOCK
5
382
100
AcDbEntity
8
0
100
AcDbBlockBegin
2
*D3
70
1
10
0
20
0
30
0
3
*D3
0
LINE
5
384
100
AcDbEntity
8
0
62
256
6
ByLayer
370
-2
48
1
60
0
100
AcDbLine
10
-80
20
-26.5875
30
0
11
-80
21
-83.474914
31
0
39
0
210
0
220
0
230
1
0
LINE
5
385
100
AcDbEntity
8
0
62
256
6
ByLayer
370
-2
48
1
60
0
100
AcDbLine
10
0
20
-32.8375
30
0
11
0
21
-83.474914
31
0
39
0
210
0
220
0
230
1
0
LINE
5
386
100
AcDbEntity
8
0
62
256
6
ByLayer
370
-2
48
1
60
0
100
AcDbLine
10
-75.825
20
-80.299914
30
0
11
-4.175
21
-80.299914
31
0
39
0
210
0
220
0
230
1
0
SOLID
5
387
100
AcDbEntity
8
0
62
256
6
ByLayer
370
-1
48
1
60
0
100
AcDbTrace
10
-75.825
20
-79.60408
30
0
11
-75.825
21
-80.995747
31
0
12
-80
22
-80.299914
32
0
13
-80
23
-80.299914
33
0
39
0
210
0
220
0
230
1
0
SOLID
5
388
100
AcDbEntity
8
0
62
256
6
ByLayer
370
-1
48
1
60
0
100
AcDbTrace
10
-4.175
20
-80.995747
30
0
11
-4.175
21
-79.60408
31
0
12
0
22
-80.299914
32
0
13
0
23
-80.299914
33
0
39
0
210
0
220
0
230
1
0
MTEXT
5
389
100
AcDbEntity
8
0
62
256
6
ByLayer
370
18
48
1
60
0
100
AcDbMText
10
-40
20
-70.906164
30
0
210
0
220
0
230
1
1
\A1;80
40
4.5
41
0
44
1
50
0
71
5
72
5
7
iso_b_vert
0
POINT
5
38A
100
AcDbEntity
8
Defpoints
62
0
6
ByLayer
370
-1
48
1
60
0
100
AcDbPoint
10
-80
20
-25
30
0
39
0
210
0
220
0
230
1
50
360
0
POINT
5
38B
100
AcDbEntity
8
Defpoints
62
0
6
ByLayer
370
-1
48
1
60
0
100
AcDbPoint
10
0
20
-31.25
30
0
39
0
210
0
220
0
230
1
50
360
0
POINT
5
38C
100
AcDbEntity
8
Defpoints
62
0
6
ByLayer
370
-1
48
1
60
0
100
AcDbPoint
10
0
20
-80.299914
30
0
39
0
210
0
220
0
230
1
50
360
0
ENDBLK
5
383
100
AcDbEntity
8
0
100
AcDbBlockEnd
0
BLOCK
5
394
100
AcDbEntity
8
0
100
AcDbBlockBegin
2
_U1
70
0
10
0
20
0
30
0
3
_U1
0
MTEXT
5
38E
100
AcDbEntity
8
SK2
62
256
6
ByLayer
370
18
48
1
60
0
100
AcDbMText
10
-42.449242
20
-78.972242
30
0
210
0
220
0
230
1
1
\W0.6740;80
40
4.5
41
0
44
1.084337
50
0
71
7
72
5
7
iso_b_vert
0
LINE
5
38F
100
AcDbEntity
8
SK2
62
256
6
ByLayer
370
13
48
1
60
0
100
AcDbLine
10
-80
20
-26.5875
30
0
11
-80
21
-83.474914
31
0
39
0
210
0
220
0
230
1
0
LINE
5
390
100
AcDbEntity
8
SK2
62
256
6
ByLayer
370
13
48
1
60
0
100
AcDbLine
10
0
20
-32.8375
30
0
11
0
21
-83.474914
31
0
39
0
210
0
220
0
230
1
0
LINE
5
391
100
AcDbEntity
8
SK2
62
256
6
ByLayer
370
13
48
1
60
0
100
AcDbLine
10
-80
20
-80.299914
30
0
11
0
21
-80.299914
31
0
39
0
210
0
220
0
230
1
0
SOLID
5
392
100
AcDbEntity
8
SK2
62
256
6
ByLayer
370
18
48
1
60
0
100
AcDbTrace
10
-80
20
-80.299914
30
0
11
-75.825003
21
-79.374338
31
0
12
-75.824997
22
-81.225489
32
0
13
-75.824997
23
-81.225489
33
0
39
0
210
0
220
0
230
1
0
SOLID
5
393
100
AcDbEntity
8
SK2
62
256
6
ByLayer
370
18
48
1
60
0
100
AcDbTrace
10
0
20
-80.299914
30
0
11
-4.174997
21
-81.225489
31
0
12
-4.175003
22
-79.374338
32
0
13
-4.175003
23
-79.374338
33
0
39
0
210
0
220
0
230
1
0
ENDBLK
5
395
100
AcDbEntity
8
0
100
AcDbBlockEnd
0
BLOCK
5
39A
100
AcDbEntity
8
0
100
AcDbBlockBegin
2
*D5
70
1
10
0
20
0
30
0
3
*D5
0
LINE
5
39C
100
AcDbEntity
8
0
62
256
6
ByLayer
370
-2
48
1
60
0
100
AcDbLine
10
288
20
-32.5875
30
0
11
288
21
-73.474914
31
0
39
0
210
0
220
0
230
1
0
LINE
5
39D
100
AcDbEntity
8
0
62
256
6
ByLayer
370
-2
48
1
60
0
100
AcDbLine
10
5.7344
20
-32.8375
30
0
11
5.7344
21
-73.474914
31
0
39
0
210
0
220
0
230
1
0
LINE
5
39E
100
AcDbEntity
8
0
62
256
6
ByLayer
370
-2
48
1
60
0
100
AcDbLine
10
283.825
20
-70.299914
30
0
11
9.9094
21
-70.299914
31
0
39
0
210
0
220
0
230
1
0
SOLID
5
39F
100
AcDbEntity
8
0
62
256
6
ByLayer
370
-1
48
1
60
0
100
AcDbTrace
10
283.825
20
-70.995747
30
0
11
283.825
21
-69.60408
31
0
12
288
22
-70.299914
32
0
13
288
23
-70.299914
33
0
39
0
210
0
220
0
230
1
0
SOLID
5
3A0
100
AcDbEntity
8
0
62
256
6
ByLayer
370
-1
48
1
60
0
100
AcDbTrace
10
9.9094
20
-69.60408
30
0
11
9.9094
21
-70.995747
31
0
12
5.7344
22
-70.299914
32
0
13
5.7344
23
-70.299914
33
0
39
0
210
0
220
0
230
1
0
MTEXT
5
3A1
100
AcDbEntity
8
0
62
256
6
ByLayer
370
18
48
1
60
0
100
AcDbMText
10
146.8672
20
-60.906164
30
0
210
0
220
0
230
1
1
\A1;282.3
40
4.5
41
0
44
1
50
0
71
5
72
5
7
iso_b_vert
0
POINT
5
3A2
100
AcDbEntity
8
Defpoints
62
0
6
ByLayer
370
-1
48
1
60
0
100
AcDbPoint
10
288
20
-31
30
0
39
0
210
0
220
0
230
1
50
360
0
POINT
5
3A3
100
AcDbEntity
8
Defpoints
62
0
6
ByLayer
370
-1
48
1
60
0
100
AcDbPoint
10
5.7344
20
-31.25
30
0
39
0
210
0
220
0
230
1
50
360
0
POINT
5
3A4
100
AcDbEntity
8
Defpoints
62
0
6
ByLayer
370
-1
48
1
60
0
100
AcDbPoint
10
5.7344
20
-70.299914
30
0
39
0
210
0
220
0
230
1
50
360
0
ENDBLK
5
39B
100
AcDbEntity
8
0
100
AcDbBlockEnd
0
BLOCK
5
3AC
100
AcDbEntity
8
0
100
AcDbBlockBegin
2
_U2
70
0
10
0
20
0
30
0
3
_U2
0
MTEXT
5
3A6
100
AcDbEntity
8
SK2
62
256
6
ByLayer
370
18
48
1
60
0
100
AcDbMText
10
140.143644
20
-68.972242
30
0
210
0
220
0
230
1
1
\W0.7468;282.3
40
4.5
41
0
44
1.084337
50
0
71
7
72
5
7
iso_b_vert
0
LINE
5
3A7
100
AcDbEntity
8
SK2
62
256
6
ByLayer
370
13
48
1
60
0
100
AcDbLine
10
288
20
-32.5875
30
0
11
288
21
-73.474914
31
0
39
0
210
0
220
0
230
1
0
LINE
5
3A8
100
AcDbEntity
8
SK2
62
256
6
ByLayer
370
13
48
1
60
0
100
AcDbLine
10
5.7344
20
-32.8375
30
0
11
5.7344
21
-73.474914
31
0
39
0
210
0
220
0
230
1
0
LINE
5
3A9
100
AcDbEntity
8
SK2
62
256
6
ByLayer
370
13
48
1
60
0
100
AcDbLine
10
288
20
-70.299914
30
0
11
5.7344
21
-70.299914
31
0
39
0
210
0
220
0
230
1
0
SOLID
5
3AA
100
AcDbEntity
8
SK2
62
256
6
ByLayer
370
18
48
1
60
0
100
AcDbTrace
10
288
20
-70.299914
30
0
11
283.825003
21
-71.225489
31
0
12
283.824997
22
-69.374338
32
0
13
283.824997
23
-69.374338
33
0
39
0
210
0
220
0
230
1
0
SOLID
5
3AB
100
AcDbEntity
8
SK2
62
256
6
ByLayer
370
18
48
1
60
0
100
AcDbTrace
10
5.7344
20
-70.299914
30
0
11
9.909397
21
-69.374338
31
0
12
9.909403
22
-71.225489
32
0
13
9.909403
23
-71.225489
33
0
39
0
210
0
220
0
230
1
0
ENDBLK
5
3AD
100
AcDbEntity
8
0
100
AcDbBlockEnd
0
BLOCK
5
3B2
100
AcDbEntity
8
0
100
AcDbBlockBegin
2
*D7
70
1
10
0
20
0
30
0
3
*D7
0
LINE
5
3B4
100
AcDbEntity
8
0
62
256
6
ByLayer
370
-2
48
1
60
0
100
AcDbLine
10
35
20
-32.5875
30
0
11
35
21
-63.474914
31
0
39
0
210
0
220
0
230
1
0
LINE
5
3B5
100
AcDbEntity
8
0
62
256
6
ByLayer
370
-2
48
1
60
0
100
AcDbLine
10
288
20
-32.5875
30
0
11
288
21
-63.474914
31
0
39
0
210
0
220
0
230
1
0
LINE
5
3B6
100
AcDbEntity
8
0
62
256
6
ByLayer
370
-2
48
1
60
0
100
AcDbLine
10
39.175
20
-60.299914
30
0
11
283.825
21
-60.299914
31
0
39
0
210
0
220
0
230
1
0
SOLID
5
3B7
100
AcDbEntity
8
0
62
256
6
ByLayer
370
-1
48
1
60
0
100
AcDbTrace
10
39.175
20
-59.60408
30
0
11
39.175
21
-60.995747
31
0
12
35
22
-60.299914
32
0
13
35
23
-60.299914
33
0
39
0
210
0
220
0
230
1
0
SOLID
5
3B8
100
AcDbEntity
8
0
62
256
6
ByLayer
370
-1
48
1
60
0
100
AcDbTrace
10
283.825
20
-60.995747
30
0
11
283.825
21
-59.60408
31
0
12
288
22
-60.299914
32
0
13
288
23
-60.299914
33
0
39
0
210
0
220
0
230
1
0
MTEXT
5
3B9
100
AcDbEntity
8
0
62
256
6
ByLayer
370
18
48
1
60
0
100
AcDbMText
10
161.5
20
-50.906164
30
0
210
0
220
0
230
1
1
\A1;253
40
4.5
41
0
44
1
50
0
71
5
72
5
7
iso_b_vert
0
POINT
5
3BA
100
AcDbEntity
8
Defpoints
62
0
6
ByLayer
370
-1
48
1
60
0
100
AcDbPoint
10
35
20
-31
30
0
39
0
210
0
220
0
230
1
50
360
0
POINT
5
3BB
100
AcDbEntity
8
Defpoints
62
0
6
ByLayer
370
-1
48
1
60
0
100
AcDbPoint
10
288
20
-31
30
0
39
0
210
0
220
0
230
1
50
360
0
POINT
5
3BC
100
AcDbEntity
8
Defpoints
62
0
6
ByLayer
370
-1
48
1
60
0
100
AcDbPoint
10
288
20
-60.299914
30
0
39
0
210
0
220
0
230
1
50
360
0
ENDBLK
5
3B3
100
AcDbEntity
8
0
100
AcDbBlockEnd
0
BLOCK
5
3C4
100
AcDbEntity
8
0
100
AcDbBlockBegin
2
_U3
70
0
10
0
20
0
30
0
3
_U3
0
MTEXT
5
3BE
100
AcDbEntity
8
SK2
62
256
6
ByLayer
370
18
48
1
60
0
100
AcDbMText
10
157.369387
20
-58.972242
30
0
210
0
220
0
230
1
1
\W0.7138;253
40
4.5
41
0
44
1.084337
50
0
71
7
72
5
7
iso_b_vert
0
LINE
5
3BF
100
AcDbEntity
8
SK2
62
256
6
ByLayer
370
13
48
1
60
0
100
AcDbLine
10
35
20
-32.5875
30
0
11
35
21
-63.474914
31
0
39
0
210
0
220
0
230
1
0
LINE
5
3C0
100
AcDbEntity
8
SK2
62
256
6
ByLayer
370
13
48
1
60
0
100
AcDbLine
10
288
20
-32.5875
30
0
11
288
21
-63.474914
31
0
39
0
210
0
220
0
230
1
0
LINE
5
3C1
100
AcDbEntity
8
SK2
62
256
6
ByLayer
370
13
48
1
60
0
100
AcDbLine
10
35
20
-60.299914
30
0
11
288
21
-60.299914
31
0
39
0
210
0
220
0
230
1
0
SOLID
5
3C2
100
AcDbEntity
8
SK2
62
256
6
ByLayer
370
18
48
1
60
0
100
AcDbTrace
10
35
20
-60.299914
30
0
11
39.174997
21
-59.374338
31
0
12
39.175003
22
-61.225489
32
0
13
39.175003
23
-61.225489
33
0
39
0
210
0
220
0
230
1
0
SOLID
5
3C3
100
AcDbEntity
8
SK2
62
256
6
ByLayer
370
18
48
1
60
0
100
AcDbTrace
10
288
20
-60.299914
30
0
11
283.825003
21
-61.225489
31
0
12
283.824997
22
-59.374338
32
0
13
283.824997
23
-59.374338
33
0
39
0
210
0
220
0
230
1
0
ENDBLK
5
3C5
100
AcDbEntity
8
0
100
AcDbBlockEnd
0
BLOCK
5
3CA
100
AcDbEntity
8
0
100
AcDbBlockBegin
2
*D9
70
1
10
0
20
0
30
0
3
*D9
0
LINE
5
3CC
100
AcDbEntity
8
0
62
256
6
ByLayer
370
-2
48
1
60
0
100
AcDbLine
10
286.4109
20
-17.0875
30
0
11
286.4109
21
-53.474914
31
0
39
0
210
0
220
0
230
1
0
LINE
5
3CD
100
AcDbEntity
8
0
62
256
6
ByLayer
370
-2
48
1
60
0
100
AcDbLine
10
288
20
-1.5875
30
0
11
288
21
-53.474914
31
0
39
0
210
0
220
0
230
1
0
LINE
5
3CE
100
AcDbEntity
8
0
62
256
6
ByLayer
370
-2
48
1
60
0
100
AcDbLine
10
288
20
-50.299914
30
0
11
323.494643
21
-50.299914
31
0
39
0
210
0
220
0
230
1
0
LINE
5
3CF
100
AcDbEntity
8
0
62
256
6
ByLayer
370
-2
48
1
60
0
100
AcDbLine
10
282.2359
20
-50.299914
30
0
11
278.0609
21
-50.299914
31
0
39
0
210
0
220
0
230
1
0
LINE
5
3D0
100
AcDbEntity
8
0
62
256
6
ByLayer
370
-2
48
1
60
0
100
AcDbLine
10
292.175
20
-50.299914
30
0
11
296.35
21
-50.299914
31
0
39
0
210
0
220
0
230
1
0
SOLID
5
3D1
100
AcDbEntity
8
0
62
256
6
ByLayer
370
-1
48
1
60
0
100
AcDbTrace
10
282.2359
20
-50.995747
30
0
11
282.2359
21
-49.60408
31
0
12
286.4109
22
-50.299914
32
0
13
286.4109
23
-50.299914
33
0
39
0
210
0
220
0
230
1
0
SOLID
5
3D2
100
AcDbEntity
8
0
62
256
6
ByLayer
370
-1
48
1
60
0
100
AcDbTrace
10
292.175
20
-49.60408
30
0
11
292.175
21
-50.995747
31
0
12
288
22
-50.299914
32
0
13
288
23
-50.299914
33
0
39
0
210
0
220
0
230
1
0
MTEXT
5
3D3
100
AcDbEntity
8
0
62
256
6
ByLayer
370
18
48
1
60
0
100
AcDbMText
10
309.922321
20
-40.906164
30
0
210
0
220
0
230
1
1
\A1;1.59
40
4.5
41
0
44
1
50
0
71
5
72
5
7
iso_b_vert
0
POINT
5
3D4
100
AcDbEntity
8
Defpoints
62
0
6
ByLayer
370
-1
48
1
60
0
100
AcDbPoint
10
286.4109
20
-15.5
30
0
39
0
210
0
220
0
230
1
50
360
0
POINT
5
3D5
100
AcDbEntity
8
Defpoints
62
0
6
ByLayer
370
-1
48
1
60
0
100
AcDbPoint
10
288
20
0
30
0
39
0
210
0
220
0
230
1
50
360
0
POINT
5
3D6
100
AcDbEntity
8
Defpoints
62
0
6
ByLayer
370
-1
48
1
60
0
100
AcDbPoint
10
288
20
-50.299914
30
0
39
0
210
0
220
0
230
1
50
360
0
ENDBLK
5
3CB
100
AcDbEntity
8
0
100
AcDbBlockEnd
0
BLOCK
5
3DE
100
AcDbEntity
8
0
100
AcDbBlockBegin
2
_U4
70
0
10
0
20
0
30
0
3
_U4
0
MTEXT
5
3D8
100
AcDbEntity
8
2
62
256
6
ByLayer
370
18
48
1
60
0
100
AcDbMText
10
300.351
20
-48.972242
30
0
210
0
220
0
230
1
1
\W0.6662;1.59
40
4.5
41
0
44
1.084337
50
0
71
7
72
5
7
iso_b_vert
0
LINE
5
3D9
100
AcDbEntity
8
2
62
256
6
ByLayer
370
13
48
1
60
0
100
AcDbLine
10
286.4109
20
-17.0875
30
0
11
286.4109
21
-53.474914
31
0
39
0
210
0
220
0
230
1
0
LINE
5
3DA
100
AcDbEntity
8
2
62
256
6
ByLayer
370
13
48
1
60
0
100
AcDbLine
10
288
20
-1.5875
30
0
11
288
21
-53.474914
31
0
39
0
210
0
220
0
230
1
0
LINE
5
3DB
100
AcDbEntity
8
2
62
256
6
ByLayer
370
13
48
1
60
0
100
AcDbLine
10
309.549041
20
-50.299914
30
0
11
275.1609
21
-50.299914
31
0
39
0
210
0
220
0
230
1
0
SOLID
5
3DC
100
AcDbEntity
8
2
62
256
6
ByLayer
370
18
48
1
60
0
100
AcDbTrace
10
286.4109
20
-50.299914
30
0
11
282.235903
21
-51.225489
31
0
12
282.235897
22
-49.374338
32
0
13
282.235897
23
-49.374338
33
0
39
0
210
0
220
0
230
1
0
SOLID
5
3DD
100
AcDbEntity
8
2
62
256
6
ByLayer
370
18
48
1
60
0
100
AcDbTrace
10
288
20
-50.299914
30
0
11
292.174997
21
-49.374338
31
0
12
292.175003
22
-51.225489
32
0
13
292.175003
23
-51.225489
33
0
39
0
210
0
220
0
230
1
0
ENDBLK
5
3DF
100
AcDbEntity
8
0
100
AcDbBlockEnd
0
ENDSEC
0
SECTION
2
ENTITIES
0
ARC
5
192
100
AcDbEntity
8
SK1
62
256
6
ByLayer
370
13
48
1
60
0
100
AcDbCircle
39
0
10
-77.894505
20
-25.396
30
0
40
0.799999999999979
210
0
220
0
230
1
100
AcDbArc
50
70.982
51
141
0
ARC
5
193
100
AcDbEntity
8
SK1
62
256
6
ByLayer
370
13
48
1
60
0
100
AcDbCircle
39
0
10
-77.894505
20
25.396
30
0
40
0.799999999999979
210
0
220
0
230
1
100
AcDbArc
50
219
51
289.018
0
ARC
5
194
100
AcDbEntity
8
SK1
62
256
6
ByLayer
370
13
48
1
60
0
100
AcDbCircle
39
0
10
-0.15
20
25.146
30
0
40
0.399999999999999
210
0
220
0
230
1
100
AcDbArc
50
270
51
292.024313
0
ARC
5
195
100
AcDbEntity
8
SK1
62
256
6
ByLayer
370
13
48
1
60
0
100
AcDbCircle
39
0
10
-0.15
20
-25.146
30
0
40
0.399999999999999
210
0
220
0
230
1
100
AcDbArc
50
67.975687
51
90
0
ARC
5
196
100
AcDbEntity
8
SK1
62
256
6
ByLayer
370
13
48
1
60
0
100
AcDbCircle
39
0
10
-1.375195
20
25.146
30
0
40
0.400000000000004
210
0
220
0
230
1
100
AcDbArc
50
245
51
270
0
ARC
5
197
100
AcDbEntity
8
SK1
62
256
6
ByLayer
370
13
48
1
60
0
100
AcDbCircle
39
0
10
-1.375195
20
-25.146
30
0
40
0.400000000000004
210
0
220
0
230
1
100
AcDbArc
50
90
51
115
0
ARC
5
198
100
AcDbEntity
8
1
62
256
6
ByLayer
370
13
48
1
60
0
100
AcDbCircle
39
0
10
284.075268
20
29.191933
30
0
40
0.2
210
0
220
0
230
1
100
AcDbArc
50
8.973565
51
93
0
ARC
5
199
100
AcDbEntity
8
1
62
256
6
ByLayer
370
13
48
1
60
0
100
AcDbCircle
39
0
10
284.266338
20
12.936184
30
0
40
0.2
210
0
220
0
230
1
100
AcDbArc
50
273
51
352.54557
0
ARC
5
19A
100
AcDbEntity
8
1
62
256
6
ByLayer
370
13
48
1
60
0
100
AcDbCircle
39
0
10
269.869
20
28.181695
30
0
40
0.2
210
0
220
0
230
1
100
AcDbArc
50
79.98854
51
93
0
ARC
5
19B
100
AcDbEntity
8
1
62
256
6
ByLayer
370
13
48
1
60
0
100
AcDbCircle
39
0
10
270.060069
20
11.925946
30
0
40
0.2
210
0
220
0
230
1
100
AcDbArc
50
273
51
303.773583
0
ELLIPSE
5
19C
100
AcDbEntity
8
1
62
256
6
ByLayer
370
18
48
1
60
0
100
AcDbEllipse
10
277.0001
20
-8.176603
30
0
11
2
21
0
31
0
210
0
220
0
230
1
40
0.994799
41
0.565682883471026
42
2.78138919778132
0
ELLIPSE
5
19D
100
AcDbEntity
8
1
62
256
6
ByLayer
370
18
48
1
60
0
100
AcDbEllipse
10
277.0001
20
-8.125672
30
0
11
-1.5
21
1.51595858262354E-15
31
0
210
0
220
0
230
1
40
0.994799
41
-2.74879548596978
42
-0.177892917939874
0
ELLIPSE
5
19E
100
AcDbEntity
8
1
62
256
6
ByLayer
370
13
48
1
60
0
100
AcDbEllipse
10
285.294412
20
28.981256
30
0
11
-0.0915879234251507
21
1.7476016858205
31
0
210
0
220
0
230
1
40
0.995562
41
-0.0245785262959559
42
-0.00872664626000519
0
ELLIPSE
5
19F
100
AcDbEntity
8
1
62
256
6
ByLayer
370
13
48
1
60
0
100
AcDbEllipse
10
269.290657
20
19.959859
30
0
11
-0.0366351693700605
21
0.699040674328204
31
0
210
0
220
0
230
1
40
0.995562
41
1.38753675533564
42
1.67551608191472
0
ELLIPSE
5
1A0
100
AcDbEntity
8
1
62
256
6
ByLayer
370
13
48
1
60
0
100
AcDbEllipse
10
284.821185
20
21.156788
30
0
11
0.044485562806501
21
-0.848835104541391
31
0
210
0
220
0
230
1
40
0.995562
41
1.38753675533562
42
1.67551608191474
0
ELLIPSE
5
1A1
100
AcDbEntity
8
1
62
256
6
ByLayer
370
13
48
1
60
0
100
AcDbEllipse
10
284.839981
20
21.157773
30
0
11
0.0366351693700596
21
-0.699040674328204
31
0
210
0
220
0
230
1
40
0.995562
41
1.38753675533564
42
1.67551608191472
0
ELLIPSE
5
1A2
100
AcDbEntity
8
1
62
256
6
ByLayer
370
13
48
1
60
0
100
AcDbEllipse
10
286.132933
20
12.0474
30
0
11
-0.0433887818674496
21
-0.261709360228109
31
0
210
0
220
0
230
1
40
0.938419
41
0.505433140775753
42
1.30197962221947
0
ELLIPSE
5
1A3
100
AcDbEntity
8
1
62
256
6
ByLayer
370
13
48
1
60
0
100
AcDbEllipse
10
283.867557
20
10.65124
30
0
11
-0.104671912485886
21
1.99725906950915
31
0
210
0
220
0
230
1
40
0.995562
41
-0.289833749671548
42
1.25523778179368E-12
0
ELLIPSE
5
1A4
100
AcDbEntity
8
1
62
256
6
ByLayer
370
13
48
1
60
0
100
AcDbEllipse
10
268.82213
20
12.135638
30
0
11
0.0994383168615901
21
-1.89739611603369
31
0
210
0
220
0
230
1
40
0.995562
41
-0.0245785262972323
42
-0.00872664626128365
0
ELLIPSE
5
1A5
100
AcDbEntity
8
1
62
256
6
ByLayer
370
13
48
1
60
0
100
AcDbEllipse
10
277.482693
20
12.639807
30
0
11
0.0104671912485884
21
-0.199725906950915
31
0
210
0
220
0
230
1
40
0.094108
41
0
42
1.5707963267949
0
ELLIPSE
5
1A6
100
AcDbEntity
8
1
62
256
6
ByLayer
370
13
48
1
60
0
100
AcDbEllipse
10
284.858777
20
21.158758
30
0
11
-0.0261679781214719
21
0.49931476737729
31
0
210
0
220
0
230
1
40
0.995562
41
-1.7540558982542
42
-1.46607657167509
0
ELLIPSE
5
1A7
100
AcDbEntity
8
1
62
256
6
ByLayer
370
13
48
1
60
0
100
AcDbEllipse
10
271.335969
20
9.994487
30
0
11
-0.109905508110182
21
2.09712202298462
31
0
210
0
220
0
230
1
40
0.995562
41
0.718961233329348
42
1.32121290077163
0
ELLIPSE
5
1A8
100
AcDbEntity
8
1
62
256
6
ByLayer
370
13
48
1
60
0
100
AcDbEllipse
10
267.363346
20
29.036987
30
0
11
-0.0433887818321729
21
-0.26170936024006
31
0
210
0
220
0
230
1
40
0.938419
41
-2.83001826193841
42
-2.21164798404879
0
ELLIPSE
5
1A9
100
AcDbEntity
8
1
62
256
6
ByLayer
370
13
48
1
60
0
100
AcDbEllipse
10
268.382273
20
10.386189
30
0
11
-0.00422000339726424
21
-0.149940626820509
31
0
210
0
220
0
230
1
40
0.093806
41
-1.56322900126248
42
-0.073750229675425
0
ELLIPSE
5
1AA
100
AcDbEntity
8
1
62
256
6
ByLayer
370
13
48
1
60
0
100
AcDbEllipse
10
285.728584
20
30.18142
30
0
11
0.0366351693700604
21
-0.699040674328219
31
0
210
0
220
0
230
1
40
0.995562
41
1.67551608191472
42
3.06145142476627
0
ELLIPSE
5
1AB
100
AcDbEntity
8
1
62
256
6
ByLayer
370
13
48
1
60
0
100
AcDbEllipse
10
268.608127
20
19.131911
30
0
11
-0.457939617125755
21
8.73800842910253
31
0
210
0
220
0
230
1
40
0.995562
41
3.06145142476612
42
3.11701412729373
0
ELLIPSE
5
1AC
100
AcDbEntity
8
1
62
256
6
ByLayer
370
13
48
1
60
0
100
AcDbEllipse
10
271.340668
20
9.994734
30
0
11
-0.109905508110182
21
2.09712202298462
31
0
210
0
220
0
230
1
40
0.995562
41
0.71896123332803
42
1.32121290077032
0
ELLIPSE
5
1AD
100
AcDbEntity
8
1
62
256
6
ByLayer
370
13
48
1
60
0
100
AcDbEllipse
10
267.464737
20
27.877998
30
0
11
0.0248313114065447
21
-0.147930409226201
31
0
210
0
220
0
230
1
40
0.093503
41
-3.04696247429819
42
-1.58149677263624
0
ELLIPSE
5
1AE
100
AcDbEntity
8
1
62
256
6
ByLayer
370
13
48
1
60
0
100
AcDbEllipse
10
285.02141
20
30.670964
30
0
11
-0.00261679781214707
21
0.0499314767377268
31
0
210
0
220
0
230
1
40
0.995562
41
-0.00872664625753618
42
1.32121290077164
0
ELLIPSE
5
1AF
100
AcDbEntity
8
1
62
256
6
ByLayer
370
13
48
1
60
0
100
AcDbEllipse
10
269.808807
20
11.572203
30
0
11
0.005233595624293
21
-0.0998629534754341
31
0
210
0
220
0
230
1
40
0.995562
41
0.718961233330649
42
1.67551608191507
0
ELLIPSE
5
1B0
100
AcDbEntity
8
1
62
256
6
ByLayer
370
13
48
1
60
0
100
AcDbEllipse
10
285.333525
20
21.092396
30
0
11
0.19830967214623
21
-0.0259475226804906
31
0
210
0
220
0
230
1
40
0.01715
41
0.000128612689366437
42
1.47811763731221
0
ELLIPSE
5
1B1
100
AcDbEntity
8
1
62
256
6
ByLayer
370
13
48
1
60
0
100
AcDbEllipse
10
268.454869
20
19.827086
30
0
11
-0.148164061728339
21
-0.0233968120084944
31
0
210
0
220
0
230
1
40
0.009837
41
-3.04785814605994
42
-1.47706181927047
0
ELLIPSE
5
1B2
100
AcDbEntity
8
1
62
256
6
ByLayer
370
13
48
1
60
0
100
AcDbEllipse
10
286.269388
20
30.267332
30
0
11
0.148164061728344
21
0.0233968120084646
31
0
210
0
220
0
230
1
40
0.009837
41
0.0937345075274513
42
1.66453083432196
0
ELLIPSE
5
1B3
100
AcDbEntity
8
1
62
256
6
ByLayer
370
13
48
1
60
0
100
AcDbEllipse
10
284.075268
20
29.191933
30
0
11
0.0104671912485884
21
-0.199725906950915
31
0
210
0
220
0
230
1
40
0.995562
41
3.14156912557421
42
-2.60644555906505
0
ELLIPSE
5
1B4
100
AcDbEntity
8
1
62
256
6
ByLayer
370
13
48
1
60
0
100
AcDbEllipse
10
269.092616
20
10.395732
30
0
11
0.00653707867981003
21
-0.149857487641873
31
0
210
0
220
0
230
1
40
0.094105
41
-1.56997142650778
42
-0.0234595020691452
0
ELLIPSE
5
1B5
100
AcDbEntity
8
1
62
256
6
ByLayer
370
13
48
1
60
0
100
AcDbEllipse
10
284.266338
20
12.936184
30
0
11
0.03476903136579
21
0.196954599991685
31
0
210
0
220
0
230
1
40
0.091713
41
-3.1204029628435
42
-1.54960663601664
0
ELLIPSE
5
1B6
100
AcDbEntity
8
1
62
256
6
ByLayer
370
13
48
1
60
0
100
AcDbEllipse
10
269.751095
20
30.439561
30
0
11
-1.9000144304899
21
1.34408422197858
31
0
210
0
220
0
230
1
40
0.758703
41
1.08025569956719
42
2.08597699580895
0
ELLIPSE
5
1B7
100
AcDbEntity
8
1
62
256
6
ByLayer
370
13
48
1
60
0
100
AcDbEllipse
10
284.075268
20
29.191933
30
0
11
-0.197552082304453
21
-0.0311957493446592
31
0
210
0
220
0
230
1
40
0.009837
41
1.66453083432053
42
-3.14150916145947
0
ELLIPSE
5
1B8
100
AcDbEntity
8
1
62
256
6
ByLayer
370
13
48
1
60
0
100
AcDbEllipse
10
269.869
20
28.181695
30
0
11
0.19830967214623
21
-0.0259475226804906
31
0
210
0
220
0
230
1
40
0.01715
41
1.47811763731419
42
3.04891396412278
0
ELLIPSE
5
1B9
100
AcDbEntity
8
1
62
256
6
ByLayer
370
13
48
1
60
0
100
AcDbEllipse
10
266.981797
20
19.930224
30
0
11
0.0366351693700616
21
-0.699040674328241
31
0
210
0
220
0
230
1
40
0.995562
41
-1.75405589825596
42
-1.46607657167663
0
ELLIPSE
5
1BA
100
AcDbEntity
8
1
62
256
6
ByLayer
370
13
48
1
60
0
100
AcDbEllipse
10
269.314152
20
19.961091
30
0
11
-0.0261679781214719
21
0.49931476737729
31
0
210
0
220
0
230
1
40
0.995562
41
1.3875367553356
42
1.6755160819147
0
ELLIPSE
5
1BB
100
AcDbEntity
8
1
62
256
6
ByLayer
370
13
48
1
60
0
100
AcDbEllipse
10
268.451633
20
20.071001
30
0
11
-0.148732254109673
21
0.0194606420103707
31
0
210
0
220
0
230
1
40
0.01715
41
1.47811763731086
42
3.04891396411238
0
ELLIPSE
5
1BC
100
AcDbEntity
8
1
62
256
6
ByLayer
370
13
48
1
60
0
100
AcDbEllipse
10
269.095132
20
10.44593
30
0
11
0.0104671912485883
21
-0.199725906950913
31
0
210
0
220
0
230
1
40
0.995562
41
-0.00872664625898387
42
1.32121290077048
0
ELLIPSE
5
1BD
100
AcDbEntity
8
1
62
256
6
ByLayer
370
13
48
1
60
0
100
AcDbEllipse
10
284.266338
20
12.936184
30
0
11
-0.19830967214623
21
0.0259475226804943
31
0
210
0
220
0
230
1
40
0.01715
41
-3.14146404085951
42
-1.66347501627678
0
ELLIPSE
5
1BE
100
AcDbEntity
8
1
62
256
6
ByLayer
370
13
48
1
60
0
100
AcDbEllipse
10
285.508414
20
21.984983
30
0
11
0.465790010562186
21
-8.88780285931572
31
0
210
0
220
0
230
1
40
0.995562
41
3.06145142476747
42
3.11701412729507
0
ELLIPSE
5
1BF
100
AcDbEntity
8
1
62
256
6
ByLayer
370
13
48
1
60
0
100
AcDbEllipse
10
285.674306
20
21.046386
30
0
11
0.148732254109673
21
-0.019460642010368
31
0
210
0
220
0
230
1
40
0.01715
41
-2.8547288977245
42
-1.66347501627403
0
ELLIPSE
5
1C0
100
AcDbEntity
8
1
62
256
6
ByLayer
370
13
48
1
60
0
100
AcDbEllipse
10
267.467627
20
27.864128
30
0
11
-0.0433887818374192
21
-0.261709360238352
31
0
210
0
220
0
230
1
40
0.938419
41
-2.83001826191987
42
-1.53436336028553
0
ELLIPSE
5
1C1
100
AcDbEntity
8
1
62
256
6
ByLayer
370
13
48
1
60
0
100
AcDbEllipse
10
285.040205
20
30.671949
30
0
11
0.0104671912485883
21
-0.199725906950913
31
0
210
0
220
0
230
1
40
0.995562
41
3.13286600733423
42
-1.82037975281667
0
ELLIPSE
5
1C2
100
AcDbEntity
8
1
62
256
6
ByLayer
370
13
48
1
60
0
100
AcDbEllipse
10
284.266338
20
12.936184
30
0
11
0.0104671912485884
21
-0.199725906950915
31
0
210
0
220
0
230
1
40
0.995562
41
-0.22611905429422
42
1.75822222209501E-05
0
ELLIPSE
5
1C3
100
AcDbEntity
8
1
62
256
6
ByLayer
370
13
48
1
60
0
100
AcDbEllipse
10
269.438415
20
30.423172
30
0
11
-2.48298737388513
21
1.51818044433424
31
0
210
0
220
0
230
1
40
0.47331
41
1.21630121036286
42
1.24195910665318
0
ELLIPSE
5
1C4
100
AcDbEntity
8
1
62
256
6
ByLayer
370
13
48
1
60
0
100
AcDbEllipse
10
285.671071
20
21.2903
30
0
11
0.148164061728344
21
0.0233968120084646
31
0
210
0
220
0
230
1
40
0.009837
41
1.66453083432423
42
2.85269002801737
0
ELLIPSE
5
1C5
100
AcDbEntity
8
1
62
256
6
ByLayer
370
13
48
1
60
0
100
AcDbEllipse
10
269.581048
20
28.283392
30
0
11
0.00523359562429254
21
-0.0998629534754254
31
0
210
0
220
0
230
1
40
0.995562
41
1.38753675533427
42
-3.02814625221028
0
ELLIPSE
5
1C6
100
AcDbEntity
8
1
62
256
6
ByLayer
370
13
48
1
60
0
100
AcDbEllipse
10
268.801813
20
20.025483
30
0
11
-0.19830967214623
21
0.0259475226804943
31
0
210
0
220
0
230
1
40
0.01715
41
-1.66347501627475
42
-0.0926786894794932
0
ELLIPSE
5
1C7
100
AcDbEntity
8
1
62
256
6
ByLayer
370
13
48
1
60
0
100
AcDbEllipse
10
284.549591
20
12.83424
30
0
11
0.00523359562429254
21
-0.0998629534754254
31
0
210
0
220
0
230
1
40
0.995562
41
-4.94053479599824E-06
42
0.113446401384661
0
ELLIPSE
5
1C8
100
AcDbEntity
8
1
62
256
6
ByLayer
370
13
48
1
60
0
100
AcDbEllipse
10
285.232107
20
30.730326
30
0
11
-0.00653707867981058
21
0.149857487641873
31
0
210
0
220
0
230
1
40
0.094105
41
0.000824900290362992
42
1.57162122708202
0
ELLIPSE
5
1C9
100
AcDbEntity
8
1
62
256
6
ByLayer
370
13
48
1
60
0
100
AcDbEllipse
10
286.661203
20
13.239388
30
0
11
0.00785039343644185
21
-0.149794430213196
31
0
210
0
220
0
230
1
40
0.995562
41
0.113446401373839
42
1.38753675533549
0
ELLIPSE
5
1CA
100
AcDbEntity
8
1
62
256
6
ByLayer
370
13
48
1
60
0
100
AcDbEllipse
10
269.518229
20
28.222694
30
0
11
-0.0420204304823723
21
-0.159048282702293
31
0
210
0
220
0
230
1
40
0.081731
41
-3.11535881189405
42
-1.54456248512414
0
ELLIPSE
5
1CB
100
AcDbEntity
8
1
62
256
6
ByLayer
370
13
48
1
60
0
100
AcDbEllipse
10
277.086465
20
20.559925
30
0
11
0.164592752017133
21
-3.14061679904836
31
0
210
0
220
0
230
1
40
0.995562
41
0
42
6.28318530717959
0
ELLIPSE
5
1CC
100
AcDbEntity
8
1
62
256
6
ByLayer
370
13
48
1
60
0
100
AcDbEllipse
10
269.518229
20
28.222694
30
0
11
-0.157457627822875
21
-0.0472734989256401
31
0
210
0
220
0
230
1
40
0.020424
41
-3.05807782802941
42
-1.48728150132263
0
ELLIPSE
5
1CD
100
AcDbEntity
8
1
62
256
6
ByLayer
370
13
48
1
60
0
100
AcDbEllipse
10
269.869
20
28.181695
30
0
11
-0.0347690313657913
21
-0.196954599991685
31
0
210
0
220
0
230
1
40
0.091713
41
1.59198601757287
42
-3.1204029627815
0
ELLIPSE
5
1CE
100
AcDbEntity
8
1
62
256
6
ByLayer
370
13
48
1
60
0
100
AcDbEllipse
10
284.55429
20
12.834487
30
0
11
0.00523359562429254
21
-0.0998629534754254
31
0
210
0
220
0
230
1
40
0.995562
41
-1.75405589825264
42
0.113446401380626
0
ELLIPSE
5
1CF
100
AcDbEntity
8
1
62
256
6
ByLayer
370
13
48
1
60
0
100
AcDbEllipse
10
269.576349
20
28.283146
30
0
11
0.00523359562429254
21
-0.0998629534754254
31
0
210
0
220
0
230
1
40
0.995562
41
1.38753675533599
42
3.14158945216323
0
ELLIPSE
5
1D0
100
AcDbEntity
8
1
62
256
6
ByLayer
370
13
48
1
60
0
100
AcDbEllipse
10
267.469436
20
27.878245
30
0
11
0.00785039343644185
21
-0.149794430213196
31
0
210
0
220
0
230
1
40
0.995562
41
-3.02814625221782
42
-1.75405589825584
0
ELLIPSE
5
1D1
100
AcDbEntity
8
1
62
256
6
ByLayer
370
13
48
1
60
0
100
AcDbEllipse
10
269.076336
20
10.444945
30
0
11
-0.00261679781214707
21
0.0499314767377268
31
0
210
0
220
0
230
1
40
0.995562
41
3.13286600733222
42
-1.82037975281815
0
ELLIPSE
5
1D2
100
AcDbEntity
8
1
62
256
6
ByLayer
370
13
48
1
60
0
100
AcDbEllipse
10
268.383259
20
10.935228
30
0
11
-0.0287847759336198
21
0.549246244115033
31
0
210
0
220
0
230
1
40
0.995562
41
1.67551608191468
42
3.06145142476614
0
ELLIPSE
5
1D3
100
AcDbEntity
8
1
62
256
6
ByLayer
370
13
48
1
60
0
100
AcDbEllipse
10
286.665902
20
13.239634
30
0
11
0.00785039343644185
21
-0.149794430213196
31
0
210
0
220
0
230
1
40
0.995562
41
0.113446401375041
42
1.38753675533665
0
ELLIPSE
5
1D4
100
AcDbEntity
8
1
62
256
6
ByLayer
370
13
48
1
60
0
100
AcDbEllipse
10
271.321872
20
9.993749
30
0
11
0.11775590154662
21
-2.2469164531978
31
0
210
0
220
0
230
1
40
0.995562
41
-2.41106345636184
42
-1.82037975281814
0
ELLIPSE
5
1D5
100
AcDbEntity
8
1
62
256
6
ByLayer
370
13
48
1
60
0
100
AcDbEllipse
10
285.743666
20
30.731197
30
0
11
0.00422000339726409
21
0.149940626820509
31
0
210
0
220
0
230
1
40
0.093806
41
0.00756732553151094
42
1.57836365232731
0
ELLIPSE
5
1D6
100
AcDbEntity
8
1
62
256
6
ByLayer
370
13
48
1
60
0
100
AcDbEllipse
10
282.984931
20
31.13313
30
0
11
-2.31073902296573
21
-1.76942205006468
31
0
210
0
220
0
230
1
40
0.473315
41
1.89964090334355
42
1.92529843056406
0
ELLIPSE
5
1D7
100
AcDbEntity
8
1
62
256
6
ByLayer
370
13
48
1
60
0
100
AcDbEllipse
10
287.153541
20
21.187655
30
0
11
0.0366351693700616
21
-0.699040674328241
31
0
210
0
220
0
230
1
40
0.995562
41
1.38753675533648
42
1.67551608191585
0
ELLIPSE
5
1D8
100
AcDbEntity
8
1
62
256
6
ByLayer
370
13
48
1
60
0
100
AcDbEllipse
10
270.060069
20
11.925946
30
0
11
0.197552082304459
21
0.0311957493446195
31
0
210
0
220
0
230
1
40
0.009837
41
-3.04785814606629
42
-1.47706181926692
0
ELLIPSE
5
1D9
100
AcDbEntity
8
1
62
256
6
ByLayer
370
13
48
1
60
0
100
AcDbEllipse
10
284.986691
20
30.681511
30
0
11
0.147123305935859
21
-0.0292358145175358
31
0
210
0
220
0
230
1
40
0.023245
41
3.05024863021846
42
-1.66214035016936
0
ELLIPSE
5
1DA
100
AcDbEntity
8
1
62
256
6
ByLayer
370
13
48
1
60
0
100
AcDbEllipse
10
266.436294
20
19.844066
30
0
11
-0.148164061728339
21
-0.0233968120084944
31
0
210
0
220
0
230
1
40
0.009837
41
-1.47706181926745
42
-0.267630172928025
0
ELLIPSE
5
1DB
100
AcDbEntity
8
1
62
256
6
ByLayer
370
13
48
1
60
0
100
AcDbEllipse
10
276.981192
20
20.554407
30
0
11
0.156043507061188
21
-2.97748748746711
31
0
210
0
220
0
230
1
40
0.995562
41
0
42
6.28318530717959
0
ELLIPSE
5
1DC
100
AcDbEntity
8
1
62
256
6
ByLayer
370
13
48
1
60
0
100
AcDbEllipse
10
286.667711
20
13.253751
30
0
11
-0.0433887818513502
21
-0.261709360233816
31
0
210
0
220
0
230
1
40
0.938419
41
0.311574391719269
42
1.6072292933631
0
ELLIPSE
5
1DD
100
AcDbEntity
8
1
62
256
6
ByLayer
370
13
48
1
60
0
100
AcDbEllipse
10
286.26377
20
12.342543
30
0
11
-0.223427008642754
21
-1.09873081311994
31
0
210
0
220
0
230
1
40
0.060635
41
1.06536319148818
42
1.25922194473373
0
ELLIPSE
5
1DE
100
AcDbEntity
8
1
62
256
6
ByLayer
370
13
48
1
60
0
100
AcDbEllipse
10
270.267781
20
30.466639
30
0
11
-0.104671912485886
21
1.99725906950915
31
0
210
0
220
0
230
1
40
0.995562
41
2.85175890391565
42
3.14159265358845
0
ELLIPSE
5
1DF
100
AcDbEntity
8
1
62
256
6
ByLayer
370
13
48
1
60
0
100
AcDbEllipse
10
283.350872
20
10.624162
30
0
11
-1.52607791222082
21
-1.67412290957141
31
0
210
0
220
0
230
1
40
0.751206
41
2.5828898675659
42
-2.78125477170174
0
ELLIPSE
5
1E0
100
AcDbEntity
8
1
62
256
6
ByLayer
370
13
48
1
60
0
100
AcDbEllipse
10
266.963001
20
19.929239
30
0
11
-0.0287847759336209
21
0.549246244115055
31
0
210
0
220
0
230
1
40
0.995562
41
1.38753675533518
42
1.67551608191446
0
ELLIPSE
5
1E1
100
AcDbEntity
8
1
62
256
6
ByLayer
370
13
48
1
60
0
100
AcDbEllipse
10
287.148842
20
21.187409
30
0
11
0.0366351693700616
21
-0.699040674328241
31
0
210
0
220
0
230
1
40
0.995562
41
1.38753675533516
42
1.67551608191455
0
ELLIPSE
5
1E2
100
AcDbEntity
8
1
62
256
6
ByLayer
370
13
48
1
60
0
100
AcDbEllipse
10
266.4342
20
20.001893
30
0
11
-0.148732254109673
21
0.0194606420103707
31
0
210
0
220
0
230
1
40
0.01715
41
-0.0926786894801983
42
1.47811763731388
0
ELLIPSE
5
1E3
100
AcDbEntity
8
1
62
256
6
ByLayer
370
13
48
1
60
0
100
AcDbEllipse
10
287.134745
20
21.18667
30
0
11
-0.0287847759336209
21
0.549246244115055
31
0
210
0
220
0
230
1
40
0.995562
41
-1.75405589825462
42
-1.46607657167533
0
ELLIPSE
5
1E4
100
AcDbEntity
8
1
62
256
6
ByLayer
370
13
48
1
60
0
100
AcDbEllipse
10
285.714487
20
30.180681
30
0
11
-0.0287847759336198
21
0.549246244115033
31
0
210
0
220
0
230
1
40
0.995562
41
-1.46607657167512
42
-0.0801412288235379
0
ELLIPSE
5
1E5
100
AcDbEntity
8
1
62
256
6
ByLayer
370
13
48
1
60
0
100
AcDbEllipse
10
287.689646
20
21.273321
30
0
11
0.148164061728344
21
0.0233968120084646
31
0
210
0
220
0
230
1
40
0.009837
41
0.0937345075322811
42
1.66453083432158
0
ELLIPSE
5
1E6
100
AcDbEntity
8
1
62
256
6
ByLayer
370
13
48
1
60
0
100
AcDbEllipse
10
284.983564
20
30.68333
30
0
11
0.0126644888425784
21
-0.241652842685455
31
0
210
0
220
0
230
1
40
0.995562
41
-2.96705972838875
42
-1.82037975281702
0
ELLIPSE
5
1E7
100
AcDbEntity
8
1
62
256
6
ByLayer
370
13
48
1
60
0
100
AcDbEllipse
10
277.006755
20
20.555747
30
0
11
0.161488764830061
21
-3.08138919525489
31
0
210
0
220
0
230
1
40
0.995562
41
-0.832617303636141
42
0
0
ELLIPSE
5
1E8
100
AcDbEntity
8
1
62
256
6
ByLayer
370
13
48
1
60
0
100
AcDbEllipse
10
277.006755
20
20.555747
30
0
11
0.161488764830061
21
-3.08138919525489
31
0
210
0
220
0
230
1
40
0.995562
41
0
42
-2.30896949140968
0
ELLIPSE
5
1E9
100
AcDbEntity
8
1
62
256
6
ByLayer
370
13
48
1
60
0
100
AcDbEllipse
10
269.869
20
28.181695
30
0
11
0.0104671912485884
21
-0.199725906950915
31
0
210
0
220
0
230
1
40
0.995562
41
-3.14157046250209
42
-1.75405589825547
0
ELLIPSE
5
1EA
100
AcDbEntity
8
1
62
256
6
ByLayer
370
13
48
1
60
0
100
AcDbEllipse
10
282.155611
20
31.089654
30
0
11
0.104671912485884
21
-1.99725906950915
31
0
210
0
220
0
230
1
40
0.995562
41
0
42
0.289833749674143
0
ELLIPSE
5
1EB
100
AcDbEntity
8
1
62
256
6
ByLayer
370
13
48
1
60
0
100
AcDbEllipse
10
268.402055
20
10.936213
30
0
11
0.0366351693700604
21
-0.699040674328219
31
0
210
0
220
0
230
1
40
0.995562
41
-1.46607657167647
42
-0.0801412288248316
0
ELLIPSE
5
1EC
100
AcDbEntity
8
1
62
256
6
ByLayer
370
13
48
1
60
0
100
AcDbEllipse
10
268.866233
20
10.386077
30
0
11
0.00415024464891671
21
-0.149942573905326
31
0
210
0
220
0
230
1
40
0.09408
41
-1.56847321010714
42
-0.0396676110919675
0
ELLIPSE
5
1ED
100
AcDbEntity
8
1
62
256
6
ByLayer
370
13
48
1
60
0
100
AcDbEllipse
10
282.79467
20
31.123145
30
0
11
-0.104671912485887
21
1.99725906950915
31
0
210
0
220
0
230
1
40
0.995562
41
-3.14159265358857
42
-1.82037975281687
0
ELLIPSE
5
1EE
100
AcDbEntity
8
1
62
256
6
ByLayer
370
13
48
1
60
0
100
AcDbEllipse
10
285.503715
20
21.984736
30
0
11
0.465790010562186
21
-8.88780285931572
31
0
210
0
220
0
230
1
40
0.995562
41
3.06145142476615
42
3.11701412729376
0
ELLIPSE
5
1EF
100
AcDbEntity
8
1
62
256
6
ByLayer
370
13
48
1
60
0
100
AcDbEllipse
10
284.075268
20
29.191933
30
0
11
-0.111182483439546
21
0.166248174053778
31
0
210
0
220
0
230
1
40
0.080951
41
-1.61896516661963
42
-0.0481688398273337
0
ELLIPSE
5
1F0
100
AcDbEntity
8
1
62
256
6
ByLayer
370
13
48
1
60
0
100
AcDbEllipse
10
285.033324
20
30.721655
30
0
11
-0.00653707867981058
21
0.149857487641873
31
0
210
0
220
0
230
1
40
0.094105
41
0.000824900286336043
42
1.57162122708202
0
ELLIPSE
5
1F1
100
AcDbEntity
8
1
62
256
6
ByLayer
370
13
48
1
60
0
100
AcDbEllipse
10
267.464737
20
27.877998
30
0
11
-0.148732254109673
21
0.0194606420103707
31
0
210
0
220
0
230
1
40
0.01715
41
0.265915951172916
42
1.47811763731991
0
ELLIPSE
5
1F2
100
AcDbEntity
8
1
62
256
6
ByLayer
370
13
48
1
60
0
100
AcDbEllipse
10
286.661203
20
13.239388
30
0
11
0.148732254109673
21
-0.019460642010368
31
0
210
0
220
0
230
1
40
0.01715
41
-1.66347501628164
42
-0.0926786894767254
0
ELLIPSE
5
1F3
100
AcDbEntity
8
1
62
256
6
ByLayer
370
13
48
1
60
0
100
AcDbEllipse
10
285.489618
20
21.983997
30
0
11
-0.457939617125755
21
8.73800842910253
31
0
210
0
220
0
230
1
40
0.995562
41
-0.0801412288236447
42
-0.0245785262960327
0
ELLIPSE
5
1F4
100
AcDbEntity
8
1
62
256
6
ByLayer
370
13
48
1
60
0
100
AcDbEllipse
10
268.893833
20
10.38706
30
0
11
0.00653707867981003
21
-0.149857487641873
31
0
210
0
220
0
230
1
40
0.094105
41
-1.56997142650778
42
0.000824900286336043
0
ELLIPSE
5
1F5
100
AcDbEntity
8
1
62
256
6
ByLayer
370
13
48
1
60
0
100
AcDbEllipse
10
285.313207
20
28.982241
30
0
11
0.0994383168615901
21
-1.89739611603369
31
0
210
0
220
0
230
1
40
0.995562
41
3.11701412729515
42
3.13286600733115
0
ELLIPSE
5
1F6
100
AcDbEntity
8
1
62
256
6
ByLayer
370
13
48
1
60
0
100
AcDbEllipse
10
268.626923
20
19.132897
30
0
11
0.465790010562186
21
-8.88780285931572
31
0
210
0
220
0
230
1
40
0.995562
41
-0.0801412288249803
42
-0.0245785262973699
0
ELLIPSE
5
1F7
100
AcDbEntity
8
1
62
256
6
ByLayer
370
13
48
1
60
0
100
AcDbEllipse
10
285.308508
20
28.981995
30
0
11
0.0994383168615901
21
-1.89739611603369
31
0
210
0
220
0
230
1
40
0.995562
41
3.11701412729386
42
3.13286600732986
0
ELLIPSE
5
1F8
100
AcDbEntity
8
1
62
256
6
ByLayer
370
13
48
1
60
0
100
AcDbEllipse
10
269.139249
20
10.435875
30
0
11
-0.147123305935858
21
0.0292358145175381
31
0
210
0
220
0
230
1
40
0.023245
41
1.47945230342048
42
3.05024863021846
0
ELLIPSE
5
1F9
100
AcDbEntity
8
1
62
256
6
ByLayer
370
13
48
1
60
0
100
AcDbEllipse
10
284.764536
20
30.671851
30
0
11
-0.279576450835464
21
-0.21408466958606
31
0
210
0
220
0
230
1
40
0.473311
41
-2.36298044737384
42
-1.21630047177548
0
ELLIPSE
5
1FA
100
AcDbEntity
8
1
62
256
6
ByLayer
370
13
48
1
60
0
100
AcDbEllipse
10
268.803334
20
12.134653
30
0
11
-0.0915879234251507
21
1.7476016858205
31
0
210
0
220
0
230
1
40
0.995562
41
3.11701412729377
42
3.13286600732979
0
ELLIPSE
5
1FB
100
AcDbEntity
8
1
62
256
6
ByLayer
370
13
48
1
60
0
100
AcDbEllipse
10
282.672296
20
31.116732
30
0
11
-1.74911089440876
21
-1.5353267765844
31
0
210
0
220
0
230
1
40
0.758703
41
1.05561565777833
42
2.06133695402079
0
ELLIPSE
5
1FC
100
AcDbEntity
8
1
62
256
6
ByLayer
370
13
48
1
60
0
100
AcDbEllipse
10
284.607711
20
12.894693
30
0
11
-0.157457627801451
21
-0.0472734989192308
31
0
210
0
220
0
230
1
40
0.020424
41
-1.48728150130573
42
-0.275077962955603
0
ELLIPSE
5
1FD
100
AcDbEntity
8
1
62
256
6
ByLayer
370
13
48
1
60
0
100
AcDbEllipse
10
269.090433
20
10.445684
30
0
11
0.0104671912485883
21
-0.199725906950913
31
0
210
0
220
0
230
1
40
0.995562
41
0.0115983514803294
42
1.32121290077166
0
ELLIPSE
5
1FE
100
AcDbEntity
8
1
62
256
6
ByLayer
370
13
48
1
60
0
100
AcDbEllipse
10
285.733283
20
30.181666
30
0
11
0.0366351693700604
21
-0.699040674328219
31
0
210
0
220
0
230
1
40
0.995562
41
1.67551608191602
42
3.0614514247675
0
ELLIPSE
5
1FF
100
AcDbEntity
8
1
62
256
6
ByLayer
370
13
48
1
60
0
100
AcDbEllipse
10
286.132933
20
12.0474
30
0
11
-0.0433887689279818
21
-0.261709366762784
31
0
210
0
220
0
230
1
40
0.938419
41
0.311574340487732
42
0.505433087761158
0
ELLIPSE
5
200
100
AcDbEntity
8
1
62
256
6
ByLayer
370
13
48
1
60
0
100
AcDbEllipse
10
285.331622
20
21.235875
30
0
11
0.197552082304459
21
0.0311957493446195
31
0
210
0
220
0
230
1
40
0.009837
41
-1.47706181926955
42
8.3492114068389E-05
0
ELLIPSE
5
201
100
AcDbEntity
8
1
62
256
6
ByLayer
370
13
48
1
60
0
100
AcDbEllipse
10
270.060069
20
11.925946
30
0
11
0.111182483439532
21
-0.166248174053786
31
0
210
0
220
0
230
1
40
0.080951
41
-1.97154896616634E-05
42
1.52262748697044
0
ELLIPSE
5
202
100
AcDbEntity
8
1
62
256
6
ByLayer
370
13
48
1
60
0
100
AcDbEllipse
10
270.060069
20
11.925946
30
0
11
0.0104671912485884
21
-0.199725906950915
31
0
210
0
220
0
230
1
40
0.995562
41
-1.46607657167646
42
-2.46857419309716E-05
0
ELLIPSE
5
203
100
AcDbEntity
8
1
62
256
6
ByLayer
370
13
48
1
60
0
100
AcDbEllipse
10
267.856552
20
10.850055
30
0
11
-0.148164061728339
21
-0.0233968120084944
31
0
210
0
220
0
230
1
40
0.009837
41
-1.47706181926783
42
0.0937345075274513
0
ELLIPSE
5
204
100
AcDbEntity
8
1
62
256
6
ByLayer
370
13
48
1
60
0
100
AcDbEllipse
10
285.259707
20
30.73131
30
0
11
-0.00415024464891743
21
0.149942573905326
31
0
210
0
220
0
230
1
40
0.09408
41
0.00232311668849371
42
1.57311944348265
0
ELLIPSE
5
205
100
AcDbEntity
8
1
62
256
6
ByLayer
370
13
48
1
60
0
100
AcDbEllipse
10
267.716819
20
29.778418
30
0
11
-0.30042284330947
21
0.183688194597541
31
0
210
0
220
0
230
1
40
0.473311
41
-1.92529218180328
42
-0.778612206220181
0
ELLIPSE
5
206
100
AcDbEntity
8
1
62
256
6
ByLayer
370
13
48
1
60
0
100
AcDbEllipse
10
282.79467
20
31.123145
30
0
11
-0.109905508110182
21
2.09712202298462
31
0
210
0
220
0
230
1
40
0.995562
41
-2.42263142025913
42
-1.82037975281682
0
ELLIPSE
5
207
100
AcDbEntity
8
1
62
256
6
ByLayer
370
13
48
1
60
0
100
AcDbEllipse
10
269.276561
20
19.959121
30
0
11
0.044485562806501
21
-0.848835104541391
31
0
210
0
220
0
230
1
40
0.995562
41
-1.75405589825425
42
-1.46607657167505
0
ELLIPSE
5
208
100
AcDbEntity
8
1
62
256
6
ByLayer
370
13
48
1
60
0
100
AcDbEllipse
10
268.803716
20
19.882004
30
0
11
-0.197552082304453
21
-0.0311957493446592
31
0
210
0
220
0
230
1
40
0.009837
41
0.0937345075298485
42
1.66453083432364
0
ELLIPSE
5
209
100
AcDbEntity
8
1
62
256
6
ByLayer
370
13
48
1
60
0
100
AcDbEllipse
10
271.340668
20
9.994734
30
0
11
-0.104671912485887
21
1.99725906950915
31
0
210
0
220
0
230
1
40
0.995562
41
0
42
1.32121290077028
0
ELLIPSE
5
20A
100
AcDbEntity
8
1
62
256
6
ByLayer
370
13
48
1
60
0
100
AcDbEllipse
10
269.295356
20
19.960106
30
0
11
0.0366351693700596
21
-0.699040674328204
31
0
210
0
220
0
230
1
40
0.995562
41
-1.75405589825423
42
-1.46607657167508
0
ELLIPSE
5
20B
100
AcDbEntity
8
1
62
256
6
ByLayer
370
13
48
1
60
0
100
AcDbEllipse
10
276.652645
20
28.478072
30
0
11
0.0104671912485884
21
-0.199725906950915
31
0
210
0
220
0
230
1
40
0.094108
41
1.5707963267949
42
3.14159265358677
0
ELLIPSE
5
20C
100
AcDbEntity
8
1
62
256
6
ByLayer
370
13
48
1
60
0
100
AcDbEllipse
10
269.813506
20
11.572449
30
0
11
0.005233595624293
21
-0.0998629534754341
31
0
210
0
220
0
230
1
40
0.995562
41
0.718961233330596
42
1.67551608191335
0
ELLIPSE
5
20D
100
AcDbEntity
8
1
62
256
6
ByLayer
370
13
48
1
60
0
100
AcDbEllipse
10
283.228498
20
10.617748
30
0
11
0.104671912485884
21
-1.99725906950915
31
0
210
0
220
0
230
1
40
0.995562
41
2.05518407321829
42
2.70662470115588
0
ELLIPSE
5
20E
100
AcDbEntity
8
1
62
256
6
ByLayer
370
13
48
1
60
0
100
AcDbEllipse
10
284.607711
20
12.894693
30
0
11
-0.0420204304848503
21
-0.159048282708042
31
0
210
0
220
0
230
1
40
0.081731
41
-1.5445624850401
42
0.026233841689211
0
ELLIPSE
5
20F
100
AcDbEntity
8
1
62
256
6
ByLayer
370
13
48
1
60
0
100
AcDbEllipse
10
284.321831
20
29.54543
30
0
11
0.005233595624293
21
-0.0998629534754341
31
0
210
0
220
0
230
1
40
0.995562
41
-2.42263142025666
42
-1.46607657167358
0
ELLIPSE
5
210
100
AcDbEntity
8
1
62
256
6
ByLayer
370
13
48
1
60
0
100
AcDbEllipse
10
287.69174
20
21.115494
30
0
11
0.148732254109673
21
-0.019460642010368
31
0
210
0
220
0
230
1
40
0.01715
41
-1.66347501627554
42
-0.0926786894815734
0
ELLIPSE
5
211
100
AcDbEntity
8
1
62
256
6
ByLayer
370
13
48
1
60
0
100
AcDbEllipse
10
286.661203
20
13.239388
30
0
11
-0.0248313114065695
21
0.147930409226196
31
0
210
0
220
0
230
1
40
0.093503
41
1.56009588091224
42
3.13089220773175
0
ELLIPSE
5
212
100
AcDbEntity
8
1
62
256
6
ByLayer
370
13
48
1
60
0
100
AcDbEllipse
10
269.151774
20
10.434549
30
0
11
0.0126644888425784
21
-0.241652842685455
31
0
210
0
220
0
230
1
40
0.995562
41
0.174532925198186
42
1.32121290077035
0
ELLIPSE
5
213
100
AcDbEntity
8
1
62
256
6
ByLayer
370
13
48
1
60
0
100
AcDbEllipse
10
282.775874
20
31.12216
30
0
11
0.11775590154662
21
-2.2469164531978
31
0
210
0
220
0
230
1
40
0.995562
41
0.730529197227956
42
1.32121290077166
0
ELLIPSE
5
214
100
AcDbEntity
8
1
62
256
6
ByLayer
370
13
48
1
60
0
100
AcDbEllipse
10
276.798362
20
-7.937792
30
0
11
2
21
0
31
0
210
0
220
0
230
1
40
0.994799
41
0.400160571960888
42
2.74594852344602
0
ELLIPSE
5
215
100
AcDbEntity
8
1
62
256
6
ByLayer
370
13
48
1
60
0
100
AcDbEllipse
10
286.515532
20
14.244749
30
0
11
0.162241464353121
21
-3.09575155773918
31
0
210
0
220
0
230
1
40
0.995562
41
-0.998377754702052
42
-0.804393367027689
0
ELLIPSE
5
216
100
AcDbEntity
8
1
62
256
6
ByLayer
370
13
48
1
60
0
100
AcDbEllipse
10
299.132642
20
-6E-06
30
0
11
-316.905856868758
21
0.149325186840557
31
0
210
0
220
0
230
1
40
0.094396
41
-1.45184521853772
42
-1.42551419460108
0
ELLIPSE
5
217
100
AcDbEntity
8
1
62
256
6
ByLayer
370
13
48
1
60
0
100
AcDbEllipse
10
288.840269
20
0
30
0
11
-3.6853643935905
21
-30.2219692264146
31
0
210
0
220
0
230
1
40
0.11614
41
-1.3136798426919
42
-0.0842383080636963
0
ELLIPSE
5
218
100
AcDbEntity
8
1
62
256
6
ByLayer
370
13
48
1
60
0
100
AcDbEllipse
10
259.5
20
7.393308
30
0
11
-5.79206534017479
21
2.02183143896123
31
0
210
0
220
0
230
1
40
0.774486
41
1.41929923810142
42
1.81952332105832
0
ELLIPSE
5
219
100
AcDbEntity
8
1
62
256
6
ByLayer
370
13
48
1
60
0
100
AcDbEllipse
10
265.900521
20
10.551272
30
0
11
-0.293740802135514
21
-0.955885108766104
31
0
210
0
220
0
230
1
40
0.088433
41
-1.53847716189235
42
-7.17550777156761E-06
0
ELLIPSE
5
21A
100
AcDbEntity
8
1
62
256
6
ByLayer
370
13
48
1
60
0
100
AcDbEllipse
10
266.095321
20
15.19589
30
0
11
-0.0261679781214718
21
0.499314767377288
31
0
210
0
220
0
230
1
40
0.995562
41
-2.31498441521978
42
-1.46607657167521
0
ELLIPSE
5
21B
100
AcDbEntity
8
1
62
256
6
ByLayer
370
13
48
1
60
0
100
AcDbEllipse
10
285.956018
20
-18.13309
30
0
11
-0.0642435132006964
21
-0.516024878295343
31
0
210
0
220
0
230
1
40
0.112657
41
-1.63918773446201
42
-0.0683914076683081
0
ELLIPSE
5
21C
100
AcDbEntity
8
1
62
256
6
ByLayer
370
13
48
1
60
0
100
AcDbEllipse
10
275.152433
20
11.496284
30
0
11
0.0523359562429422
21
-0.998629534754574
31
0
210
0
220
0
230
1
40
0.094108
41
-1.5707963267949
42
0
0
ELLIPSE
5
21D
100
AcDbEntity
8
1
62
256
6
ByLayer
370
13
48
1
60
0
100
AcDbEllipse
10
272.175737
20
11.540556
30
0
11
-0.0261679781214717
21
0.499314767377287
31
0
210
0
220
0
230
1
40
0.995562
41
0.9272952169561
42
1.13183444118519
0
ELLIPSE
5
21E
100
AcDbEntity
8
1
62
256
6
ByLayer
370
13
48
1
60
0
100
AcDbEllipse
10
284.929321
20
-19.314621
30
0
11
-0.296228161331899
21
-2.49726619332331
31
0
210
0
220
0
230
1
40
0.116465
41
0
42
6.28318530717959
0
ELLIPSE
5
21F
100
AcDbEntity
8
1
62
256
6
ByLayer
370
13
48
1
60
0
100
AcDbEllipse
10
289.505193
20
2.848458
30
0
11
-5.82834535924331
21
-2.01881238277046
31
0
210
0
220
0
230
1
40
0.860261
41
-0.377579963738021
42
-0.230027894042822
0
ELLIPSE
5
220
100
AcDbEntity
8
1
62
256
6
ByLayer
370
13
48
1
60
0
100
AcDbEllipse
10
268.226214
20
12.86567
30
0
11
0.162241464353121
21
-3.09575155773918
31
0
210
0
220
0
230
1
40
0.995562
41
0.0839997461781989
42
1.07850402440021
0
ELLIPSE
5
221
100
AcDbEntity
8
1
62
256
6
ByLayer
370
13
48
1
60
0
100
AcDbEllipse
10
268.855876
20
12.898669
30
0
11
0.162241464353121
21
-3.09575155773918
31
0
210
0
220
0
230
1
40
0.995562
41
-2.3149844152196
42
-0.582560016270412
0
ELLIPSE
5
222
100
AcDbEntity
8
1
62
256
6
ByLayer
370
13
48
1
60
0
100
AcDbEllipse
10
281.033575
20
-8.905016
30
0
11
-6.03298799456699
21
-0.0270073346170964
31
0
210
0
220
0
230
1
40
0.989349
41
3.00697131963781
42
-2.98979064307463
0
ELLIPSE
5
223
100
AcDbEntity
8
1
62
256
6
ByLayer
370
13
48
1
60
0
100
AcDbEllipse
10
286.16248
20
14.226246
30
0
11
-0.0949745053914196
21
3.0990747041046
31
0
210
0
220
0
230
1
40
0.525311
41
2.84736577847179
42
3.12470771457716
0
ELLIPSE
5
224
100
AcDbEntity
8
1
62
256
6
ByLayer
370
13
48
1
60
0
100
AcDbEllipse
10
268.424245
20
19.152375
30
0
11
-0.471023606186491
21
8.98766581279117
31
0
210
0
220
0
230
1
40
0.995562
41
2.79252680319576
42
2.96271820098507
0
ELLIPSE
5
225
100
AcDbEntity
8
1
62
256
6
ByLayer
370
13
48
1
60
0
100
AcDbEllipse
10
1108.108178
20
0
30
0
11
-1305.50193759425
21
22.7028308104542
31
0
210
0
220
0
230
1
40
0.015284
41
0.868514028593245
42
0.887541689204031
0
ELLIPSE
5
226
100
AcDbEntity
8
1
62
256
6
ByLayer
370
13
48
1
60
0
100
AcDbEllipse
10
267.847889
20
12.845843
30
0
11
-2.7431016527412
21
2.20554169007462
31
0
210
0
220
0
230
1
40
0.772244
41
3.1369452473071
42
-2.77548047999743
0
ELLIPSE
5
227
100
AcDbEntity
8
1
62
256
6
ByLayer
370
13
48
1
60
0
100
AcDbEllipse
10
285.703745
20
12.049255
30
0
11
-0.0186968036633734
21
1.00038621474156
31
0
210
0
220
0
230
1
40
0.105085
41
-3.13805285157546
42
-2.50517626731599
0
ELLIPSE
5
228
100
AcDbEntity
8
1
62
256
6
ByLayer
370
13
48
1
60
0
100
AcDbEllipse
10
275.634149
20
0.506434
30
0
11
0.575695518672363
21
-10.9849248823003
31
0
210
0
220
0
230
1
40
0.995562
41
-3.14159265358979
42
-2.82366807128868
0
ELLIPSE
5
229
100
AcDbEntity
8
1
62
256
6
ByLayer
370
13
48
1
60
0
100
AcDbEllipse
10
286.24949
20
-2.537028
30
0
11
-2.64056349625284
21
4.16085080784909
31
0
210
0
220
0
230
1
40
0.390308
41
-0.988017718840675
42
-0.851652805457964
0
ELLIPSE
5
22A
100
AcDbEntity
8
1
62
256
6
ByLayer
370
13
48
1
60
0
100
AcDbEllipse
10
279.067166
20
15.306387
30
0
11
-1.97200939885856
21
-2.45265019003307
31
0
210
0
220
0
230
1
40
0.965978
41
0.712391850166209
42
1.04314259793915
0
ELLIPSE
5
22B
100
AcDbEntity
8
1
62
256
6
ByLayer
370
13
48
1
60
0
100
AcDbEllipse
10
291.715302
20
0.725625
30
0
11
-6.03298808739627
21
-0.0270077376034351
31
0
210
0
220
0
230
1
40
0.989349
41
0.0308276230518958
42
0.151801943306725
0
ELLIPSE
5
22C
100
AcDbEntity
8
1
62
256
6
ByLayer
370
13
48
1
60
0
100
AcDbEllipse
10
286.131945
20
0
30
0
11
-5.12483817890598
21
30.2217783695789
31
0
210
0
220
0
230
1
40
0.086107
41
1.59396874720786
42
1.73956439407276
0
ELLIPSE
5
22D
100
AcDbEntity
8
1
62
256
6
ByLayer
370
13
48
1
60
0
100
AcDbEllipse
10
286.440778
20
11.499991
30
0
11
-0.0190934195946282
21
-0.501606840107923
31
0
210
0
220
0
230
1
40
0.197189
41
-0.688891549972817
42
-0.331191944131883
0
ELLIPSE
5
22E
100
AcDbEntity
8
1
62
256
6
ByLayer
370
13
48
1
60
0
100
AcDbEllipse
10
286.323929
20
10.466399
30
0
11
-0.00934840182157038
21
0.500193107179487
31
0
210
0
220
0
230
1
40
0.105085
41
1.92340197921501
42
-2.78898700117883
0
ELLIPSE
5
22F
100
AcDbEntity
8
1
62
256
6
ByLayer
370
13
48
1
60
0
100
AcDbEllipse
10
276.798362
20
-8.436918
30
0
11
2
21
0
31
0
210
0
220
0
230
1
40
0.994799
41
2.40204203293385
42
2.59181376230999
0
ELLIPSE
5
230
100
AcDbEntity
8
1
62
256
6
ByLayer
370
13
48
1
60
0
100
AcDbEllipse
10
275.728129
20
0.511359
30
0
11
-0.523359562429434
21
9.98629534754574
31
0
210
0
220
0
230
1
40
0.995562
41
0
42
0.317924582301111
0
ELLIPSE
5
231
100
AcDbEntity
8
1
62
256
6
ByLayer
370
13
48
1
60
0
100
AcDbEllipse
10
259.5
20
8.650791
30
0
11
-4
21
4.04255622032945E-15
31
0
210
0
220
0
230
1
40
0.761191
41
-3.09720894413502
42
-1.6995572514098
0
ELLIPSE
5
232
100
AcDbEntity
8
1
62
256
6
ByLayer
370
13
48
1
60
0
100
AcDbEllipse
10
268.452381
20
0
30
0
11
-1.59828655113313
21
30.2246234968512
31
0
210
0
220
0
230
1
40
0.094396
41
-0.100106496070414
42
-0.00499222077442157
0
ELLIPSE
5
233
100
AcDbEntity
8
1
62
256
6
ByLayer
370
13
48
1
60
0
100
AcDbEllipse
10
271.85448
20
11.52372
30
0
11
-0.318066032275084
21
-0.395588740119488
31
0
210
0
220
0
230
1
40
0.965978
41
-2.0696285585844
42
-1.29736636166882
0
ELLIPSE
5
234
100
AcDbEntity
8
1
62
256
6
ByLayer
370
13
48
1
60
0
100
AcDbEllipse
10
222.520051
20
0
30
0
11
-320.189824239613
21
0.150871736833211
31
0
210
0
220
0
230
1
40
0.094396
41
-1.76285717317799
42
-1.71275956885918
0
ELLIPSE
5
235
100
AcDbEntity
8
1
62
256
6
ByLayer
370
13
48
1
60
0
100
AcDbEllipse
10
302.616559
20
16.536568
30
0
11
-25.034439654976
21
-4.38968712920186
31
0
210
0
220
0
230
1
40
0.01478
41
0.451698397383213
42
0.455846628031814
0
ELLIPSE
5
236
100
AcDbEntity
8
1
62
256
6
ByLayer
370
13
48
1
60
0
100
AcDbEllipse
10
286.281218
20
0.136068
30
0
11
-0.021009243307906
21
1.01116907472161
31
0
210
0
220
0
230
1
40
0.102343
41
-0.116743489283234
42
1.06639259715954
0
ELLIPSE
5
237
100
AcDbEntity
8
1
62
256
6
ByLayer
370
13
48
1
60
0
100
AcDbEllipse
10
283.60901
20
12.139749
30
0
11
-0.0261679781214718
21
0.499314767377289
31
0
210
0
220
0
230
1
40
0.995562
41
-0.998377754702263
42
-0.927295218001585
0
ELLIPSE
5
238
100
AcDbEntity
8
1
62
256
6
ByLayer
370
13
48
1
60
0
100
AcDbEllipse
10
299.132789
20
-0.000141
30
0
11
-320.190580442033
21
0.150886849719018
31
0
210
0
220
0
230
1
40
0.094396
41
-1.47068957657735
42
-1.46249982477084
0
ELLIPSE
5
239
100
AcDbEntity
8
1
62
256
6
ByLayer
370
13
48
1
60
0
100
AcDbEllipse
10
268.883294
20
20.519358
30
0
11
0.162241464353121
21
-3.09575155773918
31
0
210
0
220
0
230
1
40
0.995562
41
-2.2343055907902
42
-1.46607657167525
0
ELLIPSE
5
23A
100
AcDbEntity
8
1
62
256
6
ByLayer
370
13
48
1
60
0
100
AcDbEllipse
10
270.516814
20
11.139748
30
0
11
1.49975373857894
21
0.0271794707661986
31
0
210
0
220
0
230
1
40
0.340502
41
-1.53279213818726
42
-1.51222596037017
0
ELLIPSE
5
23B
100
AcDbEntity
8
1
62
256
6
ByLayer
370
13
48
1
60
0
100
AcDbEllipse
10
268.179224
20
12.863208
30
0
11
-0.136073486231653
21
2.59643679036189
31
0
210
0
220
0
230
1
40
0.995562
41
2.40144888609818
42
2.9799801399012
0
ELLIPSE
5
23C
100
AcDbEntity
8
1
62
256
6
ByLayer
370
13
48
1
60
0
100
AcDbEllipse
10
268.179224
20
12.863208
30
0
11
-0.136073486231653
21
2.59643679036189
31
0
210
0
220
0
230
1
40
0.995562
41
-2.68543658663368
42
-2.07675099364108
0
ELLIPSE
5
23D
100
AcDbEntity
8
1
62
256
6
ByLayer
370
13
48
1
60
0
100
AcDbEllipse
10
276.798362
20
-7.937792
30
0
11
-2.1
21
2.12234201567296E-15
31
0
210
0
220
0
230
1
40
0.994799
41
-2.71580886420331
42
-0.435601775017782
0
ELLIPSE
5
23E
100
AcDbEntity
8
1
62
256
6
ByLayer
370
13
48
1
60
0
100
AcDbEllipse
10
268.090465
20
11.326456
30
0
11
-4.04277875680652
21
-0.708917705421523
31
0
210
0
220
0
230
1
40
0.014774
41
-3.02036303278439
42
-2.6613398353252
0
ELLIPSE
5
23F
100
AcDbEntity
8
1
62
256
6
ByLayer
370
13
48
1
60
0
100
AcDbEllipse
10
268.855876
20
12.898669
30
0
11
0.162241464353121
21
-3.09575155773918
31
0
210
0
220
0
230
1
40
0.995562
41
0.615809199294388
42
1.13183444118514
0
ELLIPSE
5
240
100
AcDbEntity
8
1
62
256
6
ByLayer
370
13
48
1
60
0
100
AcDbEllipse
10
268.586953
20
12.884576
30
0
11
-1.97200940306758
21
-2.45265018751423
31
0
210
0
220
0
230
1
40
0.965978
41
1.55736417686983
42
1.84422629285577
0
ELLIPSE
5
241
100
AcDbEntity
8
1
62
256
6
ByLayer
370
13
48
1
60
0
100
AcDbEllipse
10
271.762681
20
10.766626
30
0
11
0.363113722374463
21
-0.931744828063651
31
0
210
0
220
0
230
1
40
0.089392
41
-1.60033673645362
42
-0.0295404096592328
0
ELLIPSE
5
242
100
AcDbEntity
8
1
62
256
6
ByLayer
370
13
48
1
60
0
100
AcDbEllipse
10
299.268164
20
0
30
0
11
-60.4906710082466
21
25.3144735544014
31
0
210
0
220
0
230
1
40
0.263512
41
0.866932432133411
42
0.971425611259304
0
ELLIPSE
5
243
100
AcDbEntity
8
1
62
256
6
ByLayer
370
13
48
1
60
0
100
AcDbEllipse
10
268.518224
20
19.1573
30
0
11
0.523359562429422
21
-9.98629534754574
31
0
210
0
220
0
230
1
40
0.995562
41
-5.9690219677485E-07
42
0.31792458230111
0
ELLIPSE
5
244
100
AcDbEntity
8
1
62
256
6
ByLayer
370
13
48
1
60
0
100
AcDbEllipse
10
276.541145
20
11.769338
30
0
11
-4.0427787536951
21
-0.708917704863593
31
0
210
0
220
0
230
1
40
0.014774
41
-3.0203630326586
42
-2.68601592100306
0
ELLIPSE
5
245
100
AcDbEntity
8
1
62
256
6
ByLayer
370
13
48
1
60
0
100
AcDbEllipse
10
286.177064
20
0.129182
30
0
11
-0.010504621646883
21
0.505584537062615
31
0
210
0
220
0
230
1
40
0.102343
41
-0.116743489317902
42
0.289687633164547
0
ELLIPSE
5
246
100
AcDbEntity
8
1
62
256
6
ByLayer
370
13
48
1
60
0
100
AcDbEllipse
10
259.5
20
2.098883
30
0
11
-0.604627003169347
21
16.6791045149941
31
0
210
0
220
0
230
1
40
0.3579
41
-0.538961501839235
42
-0.363205705783024
0
ELLIPSE
5
247
100
AcDbEntity
8
1
62
256
6
ByLayer
370
13
48
1
60
0
100
AcDbEllipse
10
268.424245
20
19.152375
30
0
11
-0.471023606186491
21
8.98766581279117
31
0
210
0
220
0
230
1
40
0.995562
41
-2.9294690179611
42
-2.82366807128868
0
ELLIPSE
5
248
100
AcDbEntity
8
1
62
256
6
ByLayer
370
18
48
1
60
0
100
AcDbEllipse
10
278.13055
20
21.357311
30
0
11
-0.213369888113739
21
0.330824637124742
31
0
210
0
220
0
230
1
40
0.48863
41
0.291405465522271
42
1.57326889139404
0
ELLIPSE
5
249
100
AcDbEntity
8
1
62
256
6
ByLayer
370
18
48
1
60
0
100
AcDbEllipse
10
276.892243
20
20.549746
30
0
11
0.0675290843402685
21
-1.28853168869383
31
0
210
0
220
0
230
1
40
0.995562
41
2.09439510239319
42
3.14159265358975
0
ELLIPSE
5
24A
100
AcDbEntity
8
1
62
256
6
ByLayer
370
18
48
1
60
0
100
AcDbEllipse
10
277.04026
20
20.557503
30
0
11
-0.0942047212372984
21
1.79753316255823
31
0
210
0
220
0
230
1
40
0.995562
41
0
42
6.28318530717959
0
ELLIPSE
5
24B
100
AcDbEntity
8
1
62
256
6
ByLayer
370
18
48
1
60
0
100
AcDbEllipse
10
276.814613
20
22.031013
30
0
11
-0.391813266884165
21
-0.0205340632126114
31
0
210
0
220
0
230
1
40
0.491907
41
0.288932900933556
42
1.5707963267949
0
ELLIPSE
5
24C
100
AcDbEntity
8
1
62
256
6
ByLayer
370
18
48
1
60
0
100
AcDbEllipse
10
277.04026
20
20.557503
30
0
11
0.0877359970456684
21
-1.67410255206257
31
0
210
0
220
0
230
1
40
0.995562
41
-1.5707963267949
42
-0.523598775598303
0
ELLIPSE
5
24D
100
AcDbEntity
8
1
62
256
6
ByLayer
370
18
48
1
60
0
100
AcDbEllipse
10
277.04026
20
20.557503
30
0
11
0.0877359970456684
21
-1.67410255206257
31
0
210
0
220
0
230
1
40
0.995562
41
-0.523598775598303
42
0.523598775598307
0
ELLIPSE
5
24E
100
AcDbEntity
8
1
62
256
6
ByLayer
370
18
48
1
60
0
100
AcDbEllipse
10
276.222081
20
19.228199
30
0
11
-0.349414799997419
21
0.179424606472473
31
0
210
0
220
0
230
1
40
0.490808
41
2.51659138569073
42
-2.9432065453974
0
ELLIPSE
5
24F
100
AcDbEntity
8
1
62
256
6
ByLayer
370
18
48
1
60
0
100
AcDbEllipse
10
276.892243
20
20.549746
30
0
11
0.0675290843402685
21
-1.28853168869383
31
0
210
0
220
0
230
1
40
0.995562
41
-0.77140860887011
42
0
0
ELLIPSE
5
250
100
AcDbEntity
8
1
62
256
6
ByLayer
370
18
48
1
60
0
100
AcDbEllipse
10
277.04026
20
20.557503
30
0
11
0.0877359970456684
21
-1.67410255206257
31
0
210
0
220
0
230
1
40
0.995562
41
2.61799387799153
42
-2.61799387799147
0
ELLIPSE
5
251
100
AcDbEntity
8
1
62
256
6
ByLayer
370
18
48
1
60
0
100
AcDbEllipse
10
276.965077
20
20.553563
30
0
11
-0.149157475292389
21
2.84609417405054
31
0
210
0
220
0
230
1
40
0.995562
41
0
42
3.1414943057158
0
ELLIPSE
5
252
100
AcDbEntity
8
1
62
256
6
ByLayer
370
18
48
1
60
0
100
AcDbEllipse
10
277.562405
20
21.871293
30
0
11
-0.349414799997423
21
0.179424606472462
31
0
210
0
220
0
230
1
40
0.490808
41
2.9481876787158
42
-0.625002372329218
0
ELLIPSE
5
253
100
AcDbEntity
8
1
62
256
6
ByLayer
370
18
48
1
60
0
100
AcDbEllipse
10
278.20818
20
19.876043
30
0
11
-0.177620434615951
21
-0.351315571664931
31
0
210
0
220
0
230
1
40
0.48863
41
-2.85513231724231
42
-1.57326889138605
0
ELLIPSE
5
254
100
AcDbEntity
8
1
62
256
6
ByLayer
370
18
48
1
60
0
100
AcDbEllipse
10
278.13055
20
21.357311
30
0
11
-0.213369888118314
21
0.330824637126997
31
0
210
0
220
0
230
1
40
0.48863
41
1.57326889137971
42
2.85513231724071
0
ELLIPSE
5
255
100
AcDbEntity
8
1
62
256
6
ByLayer
370
18
48
1
60
0
100
AcDbEllipse
10
276.892243
20
20.549746
30
0
11
0.0675290843402685
21
-1.28853168869383
31
0
210
0
220
0
230
1
40
0.995562
41
1.0471975511966
42
2.0943951023932
0
ELLIPSE
5
256
100
AcDbEntity
8
1
62
256
6
ByLayer
370
18
48
1
60
0
100
AcDbEllipse
10
277.032817
20
20.557113
30
0
11
-0.149157475292389
21
2.84609417405054
31
0
210
0
220
0
230
1
40
0.995562
41
0
42
6.28318530717959
0
ELLIPSE
5
257
100
AcDbEntity
8
1
62
256
6
ByLayer
370
18
48
1
60
0
100
AcDbEllipse
10
276.969873
20
19.068479
30
0
11
-0.391813266877951
21
-0.0205340632124686
31
0
210
0
220
0
230
1
40
0.491907
41
-1.5707963267949
42
-0.28893290093592
0
ELLIPSE
5
258
100
AcDbEntity
8
1
62
256
6
ByLayer
370
18
48
1
60
0
100
AcDbEllipse
10
276.892243
20
20.549746
30
0
11
0.0675290843402685
21
-1.28853168869383
31
0
210
0
220
0
230
1
40
0.995562
41
-3.14159265358975
42
-2.35315137984981
0
ELLIPSE
5
259
100
AcDbEntity
8
1
62
256
6
ByLayer
370
18
48
1
60
0
100
AcDbEllipse
10
277.04026
20
20.557503
30
0
11
0.0877359970456684
21
-1.67410255206257
31
0
210
0
220
0
230
1
40
0.995562
41
1.5707963267949
42
2.61799387799153
0
ELLIPSE
5
25A
100
AcDbEntity
8
1
62
256
6
ByLayer
370
18
48
1
60
0
100
AcDbEllipse
10
277.04026
20
20.557503
30
0
11
0.0877359970456684
21
-1.67410255206257
31
0
210
0
220
0
230
1
40
0.995562
41
0.523598775598307
42
1.5707963267949
0
ELLIPSE
5
25B
100
AcDbEntity
8
1
62
256
6
ByLayer
370
18
48
1
60
0
100
AcDbEllipse
10
277.696873
20
19.30549
30
0
11
-0.328745690776193
21
-0.214965491791417
31
0
210
0
220
0
230
1
40
0.490808
41
0.673312264881209
42
-2.94818767871621
0
ELLIPSE
5
25C
100
AcDbEntity
8
1
62
256
6
ByLayer
370
18
48
1
60
0
100
AcDbEllipse
10
278.367036
20
20.627036
30
0
11
-0.0206256003553439
21
0.393559899646839
31
0
210
0
220
0
230
1
40
0.48755
41
-2.94567009995482
42
-0.195925507338518
0
ELLIPSE
5
25D
100
AcDbEntity
8
1
62
256
6
ByLayer
370
18
48
1
60
0
100
AcDbEllipse
10
276.892243
20
20.549746
30
0
11
0.0675290843402685
21
-1.28853168869383
31
0
210
0
220
0
230
1
40
0.995562
41
-1.89285840703661
42
-1.23277995487282
0
ELLIPSE
5
25E
100
AcDbEntity
8
1
62
256
6
ByLayer
370
18
48
1
60
0
100
AcDbEllipse
10
278.20818
20
19.876043
30
0
11
-0.177620434612144
21
-0.351315571660261
31
0
210
0
220
0
230
1
40
0.48863
41
-1.57326889139201
42
-0.29140546552034
0
ELLIPSE
5
25F
100
AcDbEntity
8
1
62
256
6
ByLayer
370
18
48
1
60
0
100
AcDbEllipse
10
276.892243
20
20.549746
30
0
11
-0.06752908434027
21
1.28853168869383
31
0
210
0
220
0
230
1
40
0.995562
41
-3.03775684415657
42
-2.0943951023932
0
ELLIPSE
5
260
100
AcDbEntity
8
1
62
256
6
ByLayer
370
18
48
1
60
0
100
AcDbEllipse
10
277.04026
20
20.557503
30
0
11
0.0877359970456684
21
-1.67410255206257
31
0
210
0
220
0
230
1
40
0.995562
41
-2.61799387799147
42
-1.5707963267949
0
ELLIPSE
5
261
100
AcDbEntity
8
1
62
256
6
ByLayer
370
18
48
1
60
0
100
AcDbEllipse
10
276.087613
20
21.794002
30
0
11
-0.328745690776174
21
-0.214965491791425
31
0
210
0
220
0
230
1
40
0.490808
41
2.94320654539725
42
-2.46828145615019
0
POINT
5
70
100
AcDbEntity
8
1
62
256
6
ByLayer
370
18
48
1
60
0
100
AcDbPoint
10
0
20
0
30
0
39
0
210
0
220
0
230
1
50
360
0
POINT
5
72
100
AcDbEntity
8
80
62
256
6
ByLayer
370
18
48
1
60
0
100
AcDbPoint
10
0
20
0
30
0
39
0
210
0
220
0
230
1
50
360
0
POINT
5
74
100
AcDbEntity
8
81
62
256
6
ByLayer
370
18
48
1
60
0
100
AcDbPoint
10
288
20
0
30
0
39
0
210
0
220
0
230
1
50
360
0
POINT
5
76
100
AcDbEntity
8
1
62
256
6
ByLayer
370
18
48
1
60
1
100
AcDbPoint
10
0
20
-31.25
30
0
39
0
210
0
220
0
230
1
50
360
0
POINT
5
77
100
AcDbEntity
8
1
62
256
6
ByLayer
370
18
48
1
60
1
100
AcDbPoint
10
288
20
-31
30
0
39
0
210
0
220
0
230
1
50
360
0
POINT
5
78
100
AcDbEntity
8
1
62
256
6
ByLayer
370
18
48
1
60
1
100
AcDbPoint
10
-80
20
-25
30
0
39
0
210
0
220
0
230
1
50
360
0
POINT
5
79
100
AcDbEntity
8
1
62
256
6
ByLayer
370
18
48
1
60
1
100
AcDbPoint
10
0
20
-31.25
30
0
39
0
210
0
220
0
230
1
50
360
0
POINT
5
7A
100
AcDbEntity
8
1
62
256
6
ByLayer
370
18
48
1
60
1
100
AcDbPoint
10
288
20
-31
30
0
39
0
210
0
220
0
230
1
50
360
0
POINT
5
7B
100
AcDbEntity
8
1
62
256
6
ByLayer
370
18
48
1
60
1
100
AcDbPoint
10
5.7344
20
-31.25
30
0
39
0
210
0
220
0
230
1
50
360
0
POINT
5
7C
100
AcDbEntity
8
1
62
256
6
ByLayer
370
18
48
1
60
1
100
AcDbPoint
10
35
20
-31
30
0
39
0
210
0
220
0
230
1
50
360
0
POINT
5
7D
100
AcDbEntity
8
1
62
256
6
ByLayer
370
18
48
1
60
1
100
AcDbPoint
10
288
20
-31
30
0
39
0
210
0
220
0
230
1
50
360
0
POINT
5
7E
100
AcDbEntity
8
1
62
256
6
ByLayer
370
18
48
1
60
1
100
AcDbPoint
10
286.4109
20
-15.5
30
0
39
0
210
0
220
0
230
1
50
360
0
SPLINE
5
262
100
AcDbEntity
8
SK1
62
256
6
ByLayer
370
13
48
1
60
0
100
AcDbSpline
70
4
71
3
72
8
73
4
40
0
40
0
40
0
40
0
40
1
40
1
40
1
40
1
41
1
10
-78.5162221138915
20
-10.4258292340309
30
0
41
1
10
-78.5439104435588
20
-10.5074660802026
30
0
41
1
10
-78.5718376779285
20
-10.5890166857158
30
0
41
1
10
-78.5999993841625
20
-10.6704826507519
30
0
0
SPLINE
5
263
100
AcDbEntity
8
SK1
62
256
6
ByLayer
370
13
48
1
60
0
100
AcDbSpline
70
4
71
3
72
74
73
70
40
0
40
0
40
0
40
0
40
0.0156249999999999
40
0.0156249999999999
40
0.0234374999999999
40
0.0234374999999999
40
0.0312499999999998
40
0.0312499999999998
40
0.0468749999999997
40
0.0468749999999997
40
0.0624999999999996
40
0.0624999999999996
40
0.0781249999999995
40
0.0781249999999995
40
0.0937499999999994
40
0.0937499999999994
40
0.124999999999999
40
0.124999999999999
40
0.140624999999999
40
0.140624999999999
40
0.156249999999999
40
0.156249999999999
40
0.187499999999999
40
0.187499999999999
40
0.249999999999999
40
0.249999999999999
40
0.281249999999999
40
0.281249999999999
40
0.312499999999999
40
0.312499999999999
40
0.374999999999999
40
0.374999999999999
40
0.437499999999999
40
0.437499999999999
40
0.499999999999999
40
0.499999999999999
40
0.562499999999999
40
0.562499999999999
40
0.593749999999999
40
0.593749999999999
40
0.624999999999999
40
0.624999999999999
40
0.687499999999999
40
0.687499999999999
40
0.749999999999999
40
0.749999999999999
40
0.781249999999999
40
0.781249999999999
40
0.812499999999999
40
0.812499999999999
40
0.84375
40
0.84375
40
0.875
40
0.875
40
0.90625
40
0.90625
40
0.9375
40
0.9375
40
0.9453125
40
0.9453125
40
0.953125
40
0.953125
40
0.96875
40
0.96875
40
0.984375
40
0.984375
40
0.9921875
40
0.9921875
40
1
40
1
40
1
40
1
41
1
10
-6.50000000009537
20
10.670482650752
30
0
41
1
10
-6.37048388891068
20
10.6704826507608
30
0
41
1
10
-6.24446776465052
20
10.6528697557375
30
0
41
1
10
-6.06010517952292
20
10.6029156441243
30
0
41
1
10
-5.99927461449792
20
10.5821925812253
30
0
41
1
10
-5.88223506583904
20
10.5345394314587
30
0
41
1
10
-5.82559748012396
20
10.5075199899682
30
0
41
1
10
-5.66065779452136
20
10.417975973631
30
0
41
1
10
-5.55712762892128
20
10.3466184036529
30
0
41
1
10
-5.36736536971405
20
10.1913586531549
30
0
41
1
10
-5.27997153671004
20
10.1068512703449
30
0
41
1
10
-5.11666218977227
20
9.92704332772249
30
0
41
1
10
-5.04055810401205
20
9.83130794393438
30
0
41
1
10
-4.90046448763793
20
9.63491798753748
30
0
41
1
10
-4.83603834410378
20
9.53382715843213
30
0
41
1
10
-4.65598112089407
20
9.22347109153861
30
0
41
1
10
-4.55339976152399
20
9.00719880738419
30
0
41
1
10
-4.41750582616754
20
8.67228763084432
30
0
41
1
10
-4.37530268897782
20
8.55891791867154
30
0
41
1
10
-4.29686000058592
20
8.33134323345735
30
0
41
1
10
-4.26049265592715
20
8.21682554312125
30
0
41
1
10
-4.1585724311424
20
7.87130398108656
30
0
41
1
10
-4.10013853486055
20
7.63834185023578
30
0
41
1
10
-3.94578977994675
20
6.93282891322849
30
0
41
1
10
-3.87048459563749
20
6.45370790232082
30
0
41
1
10
-3.78175631324949
20
5.72457369042985
30
0
41
1
10
-3.75634074966133
20
5.47976683985843
30
0
41
1
10
-3.7120067271199
20
4.98691048522593
30
0
41
1
10
-3.69308648223611
20
4.73862820397792
30
0
41
1
10
-3.64424139462162
20
3.99444565639502
30
0
41
1
10
-3.62191393829291
20
3.49753056604814
30
0
41
1
10
-3.58913059568964
20
2.50225576491911
30
0
41
1
10
-3.57872244966512
20
2.00389538867495
30
0
41
1
10
-3.56529013292472
20
1.00580199142325
30
0
41
1
10
-3.56228022077386
20
0.506068785393097
30
0
41
1
10
-3.56223334097642
20
-0.494754197166372
30
0
41
1
10
-3.56519357916225
20
-0.995843898846687
30
0
41
1
10
-3.57526735092097
20
-1.74852495498422
30
0
41
1
10
-3.57958751937886
20
-1.99959349362723
30
0
41
1
10
-3.59064705878916
20
-2.50209075145548
30
0
41
1
10
-3.59739709579894
20
-2.75385038007658
30
0
41
1
10
-3.62227132036486
20
-3.50710000839359
30
0
41
1
10
-3.64484459181701
20
-4.00580366741292
30
0
41
1
10
-3.71010606722081
20
-4.99571816607528
30
0
41
1
10
-3.75268745857275
20
-5.48693664959626
30
0
41
1
10
-3.84180186701059
20
-6.21737273914593
30
0
41
1
10
-3.87576317934641
20
-6.45978205407948
30
0
41
1
10
-3.95487127334194
20
-6.94225537606115
30
0
41
1
10
-3.99994180570394
20
-7.18182085753699
30
0
41
1
10
-4.10416683371689
20
-7.65518824089065
30
0
41
1
10
-4.16332953330694
20
-7.88926779084468
30
0
41
1
10
-4.30073575990994
20
-8.35126379883343
30
0
41
1
10
-4.37869000461005
20
-8.57819056735369
30
0
41
1
10
-4.55882768232694
20
-9.01890405609001
30
0
41
1
10
-4.66096064418579
20
-9.23316248710555
30
0
41
1
10
-4.9012460930548
20
-9.6450662502447
30
0
41
1
10
-5.04044720826909
20
-9.84412891865716
30
0
41
1
10
-5.24436673816899
20
-10.0673788314332
30
0
41
1
10
-5.28672193295479
20
-10.1108128419076
30
0
41
1
10
-5.37506018490618
20
-10.1949099292502
30
0
41
1
10
-5.42113974977889
20
-10.2356293471388
30
0
41
1
10
-5.56352602684599
20
-10.3512474104622
30
0
41
1
10
-5.66447995477702
20
-10.4202823836625
30
0
41
1
10
-5.88197798496884
20
-10.5378913469096
30
0
41
1
10
-6.00024980803649
20
-10.5867345345007
30
0
41
1
10
-6.18283559041274
20
-10.6361515407661
30
0
41
1
10
-6.24478714200797
20
-10.6488401790656
30
0
41
1
10
-6.37105473569075
20
-10.6660269221224
30
0
41
1
10
-6.43557318110055
20
-10.6704826507564
30
0
41
1
10
-6.50000000009538
20
-10.6704826507521
30
0
0
SPLINE
5
264
100
AcDbEntity
8
SK1
62
256
6
ByLayer
370
13
48
1
60
0
100
AcDbSpline
70
4
71
3
72
18
73
14
40
0
40
0
40
0
40
0
40
0.124999999999994
40
0.124999999999994
40
0.249999999999988
40
0.249999999999988
40
0.374999999999981
40
0.374999999999981
40
0.499999999999975
40
0.499999999999975
40
0.749999999999988
40
0.749999999999988
40
1
40
1
40
1
40
1
41
1
10
-77.6338131992802
20
-9.80675144594582
30
0
41
1
10
-77.6747633651724
20
-9.77128805754603
30
0
41
1
10
-77.7208435774768
20
-9.74055738411698
30
0
41
1
10
-77.8223424340443
20
-9.70060949890774
30
0
41
1
10
-77.877225313581
20
-9.69229190808377
30
0
41
1
10
-77.9860246497556
20
-9.7051085468637
30
0
41
1
10
-78.0378757025226
20
-9.72573581195073
30
0
41
1
10
-78.1301404068999
20
-9.78251362708681
30
0
41
1
10
-78.1717204994047
20
-9.81892837813635
30
0
41
1
10
-78.2826414870913
20
-9.93741839107241
30
0
41
1
10
-78.3411195831128
20
-10.0300646017818
30
0
41
1
10
-78.4407354299096
20
-10.2228684878255
30
0
41
1
10
-78.4816839215995
20
-10.3239961106508
30
0
41
1
10
-78.5162221138915
20
-10.4258292340309
30
0
0
SPLINE
5
265
100
AcDbEntity
8
SK1
62
256
6
ByLayer
370
13
48
1
60
0
100
AcDbSpline
70
4
71
3
72
8
73
4
40
0
40
0
40
0
40
0
40
1
40
1
40
1
40
1
41
1
10
-77.6338131992799
20
9.80675144594619
30
0
41
1
10
-77.2939543866941
20
10.101073698597
30
0
41
1
10
-76.9490850005699
20
10.3886250228495
30
0
41
1
10
-76.6000022063887
20
10.6704826507521
30
0
0
SPLINE
5
266
100
AcDbEntity
8
SK1
62
256
6
ByLayer
370
13
48
1
60
0
100
AcDbSpline
70
4
71
3
72
8
73
4
40
0
40
0
40
0
40
0
40
1
40
1
40
1
40
1
41
1
10
-79
20
-10.6704826507519
30
0
41
1
10
-79.3663118043068
20
-9.81238370995035
30
0
41
1
10
-79.7021882940637
20
-8.9413126460914
30
0
41
1
10
-80
20
-8.05401763097143
30
0
0
SPLINE
5
267
100
AcDbEntity
8
SK1
62
256
6
ByLayer
370
13
48
1
60
0
100
AcDbSpline
70
4
71
3
72
22
73
18
40
0
40
0
40
0
40
0
40
0.250000000000013
40
0.250000000000013
40
0.375000000000011
40
0.375000000000011
40
0.500000000000009
40
0.500000000000009
40
0.625000000000006
40
0.625000000000006
40
0.687500000000005
40
0.687500000000005
40
0.750000000000004
40
0.750000000000004
40
0.875000000000002
40
0.875000000000002
40
1
40
1
40
1
40
1
41
1
10
-78.5162221138982
20
10.4258292340508
30
0
41
1
10
-78.4816010925007
20
10.3237518956136
30
0
41
1
10
-78.4411780188043
20
10.2239013321123
30
0
41
1
10
-78.3666785250411
20
10.0794467030181
30
0
41
1
10
-78.3393689035363
20
10.0320610579929
30
0
41
1
10
-78.2793566754053
20
9.94200016242738
30
0
41
1
10
-78.2466129799402
20
9.89906478118272
30
0
41
1
10
-78.1725895963645
20
9.81972659981167
30
0
41
1
10
-78.1310790894698
20
9.78319125007499
30
0
41
1
10
-78.0614135112523
20
9.74017151629329
30
0
41
1
10
-78.0367084860757
20
9.72773410304424
30
0
41
1
10
-77.9859900462305
20
9.70877612675764
30
0
41
1
10
-77.9597650984162
20
9.7020911495909
30
0
41
1
10
-77.8779326920127
20
9.69222679373803
30
0
41
1
10
-77.8229289559465
20
9.7004005561752
30
0
41
1
10
-77.720518632779
20
9.74066343125068
30
0
41
1
10
-77.6749703009745
20
9.77110884838677
30
0
41
1
10
-77.6338131992791
20
9.806751445945
30
0
0
SPLINE
5
268
100
AcDbEntity
8
SK1
62
256
6
ByLayer
370
13
48
1
60
0
100
AcDbSpline
70
4
71
3
72
10
73
6
40
0
40
0
40
0
40
0
40
0.5
40
0.5
40
1
40
1
40
1
40
1
41
1
10
-80
20
8.0540176309716
30
0
41
1
10
-79.85176739512
20
8.49565927489135
30
0
41
1
10
-79.6935189817436
20
8.93491944720282
30
0
41
1
10
-79.3587118244384
20
9.80908612108971
30
0
41
1
10
-79.1828143207057
20
10.2422333475178
30
0
41
1
10
-79
20
10.6704826507521
30
0
0
SPLINE
5
269
100
AcDbEntity
8
SK1
62
256
6
ByLayer
370
13
48
1
60
0
100
AcDbSpline
70
4
71
3
72
8
73
4
40
0
40
0
40
0
40
0
40
1
40
1
40
1
40
1
41
1
10
-78.5999993841624
20
10.6704826507521
30
0
41
1
10
-78.571842816211
20
10.5890315497
30
0
41
1
10
-78.5439155289718
20
10.5074810741399
30
0
41
1
10
-78.5162221138982
20
10.4258292340508
30
0
0
SPLINE
5
26A
100
AcDbEntity
8
1
62
256
6
ByLayer
370
18
48
1
60
0
100
AcDbSpline
70
4
71
1
72
4
73
2
40
0
40
0
40
1
40
1
41
1
10
286.093562912652
20
-17.8865825733325
30
0
41
1
10
286.200063329226
20
-18.7719253663574
30
0
0
SPLINE
5
26B
100
AcDbEntity
8
1
62
256
6
ByLayer
370
18
48
1
60
0
100
AcDbSpline
70
4
71
3
72
10
73
6
40
0
40
0
40
0
40
0
40
0.508885932820584
40
0.508885932820584
40
1
40
1
40
1
40
1
41
1
10
286.200063329226
20
-18.7719640869201
30
0
41
1
10
286.260137902765
20
-18.75482700977
30
0
41
1
10
286.320212476719
20
-18.7376915226346
30
0
41
1
10
286.4382636348
20
-18.7040175982704
30
0
41
1
10
286.496240219503
20
-18.6874791444566
30
0
41
1
10
286.554216803714
20
-18.6709416529199
30
0
0
SPLINE
5
26C
100
AcDbEntity
8
1
62
256
6
ByLayer
370
18
48
1
60
0
100
AcDbSpline
70
4
71
1
72
4
73
2
40
0
40
0
40
1
40
1
41
1
10
286.357671578093
20
-17.5934649018422
30
0
41
1
10
286.802578065247
20
-18.3822760495797
30
0
0
SPLINE
5
26D
100
AcDbEntity
8
1
62
256
6
ByLayer
370
18
48
1
60
0
100
AcDbSpline
70
4
71
3
72
12
73
8
40
0
40
0
40
0
40
0
40
0.500000000000134
40
0.500000000000134
40
0.750000000000067
40
0.750000000000067
40
1
40
1
40
1
40
1
41
1
10
286.802578065246
20
-18.3823151318266
30
0
41
1
10
286.793678272125
20
-18.4490914501415
30
0
41
1
10
286.764643241074
20
-18.5130092541735
30
0
41
1
10
286.698462089758
20
-18.5895803773358
30
0
41
1
10
286.672587931309
20
-18.611876172361
30
0
41
1
10
286.615575711424
20
-18.6480687886344
30
0
41
1
10
286.584350504078
20
-18.6614597543413
30
0
41
1
10
286.552045438324
20
-18.6715610241001
30
0
0
SPLINE
5
26E
100
AcDbEntity
8
1
62
256
6
ByLayer
370
18
48
1
60
0
100
AcDbSpline
70
4
71
1
72
4
73
2
40
0
40
0
40
1
40
1
41
1
10
287.93038290548
20
-9.86030652617436
30
0
41
1
10
287.971827802726
20
-9.54713873452377
30
0
0
SPLINE
5
26F
100
AcDbEntity
8
1
62
256
6
ByLayer
370
18
48
1
60
0
100
AcDbSpline
70
4
71
2
72
12
73
9
40
0
40
0
40
0
40
0.25
40
0.5
40
0.5
40
0.75
40
0.75
40
0.875
40
1
40
1
40
1
41
1
10
286.061525475772
20
0.191252244695221
30
0
41
1
10
286.047622878036
20
0.239484175067929
30
0
41
1
10
285.993210900405
20
0.324768229878004
30
0
41
1
10
285.953775960482
20
0.358855524862946
30
0
41
1
10
285.916061777382
20
0.39145540930528
30
0
41
1
10
285.868450775605
20
0.412909924466078
30
0
41
1
10
285.846339406395
20
0.42287377080865
30
0
41
1
10
285.796723060551
20
0.437082459809744
30
0
41
1
10
285.770768049467
20
0.4404817281264
30
0
0
SPLINE
5
270
100
AcDbEntity
8
1
62
256
6
ByLayer
370
18
48
1
60
0
100
AcDbSpline
70
4
71
1
72
4
73
2
40
0
40
0
40
1
40
1
41
1
10
286.802578065246
20
-18.3822760495796
30
0
41
1
10
287.854591959374
20
-10.4330014728768
30
0
0
SPLINE
5
271
100
AcDbEntity
8
1
62
256
6
ByLayer
370
18
48
1
60
0
100
AcDbSpline
70
4
71
2
72
6
73
3
40
0
40
0
40
0
40
1
40
1
40
1
41
1
10
285.998200600031
20
-17.9076139226673
30
0
41
1
10
286.046528285473
20
-17.8999993833157
30
0
41
1
10
286.093562912652
20
-17.8865825733326
30
0
0
SPLINE
5
272
100
AcDbEntity
8
1
62
256
6
ByLayer
370
18
48
1
60
0
100
AcDbSpline
70
4
71
1
72
4
73
2
40
0
40
0
40
1
40
1
41
1
10
287.993155758077
20
-9.3859794816064
30
0
41
1
10
287.496924283902
20
-8.98499250306938
30
0
0
SPLINE
5
273
100
AcDbEntity
8
1
62
256
6
ByLayer
370
18
48
1
60
0
100
AcDbSpline
70
4
71
2
72
12
73
9
40
0
40
0
40
0
40
0.25
40
0.5
40
0.5
40
0.75
40
0.75
40
0.875
40
1
40
1
40
1
41
1
10
286.107138951154
20
-17.8827099556497
30
0
41
1
10
286.155623071301
20
-17.8688796721694
30
0
41
1
10
286.241353049921
20
-17.8147507180237
30
0
41
1
10
286.275618576785
20
-17.7755208986303
30
0
41
1
10
286.308388915885
20
-17.7380028855711
30
0
41
1
10
286.329955610043
20
-17.6906395320391
30
0
41
1
10
286.33997155424
20
-17.668643174949
30
0
41
1
10
286.35425453606
20
-17.6192849081374
30
0
41
1
10
286.357671578093
20
-17.5934649018426
30
0
0
SPLINE
5
274
100
AcDbEntity
8
1
62
256
6
ByLayer
370
18
48
1
60
0
100
AcDbSpline
70
4
71
3
72
12
73
8
40
0
40
0
40
0
40
0
40
0.250320940066185
40
0.250320940066185
40
0.500642180893871
40
0.500642180893871
40
1
40
1
40
1
40
1
41
1
10
286.104701016603
20
-18.7929974378207
30
0
41
1
10
286.112756568397
20
-18.7917279107887
30
0
41
1
10
286.120793615855
20
-18.7903361209663
30
0
41
1
10
286.136819285009
20
-18.7873089342131
30
0
41
1
10
286.144809777495
20
-18.7856731830498
30
0
41
1
10
286.168650848996
20
-18.7804126261103
30
0
41
1
10
286.184428971284
20
-18.776423997036
30
0
41
1
10
286.200063329226
20
-18.7719640869201
30
0
0
SPLINE
5
275
100
AcDbEntity
8
1
62
256
6
ByLayer
370
18
48
1
60
0
100
AcDbSpline
70
4
71
2
72
6
73
3
40
0
40
0
40
0
40
1
40
1
40
1
41
1
10
286.08655965792
20
0.0828805353858399
30
0
41
1
10
286.07890530446
20
0.13095684492626
30
0
41
1
10
286.065418342219
20
0.177746821679278
30
0
0
SPLINE
5
276
100
AcDbEntity
8
1
62
256
6
ByLayer
370
18
48
1
60
0
100
AcDbSpline
70
4
71
1
72
4
73
2
40
0
40
0
40
1
40
1
41
1
10
287.915156809878
20
-8.68657613203879
30
0
41
1
10
287.824553115063
20
-8.11750242621446
30
0
0
SPLINE
5
277
100
AcDbEntity
8
1
62
256
6
ByLayer
370
18
48
1
60
0
100
AcDbSpline
70
4
71
1
72
4
73
2
40
0
40
0
40
1
40
1
41
1
10
286.104701016603
20
-18.7929567156911
30
0
41
1
10
285.998200600031
20
-17.9076139226673
30
0
0
SPLINE
5
278
100
AcDbEntity
8
1
62
256
6
ByLayer
370
18
48
1
60
0
100
AcDbSpline
70
4
71
3
72
8
73
4
40
0
40
0
40
0
40
0
40
1
40
1
40
1
40
1
41
1
10
287.99111458024
20
-9.15748088679931
30
0
41
1
10
287.996050494169
20
-9.19540823786744
30
0
41
1
10
287.999429899272
20
-9.23344789570211
30
0
41
1
10
287.999933060269
20
-9.27168444187515
30
0
0
SPLINE
5
279
100
AcDbEntity
8
1
62
256
6
ByLayer
370
18
48
1
60
0
100
AcDbSpline
70
4
71
1
72
4
73
2
40
0
40
0
40
1
40
1
41
1
10
287.964700644903
20
-8.99775652987492
30
0
41
1
10
287.915156809878
20
-8.68657613203879
30
0
0
SPLINE
5
27A
100
AcDbEntity
8
1
62
256
6
ByLayer
370
18
48
1
60
0
100
AcDbSpline
70
4
71
3
72
29
73
25
40
0
40
0
40
0
40
0
40
0.0028994473493943
40
0.0106107367035479
40
0.0260333154118551
40
0.0568784728284696
40
0.118568787661698
40
0.241949417328156
40
0.365330046994614
40
0.427020361827843
40
0.484855031983995
40
0.488710676661072
40
0.496421966015225
40
0.504133255369379
40
0.519555834077686
40
0.550400991494301
40
0.61209130632753
40
0.735471935993988
40
0.858852565660445
40
0.978377550649826
40
0.982233195326903
40
0.989944484681057
40
0.99765577403521
40
1
40
1
40
1
40
1
41
1
10
285.949110679521
20
-17.712162086609
30
0
41
1
10
285.969949067214
20
-17.7030434705996
30
0
41
1
10
286.045826976314
20
-17.6640507329189
30
0
41
1
10
286.203912298436
20
-17.512990710003
30
0
41
1
10
286.22143699443
20
-17.1285320721264
30
0
41
1
10
286.323300052748
20
-16.5015911472961
30
0
41
1
10
286.482926719381
20
-15.1994799959402
30
0
41
1
10
286.734168104075
20
-13.3605931203782
30
0
41
1
10
286.97239915112
20
-11.5145737513349
30
0
41
1
10
287.173213606233
20
-10.0630645776944
30
0
41
1
10
287.269990981292
20
-9.32447875376826
30
0
41
1
10
287.323738627898
20
-8.89842754815331
30
0
41
1
10
287.316425230224
20
-8.76289730637359
30
0
41
1
10
287.27245180171
20
-8.57455012701669
30
0
41
1
10
287.230451521238
20
-8.25673676105814
30
0
41
1
10
287.122295761827
20
-7.61217128317503
30
0
41
1
10
286.921268209833
20
-6.32642314576316
30
0
41
1
10
286.626933134507
20
-4.4887411258689
30
0
41
1
10
286.279492452615
20
-2.30678778445102
30
0
41
1
10
286.045802387021
20
-0.836981717054726
30
0
41
1
10
285.922305911493
20
-0.0453314934476339
30
0
41
1
10
285.8697900438
20
0.101191660664654
30
0
41
1
10
285.766158065743
20
0.208517895849923
30
0
41
1
10
285.701706440842
20
0.244269981193412
30
0
41
1
10
285.686437549787
20
0.251464114380013
30
0
0
SPLINE
5
27B
100
AcDbEntity
8
1
62
256
6
ByLayer
370
18
48
1
60
0
100
AcDbSpline
70
4
71
1
72
4
73
2
40
0
40
0
40
1
40
1
41
1
10
287.854591959374
20
-10.4330014728768
30
0
41
1
10
287.93038290548
20
-9.86030652617436
30
0
0
SPLINE
5
27C
100
AcDbEntity
8
1
62
256
6
ByLayer
370
18
48
1
60
0
100
AcDbSpline
70
4
71
1
72
4
73
2
40
0
40
0
40
1
40
1
41
1
10
286.552045438324
20
-18.6715211033906
30
0
41
1
10
286.107138951154
20
-17.8827099556496
30
0
0
SPLINE
5
27D
100
AcDbEntity
8
1
62
256
6
ByLayer
370
18
48
1
60
0
100
AcDbSpline
70
4
71
3
72
8
73
4
40
0
40
0
40
0
40
0
40
1
40
1
40
1
40
1
41
1
10
287.999933060269
20
-9.27168444187515
30
0
41
1
10
288.000436224147
20
-9.30992120689419
30
0
41
1
10
287.998063746237
20
-9.34803615124412
30
0
41
1
10
287.994132053516
20
-9.38607934139401
30
0
0
SPLINE
5
27E
100
AcDbEntity
8
1
62
256
6
ByLayer
370
18
48
1
60
0
100
AcDbSpline
70
4
71
3
72
12
73
8
40
0
40
0
40
0
40
0
40
0.5
40
0.5
40
0.75
40
0.75
40
1
40
1
40
1
40
1
41
1
10
286.154124004958
20
0.475585740096221
30
0
41
1
10
286.221249435535
20
0.466732199030076
30
0
41
1
10
286.285500339752
20
0.437847093068939
30
0
41
1
10
286.36247267885
20
0.372011027406245
30
0
41
1
10
286.384884950982
20
0.346271353039128
30
0
41
1
10
286.421266529619
20
0.289555405638737
30
0
41
1
10
286.434727430494
20
0.258492534364791
30
0
41
1
10
286.444881431248
20
0.226355418198352
30
0
0
SPLINE
5
27F
100
AcDbEntity
8
1
62
256
6
ByLayer
370
18
48
1
60
0
100
AcDbSpline
70
4
71
3
72
8
73
4
40
0
40
0
40
0
40
0
40
1
40
1
40
1
40
1
41
1
10
286.200063329226
20
-18.7719253663574
30
0
41
1
10
286.168706911105
20
-18.7808699063476
30
0
41
1
10
286.136919473564
20
-18.7878803561255
30
0
41
1
10
286.104701016603
20
-18.7929567156911
30
0
0
SPLINE
5
280
100
AcDbEntity
8
1
62
256
6
ByLayer
370
18
48
1
60
0
100
AcDbSpline
70
4
71
1
72
4
73
2
40
0
40
0
40
1
40
1
41
1
10
286.065418342218
20
0.17774682167942
30
0
41
1
10
286.545810676785
20
-0.12375593757946
30
0
0
SPLINE
5
281
100
AcDbEntity
8
1
62
256
6
ByLayer
370
18
48
1
60
0
100
AcDbSpline
70
4
71
1
72
4
73
2
40
0
40
0
40
1
40
1
41
1
10
287.971827802726
20
-9.54713873452377
30
0
41
1
10
287.993155758076
20
-9.38597948160617
30
0
0
SPLINE
5
282
100
AcDbEntity
8
1
62
256
6
ByLayer
370
18
48
1
60
0
100
AcDbSpline
70
4
71
1
72
4
73
2
40
0
40
0
40
1
40
1
41
1
10
286.154124004958
20
0.475624822343178
30
0
41
1
10
285.729486328397
20
0.531238645633948
30
0
0
SPLINE
5
283
100
AcDbEntity
8
1
62
256
6
ByLayer
370
18
48
1
60
0
100
AcDbSpline
70
4
71
1
72
4
73
2
40
0
40
0
40
1
40
1
41
1
10
287.824553115063
20
-8.11750242621446
30
0
41
1
10
286.566951992556
20
-0.218622223872387
30
0
0
SPLINE
5
284
100
AcDbEntity
8
1
62
256
6
ByLayer
370
18
48
1
60
0
100
AcDbSpline
70
4
71
1
72
4
73
2
40
0
40
0
40
1
40
1
41
1
10
286.444881431248
20
0.226395338907167
30
0
41
1
10
286.061525475771
20
0.191252244695221
30
0
0
SPLINE
5
285
100
AcDbEntity
8
1
62
256
6
ByLayer
370
18
48
1
60
0
100
AcDbSpline
70
4
71
2
72
7
73
4
40
0
40
0
40
0
40
0.5
40
1
40
1
40
1
41
1
10
287.496924283902
20
-8.98499250306929
30
0
41
1
10
287.504416423592
20
-8.92838006092896
30
0
41
1
10
287.502990374554
20
-8.81359414606254
30
0
41
1
10
287.493919067289
20
-8.75661807613079
30
0
0
SPLINE
5
286
100
AcDbEntity
8
1
62
256
6
ByLayer
370
18
48
1
60
0
100
AcDbSpline
70
4
71
1
72
4
73
2
40
0
40
0
40
1
40
1
41
1
10
287.493919067289
20
-8.75661807613074
30
0
41
1
10
287.990150541482
20
-9.1576050546939
30
0
0
SPLINE
5
287
100
AcDbEntity
8
1
62
256
6
ByLayer
370
18
48
1
60
0
100
AcDbSpline
70
4
71
3
72
8
73
4
40
0
40
0
40
0
40
0
40
1
40
1
40
1
40
1
41
1
10
286.545810676785
20
-0.123755937579261
30
0
41
1
10
286.554801985076
20
-0.15494925576246
30
0
41
1
10
286.561849090333
20
-0.186571351193493
30
0
41
1
10
286.566951992556
20
-0.218622223872387
30
0
0
SPLINE
5
288
100
AcDbEntity
8
1
62
256
6
ByLayer
370
18
48
1
60
0
100
AcDbSpline
70
4
71
1
72
4
73
2
40
0
40
0
40
1
40
1
41
1
10
285.770768049466
20
0.440481728126457
30
0
41
1
10
286.154124004958
20
0.475624822343178
30
0
0
SPLINE
5
289
100
AcDbEntity
8
1
62
256
6
ByLayer
370
18
48
1
60
0
100
AcDbSpline
70
4
71
1
72
4
73
2
40
0
40
0
40
1
40
1
41
1
10
287.990150541482
20
-9.1576050546941
30
0
41
1
10
287.964700644903
20
-8.99775652987492
30
0
0
SPLINE
5
28A
100
AcDbEntity
8
1
62
256
6
ByLayer
370
18
48
1
60
0
100
AcDbSpline
70
4
71
3
72
26
73
22
40
0
40
0
40
0
40
0
40
0.0032093498856981
40
0.018941525779699
40
0.0504058775677007
40
0.113334581143704
40
0.239191988295711
40
0.365049395447718
40
0.427978099023721
40
0.486973758626224
40
0.490906802599725
40
0.498772890546725
40
0.506638978493726
40
0.522371154387726
40
0.553835506175728
40
0.616764209751732
40
0.742621616903738
40
0.868479024055745
40
0.990403387234252
40
0.994336431207752
40
1
40
1
40
1
40
1
41
1
10
285.990972080956
20
-17.5012593313035
30
0
41
1
10
286.002550696514
20
-17.4888699866289
30
0
41
1
10
286.063086656706
20
-17.4092600536342
30
0
41
1
10
286.077074434101
20
-17.1023947108174
30
0
41
1
10
286.179817856292
20
-16.470035372781
30
0
41
1
10
286.339223859706
20
-15.1697242216592
30
0
41
1
10
286.590526984383
20
-13.3303854585857
30
0
41
1
10
286.828773542462
20
-11.4842458966902
30
0
41
1
10
287.029607127535
20
-10.0325984495733
30
0
41
1
10
287.126272831557
20
-9.29486487696332
30
0
41
1
10
287.178363153968
20
-8.8819510832279
30
0
41
1
10
287.172424334605
20
-8.7718942177207
30
0
41
1
10
287.129720348684
20
-8.58898432037134
30
0
41
1
10
287.087126261423
20
-8.2666776574155
30
0
41
1
10
286.979251845854
20
-7.62378887737114
30
0
41
1
10
286.77814197451
20
-6.33751423525936
30
0
41
1
10
286.483838807004
20
-4.50003143194647
30
0
41
1
10
286.136385227813
20
-2.3179970945279
30
0
41
1
10
285.902659614205
20
-0.847967446011324
30
0
41
1
10
285.783231621918
20
-0.0823974457736654
30
0
41
1
10
285.766731767835
20
-0.0304727196392776
30
0
41
1
10
285.753513929738
20
-0.0023022440480531
30
0
0
SPLINE
5
28B
100
AcDbEntity
8
1
62
256
6
ByLayer
370
18
48
1
60
0
100
AcDbSpline
70
4
71
1
72
4
73
2
40
0
40
0
40
1
40
1
41
1
10
286.566951992556
20
-0.218622223872217
30
0
41
1
10
286.08655965792
20
0.0828805353857263
30
0
0
SPLINE
5
28C
100
AcDbEntity
8
1
62
256
6
ByLayer
370
13
48
1
60
0
100
AcDbSpline
70
4
71
3
72
20
73
16
40
0
40
0
40
0
40
0
40
0.0624999999999545
40
0.0624999999999545
40
0.124999999999909
40
0.124999999999909
40
0.140624999999909
40
0.140624999999909
40
0.156249999999908
40
0.156249999999908
40
0.187499999999908
40
0.187499999999908
40
0.249999999999906
40
0.499999999999945
40
1
40
1
40
1
40
1
41
1
10
270.170474822348
20
11.7594570832478
30
0
41
1
10
270.300874297873
20
11.8466648833368
30
0
41
1
10
270.438471529463
20
11.9178512760972
30
0
41
1
10
270.727512235043
20
12.0294038605016
30
0
41
1
10
270.880639845579
20
12.0697152198446
30
0
41
1
10
271.071713490451
20
12.0978880192713
30
0
41
1
10
271.109997754992
20
12.1024708081135
30
0
41
1
10
271.186708728756
20
12.1094818166445
30
0
41
1
10
271.225153718435
20
12.1116335324489
30
0
41
1
10
271.340521309549
20
12.1175952495409
30
0
41
1
10
271.417426691494
20
12.12166570691
30
0
41
1
10
271.648150746852
20
12.1337574422785
30
0
41
1
10
272.417230931378
20
12.1740632268401
30
0
41
1
10
274.416839411159
20
12.278858266701
30
0
41
1
10
276.26263185399
20
12.3755921496471
30
0
41
1
10
277.493160149233
20
12.4400814049457
30
0
0
SPLINE
5
28D
100
AcDbEntity
8
1
62
256
6
ByLayer
370
13
48
1
60
0
100
AcDbSpline
70
4
71
1
72
4
73
2
40
0
40
0
40
1
40
1
41
1
10
265.837431349626
20
20.149330449055
30
0
41
1
10
265.915426832951
20
20.1521380631568
30
0
0
SPLINE
5
28E
100
AcDbEntity
8
1
62
256
6
ByLayer
370
13
48
1
60
0
100
AcDbSpline
70
4
71
3
72
8
73
4
40
0
40
0
40
0
40
0
40
1
40
1
40
1
40
1
41
1
10
267.16322681767
20
29.7925244467497
30
0
41
1
10
267.243709352994
20
29.7966752950604
30
0
41
1
10
267.323177855133
20
29.7986166733012
30
0
41
1
10
267.4015222825
20
29.7992948510022
30
0
0
SPLINE
5
28F
100
AcDbEntity
8
1
62
256
6
ByLayer
370
13
48
1
60
0
100
AcDbSpline
70
4
71
1
72
4
73
2
40
0
40
0
40
1
40
1
41
1
10
267.194258582616
20
30.0348073598911
30
0
41
1
10
267.4015222825
20
29.7992948510022
30
0
0
SPLINE
5
290
100
AcDbEntity
8
1
62
256
6
ByLayer
370
13
48
1
60
0
100
AcDbSpline
70
4
71
1
72
4
73
2
40
0
40
0
40
1
40
1
41
1
10
266.195172435203
20
19.8052613668612
30
0
41
1
10
265.933997650061
20
19.7977857634701
30
0
0
SPLINE
5
291
100
AcDbEntity
8
1
62
256
6
ByLayer
370
13
48
1
60
0
100
AcDbSpline
70
4
71
1
72
4
73
2
40
0
40
0
40
1
40
1
41
1
10
265.85113815845
20
19.9336802159531
30
0
41
1
10
265.92565030073
20
19.9397258509012
30
0
0
SPLINE
5
292
100
AcDbEntity
8
1
62
256
6
ByLayer
370
13
48
1
60
0
100
AcDbSpline
70
4
71
3
72
9
73
5
40
0
40
0
40
0
40
0
40
0.806009473593981
40
1
40
1
40
1
40
1
41
1
10
267.194258582616
20
30.0348073598911
30
0
41
1
10
267.21341291418
20
30.0362860886721
30
0
41
1
10
267.237207570513
20
30.0376914578291
30
0
41
1
10
267.260998965793
20
30.0391369763641
30
0
41
1
10
267.265614185607
20
30.0394184456683
30
0
0
SPLINE
5
293
100
AcDbEntity
8
1
62
256
6
ByLayer
370
13
48
1
60
0
100
AcDbSpline
70
4
71
3
72
10
73
6
40
0
40
0
40
0
40
0
40
0.381050048122357
40
0.381050048122357
40
1
40
1
40
1
40
1
41
1
10
284.221680114193
20
29.529239834202
30
0
41
1
10
284.226925883219
20
29.5290199085117
30
0
41
1
10
284.237901481099
20
29.528732154461
30
0
41
1
10
284.279055682205
20
29.5278951675579
30
0
41
1
10
284.316989071679
20
29.5273042424391
30
0
41
1
10
284.356213601929
20
29.5268345384396
30
0
0
SPLINE
5
294
100
AcDbEntity
8
1
62
256
6
ByLayer
370
13
48
1
60
0
100
AcDbSpline
70
4
71
2
72
6
73
3
40
0
40
0
40
0
40
1
40
1
40
1
41
1
10
266.185408335082
20
19.9199381370946
30
0
41
0.997409491337352
10
266.184643084332
20
19.9776282514914
30
0
41
1
10
266.19212727077
20
20.0348277990933
30
0
0
SPLINE
5
295
100
AcDbEntity
8
1
62
256
6
ByLayer
370
13
48
1
60
0
100
AcDbSpline
70
4
71
2
72
6
73
3
40
0
40
0
40
0
40
1
40
1
40
1
41
1
10
265.915426832951
20
20.1521380631568
30
0
41
0.997409491337352
10
265.9126560276
20
20.0987970713166
30
0
41
1
10
265.917534337479
20
20.0456051733196
30
0
0
SPLINE
5
296
100
AcDbEntity
8
1
62
256
6
ByLayer
370
13
48
1
60
0
100
AcDbSpline
70
4
71
3
72
14
73
10
40
0
40
0
40
0
40
0
40
0.0803410481086611
40
0.0803410481086611
40
0.513217240289758
40
0.513217240289758
40
0.946093432470855
40
0.946093432470855
40
1
40
1
40
1
40
1
41
1
10
286.629849285381
20
11.3090175758174
30
0
41
1
10
286.6212882604
20
11.3000562123133
30
0
41
1
10
286.612519004892
20
11.2912990365659
30
0
41
1
10
286.555208317599
20
11.236693435304
30
0
41
1
10
286.500248778494
20
11.1961518127473
30
0
41
1
10
286.383929202619
20
11.1310651886848
30
0
41
1
10
286.321276416188
20
11.105654298724
30
0
41
1
10
286.24849105638
20
11.0860516719954
30
0
41
1
10
286.240409637458
20
11.0840427146626
30
0
41
1
10
286.2323100019
20
11.0821732790481
30
0
0
SPLINE
5
297
100
AcDbEntity
8
1
62
256
6
ByLayer
370
13
48
1
60
0
100
AcDbSpline
70
4
71
1
72
4
73
2
40
0
40
0
40
1
40
1
41
1
10
266.192127270769
20
20.0348277990933
30
0
41
1
10
265.931178388186
20
20.010322033526
30
0
0
SPLINE
5
298
100
AcDbEntity
8
1
62
256
6
ByLayer
370
13
48
1
60
0
100
AcDbSpline
70
4
71
3
72
20
73
16
40
0
40
0
40
0
40
0
40
0.125
40
0.125
40
0.25
40
0.25
40
0.375
40
0.375
40
0.5
40
0.5
40
0.625
40
0.625
40
0.75
40
0.75
40
1
40
1
40
1
40
1
41
1
10
267.615430367332
20
10.8112503943381
30
0
41
1
10
267.625293573939
20
10.7441076840952
30
0
41
1
10
267.643746437041
20
10.6799637187005
30
0
41
1
10
267.696318786879
20
10.5571451808881
30
0
41
1
10
267.731061374143
20
10.4982488414938
30
0
41
1
10
267.814026867594
20
10.3914572375715
30
0
41
1
10
267.861706500047
20
10.344056684605
30
0
41
1
10
267.9674836043
20
10.2625520611553
30
0
41
1
10
268.026379822805
20
10.2279773660136
30
0
41
1
10
268.148865592664
20
10.1754059998019
30
0
41
1
10
268.213831321854
20
10.1566833128403
30
0
41
1
10
268.346216568486
20
10.1355418802705
30
0
41
1
10
268.412673453024
20
10.1354928030867
30
0
41
1
10
268.611958725925
20
10.1319461131022
30
0
41
1
10
268.744895589321
20
10.1327674659576
30
0
41
1
10
268.877903579957
20
10.1364207710164
30
0
0
SPLINE
5
299
100
AcDbEntity
8
1
62
256
6
ByLayer
370
13
48
1
60
0
100
AcDbSpline
70
4
71
2
72
6
73
3
40
0
40
0
40
0
40
1
40
1
40
1
41
1
10
287.949929314873
20
21.1979409079065
30
0
41
0.997409491337352
10
287.950694565624
20
21.1402507935097
30
0
41
1
10
287.943210379186
20
21.0830512459079
30
0
0
SPLINE
5
29A
100
AcDbEntity
8
1
62
256
6
ByLayer
370
13
48
1
60
0
100
AcDbSpline
70
4
71
3
72
20
73
16
40
0
40
0
40
0
40
0
40
0.499999999999939
40
0.499999999999939
40
0.749999999999908
40
0.749999999999908
40
0.874999999999893
40
0.874999999999893
40
0.906249999999902
40
0.906249999999902
40
0.921874999999906
40
0.921874999999906
40
0.93749999999991
40
0.93749999999991
40
1
40
1
40
1
40
1
41
1
10
276.642177500722
20
28.6777976400554
30
0
41
1
10
275.519750599056
20
28.6189737387315
30
0
41
1
10
274.397323443938
20
28.5601546736482
30
0
41
1
10
272.713683079093
20
28.471919057237
30
0
41
1
10
272.152470501405
20
28.4424954967316
30
0
41
1
10
271.310650285168
20
28.3983776665086
30
0
41
1
10
271.030041829512
20
28.3836935279523
30
0
41
1
10
270.679284148064
20
28.3653016754547
30
0
41
1
10
270.609133213826
20
28.3616156588657
30
0
41
1
10
270.503906014849
20
28.3560967638076
30
0
41
1
10
270.468829271387
20
28.3542699651338
30
0
41
1
10
270.398676895552
20
28.3506022569065
30
0
41
1
10
270.363622076851
20
28.3484970126755
30
0
41
1
10
270.187905644277
20
28.3435885197585
30
0
41
1
10
270.046246623092
20
28.3534523936935
30
0
41
1
10
269.903378384814
20
28.378673385017
30
0
0
SPLINE
5
29B
100
AcDbEntity
8
1
62
256
6
ByLayer
370
13
48
1
60
0
100
AcDbSpline
70
4
71
3
72
8
73
4
40
0
40
0
40
0
40
0
40
1
40
1
40
1
40
1
41
1
10
285.528786202938
20
30.9848365524108
30
0
41
1
10
285.438369970163
20
30.9850832195684
30
0
41
1
10
285.347918919547
20
30.9839436040542
30
0
41
1
10
285.257434069999
20
30.9814582739848
30
0
0
SPLINE
5
29C
100
AcDbEntity
8
1
62
256
6
ByLayer
370
13
48
1
60
0
100
AcDbSpline
70
4
71
1
72
4
73
2
40
0
40
0
40
1
40
1
41
1
10
265.924957890198
20
19.9039553491997
30
0
41
1
10
266.185408335082
20
19.9199381370946
30
0
0
SPLINE
5
29D
100
AcDbEntity
8
1
62
256
6
ByLayer
370
13
48
1
60
0
100
AcDbSpline
70
4
71
3
72
8
73
4
40
0
40
0
40
0
40
0
40
1
40
1
40
1
40
1
41
1
10
267.448819731773
20
30.020770362111
30
0
41
1
10
267.387742251336
20
30.0269876065898
30
0
41
1
10
267.326731781404
20
30.033195777087
30
0
41
1
10
267.265614185607
20
30.0394184456683
30
0
0
SPLINE
5
29E
100
AcDbEntity
8
1
62
256
6
ByLayer
370
13
48
1
60
0
100
AcDbSpline
70
4
71
3
72
24
73
20
40
0
40
0
40
0
40
0
40
0.124999999999985
40
0.124999999999985
40
0.24999999999997
40
0.24999999999997
40
0.374999999999955
40
0.374999999999955
40
0.49999999999994
40
0.49999999999994
40
0.624999999999926
40
0.624999999999926
40
0.749999999999911
40
0.749999999999911
40
0.812499999999964
40
0.812499999999964
40
0.875000000000018
40
0.875000000000018
40
1
40
1
40
1
40
1
41
1
10
286.519907282623
20
30.3066286506631
30
0
41
1
10
286.511721551862
20
30.3623521258557
30
0
41
1
10
286.497654013588
20
30.4160221964692
30
0
41
1
10
286.45842322215
20
30.5194886999238
30
0
41
1
10
286.433179888663
20
30.5697983112274
30
0
41
1
10
286.372216245982
20
30.6639084558185
30
0
41
1
10
286.336632512929
20
30.7079192754449
30
0
41
1
10
286.258178011295
20
30.7864546603893
30
0
41
1
10
286.215132113954
20
30.8212654303627
30
0
41
1
10
286.121563263658
20
30.8821601459771
30
0
41
1
10
286.071591174819
20
30.9075722830694
30
0
41
1
10
285.968456472259
20
30.9473649720796
30
0
41
1
10
285.914301168586
20
30.9620530483685
30
0
41
1
10
285.831909322842
20
30.9756350309947
30
0
41
1
10
285.804407766998
20
30.9786650142186
30
0
41
1
10
285.749337181476
20
30.9820384898795
30
0
41
1
10
285.72176592502
20
30.9822933225131
30
0
41
1
10
285.639074223895
20
30.9839364740349
30
0
41
1
10
285.583937737627
20
30.984686091903
30
0
41
1
10
285.528786202938
20
30.9848365524108
30
0
0
SPLINE
5
29F
100
AcDbEntity
8
1
62
256
6
ByLayer
370
13
48
1
60
0
100
AcDbSpline
70
4
71
2
72
6
73
3
40
0
40
0
40
0
40
1
40
1
40
1
41
0.998850556413375
10
265.927420910473
20
19.9751038686388
30
0
41
0.998270163111934
10
265.924485202886
20
19.9395899239819
30
0
41
1
10
265.924957890198
20
19.9039553491997
30
0
0
SPLINE
5
2A0
100
AcDbEntity
8
1
62
256
6
ByLayer
370
13
48
1
60
0
100
AcDbSpline
70
4
71
2
72
6
73
3
40
0
40
0
40
0
40
1
40
1
40
1
41
0.998850556413361
10
265.927420910473
20
19.9751038686396
30
0
41
0.998270163111954
10
265.92078906694
20
20.0101163991886
30
0
41
1
10
265.917534337479
20
20.0456051733196
30
0
0
SPLINE
5
2A1
100
AcDbEntity
8
1
62
256
6
ByLayer
370
13
48
1
60
0
100
AcDbSpline
70
4
71
3
72
8
73
4
40
0
40
0
40
0
40
0
40
1
40
1
40
1
40
1
41
1
10
285.005734699259
20
30.9408892866183
30
0
41
1
10
285.065827711855
20
30.9534568075516
30
0
41
1
10
285.125855029528
20
30.9660082997065
30
0
41
1
10
285.185987370756
20
30.9785854082255
30
0
0
SPLINE
5
2A2
100
AcDbEntity
8
1
62
256
6
ByLayer
370
13
48
1
60
0
100
AcDbSpline
70
4
71
3
72
24
73
20
40
0
40
0
40
0
40
0
40
0.043686303224951
40
0.043686303224951
40
0.0873726064499018
40
0.0873726064499018
40
0.131058909674853
40
0.131058909674853
40
0.174745212899803
40
0.174745212899803
40
0.262117819349683
40
0.262117819349683
40
0.349490425799562
40
0.349490425799562
40
0.524235638699321
40
0.524235638699321
40
0.69898085159908
40
0.69898085159908
40
1
40
1
40
1
40
1
41
1
10
267.584703922022
20
10.8103709115855
30
0
41
1
10
267.587757145576
20
10.7932768163933
30
0
41
1
10
267.591459246258
20
10.7745574744303
30
0
41
1
10
267.599367122979
20
10.7377840780369
30
0
41
1
10
267.603414184373
20
10.7206023013368
30
0
41
1
10
267.610917662981
20
10.6909016735421
30
0
41
1
10
267.6144554486
20
10.6779379724713
30
0
41
1
10
267.621056989216
20
10.6548592216202
30
0
41
1
10
267.624168761082
20
10.6445805058364
30
0
41
1
10
267.633013083562
20
10.6164831325571
30
0
41
1
10
267.638309663915
20
10.6012224354129
30
0
41
1
10
267.64826481955
20
10.5743267116966
30
0
41
1
10
267.652877193455
20
10.5628572854414
30
0
41
1
10
267.666037778121
20
10.5321140413173
30
0
41
1
10
267.673878971834
20
10.5165358795597
30
0
41
1
10
267.688570704782
20
10.4904527384026
30
0
41
1
10
267.695386763898
20
10.4801047858702
30
0
41
1
10
267.712971947651
20
10.456874776263
30
0
41
1
10
267.723031338218
20
10.4474912116939
30
0
41
1
10
267.732413692026
20
10.4414584401113
30
0
0
SPLINE
5
2A3
100
AcDbEntity
8
1
62
256
6
ByLayer
370
13
48
1
60
0
100
AcDbSpline
70
4
71
3
72
18
73
14
40
0
40
0
40
0
40
0
40
0.499999999999976
40
0.499999999999976
40
0.749999999999976
40
0.749999999999976
40
0.874999999999963
40
0.874999999999963
40
0.906249999999973
40
0.906249999999973
40
0.937499999999982
40
0.937499999999982
40
1
40
1
40
1
40
1
41
1
10
276.6714405602
20
28.479056782818
30
0
41
1
10
275.54122836596
20
28.4198248715993
30
0
41
1
10
274.411015942599
20
28.3605979932497
30
0
41
1
10
272.715697604798
20
28.2717500690831
30
0
41
1
10
272.15059199636
20
28.2421215481139
30
0
41
1
10
271.302932758198
20
28.1976993096174
30
0
41
1
10
271.020378706321
20
28.1829160975233
30
0
41
1
10
270.667188009067
20
28.164390606747
30
0
41
1
10
270.596550384052
20
28.1606727066971
30
0
41
1
10
270.455273268188
20
28.1532833384593
30
0
41
1
10
270.384674836653
20
28.1485900960286
30
0
41
1
10
270.172405900472
20
28.1462970918201
30
0
41
1
10
270.030381288655
20
28.1575094009289
30
0
41
1
10
269.887795752773
20
28.1826804858859
30
0
0
SPLINE
5
2A4
100
AcDbEntity
8
1
62
256
6
ByLayer
370
13
48
1
60
0
100
AcDbSpline
70
4
71
2
72
6
73
3
40
0
40
0
40
0
40
1
40
1
40
1
41
1
10
266.185408335082
20
19.9199381370946
30
0
41
0.997409491337352
10
266.186173585832
20
19.8622480226968
30
0
41
1
10
266.195172435203
20
19.8052613668612
30
0
0
SPLINE
5
2A5
100
AcDbEntity
8
1
62
256
6
ByLayer
370
13
48
1
60
0
100
AcDbSpline
70
4
71
3
72
8
73
4
40
0
40
0
40
0
40
0
40
1
40
1
40
1
40
1
41
1
10
286.099151700739
20
11.2798529581582
30
0
41
1
10
286.007159633022
20
11.2739288329342
30
0
41
1
10
285.918638184617
20
11.2717390065753
30
0
41
1
10
285.832443851762
20
11.2713453145525
30
0
0
SPLINE
5
2A6
100
AcDbEntity
8
1
62
256
6
ByLayer
370
13
48
1
60
0
100
AcDbSpline
70
4
71
1
72
4
73
2
40
0
40
0
40
1
40
1
41
1
10
267.615430367332
20
10.8112503943381
30
0
41
1
10
267.584703922022
20
10.8103709115855
30
0
0
SPLINE
5
2A7
100
AcDbEntity
8
1
62
256
6
ByLayer
370
13
48
1
60
0
100
AcDbSpline
70
4
71
1
72
4
73
2
40
0
40
0
40
1
40
1
41
1
10
265.917534337479
20
20.0456051733196
30
0
41
1
10
265.861536318056
20
20.0423251342046
30
0
0
SPLINE
5
2A8
100
AcDbEntity
8
1
62
256
6
ByLayer
370
13
48
1
60
0
100
AcDbSpline
70
4
71
3
72
10
73
6
40
0
40
0
40
0
40
0
40
0.5
40
0.5
40
1
40
1
40
1
40
1
41
1
10
284.247715829493
20
29.616898198438
30
0
41
1
10
284.243968284355
20
29.6167017979196
30
0
41
1
10
284.253714624294
20
29.6065265916953
30
0
41
1
10
284.293829011785
20
29.5730112082896
30
0
41
1
10
284.324274372971
20
29.5497070033469
30
0
41
1
10
284.356213601929
20
29.5268345384396
30
0
0
SPLINE
5
2A9
100
AcDbEntity
8
1
62
256
6
ByLayer
370
13
48
1
60
0
100
AcDbSpline
70
4
71
3
72
22
73
18
40
0
40
0
40
0
40
0
40
0.0624999999999602
40
0.0624999999999602
40
0.0937499999999403
40
0.0937499999999403
40
0.12499999999992
40
0.12499999999992
40
0.156249999999901
40
0.156249999999901
40
0.171874999999891
40
0.171874999999891
40
0.187499999999881
40
0.187499999999881
40
0.249999999999885
40
0.499999999999923
40
1
40
1
40
1
40
1
41
1
10
270.078865173501
20
11.9269308466734
30
0
41
1
10
270.211923485957
20
12.0159168082059
30
0
41
1
10
270.352090061535
20
12.0898087423939
30
0
41
1
10
270.572701324787
20
12.1786447494628
30
0
41
1
10
270.648347691613
20
12.2046771340571
30
0
41
1
10
270.801480822443
20
12.2486140606599
30
0
41
1
10
270.878371817326
20
12.2663693714611
30
0
41
1
10
271.032773034724
20
12.2938384903659
30
0
41
1
10
271.110276154019
20
12.3036445433189
30
0
41
1
10
271.227003657231
20
12.3122133643746
30
0
41
1
10
271.265994495995
20
12.3140090300527
30
0
41
1
10
271.343938854902
20
12.3180849938481
30
0
41
1
10
271.382910396916
20
12.3201312537617
30
0
41
1
10
271.577769582562
20
12.3303433909543
30
0
41
1
10
272.357206325148
20
12.3711919397248
30
0
41
1
10
274.383741855871
20
12.4773981665282
30
0
41
1
10
276.254390038076
20
12.5754346835774
30
0
41
1
10
277.501488826213
20
12.6407923616102
30
0
0
SPLINE
5
2AA
100
AcDbEntity
8
1
62
256
6
ByLayer
370
13
48
1
60
0
100
AcDbSpline
70
4
71
3
72
12
73
8
40
0
40
0
40
0
40
0
40
0.25
40
0.25
40
0.500000000000001
40
0.500000000000001
40
1
40
1
40
1
40
1
41
1
10
267.4015222825
20
29.7992948510022
30
0
41
1
10
267.421721186658
20
29.799831302662
30
0
41
1
10
267.441368851601
20
29.7997600229671
30
0
41
1
10
267.480863054127
20
29.7998367107808
30
0
41
1
10
267.500644262184
20
29.7999110829767
30
0
41
1
10
267.559952954152
20
29.8000972993668
30
0
41
1
10
267.599467877657
20
29.8001958786789
30
0
41
1
10
267.638995237126
20
29.8003075897873
30
0
0
SPLINE
5
2AB
100
AcDbEntity
8
1
62
256
6
ByLayer
370
13
48
1
60
0
100
AcDbSpline
70
4
71
3
72
9
73
5
40
0
40
0
40
0
40
0
40
0.806009473593804
40
1
40
1
40
1
40
1
41
1
10
285.257434069999
20
30.9814582739848
30
0
41
1
10
285.23823009862
20
30.9809267292916
30
0
41
1
10
285.214418890826
20
30.9798371808288
30
0
41
1
10
285.190606729467
20
30.9787879026744
30
0
41
1
10
285.185987370756
20
30.9785854082255
30
0
0
SPLINE
5
2AC
100
AcDbEntity
8
1
62
256
6
ByLayer
370
13
48
1
60
0
100
AcDbSpline
70
4
71
3
72
18
73
14
40
0
40
0
40
0
40
0
40
0.499999999999988
40
0.499999999999988
40
0.749999999999982
40
0.749999999999982
40
0.874999999999979
40
0.874999999999979
40
0.906249999999984
40
0.906249999999984
40
0.937499999999989
40
0.937499999999989
40
1
40
1
40
1
40
1
41
1
10
277.501488826214
20
12.6407923616103
30
0
41
1
10
278.631701020453
20
12.700024272829
30
0
41
1
10
279.761913443815
20
12.7592511511787
30
0
41
1
10
281.457231781616
20
12.8480990753453
30
0
41
1
10
282.022337390054
20
12.8777275963144
30
0
41
1
10
282.869996628216
20
12.922149834811
30
0
41
1
10
283.152550680093
20
12.936933046905
30
0
41
1
10
283.505741377347
20
12.9554585376814
30
0
41
1
10
283.576379002363
20
12.9591764377313
30
0
41
1
10
283.717656118226
20
12.966565805969
30
0
41
1
10
283.788254549761
20
12.9712590483997
30
0
41
1
10
284.000523485942
20
12.9735520526082
30
0
41
1
10
284.142548097759
20
12.9623397434994
30
0
41
1
10
284.285133633641
20
12.9371686585425
30
0
0
SPLINE
5
2AD
100
AcDbEntity
8
1
62
256
6
ByLayer
370
13
48
1
60
0
100
AcDbSpline
70
4
71
2
72
6
73
3
40
0
40
0
40
0
40
1
40
1
40
1
41
1
10
287.949929314873
20
21.1979409079065
30
0
41
0.997409491337352
10
287.949164064123
20
21.2556310223044
30
0
41
1
10
287.940165214752
20
21.31261767814
30
0
0
SPLINE
5
2AE
100
AcDbEntity
8
1
62
256
6
ByLayer
370
13
48
1
60
0
100
AcDbSpline
70
4
71
3
72
22
73
18
40
0
40
0
40
0
40
0
40
0.0625000000000341
40
0.0625000000000341
40
0.0937500000000512
40
0.0937500000000512
40
0.125000000000068
40
0.125000000000068
40
0.156250000000085
40
0.156250000000085
40
0.171875000000094
40
0.171875000000094
40
0.187500000000102
40
0.187500000000102
40
0.250000000000093
40
0.500000000000055
40
1
40
1
40
1
40
1
41
1
10
284.094064212913
20
29.1929182977549
30
0
41
1
10
283.961005900456
20
29.1039323362224
30
0
41
1
10
283.820839324879
20
29.0300404020345
30
0
41
1
10
283.600228061627
20
28.9412043949656
30
0
41
1
10
283.524581694802
20
28.9151720103714
30
0
41
1
10
283.371448563971
20
28.8712350837685
30
0
41
1
10
283.294557569087
20
28.8534797729673
30
0
41
1
10
283.14015635169
20
28.8260106540625
30
0
41
1
10
283.062653232395
20
28.8162046011094
30
0
41
1
10
282.945925729183
20
28.8076357800538
30
0
41
1
10
282.906934890418
20
28.8058401143757
30
0
41
1
10
282.828990531511
20
28.8017641505803
30
0
41
1
10
282.790018989498
20
28.7997178906667
30
0
41
1
10
282.595159803852
20
28.789505753474
30
0
41
1
10
281.815723061266
20
28.7486572047035
30
0
41
1
10
279.789187530543
20
28.6424509779002
30
0
41
1
10
277.918539348338
20
28.5444144608509
30
0
41
1
10
276.6714405602
20
28.4790567828181
30
0
0
SPLINE
5
2AF
100
AcDbEntity
8
1
62
256
6
ByLayer
370
13
48
1
60
0
100
AcDbSpline
70
4
71
3
72
24
73
20
40
0
40
0
40
0
40
0
40
0.0612470953011091
40
0.0612470953011091
40
0.122494190602218
40
0.122494190602218
40
0.183741285903327
40
0.183741285903327
40
0.244988381204436
40
0.244988381204436
40
0.367482571806657
40
0.367482571806657
40
0.489976762408878
40
0.489976762408878
40
0.73496514361332
40
0.73496514361332
40
0.979953524817761
40
0.979953524817761
40
1
40
1
40
1
40
1
41
1
10
286.878628430143
20
11.8215226487109
30
0
41
1
10
286.877378751968
20
11.8042030479944
30
0
41
1
10
286.87565363583
20
11.7851992776506
30
0
41
1
10
286.871632945899
20
11.7478007315685
30
0
41
1
10
286.869404039446
20
11.7302900453304
30
0
41
1
10
286.865046226659
20
11.6999677935951
30
0
41
1
10
286.862882897152
20
11.686705309741
30
0
41
1
10
286.858729906826
20
11.6630629378059
30
0
41
1
10
286.856709599938
20
11.652515261171
30
0
41
1
10
286.850850702832
20
11.623647324805
30
0
41
1
10
286.847178314922
20
11.607916583952
30
0
41
1
10
286.84008906334
20
11.5801276007043
30
0
41
1
10
286.836700838002
20
11.5682388808098
30
0
41
1
10
286.82682589246
20
11.5362883957026
30
0
41
1
10
286.820656014936
20
11.5199759448166
30
0
41
1
10
286.808771195501
20
11.4924999855679
30
0
41
1
10
286.803074131045
20
11.4814962480173
30
0
41
1
10
286.79708981266
20
11.4715860324271
30
0
41
1
10
286.796638316678
20
11.4708486288713
30
0
41
1
10
286.79618794181
20
11.4701231883458
30
0
0
SPLINE
5
2B0
100
AcDbEntity
8
1
62
256
6
ByLayer
370
13
48
1
60
0
100
AcDbSpline
70
4
71
3
72
10
73
6
40
0
40
0
40
0
40
0
40
0.12179517414263
40
0.12179517414263
40
1
40
1
40
1
40
1
41
1
10
286.770289539042
20
11.4391911272372
30
0
41
1
10
286.768888621855
20
11.4380671532018
30
0
41
1
10
286.767496080969
20
11.4370314135285
30
0
41
1
10
286.756125135291
20
11.4291835884636
30
0
41
1
10
286.746570804231
20
11.4266048667483
30
0
41
1
10
286.737304815314
20
11.4269071572374
30
0
0
SPLINE
5
2B1
100
AcDbEntity
8
1
62
256
6
ByLayer
370
13
48
1
60
0
100
AcDbSpline
70
4
71
3
72
10
73
6
40
0
40
0
40
0
40
0
40
0.5
40
0.5
40
1
40
1
40
1
40
1
41
1
10
269.878223886348
20
11.5004883217064
30
0
41
1
10
269.87447634121
20
11.500291921188
30
0
41
1
10
269.857399510896
20
11.5100829526906
30
0
41
1
10
269.80691688065
20
11.5430549595185
30
0
41
1
10
269.773471540526
20
11.5662019422268
30
0
41
1
10
269.741532311568
20
11.5890744071344
30
0
0
SPLINE
5
2B2
100
AcDbEntity
8
1
62
256
6
ByLayer
370
13
48
1
60
0
100
AcDbSpline
70
4
71
3
72
20
73
16
40
0
40
0
40
0
40
0
40
0.500000000000037
40
0.500000000000037
40
0.750000000000055
40
0.750000000000055
40
0.875000000000064
40
0.875000000000064
40
0.906250000000054
40
0.906250000000054
40
0.921875000000049
40
0.921875000000049
40
0.937500000000045
40
0.937500000000045
40
1
40
1
40
1
40
1
41
1
10
277.493160149233
20
12.4400814049458
30
0
41
1
10
278.615587050899
20
12.4989053062696
30
0
41
1
10
279.738014206017
20
12.557724371353
30
0
41
1
10
281.421654570862
20
12.6459599877642
30
0
41
1
10
281.982867148549
20
12.6753835482695
30
0
41
1
10
282.824687364786
20
12.7195013784925
30
0
41
1
10
283.105295820442
20
12.7341855170488
30
0
41
1
10
283.45605350189
20
12.7525773695464
30
0
41
1
10
283.526204436128
20
12.7562633861354
30
0
41
1
10
283.631431635105
20
12.7617822811935
30
0
41
1
10
283.666508378567
20
12.7636090798673
30
0
41
1
10
283.736660754403
20
12.7672767880946
30
0
41
1
10
283.771715573103
20
12.7693820323257
30
0
41
1
10
283.947432005677
20
12.7742905252426
30
0
41
1
10
284.089091026864
20
12.7644266513077
30
0
41
1
10
284.231959265142
20
12.7392056599842
30
0
0
SPLINE
5
2B3
100
AcDbEntity
8
1
62
256
6
ByLayer
370
13
48
1
60
0
100
AcDbSpline
70
4
71
3
72
12
73
8
40
0
40
0
40
0
40
0
40
0.461653507428722
40
0.461653507428722
40
0.923307014857444
40
0.923307014857444
40
1
40
1
40
1
40
1
41
1
10
285.832443851762
20
11.2713453145525
30
0
41
1
10
285.813777200487
20
11.2708891648636
30
0
41
1
10
285.795938379866
20
11.2710552420725
30
0
41
1
10
285.759962082444
20
11.271162919853
30
0
41
1
10
285.741923558346
20
11.2711798778534
30
0
41
1
10
285.720908408564
20
11.2712143359003
30
0
41
1
10
285.717914831357
20
11.2712194253628
30
0
41
1
10
285.714921469782
20
11.2712246726835
30
0
0
SPLINE
5
2B4
100
AcDbEntity
8
1
62
256
6
ByLayer
370
13
48
1
60
0
100
AcDbSpline
70
4
71
1
72
4
73
2
40
0
40
0
40
1
40
1
41
1
10
267.638995237126
20
29.8003075897873
30
0
41
1
10
267.448819731773
20
30.020770362111
30
0
0
SPLINE
5
2B5
100
AcDbEntity
8
1
62
256
6
ByLayer
370
13
48
1
60
0
100
AcDbSpline
70
4
71
3
72
20
73
16
40
0
40
0
40
0
40
0
40
0.0624999999999947
40
0.0624999999999947
40
0.124999999999989
40
0.124999999999989
40
0.140624999999988
40
0.140624999999988
40
0.156249999999987
40
0.156249999999987
40
0.187499999999984
40
0.187499999999984
40
0.249999999999978
40
0.499999999999978
40
1
40
1
40
1
40
1
41
1
10
283.964862827605
20
29.3584219617524
30
0
41
1
10
283.83446335208
20
29.2712141616636
30
0
41
1
10
283.696866120491
20
29.2000277689032
30
0
41
1
10
283.40782541491
20
29.088475184499
30
0
41
1
10
283.254697804374
20
29.0481638251562
30
0
41
1
10
283.063624159502
20
29.0199910257295
30
0
41
1
10
283.025339894961
20
29.0154082368875
30
0
41
1
10
282.948628921197
20
29.0083972283565
30
0
41
1
10
282.910183931518
20
29.0062455125522
30
0
41
1
10
282.794816340404
20
29.0002837954601
30
0
41
1
10
282.71791095846
20
28.9962133380911
30
0
41
1
10
282.487186903101
20
28.9841216027226
30
0
41
1
10
281.718106718574
20
28.9438158181609
30
0
41
1
10
279.718498238789
20
28.8390207782998
30
0
41
1
10
277.872705795967
20
28.7422868953541
30
0
41
1
10
276.642177500723
20
28.6777976400554
30
0
0
SPLINE
5
2B6
100
AcDbEntity
8
1
62
256
6
ByLayer
370
13
48
1
60
0
100
AcDbSpline
70
4
71
3
72
9
73
5
40
0
40
0
40
0
40
0
40
0.806009473593601
40
1
40
1
40
1
40
1
41
1
10
268.877903579957
20
10.1364207710164
30
0
41
1
10
268.897107551336
20
10.1369523157096
30
0
41
1
10
268.92091875913
20
10.1380418641724
30
0
41
1
10
268.944730920488
20
10.1390911423268
30
0
41
1
10
268.949350279199
20
10.1392936367756
30
0
0
SPLINE
5
2B7
100
AcDbEntity
8
1
62
256
6
ByLayer
370
13
48
1
60
0
100
AcDbSpline
70
4
71
2
72
6
73
3
40
0
40
0
40
0
40
1
40
1
40
1
41
1
10
265.933997650061
20
19.7977857634701
30
0
41
0.997409491337352
10
265.925666371566
20
19.8505449197505
30
0
41
1
10
265.924957890198
20
19.9039553491997
30
0
0
SPLINE
5
2B8
100
AcDbEntity
8
1
62
256
6
ByLayer
370
13
48
1
60
0
100
AcDbSpline
70
4
71
3
72
10
73
6
40
0
40
0
40
0
40
0
40
0.5
40
0.5
40
1
40
1
40
1
40
1
41
1
10
269.907135535841
20
11.5878230030241
30
0
41
1
10
269.903386919157
20
11.5876265463483
30
0
41
1
10
269.883000894353
20
11.5876781481755
30
0
41
1
10
269.821690327672
20
11.5881710064051
30
0
41
1
10
269.780756841818
20
11.5886047031349
30
0
41
1
10
269.741532311568
20
11.5890744071344
30
0
0
SPLINE
5
2B9
100
AcDbEntity
8
1
62
256
6
ByLayer
370
13
48
1
60
0
100
AcDbSpline
70
4
71
2
72
6
73
3
40
0
40
0
40
0
40
1
40
1
40
1
41
1
10
265.931178388186
20
20.010322033526
30
0
41
0.999139328225418
10
265.928880286603
20
19.9927582846856
30
0
41
0.998850556413375
10
265.927420910473
20
19.9751038686388
30
0
0
SPLINE
5
2BA
100
AcDbEntity
8
1
62
256
6
ByLayer
370
13
48
1
60
0
100
AcDbSpline
70
4
71
3
72
28
73
24
40
0
40
0
40
0
40
0
40
0.124999999999946
40
0.124999999999946
40
0.249999999999891
40
0.249999999999891
40
0.374999999999837
40
0.374999999999837
40
0.499999999999782
40
0.499999999999782
40
0.624999999999727
40
0.624999999999727
40
0.6874999999997
40
0.6874999999997
40
0.749999999999673
40
0.749999999999673
40
0.78124999999966
40
0.78124999999966
40
0.812499999999647
40
0.812499999999647
40
0.874999999999836
40
0.874999999999836
40
1
40
1
40
1
40
1
41
1
10
286.737304815314
20
11.4269071572373
30
0
41
1
10
286.718607248921
20
11.4161594395482
30
0
41
1
10
286.698778985868
20
11.4055510177938
30
0
41
1
10
286.656248346208
20
11.3846882500935
30
0
41
1
10
286.633349298496
20
11.3743693617414
30
0
41
1
10
286.584848893945
20
11.3548090208904
30
0
41
1
10
286.559217785596
20
11.345510178759
30
0
41
1
10
286.504192918077
20
11.3282240031797
30
0
41
1
10
286.475164664648
20
11.3204314682477
30
0
41
1
10
286.415790725431
20
11.3077079735878
30
0
41
1
10
286.385541022061
20
11.3028067470725
30
0
41
1
10
286.342051050456
20
11.2982056243676
30
0
41
1
10
286.327691665565
20
11.2970931796876
30
0
41
1
10
286.299502478499
20
11.2953132328715
30
0
41
1
10
286.285546434419
20
11.2945612852925
30
0
41
1
10
286.265021582162
20
11.2938410312295
30
0
41
1
10
286.25814799722
20
11.2935690998341
30
0
41
1
10
286.243814828184
20
11.2924414525804
30
0
41
1
10
286.236398516218
20
11.2916271213189
30
0
41
1
10
286.213887857703
20
11.2889140365995
30
0
41
1
10
286.199078594611
20
11.2873064288843
30
0
41
1
10
286.155939174758
20
11.2837932881848
30
0
41
1
10
286.127396658903
20
11.2816718831293
30
0
41
1
10
286.099151700739
20
11.2798529581582
30
0
0
SPLINE
5
2BB
100
AcDbEntity
8
SK1
62
256
6
ByLayer
370
13
48
1
60
0
100
AcDbSpline
70
4
71
3
72
8
73
4
40
0
40
0
40
0
40
0
40
1
40
1
40
1
40
1
41
1
10
-76.6000022063887
20
-10.6704826507519
30
0
41
1
10
-76.9486457469478
20
-10.3889796865166
30
0
41
1
10
-77.2935001928291
20
-10.1014670365259
30
0
41
1
10
-77.6338131992803
20
-9.80675144594593
30
0
0
SPLINE
5
2BC
100
AcDbEntity
8
1
62
256
6
ByLayer
370
13
48
1
60
0
100
AcDbSpline
70
4
71
3
72
10
73
6
40
0
40
0
40
0
40
0
40
0.5
40
0.5
40
1
40
1
40
1
40
1
41
1
10
263.746654128702
20
13.7207405567661
30
0
41
1
10
263.71952587385
20
13.8235197366649
30
0
41
1
10
263.68495850064
20
13.9239348629915
30
0
41
1
10
263.599564805353
20
14.119598236412
30
0
41
1
10
263.548312647632
20
14.2153915395714
30
0
41
1
10
263.489498671758
20
14.3062862083558
30
0
0
SPLINE
5
2BD
100
AcDbEntity
8
1
62
256
6
ByLayer
370
13
48
1
60
0
100
AcDbSpline
70
4
71
3
72
10
73
6
40
0
40
0
40
0
40
0
40
0.5
40
0.5
40
1
40
1
40
1
40
1
41
1
10
261.539169144041
20
0.178740518765579
30
0
41
1
10
261.934362713174
20
0.0054497371219213
30
0
41
1
10
262.336702071928
20
-0.138726088459492
30
0
41
1
10
263.155910988993
20
-0.366764904125006
30
0
41
1
10
263.572768462997
20
-0.450678365203487
30
0
41
1
10
263.997482366221
20
-0.5016252299325
30
0
0
SPLINE
5
2BE
100
AcDbEntity
8
1
62
256
6
ByLayer
370
13
48
1
60
0
100
AcDbSpline
70
4
71
3
72
12
73
8
40
0
40
0
40
0
40
0
40
0.499999999999956
40
0.499999999999956
40
0.749999999999978
40
0.749999999999978
40
1
40
1
40
1
40
1
41
1
10
285.781259996771
20
11.2458809827997
30
0
41
1
10
285.53230762034
20
11.3076661849259
30
0
41
1
10
285.292355886994
20
11.396962656508
30
0
41
1
10
284.94082116177
20
11.5818854481259
30
0
41
1
10
284.827660635766
20
11.6509287684153
30
0
41
1
10
284.610769487527
20
11.8040711676766
30
0
41
1
10
284.506817130338
20
11.8882444595649
30
0
41
1
10
284.407741221223
20
11.981333919883
30
0
0
SPLINE
5
2BF
100
AcDbEntity
8
1
62
256
6
ByLayer
370
13
48
1
60
0
100
AcDbSpline
70
4
71
3
72
10
73
6
40
0
40
0
40
0
40
0
40
0.5
40
0.5
40
1
40
1
40
1
40
1
41
1
10
262.044877894958
20
13.7468703815876
30
0
41
1
10
262.120338520049
20
13.7556996005955
30
0
41
1
10
262.196196102453
20
13.7622073722215
30
0
41
1
10
262.349186715513
20
13.7677639623105
30
0
41
1
10
262.426286453057
20
13.7670074823301
30
0
41
1
10
262.504613500309
20
13.7590735683681
30
0
0
SPLINE
5
2C0
100
AcDbEntity
8
1
62
256
6
ByLayer
370
13
48
1
60
0
100
AcDbSpline
70
4
71
3
72
14
73
10
40
0
40
0
40
0
40
0
40
0.5
40
0.5
40
0.750000000000073
40
0.750000000000073
40
0.875000000000036
40
0.875000000000036
40
1
40
1
40
1
40
1
41
1
10
275.252115878551
20
12.1746526714248
30
0
41
1
10
275.428094872949
20
12.1249539323246
30
0
41
1
10
275.60345890345
20
12.091635308392
30
0
41
1
10
275.867370356774
20
12.0628603475849
30
0
41
1
10
275.955473112969
20
12.0568509884628
30
0
41
1
10
276.087996003557
20
12.0531364899414
30
0
41
1
10
276.132231659223
20
12.0527835659538
30
0
41
1
10
276.220854336184
20
12.0538592864817
30
0
41
1
10
276.26567999154
20
12.0553127450479
30
0
41
1
10
276.309581836171
20
12.0576135432314
30
0
0
SPLINE
5
2C1
100
AcDbEntity
8
1
62
256
6
ByLayer
370
13
48
1
60
0
100
AcDbSpline
70
4
71
3
72
16
73
12
40
0
40
0
40
0
40
0
40
0.249999999999955
40
0.249999999999955
40
0.49999999999991
40
0.49999999999991
40
0.624999999999933
40
0.624999999999933
40
0.749999999999955
40
0.749999999999955
40
1
40
1
40
1
40
1
41
1
10
270.717701577094
20
10.72081330054
30
0
41
1
10
270.690107789464
20
10.6949773971333
30
0
41
1
10
270.664394051734
20
10.6723244896266
30
0
41
1
10
270.618609168726
20
10.6342995480565
30
0
41
1
10
270.599216294079
20
10.6195057039027
30
0
41
1
10
270.578650480834
20
10.6057860343654
30
0
41
1
10
270.573297702034
20
10.602678039338
30
0
41
1
10
270.565916922274
20
10.5996197745187
30
0
41
1
10
270.56395140094
20
10.5997250311247
30
0
41
1
10
270.563502567875
20
10.6049339431113
30
0
41
1
10
270.570602023584
20
10.6151935619196
30
0
41
1
10
270.583045292631
20
10.6304803427488
30
0
0
SPLINE
5
2C2
100
AcDbEntity
8
1
62
256
6
ByLayer
370
13
48
1
60
0
100
AcDbSpline
70
4
71
3
72
8
73
4
40
0
40
0
40
0
40
0
40
1
40
1
40
1
40
1
41
1
10
261.539169144042
20
29.720960723031
30
0
41
1
10
262.53910431509
20
29.8358306774007
30
0
41
1
10
263.539105364596
20
29.9501257351467
30
0
41
1
10
264.539169144042
20
30.0638651138149
30
0
0
SPLINE
5
2C3
100
AcDbEntity
8
1
62
256
6
ByLayer
370
13
48
1
60
0
100
AcDbSpline
70
4
71
3
72
10
73
6
40
0
40
0
40
0
40
0
40
0.5
40
0.5
40
1
40
1
40
1
40
1
41
1
10
263.496060819388
20
8.78588426437943
30
0
41
1
10
262.916515674343
20
9.15889434511354
30
0
41
1
10
262.310989222389
20
9.49800573161738
30
0
41
1
10
261.062218121785
20
10.1270162913529
30
0
41
1
10
260.418803408059
20
10.4166935749007
30
0
41
1
10
259.76001816222
20
10.6863164027558
30
0
0
SPLINE
5
2C4
100
AcDbEntity
8
1
62
256
6
ByLayer
370
13
48
1
60
0
100
AcDbSpline
70
4
71
1
72
4
73
2
40
0
40
0
40
1
40
1
41
1
10
35.4500000000001
20
-16.8082093864558
30
0
41
1
10
35.0100000000001
20
-16.8082093864558
30
0
0
SPLINE
5
2C5
100
AcDbEntity
8
1
62
256
6
ByLayer
370
13
48
1
60
0
100
AcDbSpline
70
4
71
3
72
12
73
8
40
0
40
0
40
0
40
0
40
0.476919056920134
40
0.476919056920134
40
0.738459528460067
40
0.738459528460067
40
1
40
1
40
1
40
1
41
1
10
233.87382149771
20
13.2830985585338
30
0
41
1
10
238.093719326594
20
13.51890050253
30
0
41
1
10
242.312705624011
20
13.6746707113605
30
0
41
1
10
248.84879020018
20
13.7858098965647
30
0
41
1
10
251.164646270664
20
13.7999092715148
30
0
41
1
10
255.795241123341
20
13.7767401975865
30
0
41
1
10
258.110359463405
20
13.7394835385086
30
0
41
1
10
260.42582236928
20
13.6764035818263
30
0
0
SPLINE
5
2C6
100
AcDbEntity
8
1
62
256
6
ByLayer
370
13
48
1
60
0
100
AcDbSpline
70
4
71
3
72
8
73
4
40
0
40
0
40
0
40
0
40
1
40
1
40
1
40
1
41
1
10
262.044877894958
20
13.7468703815904
30
0
41
1
10
261.997623269996
20
13.740774384176
30
0
41
1
10
261.949509080122
20
13.7380490707638
30
0
41
1
10
261.900624728068
20
13.7380220009621
30
0
0
SPLINE
5
2C7
100
AcDbEntity
8
1
62
256
6
ByLayer
370
13
48
1
60
0
100
AcDbSpline
70
4
71
1
72
4
73
2
40
0
40
0
40
1
40
1
41
1
10
35.009999998896
20
-29.4181427222586
30
0
41
1
10
35.0100000011042
20
-29.4316845233126
30
0
0
SPLINE
5
2C8
100
AcDbEntity
8
1
62
256
6
ByLayer
370
13
48
1
60
0
100
AcDbSpline
70
4
71
3
72
28
73
24
40
0
40
0
40
0
40
0
40
0.0624999999999892
40
0.0624999999999892
40
0.124999999999979
40
0.124999999999979
40
0.249999999999957
40
0.249999999999957
40
0.312499999999948
40
0.312499999999948
40
0.374999999999938
40
0.374999999999938
40
0.437499999999929
40
0.437499999999929
40
0.49999999999992
40
0.49999999999992
40
0.62499999999994
40
0.62499999999994
40
0.74999999999996
40
0.74999999999996
40
0.87499999999998
40
0.87499999999998
40
1
40
1
40
1
40
1
41
1
10
264.041455963178
20
11.0887527460595
30
0
41
1
10
264.02917199854
20
11.0530095658194
30
0
41
1
10
264.018045092159
20
11.0169678371771
30
0
41
1
10
263.998560658576
20
10.9441370634147
30
0
41
1
10
263.990174037558
20
10.9070843510035
30
0
41
1
10
263.970685037024
20
10.7979800045053
30
0
41
1
10
263.96491086698
20
10.7271418333169
30
0
41
1
10
263.969082232067
20
10.6231253529495
30
0
41
1
10
263.972645785777
20
10.5891107099338
30
0
41
1
10
263.98386180574
20
10.5237770569886
30
0
41
1
10
263.991520452394
20
10.4922134995615
30
0
41
1
10
264.010737397691
20
10.4310820696554
30
0
41
1
10
264.022386292856
20
10.4013464928324
30
0
41
1
10
264.048812982535
20
10.3448553427271
30
0
41
1
10
264.063579723519
20
10.3180270964882
30
0
41
1
10
264.111862868967
20
10.2412255921708
30
0
41
1
10
264.149326861898
20
10.1948880517394
30
0
41
1
10
264.232233709281
20
10.1104302135834
30
0
41
1
10
264.276678091256
20
10.0733119026723
30
0
41
1
10
264.369485612487
20
10.0079330308277
30
0
41
1
10
264.417882611472
20
9.97967255855545
30
0
41
1
10
264.517620958173
20
9.93210688930114
30
0
41
1
10
264.569282864449
20
9.91277606415395
30
0
41
1
10
264.620590477871
20
9.89898666550911
30
0
0
SPLINE
5
2C9
100
AcDbEntity
8
1
62
256
6
ByLayer
370
13
48
1
60
0
100
AcDbSpline
70
4
71
3
72
14
73
10
40
0
40
0
40
0
40
0
40
0.500000000000001
40
0.500000000000001
40
0.625000000000001
40
0.625000000000001
40
0.750000000000002
40
0.750000000000002
40
1
40
1
40
1
40
1
41
1
10
32.1414286410159
20
-29.4327729018162
30
0
41
1
10
31.542201566634
20
-29.4330002668317
30
0
41
1
10
30.9566270965678
20
-29.4979411070975
30
0
41
1
10
30.2403072754045
20
-29.6532900901706
30
0
41
1
10
30.097832326948
20
-29.688099829123
30
0
41
1
10
29.8144498626369
20
-29.7651489525774
30
0
41
1
10
29.6731408383018
20
-29.807524109632
30
0
41
1
10
29.2546217821026
20
-29.9447549832655
30
0
41
1
10
28.9839708154264
20
-30.0491909085771
30
0
41
1
10
28.7209188552248
20
-30.1653943732267
30
0
0
SPLINE
5
2CA
100
AcDbEntity
8
1
62
256
6
ByLayer
370
13
48
1
60
0
100
AcDbSpline
70
4
71
3
72
24
73
20
40
0
40
0
40
0
40
0
40
0.125
40
0.125
40
0.25
40
0.25
40
0.375
40
0.375
40
0.5
40
0.5
40
0.625
40
0.625
40
0.6875
40
0.6875
40
0.75
40
0.75
40
0.875
40
0.875
40
1
40
1
40
1
40
1
41
1
10
270.76854414633
20
10.4648857131791
30
0
41
1
10
270.647874541019
20
10.3692320896443
30
0
41
1
10
270.520289913449
20
10.2824105562442
30
0
41
1
10
270.252114252458
20
10.1281588454343
30
0
41
1
10
270.113975934332
20
10.062067972867
30
0
41
1
10
269.829133499698
20
9.95113436524304
30
0
41
1
10
269.682046219437
20
9.90620865281264
30
0
41
1
10
269.38004818898
20
9.83877097671768
30
0
41
1
10
269.228125409137
20
9.81686898238769
30
0
41
1
10
268.922389134892
20
9.79579073919496
30
0
41
1
10
268.76857568002
20
9.79661568341635
30
0
41
1
10
268.53648474418
20
9.81539509795971
30
0
41
1
10
268.458773169932
20
9.82463710608272
30
0
41
1
10
268.305544477614
20
9.84871136841682
30
0
41
1
10
268.229702311492
20
9.86355790637163
30
0
41
1
10
268.004479409822
20
9.9163750785047
30
0
41
1
10
267.857385677806
20
9.96257154863417
30
0
41
1
10
267.569629179865
20
10.0773732457835
30
0
41
1
10
267.428669404932
20
10.1463935457175
30
0
41
1
10
267.295745705763
20
10.2246772575268
30
0
0
SPLINE
5
2CB
100
AcDbEntity
8
1
62
256
6
ByLayer
370
13
48
1
60
0
100
AcDbSpline
70
4
71
3
72
10
73
6
40
0
40
0
40
0
40
0
40
0.5
40
0.5
40
1
40
1
40
1
40
1
41
1
10
280.393438565163
20
12.4440979760078
30
0
41
1
10
280.417895995674
20
12.4543740886542
30
0
41
1
10
280.443960152751
20
12.4627669291936
30
0
41
1
10
280.497295542499
20
12.4749186178374
30
0
41
1
10
280.524744011717
20
12.4787796358843
30
0
41
1
10
280.552985779246
20
12.4802753519132
30
0
0
SPLINE
5
2CC
100
AcDbEntity
8
1
62
256
6
ByLayer
370
13
48
1
60
0
100
AcDbSpline
70
4
71
3
72
8
73
4
40
0
40
0
40
0
40
0
40
1
40
1
40
1
40
1
41
1
10
261.854567854933
20
2.72633389732826
30
0
41
1
10
262.106559153341
20
2.64136227861314
30
0
41
1
10
262.361084012271
20
2.56306586389749
30
0
41
1
10
262.618293259441
20
2.49180468706038
30
0
0
SPLINE
5
2CD
100
AcDbEntity
8
1
62
256
6
ByLayer
370
13
48
1
60
0
100
AcDbSpline
70
4
71
3
72
10
73
6
40
0
40
0
40
0
40
0
40
0.5
40
0.5
40
1
40
1
40
1
40
1
41
1
10
259.408142437276
20
2.54776646742249
30
0
41
1
10
259.822136315574
20
2.48874305510668
30
0
41
1
10
260.235464866467
20
2.47437711445949
30
0
41
1
10
261.053586746979
20
2.53353516584153
30
0
41
1
10
261.458452284204
20
2.60705941377486
30
0
41
1
10
261.854567854933
20
2.72633389732826
30
0
0
SPLINE
5
2CE
100
AcDbEntity
8
1
62
256
6
ByLayer
370
13
48
1
60
0
100
AcDbSpline
70
4
71
3
72
8
73
4
40
0
40
0
40
0
40
0
40
1
40
1
40
1
40
1
41
1
10
35.4500000000001
20
-29.417981295042
30
0
41
1
10
35.3033333324877
20
-29.4180333829048
30
0
41
1
10
35.1566666657876
20
-29.4180871804446
30
0
41
1
10
35.0100000000001
20
-29.4181427222585
30
0
0
SPLINE
5
2CF
100
AcDbEntity
8
1
62
256
6
ByLayer
370
13
48
1
60
0
100
AcDbSpline
70
4
71
3
72
14
73
10
40
0
40
0
40
0
40
0
40
0.12499999999995
40
0.12499999999995
40
0.249999999999899
40
0.249999999999899
40
0.499999999999933
40
0.499999999999933
40
1
40
1
40
1
40
1
41
1
10
279.424967649591
20
12.2208839953226
30
0
41
1
10
279.465658114949
20
12.22301649225
30
0
41
1
10
279.507114571246
20
12.2260848875474
30
0
41
1
10
279.588916168714
20
12.2339407247783
30
0
41
1
10
279.629667993413
20
12.2387476538787
30
0
41
1
10
279.75154932817
20
12.2557949128906
30
0
41
1
10
279.832304212869
20
12.2706537259869
30
0
41
1
10
280.073641151445
20
12.3259076329999
30
0
41
1
10
280.233219567448
20
12.3767798467414
30
0
41
1
10
280.393438565165
20
12.4440979760078
30
0
0
SPLINE
5
2D0
100
AcDbEntity
8
1
62
256
6
ByLayer
370
13
48
1
60
0
100
AcDbSpline
70
4
71
3
72
14
73
10
40
0
40
0
40
0
40
0
40
0.25
40
0.25
40
0.5
40
0.5
40
0.75
40
0.75
40
1
40
1
40
1
40
1
41
1
10
260.425822369274
20
13.6764035818212
30
0
41
1
10
260.432259965468
20
13.702245369355
30
0
41
1
10
260.44885547909
20
13.7246629405782
30
0
41
1
10
260.4894290541
20
13.7593500821708
30
0
41
1
10
260.513641261763
20
13.7724303825098
30
0
41
1
10
260.564174919453
20
13.7923391563732
30
0
41
1
10
260.591162704233
20
13.7993722597261
30
0
41
1
10
260.645738124082
20
13.8087482657693
30
0
41
1
10
260.673526452675
20
13.8111576939511
30
0
41
1
10
260.701739605994
20
13.8116415891299
30
0
0
SPLINE
5
2D1
100
AcDbEntity
8
1
62
256
6
ByLayer
370
13
48
1
60
0
100
AcDbSpline
70
4
71
3
72
8
73
4
40
0
40
0
40
0
40
0
40
1
40
1
40
1
40
1
41
1
10
35.0000000000001
20
-30.1058215416473
30
0
41
1
10
34.0470249283029
20
-30.1057929209773
30
0
41
1
10
33.0941678336723
20
-30.114226767844
30
0
41
1
10
32.1414286475111
20
-30.1311183250453
30
0
0
SPLINE
5
2D2
100
AcDbEntity
8
1
62
256
6
ByLayer
370
13
48
1
60
0
100
AcDbSpline
70
4
71
3
72
10
73
6
40
0
40
0
40
0
40
0
40
0.625782173464506
40
0.625782173464506
40
1
40
1
40
1
40
1
41
1
10
260.01567082858
20
11.67789849921
30
0
41
1
10
255.378787113293
20
11.824828988338
30
0
41
1
10
250.745712178684
20
11.8831916648476
30
0
41
1
10
243.343163715671
20
11.8369473719615
30
0
41
1
10
240.573244269284
20
11.7884822182448
30
0
41
1
10
237.80292245629
20
11.7096082006109
30
0
0
SPLINE
5
2D3
100
AcDbEntity
8
1
62
256
6
ByLayer
370
13
48
1
60
0
100
AcDbSpline
70
4
71
3
72
14
73
10
40
0
40
0
40
0
40
0
40
0.500000000000003
40
0.500000000000003
40
0.625000000000004
40
0.625000000000004
40
0.750000000000004
40
0.750000000000004
40
1
40
1
40
1
40
1
41
1
10
28.7179169000204
20
-11.47771577956
30
0
41
1
10
29.2595895631432
20
-11.2821344624176
30
0
41
1
10
29.8182542538534
20
-11.1324056373575
30
0
41
1
10
30.5385118180912
20
-11.00539347867
30
0
41
1
10
30.6835828873113
20
-10.9830497943858
30
0
41
1
10
30.9737125529304
20
-10.9448016231156
30
0
41
1
10
31.1190444580756
20
-10.928845937401
30
0
41
1
10
31.5558382915672
20
-10.8904527750511
30
0
41
1
10
31.8480967468124
20
-10.8774710555531
30
0
41
1
10
32.1414284884089
20
-10.8772358073567
30
0
0
SPLINE
5
2D4
100
AcDbEntity
8
1
62
256
6
ByLayer
370
13
48
1
60
0
100
AcDbSpline
70
4
71
3
72
14
73
10
40
0
40
0
40
0
40
0
40
0.499999999999971
40
0.499999999999971
40
0.624999999999972
40
0.624999999999972
40
0.749999999999974
40
0.749999999999974
40
1
40
1
40
1
40
1
41
1
10
264.135807821553
20
11.6276189519492
30
0
41
1
10
264.156339385642
20
11.9871799428616
30
0
41
1
10
264.142486674131
20
12.3447832174375
30
0
41
1
10
264.066114241274
20
12.7884248445909
30
0
41
1
10
264.047747253738
20
12.8773155114395
30
0
41
1
10
264.004807829114
20
13.0528877546442
30
0
41
1
10
263.980290493183
20
13.1394591384714
30
0
41
1
10
263.897173628823
20
13.3953608793534
30
0
41
1
10
263.829055599659
20
13.5608973025591
30
0
41
1
10
263.746654128702
20
13.7207405567661
30
0
0
SPLINE
5
2D5
100
AcDbEntity
8
1
62
256
6
ByLayer
370
13
48
1
60
0
100
AcDbSpline
70
4
71
3
72
8
73
4
40
0
40
0
40
0
40
0
40
1
40
1
40
1
40
1
41
1
10
259.76001816222
20
10.6863164027559
30
0
41
1
10
259.850705666587
20
11.0133447422166
30
0
41
1
10
259.934188471598
20
11.3415235165618
30
0
41
1
10
260.013621693938
20
11.6703489217989
30
0
0
SPLINE
5
2D6
100
AcDbEntity
8
1
62
256
6
ByLayer
370
13
48
1
60
0
100
AcDbSpline
70
4
71
3
72
62
73
58
40
0
40
0
40
0
40
0
40
0.0075346200473126
40
0.0075346200473126
40
0.0277890155565506
40
0.0277890155565506
40
0.0480434110657886
40
0.0480434110657886
40
0.0581706088204078
40
0.0581706088204078
40
0.0682978065750271
40
0.0682978065750271
40
0.0885522020842655
40
0.0885522020842655
40
0.108806597593504
40
0.108806597593504
40
0.149315388611981
40
0.149315388611981
40
0.189824179630458
40
0.189824179630458
40
0.230332970648934
40
0.230332970648934
40
0.270841761667411
40
0.270841761667411
40
0.311350552685888
40
0.311350552685888
40
0.331604948195127
40
0.331604948195127
40
0.351859343704365
40
0.351859343704365
40
0.372113739213604
40
0.372113739213604
40
0.392368134722842
40
0.392368134722842
40
0.432876925741319
40
0.432876925741319
40
0.453131321250557
40
0.453131321250557
40
0.473385716759796
40
0.473385716759796
40
0.493640112269034
40
0.493640112269034
40
0.513894507778273
40
0.513894507778273
40
0.55440329879675
40
0.55440329879675
40
0.574657694305988
40
0.574657694305988
40
0.594912089815227
40
0.594912089815227
40
0.675929671852181
40
0.675929671852181
40
0.756947253889136
40
0.756947253889136
40
0.837964835926091
40
0.837964835926091
40
1
40
1
40
1
40
1
41
1
10
201.991604757662
20
-24.8434432329442
30
0
41
1
10
201.601018405966
20
-24.9356202901126
30
0
41
1
10
201.210457305238
20
-25.0267079089273
30
0
41
1
10
199.770205975063
20
-25.3584130313628
30
0
41
1
10
198.720705827354
20
-25.5915990426287
30
0
41
1
10
196.621115034052
20
-26.0362713425226
30
0
41
1
10
195.571083022578
20
-26.2477627762592
30
0
41
1
10
193.994248299622
20
-26.5446508142135
30
0
41
1
10
193.468348290603
20
-26.6404790454173
30
0
41
1
10
192.415097763675
20
-26.8278227872651
30
0
41
1
10
191.887720877746
20
-26.9195129814992
30
0
41
1
10
190.302984100582
20
-27.1870152898509
30
0
41
1
10
189.24293637836
20
-27.3544467722313
30
0
41
1
10
187.114354490036
20
-27.6632497429633
30
0
41
1
10
186.045995743354
20
-27.8055877537255
30
0
41
1
10
182.832472470627
20
-28.199537531231
30
0
41
1
10
180.677525324373
20
-28.4182394553183
30
0
41
1
10
176.341555952704
20
-28.7867556862607
30
0
41
1
10
174.160402999184
20
-28.9366864242502
30
0
41
1
10
169.77276054956
20
-29.1785913415779
30
0
41
1
10
167.569399153548
20
-29.2705747313543
30
0
41
1
10
163.146255189223
20
-29.4091600923933
30
0
41
1
10
160.926409304586
20
-29.4554938410845
30
0
41
1
10
156.46802274543
20
-29.5194947513919
30
0
41
1
10
154.228585260518
20
-29.537769255993
30
0
41
1
10
150.860225195796
20
-29.5497285002104
30
0
41
1
10
149.735656415549
20
-29.5510518995517
30
0
41
1
10
147.482723187724
20
-29.5488924571107
30
0
41
1
10
146.354359813248
20
-29.5454436024169
30
0
41
1
10
144.093783456638
20
-29.5364159690877
30
0
41
1
10
142.961562914745
20
-29.5309918200927
30
0
41
1
10
140.693292154886
20
-29.5193973055957
30
0
41
1
10
139.556893869393
20
-29.5131294960017
30
0
41
1
10
136.145257724689
20
-29.4935334694599
30
0
41
1
10
133.86756874394
20
-29.4800237950546
30
0
41
1
10
130.446156116322
20
-29.458023021876
30
0
41
1
10
129.304866584638
20
-29.4501192514768
30
0
41
1
10
127.020572087077
20
-29.4339987713761
30
0
41
1
10
125.877551799224
20
-29.4254063774652
30
0
41
1
10
123.589909210596
20
-29.4138813009278
30
0
41
1
10
122.445165651833
20
-29.4110782393609
30
0
41
1
10
120.15602947342
20
-29.4183519611247
30
0
41
1
10
119.011420165725
20
-29.4274089406594
30
0
41
1
10
115.57753369218
20
-29.4399097444592
30
0
41
1
10
113.288195113255
20
-29.4337510825291
30
0
41
1
10
109.854165140078
20
-29.4245439987008
30
0
41
1
10
108.709483854516
20
-29.4211735659156
30
0
41
1
10
106.420123730153
20
-29.4159120175306
30
0
41
1
10
105.275445034637
20
-29.4143008401623
30
0
41
1
10
99.552048685925
20
-29.4101363480733
30
0
41
1
10
94.9733309187619
20
-29.4170669456152
30
0
41
1
10
85.8158952491105
20
-29.4209745960901
30
0
41
1
10
81.2371773123874
20
-29.4195999975174
30
0
41
1
10
72.0797416829812
20
-29.41819849939
30
0
41
1
10
67.5010239908212
20
-29.418182715721
30
0
41
1
10
53.7648709136825
20
-29.4181545660985
30
0
41
1
10
44.6074356140199
20
-29.4182692437084
30
0
41
1
10
35.4500000000001
20
-29.4179813687814
30
0
0
SPLINE
5
2D7
100
AcDbEntity
8
1
62
256
6
ByLayer
370
13
48
1
60
0
100
AcDbSpline
70
4
71
3
72
18
73
14
40
0
40
0
40
0
40
0
40
0.249999999999948
40
0.249999999999948
40
0.374999999999922
40
0.374999999999922
40
0.499999999999895
40
0.499999999999895
40
0.749999999999843
40
0.749999999999843
40
0.874999999999921
40
0.874999999999921
40
1
40
1
40
1
40
1
41
1
10
271.752959616462
20
11.8188110916647
30
0
41
1
10
271.747539013916
20
11.8185270099279
30
0
41
1
10
271.748703062169
20
11.8287800510719
30
0
41
1
10
271.763828497669
20
11.8571907124693
30
0
41
1
10
271.771142838907
20
11.8686927323075
30
0
41
1
10
271.791002901156
20
11.8941865097252
30
0
41
1
10
271.803815423087
20
11.9084291364106
30
0
41
1
10
271.849796732583
20
11.9508904958321
30
0
41
1
10
271.891932277462
20
11.979580475162
30
0
41
1
10
271.965166391347
20
12.0107631827976
30
0
41
1
10
271.991663651513
20
12.0194405473626
30
0
41
1
10
272.045785704981
20
12.0319213105729
30
0
41
1
10
272.073642941842
20
12.0358759630138
30
0
41
1
10
272.102306336358
20
12.0373940088787
30
0
0
SPLINE
5
2D8
100
AcDbEntity
8
1
62
256
6
ByLayer
370
13
48
1
60
0
100
AcDbSpline
70
4
71
3
72
20
73
16
40
0
40
0
40
0
40
0
40
0.249999999999999
40
0.249999999999999
40
0.312499999999999
40
0.312499999999999
40
0.374999999999999
40
0.374999999999999
40
0.499999999999999
40
0.499999999999999
40
0.75
40
0.75
40
0.875
40
0.875
40
1
40
1
40
1
40
1
41
1
10
6.41027929752322
20
-22.9137689602713
30
0
41
1
10
6.23116181221151
20
-23.2608257397131
30
0
41
1
10
6.09370666358997
20
-23.6073141060155
30
0
41
1
10
5.97768307019481
20
-24.0387440959768
30
0
41
1
10
5.95732986403691
20
-24.1247881451656
30
0
41
1
10
5.92262345026839
20
-24.2950653152827
30
0
41
1
10
5.90821712468232
20
-24.3794881913019
30
0
41
1
10
5.87372890623728
20
-24.630618362577
30
0
41
1
10
5.86237320150858
20
-24.7951880381909
30
0
41
1
10
5.86238843701605
20
-25.2803848506919
30
0
41
1
10
5.90824943028906
20
-25.5925101994743
30
0
41
1
10
6.04699272186045
20
-26.0435895380834
30
0
41
1
10
6.10465378003458
20
-26.1892450391826
30
0
41
1
10
6.24130599113566
20
-26.4708599251426
30
0
41
1
10
6.32042715110691
20
-26.6069569041831
30
0
41
1
10
6.41015493299381
20
-26.7385685723158
30
0
0
SPLINE
5
2D9
100
AcDbEntity
8
1
62
256
6
ByLayer
370
13
48
1
60
0
100
AcDbSpline
70
4
71
3
72
10
73
6
40
0
40
0
40
0
40
0
40
0.5
40
0.5
40
1
40
1
40
1
40
1
41
1
10
284.427405143894
20
-5.51131042467216
30
0
41
1
10
284.481601233717
20
-5.80472913467557
30
0
41
1
10
284.514909489225
20
-6.09813783974855
30
0
41
1
10
284.541708582224
20
-6.68481663392012
30
0
41
1
10
284.535196348853
20
-6.97808698672603
30
0
41
1
10
284.50849608623
20
-7.27128201853029
30
0
0
SPLINE
5
2DA
100
AcDbEntity
8
1
62
256
6
ByLayer
370
13
48
1
60
0
100
AcDbSpline
70
4
71
3
72
8
73
4
40
0
40
0
40
0
40
0
40
1
40
1
40
1
40
1
41
1
10
263.997482366221
20
-0.501625229933182
30
0
41
1
10
264.178040133826
20
-0.52328416808453
30
0
41
1
10
264.358602413857
20
-0.544923999967693
30
0
41
1
10
264.539169144041
20
-0.566544929201513
30
0
0
SPLINE
5
2DB
100
AcDbEntity
8
1
62
256
6
ByLayer
370
13
48
1
60
0
100
AcDbSpline
70
4
71
3
72
12
73
8
40
0
40
0
40
0
40
0
40
0.119072139304766
40
0.119072139304766
40
0.412714759536512
40
0.412714759536512
40
1
40
1
40
1
40
1
41
1
10
233.091238023957
20
13.5983701580828
30
0
41
1
10
233.969022440596
20
13.2480742106685
30
0
41
1
10
234.846768620821
20
12.8942504430971
30
0
41
1
10
237.889382795601
20
11.6564024705962
30
0
41
1
10
240.055180205954
20
10.755366060159
30
0
41
1
10
246.555683971781
20
8.00372026632496
30
0
41
1
10
250.881865853977
20
6.11002215787755
30
0
41
1
10
255.212594843164
20
4.18342515075167
30
0
0
SPLINE
5
2DC
100
AcDbEntity
8
1
62
256
6
ByLayer
370
13
48
1
60
0
100
AcDbSpline
70
4
71
3
72
10
73
6
40
0
40
0
40
0
40
0
40
0.5
40
0.5
40
1
40
1
40
1
40
1
41
1
10
10.3344
20
5.28797585436342
30
0
41
1
10
9.48707345942414
20
5.38333923480027
30
0
41
1
10
8.63832525011549
20
5.4527883610138
30
0
41
1
10
6.93826877626022
20
5.54502178869413
30
0
41
1
10
6.08695822253169
20
5.56776436282991
30
0
41
1
10
5.23439999999999
20
5.56776436282991
30
0
0
SPLINE
5
2DD
100
AcDbEntity
8
1
62
256
6
ByLayer
370
13
48
1
60
0
100
AcDbSpline
70
4
71
3
72
22
73
18
40
0
40
0
40
0
40
0
40
0.125
40
0.125
40
0.25
40
0.25
40
0.375
40
0.375
40
0.5
40
0.5
40
0.625
40
0.625
40
0.75
40
0.75
40
0.875
40
0.875
40
1
40
1
40
1
40
1
41
1
10
264.984182799709
20
9.20149172285093
30
0
41
1
10
264.944354113844
20
9.13486044655548
30
0
41
1
10
264.900400951888
20
9.07085591156925
30
0
41
1
10
264.804383463745
20
8.9509774339696
30
0
41
1
10
264.752170966067
20
8.89478238956795
30
0
41
1
10
264.637244903265
20
8.7918212057258
30
0
41
1
10
264.576052879976
20
8.74648830045726
30
0
41
1
10
264.445887570584
20
8.67080816853638
30
0
41
1
10
264.375916635925
20
8.64032573714601
30
0
41
1
10
264.235004774209
20
8.59984373991108
30
0
41
1
10
264.162991997476
20
8.58922207382065
30
0
41
1
10
264.017931457752
20
8.58763310820177
30
0
41
1
10
263.947414958704
20
8.5965664439058
30
0
41
1
10
263.80957138332
20
8.63004604880533
30
0
41
1
10
263.742875589645
20
8.65455064980407
30
0
41
1
10
263.615986069833
20
8.71336571213359
30
0
41
1
10
263.555148568652
20
8.74785387742469
30
0
41
1
10
263.496060819387
20
8.78588426437926
30
0
0
SPLINE
5
2DE
100
AcDbEntity
8
1
62
256
6
ByLayer
370
13
48
1
60
0
100
AcDbSpline
70
4
71
3
72
10
73
6
40
0
40
0
40
0
40
0
40
0.5
40
0.5
40
1
40
1
40
1
40
1
41
1
10
264.135807821553
20
11.6276189519491
30
0
41
1
10
264.133297115885
20
11.5357686401059
30
0
41
1
10
264.124602692568
20
11.4448695741673
30
0
41
1
10
264.093717747235
20
11.2651475572329
30
0
41
1
10
264.071443344402
20
11.1760083189611
30
0
41
1
10
264.041455963178
20
11.0887527460595
30
0
0
SPLINE
5
2DF
100
AcDbEntity
8
1
62
256
6
ByLayer
370
13
48
1
60
0
100
AcDbSpline
70
4
71
3
72
12
73
8
40
0
40
0
40
0
40
0
40
0.500000000000002
40
0.500000000000002
40
0.750000000000001
40
0.750000000000001
40
1
40
1
40
1
40
1
41
1
10
271.018925842043
20
11.5448128337988
30
0
41
1
10
271.024244869615
20
11.5690105646721
30
0
41
1
10
271.014461052574
20
11.5934844201492
30
0
41
1
10
270.974680658669
20
11.6266425279413
30
0
41
1
10
270.957238452053
20
11.637100966512
30
0
41
1
10
270.915436284573
20
11.6558757204864
30
0
41
1
10
270.890447553605
20
11.6644369083523
30
0
41
1
10
270.863019877619
20
11.671626579479
30
0
0
SPLINE
5
2E0
100
AcDbEntity
8
1
62
256
6
ByLayer
370
13
48
1
60
0
100
AcDbSpline
70
4
71
3
72
54
73
50
40
0
40
0
40
0
40
0
40
0.124999999999977
40
0.124999999999977
40
0.187499999999963
40
0.187499999999963
40
0.218749999999956
40
0.218749999999956
40
0.249999999999948
40
0.249999999999948
40
0.31249999999994
40
0.31249999999994
40
0.374999999999931
40
0.374999999999931
40
0.406249999999927
40
0.406249999999927
40
0.437499999999923
40
0.437499999999923
40
0.499999999999914
40
0.499999999999914
40
0.531249999999912
40
0.531249999999912
40
0.546874999999913
40
0.546874999999913
40
0.562499999999915
40
0.562499999999915
40
0.624999999999929
40
0.624999999999929
40
0.656249999999935
40
0.656249999999935
40
0.68749999999994
40
0.68749999999994
40
0.749999999999948
40
0.749999999999948
40
0.765624999999951
40
0.765624999999951
40
0.781249999999955
40
0.781249999999955
40
0.812499999999962
40
0.812499999999962
40
0.874999999999975
40
0.874999999999975
40
0.890624999999978
40
0.890624999999978
40
0.906249999999981
40
0.906249999999981
40
0.937499999999988
40
0.937499999999988
40
1
40
1
40
1
40
1
41
1
10
263.552422581068
20
2.28833028999986
30
0
41
1
10
264.703946545608
20
2.07934146222405
30
0
41
1
10
265.863584780235
20
1.90560093016515
30
0
41
1
10
267.620985222133
20
1.72293470798974
30
0
41
1
10
268.209784285663
20
1.67507322479864
30
0
41
1
10
269.098373415212
20
1.62669741866276
30
0
41
1
10
269.395469909705
20
1.61448225206286
30
0
41
1
10
269.991639915476
20
1.59864005698898
30
0
41
1
10
270.291406021989
20
1.59501884525503
30
0
41
1
10
271.18852212684
20
1.59831990527601
30
0
41
1
10
271.782133217338
20
1.61927027799973
30
0
41
1
10
272.959270304336
20
1.70350844037293
30
0
41
1
10
273.54280591537
20
1.76675586802529
30
0
41
1
10
274.4093717076
20
1.89830772303799
30
0
41
1
10
274.697149653251
20
1.94836582028847
30
0
41
1
10
275.267892236846
20
2.06154666307816
30
0
41
1
10
275.54865545924
20
2.12421866692577
30
0
41
1
10
276.376624470278
20
2.33113462191415
30
0
41
1
10
276.909588922707
20
2.49417383259913
30
0
41
1
10
277.677389706562
20
2.78049788729925
30
0
41
1
10
277.928031682377
20
2.88292294793067
30
0
41
1
10
278.29545161928
20
3.04783535213494
30
0
41
1
10
278.416777597045
20
3.10483007154554
30
0
41
1
10
278.654609210146
20
3.22182169447581
30
0
41
1
10
278.77119352468
20
3.28183973383088
30
0
41
1
10
279.342407624594
20
3.58957372326043
30
0
41
1
10
279.762123394229
20
3.86008498558095
30
0
41
1
10
280.332503499195
20
4.30449926506736
30
0
41
1
10
280.512724785263
20
4.45910459026882
30
0
41
1
10
280.85220717794
20
4.78200011264337
30
0
41
1
10
281.008927680782
20
4.94791222887014
30
0
41
1
10
281.439477017105
20
5.45730267623827
30
0
41
1
10
281.674603612646
20
5.81298838729592
30
0
41
1
10
281.903065232808
20
6.27788540179381
30
0
41
1
10
281.945465621465
20
6.37188537619352
30
0
41
1
10
282.023587686937
20
6.56195587079227
30
0
41
1
10
282.059370123103
20
6.65825035846899
30
0
41
1
10
282.155600569091
20
6.94733570540751
30
0
41
1
10
282.205306012485
20
7.14101965343056
30
0
41
1
10
282.313015931165
20
7.72482381717978
30
0
41
1
10
282.329844108285
20
8.11768105675532
30
0
41
1
10
282.284544662604
20
8.61316192843003
30
0
41
1
10
282.272109108235
20
8.71267679474499
30
0
41
1
10
282.240846992306
20
8.91053430852367
30
0
41
1
10
282.222021783231
20
9.00901149529565
30
0
41
1
10
282.156288346483
20
9.30313424147414
30
0
41
1
10
282.100136523765
20
9.49747299630107
30
0
41
1
10
281.896698548383
20
10.0755436416348
30
0
41
1
10
281.714398556211
20
10.4546484638808
30
0
41
1
10
281.489006176028
20
10.8269971518509
30
0
0
SPLINE
5
2E1
100
AcDbEntity
8
1
62
256
6
ByLayer
370
13
48
1
60
0
100
AcDbSpline
70
4
71
3
72
10
73
6
40
0
40
0
40
0
40
0
40
0.5
40
0.5
40
1
40
1
40
1
40
1
41
1
10
270.929458131622
20
10.9468862663754
30
0
41
1
10
270.893998060842
20
10.903936732547
30
0
41
1
10
270.857776562227
20
10.8630132745132
30
0
41
1
10
270.786685914891
20
10.7874601312899
30
0
41
1
10
270.75158983479
20
10.7525426797844
30
0
41
1
10
270.717701577098
20
10.7208133005452
30
0
0
SPLINE
5
2E2
100
AcDbEntity
8
1
62
256
6
ByLayer
370
13
48
1
60
0
100
AcDbSpline
70
4
71
3
72
30
73
26
40
0
40
0
40
0
40
0
40
0.112978054188867
40
0.112978054188867
40
0.225956108377734
40
0.225956108377734
40
0.338934162566601
40
0.338934162566601
40
0.39542318966104
40
0.39542318966104
40
0.451912216755478
40
0.451912216755478
40
0.564890270944354
40
0.564890270944354
40
0.677868325133231
40
0.677868325133231
40
0.734357352227669
40
0.734357352227669
40
0.790846379322107
40
0.790846379322107
40
0.903824433510984
40
0.903824433510984
40
0.96031346060542
40
0.96031346060542
40
1
40
1
40
1
40
1
41
1
10
259.76001816222
20
10.6863164027564
30
0
41
1
10
259.143263395322
20
10.8318118964143
30
0
41
1
10
258.520267508834
20
10.9511517988719
30
0
41
1
10
257.26301514732
20
11.1460077131079
30
0
41
1
10
256.62874127843
20
11.2214419634272
30
0
41
1
10
255.348837870095
20
11.3323259696189
30
0
41
1
10
254.703203563681
20
11.3677412374963
30
0
41
1
10
253.725458619539
20
11.3917169819968
30
0
41
1
10
253.397987704545
20
11.3948324794753
30
0
41
1
10
252.739718363801
20
11.3912517883232
30
0
41
1
10
252.408175863017
20
11.3845195525633
30
0
41
1
10
251.415646653774
20
11.3496418844194
30
0
41
1
10
250.755947915717
20
11.3069621109033
30
0
41
1
10
249.440411789517
20
11.1831837211174
30
0
41
1
10
248.784572768109
20
11.1021032638837
30
0
41
1
10
247.80375840805
20
10.9506281645578
30
0
41
1
10
247.477312479266
20
10.8951452176768
30
0
41
1
10
246.825438067159
20
10.7737629468388
30
0
41
1
10
246.499021372783
20
10.7076289018307
30
0
41
1
10
245.532749729787
20
10.4951860641333
30
0
41
1
10
244.903656243949
20
10.3347430970146
30
0
41
1
10
243.98605085894
20
10.0635597376843
30
0
41
1
10
243.684544268365
20
9.96804515616702
30
0
41
1
10
243.17950143269
20
9.795835109991
30
0
41
1
10
242.972911960808
20
9.72174348958606
30
0
41
1
10
242.770496720866
20
9.64518856868781
30
0
0
SPLINE
5
2E3
100
AcDbEntity
8
1
62
256
6
ByLayer
370
13
48
1
60
0
100
AcDbSpline
70
4
71
3
72
15
73
11
40
0
40
0
40
0
40
0
40
0.499999999999999
40
0.499999999999999
40
0.562499999999999
40
0.562499999999999
40
0.624999999999999
40
0.624999999999999
40
0.749999999999999
40
1
40
1
40
1
40
1
41
1
10
16.693637932529
20
-30.7871167463065
30
0
41
1
10
18.6999293090078
20
-30.7062434950281
30
0
41
1
10
20.7047881965501
20
-30.604090008971
30
0
41
1
10
22.9586331996425
20
-30.4650830446287
30
0
41
1
10
23.2090373267059
20
-30.4493032376911
30
0
41
1
10
23.7098189403976
20
-30.4170724170047
30
0
41
1
10
23.9602040446527
20
-30.4008343507084
30
0
41
1
10
24.7114705171781
20
-30.3545110662448
30
0
41
1
10
26.2143023640117
20
-30.2682935196924
30
0
41
1
10
27.7180321518762
20
-30.2013896183313
30
0
41
1
10
28.7209188552246
20
-30.1653943732263
30
0
0
SPLINE
5
2E4
100
AcDbEntity
8
1
62
256
6
ByLayer
370
13
48
1
60
0
100
AcDbSpline
70
4
71
3
72
8
73
4
40
0
40
0
40
0
40
0
40
1
40
1
40
1
40
1
41
1
10
264.984182799789
20
9.20149172290834
30
0
41
1
10
264.979041005636
20
9.40870173117744
30
0
41
1
10
264.955750560104
20
9.61525406629116
30
0
41
1
10
264.91490622268
20
9.82144562578111
30
0
0
SPLINE
5
2E5
100
AcDbEntity
8
1
62
256
6
ByLayer
370
13
48
1
60
0
100
AcDbSpline
70
4
71
3
72
32
73
28
40
0
40
0
40
0
40
0
40
0.125541396929389
40
0.125541396929389
40
0.251082793858778
40
0.251082793858778
40
0.376624190788167
40
0.376624190788167
40
0.439394889252862
40
0.439394889252862
40
0.502165587717556
40
0.502165587717556
40
0.627706984646944
40
0.627706984646944
40
0.753248381576332
40
0.753248381576332
40
0.87878977850572
40
0.87878977850572
40
0.910175127738066
40
0.910175127738066
40
0.925867802354239
40
0.925867802354239
40
0.941560476970412
40
0.941560476970412
40
0.972945826202758
40
0.972945826202758
40
1
40
1
40
1
40
1
41
1
10
253.208384280106
20
29.5308594416448
30
0
41
1
10
251.066504322132
20
29.6656954666888
30
0
41
1
10
248.925180180468
20
29.7546292625352
30
0
41
1
10
244.64174649486
20
29.8397466584209
30
0
41
1
10
242.50202912067
20
29.8358955452319
30
0
41
1
10
238.223150496129
20
29.7345417875685
30
0
41
1
10
236.083999499513
20
29.6369594863737
30
0
41
1
10
232.873029250395
20
29.4195002490648
30
0
41
1
10
231.802059259697
20
29.3352387756682
30
0
41
1
10
229.661271183465
20
29.1441114265175
30
0
41
1
10
228.591238972535
20
29.0372377728977
30
0
41
1
10
225.381555918104
20
28.6838226319885
30
0
41
1
10
223.242298392638
20
28.4046565816734
30
0
41
1
10
218.961739334774
20
27.7637986490727
30
0
41
1
10
216.819482384194
20
27.4002767683056
30
0
41
1
10
212.537019834723
20
26.5682444971475
30
0
41
1
10
210.395261864027
20
26.1026850472003
30
0
41
1
10
207.717719829912
20
25.4963508081449
30
0
41
1
10
207.182217608298
20
25.3738201332515
30
0
41
1
10
206.378960519016
20
25.1886366413247
30
0
41
1
10
206.111226967842
20
25.1267458250005
30
0
41
1
10
205.575667796973
20
25.002253984767
30
0
41
1
10
205.3077675899
20
24.9393768358769
30
0
41
1
10
204.502941887738
20
24.7465936940167
30
0
41
1
10
203.96511386463
20
24.6134173715953
30
0
41
1
10
202.962382582029
20
24.3621355419178
30
0
41
1
10
202.497676557554
20
24.2445040494588
30
0
41
1
10
202.032495872424
20
24.1259930296264
30
0
0
SPLINE
5
2E6
100
AcDbEntity
8
1
62
256
6
ByLayer
370
13
48
1
60
0
100
AcDbSpline
70
4
71
3
72
10
73
6
40
0
40
0
40
0
40
0
40
0.5
40
0.5
40
1
40
1
40
1
40
1
41
1
10
5.23439999999998
20
-5.56776436282993
30
0
41
1
10
6.08695822253168
20
-5.56776436282993
30
0
41
1
10
6.93826877626022
20
-5.5450217886941
30
0
41
1
10
8.63832525011549
20
-5.45278836101377
30
0
41
1
10
9.48707345942412
20
-5.3833392348003
30
0
41
1
10
10.3344
20
-5.28797585436345
30
0
0
SPLINE
5
2E7
100
AcDbEntity
8
1
62
256
6
ByLayer
370
13
48
1
60
0
100
AcDbSpline
70
4
71
3
72
44
73
40
40
0
40
0
40
0
40
0
40
0.125000000000001
40
0.125000000000001
40
0.156250000000001
40
0.156250000000001
40
0.187500000000001
40
0.187500000000001
40
0.250000000000001
40
0.250000000000001
40
0.281250000000001
40
0.281250000000001
40
0.312500000000002
40
0.312500000000002
40
0.375000000000002
40
0.375000000000002
40
0.437500000000002
40
0.437500000000002
40
0.468750000000002
40
0.468750000000002
40
0.500000000000002
40
0.500000000000002
40
0.562500000000002
40
0.562500000000002
40
0.625000000000001
40
0.625000000000001
40
0.687500000000001
40
0.687500000000001
40
0.750000000000001
40
0.750000000000001
40
0.8125
40
0.8125
40
0.84375
40
0.84375
40
0.875
40
0.875
40
0.9375
40
0.9375
40
1
40
1
40
1
40
1
41
1
10
6.41015493299379
20
-26.7385685723158
30
0
41
1
10
6.18570765348991
20
-27.1404354085016
30
0
41
1
10
6.06228356175751
20
-27.5253292648345
30
0
41
1
10
6.03604555375303
20
-27.9815728597333
30
0
41
1
10
6.03725835240854
20
-28.0710341403203
30
0
41
1
10
6.05245389320332
20
-28.2451934205969
30
0
41
1
10
6.06640543639858
20
-28.3300950525042
30
0
41
1
10
6.12654782215655
20
-28.5784520314898
30
0
41
1
10
6.19085713779864
20
-28.7355731873691
30
0
41
1
10
6.32402499878971
20
-28.959011681187
30
0
41
1
10
6.37442670281011
20
-29.0314555401681
30
0
41
1
10
6.48746874074351
20
-29.1723221528314
30
0
41
1
10
6.54994174327902
20
-29.2404790150642
30
0
41
1
10
6.75299091463386
20
-29.4366458805684
30
0
41
1
10
6.90965892181168
20
-29.5571664687308
30
0
41
1
10
7.26335563774322
20
-29.7798656269785
30
0
41
1
10
7.46046265743205
20
-29.8820260136475
30
0
41
1
10
7.78640287924974
20
-30.02266999705
30
0
41
1
10
7.9002469633446
20
-30.0674731500962
30
0
41
1
10
8.13535980527887
20
-30.1521097453147
30
0
41
1
10
8.25692661622563
20
-30.1920828038442
30
0
41
1
10
8.63335698256473
20
-30.3054874726163
30
0
41
1
10
8.89990974448872
20
-30.3724235899788
30
0
41
1
10
9.46367005929162
20
-30.4911908628821
30
0
41
1
10
9.76077135146635
20
-30.5430386438595
30
0
41
1
10
10.3866309400096
20
-30.6332443412832
30
0
41
1
10
10.710853618176
20
-30.6709780009739
30
0
41
1
10
11.3790133642464
20
-30.7337478545566
30
0
41
1
10
11.723334852486
20
-30.7588478967541
30
0
41
1
10
12.4324921476818
20
-30.798313207902
30
0
41
1
10
12.7974846653561
20
-30.8126274087313
30
0
41
1
10
13.3615680949792
20
-30.8268263046078
30
0
41
1
10
13.5523577937434
20
-30.8303321104886
30
0
41
1
10
13.9348855716946
20
-30.8349680977104
30
0
41
1
10
14.1272024897106
20
-30.8361153375696
30
0
41
1
10
14.7073346619465
20
-30.8362865261765
30
0
41
1
10
15.0983259408284
20
-30.8320609520801
30
0
41
1
10
15.8891482891114
20
-30.8156247527894
30
0
41
1
10
16.2889604330925
20
-30.8034293621584
30
0
41
1
10
16.693637932529
20
-30.7871167463064
30
0
0
SPLINE
5
2E8
100
AcDbEntity
8
1
62
256
6
ByLayer
370
13
48
1
60
0
100
AcDbSpline
70
4
71
3
72
8
73
4
40
0
40
0
40
0
40
0
40
1
40
1
40
1
40
1
41
1
10
1.42E-14
20
4.97594212184995
30
0
41
1
10
0.031571657597965
20
5.1735845200318
30
0
41
1
10
0.0649171506606621
20
5.37085605809409
30
0
41
1
10
0.0999999999999801
20
5.56776436282993
30
0
0
SPLINE
5
2E9
100
AcDbEntity
8
1
62
256
6
ByLayer
370
13
48
1
60
0
100
AcDbSpline
70
4
71
3
72
8
73
4
40
0
40
0
40
0
40
0
40
1
40
1
40
1
40
1
41
1
10
264.620590477871
20
9.89898666550911
30
0
41
1
10
264.726286927632
20
9.87057976088087
30
0
41
1
10
264.824574617495
20
9.84467122500965
30
0
41
1
10
264.91490622268
20
9.82144562577793
30
0
0
SPLINE
5
2EA
100
AcDbEntity
8
1
62
256
6
ByLayer
370
13
48
1
60
0
100
AcDbSpline
70
4
71
3
72
8
73
4
40
0
40
0
40
0
40
0
40
1
40
1
40
1
40
1
41
1
10
260.013621693938
20
11.6703489217989
30
0
41
1
10
260.014231626175
20
11.6728738252212
30
0
41
1
10
260.014915140128
20
11.6753902901003
30
0
41
1
10
260.015670828578
20
11.6778984991978
30
0
0
SPLINE
5
2EB
100
AcDbEntity
8
1
62
256
6
ByLayer
370
13
48
1
60
0
100
AcDbSpline
70
4
71
3
72
26
73
22
40
0
40
0
40
0
40
0
40
0.0625000000000012
40
0.0625000000000012
40
0.0937500000000013
40
0.0937500000000013
40
0.125000000000001
40
0.125000000000001
40
0.187500000000001
40
0.187500000000001
40
0.250000000000001
40
0.250000000000001
40
0.312500000000001
40
0.312500000000001
40
0.375000000000001
40
0.375000000000001
40
0.437500000000001
40
0.437500000000001
40
0.500000000000001
40
0.500000000000001
40
1
40
1
40
1
40
1
41
1
10
136.2
20
-29.857901713247
30
0
41
1
10
134.204691723866
20
-29.8517599079875
30
0
41
1
10
132.206730564149
20
-29.8457055969712
30
0
41
1
10
129.205566167911
20
-29.8396478244453
30
0
41
1
10
128.204286231653
20
-29.8381283235519
30
0
41
1
10
126.201254966389
20
-29.8364519350784
30
0
41
1
10
125.199584247907
20
-29.8362827232999
30
0
41
1
10
122.194191226924
20
-29.8376495471607
30
0
41
1
10
120.190089239777
20
-29.8410817608495
30
0
41
1
10
116.181315509331
20
-29.8511301441396
30
0
41
1
10
114.176643842893
20
-29.8577156871624
30
0
41
1
10
110.16713979104
20
-29.8717772198723
30
0
41
1
10
108.162365660446
20
-29.8792921940823
30
0
41
1
10
104.152834672267
20
-29.8936900327287
30
0
41
1
10
102.14806348182
20
-29.9005815658848
30
0
41
1
10
98.1385147057306
20
-29.9140239479927
30
0
41
1
10
96.1337370944668
20
-29.9205731347829
30
0
41
1
10
92.124180857372
20
-29.9336176730466
30
0
41
1
10
90.1194026566961
20
-29.9401355475357
30
0
41
1
10
72.0764049584338
20
-29.9991205052482
30
0
41
1
10
56.0382110912196
20
-30.0530938420475
30
0
41
1
10
40.0000000000001
20
-30.1059308078939
30
0
0
SPLINE
5
2EC
100
AcDbEntity
8
1
62
256
6
ByLayer
370
13
48
1
60
0
100
AcDbSpline
70
4
71
3
72
8
73
4
40
0
40
0
40
0
40
0
40
1
40
1
40
1
40
1
41
1
10
257.077898264754
20
3.26396119270746
30
0
41
1
10
256.455196569931
20
3.56748482931639
30
0
41
1
10
255.83343543084
20
3.87399398125504
30
0
41
1
10
255.212594843163
20
4.18342515075173
30
0
0
SPLINE
5
2ED
100
AcDbEntity
8
1
62
256
6
ByLayer
370
13
48
1
60
0
100
AcDbSpline
70
4
71
3
72
14
73
10
40
0
40
0
40
0
40
0
40
0.25
40
0.25
40
0.5
40
0.5
40
0.75
40
0.75
40
1
40
1
40
1
40
1
41
1
10
270.863019877619
20
11.6716265794787
30
0
41
1
10
270.838189913335
20
11.6781353072828
30
0
41
1
10
270.811463401323
20
11.6854512242423
30
0
41
1
10
270.755744850538
20
11.699350814653
30
0
41
1
10
270.726563757483
20
11.7059851199462
30
0
41
1
10
270.665085147169
20
11.7167932608717
30
0
41
1
10
270.633782163179
20
11.7207524426626
30
0
41
1
10
270.570407159337
20
11.7248787787036
30
0
41
1
10
270.537888888429
20
11.7250195937818
30
0
41
1
10
270.506226946961
20
11.7233602617418
30
0
0
SPLINE
5
2EE
100
AcDbEntity
8
1
62
256
6
ByLayer
370
13
48
1
60
0
100
AcDbSpline
70
4
71
3
72
15
73
11
40
0
40
0
40
0
40
0
40
0.25
40
0.25
40
0.375
40
0.375
40
0.437500000000001
40
0.437500000000001
40
0.500000000000001
40
1
40
1
40
1
40
1
41
1
10
28.7179169000203
20
-11.4777157795598
30
0
41
1
10
27.7150456520874
20
-11.5084419082062
30
0
41
1
10
26.7123887787279
20
-11.5465199411914
30
0
41
1
10
25.2094796645217
20
-11.6146016685587
30
0
41
1
10
24.7086605369895
20
-11.6391237061416
30
0
41
1
10
23.9576572647016
20
-11.6786435307631
30
0
41
1
10
23.7073788460493
20
-11.6924967568059
30
0
41
1
10
23.206803778391
20
-11.7199818777241
30
0
41
1
10
20.954004220617
20
-11.8410940661939
30
0
41
1
10
18.6993022666293
20
-11.9391096332127
30
0
41
1
10
16.6936283343255
20
-12.0080911484312
30
0
0
SPLINE
5
2EF
100
AcDbEntity
8
1
62
256
6
ByLayer
370
13
48
1
60
0
100
AcDbSpline
70
4
71
3
72
20
73
16
40
0
40
0
40
0
40
0
40
0.250000000000002
40
0.250000000000002
40
0.375000000000001
40
0.375000000000001
40
0.500000000000001
40
0.500000000000001
40
0.625000000000001
40
0.625000000000001
40
0.750000000000001
40
0.750000000000001
40
0.875
40
0.875
40
1
40
1
40
1
40
1
41
1
10
260.015670828578
20
11.6778984991978
30
0
41
1
10
260.05654735046
20
11.8135719556524
30
0
41
1
10
260.094047059862
20
11.9622866430271
30
0
41
1
10
260.14806868983
20
12.2038215620147
30
0
41
1
10
260.165777279842
20
12.2880008946313
30
0
41
1
10
260.199792352431
20
12.4579758633453
30
0
41
1
10
260.216203000227
20
12.5442036168925
30
0
41
1
10
260.248289154305
20
12.7190344749458
30
0
41
1
10
260.263979669933
20
12.8077690244212
30
0
41
1
10
260.29512010067
20
12.9870737929416
30
0
41
1
10
260.310257339364
20
13.0758746261903
30
0
41
1
10
260.340678743428
20
13.2516497953646
30
0
41
1
10
260.355924872031
20
13.3386311538786
30
0
41
1
10
260.388440744098
20
13.5103819819742
30
0
41
1
10
260.405650854987
20
13.5954311239868
30
0
41
1
10
260.425822369279
20
13.676403581834
30
0
0
SPLINE
5
2F0
100
AcDbEntity
8
1
62
256
6
ByLayer
370
13
48
1
60
0
100
AcDbSpline
70
4
71
3
72
8
73
4
40
0
40
0
40
0
40
0
40
1
40
1
40
1
40
1
41
1
10
35.0000000000001
20
-10.8758570851335
30
0
41
1
10
34.0470233882701
20
-10.8760122252987
30
0
41
1
10
33.09416624143
20
-10.876471724217
30
0
41
1
10
32.1414284884089
20
-10.8772358073567
30
0
0
SPLINE
5
2F1
100
AcDbEntity
8
1
62
256
6
ByLayer
370
13
48
1
60
0
100
AcDbSpline
70
4
71
3
72
8
73
4
40
0
40
0
40
0
40
0
40
1
40
1
40
1
40
1
41
1
10
40.0000000000002
20
-10.8754530446871
30
0
41
1
10
38.3333333271356
20
-10.8754654509996
30
0
41
1
10
36.6666666475476
20
-10.875585759546
30
0
41
1
10
35.0000000000001
20
-10.8758570851336
30
0
0
SPLINE
5
2F2
100
AcDbEntity
8
1
62
256
6
ByLayer
370
13
48
1
60
0
100
AcDbSpline
70
4
71
3
72
62
73
58
40
0
40
0
40
0
40
0
40
0.0312500000000003
40
0.0312500000000003
40
0.0625000000000006
40
0.0625000000000006
40
0.0937500000000008
40
0.0937500000000008
40
0.125000000000001
40
0.125000000000001
40
0.140625000000001
40
0.140625000000001
40
0.156250000000001
40
0.156250000000001
40
0.164062500000001
40
0.164062500000001
40
0.171875000000001
40
0.171875000000001
40
0.179687500000001
40
0.179687500000001
40
0.1875
40
0.1875
40
0.203125
40
0.203125
40
0.218750000000001
40
0.218750000000001
40
0.250000000000001
40
0.250000000000001
40
0.281250000000001
40
0.281250000000001
40
0.312500000000001
40
0.312500000000001
40
0.375000000000002
40
0.375000000000002
40
0.406250000000002
40
0.406250000000002
40
0.437500000000001
40
0.437500000000001
40
0.500000000000001
40
0.500000000000001
40
0.531250000000001
40
0.531250000000001
40
0.562500000000002
40
0.562500000000002
40
0.625000000000001
40
0.625000000000001
40
0.687500000000001
40
0.687500000000001
40
0.750000000000001
40
0.750000000000001
40
0.812500000000001
40
0.812500000000001
40
0.875
40
0.875
40
0.9375
40
0.9375
40
1
40
1
40
1
40
1
41
1
10
247.669344379852
20
-29.7704010249227
30
0
41
1
10
246.455228267209
20
-29.7556725523117
30
0
41
1
10
245.238903875091
20
-29.7419750421094
30
0
41
1
10
242.80489078166
20
-29.7146865930702
30
0
41
1
10
241.58714545799
20
-29.7011504647797
30
0
41
1
10
239.153599224874
20
-29.6703672577969
30
0
41
1
10
237.93793381944
20
-29.6530482457803
30
0
41
1
10
235.517289300246
20
-29.6074238501679
30
0
41
1
10
234.312017543668
20
-29.5792669869699
30
0
41
1
10
232.517160728351
20
-29.5203486811263
30
0
41
1
10
231.920738267452
20
-29.497849556152
30
0
41
1
10
230.734827799854
20
-29.4448799101501
30
0
41
1
10
230.148289282265
20
-29.4145585469352
30
0
41
1
10
229.280002942043
20
-29.3611953163268
30
0
41
1
10
228.992471363721
20
-29.3421002462179
30
0
41
1
10
228.421822612607
20
-29.3007116332074
30
0
41
1
10
228.138890270466
20
-29.2783221404186
30
0
41
1
10
227.576951553581
20
-29.2302420226898
30
0
41
1
10
227.297926698024
20
-29.2045523295797
30
0
41
1
10
226.741280693946
20
-29.1509613052135
30
0
41
1
10
226.46340748307
20
-29.1232030908047
30
0
41
1
10
225.629698982489
20
-29.0377871935974
30
0
41
1
10
225.07434094102
20
-28.9776735637934
30
0
41
1
10
223.963401780181
20
-28.8517249541705
30
0
41
1
10
223.407712456693
20
-28.7859689407944
30
0
41
1
10
221.740003060514
20
-28.5804517295501
30
0
41
1
10
220.627460723401
20
-28.4323843847341
30
0
41
1
10
218.401946843779
20
-28.1135370525452
30
0
41
1
10
217.288798264481
20
-27.9427598097661
30
0
41
1
10
215.064713557567
20
-27.5781900762124
30
0
41
1
10
213.953682257209
20
-27.3842136868996
30
0
41
1
10
210.622814601485
20
-26.7673477477835
30
0
41
1
10
208.404091509325
20
-26.310029512261
30
0
41
1
10
205.063980272083
20
-25.5727010574441
30
0
41
1
10
203.948708024471
20
-25.3183575668172
30
0
41
1
10
201.715061025186
20
-24.796229472565
30
0
41
1
10
200.596367930058
20
-24.5284170601383
30
0
41
1
10
197.232567046103
20
-23.7096439943087
30
0
41
1
10
194.979808689135
20
-23.1431732802622
30
0
41
1
10
191.579588756927
20
-22.280522858378
30
0
41
1
10
190.442920918577
20
-21.9907927227069
30
0
41
1
10
188.164640528065
20
-21.4100283579927
30
0
41
1
10
187.022732001548
20
-21.1189192851509
30
0
41
1
10
183.587877937859
20
-20.2472807551224
30
0
41
1
10
181.285769429631
20
-19.6684863508687
30
0
41
1
10
176.652963662898
20
-18.5363315920847
30
0
41
1
10
174.324992216919
20
-17.9833188475022
30
0
41
1
10
169.646955201728
20
-16.9202735992822
30
0
41
1
10
167.296335493446
20
-16.4102509043718
30
0
41
1
10
162.569857814717
20
-15.4485846125113
30
0
41
1
10
160.197306937195
20
-14.9969158146687
30
0
41
1
10
155.435704727603
20
-14.1559222695455
30
0
41
1
10
153.04640767127
20
-13.7665888022981
30
0
41
1
10
148.251282565705
20
-13.0535911465346
30
0
41
1
10
145.848244278974
20
-12.7298211250578
30
0
41
1
10
141.032355030681
20
-12.1464602367291
30
0
41
1
10
138.619264400361
20
-11.8879848539077
30
0
41
1
10
136.2
20
-11.6713269760834
30
0
0
SPLINE
5
2F3
100
AcDbEntity
8
1
62
256
6
ByLayer
370
13
48
1
60
0
100
AcDbSpline
70
4
71
3
72
16
73
12
40
0
40
0
40
0
40
0
40
0.249999999999996
40
0.249999999999996
40
0.499999999999991
40
0.499999999999991
40
0.624999999999989
40
0.624999999999989
40
0.749999999999987
40
0.749999999999987
40
1
40
1
40
1
40
1
41
1
10
265.723670257357
20
9.60102146157527
30
0
41
1
10
266.306256449149
20
9.43361639167895
30
0
41
1
10
266.88880169981
20
9.31839855515582
30
0
41
1
10
268.054831955088
20
9.18069621813265
30
0
41
1
10
268.63830670772
20
9.15834211715088
30
0
41
1
10
269.514366469085
20
9.19294409186747
30
0
41
1
10
269.806549215348
20
9.2158982044887
30
0
41
1
10
270.391038639015
20
9.28507017062049
30
0
41
1
10
270.680488873529
20
9.33094866753981
30
0
41
1
10
271.540478192886
20
9.50175325286753
30
0
41
1
10
272.102732960147
20
9.65966845624985
30
0
41
1
10
272.653044323438
20
9.86209858174297
30
0
0
SPLINE
5
2F4
100
AcDbEntity
8
1
62
256
6
ByLayer
370
13
48
1
60
0
100
AcDbSpline
70
4
71
3
72
8
73
4
40
0
40
0
40
0
40
0
40
1
40
1
40
1
40
1
41
1
10
285.685985523734
20
0.579949510047385
30
0
41
1
10
285.84248752749
20
0.603935363488404
30
0
41
1
10
285.997463910335
20
0.614481017259237
30
0
41
1
10
286.152216466253
20
0.613393485742364
30
0
0
SPLINE
5
2F5
100
AcDbEntity
8
1
62
256
6
ByLayer
370
13
48
1
60
0
100
AcDbSpline
70
4
71
3
72
10
73
6
40
0
40
0
40
0
40
0
40
0.5
40
0.5
40
1
40
1
40
1
40
1
41
1
10
262.50461350031
20
13.7590735683686
30
0
41
1
10
262.721312248173
20
13.7391165060809
30
0
41
1
10
262.931831118764
20
13.727372876298
30
0
41
1
10
263.344753467083
20
13.7158916017288
30
0
41
1
10
263.547130438444
20
13.7161236250455
30
0
41
1
10
263.746654128702
20
13.7207405567657
30
0
0
SPLINE
5
2F6
100
AcDbEntity
8
1
62
256
6
ByLayer
370
13
48
1
60
0
100
AcDbSpline
70
4
71
3
72
14
73
10
40
0
40
0
40
0
40
0
40
0.500000000000003
40
0.500000000000003
40
0.625
40
0.625
40
0.749999999999998
40
0.749999999999998
40
1
40
1
40
1
40
1
41
1
10
253.208384280135
20
29.5308594416431
30
0
41
1
10
254.159189489207
20
27.351809200515
30
0
41
1
10
255.258330381301
20
25.2599176695018
30
0
41
1
10
256.87940224599
20
22.7902705379448
30
0
41
1
10
257.21599011298
20
22.3036114983619
30
0
41
1
10
257.915465260675
20
21.3457463630158
30
0
41
1
10
258.27867610795
20
20.8741469878518
30
0
41
1
10
259.407926730647
20
19.4863951268633
30
0
41
1
10
260.207966918441
20
18.6042448520375
30
0
41
1
10
261.056287601445
20
17.7660909605322
30
0
0
SPLINE
5
2F7
100
AcDbEntity
8
1
62
256
6
ByLayer
370
13
48
1
60
0
100
AcDbSpline
70
4
71
3
72
44
73
40
40
0
40
0
40
0
40
0
40
0.0625000000000004
40
0.0625000000000004
40
0.125000000000001
40
0.125000000000001
40
0.156250000000001
40
0.156250000000001
40
0.187500000000001
40
0.187500000000001
40
0.250000000000002
40
0.250000000000002
40
0.312500000000002
40
0.312500000000002
40
0.343750000000002
40
0.343750000000002
40
0.375000000000002
40
0.375000000000002
40
0.437500000000002
40
0.437500000000002
40
0.500000000000002
40
0.500000000000002
40
0.531250000000002
40
0.531250000000002
40
0.562500000000002
40
0.562500000000002
40
0.625000000000002
40
0.625000000000002
40
0.750000000000002
40
0.750000000000002
40
0.812500000000002
40
0.812500000000002
40
0.875000000000002
40
0.875000000000002
40
0.906250000000002
40
0.906250000000002
40
0.937500000000002
40
0.937500000000002
40
1
40
1
40
1
40
1
41
1
10
16.6936283343255
20
-12.0080911484312
30
0
41
1
10
16.2887164883109
20
-12.0220184302621
30
0
41
1
10
15.8887000701458
20
-12.0592222766127
30
0
41
1
10
15.097439876144
20
-12.1752279259089
30
0
41
1
10
14.7062364800572
20
-12.2542226997491
30
0
41
1
10
14.125770786416
20
-12.4026083399955
30
0
41
1
10
13.9333415502803
20
-12.4570647745368
30
0
41
1
10
13.5506016319181
20
-12.575928737413
30
0
41
1
10
13.3597331792468
20
-12.6405508194046
30
0
41
1
10
12.7952862837371
20
-12.8473902210706
30
0
41
1
10
12.4298015853914
20
-13.0023239507447
30
0
41
1
10
11.7191044556283
20
-13.3434529621429
30
0
41
1
10
11.373796731548
20
-13.5294948198247
30
0
41
1
10
10.8709460699834
20
-13.8312989710108
30
0
41
1
10
10.7058850221505
20
-13.9357497450232
30
0
41
1
10
10.3808342775087
20
-14.1521756887505
30
0
41
1
10
10.2207630159281
20
-14.2642735526683
30
0
41
1
10
9.75357411998613
20
-14.6079148575525
30
0
41
1
10
9.4575703719746
20
-14.8479575655784
30
0
41
1
10
8.89550803236826
20
-15.3482389873151
30
0
41
1
10
8.62959393216778
20
-15.6085981436555
30
0
41
1
10
8.25382121298678
20
-16.0140168596479
30
0
41
1
10
8.13242407737097
20
-16.1516438482018
30
0
41
1
10
7.89756011618614
20
-16.4318906936915
30
0
41
1
10
7.7837319993388
20
-16.5750046627658
30
0
41
1
10
7.45772894408208
20
-17.0077392218159
30
0
41
1
10
7.26106935101359
20
-17.3003458180661
30
0
41
1
10
6.73260593732363
20
-18.1890594444335
30
0
41
1
10
6.46123983245295
20
-18.7960383379287
30
0
41
1
10
6.19119898322323
20
-19.7261803915388
30
0
41
1
10
6.12673021809654
20
-20.0321290818342
30
0
41
1
10
6.04653008726157
20
-20.635675843258
30
0
41
1
10
6.03111053285672
20
-20.9332853612772
30
0
41
1
10
6.04593398581014
20
-21.3733570022208
30
0
41
1
10
6.05721287160843
20
-21.5189900565098
30
0
41
1
10
6.09287599510699
20
-21.8081234608072
30
0
41
1
10
6.11737515505796
20
-21.9520764355819
30
0
41
1
10
6.21018771221219
20
-22.3765096467362
30
0
41
1
10
6.29764139716973
20
-22.6497546361882
30
0
41
1
10
6.4102792975232
20
-22.9137689602713
30
0
0
SPLINE
5
2F8
100
AcDbEntity
8
1
62
256
6
ByLayer
370
13
48
1
60
0
100
AcDbSpline
70
4
71
3
72
18
73
14
40
0
40
0
40
0
40
0
40
0.250000000000086
40
0.250000000000086
40
0.37500000000013
40
0.37500000000013
40
0.500000000000174
40
0.500000000000174
40
0.750000000000087
40
0.750000000000087
40
0.875000000000044
40
0.875000000000044
40
1
40
1
40
1
40
1
41
1
10
283.535851908976
20
12.6366007794462
30
0
41
1
10
283.593218874437
20
12.6396072547103
30
0
41
1
10
283.650978754446
20
12.632432835257
30
0
41
1
10
283.732306124868
20
12.6090582009506
30
0
41
1
10
283.75820243134
20
12.5992877188291
30
0
41
1
10
283.806386965566
20
12.5773452416752
30
0
41
1
10
283.829065104018
20
12.5649552107192
30
0
41
1
10
283.889137596936
20
12.5280354273717
30
0
41
1
10
283.920033886235
20
12.5031714566595
30
0
41
1
10
283.952375108359
20
12.4775386004363
30
0
41
1
10
283.961094706919
20
12.4707155283678
30
0
41
1
10
283.974273120032
20
12.4617840660373
30
0
41
1
10
283.978879126339
20
12.4595443828706
30
0
41
1
10
283.981589869296
20
12.4596864468891
30
0
0
SPLINE
5
2F9
100
AcDbEntity
8
1
62
256
6
ByLayer
370
13
48
1
60
0
100
AcDbSpline
70
4
71
3
72
10
73
6
40
0
40
0
40
0
40
0
40
0.492053781118086
40
0.492053781118086
40
1
40
1
40
1
40
1
41
1
10
35.4500000000001
20
-29.4179813687814
30
0
41
1
10
35.4500000000001
20
-27.349752698611
30
0
41
1
10
35.4500000000001
20
-25.2815240329458
30
0
41
1
10
35.4500000000001
20
-21.0782667051322
30
0
41
1
10
35.4500000000001
20
-18.9432380432794
30
0
41
1
10
35.4500000000001
20
-16.8082093862213
30
0
0
SPLINE
5
2FA
100
AcDbEntity
8
1
62
256
6
ByLayer
370
13
48
1
60
0
100
AcDbSpline
70
4
71
3
72
8
73
4
40
0
40
0
40
0
40
0
40
1
40
1
40
1
40
1
41
1
10
260.701684476353
20
13.8116406433928
30
0
41
1
10
261.115412634052
20
13.8187394647246
30
0
41
1
10
261.514994845093
20
13.7944497435397
30
0
41
1
10
261.900624728068
20
13.7380220009619
30
0
0
SPLINE
5
2FB
100
AcDbEntity
8
1
62
256
6
ByLayer
370
13
48
1
60
0
100
AcDbSpline
70
4
71
3
72
34
73
30
40
0
40
0
40
0
40
0
40
0.0391543909196889
40
0.0391543909196889
40
0.0925347025352612
40
0.0925347025352612
40
0.119224858343048
40
0.119224858343048
40
0.145915014150834
40
0.145915014150834
40
0.252675637381979
40
0.252675637381979
40
0.306055948997552
40
0.306055948997552
40
0.332746104805339
40
0.332746104805339
40
0.359436260613125
40
0.359436260613125
40
0.412816572228698
40
0.412816572228698
40
0.466196883844271
40
0.466196883844271
40
0.572957507075417
40
0.572957507075417
40
0.679718130306563
40
0.679718130306563
40
0.786478753537708
40
0.786478753537708
40
1
40
1
40
1
40
1
41
1
10
163.067461174725
20
-15.574585695335
30
0
41
1
10
161.41762415423
20
-15.6882163007548
30
0
41
1
10
159.765806910604
20
-15.7948980225558
30
0
41
1
10
155.856765646202
20
-16.0282909460842
30
0
41
1
10
153.597575669154
20
-16.1478721968578
30
0
41
1
10
150.201408065597
20
-16.3015785290552
30
0
41
1
10
149.068113214177
20
-16.3484967605833
30
0
41
1
10
146.798906829678
20
-16.4334952146823
30
0
41
1
10
145.663534554005
20
-16.4716380310171
30
0
41
1
10
139.987731821602
20
-16.641954744016
30
0
41
1
10
135.44574563782
20
-16.7144262712658
30
0
41
1
10
128.630909629088
20
-16.7777849074502
30
0
41
1
10
126.35898777672
20
-16.7912146418223
30
0
41
1
10
122.950623125262
20
-16.8035860104657
30
0
41
1
10
121.81441765807
20
-16.8063824803476
30
0
41
1
10
119.541843655067
20
-16.8084264857127
30
0
41
1
10
118.405488359927
20
-16.8077359338424
30
0
41
1
10
114.996425763661
20
-16.8068456739166
30
0
41
1
10
112.723686838269
20
-16.8075356736938
30
0
41
1
10
108.178167154947
20
-16.8081613960723
30
0
41
1
10
105.905390979628
20
-16.8084959757352
30
0
41
1
10
99.0870839084489
20
-16.8087770242074
30
0
41
1
10
94.5415650370933
20
-16.8080896990406
30
0
41
1
10
85.4505557023689
20
-16.8075346939071
30
0
41
1
10
80.9050635273285
20
-16.8075052305708
30
0
41
1
10
71.8140668872466
20
-16.8079247603884
30
0
41
1
10
67.2685627042397
20
-16.8083582664467
30
0
41
1
10
53.6320323534672
20
-16.8086720071445
30
0
41
1
10
44.540990379382
20
-16.807758424974
30
0
41
1
10
35.4500000000002
20
-16.8082093862213
30
0
0
SPLINE
5
2FC
100
AcDbEntity
8
1
62
256
6
ByLayer
370
13
48
1
60
0
100
AcDbSpline
70
4
71
3
72
8
73
4
40
0
40
0
40
0
40
0
40
1
40
1
40
1
40
1
41
1
10
255.035159056288
20
4.23087975575262
30
0
41
1
10
255.094335641776
20
4.21493839133581
30
0
41
1
10
255.153481041933
20
4.19911964758288
30
0
41
1
10
255.212594843163
20
4.1834251507517
30
0
0
SPLINE
5
2FD
100
AcDbEntity
8
1
62
256
6
ByLayer
370
13
48
1
60
0
100
AcDbSpline
70
4
71
3
72
14
73
10
40
0
40
0
40
0
40
0
40
0.0145581563064444
40
0.0145581563064444
40
0.343038770870963
40
0.343038770870963
40
0.671519385435482
40
0.671519385435482
40
1
40
1
40
1
40
1
41
1
10
267.191890710356
20
28.6967716181479
30
0
41
1
10
267.191899997023
20
28.6935985887963
30
0
41
1
10
267.19191178338
20
28.6904167520346
30
0
41
1
10
267.192240074466
20
28.6152975231321
30
0
41
1
10
267.193704453328
20
28.5386187366944
30
0
41
1
10
267.197343052513
20
28.3840354785449
30
0
41
1
10
267.199589420292
20
28.3056272134339
30
0
41
1
10
267.204543214699
20
28.1479201942768
30
0
41
1
10
267.207258979333
20
28.0686149318352
30
0
41
1
10
267.210137023227
20
27.989002762255
30
0
0
SPLINE
5
2FE
100
AcDbEntity
8
1
62
256
6
ByLayer
370
13
48
1
60
0
100
AcDbSpline
70
4
71
3
72
8
73
4
40
0
40
0
40
0
40
0
40
1
40
1
40
1
40
1
41
1
10
285.68600431409
20
0.514657039492675
30
0
41
1
10
285.684098582192
20
0.568112226042985
30
0
41
1
10
285.683832911682
20
0.621469823745599
30
0
41
1
10
285.685107434297
20
0.670729375651462
30
0
0
SPLINE
5
2FF
100
AcDbEntity
8
1
62
256
6
ByLayer
370
13
48
1
60
0
100
AcDbSpline
70
4
71
3
72
19
73
15
40
0
40
0
40
0
40
0
40
0.25
40
0.25
40
0.375
40
0.375
40
0.5
40
0.5
40
0.625
40
0.625
40
0.75
40
0.875
40
0.875
40
1
40
1
40
1
40
1
41
1
10
35.0050000332871
20
-16.8124296609237
30
0
41
1
10
32.944917416802
20
-17.205368239153
30
0
41
1
10
30.8980014090039
20
-17.8205573538382
30
0
41
1
10
27.9925295489138
20
-19.07174414906
30
0
41
1
10
27.0516949647776
20
-19.5442644042901
30
0
41
1
10
25.2480432707085
20
-20.5923834495436
30
0
41
1
10
24.3850699954462
20
-21.1672666758564
30
0
41
1
10
22.7583225121173
20
-22.4052919893502
30
0
41
1
10
21.9945744421345
20
-23.0684506780394
30
0
41
1
10
20.5876630393244
20
-24.4695696140265
30
0
41
1
10
19.3005979006964
20
-25.9450210699937
30
0
41
1
10
18.2705973503823
20
-27.5260906868401
30
0
41
1
10
17.3778151243483
20
-29.1384459450396
30
0
41
1
10
17.0010769333136
20
-29.9601671837483
30
0
41
1
10
16.693637932529
20
-30.7871167463064
30
0
0
SPLINE
5
300
100
AcDbEntity
8
1
62
256
6
ByLayer
370
13
48
1
60
0
100
AcDbSpline
70
4
71
3
72
8
73
4
40
0
40
0
40
0
40
0
40
1
40
1
40
1
40
1
41
1
10
275.085172465964
20
12.1937194364053
30
0
41
1
10
275.141760801968
20
12.1966851054285
30
0
41
1
10
275.19828360401
20
12.1898556004831
30
0
41
1
10
275.252115878551
20
12.1746526714248
30
0
0
SPLINE
5
301
100
AcDbEntity
8
1
62
256
6
ByLayer
370
13
48
1
60
0
100
AcDbSpline
70
4
71
3
72
48
73
44
40
0
40
0
40
0
40
0
40
0.0156249999999999
40
0.0156249999999999
40
0.0312499999999999
40
0.0312499999999999
40
0.0468749999999998
40
0.0468749999999998
40
0.0624999999999998
40
0.0624999999999998
40
0.0937499999999997
40
0.0937499999999997
40
0.125
40
0.125
40
0.1875
40
0.1875
40
0.25
40
0.25
40
0.374999999999999
40
0.374999999999999
40
0.499999999999999
40
0.499999999999999
40
0.624999999999999
40
0.624999999999999
40
0.687499999999999
40
0.687499999999999
40
0.749999999999999
40
0.749999999999999
40
0.812499999999999
40
0.812499999999999
40
0.874999999999999
40
0.874999999999999
40
0.906249999999999
40
0.906249999999999
40
0.937499999999999
40
0.937499999999999
40
0.953124999999999
40
0.953124999999999
40
0.96875
40
0.96875
40
0.984375
40
0.984375
40
1
40
1
40
1
40
1
41
1
10
10.3344
20
5.28797585436342
30
0
41
1
10
10.3959418675389
20
5.2810495511664
30
0
41
1
10
10.4541971070815
20
5.26348441962375
30
0
41
1
10
10.565665046967
20
5.21202228012169
30
0
41
1
10
10.6171933852033
20
5.17884652730174
30
0
41
1
10
10.712539323957
20
5.10385771695303
30
0
41
1
10
10.7570386685277
20
5.06142091671674
30
0
41
1
10
10.8390764832247
20
4.97205265906973
30
0
41
1
10
10.8768239186723
20
4.92500691325549
30
0
41
1
10
10.9830822556728
20
4.77880526002025
30
0
41
1
10
11.0450495384515
20
4.67400970394735
30
0
41
1
10
11.1558760249169
20
4.45968077512256
30
0
41
1
10
11.2046718030675
20
4.35023840846449
30
0
41
1
10
11.3379281095452
20
4.01730532927041
30
0
41
1
10
11.409477700417
20
3.78928156463527
30
0
41
1
10
11.5324461810418
20
3.32586697622418
30
0
41
1
10
11.5836355830413
20
3.08959633917829
30
0
41
1
10
11.7135121267236
20
2.38109498592493
30
0
41
1
10
11.7698721059441
20
1.90703229320175
30
0
41
1
10
11.8442010128538
20
0.956513010446002
30
0
41
1
10
11.8616247671369
20
0.480030153269865
30
0
41
1
10
11.861745915685
20
-0.475157798322584
30
0
41
1
10
11.8444673215585
20
-0.953861624768138
30
0
41
1
10
11.7880803216197
20
-1.67380582175582
30
0
41
1
10
11.7641498398672
20
-1.91358757257228
30
0
41
1
10
11.7043247562972
20
-2.39069402207929
30
0
41
1
10
11.6684345000779
20
-2.62836314969849
30
0
41
1
10
11.5812633317274
20
-3.10110967911933
30
0
41
1
10
11.5302036511412
20
-3.33551386206739
30
0
41
1
10
11.4065882078845
20
-3.7989242627055
30
0
41
1
10
11.3343548087989
20
-4.02773694842438
30
0
41
1
10
11.2004721009174
20
-4.35992749208907
30
0
41
1
10
11.1515025796912
20
-4.46892658806058
30
0
41
1
10
11.0405628742792
20
-4.6818329625585
30
0
41
1
10
10.9791339831747
20
-4.78498545797297
30
0
41
1
10
10.8726427831899
20
-4.930352495661
30
0
41
1
10
10.8346699276143
20
-4.97721794937235
30
0
41
1
10
10.7535048723397
20
-5.06486791972881
30
0
41
1
10
10.7102039156034
20
-5.10588644043671
30
0
41
1
10
10.6157173469147
20
-5.17980757223819
30
0
41
1
10
10.5639076842567
20
-5.21292316843628
30
0
41
1
10
10.4543325578396
20
-5.26333099458327
30
0
41
1
10
10.3952816266331
20
-5.28112385877003
30
0
41
1
10
10.3344
20
-5.28797585436348
30
0
0
SPLINE
5
302
100
AcDbEntity
8
1
62
256
6
ByLayer
370
13
48
1
60
0
100
AcDbSpline
70
4
71
3
72
26
73
22
40
0
40
0
40
0
40
0
40
0.0499058912933895
40
0.0499058912933895
40
0.155471903371902
40
0.155471903371902
40
0.261037915450414
40
0.261037915450414
40
0.366603927528926
40
0.366603927528926
40
0.472169939607438
40
0.472169939607438
40
0.524952945646695
40
0.524952945646695
40
0.577735951685951
40
0.577735951685951
40
0.683301963764463
40
0.683301963764463
40
0.788867975842975
40
0.788867975842975
40
1
40
1
40
1
40
1
41
1
10
16.5126897140171
20
-12.0361093504017
30
0
41
1
10
16.2454071711368
20
-12.2235445662842
30
0
41
1
10
15.9822292021322
20
-12.4148608949498
30
0
41
1
10
15.1788175321997
20
-13.0200043037537
30
0
41
1
10
14.6550999697607
20
-13.4452421024633
30
0
41
1
10
13.6507691699083
20
-14.3238193287803
30
0
41
1
10
13.1703398804136
20
-14.7773359917161
30
0
41
1
10
12.2517778662646
20
-15.7130363955749
30
0
41
1
10
11.8135600014979
20
-16.195010601328
30
0
41
1
10
10.9787752437072
20
-17.1866802119725
30
0
41
1
10
10.5822041535629
20
-17.6963736694826
30
0
41
1
10
10.0192368157604
20
-18.4819361375864
30
0
41
1
10
9.83690677262365
20
-18.7473006868014
30
0
41
1
10
9.48315146680983
20
-19.2851772030624
30
0
41
1
10
9.3126830674434
20
-19.5562502687928
30
0
41
1
10
8.82109499445666
20
-20.374753821923
30
0
41
1
10
8.51970850129733
20
-20.9277357588328
30
0
41
1
10
7.96839460998581
20
-22.0499832330554
30
0
41
1
10
7.71810685863296
20
-22.6190349708992
30
0
41
1
10
7.03846182856455
20
-24.3481782416915
30
0
41
1
10
6.67962076059001
20
-25.5300740153727
30
0
41
1
10
6.41015493299381
20
-26.7385685723157
30
0
0
SPLINE
5
303
100
AcDbEntity
8
1
62
256
6
ByLayer
370
13
48
1
60
0
100
AcDbSpline
70
4
71
3
72
10
73
6
40
0
40
0
40
0
40
0
40
0.5
40
0.5
40
1
40
1
40
1
40
1
41
1
10
275.979508001
20
10.5382565875339
30
0
41
1
10
276.980284838486
20
10.5907050791444
30
0
41
1
10
277.943013980145
20
10.6411595755098
30
0
41
1
10
279.783413075759
20
10.7376108051054
30
0
41
1
10
280.661156332467
20
10.7836113799701
30
0
41
1
10
281.489006176028
20
10.8269971518509
30
0
0
SPLINE
5
304
100
AcDbEntity
8
1
62
256
6
ByLayer
370
13
48
1
60
0
100
AcDbSpline
70
4
71
3
72
8
73
4
40
0
40
0
40
0
40
0
40
1
40
1
40
1
40
1
41
1
10
262.619240918267
20
2.49154216845474
30
0
41
1
10
262.92848673115
20
2.41272025285554
30
0
41
1
10
263.239612187448
20
2.34510190699777
30
0
41
1
10
263.552422581083
20
2.28833028999736
30
0
0
SPLINE
5
305
100
AcDbEntity
8
1
62
256
6
ByLayer
370
13
48
1
60
0
100
AcDbSpline
70
4
71
3
72
16
73
12
40
0
40
0
40
0
40
0
40
0.249999999999996
40
0.249999999999996
40
0.374999999999996
40
0.374999999999996
40
0.499999999999995
40
0.499999999999995
40
0.749999999999998
40
0.749999999999998
40
1
40
1
40
1
40
1
41
1
10
285.685107434298
20
0.67072937565149
30
0
41
1
10
285.686362154424
20
0.719223572977512
30
0
41
1
10
285.688471937958
20
0.765026472026022
30
0
41
1
10
285.692711383994
20
0.824912227129914
30
0
41
1
10
285.694299525583
20
0.843458497932289
30
0
41
1
10
285.697830124357
20
0.877684717626892
30
0
41
1
10
285.69978931654
20
0.893442788676708
30
0
41
1
10
285.706021930428
20
0.934763064737325
30
0
41
1
10
285.710746747369
20
0.955193350170191
30
0
41
1
10
285.720965474533
20
0.979760473898494
30
0
41
1
10
285.726312373195
20
0.983796584958526
30
0
41
1
10
285.731904704733
20
0.979311026045423
30
0
0
SPLINE
5
306
100
AcDbEntity
8
1
62
256
6
ByLayer
370
13
48
1
60
0
100
AcDbSpline
70
4
71
3
72
8
73
4
40
0
40
0
40
0
40
0
40
1
40
1
40
1
40
1
41
1
10
35.0099999999996
20
-29.4316845233407
30
0
41
1
10
34.0538095467324
20
-29.4320467877494
30
0
41
1
10
33.0976190940027
20
-29.4324100940151
30
0
41
1
10
32.1414286410159
20
-29.4327729018162
30
0
0
SPLINE
5
307
100
AcDbEntity
8
1
62
256
6
ByLayer
370
13
48
1
60
0
100
AcDbSpline
70
4
71
3
72
8
73
4
40
0
40
0
40
0
40
0
40
1
40
1
40
1
40
1
41
1
10
260.701725769551
20
13.8114902759088
30
0
41
1
10
260.822379876902
20
15.1309442026333
30
0
41
1
10
260.940744383055
20
16.4491825944415
30
0
41
1
10
261.056311604991
20
17.7663645414468
30
0
0
SPLINE
5
308
100
AcDbEntity
8
1
62
256
6
ByLayer
370
13
48
1
60
0
100
AcDbSpline
70
4
71
3
72
8
73
4
40
0
40
0
40
0
40
0
40
1
40
1
40
1
40
1
41
1
10
40.0000000000001
20
-30.1059308078941
30
0
41
1
10
38.3333333042612
20
-30.1059070604093
30
0
41
1
10
36.6666666217529
20
-30.1058715965927
30
0
41
1
10
35.0000000000001
20
-30.1058215416473
30
0
0
SPLINE
5
309
100
AcDbEntity
8
1
62
256
6
ByLayer
370
13
48
1
60
0
100
AcDbSpline
70
4
71
3
72
36
73
32
40
0
40
0
40
0
40
0
40
0.0356537987856978
40
0.0356537987856978
40
0.0892285877420488
40
0.0892285877420488
40
0.1428033766984
40
0.1428033766984
40
0.196378165654751
40
0.196378165654751
40
0.249952954611102
40
0.249952954611102
40
0.357102532523804
40
0.357102532523804
40
0.410677321480154
40
0.410677321480154
40
0.464252110436505
40
0.464252110436505
40
0.571401688349206
40
0.571401688349206
40
0.624976477305556
40
0.624976477305556
40
0.678551266261905
40
0.678551266261905
40
0.785700844174604
40
0.785700844174604
40
0.839275633130953
40
0.839275633130953
40
0.892850422087303
40
0.892850422087303
40
1
40
1
40
1
40
1
41
1
10
202.437885886388
20
-24.9869748469187
30
0
41
1
10
201.6839308586
20
-25.1698374500155
30
0
41
1
10
200.93016030588
20
-25.3482891985204
30
0
41
1
10
199.043669557032
20
-25.7831215323183
30
0
41
1
10
197.910715111872
20
-26.0335282630454
30
0
41
1
10
195.643793718918
20
-26.5105775333444
30
0
41
1
10
194.509863623117
20
-26.7373870509145
30
0
41
1
10
192.236826277318
20
-27.1640788076967
30
0
41
1
10
191.09729458477
20
-27.3639684089033
30
0
41
1
10
188.810234723617
20
-27.7340003937083
30
0
41
1
10
187.662658838851
20
-27.9039899543191
30
0
41
1
10
184.207411685201
20
-28.3731662965141
30
0
41
1
10
181.887337699071
20
-28.6317797728855
30
0
41
1
10
178.381913764185
20
-28.954560939543
30
0
41
1
10
177.209219024508
20
-29.0512705462764
30
0
41
1
10
174.855288569102
20
-29.2253305710061
30
0
41
1
10
173.674673287582
20
-29.3026381747107
30
0
41
1
10
170.124819966864
20
-29.508969288437
30
0
41
1
10
167.746424396429
20
-29.6125970688548
30
0
41
1
10
164.161809571653
20
-29.73019549522
30
0
41
1
10
162.964115013775
20
-29.7630633228013
30
0
41
1
10
160.563128257702
20
-29.8179740905511
30
0
41
1
10
159.359540533307
20
-29.839996497543
30
0
41
1
10
155.742416155132
20
-29.8921960328875
30
0
41
1
10
153.321997052834
20
-29.9085145852449
30
0
41
1
10
149.675301233327
20
-29.9158062067398
30
0
41
1
10
148.456753610677
20
-29.915377996504
30
0
41
1
10
146.015384348577
20
-29.91055833133
30
0
41
1
10
144.792837066652
20
-29.9061724176829
30
0
41
1
10
141.119647810377
20
-29.8894234032808
30
0
41
1
10
138.663458024864
20
-29.873581284531
30
0
41
1
10
136.2
20
-29.8579017132469
30
0
0
SPLINE
5
30A
100
AcDbEntity
8
1
62
256
6
ByLayer
370
13
48
1
60
0
100
AcDbSpline
70
4
71
3
72
20
73
16
40
0
40
0
40
0
40
0
40
0.177128293404872
40
0.177128293404872
40
0.354256586809745
40
0.354256586809745
40
0.531384880214617
40
0.531384880214617
40
0.619949026917054
40
0.619949026917054
40
0.70851317361949
40
0.70851317361949
40
0.885641467024364
40
0.885641467024364
40
1
40
1
40
1
40
1
41
1
10
35.0100000000001
20
-16.8082093862213
30
0
41
1
10
35.0100000000001
20
-16.4912383405642
30
0
41
1
10
35.0100000000001
20
-16.1617593435697
30
0
41
1
10
35.0100000000001
20
-15.4788282886634
30
0
41
1
10
35.0100000000001
20
-15.1226031941375
30
0
41
1
10
35.0100000000001
20
-14.3975541209283
30
0
41
1
10
35.0100000000001
20
-14.0338427316828
30
0
41
1
10
35.0100000000001
20
-13.4865419626284
30
0
41
1
10
35.0100000000001
20
-13.3038176053745
30
0
41
1
10
35.0100000000001
20
-12.937772931138
30
0
41
1
10
35.0100000000001
20
-12.7542718104197
30
0
41
1
10
35.0100000000001
20
-12.2141912497956
30
0
41
1
10
35.0100000000001
20
-11.8641303485963
30
0
41
1
10
35.0100000000001
20
-11.3043322678648
30
0
41
1
10
35.0100000000001
20
-11.0877709823277
30
0
41
1
10
35.0100000000001
20
-10.8783663862329
30
0
0
SPLINE
5
30B
100
AcDbEntity
8
1
62
256
6
ByLayer
370
13
48
1
60
0
100
AcDbSpline
70
4
71
3
72
8
73
4
40
0
40
0
40
0
40
0
40
1
40
1
40
1
40
1
41
1
10
265.323337303507
20
9.71614859648412
30
0
41
1
10
265.190258364933
20
9.75023447714577
30
0
41
1
10
265.05411523117
20
9.7853333018397
30
0
41
1
10
264.91490622268
20
9.82144562577793
30
0
0
SPLINE
5
30C
100
AcDbEntity
8
1
62
256
6
ByLayer
370
13
48
1
60
0
100
AcDbSpline
70
4
71
3
72
8
73
4
40
0
40
0
40
0
40
0
40
1
40
1
40
1
40
1
41
1
10
266.498542806229
20
22.5504868156044
30
0
41
1
10
266.486759801546
20
22.5298627129965
30
0
41
1
10
266.474199875524
20
22.5110620477357
30
0
41
1
10
266.461358086285
20
22.493997467383
30
0
0
SPLINE
5
30D
100
AcDbEntity
8
1
62
256
6
ByLayer
370
13
48
1
60
0
100
AcDbSpline
70
4
71
3
72
18
73
14
40
0
40
0
40
0
40
0
40
0.125
40
0.125
40
0.25
40
0.25
40
0.5
40
0.5
40
0.750000000000001
40
0.750000000000001
40
0.875
40
0.875
40
1
40
1
40
1
40
1
41
1
10
264.135807821553
20
11.6276189519504
30
0
41
1
10
264.070183387685
20
11.7289955444608
30
0
41
1
10
264.000946425622
20
11.8300076344547
30
0
41
1
10
263.854615489193
20
12.0309469515806
30
0
41
1
10
263.777450572418
20
12.1308992479531
30
0
41
1
10
263.537352150844
20
12.4237354722783
30
0
41
1
10
263.364699691678
20
12.6112935610638
30
0
41
1
10
262.992673520345
20
12.9686377407438
30
0
41
1
10
262.793285618799
20
13.1383900206674
30
0
41
1
10
262.472230633885
20
13.3773063010602
30
0
41
1
10
262.360985938075
20
13.4546762367907
30
0
41
1
10
262.133922060116
20
13.601945104322
30
0
41
1
10
262.018284148047
20
13.6717932821613
30
0
41
1
10
261.900624728069
20
13.7380220009625
30
0
0
SPLINE
5
30E
100
AcDbEntity
8
1
62
256
6
ByLayer
370
13
48
1
60
0
100
AcDbSpline
70
4
71
3
72
8
73
4
40
0
40
0
40
0
40
0
40
1
40
1
40
1
40
1
41
1
10
264.984182799709
20
9.20149172285093
30
0
41
1
10
265.098650693785
20
9.37305775373753
30
0
41
1
10
265.211573906192
20
9.54470109470458
30
0
41
1
10
265.323337303508
20
9.71614859648506
30
0
0
SPLINE
5
30F
100
AcDbEntity
8
1
62
256
6
ByLayer
370
13
48
1
60
0
100
AcDbSpline
70
4
71
3
72
16
73
12
40
0
40
0
40
0
40
0
40
0.377481905255497
40
0.377481905255497
40
0.566222857883245
40
0.566222857883245
40
0.66059333419712
40
0.66059333419712
40
0.754963810510994
40
0.754963810510994
40
1
40
1
40
1
40
1
41
1
10
6.4102792975232
20
-22.9137689602713
30
0
41
1
10
6.67987171861607
20
-21.7419846915838
30
0
41
1
10
7.03946016757494
20
-20.5867636700289
30
0
41
1
10
7.72325597755821
20
-18.8789058274098
30
0
41
1
10
7.97543820387816
20
-18.3138208690689
30
0
41
1
10
8.39290164124675
20
-17.4728367261317
30
0
41
1
10
8.538798632462
20
-17.1932553354233
30
0
41
1
10
8.84338085462981
20
-16.638066580949
30
0
41
1
10
9.00159431598937
20
-16.3633272990695
30
0
41
1
10
9.59123924559579
20
-15.3850953821473
30
0
41
1
10
10.0551778464818
20
-14.6971498556534
30
0
41
1
10
10.556401691212
20
-14.0267438054481
30
0
0
SPLINE
5
310
100
AcDbEntity
8
1
62
256
6
ByLayer
370
13
48
1
60
0
100
AcDbSpline
70
4
71
3
72
8
73
4
40
0
40
0
40
0
40
0
40
1
40
1
40
1
40
1
41
1
10
265.323337303507
20
9.71614859648409
30
0
41
1
10
265.457091635019
20
9.67765321355344
30
0
41
1
10
265.590537402469
20
9.6392769423818
30
0
41
1
10
265.723670257357
20
9.6010214615751
30
0
0
SPLINE
5
311
100
AcDbEntity
8
1
62
256
6
ByLayer
370
13
48
1
60
0
100
AcDbSpline
70
4
71
3
72
8
73
4
40
0
40
0
40
0
40
0
40
1
40
1
40
1
40
1
41
1
10
253.208384280127
20
29.5308594416319
30
0
41
1
10
253.228158017666
20
29.5609205110543
30
0
41
1
10
253.247904228259
20
29.5909999602017
30
0
41
1
10
253.267623045551
20
29.6210976998393
30
0
0
SPLINE
5
312
100
AcDbEntity
8
1
62
256
6
ByLayer
370
13
48
1
60
0
100
AcDbSpline
70
4
71
3
72
8
73
4
40
0
40
0
40
0
40
0
40
1
40
1
40
1
40
1
41
1
10
32.1414286410159
20
-29.4327729018162
30
0
41
1
10
32.1414286431564
20
-29.6655547095781
30
0
41
1
10
32.1414286453215
20
-29.8983365173211
30
0
41
1
10
32.1414286475111
20
-30.1311183250452
30
0
0
SPLINE
5
313
100
AcDbEntity
8
1
62
256
6
ByLayer
370
13
48
1
60
0
100
AcDbSpline
70
4
71
3
72
10
73
6
40
0
40
0
40
0
40
0
40
0.831982487583938
40
0.831982487583938
40
1
40
1
40
1
40
1
41
1
10
266.461358086285
20
22.493997467383
30
0
41
1
10
266.425887053883
20
22.4468624247979
30
0
41
1
10
266.395054038123
20
22.4016861255176
30
0
41
1
10
266.367673478873
20
22.3565896384812
30
0
41
1
10
266.363434019059
20
22.3493724868065
30
0
41
1
10
266.359650573211
20
22.3426724325778
30
0
0
SPLINE
5
314
100
AcDbEntity
8
1
62
256
6
ByLayer
370
13
48
1
60
0
100
AcDbSpline
70
4
71
3
72
8
73
4
40
0
40
0
40
0
40
0
40
1
40
1
40
1
40
1
41
1
10
0.0999999999999659
20
-5.56776436282993
30
0
41
1
10
0.0648944344305846
20
-5.37072855948901
30
0
41
1
10
0.03155109950454
20
-5.17345582387856
30
0
41
1
10
0
20
-4.97594212184998
30
0
0
SPLINE
5
315
100
AcDbEntity
8
1
62
256
6
ByLayer
370
13
48
1
60
0
100
AcDbSpline
70
4
71
3
72
28
73
24
40
0
40
0
40
0
40
0
40
0.0625000000000006
40
0.0625000000000006
40
0.125000000000001
40
0.125000000000001
40
0.250000000000002
40
0.250000000000002
40
0.281250000000002
40
0.281250000000002
40
0.312500000000002
40
0.312500000000002
40
0.375000000000002
40
0.375000000000002
40
0.437500000000002
40
0.437500000000002
40
0.500000000000002
40
0.500000000000002
40
0.625000000000001
40
0.625000000000001
40
0.750000000000001
40
0.750000000000001
40
1
40
1
40
1
40
1
41
1
10
136.2
20
-11.6713269760834
30
0
41
1
10
134.204187210163
20
-11.4930193905375
30
0
41
1
10
132.205979055954
20
-11.3430929677748
30
0
41
1
10
128.20423232834
20
-11.1079841751768
30
0
41
1
10
126.200629535798
20
-11.023123757396
30
0
41
1
10
120.190220393063
20
-10.8459714697878
30
0
41
1
10
116.18115007646
20
-10.8338679728787
30
0
41
1
10
111.169281266132
20
-10.8454596353406
30
0
41
1
10
110.166893024137
20
-10.8490815825177
30
0
41
1
10
108.162129535965
20
-10.856221527098
30
0
41
1
10
107.15974761015
20
-10.8595339248797
30
0
41
1
10
104.152600503923
20
-10.8675768568745
30
0
41
1
10
102.147834305577
20
-10.8708554465307
30
0
41
1
10
98.1382994494726
20
-10.8738998720274
30
0
41
1
10
96.1335307109427
20
-10.8737731834233
30
0
41
1
10
92.1239937829304
20
-10.8732134421651
30
0
41
1
10
90.1192253658004
20
-10.8728995650409
30
0
41
1
10
84.1049197224536
20
-10.8722305238086
30
0
41
1
10
80.0953820307892
20
-10.8721651406769
30
0
41
1
10
72.0763048376088
20
-10.8734826446238
30
0
41
1
10
68.0667657055332
20
-10.874606862162
30
0
41
1
10
56.0381505770541
20
-10.875987398743
30
0
41
1
10
48.0190769619998
20
-10.8744412285681
30
0
41
1
10
40.0000000000001
20
-10.8754530446872
30
0
0
SPLINE
5
316
100
AcDbEntity
8
1
62
256
6
ByLayer
370
13
48
1
60
0
100
AcDbSpline
70
4
71
3
72
10
73
6
40
0
40
0
40
0
40
0
40
0.5
40
0.5
40
1
40
1
40
1
40
1
41
1
10
272.653044323438
20
9.86209858174294
30
0
41
1
10
273.221130922368
20
10.0710672659899
30
0
41
1
10
273.781930712773
20
10.224436225187
30
0
41
1
10
274.891013513968
20
10.4440775707592
30
0
41
1
10
275.4392150215
20
10.5099410323152
30
0
41
1
10
275.979508001
20
10.5382565875338
30
0
0
SPLINE
5
317
100
AcDbEntity
8
1
62
256
6
ByLayer
370
13
48
1
60
0
100
AcDbSpline
70
4
71
3
72
18
73
14
40
0
40
0
40
0
40
0
40
0.115964545178481
40
0.115964545178481
40
0.292771636142785
40
0.292771636142785
40
0.469578727107089
40
0.469578727107089
40
0.646385818071393
40
0.646385818071393
40
0.823192909035696
40
0.823192909035696
40
1
40
1
40
1
40
1
41
1
10
35.4499181868509
20
-10.8654743971352
30
0
41
1
10
35.4498987202281
20
-11.0769655137283
30
0
41
1
10
35.4498815221097
20
-11.2953184311706
30
0
41
1
10
35.4498441647665
20
-11.8599985713606
30
0
41
1
10
35.4498271869846
20
-12.2133498842651
30
0
41
1
10
35.4498049639655
20
-12.932918150729
30
0
41
1
10
35.4497997191454
20
-13.299121599471
30
0
41
1
10
35.4498011381429
20
-14.0321302263395
30
0
41
1
10
35.4498078019338
20
-14.3989216474008
30
0
41
1
10
35.4498328154256
20
-15.1208221557041
30
0
41
1
10
35.449851164657
20
-15.4759176943575
30
0
41
1
10
35.4498989349405
20
-16.1625336163206
30
0
41
1
10
35.4499283550961
20
-16.4940411132608
30
0
41
1
10
35.4499628187196
20
-16.8082093880657
30
0
0
SPLINE
5
318
100
AcDbEntity
8
1
62
256
6
ByLayer
370
13
48
1
60
0
100
AcDbSpline
70
4
71
3
72
8
73
4
40
0
40
0
40
0
40
0
40
1
40
1
40
1
40
1
41
1
10
264.539169144041
20
-30.0787906258158
30
0
41
1
10
263.539169143316
20
-29.975994099165
30
0
41
1
10
262.539169143309
20
-29.8731975656063
30
0
41
1
10
261.539169144041
20
-29.7704010249228
30
0
0
SPLINE
5
319
100
AcDbEntity
8
1
62
256
6
ByLayer
370
13
48
1
60
0
100
AcDbSpline
70
4
71
3
72
14
73
10
40
0
40
0
40
0
40
0
40
0.500000000000001
40
0.500000000000001
40
0.750000000000002
40
0.750000000000002
40
0.875000000000001
40
0.875000000000001
40
1
40
1
40
1
40
1
41
1
10
32.1414286475111
20
-30.1311183250453
30
0
41
1
10
31.5538482063822
20
-30.1415358126178
30
0
41
1
10
30.975079468418
20
-30.150340578725
30
0
41
1
10
30.1196230354018
20
-30.159859141186
30
0
41
1
10
29.8366004855192
20
-30.1623857102751
30
0
41
1
10
29.4153139421142
20
-30.1647507135582
30
0
41
1
10
29.2754271144176
20
-30.1652994303571
30
0
41
1
10
28.996756449576
20
-30.165813764794
30
0
41
1
10
28.8578438439598
20
-30.1657771133079
30
0
41
1
10
28.7209188552246
20
-30.1653943732263
30
0
0
SPLINE
5
31A
100
AcDbEntity
8
1
62
256
6
ByLayer
370
13
48
1
60
0
100
AcDbSpline
70
4
71
3
72
28
73
24
40
0
40
0
40
0
40
0
40
0.138451486483669
40
0.138451486483669
40
0.276902972967337
40
0.276902972967337
40
0.415354459451006
40
0.415354459451006
40
0.553805945934674
40
0.553805945934674
40
0.623031689176508
40
0.623031689176508
40
0.692257432418342
40
0.692257432418342
40
0.761483175660177
40
0.761483175660177
40
0.830708918902011
40
0.830708918902011
40
0.899934662143845
40
0.899934662143845
40
0.96916040538568
40
0.96916040538568
40
1
40
1
40
1
40
1
41
1
10
253.267623045545
20
29.621097699829
30
0
41
1
10
250.89855303279
20
29.7704293004655
30
0
41
1
10
248.531766510686
20
29.8630311545894
30
0
41
1
10
243.798031511684
20
29.9339560962958
30
0
41
1
10
241.430779606707
20
29.9122824092374
30
0
41
1
10
236.692930071537
20
29.7543440747555
30
0
41
1
10
234.326647750646
20
29.6181927778527
30
0
41
1
10
229.594468795422
20
29.2329079213524
30
0
41
1
10
227.22841508558
20
28.9837926372905
30
0
41
1
10
223.674861161503
20
28.5278783202354
30
0
41
1
10
222.490122381836
20
28.362283968075
30
0
41
1
10
220.12060527469
20
28.0046086289251
30
0
41
1
10
218.935719356165
20
27.8124827646401
30
0
41
1
10
216.566128474866
20
27.4012385034986
30
0
41
1
10
215.38169945963
20
27.1820722428036
30
0
41
1
10
213.014594671568
20
26.7166449418201
30
0
41
1
10
211.831500130399
20
26.4705466048582
30
0
41
1
10
209.463218543734
20
25.9547592875048
30
0
41
1
10
208.278116738622
20
25.6851012149064
30
0
41
1
10
205.905535250829
20
25.1267028390822
30
0
41
1
10
204.717778450429
20
24.8378880306409
30
0
41
1
10
202.997060962236
20
24.409696960214
30
0
41
1
10
202.466190042982
20
24.2763049468134
30
0
41
1
10
201.934719813171
20
24.1416254007763
30
0
0
SPLINE
5
31B
100
AcDbEntity
8
1
62
256
6
ByLayer
370
13
48
1
60
0
100
AcDbSpline
70
4
71
3
72
58
73
54
40
0
40
0
40
0
40
0
40
0.0317037602097312
40
0.0317037602097312
40
0.0634075204194624
40
0.0634075204194624
40
0.126815040838925
40
0.126815040838925
40
0.190222561258387
40
0.190222561258387
40
0.25363008167785
40
0.25363008167785
40
0.317037602097312
40
0.317037602097312
40
0.380445122516775
40
0.380445122516775
40
0.443852642936237
40
0.443852642936237
40
0.475556403145968
40
0.475556403145968
40
0.507260163355699
40
0.507260163355699
40
0.538963923565431
40
0.538963923565431
40
0.554815803670296
40
0.554815803670296
40
0.570667683775161
40
0.570667683775161
40
0.602371443984891
40
0.602371443984891
40
0.634075204194621
40
0.634075204194621
40
0.665778964404351
40
0.665778964404351
40
0.697482724614081
40
0.697482724614081
40
0.729186484823811
40
0.729186484823811
40
0.760890245033541
40
0.760890245033541
40
0.792594005243271
40
0.792594005243271
40
0.824297765453001
40
0.824297765453001
40
0.856001525662731
40
0.856001525662731
40
0.887705285872461
40
0.887705285872461
40
0.919409046082191
40
0.919409046082191
40
0.951112806291921
40
0.951112806291921
40
1
40
1
40
1
40
1
41
1
10
255.035159056288
20
4.23087975575262
30
0
41
1
10
253.829081313483
20
4.76888901411164
30
0
41
1
10
252.622531527908
20
5.30467411131951
30
0
41
1
10
250.209859528942
20
6.36985807027699
30
0
41
1
10
249.004000098606
20
6.89914174715173
30
0
41
1
10
245.387050883586
20
8.47537056065875
30
0
41
1
10
242.976597340345
20
9.51070685556286
30
0
41
1
10
238.152904786102
20
11.5409277594029
30
0
41
1
10
235.738876580927
20
12.5360914797239
30
0
41
1
10
230.912933400102
20
14.4724402058727
30
0
41
1
10
228.499350786689
20
15.4142985527183
30
0
41
1
10
223.67381559633
20
17.2335368045288
30
0
41
1
10
221.260198014696
20
18.1115181485648
30
0
41
1
10
216.437450083691
20
19.7912476011602
30
0
41
1
10
214.027492951061
20
20.5932901352118
30
0
41
1
10
209.205615236854
20
22.1138263829478
30
0
41
1
10
206.792493012747
20
22.832622573421
30
0
41
1
10
203.173781846302
20
23.8405092459138
30
0
41
1
10
201.967598043415
20
24.1648047821308
30
0
41
1
10
199.554811281889
20
24.7893557391164
30
0
41
1
10
198.348439420942
20
25.0897226531906
30
0
41
1
10
195.936566325406
20
25.6645374926071
30
0
41
1
10
194.730394347322
20
25.9384614868169
30
0
41
1
10
192.91533796398
20
26.3237815452071
30
0
41
1
10
192.309346613036
20
26.4479766520284
30
0
41
1
10
191.094451592132
20
26.6872026835473
30
0
41
1
10
190.48548675449
20
26.8021753000564
30
0
41
1
10
188.65388442669
20
27.1337342677099
30
0
41
1
10
187.426594189861
20
27.3370300728475
30
0
41
1
10
184.959464616799
20
27.7116963210918
30
0
41
1
10
183.719419910527
20
27.883079460531
30
0
41
1
10
181.230470573295
20
28.1967954017225
30
0
41
1
10
179.981103215158
20
28.3392038049419
30
0
41
1
10
177.472347294569
20
28.5983942355524
30
0
41
1
10
176.212670256349
20
28.7151085400814
30
0
41
1
10
173.686227218561
20
28.9267422430991
30
0
41
1
10
172.419270103838
20
29.0217160369766
30
0
41
1
10
169.879242379051
20
29.1936014142715
30
0
41
1
10
168.606005504324
20
29.2705128729445
30
0
41
1
10
166.055420171533
20
29.4085037021522
30
0
41
1
10
164.777957889086
20
29.4696052587119
30
0
41
1
10
162.218969223481
20
29.5779891721546
30
0
41
1
10
160.937350842348
20
29.6251756126865
30
0
41
1
10
158.36845749311
20
29.7066499745665
30
0
41
1
10
157.081168142878
20
29.7409344488443
30
0
41
1
10
154.499517285223
20
29.7982569093435
30
0
41
1
10
153.20482426156
20
29.8213175249662
30
0
41
1
10
150.609063038386
20
29.8582825593304
30
0
41
1
10
149.308179680742
20
29.8721752092384
30
0
41
1
10
146.700116534917
20
29.8932093908585
30
0
41
1
10
145.392819008417
20
29.9003790294581
30
0
41
1
10
142.063181487369
20
29.9128522522903
30
0
41
1
10
140.038506799074
20
29.9151552636387
30
0
41
1
10
138.009307698773
20
29.9150222939112
30
0
0
SPLINE
5
31C
100
AcDbEntity
8
1
62
256
6
ByLayer
370
13
48
1
60
0
100
AcDbSpline
70
4
71
3
72
48
73
44
40
0
40
0
40
0
40
0
40
0.0684894614864281
40
0.149896235042983
40
0.237082344627329
40
0.330144537263162
40
0.429118339955767
40
0.533972360439528
40
0.542805291457373
40
0.551897656662015
40
0.561250074567994
40
0.570863148605033
40
0.580737465471089
40
0.590873593326568
40
0.601272079839419
40
0.611933450089288
40
0.622858204337813
40
0.634046815671156
40
0.645499727520275
40
0.65721735106388
40
0.669200062518737
40
0.681448200321678
40
0.693962062207703
40
0.706741902188424
40
0.719787927435254
40
0.733100295071883
40
0.746679108880771
40
0.760524415928658
40
0.774636203116501
40
0.789014393659463
40
0.803658843503206
40
0.818569337682987
40
0.833745586632783
40
0.84918722245201
40
0.864893795138155
40
0.880864768794113
40
0.897099517819807
40
0.913597323098235
40
0.930357368186858
40
0.947378735526013
40
0.964660402676733
40
0.982201238601216
40
1
40
1
40
1
40
1
41
1
10
30.5352366250166
20
-10.9441750215504
30
0
41
1
10
30.6009547257591
20
-11.0794956122617
30
0
41
1
10
30.751707312996
20
-11.3786873793343
30
0
41
1
10
31.0129820240652
20
-11.8610656229272
30
0
41
1
10
31.330015629978
20
-12.4009293797349
30
0
41
1
10
31.6999444617654
20
-12.9809644226337
30
0
41
1
10
32.1260273867666
20
-13.59679596005
30
0
41
1
10
32.4531261923093
20
-14.0332658081118
30
0
41
1
10
32.6473176327471
20
-14.2822557585699
30
0
41
1
10
32.6906089462719
20
-14.3375070504834
30
0
41
1
10
32.7353153666139
20
-14.3942398331151
30
0
41
1
10
32.7814568050843
20
-14.4524401843331
30
0
41
1
10
32.829057189103
20
-14.5120880012642
30
0
41
1
10
32.8781386978067
20
-14.5731632541472
30
0
41
1
10
32.9287232447397
20
-14.6356441669236
30
0
41
1
10
32.9808319321992
20
-14.6995076517169
30
0
41
1
10
33.0344850663909
20
-14.764729114633
30
0
41
1
10
33.0897020113676
20
-14.8312824369277
30
0
41
1
10
33.1465010829207
20
-14.8991399077436
30
0
41
1
10
33.2048994264599
20
-14.9682721709262
30
0
41
1
10
33.2649128944967
20
-15.0386481687633
30
0
41
1
10
33.3265559194629
20
-15.110235087652
30
0
41
1
10
33.3898413831434
20
-15.182998304549
30
0
41
1
10
33.4547804824856
20
-15.2569013347798
30
0
41
1
10
33.5213825919934
20
-15.331905781311
30
0
41
1
10
33.5896551228187
20
-15.4079712857333
30
0
41
1
10
33.6596033787151
20
-15.4850554811694
30
0
41
1
10
33.7312304090377
20
-15.5631139473437
30
0
41
1
10
33.8045368589964
20
-15.6421001680407
30
0
41
1
10
33.8795208173982
20
-15.7219654912278
30
0
41
1
10
33.9561776621362
20
-15.8026590919815
30
0
41
1
10
34.034499903739
20
-15.88412793889
30
0
41
1
10
34.1144770272054
20
-15.966316762594
30
0
41
1
10
34.1960953328461
20
-16.049168032855
30
0
41
1
10
34.2793377750916
20
-16.1326219209645
30
0
41
1
10
34.3641838051442
20
-16.2166163375628
30
0
41
1
10
34.45060919701
20
-16.3010867024883
30
0
41
1
10
34.5385859374086
20
-16.3859667614989
30
0
41
1
10
34.6280818741449
20
-16.4711854238658
30
0
41
1
10
34.7190612927221
20
-16.5566788304514
30
0
41
1
10
34.8114819552886
20
-16.6423442716359
30
0
41
1
10
34.9053056572857
20
-16.7282161506233
30
0
41
1
10
34.9682820084715
20
-16.784856496287
30
0
41
1
10
35.0000000000001
20
-16.8133833634381
30
0
0
SPLINE
5
31D
100
AcDbEntity
8
1
62
256
6
ByLayer
370
13
48
1
60
0
100
AcDbSpline
70
2053
71
3
72
95
73
91
40
0
40
0
40
0
40
0
40
0.0312499999999706
40
0.0312499999999706
40
0.0468749999999558
40
0.0468749999999558
40
0.0624999999999411
40
0.0624999999999411
40
0.0937499999999117
40
0.0937499999999117
40
0.109374999999902
40
0.109374999999902
40
0.124999999999892
40
0.124999999999892
40
0.156249999999873
40
0.156249999999873
40
0.187499999999853
40
0.187499999999853
40
0.203124999999843
40
0.203124999999843
40
0.218749999999833
40
0.218749999999833
40
0.249999999999816
40
0.249999999999816
40
0.265624999999807
40
0.265624999999807
40
0.281249999999798
40
0.281249999999798
40
0.312499999999778
40
0.312499999999778
40
0.328124999999768
40
0.328124999999768
40
0.343749999999758
40
0.343749999999758
40
0.374999999999744
40
0.374999999999744
40
0.406249999999731
40
0.406249999999731
40
0.421874999999729
40
0.421874999999729
40
0.437499999999728
40
0.437499999999728
40
0.468749999999725
40
0.468749999999725
40
0.484374999999723
40
0.484374999999723
40
0.499999999999722
40
0.499999999999722
40
0.531249999999706
40
0.531249999999706
40
0.546874999999705
40
0.546874999999705
40
0.562499999999703
40
0.578124999999701
40
0.578124999999701
40
0.593749999999699
40
0.593749999999699
40
0.624999999999706
40
0.624999999999706
40
0.640624999999713
40
0.640624999999713
40
0.65624999999972
40
0.65624999999972
40
0.687499999999741
40
0.687499999999741
40
0.718749999999762
40
0.718749999999762
40
0.734374999999773
40
0.734374999999773
40
0.749999999999783
40
0.749999999999783
40
0.781249999999803
40
0.781249999999803
40
0.796874999999814
40
0.796874999999814
40
0.812499999999824
40
0.812499999999824
40
0.843749999999845
40
0.843749999999845
40
0.874999999999865
40
0.874999999999865
40
0.906249999999886
40
0.906249999999886
40
0.921874999999901
40
0.921874999999901
40
0.937499999999916
40
0.937499999999916
40
0.968749999999958
40
0.968749999999958
40
1
40
1
40
1
40
1
41
1
10
276.798361855939
20
-4.00451825488767
30
0
41
1
10
276.940635574767
20
-4.00451825488767
30
0
41
1
10
277.080392663921
20
-4.01910068175067
30
0
41
1
10
277.28641452473
20
-4.06190171148691
30
0
41
1
10
277.354481398032
20
-4.07968409882801
30
0
41
1
10
277.48937094926
20
-4.12244842302562
30
0
41
1
10
277.556034797087
20
-4.14743328756492
30
0
41
1
10
277.749598414661
20
-4.23142248843493
30
0
41
1
10
277.871684073921
20
-4.29982892986615
30
0
41
1
10
278.044454514209
20
-4.4208666389427
30
0
41
1
10
278.100559883424
20
-4.46455701576213
30
0
41
1
10
278.207042419091
20
-4.55642948826505
30
0
41
1
10
278.257629545953
20
-4.60471457569699
30
0
41
1
10
278.401667304646
20
-4.75638764308806
30
0
41
1
10
278.487766387491
20
-4.86701414903735
30
0
41
1
10
278.637727946975
20
-5.1046322019597
30
0
41
1
10
278.699919088943
20
-5.22875614563074
30
0
41
1
10
278.775044566688
20
-5.42242688974309
30
0
41
1
10
278.797037336393
20
-5.48824070577678
30
0
41
1
10
278.834838731212
20
-5.62240940011688
30
0
41
1
10
278.85055838248
20
-5.69059027915588
30
0
41
1
10
278.887616322013
20
-5.89480724862665
30
0
41
1
10
278.899336209862
20
-6.03182502716652
30
0
41
1
10
278.897780657917
20
-6.2386201999671
30
0
41
1
10
278.894014672418
20
-6.30807829707987
30
0
41
1
10
278.880027786005
20
-6.44586380590354
30
0
41
1
10
278.869867860785
20
-6.51393156240999
30
0
41
1
10
278.830166976009
20
-6.71573823838099
30
0
41
1
10
278.791490812353
20
-6.84710139223728
30
0
41
1
10
278.714698972125
20
-7.03931256986047
30
0
41
1
10
278.68583928617
20
-7.10271500574478
30
0
41
1
10
278.622895527974
20
-7.22530800581694
30
0
41
1
10
278.588702831459
20
-7.2848189998503
30
0
41
1
10
278.478033145771
20
-7.45806447169238
30
0
41
1
10
278.393550970491
20
-7.56656651374357
30
0
41
1
10
278.201616781363
20
-7.7687027150547
30
0
41
1
10
278.096506952863
20
-7.85969028393586
30
0
41
1
10
277.927190882921
20
-7.97939891217518
30
0
41
1
10
277.868694773323
20
-8.01659426758704
30
0
41
1
10
277.747431769027
20
-8.0853835223306
30
0
41
1
10
277.684278486398
20
-8.1171403082935
30
0
41
1
10
277.490948272233
20
-8.20218137325207
30
0
41
1
10
277.35802639544
20
-8.24507217337569
30
0
41
1
10
277.152591545601
20
-8.288782789735
30
0
41
1
10
277.083097460594
20
-8.29989059226
30
0
41
1
10
276.941984902117
20
-8.31487229728609
30
0
41
1
10
276.871012652853
20
-8.31864064631759
30
0
41
1
10
276.659941116891
20
-8.31887938227808
30
0
41
1
10
276.520408275588
20
-8.30453663090177
30
0
41
1
10
276.312894409682
20
-8.26108077545368
30
0
41
1
10
276.244059876455
20
-8.24285972208222
30
0
41
1
10
276.110251258318
20
-8.19996481348224
30
0
41
1
10
275.979447738773
20
-8.15046454428179
30
0
41
1
10
275.854481286664
20
-8.08810580113837
30
0
41
1
10
275.732434475166
20
-8.01929814137642
30
0
41
1
10
275.672720451645
20
-7.98152010556004
30
0
41
1
10
275.501656327526
20
-7.86096418954912
30
0
41
1
10
275.397043298791
20
-7.77042273483977
30
0
41
1
10
275.253661976657
20
-7.61989333880479
30
0
41
1
10
275.20793185014
20
-7.56695904056895
30
0
41
1
10
275.122394582167
20
-7.45771038837876
30
0
41
1
10
275.082552488082
20
-7.40142526685867
30
0
41
1
10
274.971478776898
20
-7.22774853511433
30
0
41
1
10
274.908620888033
20
-7.10557990646123
30
0
41
1
10
274.805555854095
20
-6.84820912311906
30
0
41
1
10
274.766640366718
20
-6.71602426968596
30
0
41
1
10
274.726939795007
20
-6.5144274738318
30
0
41
1
10
274.716802439728
20
-6.44657511142364
30
0
41
1
10
274.702823426757
20
-6.30953778819651
30
0
41
1
10
274.698985046318
20
-6.24000644237884
30
0
41
1
10
274.69732680079
20
-6.03205754578818
30
0
41
1
10
274.709127243414
20
-5.89500164141725
30
0
41
1
10
274.745924218448
20
-5.6917685060109
30
0
41
1
10
274.76139391871
20
-5.62441882556917
30
0
41
1
10
274.798964953936
20
-5.49054320324066
30
0
41
1
10
274.821180956904
20
-5.42381283003809
30
0
41
1
10
274.896564716583
20
-5.22917383543975
30
0
41
1
10
274.958672316598
20
-5.10542954880827
30
0
41
1
10
275.106796526804
20
-4.87015788878506
30
0
41
1
10
275.193965422388
20
-4.75767201950683
30
0
41
1
10
275.386257933467
20
-4.55491650104327
30
0
41
1
10
275.491689886249
20
-4.46363083785505
30
0
41
1
10
275.664152866557
20
-4.34232891642733
30
0
41
1
10
275.724408674287
20
-4.30433679848926
30
0
41
1
10
275.847414319553
20
-4.23528413204969
30
0
41
1
10
275.910284734378
20
-4.2040847988653
30
0
41
1
10
276.102923082457
20
-4.12029621677908
30
0
41
1
10
276.236836671406
20
-4.07737915763346
30
0
41
1
10
276.515249995169
20
-4.01911619691055
30
0
41
1
10
276.656088137111
20
-4.00451825488767
30
0
41
1
10
276.798361855939
20
-4.00451825488767
30
0
0
SPLINE
5
31E
100
AcDbEntity
8
1
62
256
6
ByLayer
370
13
48
1
60
0
100
AcDbSpline
70
4
71
3
72
8
73
4
40
0
40
0
40
0
40
0
40
1
40
1
40
1
40
1
41
1
10
259.636072206697
20
1.11893838731518
30
0
41
1
10
260.233983556604
20
0.73191708494457
30
0
41
1
10
260.866791092982
20
0.415314052152183
30
0
41
1
10
261.53916914404
20
0.178740518765721
30
0
0
SPLINE
5
31F
100
AcDbEntity
8
1
62
256
6
ByLayer
370
18
48
1
60
0
100
AcDbSpline
70
4
71
3
72
18
73
14
40
0
40
0
40
0
40
0
40
0.125
40
0.125
40
0.25
40
0.25
40
0.5
40
0.5
40
0.75
40
0.75
40
0.875
40
0.875
40
1
40
1
40
1
40
1
41
1
10
276.041973558791
20
19.4624485972091
30
0
41
1
10
276.054119530704
20
19.491135993025
30
0
41
1
10
276.056595639896
20
19.5241705397264
30
0
41
1
10
276.051994819127
20
19.5915175783259
30
0
41
1
10
276.044726701381
20
19.6257143728295
30
0
41
1
10
276.013936404287
20
19.7269770386613
30
0
41
1
10
275.98151539874
20
19.7930188528309
30
0
41
1
10
275.902658290759
20
19.9149385870726
30
0
41
1
10
275.856416181564
20
19.9706253734429
30
0
41
1
10
275.778048431653
20
20.0380416227142
30
0
41
1
10
275.750402415976
20
20.0577482180547
30
0
41
1
10
275.692522889423
20
20.0871289314759
30
0
41
1
10
275.662302614252
20
20.0970531160463
30
0
41
1
10
275.632157802694
20
20.0961753558818
30
0
0
SPLINE
5
320
100
AcDbEntity
8
1
62
256
6
ByLayer
370
18
48
1
60
0
100
AcDbSpline
70
4
71
3
72
16
73
12
40
0
40
0
40
0
40
0
40
0.125000000000017
40
0.125000000000017
40
0.250000000000034
40
0.250000000000034
40
0.500000000000023
40
0.500000000000023
40
0.750000000000011
40
0.750000000000011
40
1
40
1
40
1
40
1
41
1
10
275.923537391602
20
21.5592786166274
30
0
41
1
10
275.908711891487
20
21.5704745907529
30
0
41
1
10
275.897226442116
20
21.5858719132529
30
0
41
1
10
275.884891482586
20
21.6226416663894
30
0
41
1
10
275.884108877842
20
21.6438541749905
30
0
41
1
10
275.893737396034
20
21.7061474818544
30
0
41
1
10
275.914054063493
20
21.7461271094348
30
0
41
1
10
275.963861561669
20
21.8190285428716
30
0
41
1
10
275.993823014291
20
21.8521463684057
30
0
41
1
10
276.058790035318
20
21.9123745543332
30
0
41
1
10
276.094022216223
20
21.9395675680185
30
0
41
1
10
276.130942374232
20
21.9636451350891
30
0
0
SPLINE
5
321
100
AcDbEntity
8
1
62
256
6
ByLayer
370
18
48
1
60
0
100
AcDbSpline
70
4
71
3
72
8
73
4
40
0
40
0
40
0
40
0
40
1
40
1
40
1
40
1
41
1
10
275.632157802694
20
20.0961753558818
30
0
41
1
10
275.625868357683
20
20.0959922190831
30
0
41
1
10
275.619579943434
20
20.0958091168692
30
0
41
1
10
275.613292521034
20
20.0956260479299
30
0
0
SPLINE
5
322
100
AcDbEntity
8
1
62
256
6
ByLayer
370
18
48
1
60
0
100
AcDbSpline
70
4
71
3
72
8
73
4
40
0
40
0
40
0
40
0
40
1
40
1
40
1
40
1
41
1
10
276.568966919499
20
21.9801969871073
30
0
41
1
10
276.572357333862
20
21.9746672137138
30
0
41
1
10
276.575748370017
20
21.9691367438544
30
0
41
1
10
276.579140052454
20
21.9636055503909
30
0
0
SPLINE
5
323
100
AcDbEntity
8
1
62
256
6
ByLayer
370
18
48
1
60
0
100
AcDbSpline
70
4
71
3
72
18
73
14
40
0
40
0
40
0
40
0
40
0.124999999999996
40
0.124999999999996
40
0.249999999999992
40
0.249999999999992
40
0.499999999999991
40
0.499999999999991
40
0.74999999999999
40
0.74999999999999
40
0.874999999999995
40
0.874999999999995
40
1
40
1
40
1
40
1
41
1
10
278.426770109631
20
21.0176992244546
30
0
41
1
10
278.393280638529
20
21.0166465508026
30
0
41
1
10
278.360047969451
20
21.0264349616599
30
0
41
1
10
278.296897293633
20
21.0556887257395
30
0
41
1
10
278.267182824586
20
21.0752934881175
30
0
41
1
10
278.183816470685
20
21.1424140375735
30
0
41
1
10
278.135632487231
20
21.1982803787158
30
0
41
1
10
278.056795670404
20
21.3203765590336
30
0
41
1
10
278.026369829482
20
21.3861719063871
30
0
41
1
10
278.000785310678
20
21.4872221831792
30
0
41
1
10
277.995609726893
20
21.5217133644704
30
0
41
1
10
277.996028779963
20
21.5888621143818
30
0
41
1
10
278.001385459356
20
21.6223821353342
30
0
41
1
10
278.016954353535
20
21.6514259831274
30
0
0
SPLINE
5
324
100
AcDbEntity
8
1
62
256
6
ByLayer
370
18
48
1
60
0
100
AcDbSpline
70
4
71
3
72
18
73
14
40
0
40
0
40
0
40
0
40
0.124999999999978
40
0.124999999999978
40
0.249999999999956
40
0.249999999999956
40
0.499999999999911
40
0.499999999999911
40
0.749999999999867
40
0.749999999999867
40
0.874999999999934
40
0.874999999999934
40
1
40
1
40
1
40
1
41
1
10
276.579140052454
20
21.9636055503909
30
0
41
1
10
276.595388166816
20
21.9371079446706
30
0
41
1
10
276.620492680185
20
21.9170272862504
30
0
41
1
10
276.67716058001
20
21.884917421928
30
0
41
1
10
276.708737764999
20
21.873124181243
30
0
41
1
10
276.807720811086
20
21.8468168463384
30
0
41
1
10
276.879596034659
20
21.8411471309904
30
0
41
1
10
277.024114107685
20
21.8487343135375
30
0
41
1
10
277.096487493506
20
21.8619130537664
30
0
41
1
10
277.197483174777
20
21.898771100174
30
0
41
1
10
277.229829859738
20
21.9139649079143
30
0
41
1
10
277.287768651469
20
21.9520166566707
30
0
41
1
10
277.313561272449
20
21.9747324193413
30
0
41
1
10
277.330284066841
20
22.0029713401067
30
0
0
SPLINE
5
325
100
AcDbEntity
8
1
62
256
6
ByLayer
370
18
48
1
60
0
100
AcDbSpline
70
4
71
3
72
8
73
4
40
0
40
0
40
0
40
0
40
1
40
1
40
1
40
1
41
1
10
277.330284066841
20
22.0029713401067
30
0
41
1
10
277.333773128153
20
22.0088631380698
30
0
41
1
10
277.337261922796
20
22.0147541645832
30
0
41
1
10
277.340750460536
20
22.0206444485802
30
0
0
SPLINE
5
326
100
AcDbEntity
8
1
62
256
6
ByLayer
370
18
48
1
60
0
100
AcDbSpline
70
4
71
3
72
8
73
4
40
0
40
0
40
0
40
0
40
1
40
1
40
1
40
1
41
1
10
278.026642208375
20
21.6694976696739
30
0
41
1
10
278.023413150011
20
21.6634745435086
30
0
41
1
10
278.020183867888
20
21.6574506578581
30
0
41
1
10
278.016954353535
20
21.6514259831274
30
0
0
SPLINE
5
327
100
AcDbEntity
8
1
62
256
6
ByLayer
370
18
48
1
60
0
100
AcDbSpline
70
4
71
3
72
8
73
4
40
0
40
0
40
0
40
0
40
1
40
1
40
1
40
1
41
1
10
275.572830301093
20
20.8676911973162
30
0
41
1
10
275.579102416251
20
20.8681663458492
30
0
41
1
10
275.5853755213
20
20.8686415649661
30
0
41
1
10
275.591649655082
20
20.8691168574317
30
0
0
SPLINE
5
328
100
AcDbEntity
8
1
62
256
6
ByLayer
370
18
48
1
60
0
100
AcDbSpline
70
4
71
3
72
18
73
14
40
0
40
0
40
0
40
0
40
0.125000000000001
40
0.125000000000001
40
0.250000000000002
40
0.250000000000002
40
0.500000000000002
40
0.500000000000002
40
0.750000000000001
40
0.750000000000001
40
0.875
40
0.875
40
1
40
1
40
1
40
1
41
1
10
277.479787859872
20
19.1502690299455
30
0
41
1
10
277.460214481679
20
19.1765923659729
30
0
41
1
10
277.43216593697
20
19.1965187342485
30
0
41
1
10
277.370413532282
20
19.2283621309623
30
0
41
1
10
277.336720675928
20
19.2400444940093
30
0
41
1
10
277.232637717771
20
19.2660845538478
30
0
41
1
10
277.159024775319
20
19.2716631992083
30
0
41
1
10
277.01450904451
20
19.2640761394117
30
0
41
1
10
276.943865063843
20
19.2509880334662
30
0
41
1
10
276.847980543295
20
19.2143978516417
30
0
41
1
10
276.81775667198
20
19.1993152958505
30
0
41
1
10
276.764892363344
20
19.1615294894841
30
0
41
1
10
276.742039748872
20
19.1389678060256
30
0
41
1
10
276.728643845485
20
19.1109032402298
30
0
0
SPLINE
5
329
100
AcDbEntity
8
1
62
256
6
ByLayer
370
18
48
1
60
0
100
AcDbSpline
70
4
71
3
72
8
73
4
40
0
40
0
40
0
40
0
40
1
40
1
40
1
40
1
41
1
10
276.728643845485
20
19.1109032402297
30
0
41
1
10
276.725848910192
20
19.1050478198698
30
0
41
1
10
276.723054542003
20
19.0991931867047
30
0
41
1
10
276.720260719401
20
19.0933393111853
30
0
0
SPLINE
5
32A
100
AcDbEntity
8
1
62
256
6
ByLayer
370
18
48
1
60
0
100
AcDbSpline
70
4
71
3
72
16
73
12
40
0
40
0
40
0
40
0
40
0.250000000000064
40
0.250000000000064
40
0.500000000000128
40
0.500000000000128
40
0.750000000000191
40
0.750000000000191
40
0.875000000000096
40
0.875000000000096
40
1
40
1
40
1
40
1
41
1
10
278.706933215018
20
20.6448497288404
30
0
41
1
10
278.704617074592
20
20.6890443208897
30
0
41
1
10
278.69864596216
20
20.7331061592755
30
0
41
1
10
278.678502626059
20
20.8194306398011
30
0
41
1
10
278.664431959361
20
20.8617113106629
30
0
41
1
10
278.62466742015
20
20.9405835374827
30
0
41
1
10
278.599207095646
20
20.977557643124
30
0
41
1
10
278.54680805363
20
21.0153105643725
30
0
41
1
10
278.527084050309
20
21.0242060735703
30
0
41
1
10
278.486674427878
20
21.0299063324461
30
0
41
1
10
278.46623240689
20
21.0266137192571
30
0
41
1
10
278.447718658903
20
21.0183577118357
30
0
0
SPLINE
5
32B
100
AcDbEntity
8
1
62
256
6
ByLayer
370
18
48
1
60
0
100
AcDbSpline
70
4
71
3
72
16
73
12
40
0
40
0
40
0
40
0
40
0.25
40
0.25
40
0.5
40
0.5
40
0.75
40
0.75
40
0.875
40
0.875
40
1
40
1
40
1
40
1
41
1
10
277.797615199911
20
22.0509917566743
30
0
41
1
10
277.836877049781
20
22.0308913951238
30
0
41
1
10
277.874477892118
20
22.0075748732248
30
0
41
1
10
277.944569817438
20
21.9543622596106
30
0
41
1
10
277.977122117244
20
21.92454657741
30
0
41
1
10
278.032064130495
20
21.856967440114
30
0
41
1
10
278.054909553839
20
21.8192429902369
30
0
41
1
10
278.066816231699
20
21.7575554804753
30
0
41
1
10
278.066428752104
20
21.7365495709927
30
0
41
1
10
278.054139032063
20
21.6987660586118
30
0
41
1
10
278.042252053172
20
21.6822441856442
30
0
41
1
10
278.026642208375
20
21.6694976696739
30
0
0
SPLINE
5
32C
100
AcDbEntity
8
1
62
256
6
ByLayer
370
18
48
1
60
0
100
AcDbSpline
70
4
71
3
72
16
73
12
40
0
40
0
40
0
40
0
40
0.12500000000008
40
0.12500000000008
40
0.25000000000016
40
0.25000000000016
40
0.500000000000106
40
0.500000000000106
40
0.750000000000053
40
0.750000000000053
40
1
40
1
40
1
40
1
41
1
10
278.488180878844
20
20.2462925624494
30
0
41
1
10
278.507528113767
20
20.2399935807416
30
0
41
1
10
278.528320760923
20
20.2388659200206
30
0
41
1
10
278.568135799656
20
20.248937139507
30
0
41
1
10
278.586979886049
20
20.2601016348535
30
0
41
1
10
278.634626218995
20
20.3029314721042
30
0
41
1
10
278.656108360969
20
20.3423144273628
30
0
41
1
10
278.687322985055
20
20.4247346046363
30
0
41
1
10
278.69690951314
20
20.4682835064214
30
0
41
1
10
278.707909221676
20
20.556140611937
30
0
41
1
10
278.709247753614
20
20.6006857015112
30
0
41
1
10
278.706933215018
20
20.6448497288404
30
0
0
SPLINE
5
32D
100
AcDbEntity
8
1
62
256
6
ByLayer
370
18
48
1
60
0
100
AcDbSpline
70
4
71
3
72
8
73
4
40
0
40
0
40
0
40
0
40
1
40
1
40
1
40
1
41
1
10
276.034368971562
20
19.4444860900916
30
0
41
1
10
276.036903314789
20
19.4504728077793
30
0
41
1
10
276.039438170456
20
19.4564603000816
30
0
41
1
10
276.041973558791
20
19.4624485972091
30
0
0
SPLINE
5
32E
100
AcDbEntity
8
1
62
256
6
ByLayer
370
18
48
1
60
0
100
AcDbSpline
70
4
71
3
72
18
73
14
40
0
40
0
40
0
40
0
40
0.125
40
0.125
40
0.25
40
0.25
40
0.5
40
0.5
40
0.75
40
0.75
40
0.875
40
0.875
40
1
40
1
40
1
40
1
41
1
10
275.591649655082
20
20.8691168574317
30
0
41
1
10
275.621706373272
20
20.8713937823738
30
0
41
1
10
275.650759011504
20
20.8844248157274
30
0
41
1
10
275.705368342991
20
20.9197952238088
30
0
41
1
10
275.730735245917
20
20.9422542164464
30
0
41
1
10
275.801477950945
20
21.0173431849067
30
0
41
1
10
275.84180102841
20
21.077760818722
30
0
41
1
10
275.907460822346
20
21.2072676741355
30
0
41
1
10
275.932727396396
20
21.276087883593
30
0
41
1
10
275.952799747394
20
21.3802282469804
30
0
41
1
10
275.956439009856
20
21.4150730240866
30
0
41
1
10
275.953961033485
20
21.4823725150692
30
0
41
1
10
275.94806337604
20
21.5149354227042
30
0
41
1
10
275.932977913372
20
21.5422094058203
30
0
0
SPLINE
5
32F
100
AcDbEntity
8
1
62
256
6
ByLayer
370
18
48
1
60
0
100
AcDbSpline
70
4
71
3
72
16
73
12
40
0
40
0
40
0
40
0
40
0.249999999999931
40
0.249999999999931
40
0.499999999999862
40
0.499999999999862
40
0.749999999999794
40
0.749999999999794
40
0.874999999999897
40
0.874999999999897
40
1
40
1
40
1
40
1
41
1
10
276.130942374232
20
21.9636451350891
30
0
41
1
10
276.167888083677
20
21.9877393655879
30
0
41
1
10
276.206723307933
20
22.0088623060323
30
0
41
1
10
276.287376517488
20
22.0435833339092
30
0
41
1
10
276.329159266427
20
22.057269482306
30
0
41
1
10
276.414240543031
20
22.0722260748856
30
0
41
1
10
276.457745823115
20
22.073892786929
30
0
41
1
10
276.515756862152
20
22.0551205430291
30
0
41
1
10
276.533217353178
20
22.0449792064618
30
0
41
1
10
276.558615282611
20
22.0169888575454
30
0
41
1
10
276.566344607205
20
21.9992737392162
30
0
41
1
10
276.568966919499
20
21.9801969871073
30
0
0
SPLINE
5
330
100
AcDbEntity
8
1
62
256
6
ByLayer
370
18
48
1
60
0
100
AcDbSpline
70
4
71
3
72
8
73
4
40
0
40
0
40
0
40
0
40
1
40
1
40
1
40
1
41
1
10
277.492044260438
20
19.1337867726583
30
0
41
1
10
277.487959130938
20
19.1392801375742
30
0
41
1
10
277.483873668328
20
19.1447742140853
30
0
41
1
10
277.479787859872
20
19.1502690299456
30
0
0
SPLINE
5
331
100
AcDbEntity
8
1
62
256
6
ByLayer
370
18
48
1
60
0
100
AcDbSpline
70
4
71
3
72
20
73
16
40
0
40
0
40
0
40
0
40
0.124999999999978
40
0.124999999999978
40
0.249999999999957
40
0.249999999999957
40
0.374999999999935
40
0.374999999999935
40
0.499999999999914
40
0.499999999999914
40
0.749999999999957
40
0.749999999999957
40
0.874999999999978
40
0.874999999999978
40
1
40
1
40
1
40
1
41
1
10
278.125949998954
20
19.5716651745161
30
0
41
1
10
278.107464932066
20
19.5988718232593
30
0
41
1
10
278.09860243763
20
19.6315539420425
30
0
41
1
10
278.091134339818
20
19.6988168424986
30
0
41
1
10
278.092697118066
20
19.7332788958863
30
0
41
1
10
278.102670361392
20
19.8023042710924
30
0
41
1
10
278.111226002271
20
19.8369621914741
30
0
41
1
10
278.133501051587
20
19.9042724659266
30
0
41
1
10
278.147296483195
20
19.9372969491105
30
0
41
1
10
278.196506972891
20
20.0345702895175
30
0
41
1
10
278.238581297131
20
20.0952210139366
30
0
41
1
10
278.314642702758
20
20.1708543123988
30
0
41
1
10
278.342223428129
20
20.193492516116
30
0
41
1
10
278.401848797999
20
20.2290932267715
30
0
41
1
10
278.433841232013
20
20.2423024865199
30
0
41
1
10
278.467278257243
20
20.2447577229047
30
0
0
SPLINE
5
332
100
AcDbEntity
8
1
62
256
6
ByLayer
370
18
48
1
60
0
100
AcDbSpline
70
4
71
3
72
16
73
12
40
0
40
0
40
0
40
0
40
0.124999999999996
40
0.124999999999996
40
0.249999999999992
40
0.249999999999992
40
0.499999999999994
40
0.499999999999994
40
0.749999999999997
40
0.749999999999997
40
1
40
1
40
1
40
1
41
1
10
275.613292521034
20
20.0956260479299
30
0
41
1
10
275.596803796393
20
20.0874489831629
30
0
41
1
10
275.578370456002
20
20.0842655755444
30
0
41
1
10
275.54154935911
20
20.0903204653499
30
0
41
1
10
275.523329308086
20
20.0995425115633
30
0
41
1
10
275.4755417724
20
20.1373708716906
30
0
41
1
10
275.451656777269
20
20.1743762360412
30
0
41
1
10
275.414317373609
20
20.2532036489596
30
0
41
1
10
275.400919490775
20
20.2955479888103
30
0
41
1
10
275.381692291382
20
20.3818209692066
30
0
41
1
10
275.375902102258
20
20.4259924583409
30
0
41
1
10
275.373587563661
20
20.47015648567
30
0
0
SPLINE
5
333
100
AcDbEntity
8
1
62
256
6
ByLayer
370
18
48
1
60
0
100
AcDbSpline
70
4
71
3
72
8
73
4
40
0
40
0
40
0
40
0
40
1
40
1
40
1
40
1
41
1
10
278.447718658903
20
21.0183577118357
30
0
41
1
10
278.440736521365
20
21.0181382344188
30
0
41
1
10
278.433753680662
20
21.0179187388565
30
0
41
1
10
278.426770109631
20
21.0176992244546
30
0
0
SPLINE
5
334
100
AcDbEntity
8
1
62
256
6
ByLayer
370
18
48
1
60
0
100
AcDbSpline
70
4
71
3
72
16
73
12
40
0
40
0
40
0
40
0
40
0.12500000000001
40
0.12500000000001
40
0.250000000000019
40
0.250000000000019
40
0.500000000000013
40
0.500000000000013
40
0.750000000000006
40
0.750000000000006
40
1
40
1
40
1
40
1
41
1
10
278.137473788335
20
19.5547051431382
30
0
41
1
10
278.154393389677
20
19.5436189162075
30
0
41
1
10
278.168006368874
20
19.5283330928211
30
0
41
1
10
278.184169888393
20
19.4917639860114
30
0
41
1
10
278.186640306171
20
19.4706399319434
30
0
41
1
10
278.181086510712
20
19.408560172249
30
0
41
1
10
278.162365948466
20
19.3686641929983
30
0
41
1
10
278.114877928212
20
19.2958843182485
30
0
41
1
10
278.085604704618
20
19.2628025612694
30
0
41
1
10
278.021533503406
20
19.2026213232691
30
0
41
1
10
277.986498562456
20
19.1754386464918
30
0
41
1
10
277.949578404447
20
19.1513610794212
30
0
0
SPLINE
5
335
100
AcDbEntity
8
1
62
256
6
ByLayer
370
18
48
1
60
0
100
AcDbSpline
70
4
71
3
72
16
73
12
40
0
40
0
40
0
40
0
40
0.250000000000003
40
0.250000000000003
40
0.500000000000006
40
0.500000000000006
40
0.750000000000009
40
0.750000000000009
40
0.875000000000005
40
0.875000000000005
40
1
40
1
40
1
40
1
41
1
10
275.373587563661
20
20.47015648567
30
0
41
1
10
275.371271423235
20
20.5143510777193
30
0
41
1
10
275.372407501275
20
20.5587853881746
30
0
41
1
10
275.382520446237
20
20.6466955332001
30
0
41
1
10
275.391407291942
20
20.6901793563049
30
0
41
1
10
275.420383506408
20
20.772654133371
30
0
41
1
10
275.440247216149
20
20.8120035709954
30
0
41
1
10
275.484290198764
20
20.8548108045843
30
0
41
1
10
275.501300020745
20
20.8656314519908
30
0
41
1
10
275.537082904702
20
20.8753247909244
30
0
41
1
10
275.555641302417
20
20.8740761030707
30
0
41
1
10
275.572830301093
20
20.8676911973162
30
0
0
SPLINE
5
336
100
AcDbEntity
8
1
62
256
6
ByLayer
370
18
48
1
60
0
100
AcDbSpline
70
4
71
3
72
8
73
4
40
0
40
0
40
0
40
0
40
1
40
1
40
1
40
1
41
1
10
278.125949998954
20
19.5716651745161
30
0
41
1
10
278.129791571681
20
19.5660110797565
30
0
41
1
10
278.133632830969
20
19.5603577454795
30
0
41
1
10
278.137473788335
20
19.5547051431382
30
0
0
SPLINE
5
337
100
AcDbEntity
8
1
62
256
6
ByLayer
370
18
48
1
60
0
100
AcDbSpline
70
4
71
3
72
8
73
4
40
0
40
0
40
0
40
0
40
1
40
1
40
1
40
1
41
1
10
278.467278257243
20
20.2447577229047
30
0
41
1
10
278.474246517044
20
20.2452693929735
30
0
41
1
10
278.481214048549
20
20.2457810054388
30
0
41
1
10
278.488180878844
20
20.2462925624494
30
0
0
SPLINE
5
338
100
AcDbEntity
8
1
62
256
6
ByLayer
370
18
48
1
60
0
100
AcDbSpline
70
4
71
3
72
8
73
4
40
0
40
0
40
0
40
0
40
1
40
1
40
1
40
1
41
1
10
275.932977913372
20
21.5422094058203
30
0
41
1
10
275.929830466663
20
21.5478998781831
30
0
41
1
10
275.926683633831
20
21.5535896058084
30
0
41
1
10
275.923537391602
20
21.5592786166273
30
0
0
SPLINE
5
339
100
AcDbEntity
8
1
62
256
6
ByLayer
370
18
48
1
60
0
100
AcDbSpline
70
4
71
3
72
16
73
12
40
0
40
0
40
0
40
0
40
0.124999999999997
40
0.124999999999997
40
0.249999999999995
40
0.249999999999995
40
0.499999999999996
40
0.499999999999996
40
0.749999999999998
40
0.749999999999998
40
1
40
1
40
1
40
1
41
1
10
276.720260719401
20
19.0933393111853
30
0
41
1
10
276.719644545488
20
19.0740211458902
30
0
41
1
10
276.713760419381
20
19.0554961653285
30
0
41
1
10
276.691188562014
20
19.0248816251609
30
0
41
1
10
276.674595022251
20
19.0129353900398
30
0
41
1
10
276.619216329739
20
18.9885772168879
30
0
41
1
10
276.575812719756
20
18.9856447778229
30
0
41
1
10
276.489825556881
20
18.991631536648
30
0
41
1
10
276.446810335939
20
19.0008760852421
30
0
41
1
10
276.363064025426
20
19.0269443536745
30
0
41
1
10
276.322140275374
20
19.0439279975775
30
0
41
1
10
276.282905578768
20
19.064014457836
30
0
0
SPLINE
5
33A
100
AcDbEntity
8
1
62
256
6
ByLayer
370
18
48
1
60
0
100
AcDbSpline
70
4
71
3
72
16
73
12
40
0
40
0
40
0
40
0
40
0.249999999999926
40
0.249999999999926
40
0.499999999999853
40
0.499999999999853
40
0.749999999999779
40
0.749999999999779
40
0.874999999999889
40
0.874999999999889
40
1
40
1
40
1
40
1
41
1
10
277.949578404447
20
19.1513610794212
30
0
41
1
10
277.912632695001
20
19.1272668489224
30
0
41
1
10
277.873600862987
20
19.106133604702
30
0
41
1
10
277.792050974888
20
19.0713655838939
30
0
41
1
10
277.749581019091
20
19.0576434205118
30
0
41
1
10
277.662173644713
20
19.0425649223134
30
0
41
1
10
277.61707607063
20
19.0408147616777
30
0
41
1
10
277.554942274469
20
19.0593709410321
30
0
41
1
10
277.535805486164
20
19.0694244265815
30
0
41
1
10
277.506598025698
20
19.0972151264364
30
0
41
1
10
277.496752889563
20
19.1148193597814
30
0
41
1
10
277.492044260438
20
19.1337867726583
30
0
0
SPLINE
5
33B
100
AcDbEntity
8
1
62
256
6
ByLayer
370
18
48
1
60
0
100
AcDbSpline
70
4
71
3
72
16
73
12
40
0
40
0
40
0
40
0
40
0.25
40
0.25
40
0.5
40
0.5
40
0.75
40
0.75
40
0.875
40
0.875
40
1
40
1
40
1
40
1
41
1
10
276.282905578768
20
19.064014457836
30
0
41
1
10
276.243643728897
20
19.0841148193865
30
0
41
1
10
276.205846278802
20
19.1074210375095
30
0
41
1
10
276.134857674937
20
19.1605866581924
30
0
41
1
10
276.101618168274
20
19.1903663254078
30
0
41
1
10
276.044350057249
20
19.257823557085
30
0
41
1
10
276.019912339907
20
19.2954645583697
30
0
41
1
10
276.003882904922
20
19.3569360035858
30
0
41
1
10
276.002594087238
20
19.3778540620506
30
0
41
1
10
276.011074276246
20
19.4154379253699
30
0
41
1
10
276.020845443596
20
19.4318489133533
30
0
41
1
10
276.034368971562
20
19.4444860900916
30
0
0
SPLINE
5
33C
100
AcDbEntity
8
1
62
256
6
ByLayer
370
18
48
1
60
0
100
AcDbSpline
70
4
71
3
72
16
73
12
40
0
40
0
40
0
40
0
40
0.124999999999997
40
0.124999999999997
40
0.249999999999994
40
0.249999999999994
40
0.499999999999996
40
0.499999999999996
40
0.749999999999998
40
0.749999999999998
40
1
40
1
40
1
40
1
41
1
10
277.340750460536
20
22.0206444485802
30
0
41
1
10
277.343460735676
20
22.0400723610703
30
0
41
1
10
277.351472391609
20
22.0587088407455
30
0
41
1
10
277.377872808965
20
22.08952402724
30
0
41
1
10
277.396154161762
20
22.1015587168941
30
0
41
1
10
277.455607577006
20
22.1261304372156
30
0
41
1
10
277.500607292203
20
22.1291465246103
30
0
41
1
10
277.588913933
20
22.1232813244722
30
0
41
1
10
277.632617382969
20
22.1140728444331
30
0
41
1
10
277.717259513298
20
22.0880515239278
30
0
41
1
10
277.758380503304
20
22.0710782169329
30
0
41
1
10
277.797615199911
20
22.0509917566743
30
0
0
SPLINE
5
33D
100
AcDbEntity
8
1
62
256
6
ByLayer
370
13
48
1
60
0
100
AcDbSpline
70
4
71
1
72
4
73
2
40
0
40
0
40
1
40
1
41
1
10
233.091347153687
20
13.5983323455123
30
0
41
1
10
233.065186722307
20
13.6088065496178
30
0
0
SPLINE
5
33E
100
AcDbEntity
8
1
62
256
6
ByLayer
370
13
48
1
60
0
100
AcDbSpline
70
4
71
3
72
11
73
7
40
0
40
0
40
0
40
0
40
0.279998613117743
40
0.560011339804813
40
0.780001554654116
40
1
40
1
40
1
40
1
41
1
10
5.23439999999995
20
-31.25
30
0
41
1
10
8.01559143117221
20
-31.249978913845
30
0
41
1
10
13.5752950990857
20
-31.1664802804412
30
0
41
1
10
21.3121362923321
20
-30.7908459093054
30
0
41
1
10
28.4457739824026
20
-30.2967508618242
30
0
41
1
10
32.814434240969
20
-30.227467950412
30
0
41
1
10
35.0000000000001
20
-30.225
30
0
0
SPLINE
5
33F
100
AcDbEntity
8
1
62
256
6
ByLayer
370
13
48
1
60
0
100
AcDbSpline
70
4
71
3
72
12
73
8
40
0
40
0
40
0
40
0
40
0.186663387793135
40
0.373329218245885
40
0.559986372705724
40
0.780006552067893
40
1
40
1
40
1
40
1
41
1
10
35.0000000000002
20
30.2249999999999
30
0
41
1
10
33.1457595610381
20
30.2250176436856
30
0
41
1
10
29.4392737059537
20
30.2812082462912
30
0
41
1
10
23.8863806254568
20
30.5894390716288
30
0
41
1
10
18.0076445370549
20
30.9769576570308
30
0
41
1
10
11.7876186664281
20
31.1936553121242
30
0
41
1
10
7.41929302085592
20
31.2499919637702
30
0
41
1
10
5.23440000000002
20
31.25
30
0
0
SPLINE
5
340
100
AcDbEntity
8
1
62
256
6
ByLayer
370
13
48
1
60
0
100
AcDbSpline
70
4
71
1
72
4
73
2
40
0
40
0
40
1
40
1
41
1
10
286.62897912382
20
11.3081513797638
30
0
41
1
10
286.773654116805
20
11.4377158926022
30
0
0
SPLINE
5
341
100
AcDbEntity
8
1
62
256
6
ByLayer
370
13
48
1
60
0
100
AcDbSpline
70
4
71
1
72
4
73
2
40
0
40
0
40
1
40
1
41
1
10
267.729221905495
20
10.4396394927007
30
0
41
1
10
267.886647533153
20
10.3259074025099
30
0
0
LINE
5
7F
100
AcDbEntity
8
SK1
62
256
6
ByLayer
370
13
48
1
60
0
100
AcDbLine
10
-77.633813
20
24.639667
30
0
11
-77.633813
21
9.806751
31
0
39
0
210
0
220
0
230
1
0
LINE
5
81
100
AcDbEntity
8
SK1
62
256
6
ByLayer
370
13
48
1
60
0
100
AcDbLine
10
-77.633813
20
-9.806751
30
0
11
-77.633813
21
-24.639667
31
0
39
0
210
0
220
0
230
1
0
LINE
5
82
100
AcDbEntity
8
SK1
62
256
6
ByLayer
370
13
48
1
60
0
100
AcDbLine
10
-78.599999
20
-24.996
30
0
11
-78.599999
21
-10.670483
31
0
39
0
210
0
220
0
230
1
0
LINE
5
83
100
AcDbEntity
8
SK1
62
256
6
ByLayer
370
13
48
1
60
0
100
AcDbLine
10
-78.599999
20
10.670483
30
0
11
-78.599999
21
24.996
31
0
39
0
210
0
220
0
230
1
0
LINE
5
84
100
AcDbEntity
8
SK1
62
256
6
ByLayer
370
13
48
1
60
0
100
AcDbLine
10
-2
20
-24.996
30
0
11
-2
21
24.996
31
0
39
0
210
0
220
0
230
1
0
LINE
5
85
100
AcDbEntity
8
SK1
62
256
6
ByLayer
370
13
48
1
60
0
100
AcDbLine
10
-80
20
-23.996
30
0
11
-80
21
-8.054018
31
0
39
0
210
0
220
0
230
1
0
LINE
5
86
100
AcDbEntity
8
SK1
62
256
6
ByLayer
370
13
48
1
60
0
100
AcDbLine
10
-80
20
8.054018
30
0
11
-80
21
23.996
31
0
39
0
210
0
220
0
230
1
0
LINE
5
87
100
AcDbEntity
8
SK1
62
256
6
ByLayer
370
13
48
1
60
0
100
AcDbLine
10
-6.5
20
-10.670483
30
0
11
-76.600002
21
-10.670483
31
0
39
0
210
0
220
0
230
1
0
LINE
5
88
100
AcDbEntity
8
SK1
62
256
6
ByLayer
370
13
48
1
60
0
100
AcDbLine
10
-79
20
-24.996
30
0
11
-79
21
-10.670483
31
0
39
0
210
0
220
0
230
1
0
LINE
5
89
100
AcDbEntity
8
SK1
62
256
6
ByLayer
370
13
48
1
60
0
100
AcDbLine
10
-79
20
10.670483
30
0
11
-79
21
24.996
31
0
39
0
210
0
220
0
230
1
0
LINE
5
8A
100
AcDbEntity
8
SK1
62
256
6
ByLayer
370
13
48
1
60
0
100
AcDbLine
10
-6.5
20
-10.670483
30
0
11
-6.5
21
10.670483
31
0
39
0
210
0
220
0
230
1
0
LINE
5
8B
100
AcDbEntity
8
SK1
62
256
6
ByLayer
370
13
48
1
60
0
100
AcDbLine
10
-78.516222
20
24.892544
30
0
11
-78.516222
21
10.425829
31
0
39
0
210
0
220
0
230
1
0
LINE
5
8C
100
AcDbEntity
8
SK1
62
256
6
ByLayer
370
13
48
1
60
0
100
AcDbLine
10
-78.516222
20
-10.425829
30
0
11
-78.516222
21
-24.892544
31
0
39
0
210
0
220
0
230
1
0
LINE
5
8D
100
AcDbEntity
8
SK1
62
256
6
ByLayer
370
13
48
1
60
0
100
AcDbLine
10
-76.600002
20
10.670483
30
0
11
-6.5
21
10.670483
31
0
39
0
210
0
220
0
230
1
0
LINE
5
8E
100
AcDbEntity
8
SK1
62
256
6
ByLayer
370
13
48
1
60
0
100
AcDbLine
10
-78.599999
20
-10.670483
30
0
11
-79
21
-10.670483
31
0
39
0
210
0
220
0
230
1
0
LINE
5
8F
100
AcDbEntity
8
SK1
62
256
6
ByLayer
370
13
48
1
60
0
100
AcDbLine
10
-1.375195
20
-24.746
30
0
11
-1.375195
21
24.746
31
0
39
0
210
0
220
0
230
1
0
LINE
5
90
100
AcDbEntity
8
SK1
62
256
6
ByLayer
370
13
48
1
60
0
100
AcDbLine
10
-80
20
8.054018
30
0
11
-80
21
-8.054018
31
0
39
0
210
0
220
0
230
1
0
LINE
5
91
100
AcDbEntity
8
1
62
256
6
ByLayer
370
18
48
1
60
0
100
AcDbLine
10
285.68856
20
0.451248
30
0
11
285.770768
21
0.440482
31
0
39
0
210
0
220
0
230
1
0
LINE
5
92
100
AcDbEntity
8
1
62
256
6
ByLayer
370
18
48
1
60
0
100
AcDbLine
10
286.08656
20
0.082881
30
0
11
287.493919
21
-8.756618
31
0
39
0
210
0
220
0
230
1
0
LINE
5
93
100
AcDbEntity
8
1
62
256
6
ByLayer
370
18
48
1
60
0
100
AcDbLine
10
287.496924
20
-8.984993
30
0
11
286.357672
21
-17.593465
31
0
39
0
210
0
220
0
230
1
0
LINE
5
94
100
AcDbEntity
8
1
62
256
6
ByLayer
370
18
48
1
60
0
100
AcDbLine
10
286.061525
20
0.191252
30
0
11
286.065418
21
0.177747
31
0
39
0
210
0
220
0
230
1
0
LINE
5
95
100
AcDbEntity
8
1
62
256
6
ByLayer
370
18
48
1
60
0
100
AcDbLine
10
286.545811
20
-0.123756
30
0
11
286.444881
21
0.226395
31
0
39
0
210
0
220
0
230
1
0
LINE
5
96
100
AcDbEntity
8
1
62
256
6
ByLayer
370
18
48
1
60
0
100
AcDbLine
10
286.200063
20
-18.771925
30
0
11
286.552045
21
-18.671521
31
0
39
0
210
0
220
0
230
1
0
LINE
5
97
100
AcDbEntity
8
1
62
256
6
ByLayer
370
18
48
1
60
0
100
AcDbLine
10
286.107139
20
-17.88271
30
0
11
286.093563
21
-17.886583
31
0
39
0
210
0
220
0
230
1
0
LINE
5
98
100
AcDbEntity
8
1
62
256
6
ByLayer
370
18
48
1
60
0
100
AcDbLine
10
285.998201
20
-17.907614
30
0
11
285.925032
21
-17.919142
31
0
39
0
210
0
220
0
230
1
0
LINE
5
99
100
AcDbEntity
8
1
62
256
6
ByLayer
370
13
48
1
60
0
100
AcDbLine
10
269.675057
20
28.270071
30
0
11
268.599696
21
20.051388
31
0
39
0
210
0
220
0
230
1
0
LINE
5
9A
100
AcDbEntity
8
1
62
256
6
ByLayer
370
13
48
1
60
0
100
AcDbLine
10
269.911835
20
11.588069
30
0
11
269.863413
21
11.894705
31
0
39
0
210
0
220
0
230
1
0
LINE
5
9B
100
AcDbEntity
8
1
62
256
6
ByLayer
370
13
48
1
60
0
100
AcDbLine
10
269.206022
20
10.198757
30
0
11
268.94935
21
10.139294
31
0
39
0
210
0
220
0
230
1
0
LINE
5
9C
100
AcDbEntity
8
1
62
256
6
ByLayer
370
13
48
1
60
0
100
AcDbLine
10
286.421579
20
30.291008
30
0
11
286.41688
21
30.290762
31
0
39
0
210
0
220
0
230
1
0
LINE
5
9D
100
AcDbEntity
8
1
62
256
6
ByLayer
370
13
48
1
60
0
100
AcDbLine
10
287.675549
20
21.272582
30
0
11
286.255291
21
30.266593
31
0
39
0
210
0
220
0
230
1
0
LINE
5
9E
100
AcDbEntity
8
1
62
256
6
ByLayer
370
13
48
1
60
0
100
AcDbLine
10
268.879736
20
10.386322
30
0
11
269.078519
21
10.394993
31
0
39
0
210
0
220
0
230
1
0
LINE
5
9F
100
AcDbEntity
8
1
62
256
6
ByLayer
370
13
48
1
60
0
100
AcDbLine
10
268.437536
20
20.070262
30
0
11
269.504132
21
28.221955
31
0
39
0
210
0
220
0
230
1
0
LINE
5
A0
100
AcDbEntity
8
1
62
256
6
ByLayer
370
13
48
1
60
0
100
AcDbLine
10
287.839803
20
21.09588
30
0
11
286.809266
21
13.219775
31
0
39
0
210
0
220
0
230
1
0
LINE
5
A1
100
AcDbEntity
8
1
62
256
6
ByLayer
370
13
48
1
60
0
100
AcDbLine
10
286.737305
20
11.426907
30
0
11
286.695374
21
11.874515
31
0
39
0
210
0
220
0
230
1
0
LINE
5
A2
100
AcDbEntity
8
1
62
256
6
ByLayer
370
13
48
1
60
0
100
AcDbLine
10
287.844502
20
21.096127
30
0
11
287.839803
21
21.09588
31
0
39
0
210
0
220
0
230
1
0
LINE
5
A3
100
AcDbEntity
8
1
62
256
6
ByLayer
370
13
48
1
60
0
100
AcDbLine
10
286.214142
20
11.793736
30
0
11
286.695374
21
11.874515
31
0
39
0
210
0
220
0
230
1
0
LINE
5
A4
100
AcDbEntity
8
1
62
256
6
ByLayer
370
13
48
1
60
0
100
AcDbLine
10
284.285134
20
12.937169
30
0
11
285.352321
21
21.093381
31
0
39
0
210
0
220
0
230
1
0
LINE
5
A5
100
AcDbEntity
8
1
62
256
6
ByLayer
370
13
48
1
60
0
100
AcDbLine
10
286.166921
20
11.785809
30
0
11
286.214142
21
11.793736
31
0
39
0
210
0
220
0
230
1
0
LINE
5
A6
100
AcDbEntity
8
1
62
256
6
ByLayer
370
13
48
1
60
0
100
AcDbLine
10
284.33552
20
12.594978
30
0
11
286.473748
21
12.953897
31
0
39
0
210
0
220
0
230
1
0
LINE
5
A7
100
AcDbEntity
8
1
62
256
6
ByLayer
370
13
48
1
60
0
100
AcDbLine
10
267.220617
20
27.895285
30
0
11
267.166768
21
28.50092
31
0
39
0
210
0
220
0
230
1
0
LINE
5
A8
100
AcDbEntity
8
1
62
256
6
ByLayer
370
13
48
1
60
0
100
AcDbLine
10
285.21801
20
30.729587
30
0
11
285.019227
21
30.720916
31
0
39
0
210
0
220
0
230
1
0
LINE
5
A9
100
AcDbEntity
8
1
62
256
6
ByLayer
370
13
48
1
60
0
100
AcDbLine
10
269.103864
20
10.246121
30
0
11
268.905081
21
10.23745
31
0
39
0
210
0
220
0
230
1
0
LINE
5
AA
100
AcDbEntity
8
1
62
256
6
ByLayer
370
13
48
1
60
0
100
AcDbLine
10
286.690584
20
13.091688
30
0
11
286.685885
21
13.091441
31
0
39
0
210
0
220
0
230
1
0
LINE
5
AB
100
AcDbEntity
8
1
62
256
6
ByLayer
370
13
48
1
60
0
100
AcDbLine
10
269.887796
20
28.18268
30
0
11
268.820609
21
20.026468
31
0
39
0
210
0
220
0
230
1
0
LINE
5
AC
100
AcDbEntity
8
1
62
256
6
ByLayer
370
13
48
1
60
0
100
AcDbLine
10
286.473748
20
12.953897
30
0
11
286.701699
21
12.99216
31
0
39
0
210
0
220
0
230
1
0
LINE
5
AD
100
AcDbEntity
8
1
62
256
6
ByLayer
370
13
48
1
60
0
100
AcDbLine
10
286.258691
20
11.992824
30
0
11
286.701699
21
12.99216
31
0
39
0
210
0
220
0
230
1
0
LINE
5
AE
100
AcDbEntity
8
1
62
256
6
ByLayer
370
13
48
1
60
0
100
AcDbLine
10
266.020842
20
19.247832
30
0
11
265.933998
21
19.797786
31
0
39
0
210
0
220
0
230
1
0
LINE
5
AF
100
AcDbEntity
8
1
62
256
6
ByLayer
370
13
48
1
60
0
100
AcDbLine
10
265.944309
20
20.708157
30
0
11
266.049055
21
21.747758
31
0
39
0
210
0
220
0
230
1
0
LINE
5
B0
100
AcDbEntity
8
1
62
256
6
ByLayer
370
13
48
1
60
0
100
AcDbLine
10
284.461395
20
12.891994
30
0
11
284.455581
21
12.847562
31
0
39
0
210
0
220
0
230
1
0
LINE
5
B1
100
AcDbEntity
8
1
62
256
6
ByLayer
370
13
48
1
60
0
100
AcDbLine
10
285.230257
20
30.880429
30
0
11
285.225558
21
30.880183
31
0
39
0
210
0
220
0
230
1
0
LINE
5
B2
100
AcDbEntity
8
1
62
256
6
ByLayer
370
13
48
1
60
0
100
AcDbLine
10
266.422197
20
19.843327
30
0
11
267.842455
21
10.849316
31
0
39
0
210
0
220
0
230
1
0
LINE
5
B3
100
AcDbEntity
8
1
62
256
6
ByLayer
370
13
48
1
60
0
100
AcDbLine
10
269.671582
20
28.207846
30
0
11
269.679756
21
28.270317
31
0
39
0
210
0
220
0
230
1
0
LINE
5
B4
100
AcDbEntity
8
1
62
256
6
ByLayer
370
13
48
1
60
0
100
AcDbLine
10
284.570745
20
12.735855
30
0
11
284.566046
21
12.735609
31
0
39
0
210
0
220
0
230
1
0
LINE
5
B5
100
AcDbEntity
8
1
62
256
6
ByLayer
370
13
48
1
60
0
100
AcDbLine
10
287.100915
20
14.645645
30
0
11
286.878628
21
11.821523
31
0
39
0
210
0
220
0
230
1
0
LINE
5
B6
100
AcDbEntity
8
1
62
256
6
ByLayer
370
13
48
1
60
0
100
AcDbLine
10
268.60706
20
19.850763
30
0
11
268.602361
21
19.850517
31
0
39
0
210
0
220
0
230
1
0
LINE
5
B7
100
AcDbEntity
8
1
62
256
6
ByLayer
370
13
48
1
60
0
100
AcDbLine
10
268.604395
20
20.051634
30
0
11
268.599696
21
20.051388
31
0
39
0
210
0
220
0
230
1
0
LINE
5
B8
100
AcDbEntity
8
1
62
256
6
ByLayer
370
13
48
1
60
0
100
AcDbLine
10
267.444754
20
28.026191
30
0
11
269.564593
21
28.382024
31
0
39
0
210
0
220
0
230
1
0
LINE
5
B9
100
AcDbEntity
8
1
62
256
6
ByLayer
370
13
48
1
60
0
100
AcDbLine
10
285.031474
20
30.871758
30
0
11
285.026775
21
30.871512
31
0
39
0
210
0
220
0
230
1
0
LINE
5
BA
100
AcDbEntity
8
1
62
256
6
ByLayer
370
13
48
1
60
0
100
AcDbLine
10
267.329357
20
29.298578
30
0
11
267.433638
21
28.125719
31
0
39
0
210
0
220
0
230
1
0
LINE
5
BB
100
AcDbEntity
8
1
62
256
6
ByLayer
370
13
48
1
60
0
100
AcDbLine
10
287.94321
20
21.083051
30
0
11
286.914721
21
13.222594
31
0
39
0
210
0
220
0
230
1
0
LINE
5
BC
100
AcDbEntity
8
1
62
256
6
ByLayer
370
13
48
1
60
0
100
AcDbLine
10
270.372452
20
28.46938
30
0
11
282.899342
21
29.125886
31
0
39
0
210
0
220
0
230
1
0
LINE
5
BD
100
AcDbEntity
8
1
62
256
6
ByLayer
370
13
48
1
60
0
100
AcDbLine
10
269.679756
20
28.270317
30
0
11
269.675057
21
28.270071
31
0
39
0
210
0
220
0
230
1
0
LINE
5
BE
100
AcDbEntity
8
1
62
256
6
ByLayer
370
13
48
1
60
0
100
AcDbLine
10
284.892401
20
30.917187
30
0
11
284.929315
21
30.919122
31
0
39
0
210
0
220
0
230
1
0
LINE
5
BF
100
AcDbEntity
8
1
62
256
6
ByLayer
370
13
48
1
60
0
100
AcDbLine
10
285.660209
20
21.045647
30
0
11
284.593614
21
12.893954
31
0
39
0
210
0
220
0
230
1
0
LINE
5
C0
100
AcDbEntity
8
1
62
256
6
ByLayer
370
13
48
1
60
0
100
AcDbLine
10
268.602361
20
19.850517
30
0
11
269.907136
21
11.587823
31
0
39
0
210
0
220
0
230
1
0
LINE
5
C1
100
AcDbEntity
8
1
62
256
6
ByLayer
370
13
48
1
60
0
100
AcDbLine
10
266.290836
20
20.021752
30
0
11
267.321373
21
27.897858
31
0
39
0
210
0
220
0
230
1
0
LINE
5
C2
100
AcDbEntity
8
1
62
256
6
ByLayer
370
13
48
1
60
0
100
AcDbLine
10
269.504132
20
28.221955
30
0
11
267.45064
21
27.87726
31
0
39
0
210
0
220
0
230
1
0
LINE
5
C3
100
AcDbEntity
8
1
62
256
6
ByLayer
370
13
48
1
60
0
100
AcDbLine
10
285.027436
20
30.87154
30
0
11
285.225558
21
30.880183
31
0
39
0
210
0
220
0
230
1
0
LINE
5
C4
100
AcDbEntity
8
1
62
256
6
ByLayer
370
13
48
1
60
0
100
AcDbLine
10
285.031474
20
30.871758
30
0
11
285.230257
21
30.880429
31
0
39
0
210
0
220
0
230
1
0
LINE
5
C5
100
AcDbEntity
8
1
62
256
6
ByLayer
370
13
48
1
60
0
100
AcDbLine
10
266.192127
20
20.034828
30
0
11
267.220617
21
27.895285
31
0
39
0
210
0
220
0
230
1
0
LINE
5
C6
100
AcDbEntity
8
1
62
256
6
ByLayer
370
13
48
1
60
0
100
AcDbLine
10
286.647106
20
13.238649
30
0
11
287.677643
21
21.114755
31
0
39
0
210
0
220
0
230
1
0
LINE
5
C7
100
AcDbEntity
8
1
62
256
6
ByLayer
370
13
48
1
60
0
100
AcDbLine
10
265.944309
20
20.708157
30
0
11
265.954454
21
21.498199
31
0
39
0
210
0
220
0
230
1
0
LINE
5
C8
100
AcDbEntity
8
1
62
256
6
ByLayer
370
13
48
1
60
0
100
AcDbLine
10
266.197857
20
22.048474
30
0
11
265.931178
21
20.010322
31
0
39
0
210
0
220
0
230
1
0
LINE
5
C9
100
AcDbEntity
8
1
62
256
6
ByLayer
370
13
48
1
60
0
100
AcDbLine
10
266.431691
20
16.257324
30
0
11
267.068417
21
13.595846
31
0
39
0
210
0
220
0
230
1
0
LINE
5
CA
100
AcDbEntity
8
1
62
256
6
ByLayer
370
13
48
1
60
0
100
AcDbLine
10
267.44882
20
30.02077
30
0
11
267.56401
21
30.009045
31
0
39
0
210
0
220
0
230
1
0
LINE
5
CB
100
AcDbEntity
8
1
62
256
6
ByLayer
370
13
48
1
60
0
100
AcDbLine
10
268.604395
20
20.051634
30
0
11
269.671582
21
28.207846
31
0
39
0
210
0
220
0
230
1
0
LINE
5
CC
100
AcDbEntity
8
1
62
256
6
ByLayer
370
13
48
1
60
0
100
AcDbLine
10
266.020842
20
19.247832
30
0
11
267.584704
21
10.810371
31
0
39
0
210
0
220
0
230
1
0
LINE
5
CD
100
AcDbEntity
8
1
62
256
6
ByLayer
370
13
48
1
60
0
100
AcDbLine
10
284.593614
20
12.893954
30
0
11
286.647106
21
13.238649
31
0
39
0
210
0
220
0
230
1
0
LINE
5
CE
100
AcDbEntity
8
1
62
256
6
ByLayer
370
13
48
1
60
0
100
AcDbLine
10
267.956484
20
29.801205
30
0
11
267.638995
21
29.800308
31
0
39
0
210
0
220
0
230
1
0
LINE
5
CF
100
AcDbEntity
8
1
62
256
6
ByLayer
370
13
48
1
60
0
100
AcDbLine
10
269.741532
20
11.589074
30
0
11
268.440772
21
19.826348
31
0
39
0
210
0
220
0
230
1
0
LINE
5
D0
100
AcDbEntity
8
1
62
256
6
ByLayer
370
13
48
1
60
0
100
AcDbLine
10
284.929315
20
30.919122
30
0
11
285.185987
21
30.978585
31
0
39
0
210
0
220
0
230
1
0
LINE
5
D1
100
AcDbEntity
8
1
62
256
6
ByLayer
370
13
48
1
60
0
100
AcDbLine
10
287.940165
20
21.312618
30
0
11
286.519907
21
30.306629
31
0
39
0
210
0
220
0
230
1
0
LINE
5
D2
100
AcDbEntity
8
1
62
256
6
ByLayer
370
13
48
1
60
0
100
AcDbLine
10
285.752479
20
30.881383
30
0
11
285.74778
21
30.881136
31
0
39
0
210
0
220
0
230
1
0
LINE
5
D3
100
AcDbEntity
8
1
62
256
6
ByLayer
370
13
48
1
60
0
100
AcDbLine
10
283.762885
20
12.648499
30
0
11
271.235996
21
11.991993
31
0
39
0
210
0
220
0
230
1
0
LINE
5
D4
100
AcDbEntity
8
1
62
256
6
ByLayer
370
13
48
1
60
0
100
AcDbLine
10
286.685885
20
13.091441
30
0
11
284.566046
21
12.735609
31
0
39
0
210
0
220
0
230
1
0
LINE
5
D5
100
AcDbEntity
8
1
62
256
6
ByLayer
370
13
48
1
60
0
100
AcDbLine
10
268.822512
20
19.882989
30
0
11
270.078865
21
11.926931
31
0
39
0
210
0
220
0
230
1
0
LINE
5
D6
100
AcDbEntity
8
1
62
256
6
ByLayer
370
13
48
1
60
0
100
AcDbLine
10
284.572462
20
30.721637
30
0
11
284.74731
21
30.7308
31
0
39
0
210
0
220
0
230
1
0
LINE
5
D7
100
AcDbEntity
8
1
62
256
6
ByLayer
370
13
48
1
60
0
100
AcDbLine
10
284.356214
20
29.526835
30
0
11
285.656974
21
21.289561
31
0
39
0
210
0
220
0
230
1
0
LINE
5
D8
100
AcDbEntity
8
1
62
256
6
ByLayer
370
13
48
1
60
0
100
AcDbLine
10
267.329357
20
29.298578
30
0
11
267.189845
21
29.27516
31
0
39
0
210
0
220
0
230
1
0
LINE
5
D9
100
AcDbEntity
8
1
62
256
6
ByLayer
370
13
48
1
60
0
100
AcDbLine
10
269.799817
20
28.522901
30
0
11
267.433638
21
28.125719
31
0
39
0
210
0
220
0
230
1
0
LINE
5
DA
100
AcDbEntity
8
1
62
256
6
ByLayer
370
13
48
1
60
0
100
AcDbLine
10
284.223503
20
29.52981
30
0
11
284.269033
21
29.241486
31
0
39
0
210
0
220
0
230
1
0
LINE
5
DB
100
AcDbEntity
8
1
62
256
6
ByLayer
370
13
48
1
60
0
100
AcDbLine
10
285.260223
20
30.881497
30
0
11
285.255524
21
30.881251
31
0
39
0
210
0
220
0
230
1
0
LINE
5
DC
100
AcDbEntity
8
1
62
256
6
ByLayer
370
13
48
1
60
0
100
AcDbLine
10
269.911835
20
11.588069
30
0
11
269.907136
21
11.587823
31
0
39
0
210
0
220
0
230
1
0
LINE
5
DD
100
AcDbEntity
8
1
62
256
6
ByLayer
370
13
48
1
60
0
100
AcDbLine
10
286.214142
20
11.793736
30
0
11
286.099152
21
11.279853
31
0
39
0
210
0
220
0
230
1
0
LINE
5
DE
100
AcDbEntity
8
1
62
256
6
ByLayer
370
13
48
1
60
0
100
AcDbLine
10
285.005735
20
30.940889
30
0
11
284.892401
21
30.917187
31
0
39
0
210
0
220
0
230
1
0
LINE
5
DF
100
AcDbEntity
8
1
62
256
6
ByLayer
370
13
48
1
60
0
100
AcDbLine
10
269.290396
20
10.406696
30
0
11
269.285697
21
10.40645
31
0
39
0
210
0
220
0
230
1
0
LINE
5
E0
100
AcDbEntity
8
1
62
256
6
ByLayer
370
13
48
1
60
0
100
AcDbLine
10
287.841837
20
21.296997
30
0
11
287.837138
21
21.296751
31
0
39
0
210
0
220
0
230
1
0
LINE
5
E1
100
AcDbEntity
8
1
62
256
6
ByLayer
370
13
48
1
60
0
100
AcDbLine
10
269.863413
20
11.894705
30
0
11
268.60706
21
19.850763
31
0
39
0
210
0
220
0
230
1
0
LINE
5
E2
100
AcDbEntity
8
1
62
256
6
ByLayer
370
13
48
1
60
0
100
AcDbLine
10
285.350417
20
21.23686
30
0
11
284.094064
21
29.192918
31
0
39
0
210
0
220
0
230
1
0
LINE
5
E3
100
AcDbEntity
8
1
62
256
6
ByLayer
370
13
48
1
60
0
100
AcDbLine
10
287.844502
20
21.096127
30
0
11
286.813965
21
13.220021
31
0
39
0
210
0
220
0
230
1
0
LINE
5
E4
100
AcDbEntity
8
1
62
256
6
ByLayer
370
13
48
1
60
0
100
AcDbLine
10
286.473748
20
12.953897
30
0
11
286.258691
21
11.992824
31
0
39
0
210
0
220
0
230
1
0
LINE
5
E5
100
AcDbEntity
8
1
62
256
6
ByLayer
370
13
48
1
60
0
100
AcDbLine
10
286.41688
20
30.290762
30
0
11
287.837138
21
21.296751
31
0
39
0
210
0
220
0
230
1
0
LINE
5
E6
100
AcDbEntity
8
1
62
256
6
ByLayer
370
13
48
1
60
0
100
AcDbLine
10
286.813965
20
13.220021
30
0
11
286.809266
21
13.219775
31
0
39
0
210
0
220
0
230
1
0
LINE
5
E7
100
AcDbEntity
8
1
62
256
6
ByLayer
370
13
48
1
60
0
100
AcDbLine
10
265.944309
20
20.708157
30
0
11
265.915427
21
20.152138
31
0
39
0
210
0
220
0
230
1
0
LINE
5
E8
100
AcDbEntity
8
1
62
256
6
ByLayer
370
13
48
1
60
0
100
AcDbLine
10
267.713758
20
10.826871
30
0
11
266.293501
21
19.820882
31
0
39
0
210
0
220
0
230
1
0
LINE
5
E9
100
AcDbEntity
8
1
62
256
6
ByLayer
370
13
48
1
60
0
100
AcDbLine
10
269.882923
20
11.500735
30
0
11
269.878224
21
11.500488
31
0
39
0
210
0
220
0
230
1
0
LINE
5
EA
100
AcDbEntity
8
1
62
256
6
ByLayer
370
13
48
1
60
0
100
AcDbLine
10
286.166921
20
11.785809
30
0
11
286.258691
21
11.992824
31
0
39
0
210
0
220
0
230
1
0
LINE
5
EB
100
AcDbEntity
8
1
62
256
6
ByLayer
370
13
48
1
60
0
100
AcDbLine
10
286.802917
20
12.941878
30
0
11
286.695374
21
11.874515
31
0
39
0
210
0
220
0
230
1
0
LINE
5
EC
100
AcDbEntity
8
1
62
256
6
ByLayer
370
13
48
1
60
0
100
AcDbLine
10
286.421579
20
30.291008
30
0
11
287.841837
21
21.296997
31
0
39
0
210
0
220
0
230
1
0
LINE
5
ED
100
AcDbEntity
8
1
62
256
6
ByLayer
370
13
48
1
60
0
100
AcDbLine
10
286.690584
20
13.091688
30
0
11
284.570745
21
12.735855
31
0
39
0
210
0
220
0
230
1
0
LINE
5
EE
100
AcDbEntity
8
1
62
256
6
ByLayer
370
13
48
1
60
0
100
AcDbLine
10
267.45064
20
27.87726
30
0
11
266.420103
21
20.001154
31
0
39
0
210
0
220
0
230
1
0
LINE
5
EF
100
AcDbEntity
8
1
62
256
6
ByLayer
370
13
48
1
60
0
100
AcDbLine
10
266.195172
20
19.805261
30
0
11
267.61543
21
10.81125
31
0
39
0
210
0
220
0
230
1
0
LINE
5
F0
100
AcDbEntity
8
SK1
62
256
6
ByLayer
370
13
48
1
60
0
100
AcDbLine
10
-1.544243
20
-24.783477
30
0
11
-1.544243
21
24.783477
31
0
39
0
210
0
220
0
230
1
0
LINE
5
F1
100
AcDbEntity
8
SK1
62
256
6
ByLayer
370
13
48
1
60
0
100
AcDbLine
10
-76.600002
20
24.996
30
0
11
-76.600002
21
10.670483
31
0
39
0
210
0
220
0
230
1
0
LINE
5
F2
100
AcDbEntity
8
SK1
62
256
6
ByLayer
370
13
48
1
60
0
100
AcDbLine
10
-76.600002
20
-10.670483
30
0
11
-76.600002
21
-24.996
31
0
39
0
210
0
220
0
230
1
0
LINE
5
F3
100
AcDbEntity
8
SK1
62
256
6
ByLayer
370
13
48
1
60
0
100
AcDbLine
10
-0.15
20
-24.746
30
0
11
-0.15
21
24.746
31
0
39
0
210
0
220
0
230
1
0
LINE
5
F4
100
AcDbEntity
8
SK1
62
256
6
ByLayer
370
13
48
1
60
0
100
AcDbLine
10
-79
20
10.670483
30
0
11
-78.599999
21
10.670483
31
0
39
0
210
0
220
0
230
1
0
LINE
5
F5
100
AcDbEntity
8
1
62
256
6
ByLayer
370
13
48
1
60
0
100
AcDbLine
10
261.539169
20
-29.770401
30
0
11
247.669344
21
-29.770401
31
0
39
0
210
0
220
0
230
1
0
LINE
5
F6
100
AcDbEntity
8
1
62
256
6
ByLayer
370
13
48
1
60
0
100
AcDbLine
10
284.872646
20
-30.078791
30
0
11
264.539169
21
-30.078791
31
0
39
0
210
0
220
0
230
1
0
LINE
5
F7
100
AcDbEntity
8
1
62
256
6
ByLayer
370
13
48
1
60
0
100
AcDbLine
10
287.015564
20
-9.679347
30
0
11
284.508496
21
-7.271282
31
0
39
0
210
0
220
0
230
1
0
LINE
5
F8
100
AcDbEntity
8
1
62
256
6
ByLayer
370
13
48
1
60
0
100
AcDbLine
10
264.041456
20
11.088753
30
0
11
265.806542
21
10.546347
31
0
39
0
210
0
220
0
230
1
0
LINE
5
F9
100
AcDbEntity
8
1
62
256
6
ByLayer
370
13
48
1
60
0
100
AcDbLine
10
40
20
30.225
30
0
11
40
21
-10.875453
31
0
39
0
210
0
220
0
230
1
0
LINE
5
FA
100
AcDbEntity
8
1
62
256
6
ByLayer
370
13
48
1
60
0
100
AcDbLine
10
272.102307
20
12.037394
30
0
11
275.085172
21
12.193719
31
0
39
0
210
0
220
0
230
1
0
LINE
5
FB
100
AcDbEntity
8
1
62
256
6
ByLayer
370
13
48
1
60
0
100
AcDbLine
10
283.434389
20
2.026014
30
0
11
283.649066
21
-1.141418
31
0
39
0
210
0
220
0
230
1
0
LINE
5
FC
100
AcDbEntity
8
1
62
256
6
ByLayer
370
13
48
1
60
0
100
AcDbLine
10
286.545607
20
10.730952
30
0
11
286.350855
21
9.997319
31
0
39
0
210
0
220
0
230
1
0
LINE
5
FD
100
AcDbEntity
8
1
62
256
6
ByLayer
370
13
48
1
60
0
100
AcDbLine
10
280.552986
20
12.480275
30
0
11
283.535852
21
12.636601
31
0
39
0
210
0
220
0
230
1
0
LINE
5
FE
100
AcDbEntity
8
1
62
256
6
ByLayer
370
13
48
1
60
0
100
AcDbLine
10
286.180466
20
0.622869
30
0
11
286.157079
21
0.625932
31
0
39
0
210
0
220
0
230
1
0
LINE
5
FF
100
AcDbEntity
8
1
62
256
6
ByLayer
370
13
48
1
60
0
100
AcDbLine
10
264.539169
20
-30.078791
30
0
11
264.539169
21
-0.566545
31
0
39
0
210
0
220
0
230
1
0
LINE
5
100
100
AcDbEntity
8
1
62
256
6
ByLayer
370
13
48
1
60
0
100
AcDbLine
10
285.755733
20
-0.203662
30
0
11
286.993144
21
-7.97573
31
0
39
0
210
0
220
0
230
1
0
LINE
5
101
100
AcDbEntity
8
1
62
256
6
ByLayer
370
13
48
1
60
0
100
AcDbLine
10
261.539169
20
29.915
30
0
11
261.539169
21
29.720961
31
0
39
0
210
0
220
0
230
1
0
LINE
5
102
100
AcDbEntity
8
1
62
256
6
ByLayer
370
13
48
1
60
0
100
AcDbLine
10
266.586961
20
15.273992
30
0
11
265.835123
21
20.035127
31
0
39
0
210
0
220
0
230
1
0
LINE
5
103
100
AcDbEntity
8
1
62
256
6
ByLayer
370
13
48
1
60
0
100
AcDbLine
10
286.277829
20
10.292738
30
0
11
286.229954
21
11.126771
31
0
39
0
210
0
220
0
230
1
0
LINE
5
104
100
AcDbEntity
8
1
62
256
6
ByLayer
370
13
48
1
60
0
100
AcDbLine
10
0.1
20
31.25
30
0
11
0.1
21
5.567764
31
0
39
0
210
0
220
0
230
1
0
LINE
5
105
100
AcDbEntity
8
1
62
256
6
ByLayer
370
13
48
1
60
0
100
AcDbLine
10
35
20
30.225
30
0
11
35
21
-10.875857
31
0
39
0
210
0
220
0
230
1
0
LINE
5
106
100
AcDbEntity
8
1
62
256
6
ByLayer
370
13
48
1
60
0
100
AcDbLine
10
270.33997
20
11.724256
30
0
11
270.341632
21
11.714734
31
0
39
0
210
0
220
0
230
1
0
LINE
5
107
100
AcDbEntity
8
1
62
256
6
ByLayer
370
13
48
1
60
0
100
AcDbLine
10
35.01
20
-16.808209
30
0
11
35.01
21
-29.418143
31
0
39
0
210
0
220
0
230
1
0
LINE
5
108
100
AcDbEntity
8
1
62
256
6
ByLayer
370
13
48
1
60
0
100
AcDbLine
10
286.390559
20
11.026868
30
0
11
286.236146
21
11.018776
31
0
39
0
210
0
220
0
230
1
0
LINE
5
109
100
AcDbEntity
8
1
62
256
6
ByLayer
370
13
48
1
60
0
100
AcDbLine
10
284.253039
20
10.971854
30
0
11
285.722814
21
11.048882
31
0
39
0
210
0
220
0
230
1
0
LINE
5
10A
100
AcDbEntity
8
1
62
256
6
ByLayer
370
13
48
1
60
0
100
AcDbLine
10
264.539169
20
30.225
30
0
11
264.539169
21
30.063865
31
0
39
0
210
0
220
0
230
1
0
LINE
5
10B
100
AcDbEntity
8
1
62
256
6
ByLayer
370
13
48
1
60
0
100
AcDbLine
10
263.552423
20
2.28833
30
0
11
263.997482
21
-0.501625
31
0
39
0
210
0
220
0
230
1
0
LINE
5
10C
100
AcDbEntity
8
1
62
256
6
ByLayer
370
13
48
1
60
0
100
AcDbLine
10
0
20
-4.975942
30
0
11
0
21
4.975942
31
0
39
0
210
0
220
0
230
1
0
LINE
5
10D
100
AcDbEntity
8
1
62
256
6
ByLayer
370
13
48
1
60
0
100
AcDbLine
10
267.212221
20
28.848313
30
0
11
267.147232
21
30.088383
31
0
39
0
210
0
220
0
230
1
0
LINE
5
10E
100
AcDbEntity
8
1
62
256
6
ByLayer
370
13
48
1
60
0
100
AcDbLine
10
136.2
20
-29.857902
30
0
11
136.2
21
-29.915
31
0
39
0
210
0
220
0
230
1
0
LINE
5
10F
100
AcDbEntity
8
1
62
256
6
ByLayer
370
13
48
1
60
0
100
AcDbLine
10
263.489499
20
14.306286
30
0
11
262.044878
21
16.524658
31
0
39
0
210
0
220
0
230
1
0
LINE
5
110
100
AcDbEntity
8
1
62
256
6
ByLayer
370
13
48
1
60
0
100
AcDbLine
10
10.3344
20
-5.287976
30
0
11
10.3344
21
5.287976
31
0
39
0
210
0
220
0
230
1
0
LINE
5
111
100
AcDbEntity
8
1
62
256
6
ByLayer
370
13
48
1
60
0
100
AcDbLine
10
284.872646
20
-30.078791
30
0
11
286.338256
21
-19.004286
31
0
39
0
210
0
220
0
230
1
0
LINE
5
112
100
AcDbEntity
8
1
62
256
6
ByLayer
370
13
48
1
60
0
100
AcDbLine
10
275.204769
20
10.497654
30
0
11
275.979508
21
10.538257
31
0
39
0
210
0
220
0
230
1
0
LINE
5
113
100
AcDbEntity
8
1
62
256
6
ByLayer
370
13
48
1
60
0
100
AcDbLine
10
283.447124
20
2.820336
30
0
11
285.685107
21
0.670729
31
0
39
0
210
0
220
0
230
1
0
LINE
5
114
100
AcDbEntity
8
1
62
256
6
ByLayer
370
13
48
1
60
0
100
AcDbLine
10
40
20
-30.105931
30
0
11
40
21
-30.225
31
0
39
0
210
0
220
0
230
1
0
LINE
5
115
100
AcDbEntity
8
1
62
256
6
ByLayer
370
13
48
1
60
0
100
AcDbLine
10
284.253039
20
10.971854
30
0
11
283.447124
21
2.820336
31
0
39
0
210
0
220
0
230
1
0
LINE
5
116
100
AcDbEntity
8
1
62
256
6
ByLayer
370
13
48
1
60
0
100
AcDbLine
10
271.714645
20
11.729183
30
0
11
271.400657
21
11.712728
31
0
39
0
210
0
220
0
230
1
0
LINE
5
117
100
AcDbEntity
8
1
62
256
6
ByLayer
370
13
48
1
60
0
100
AcDbLine
10
275.058454
20
11.491359
30
0
11
284.407741
21
11.981334
31
0
39
0
210
0
220
0
230
1
0
LINE
5
118
100
AcDbEntity
8
1
62
256
6
ByLayer
370
13
48
1
60
0
100
AcDbLine
10
0
20
-31.15
30
0
11
0
21
-4.975942
31
0
39
0
210
0
220
0
230
1
0
LINE
5
119
100
AcDbEntity
8
1
62
256
6
ByLayer
370
13
48
1
60
0
100
AcDbLine
10
262.044878
20
13.74687
30
0
11
262.044878
21
16.524658
31
0
39
0
210
0
220
0
230
1
0
LINE
5
11A
100
AcDbEntity
8
1
62
256
6
ByLayer
370
13
48
1
60
0
100
AcDbLine
10
283.990988
20
12.460179
30
0
11
271.762358
21
11.819304
31
0
39
0
210
0
220
0
230
1
0
LINE
5
11B
100
AcDbEntity
8
1
62
256
6
ByLayer
370
13
48
1
60
0
100
AcDbLine
10
262.504614
20
13.759074
30
0
11
263.489499
21
14.306286
31
0
39
0
210
0
220
0
230
1
0
LINE
5
11C
100
AcDbEntity
8
1
62
256
6
ByLayer
370
13
48
1
60
0
100
AcDbLine
10
284.427405
20
-5.51131
30
0
11
286.993144
21
-7.97573
31
0
39
0
210
0
220
0
230
1
0
LINE
5
11D
100
AcDbEntity
8
1
62
256
6
ByLayer
370
13
48
1
60
0
100
AcDbLine
10
5.2344
20
-5.567764
30
0
11
5.2344
21
-31.25
31
0
39
0
210
0
220
0
230
1
0
LINE
5
11E
100
AcDbEntity
8
1
62
256
6
ByLayer
370
13
48
1
60
0
100
AcDbLine
10
267.210137
20
27.989003
30
0
11
266.498543
21
22.550487
31
0
39
0
210
0
220
0
230
1
0
LINE
5
11F
100
AcDbEntity
8
1
62
256
6
ByLayer
370
13
48
1
60
0
100
AcDbLine
10
286.272406
20
1.140605
30
0
11
286.550325
21
0.83518
31
0
39
0
210
0
220
0
230
1
0
LINE
5
120
100
AcDbEntity
8
1
62
256
6
ByLayer
370
13
48
1
60
0
100
AcDbLine
10
272.123176
20
9.834329
30
0
11
272.653044
21
9.862099
31
0
39
0
210
0
220
0
230
1
0
LINE
5
121
100
AcDbEntity
8
1
62
256
6
ByLayer
370
13
48
1
60
0
100
AcDbLine
10
286.272406
20
1.140605
30
0
11
286.251308
21
1.143368
31
0
39
0
210
0
220
0
230
1
0
LINE
5
122
100
AcDbEntity
8
1
62
256
6
ByLayer
370
13
48
1
60
0
100
AcDbLine
10
261.539169
20
-29.770401
30
0
11
261.539169
21
0.178741
31
0
39
0
210
0
220
0
230
1
0
LINE
5
123
100
AcDbEntity
8
1
62
256
6
ByLayer
370
13
48
1
60
0
100
AcDbLine
10
0
20
31.15
30
0
11
0
21
4.975942
31
0
39
0
210
0
220
0
230
1
0
LINE
5
124
100
AcDbEntity
8
1
62
256
6
ByLayer
370
13
48
1
60
0
100
AcDbLine
10
286.390559
20
11.026868
30
0
11
286.545607
21
10.730952
31
0
39
0
210
0
220
0
230
1
0
LINE
5
125
100
AcDbEntity
8
1
62
256
6
ByLayer
370
13
48
1
60
0
100
AcDbLine
10
35
20
-30.105822
30
0
11
35
21
-30.225
31
0
39
0
210
0
220
0
230
1
0
LINE
5
126
100
AcDbEntity
8
1
62
256
6
ByLayer
370
13
48
1
60
0
100
AcDbLine
10
287.015564
20
-9.679347
30
0
11
285.902411
21
-18.090605
31
0
39
0
210
0
220
0
230
1
0
LINE
5
127
100
AcDbEntity
8
1
62
256
6
ByLayer
370
13
48
1
60
0
100
AcDbLine
10
270.341632
20
11.714734
30
0
11
270.506227
21
11.72336
31
0
39
0
210
0
220
0
230
1
0
LINE
5
128
100
AcDbEntity
8
1
62
256
6
ByLayer
370
13
48
1
60
0
100
AcDbLine
10
286.545607
20
10.730952
30
0
11
286.550325
21
0.83518
31
0
39
0
210
0
220
0
230
1
0
LINE
5
129
100
AcDbEntity
8
1
62
256
6
ByLayer
370
13
48
1
60
0
100
AcDbLine
10
285.755733
20
-0.203662
30
0
11
283.434389
21
2.026014
31
0
39
0
210
0
220
0
230
1
0
LINE
5
12A
100
AcDbEntity
8
1
62
256
6
ByLayer
370
13
48
1
60
0
100
AcDbLine
10
281.489006
20
10.826997
30
0
11
284.253039
21
10.971854
31
0
39
0
210
0
220
0
230
1
0
LINE
5
12B
100
AcDbEntity
8
1
62
256
6
ByLayer
370
13
48
1
60
0
100
AcDbLine
10
286.338256
20
-19.004286
30
0
11
285.887952
21
-18.647414
31
0
39
0
210
0
220
0
230
1
0
LINE
5
12C
100
AcDbEntity
8
1
62
256
6
ByLayer
370
13
48
1
60
0
100
AcDbLine
10
280.393439
20
12.444098
30
0
11
280.166982
21
12.43223
31
0
39
0
210
0
220
0
230
1
0
LINE
5
12D
100
AcDbEntity
8
1
62
256
6
ByLayer
370
13
48
1
60
0
100
AcDbLine
10
271.394886
20
11.699501
30
0
11
270.86302
21
11.671627
31
0
39
0
210
0
220
0
230
1
0
LINE
5
12E
100
AcDbEntity
8
1
62
256
6
ByLayer
370
13
48
1
60
0
100
AcDbLine
10
0.1
20
-31.25
30
0
11
0.1
21
-5.567764
31
0
39
0
210
0
220
0
230
1
0
LINE
5
12F
100
AcDbEntity
8
1
62
256
6
ByLayer
370
13
48
1
60
0
100
AcDbLine
10
259.408142
20
2.547766
30
0
11
259.636072
21
1.118938
31
0
39
0
210
0
220
0
230
1
0
LINE
5
130
100
AcDbEntity
8
1
62
256
6
ByLayer
370
13
48
1
60
0
100
AcDbLine
10
286.172658
20
0.631451
30
0
11
286.180466
21
0.622869
31
0
39
0
210
0
220
0
230
1
0
LINE
5
131
100
AcDbEntity
8
1
62
256
6
ByLayer
370
13
48
1
60
0
100
AcDbLine
10
286.350855
20
9.997319
30
0
11
286.314921
21
9.995435
31
0
39
0
210
0
220
0
230
1
0
LINE
5
132
100
AcDbEntity
8
1
62
256
6
ByLayer
370
13
48
1
60
0
100
AcDbLine
10
266.355252
20
22.298734
30
0
11
267.212221
21
28.848313
31
0
39
0
210
0
220
0
230
1
0
LINE
5
133
100
AcDbEntity
8
1
62
256
6
ByLayer
370
13
48
1
60
0
100
AcDbLine
10
286.172658
20
0.631451
30
0
11
286.162172
21
0.632824
31
0
39
0
210
0
220
0
230
1
0
LINE
5
134
100
AcDbEntity
8
1
62
256
6
ByLayer
370
13
48
1
60
0
100
AcDbLine
10
271.75296
20
11.818811
30
0
11
271.762358
21
11.819304
31
0
39
0
210
0
220
0
230
1
0
LINE
5
135
100
AcDbEntity
8
1
62
256
6
ByLayer
370
13
48
1
60
0
100
AcDbLine
10
286.550325
20
0.83518
30
0
11
286.183636
21
0.699389
31
0
39
0
210
0
220
0
230
1
0
LINE
5
136
100
AcDbEntity
8
1
62
256
6
ByLayer
370
13
48
1
60
0
100
AcDbLine
10
285.880024
20
0.586956
30
0
11
285.729519
21
0.531221
31
0
39
0
210
0
220
0
230
1
0
LINE
5
137
100
AcDbEntity
8
1
62
256
6
ByLayer
370
13
48
1
60
0
100
AcDbLine
10
0.1
20
5.567764
30
0
11
5.2344
21
5.567764
31
0
39
0
210
0
220
0
230
1
0
LINE
5
138
100
AcDbEntity
8
1
62
256
6
ByLayer
370
13
48
1
60
0
100
AcDbLine
10
5.2344
20
-5.567764
30
0
11
0.1
21
-5.567764
31
0
39
0
210
0
220
0
230
1
0
LINE
5
139
100
AcDbEntity
8
1
62
256
6
ByLayer
370
13
48
1
60
0
100
AcDbLine
10
5.2344
20
31.25
30
0
11
5.2344
21
5.567764
31
0
39
0
210
0
220
0
230
1
0
LINE
5
13A
100
AcDbEntity
8
1
62
256
6
ByLayer
370
13
48
1
60
0
100
AcDbLine
10
136.2
20
29.915
30
0
11
136.2
21
-11.671327
31
0
39
0
210
0
220
0
230
1
0
LINE
5
13B
100
AcDbEntity
8
1
62
256
6
ByLayer
370
18
48
1
60
0
100
AcDbLine
10
278.42677
20
21.017699
30
0
11
278.289549
21
21.010508
31
0
39
0
210
0
220
0
230
1
0
LINE
5
13C
100
AcDbEntity
8
1
62
256
6
ByLayer
370
18
48
1
60
0
100
AcDbLine
10
276.581998
20
19.086093
30
0
11
276.591423
21
19.103712
31
0
39
0
210
0
220
0
230
1
0
LINE
5
13D
100
AcDbEntity
8
1
62
256
6
ByLayer
370
18
48
1
60
0
100
AcDbLine
10
275.57283
20
20.867691
30
0
11
275.505185
21
20.864146
31
0
39
0
210
0
220
0
230
1
0
LINE
5
13E
100
AcDbEntity
8
1
62
256
6
ByLayer
370
18
48
1
60
0
100
AcDbLine
10
276.728644
20
19.110903
30
0
11
276.591423
21
19.103712
31
0
39
0
210
0
220
0
230
1
0
LINE
5
13F
100
AcDbEntity
8
1
62
256
6
ByLayer
370
18
48
1
60
0
100
AcDbLine
10
277.999211
20
19.547459
30
0
11
277.988729
21
19.564474
31
0
39
0
210
0
220
0
230
1
0
LINE
5
140
100
AcDbEntity
8
1
62
256
6
ByLayer
370
18
48
1
60
0
100
AcDbLine
10
276.57914
20
21.963606
30
0
11
276.441919
21
21.956414
31
0
39
0
210
0
220
0
230
1
0
LINE
5
141
100
AcDbEntity
8
1
62
256
6
ByLayer
370
18
48
1
60
0
100
AcDbLine
10
278.12595
20
19.571665
30
0
11
277.988729
21
19.564474
31
0
39
0
210
0
220
0
230
1
0
LINE
5
142
100
AcDbEntity
8
1
62
256
6
ByLayer
370
18
48
1
60
0
100
AcDbLine
10
278.330057
20
20.237566
30
0
11
278.349918
21
20.239047
31
0
39
0
210
0
220
0
230
1
0
LINE
5
143
100
AcDbEntity
8
1
62
256
6
ByLayer
370
18
48
1
60
0
100
AcDbLine
10
278.467278
20
20.244758
30
0
11
278.330057
21
20.237566
31
0
39
0
210
0
220
0
230
1
0
LINE
5
144
100
AcDbEntity
8
1
62
256
6
ByLayer
370
18
48
1
60
0
100
AcDbLine
10
275.613293
20
20.095626
30
0
11
275.545058
21
20.09205
31
0
39
0
210
0
220
0
230
1
0
LINE
5
145
100
AcDbEntity
8
1
62
256
6
ByLayer
370
18
48
1
60
0
100
AcDbLine
10
278.137474
20
19.554705
30
0
11
277.999211
21
19.547459
31
0
39
0
210
0
220
0
230
1
0
LINE
5
146
100
AcDbEntity
8
1
62
256
6
ByLayer
370
18
48
1
60
0
100
AcDbLine
10
278.016954
20
21.651426
30
0
11
277.879733
21
21.644235
31
0
39
0
210
0
220
0
230
1
0
LINE
5
147
100
AcDbEntity
8
1
62
256
6
ByLayer
370
18
48
1
60
0
100
AcDbLine
10
277.879733
20
21.644235
30
0
11
277.88838
21
21.662252
31
0
39
0
210
0
220
0
230
1
0
LINE
5
148
100
AcDbEntity
8
1
62
256
6
ByLayer
370
18
48
1
60
0
100
AcDbLine
10
278.026642
20
21.669498
30
0
11
277.88838
21
21.662252
31
0
39
0
210
0
220
0
230
1
0
LINE
5
149
100
AcDbEntity
8
1
62
256
6
ByLayer
370
18
48
1
60
0
100
AcDbLine
10
276.568967
20
21.980197
30
0
11
276.430704
21
21.972951
31
0
39
0
210
0
220
0
230
1
0
LINE
5
14A
100
AcDbEntity
8
1
62
256
6
ByLayer
370
18
48
1
60
0
100
AcDbLine
10
276.720261
20
19.093339
30
0
11
276.581998
21
19.086093
31
0
39
0
210
0
220
0
230
1
0
LINE
5
14B
100
AcDbEntity
8
1
62
256
6
ByLayer
370
18
48
1
60
0
100
AcDbLine
10
278.309456
20
21.011112
30
0
11
278.289549
21
21.010508
31
0
39
0
210
0
220
0
230
1
0
LINE
5
14C
100
AcDbEntity
8
1
62
256
6
ByLayer
370
18
48
1
60
0
100
AcDbLine
10
276.441919
20
21.956414
30
0
11
276.430704
21
21.972951
31
0
39
0
210
0
220
0
230
1
0
LINE
5
14D
100
AcDbEntity
8
4
62
256
6
ByLayer
370
18
48
0.05
60
0
100
AcDbLine
10
288
20
0
30
0
11
0
21
0
31
0
39
0
210
0
220
0
230
1
0
LINE
5
14F
100
AcDbEntity
8
SK4
62
256
6
ByLayer
370
13
48
0.05
60
0
100
AcDbLine
10
288
20
0
30
0
11
-80
21
0
31
0
39
0
210
0
220
0
230
1
0
LINE
5
151
100
AcDbEntity
8
SK1
62
256
6
ByLayer
370
13
48
1
60
0
100
AcDbLine
10
-80
20
-23.996
30
0
11
-79
21
-24.996
31
0
39
0
210
0
220
0
230
1
0
LINE
5
152
100
AcDbEntity
8
SK1
62
256
6
ByLayer
370
13
48
1
60
0
100
AcDbLine
10
-79
20
24.996
30
0
11
-80
21
23.996
31
0
39
0
210
0
220
0
230
1
0
LINE
5
153
100
AcDbEntity
8
SK1
62
256
6
ByLayer
370
13
48
1
60
0
100
AcDbLine
10
-78.516222
20
24.892544
30
0
11
-78.599999
21
24.996
31
0
39
0
210
0
220
0
230
1
0
LINE
5
154
100
AcDbEntity
8
SK1
62
256
6
ByLayer
370
13
48
1
60
0
100
AcDbLine
10
-78.599999
20
-24.996
30
0
11
-78.516222
21
-24.892544
31
0
39
0
210
0
220
0
230
1
0
LINE
5
155
100
AcDbEntity
8
SK1
62
256
6
ByLayer
370
13
48
1
60
0
100
AcDbLine
10
-78.599999
20
24.996
30
0
11
-79
21
24.996
31
0
39
0
210
0
220
0
230
1
0
LINE
5
156
100
AcDbEntity
8
SK1
62
256
6
ByLayer
370
13
48
1
60
0
100
AcDbLine
10
-79
20
-24.996
30
0
11
-78.599999
21
-24.996
31
0
39
0
210
0
220
0
230
1
0
LINE
5
157
100
AcDbEntity
8
SK1
62
256
6
ByLayer
370
13
48
1
60
0
100
AcDbLine
10
-77.633813
20
-24.639667
30
0
11
-76.600002
21
-24.996
31
0
39
0
210
0
220
0
230
1
0
LINE
5
158
100
AcDbEntity
8
SK1
62
256
6
ByLayer
370
13
48
1
60
0
100
AcDbLine
10
-76.600002
20
24.996
30
0
11
-77.633813
21
24.639667
31
0
39
0
210
0
220
0
230
1
0
LINE
5
159
100
AcDbEntity
8
SK1
62
256
6
ByLayer
370
13
48
1
60
0
100
AcDbLine
10
-0.15
20
24.746
30
0
11
-1.375195
21
24.746
31
0
39
0
210
0
220
0
230
1
0
LINE
5
15A
100
AcDbEntity
8
SK1
62
256
6
ByLayer
370
13
48
1
60
0
100
AcDbLine
10
-1.375195
20
-24.746
30
0
11
-0.15
21
-24.746
31
0
39
0
210
0
220
0
230
1
0
LINE
5
15B
100
AcDbEntity
8
SK1
62
256
6
ByLayer
370
13
48
1
60
0
100
AcDbLine
10
-2
20
24.996
30
0
11
-76.600002
21
24.996
31
0
39
0
210
0
220
0
230
1
0
LINE
5
15C
100
AcDbEntity
8
SK1
62
256
6
ByLayer
370
13
48
1
60
0
100
AcDbLine
10
-76.600002
20
-24.996
30
0
11
-2
21
-24.996
31
0
39
0
210
0
220
0
230
1
0
LINE
5
15D
100
AcDbEntity
8
SK1
62
256
6
ByLayer
370
13
48
1
60
0
100
AcDbLine
10
-1.544243
20
24.783477
30
0
11
-2
21
24.996
31
0
39
0
210
0
220
0
230
1
0
LINE
5
15E
100
AcDbEntity
8
SK1
62
256
6
ByLayer
370
13
48
1
60
0
100
AcDbLine
10
-2
20
-24.996
30
0
11
-1.544243
21
-24.783477
31
0
39
0
210
0
220
0
230
1
0
LINE
5
15F
100
AcDbEntity
8
1
62
256
6
ByLayer
370
13
48
1
60
0
100
AcDbLine
10
35
20
-30.225
30
0
11
40
21
-30.225
31
0
39
0
210
0
220
0
230
1
0
LINE
5
160
100
AcDbEntity
8
1
62
256
6
ByLayer
370
13
48
1
60
0
100
AcDbLine
10
266.868356
20
30.225
30
0
11
264.539169
21
30.225
31
0
39
0
210
0
220
0
230
1
0
LINE
5
161
100
AcDbEntity
8
1
62
256
6
ByLayer
370
13
48
1
60
0
100
AcDbLine
10
40
20
-30.225
30
0
11
136.2
21
-29.915
31
0
39
0
210
0
220
0
230
1
0
LINE
5
162
100
AcDbEntity
8
1
62
256
6
ByLayer
370
13
48
1
60
0
100
AcDbLine
10
264.539169
20
30.225
30
0
11
261.539169
21
29.915
31
0
39
0
210
0
220
0
230
1
0
LINE
5
163
100
AcDbEntity
8
1
62
256
6
ByLayer
370
13
48
1
60
0
100
AcDbLine
10
136.2
20
-29.915
30
0
11
149.136075
21
-29.915
31
0
39
0
210
0
220
0
230
1
0
LINE
5
164
100
AcDbEntity
8
1
62
256
6
ByLayer
370
13
48
1
60
0
100
AcDbLine
10
261.539169
20
29.915
30
0
11
243.96288
21
29.915
31
0
39
0
210
0
220
0
230
1
0
LINE
5
165
100
AcDbEntity
8
1
62
256
6
ByLayer
370
13
48
1
60
0
100
AcDbLine
10
138.006194
20
29.915
30
0
11
136.2
21
29.915
31
0
39
0
210
0
220
0
230
1
0
LINE
5
166
100
AcDbEntity
8
1
62
256
6
ByLayer
370
13
48
1
60
0
100
AcDbLine
10
40
20
30.225
30
0
11
35
21
30.225
31
0
39
0
210
0
220
0
230
1
0
LINE
5
167
100
AcDbEntity
8
1
62
256
6
ByLayer
370
13
48
1
60
0
100
AcDbLine
10
136.2
20
29.915
30
0
11
40
21
30.225
31
0
39
0
210
0
220
0
230
1
0
LINE
5
168
100
AcDbEntity
8
1
62
256
6
ByLayer
370
13
48
1
60
0
100
AcDbLine
10
0
20
-31.15
30
0
11
0.1
21
-31.25
31
0
39
0
210
0
220
0
230
1
0
LINE
5
169
100
AcDbEntity
8
1
62
256
6
ByLayer
370
13
48
1
60
0
100
AcDbLine
10
0.1
20
31.25
30
0
11
0
21
31.15
31
0
39
0
210
0
220
0
230
1
0
LINE
5
16A
100
AcDbEntity
8
1
62
256
6
ByLayer
370
13
48
1
60
0
100
AcDbLine
10
0.1
20
-31.25
30
0
11
5.2344
21
-31.25
31
0
39
0
210
0
220
0
230
1
0
LINE
5
16B
100
AcDbEntity
8
1
62
256
6
ByLayer
370
13
48
1
60
0
100
AcDbLine
10
5.2344
20
31.25
30
0
11
0.1
21
31.25
31
0
39
0
210
0
220
0
230
1
0
LINE
5
16C
100
AcDbEntity
8
1
62
256
6
ByLayer
370
13
48
1
60
0
100
AcDbLine
10
286.358182
20
11.93864
30
0
11
286.89296
21
13.14499
31
0
39
0
210
0
220
0
230
1
0
LINE
5
16D
100
AcDbEntity
8
1
62
256
6
ByLayer
370
13
48
1
60
0
100
AcDbLine
10
285.529174
20
21.267071
30
0
11
284.27282
21
29.223129
31
0
39
0
210
0
220
0
230
1
0
LINE
5
16E
100
AcDbEntity
8
1
62
256
6
ByLayer
370
13
48
1
60
0
100
AcDbLine
10
284.464647
20
12.910236
30
0
11
285.531834
21
21.066449
31
0
39
0
210
0
220
0
230
1
0
LINE
5
16F
100
AcDbEntity
8
1
62
256
6
ByLayer
370
18
48
1
60
0
100
AcDbLine
10
277.08684
20
19.267874
30
0
11
276.959772
21
19.261214
31
0
39
0
210
0
220
0
230
1
0
LINE
5
170
100
AcDbEntity
8
1
62
256
6
ByLayer
370
18
48
1
60
0
100
AcDbLine
10
276.824714
20
21.838278
30
0
11
276.951782
21
21.844937
31
0
39
0
210
0
220
0
230
1
0
LINE
5
171
100
AcDbEntity
8
1
62
256
6
ByLayer
370
18
48
1
60
0
100
AcDbLine
10
277.114234
20
17.707469
30
0
11
277.181975
21
17.711019
31
0
39
0
210
0
220
0
230
1
0
LINE
5
172
100
AcDbEntity
8
1
62
256
6
ByLayer
370
18
48
1
60
0
100
AcDbLine
10
276.88366
20
23.403207
30
0
11
276.815919
21
23.399657
31
0
39
0
210
0
220
0
230
1
0
LINE
5
173
100
AcDbEntity
8
81
62
256
6
ByLayer
370
18
48
1
60
0
100
AcDbLine
10
288
20
0
30
0
11
295
21
0
31
0
39
0
210
0
220
0
230
1
0
LINE
5
174
100
AcDbEntity
8
80
62
256
6
ByLayer
370
18
48
1
60
0
100
AcDbLine
10
0
20
0
30
0
11
-7
21
0
31
0
39
0
210
0
220
0
230
1
0
LINE
5
175
100
AcDbEntity
8
SK2
62
256
6
ByLayer
370
13
48
1
60
0
100
AcDbLine
10
-100.725
20
25
30
0
11
-100.725
21
-25
31
0
39
0
210
0
220
0
230
1
0
LINE
5
177
100
AcDbEntity
8
SK2
62
256
6
ByLayer
370
13
48
1
60
0
100
AcDbLine
10
-81.5875
20
-25
30
0
11
-103.9
21
-25
31
0
39
0
210
0
220
0
230
1
0
LINE
5
178
100
AcDbEntity
8
SK2
62
256
6
ByLayer
370
13
48
1
60
0
100
AcDbLine
10
-81.5875
20
25
30
0
11
-103.9
21
25
31
0
39
0
210
0
220
0
230
1
0
LINE
5
179
100
AcDbEntity
8
1
62
256
6
ByLayer
370
18
48
1
60
1
100
AcDbLine
10
-100.725
20
-25
30
0
11
-101.650575
21
-20.825003
31
0
39
0
210
0
220
0
230
1
0
LINE
5
17A
100
AcDbEntity
8
1
62
256
6
ByLayer
370
18
48
1
60
1
100
AcDbLine
10
-101.650575
20
-20.825003
30
0
11
-99.799425
21
-20.824997
31
0
39
0
210
0
220
0
230
1
0
LINE
5
17B
100
AcDbEntity
8
1
62
256
6
ByLayer
370
18
48
1
60
1
100
AcDbLine
10
-99.799425
20
-20.824997
30
0
11
-100.725
21
-25
31
0
39
0
210
0
220
0
230
1
0
LINE
5
17C
100
AcDbEntity
8
1
62
256
6
ByLayer
370
18
48
1
60
1
100
AcDbLine
10
-100.725
20
25
30
0
11
-99.799425
21
20.825003
31
0
39
0
210
0
220
0
230
1
0
LINE
5
17D
100
AcDbEntity
8
1
62
256
6
ByLayer
370
18
48
1
60
1
100
AcDbLine
10
-99.799425
20
20.825003
30
0
11
-101.650575
21
20.824997
31
0
39
0
210
0
220
0
230
1
0
LINE
5
17E
100
AcDbEntity
8
1
62
256
6
ByLayer
370
18
48
1
60
1
100
AcDbLine
10
-101.650575
20
20.824997
30
0
11
-100.725
21
25
31
0
39
0
210
0
220
0
230
1
0
LINE
5
17F
100
AcDbEntity
8
SK2
62
256
6
ByLayer
370
13
48
1
60
0
100
AcDbLine
10
-110.725
20
-31.25
30
0
11
-110.725
21
31.25
31
0
39
0
210
0
220
0
230
1
0
LINE
5
180
100
AcDbEntity
8
SK2
62
256
6
ByLayer
370
13
48
1
60
0
100
AcDbLine
10
-1.5875
20
31.25
30
0
11
-113.9
21
31.25
31
0
39
0
210
0
220
0
230
1
0
LINE
5
181
100
AcDbEntity
8
SK2
62
256
6
ByLayer
370
13
48
1
60
0
100
AcDbLine
10
-1.5875
20
-31.25
30
0
11
-113.9
21
-31.25
31
0
39
0
210
0
220
0
230
1
0
LINE
5
182
100
AcDbEntity
8
1
62
256
6
ByLayer
370
18
48
1
60
1
100
AcDbLine
10
-110.725
20
31.25
30
0
11
-109.799425
21
27.075003
31
0
39
0
210
0
220
0
230
1
0
LINE
5
183
100
AcDbEntity
8
1
62
256
6
ByLayer
370
18
48
1
60
1
100
AcDbLine
10
-109.799425
20
27.075003
30
0
11
-111.650575
21
27.074997
31
0
39
0
210
0
220
0
230
1
0
LINE
5
184
100
AcDbEntity
8
1
62
256
6
ByLayer
370
18
48
1
60
1
100
AcDbLine
10
-111.650575
20
27.074997
30
0
11
-110.725
21
31.25
31
0
39
0
210
0
220
0
230
1
0
LINE
5
185
100
AcDbEntity
8
1
62
256
6
ByLayer
370
18
48
1
60
1
100
AcDbLine
10
-110.725
20
-31.25
30
0
11
-111.650575
21
-27.075003
31
0
39
0
210
0
220
0
230
1
0
LINE
5
186
100
AcDbEntity
8
1
62
256
6
ByLayer
370
18
48
1
60
1
100
AcDbLine
10
-111.650575
20
-27.075003
30
0
11
-109.799425
21
-27.074997
31
0
39
0
210
0
220
0
230
1
0
LINE
5
187
100
AcDbEntity
8
1
62
256
6
ByLayer
370
18
48
1
60
1
100
AcDbLine
10
-109.799425
20
-27.074997
30
0
11
-110.725
21
-31.25
31
0
39
0
210
0
220
0
230
1
0
LINE
5
188
100
AcDbEntity
8
2
62
256
6
ByLayer
370
13
48
1
60
0
100
AcDbLine
10
314.975
20
31
30
0
11
314.975
21
-31
31
0
39
0
210
0
220
0
230
1
0
LINE
5
18A
100
AcDbEntity
8
2
62
256
6
ByLayer
370
13
48
1
60
0
100
AcDbLine
10
289.5875
20
-31
30
0
11
318.15
21
-31
31
0
39
0
210
0
220
0
230
1
0
LINE
5
18B
100
AcDbEntity
8
2
62
256
6
ByLayer
370
13
48
1
60
0
100
AcDbLine
10
289.5875
20
31
30
0
11
318.15
21
31
31
0
39
0
210
0
220
0
230
1
0
LINE
5
18C
100
AcDbEntity
8
1
62
256
6
ByLayer
370
18
48
1
60
1
100
AcDbLine
10
314.975
20
-31
30
0
11
314.049425
21
-26.825003
31
0
39
0
210
0
220
0
230
1
0
LINE
5
18D
100
AcDbEntity
8
1
62
256
6
ByLayer
370
18
48
1
60
1
100
AcDbLine
10
314.049425
20
-26.825003
30
0
11
315.900575
21
-26.824997
31
0
39
0
210
0
220
0
230
1
0
LINE
5
18E
100
AcDbEntity
8
1
62
256
6
ByLayer
370
18
48
1
60
1
100
AcDbLine
10
315.900575
20
-26.824997
30
0
11
314.975
21
-31
31
0
39
0
210
0
220
0
230
1
0
LINE
5
18F
100
AcDbEntity
8
1
62
256
6
ByLayer
370
18
48
1
60
1
100
AcDbLine
10
314.975
20
31
30
0
11
315.900575
21
26.825003
31
0
39
0
210
0
220
0
230
1
0
LINE
5
190
100
AcDbEntity
8
1
62
256
6
ByLayer
370
18
48
1
60
1
100
AcDbLine
10
315.900575
20
26.825003
30
0
11
314.049425
21
26.824997
31
0
39
0
210
0
220
0
230
1
0
LINE
5
191
100
AcDbEntity
8
1
62
256
6
ByLayer
370
18
48
1
60
1
100
AcDbLine
10
314.049425
20
26.824997
30
0
11
314.975
21
31
31
0
39
0
210
0
220
0
230
1
0
LINE
5
346
100
AcDbEntity
8
1
62
256
6
ByLayer
370
18
48
1
60
1
100
AcDbLine
10
-100.725
20
-25
30
0
11
-101.650575
21
-20.825003
31
0
39
0
210
0
220
0
230
1
0
LINE
5
347
100
AcDbEntity
8
1
62
256
6
ByLayer
370
18
48
1
60
1
100
AcDbLine
10
-101.650575
20
-20.825003
30
0
11
-99.799425
21
-20.824997
31
0
39
0
210
0
220
0
230
1
0
LINE
5
348
100
AcDbEntity
8
1
62
256
6
ByLayer
370
18
48
1
60
1
100
AcDbLine
10
-99.799425
20
-20.824997
30
0
11
-100.725
21
-25
31
0
39
0
210
0
220
0
230
1
0
LINE
5
34A
100
AcDbEntity
8
1
62
256
6
ByLayer
370
18
48
1
60
1
100
AcDbLine
10
-100.725
20
25
30
0
11
-99.799425
21
20.825003
31
0
39
0
210
0
220
0
230
1
0
LINE
5
34B
100
AcDbEntity
8
1
62
256
6
ByLayer
370
18
48
1
60
1
100
AcDbLine
10
-99.799425
20
20.825003
30
0
11
-101.650575
21
20.824997
31
0
39
0
210
0
220
0
230
1
0
LINE
5
34C
100
AcDbEntity
8
1
62
256
6
ByLayer
370
18
48
1
60
1
100
AcDbLine
10
-101.650575
20
20.824997
30
0
11
-100.725
21
25
31
0
39
0
210
0
220
0
230
1
0
LINE
5
350
100
AcDbEntity
8
1
62
256
6
ByLayer
370
18
48
1
60
1
100
AcDbLine
10
-110.725
20
31.25
30
0
11
-109.799425
21
27.075003
31
0
39
0
210
0
220
0
230
1
0
LINE
5
351
100
AcDbEntity
8
1
62
256
6
ByLayer
370
18
48
1
60
1
100
AcDbLine
10
-109.799425
20
27.075003
30
0
11
-111.650575
21
27.074997
31
0
39
0
210
0
220
0
230
1
0
LINE
5
352
100
AcDbEntity
8
1
62
256
6
ByLayer
370
18
48
1
60
1
100
AcDbLine
10
-111.650575
20
27.074997
30
0
11
-110.725
21
31.25
31
0
39
0
210
0
220
0
230
1
0
LINE
5
354
100
AcDbEntity
8
1
62
256
6
ByLayer
370
18
48
1
60
1
100
AcDbLine
10
-110.725
20
-31.25
30
0
11
-111.650575
21
-27.075003
31
0
39
0
210
0
220
0
230
1
0
LINE
5
355
100
AcDbEntity
8
1
62
256
6
ByLayer
370
18
48
1
60
1
100
AcDbLine
10
-111.650575
20
-27.075003
30
0
11
-109.799425
21
-27.074997
31
0
39
0
210
0
220
0
230
1
0
LINE
5
356
100
AcDbEntity
8
1
62
256
6
ByLayer
370
18
48
1
60
1
100
AcDbLine
10
-109.799425
20
-27.074997
30
0
11
-110.725
21
-31.25
31
0
39
0
210
0
220
0
230
1
0
LINE
5
35A
100
AcDbEntity
8
1
62
256
6
ByLayer
370
18
48
1
60
1
100
AcDbLine
10
314.975
20
-31
30
0
11
314.049425
21
-26.825003
31
0
39
0
210
0
220
0
230
1
0
LINE
5
35B
100
AcDbEntity
8
1
62
256
6
ByLayer
370
18
48
1
60
1
100
AcDbLine
10
314.049425
20
-26.825003
30
0
11
315.900575
21
-26.824997
31
0
39
0
210
0
220
0
230
1
0
LINE
5
35C
100
AcDbEntity
8
1
62
256
6
ByLayer
370
18
48
1
60
1
100
AcDbLine
10
315.900575
20
-26.824997
30
0
11
314.975
21
-31
31
0
39
0
210
0
220
0
230
1
0
LINE
5
35E
100
AcDbEntity
8
1
62
256
6
ByLayer
370
18
48
1
60
1
100
AcDbLine
10
314.975
20
31
30
0
11
315.900575
21
26.825003
31
0
39
0
210
0
220
0
230
1
0
LINE
5
35F
100
AcDbEntity
8
1
62
256
6
ByLayer
370
18
48
1
60
1
100
AcDbLine
10
315.900575
20
26.825003
30
0
11
314.049425
21
26.824997
31
0
39
0
210
0
220
0
230
1
0
LINE
5
360
100
AcDbEntity
8
1
62
256
6
ByLayer
370
18
48
1
60
1
100
AcDbLine
10
314.049425
20
26.824997
30
0
11
314.975
21
31
31
0
39
0
210
0
220
0
230
1
0
MTEXT
5
342
100
AcDbEntity
8
SK2
62
256
6
ByLayer
370
18
48
1
60
0
100
AcDbMText
10
-102.736672
20
-6.949399
30
0
210
0
220
0
230
1
1
%%c
40
4.5
41
0
44
1.084337
50
90
71
7
72
5
7
iso_b_vert
0
MTEXT
5
345
100
AcDbEntity
8
SK2
62
256
6
ByLayer
370
18
48
1
60
0
100
AcDbMText
10
-102.736672
20
4.265444
30
0
210
0
220
0
230
1
1
\W0.6740;50
40
4.5
41
0
44
1.084337
50
90
71
7
72
5
7
iso_b_vert
0
MTEXT
5
34E
100
AcDbEntity
8
SK2
62
256
6
ByLayer
370
18
48
1
60
0
100
AcDbMText
10
-112.736672
20
-9.541655
30
0
210
0
220
0
230
1
1
%%c
40
4.5
41
0
44
1.084337
50
90
71
7
72
5
7
iso_b_vert
0
MTEXT
5
34F
100
AcDbEntity
8
SK2
62
256
6
ByLayer
370
18
48
1
60
0
100
AcDbMText
10
-112.736672
20
1.673189
30
0
210
0
220
0
230
1
1
\W0.7346;62.5
40
4.5
41
0
44
1.084337
50
90
71
7
72
5
7
iso_b_vert
0
MTEXT
5
358
100
AcDbEntity
8
2
62
256
6
ByLayer
370
18
48
1
60
0
100
AcDbMText
10
312.963328
20
-6.949399
30
0
210
0
220
0
230
1
1
%%c
40
4.5
41
0
44
1.084337
50
90
71
7
72
5
7
iso_b_vert
0
MTEXT
5
359
100
AcDbEntity
8
2
62
256
6
ByLayer
370
18
48
1
60
0
100
AcDbMText
10
312.963328
20
4.265444
30
0
210
0
220
0
230
1
1
\W0.6740;62
40
4.5
41
0
44
1.084337
50
90
71
7
72
5
7
iso_b_vert
0
MTEXT
5
362
100
AcDbEntity
8
SK6
62
256
6
ByLayer
370
18
48
1
60
0
100
AcDbMText
10
9.308916
20
-94.592562
30
0
210
0
220
0
230
1
1
\W0.7699;DS20-D6200L50-04
40
3.5
41
0
44
1.084337
50
0
71
7
72
5
7
iso_b_vert
0
HATCH
5
349
100
AcDbEntity
8
SK2
62
256
6
ByLayer
370
13
48
1
60
0
100
AcDbHatch
10
0
20
0
30
0
210
0
220
0
230
1
2
ANSI31
70
0
71
0
91
1
92
5
93
3
72
1
10
-100.725
20
-24.9999999999999
11
-101.650575216528
21
-20.8250033998275
72
1
10
-101.650575216528
20
-20.8250033998275
11
-99.7994247834721
21
-20.8249966001723
72
1
10
-99.7994247834721
20
-20.8249966001723
11
-100.725
21
-24.9999999999999
97
0
75
0
76
1
52
0
41
0.0062
77
0
78
1
53
45
43
0
44
0
45
-0.0139193969876572
46
0.0139193969876572
79
0
47
0
98
1
10
0
20
0
0
HATCH
5
34D
100
AcDbEntity
8
SK2
62
256
6
ByLayer
370
13
48
1
60
0
100
AcDbHatch
10
0
20
0
30
0
210
0
220
0
230
1
2
ANSI31
70
0
71
0
91
1
92
5
93
3
72
1
10
-100.725
20
25.0000000000001
11
-99.7994247834721
21
20.8250033998277
72
1
10
-99.7994247834721
20
20.8250033998277
11
-101.650575216528
21
20.8249966001725
72
1
10
-101.650575216528
20
20.8249966001725
11
-100.725
21
25.0000000000001
97
0
75
0
76
1
52
0
41
0.0062
77
0
78
1
53
45
43
0
44
0
45
-0.0139193969876572
46
0.0139193969876572
79
0
47
0
98
1
10
0
20
0
0
HATCH
5
353
100
AcDbEntity
8
SK2
62
256
6
ByLayer
370
13
48
1
60
0
100
AcDbHatch
10
0
20
0
30
0
210
0
220
0
230
1
2
ANSI31
70
0
71
0
91
1
92
5
93
3
72
1
10
-110.725
20
31.25
11
-109.799424783472
21
27.0750033998276
72
1
10
-109.799424783472
20
27.0750033998276
11
-111.650575216528
21
27.0749966001724
72
1
10
-111.650575216528
20
27.0749966001724
11
-110.725
21
31.25
97
0
75
0
76
1
52
0
41
0.0062
77
0
78
1
53
45
43
0
44
0
45
-0.0139193969876572
46
0.0139193969876572
79
0
47
0
98
1
10
0
20
0
0
HATCH
5
357
100
AcDbEntity
8
SK2
62
256
6
ByLayer
370
13
48
1
60
0
100
AcDbHatch
10
0
20
0
30
0
210
0
220
0
230
1
2
ANSI31
70
0
71
0
91
1
92
5
93
3
72
1
10
-110.725
20
-31.25
11
-111.650575216528
21
-27.0750033998276
72
1
10
-111.650575216528
20
-27.0750033998276
11
-109.799424783472
21
-27.0749966001724
72
1
10
-109.799424783472
20
-27.0749966001724
11
-110.725
21
-31.25
97
0
75
0
76
1
52
0
41
0.0062
77
0
78
1
53
45
43
0
44
0
45
-0.0139193969876572
46
0.0139193969876572
79
0
47
0
98
1
10
0
20
0
0
HATCH
5
35D
100
AcDbEntity
8
2
62
256
6
ByLayer
370
13
48
1
60
0
100
AcDbHatch
10
0
20
0
30
0
210
0
220
0
230
1
2
ANSI31
70
0
71
0
91
1
92
5
93
3
72
1
10
314.975
20
-31.0000000000003
11
314.049424783472
21
-26.8250033998279
72
1
10
314.049424783472
20
-26.8250033998279
11
315.900575216528
21
-26.8249966001727
72
1
10
315.900575216528
20
-26.8249966001727
11
314.975
21
-31.0000000000003
97
0
75
0
76
1
52
0
41
0.0062
77
0
78
1
53
45
43
0
44
0
45
-0.0139193969876572
46
0.0139193969876572
79
0
47
0
98
1
10
0
20
0
0
HATCH
5
361
100
AcDbEntity
8
2
62
256
6
ByLayer
370
13
48
1
60
0
100
AcDbHatch
10
0
20
0
30
0
210
0
220
0
230
1
2
ANSI31
70
0
71
0
91
1
92
5
93
3
72
1
10
314.975
20
30.9999999999997
11
315.900575216528
21
26.8250033998273
72
1
10
315.900575216528
20
26.8250033998273
11
314.049424783472
21
26.824996600172
72
1
10
314.049424783472
20
26.824996600172
11
314.975
21
30.9999999999997
97
0
75
0
76
1
52
0
41
0.0062
77
0
78
1
53
45
43
0
44
0
45
-0.0139193969876572
46
0.0139193969876572
79
0
47
0
98
1
10
0
20
0
0
DIMENSION
5
365
100
AcDbEntity
8
2
62
256
6
ByLayer
370
18
48
1
60
0
100
AcDbDimension
2
_U0
10
288
20
-80.299914
30
0
11
144
21
-80.299914
31
0
70
32
71
1
72
1
41
1
210
0
220
0
230
1
3
Standard
100
AcDbAlignedDimension
13
0
23
-31.25
33
0
14
288
24
-31
34
0
50
0
100
AcDbRotatedDimension
1001
ACAD
1000
DSTYLE
1002
{
1070
   371
1070
    13
1070
   372
1070
    13
1070
   170
1070
     0
1070
   144
1040
1.0
1070
   277
1070
     2
1070
   284
1070
     8
1070
   278
1070
    46
1070
   146
1040
0.777778
1070
   345
1005
16
1070
   347
1005
16
1070
   346
1005
16
1070
   344
1005
0
1070
   343
1005
0
1070
   172
1070
     1
1070
    76
1070
     0
1070
    75
1070
     0
1070
   282
1070
     0
1070
   281
1070
     0
1070
    71
1070
     0
1070
    74
1070
     0
1070
   279
1070
     0
1070
   173
1070
     1
1070
   340
1005
343
1070
   271
1070
     1
1070
   272
1070
     2
1070
    77
1070
     1
1070
    73
1070
     1
1070
   171
1070
     3
1070
   274
1070
     4
1070
   177
1070
   150
1070
   176
1070
     9
1070
   178
1070
    43
1070
    78
1070
     8
1070
    48
1040
-0.1
1070
    41
1040
4.175
1070
   147
1040
2.25
1070
    42
1040
1.5875
1070
    44
1040
3.175
1070
   140
1040
4.5
1002
}
1001
ACAD_DSTYLE_DIM_LINETYPE
1070
   380
1005
16
1001
ACAD_DSTYLE_DIM_EXT1_LINETYPE
1070
   381
1005
16
1001
ACAD_DSTYLE_DIM_EXT2_LINETYPE
1070
   382
1005
16
0
DIMENSION
5
37E
100
AcDbEntity
8
SK2
62
256
6
ByLayer
370
18
48
1
60
0
100
AcDbDimension
2
_U1
10
0
20
-80.299914
30
0
11
-40
21
-80.299914
31
0
70
32
71
1
72
1
41
1
210
0
220
0
230
1
3
Standard
100
AcDbAlignedDimension
13
-80
23
-25
33
0
14
0
24
-31.25
34
0
50
0
100
AcDbRotatedDimension
1001
ACAD
1000
DSTYLE
1002
{
1070
   371
1070
    13
1070
   372
1070
    13
1070
   170
1070
     0
1070
   144
1040
1.0
1070
   277
1070
     2
1070
   284
1070
     8
1070
   278
1070
    46
1070
   146
1040
0.777778
1070
   345
1005
16
1070
   347
1005
16
1070
   346
1005
16
1070
   344
1005
0
1070
   343
1005
0
1070
   172
1070
     1
1070
    76
1070
     0
1070
    75
1070
     0
1070
   282
1070
     0
1070
   281
1070
     0
1070
    71
1070
     0
1070
    74
1070
     0
1070
   279
1070
     0
1070
   173
1070
     1
1070
   340
1005
343
1070
   271
1070
     1
1070
   272
1070
     2
1070
    77
1070
     1
1070
    73
1070
     1
1070
   171
1070
     3
1070
   274
1070
     4
1070
   177
1070
   150
1070
   176
1070
     9
1070
   178
1070
    43
1070
    78
1070
     8
1070
    48
1040
-0.1
1070
    41
1040
4.175
1070
   147
1040
2.25
1070
    42
1040
1.5875
1070
    44
1040
3.175
1070
   140
1040
4.5
1002
}
1001
ACAD_DSTYLE_DIM_LINETYPE
1070
   380
1005
16
1001
ACAD_DSTYLE_DIM_EXT1_LINETYPE
1070
   381
1005
16
1001
ACAD_DSTYLE_DIM_EXT2_LINETYPE
1070
   382
1005
16
0
DIMENSION
5
396
100
AcDbEntity
8
SK2
62
256
6
ByLayer
370
18
48
1
60
0
100
AcDbDimension
2
_U2
10
5.7344
20
-70.299914
30
0
11
146.8672
21
-70.299914
31
0
70
32
71
1
72
1
41
1
210
0
220
0
230
1
3
Standard
100
AcDbAlignedDimension
13
288
23
-31
33
0
14
5.7344
24
-31.25
34
0
50
0
100
AcDbRotatedDimension
1001
ACAD
1000
DSTYLE
1002
{
1070
   371
1070
    13
1070
   372
1070
    13
1070
   170
1070
     0
1070
   144
1040
1.0
1070
   277
1070
     2
1070
   284
1070
     8
1070
   278
1070
    46
1070
   146
1040
0.777778
1070
   345
1005
16
1070
   347
1005
16
1070
   346
1005
16
1070
   344
1005
0
1070
   343
1005
0
1070
   172
1070
     1
1070
    76
1070
     0
1070
    75
1070
     0
1070
   282
1070
     0
1070
   281
1070
     0
1070
    71
1070
     0
1070
    74
1070
     0
1070
   279
1070
     0
1070
   173
1070
     1
1070
   340
1005
343
1070
   271
1070
     1
1070
   272
1070
     2
1070
    77
1070
     1
1070
    73
1070
     1
1070
   171
1070
     3
1070
   274
1070
     4
1070
   177
1070
   150
1070
   176
1070
     9
1070
   178
1070
    43
1070
    78
1070
     8
1070
    48
1040
-0.1
1070
    41
1040
4.175
1070
   147
1040
2.25
1070
    42
1040
1.5875
1070
    44
1040
3.175
1070
   140
1040
4.5
1002
}
1001
ACAD_DSTYLE_DIM_LINETYPE
1070
   380
1005
16
1001
ACAD_DSTYLE_DIM_EXT1_LINETYPE
1070
   381
1005
16
1001
ACAD_DSTYLE_DIM_EXT2_LINETYPE
1070
   382
1005
16
0
DIMENSION
5
3AE
100
AcDbEntity
8
SK2
62
256
6
ByLayer
370
18
48
1
60
0
100
AcDbDimension
2
_U3
10
288
20
-60.299914
30
0
11
161.5
21
-60.299914
31
0
70
32
71
1
72
1
41
1
210
0
220
0
230
1
3
Standard
100
AcDbAlignedDimension
13
35
23
-31
33
0
14
288
24
-31
34
0
50
0
100
AcDbRotatedDimension
1001
ACAD
1000
DSTYLE
1002
{
1070
   371
1070
    13
1070
   372
1070
    13
1070
   170
1070
     0
1070
   144
1040
1.0
1070
   277
1070
     2
1070
   284
1070
     8
1070
   278
1070
    46
1070
   146
1040
0.777778
1070
   345
1005
16
1070
   347
1005
16
1070
   346
1005
16
1070
   344
1005
0
1070
   343
1005
0
1070
   172
1070
     1
1070
    76
1070
     0
1070
    75
1070
     0
1070
   282
1070
     0
1070
   281
1070
     0
1070
    71
1070
     0
1070
    74
1070
     0
1070
   279
1070
     0
1070
   173
1070
     1
1070
   340
1005
343
1070
   271
1070
     1
1070
   272
1070
     2
1070
    77
1070
     1
1070
    73
1070
     1
1070
   171
1070
     3
1070
   274
1070
     4
1070
   177
1070
   150
1070
   176
1070
     9
1070
   178
1070
    43
1070
    78
1070
     8
1070
    48
1040
-0.1
1070
    41
1040
4.175
1070
   147
1040
2.25
1070
    42
1040
1.5875
1070
    44
1040
3.175
1070
   140
1040
4.5
1002
}
1001
ACAD_DSTYLE_DIM_LINETYPE
1070
   380
1005
16
1001
ACAD_DSTYLE_DIM_EXT1_LINETYPE
1070
   381
1005
16
1001
ACAD_DSTYLE_DIM_EXT2_LINETYPE
1070
   382
1005
16
0
DIMENSION
5
3C6
100
AcDbEntity
8
2
62
256
6
ByLayer
370
18
48
1
60
0
100
AcDbDimension
2
_U4
10
288
20
-50.299914
30
0
11
309.922321
21
-50.299914
31
0
70
32
71
1
72
1
41
1
210
0
220
0
230
1
3
Standard
100
AcDbAlignedDimension
13
286.4109
23
-15.5
33
0
14
288
24
0
34
0
50
0
100
AcDbRotatedDimension
1001
ACAD
1000
DSTYLE
1002
{
1070
   371
1070
    13
1070
   372
1070
    13
1070
   170
1070
     0
1070
   144
1040
1.0
1070
   277
1070
     2
1070
   284
1070
     8
1070
   278
1070
    46
1070
   146
1040
0.777778
1070
   345
1005
16
1070
   347
1005
16
1070
   346
1005
16
1070
   344
1005
0
1070
   343
1005
0
1070
   172
1070
     1
1070
    76
1070
     0
1070
    75
1070
     0
1070
   282
1070
     0
1070
   281
1070
     0
1070
    71
1070
     0
1070
    74
1070
     0
1070
   279
1070
     0
1070
   173
1070
     1
1070
   340
1005
343
1070
   271
1070
     2
1070
   272
1070
     2
1070
    77
1070
     1
1070
    73
1070
     1
1070
   171
1070
     3
1070
   274
1070
     4
1070
   177
1070
   150
1070
   176
1070
     9
1070
   178
1070
    43
1070
    78
1070
     8
1070
    48
1040
-0.1
1070
    41
1040
4.175
1070
   147
1040
2.25
1070
    42
1040
1.5875
1070
    44
1040
3.175
1070
   140
1040
4.5
1002
}
1001
ACAD_DSTYLE_DIM_LINETYPE
1070
   380
1005
16
1001
ACAD_DSTYLE_DIM_EXT1_LINETYPE
1070
   381
1005
16
1001
ACAD_DSTYLE_DIM_EXT2_LINETYPE
1070
   382
1005
16
0
ENDSEC
0
SECTION
2
OBJECTS
0
DICTIONARY
5
450
330
0
100
AcDbDictionary
280
0
281
1
3
ACAD_GROUP
350
451
3
ACAD_MLINESTYLE
350
452
0
DICTIONARY
5
451
330
0
100
AcDbDictionary
280
0
281
1
0
DICTIONARY
5
452
330
0
100
AcDbDictionary
280
0
281
1
3
Standard
350
18
0
MLINESTYLE
5
18
330
452
100
AcDbMlineStyle
2
Standard
70
0
3

62
256
51
90
52
90
71
2
49
-0.5
62
256
6
ByLayer
49
0.5
62
256
6
ByLayer
0
RASTERVARIABLES
5
43e
330

100
AcDbRasterVariables
90
0
70
1
71
1
72
1
0
ENDSEC
0
EOF
