0
SECTION
2
HEADER
9
$ACADVER
1
AC1015
9
$DWGCODEPAGE
3
ANSI_1252
9
$HANDSEED
5
45f
9
$ANGBASE
50
0
9
$ANGDIR
70
0
9
$ATTMODE
70
1
9
$AUNITS
70
0
9
$AUPREC
70
0
9
$CECOLOR
62
256
9
$CELTSCALE
40
1
9
$CELTYPE
6
ByLayer
9
$CELWEIGHT
370
18
9
$CLAYER
8
0
9
$CMLJUST
70
0
9
$CMLSCALE
40
1
9
$CMLSTYLE
2
Standard
9
$DIMSTYLE
2
Standard
9
$TEXTSIZE
40
0.2
9
$TEXTSTYLE
7
Standard
9
$LUNITS
70
2
9
$LUPREC
70
4
9
$EXTNAMES
290
1
9
$INSUNITS
70
4
9
$LTSCALE
40
1
9
$LWDISPLAY
290
1
9
$PDMODE
70
0
9
$PDSIZE
40
0
9
$PLINEGEN
70
0
0
ENDSEC
0
SECTION
2
CLASSES
0
CLASS
1
RASTERVARIABLES
2
AcDbRasterVariables
3
ISM
90
0
280
0
281
0
0
ENDSEC
0
SECTION
2
TABLES
0
TABLE
2
VPORT
5
455
100
AcDbSymbolTable
0
VPORT
5
1
100
AcDbSymbolTableRecord
100
AcDbViewportTableRecord
2
*Active
70
0
10
0
20
0
11
1
21
1
12
-1
22
1
13
0
23
0
14
0.5
24
0.5
15
10
25
10
16
0
26
0
36
1
17
0
27
0
37
0
0
ENDTAB
0
TABLE
2
LTYPE
5
456
100
AcDbSymbolTable
0
LTYPE
5
14
100
AcDbSymbolTableRecord
100
AcDbLinetypeTableRecord
70
0
2
ByBlock
3

72
65
73
0
40
0
0
LTYPE
5
15
100
AcDbSymbolTableRecord
100
AcDbLinetypeTableRecord
70
0
2
ByLayer
3

72
65
73
0
40
0
0
LTYPE
5
16
100
AcDbSymbolTableRecord
100
AcDbLinetypeTableRecord
70
0
2
Continuous
3
Solid line
72
65
73
0
40
0
0
LTYPE
5
6E
100
AcDbSymbolTableRecord
100
AcDbLinetypeTableRecord
70
0
2
CENTER
3
____ _ ____ _ ____ _ ____
72
65
73
4
40
47.5
49
22
74
0
49
-8.5
74
0
49
8.5
74
0
49
-8.5
74
0
0
LTYPE
5
6F
100
AcDbSymbolTableRecord
100
AcDbLinetypeTableRecord
70
0
2
DASHED
3
__ __ __ __ __ __ __ __ __
72
65
73
2
40
25.72
49
12.86
74
0
49
-12.86
74
0
0
ENDTAB
0
TABLE
2
LAYER
5
457
100
AcDbSymbolTable
0
LAYER
5
10
100
AcDbSymbolTableRecord
100
AcDbLayerTableRecord
2
0
70
0
62
7
6
Continuous
290
1
370
-3
390
0
0
LAYER
5
71
100
AcDbSymbolTableRecord
100
AcDbLayerTableRecord
2
1
70
0
62
4
6
Continuous
290
1
370
-3
390
0
0
LAYER
5
73
100
AcDbSymbolTableRecord
100
AcDbLayerTableRecord
2
80
70
0
62
-6
6
Continuous
290
1
370
-3
390
0
0
LAYER
5
75
100
AcDbSymbolTableRecord
100
AcDbLayerTableRecord
2
81
70
0
62
-3
6
Continuous
290
1
370
-3
390
0
0
LAYER
5
14F
100
AcDbSymbolTableRecord
100
AcDbLayerTableRecord
2
4
70
0
62
-2
6
CENTER
290
1
370
-3
390
0
0
LAYER
5
18C
100
AcDbSymbolTableRecord
100
AcDbLayerTableRecord
2
2
70
0
62
7
6
Continuous
290
1
370
-3
390
0
0
LAYER
5
36A
100
AcDbSymbolTableRecord
100
AcDbLayerTableRecord
2
Defpoints
70
0
62
7
6
Continuous
290
0
370
-3
390
0
0
LAYER
5
441
100
AcDbSymbolTableRecord
100
AcDbLayerTableRecord
2
SK1
70
0
62
4
6
Continuous
290
1
370
-3
390
0
0
LAYER
5
442
100
AcDbSymbolTableRecord
100
AcDbLayerTableRecord
2
SK4
70
0
62
2
6
CENTER
290
1
370
-3
390
0
0
LAYER
5
443
100
AcDbSymbolTableRecord
100
AcDbLayerTableRecord
2
SK2
70
0
62
7
6
Continuous
290
1
370
-3
390
0
0
LAYER
5
444
100
AcDbSymbolTableRecord
100
AcDbLayerTableRecord
2
SK6
70
0
62
5
6
Continuous
290
1
370
-3
390
0
0
ENDTAB
0
TABLE
2
STYLE
5
458
100
AcDbSymbolTable
0
STYLE
5
11
100
AcDbSymbolTableRecord
100
AcDbTextStyleTableRecord
2
Standard
3
txt
70
0
71
0
40
0
41
1
42
0
50
0
0
STYLE
5
345
100
AcDbSymbolTableRecord
100
AcDbTextStyleTableRecord
2
iso_b_vert
3
simplex.shx
70
0
71
0
40
0
41
1
42
0
50
0
0
STYLE
5
346
100
AcDbSymbolTableRecord
100
AcDbTextStyleTableRecord
2
DWGDirectTextStyle
3
simplex
70
0
71
0
40
0
41
1
42
0
50
0
0
ENDTAB
0
TABLE
2
DIMSTYLE
5
459
100
AcDbSymbolTable
100
AcDbDimStyleTable
0
DIMSTYLE
105
27
100
AcDbSymbolTableRecord
100
AcDbDimStyleTableRecord
2
Standard
70
0
3
<>
41
0.18
42
0.0625
44
0.18
140
0.18
147
0.09
73
0
74
0
77
1
271
2
275
0
278
52
280
0
340
11
0
ENDTAB
0
TABLE
2
VIEW
5
45a
100
AcDbSymbolTable
0
ENDTAB
0
TABLE
2
UCS
5
45b
100
AcDbSymbolTable
0
ENDTAB
0
TABLE
2
APPID
5
45c
100
AcDbSymbolTable
0
APPID
5
12
100
AcDbSymbolTableRecord
100
AcDbRegAppTableRecord
2
ACAD
70
0
0
APPID
5
366
100
AcDbSymbolTableRecord
100
AcDbRegAppTableRecord
2
ACAD_DSTYLE_DIMBREAK
70
0
0
APPID
5
400
100
AcDbSymbolTableRecord
100
AcDbRegAppTableRecord
2
ACAD_DSTYLE_DIM_LINETYPE
70
0
0
APPID
5
401
100
AcDbSymbolTableRecord
100
AcDbRegAppTableRecord
2
ACAD_DSTYLE_DIM_EXT1_LINETYPE
70
0
0
APPID
5
402
100
AcDbSymbolTableRecord
100
AcDbRegAppTableRecord
2
ACAD_DSTYLE_DIM_EXT2_LINETYPE
70
0
0
APPID
5
43D
100
AcDbSymbolTableRecord
100
AcDbRegAppTableRecord
2
ACAD_MLEADERVER
70
0
0
ENDTAB
0
TABLE
2
BLOCK_RECORD
5
45d
100
AcDbSymbolTable
0
BLOCK_RECORD
5
1F
100
AcDbSymbolTableRecord
100
AcDbBlockTableRecord
2
*Model_Space
340
0
70
0
0
BLOCK_RECORD
5
1B
100
AcDbSymbolTableRecord
100
AcDbBlockTableRecord
2
*Paper_Space
340
0
70
0
0
BLOCK_RECORD
5
23
100
AcDbSymbolTableRecord
100
AcDbBlockTableRecord
2
*Paper_Space0
340
0
70
0
0
BLOCK_RECORD
5
36B
100
AcDbSymbolTableRecord
100
AcDbBlockTableRecord
2
*D1
340
0
70
0
0
BLOCK_RECORD
5
377
100
AcDbSymbolTableRecord
100
AcDbBlockTableRecord
2
_U0
340
0
70
0
0
BLOCK_RECORD
5
383
100
AcDbSymbolTableRecord
100
AcDbBlockTableRecord
2
*D3
340
0
70
0
0
BLOCK_RECORD
5
38F
100
AcDbSymbolTableRecord
100
AcDbBlockTableRecord
2
_U1
340
0
70
0
0
BLOCK_RECORD
5
39B
100
AcDbSymbolTableRecord
100
AcDbBlockTableRecord
2
*D5
340
0
70
0
0
BLOCK_RECORD
5
3A7
100
AcDbSymbolTableRecord
100
AcDbBlockTableRecord
2
_U2
340
0
70
0
0
BLOCK_RECORD
5
3B3
100
AcDbSymbolTableRecord
100
AcDbBlockTableRecord
2
*D7
340
0
70
0
0
BLOCK_RECORD
5
3BF
100
AcDbSymbolTableRecord
100
AcDbBlockTableRecord
2
_U3
340
0
70
0
0
BLOCK_RECORD
5
3CB
100
AcDbSymbolTableRecord
100
AcDbBlockTableRecord
2
*D9
340
0
70
0
0
BLOCK_RECORD
5
3D9
100
AcDbSymbolTableRecord
100
AcDbBlockTableRecord
2
_U4
340
0
70
0
0
ENDTAB
0
ENDSEC
0
SECTION
2
BLOCKS
0
BLOCK
5
20
100
AcDbEntity
8
0
100
AcDbBlockBegin
2
*Model_Space
70
0
10
0
20
0
30
0
3
*Model_Space
0
ENDBLK
5
21
100
AcDbEntity
8
0
100
AcDbBlockEnd
0
BLOCK
5
1C
100
AcDbEntity
8
0
100
AcDbBlockBegin
2
*Paper_Space
70
0
10
0
20
0
30
0
3
*Paper_Space
0
ENDBLK
5
1D
100
AcDbEntity
8
0
100
AcDbBlockEnd
0
BLOCK
5
24
100
AcDbEntity
8
0
100
AcDbBlockBegin
2
*Paper_Space0
70
0
10
0
20
0
30
0
3
*Paper_Space0
0
ENDBLK
5
25
100
AcDbEntity
8
0
100
AcDbBlockEnd
0
BLOCK
5
36C
100
AcDbEntity
8
0
100
AcDbBlockBegin
2
*D1
70
1
10
0
20
0
30
0
3
*D1
0
LINE
5
36E
100
AcDbEntity
8
0
62
256
6
ByLayer
370
-2
48
1
60
0
100
AcDbLine
10
0
20
-33.3375
30
0
11
0
21
-84.291278
31
0
39
0
210
0
220
0
230
1
0
LINE
5
36F
100
AcDbEntity
8
0
62
256
6
ByLayer
370
-2
48
1
60
0
100
AcDbLine
10
301
20
-34.0875
30
0
11
301
21
-84.291278
31
0
39
0
210
0
220
0
230
1
0
LINE
5
370
100
AcDbEntity
8
0
62
256
6
ByLayer
370
-2
48
1
60
0
100
AcDbLine
10
4.175
20
-81.116278
30
0
11
296.825
21
-81.116278
31
0
39
0
210
0
220
0
230
1
0
SOLID
5
371
100
AcDbEntity
8
0
62
256
6
ByLayer
370
-1
48
1
60
0
100
AcDbTrace
10
4.175
20
-80.420445
30
0
11
4.175
21
-81.812111
31
0
12
0
22
-81.116278
32
0
13
0
23
-81.116278
33
0
39
0
210
0
220
0
230
1
0
SOLID
5
372
100
AcDbEntity
8
0
62
256
6
ByLayer
370
-1
48
1
60
0
100
AcDbTrace
10
296.825
20
-81.812111
30
0
11
296.825
21
-80.420445
31
0
12
301
22
-81.116278
32
0
13
301
23
-81.116278
33
0
39
0
210
0
220
0
230
1
0
MTEXT
5
373
100
AcDbEntity
8
0
62
256
6
ByLayer
370
18
48
1
60
0
100
AcDbMText
10
150.5
20
-71.722528
30
0
210
0
220
0
230
1
1
\A1;301
40
4.5
41
0
44
1
50
0
71
5
72
5
7
iso_b_vert
0
POINT
5
374
100
AcDbEntity
8
Defpoints
62
0
6
ByLayer
370
-1
48
1
60
0
100
AcDbPoint
10
0
20
-31.75
30
0
39
0
210
0
220
0
230
1
50
360
0
POINT
5
375
100
AcDbEntity
8
Defpoints
62
0
6
ByLayer
370
-1
48
1
60
0
100
AcDbPoint
10
301
20
-32.5
30
0
39
0
210
0
220
0
230
1
50
360
0
POINT
5
376
100
AcDbEntity
8
Defpoints
62
0
6
ByLayer
370
-1
48
1
60
0
100
AcDbPoint
10
301
20
-81.116278
30
0
39
0
210
0
220
0
230
1
50
360
0
ENDBLK
5
36D
100
AcDbEntity
8
0
100
AcDbBlockEnd
0
BLOCK
5
37E
100
AcDbEntity
8
0
100
AcDbBlockBegin
2
_U0
70
0
10
0
20
0
30
0
3
_U0
0
MTEXT
5
378
100
AcDbEntity
8
2
62
256
6
ByLayer
370
18
48
1
60
0
100
AcDbMText
10
146.931801
20
-79.788606
30
0
210
0
220
0
230
1
1
\W0.6949;301
40
4.5
41
0
44
1.084337
50
0
71
7
72
5
7
iso_b_vert
0
LINE
5
379
100
AcDbEntity
8
2
62
256
6
ByLayer
370
13
48
1
60
0
100
AcDbLine
10
0
20
-33.3375
30
0
11
0
21
-84.291278
31
0
39
0
210
0
220
0
230
1
0
LINE
5
37A
100
AcDbEntity
8
2
62
256
6
ByLayer
370
13
48
1
60
0
100
AcDbLine
10
301
20
-34.0875
30
0
11
301
21
-84.291278
31
0
39
0
210
0
220
0
230
1
0
LINE
5
37B
100
AcDbEntity
8
2
62
256
6
ByLayer
370
13
48
1
60
0
100
AcDbLine
10
0
20
-81.116278
30
0
11
301
21
-81.116278
31
0
39
0
210
0
220
0
230
1
0
SOLID
5
37C
100
AcDbEntity
8
2
62
256
6
ByLayer
370
18
48
1
60
0
100
AcDbTrace
10
0
20
-81.116278
30
0
11
4.174997
21
-80.190703
31
0
12
4.175003
22
-82.041853
32
0
13
4.175003
23
-82.041853
33
0
39
0
210
0
220
0
230
1
0
SOLID
5
37D
100
AcDbEntity
8
2
62
256
6
ByLayer
370
18
48
1
60
0
100
AcDbTrace
10
301
20
-81.116278
30
0
11
296.825003
21
-82.041853
31
0
12
296.824997
22
-80.190703
32
0
13
296.824997
23
-80.190703
33
0
39
0
210
0
220
0
230
1
0
ENDBLK
5
37F
100
AcDbEntity
8
0
100
AcDbBlockEnd
0
BLOCK
5
384
100
AcDbEntity
8
0
100
AcDbBlockBegin
2
*D3
70
1
10
0
20
0
30
0
3
*D3
0
LINE
5
386
100
AcDbEntity
8
0
62
256
6
ByLayer
370
-2
48
1
60
0
100
AcDbLine
10
-80
20
-26.5875
30
0
11
-80
21
-84.291278
31
0
39
0
210
0
220
0
230
1
0
LINE
5
387
100
AcDbEntity
8
0
62
256
6
ByLayer
370
-2
48
1
60
0
100
AcDbLine
10
0
20
-33.3375
30
0
11
0
21
-84.291278
31
0
39
0
210
0
220
0
230
1
0
LINE
5
388
100
AcDbEntity
8
0
62
256
6
ByLayer
370
-2
48
1
60
0
100
AcDbLine
10
-75.825
20
-81.116278
30
0
11
-4.175
21
-81.116278
31
0
39
0
210
0
220
0
230
1
0
SOLID
5
389
100
AcDbEntity
8
0
62
256
6
ByLayer
370
-1
48
1
60
0
100
AcDbTrace
10
-75.825
20
-80.420445
30
0
11
-75.825
21
-81.812111
31
0
12
-80
22
-81.116278
32
0
13
-80
23
-81.116278
33
0
39
0
210
0
220
0
230
1
0
SOLID
5
38A
100
AcDbEntity
8
0
62
256
6
ByLayer
370
-1
48
1
60
0
100
AcDbTrace
10
-4.175
20
-81.812111
30
0
11
-4.175
21
-80.420445
31
0
12
0
22
-81.116278
32
0
13
0
23
-81.116278
33
0
39
0
210
0
220
0
230
1
0
MTEXT
5
38B
100
AcDbEntity
8
0
62
256
6
ByLayer
370
18
48
1
60
0
100
AcDbMText
10
-40
20
-71.722528
30
0
210
0
220
0
230
1
1
\A1;80
40
4.5
41
0
44
1
50
0
71
5
72
5
7
iso_b_vert
0
POINT
5
38C
100
AcDbEntity
8
Defpoints
62
0
6
ByLayer
370
-1
48
1
60
0
100
AcDbPoint
10
-80
20
-25
30
0
39
0
210
0
220
0
230
1
50
360
0
POINT
5
38D
100
AcDbEntity
8
Defpoints
62
0
6
ByLayer
370
-1
48
1
60
0
100
AcDbPoint
10
0
20
-31.75
30
0
39
0
210
0
220
0
230
1
50
360
0
POINT
5
38E
100
AcDbEntity
8
Defpoints
62
0
6
ByLayer
370
-1
48
1
60
0
100
AcDbPoint
10
0
20
-81.116278
30
0
39
0
210
0
220
0
230
1
50
360
0
ENDBLK
5
385
100
AcDbEntity
8
0
100
AcDbBlockEnd
0
BLOCK
5
396
100
AcDbEntity
8
0
100
AcDbBlockBegin
2
_U1
70
0
10
0
20
0
30
0
3
_U1
0
MTEXT
5
390
100
AcDbEntity
8
SK2
62
256
6
ByLayer
370
18
48
1
60
0
100
AcDbMText
10
-42.449242
20
-79.788606
30
0
210
0
220
0
230
1
1
\W0.6740;80
40
4.5
41
0
44
1.084337
50
0
71
7
72
5
7
iso_b_vert
0
LINE
5
391
100
AcDbEntity
8
SK2
62
256
6
ByLayer
370
13
48
1
60
0
100
AcDbLine
10
-80
20
-26.5875
30
0
11
-80
21
-84.291278
31
0
39
0
210
0
220
0
230
1
0
LINE
5
392
100
AcDbEntity
8
SK2
62
256
6
ByLayer
370
13
48
1
60
0
100
AcDbLine
10
0
20
-33.3375
30
0
11
0
21
-84.291278
31
0
39
0
210
0
220
0
230
1
0
LINE
5
393
100
AcDbEntity
8
SK2
62
256
6
ByLayer
370
13
48
1
60
0
100
AcDbLine
10
-80
20
-81.116278
30
0
11
0
21
-81.116278
31
0
39
0
210
0
220
0
230
1
0
SOLID
5
394
100
AcDbEntity
8
SK2
62
256
6
ByLayer
370
18
48
1
60
0
100
AcDbTrace
10
-80
20
-81.116278
30
0
11
-75.825003
21
-80.190703
31
0
12
-75.824997
22
-82.041853
32
0
13
-75.824997
23
-82.041853
33
0
39
0
210
0
220
0
230
1
0
SOLID
5
395
100
AcDbEntity
8
SK2
62
256
6
ByLayer
370
18
48
1
60
0
100
AcDbTrace
10
0
20
-81.116278
30
0
11
-4.174997
21
-82.041853
31
0
12
-4.175003
22
-80.190703
32
0
13
-4.175003
23
-80.190703
33
0
39
0
210
0
220
0
230
1
0
ENDBLK
5
397
100
AcDbEntity
8
0
100
AcDbBlockEnd
0
BLOCK
5
39C
100
AcDbEntity
8
0
100
AcDbBlockBegin
2
*D5
70
1
10
0
20
0
30
0
3
*D5
0
LINE
5
39E
100
AcDbEntity
8
0
62
256
6
ByLayer
370
-2
48
1
60
0
100
AcDbLine
10
301
20
-34.0875
30
0
11
301
21
-74.291278
31
0
39
0
210
0
220
0
230
1
0
LINE
5
39F
100
AcDbEntity
8
0
62
256
6
ByLayer
370
-2
48
1
60
0
100
AcDbLine
10
6.4228
20
-33.3375
30
0
11
6.4228
21
-74.291278
31
0
39
0
210
0
220
0
230
1
0
LINE
5
3A0
100
AcDbEntity
8
0
62
256
6
ByLayer
370
-2
48
1
60
0
100
AcDbLine
10
296.825
20
-71.116278
30
0
11
10.5978
21
-71.116278
31
0
39
0
210
0
220
0
230
1
0
SOLID
5
3A1
100
AcDbEntity
8
0
62
256
6
ByLayer
370
-1
48
1
60
0
100
AcDbTrace
10
296.825
20
-71.812111
30
0
11
296.825
21
-70.420445
31
0
12
301
22
-71.116278
32
0
13
301
23
-71.116278
33
0
39
0
210
0
220
0
230
1
0
SOLID
5
3A2
100
AcDbEntity
8
0
62
256
6
ByLayer
370
-1
48
1
60
0
100
AcDbTrace
10
10.5978
20
-70.420445
30
0
11
10.5978
21
-71.812111
31
0
12
6.4228
22
-71.116278
32
0
13
6.4228
23
-71.116278
33
0
39
0
210
0
220
0
230
1
0
MTEXT
5
3A3
100
AcDbEntity
8
0
62
256
6
ByLayer
370
18
48
1
60
0
100
AcDbMText
10
153.7114
20
-61.722528
30
0
210
0
220
0
230
1
1
\A1;294.6
40
4.5
41
0
44
1
50
0
71
5
72
5
7
iso_b_vert
0
POINT
5
3A4
100
AcDbEntity
8
Defpoints
62
0
6
ByLayer
370
-1
48
1
60
0
100
AcDbPoint
10
301
20
-32.5
30
0
39
0
210
0
220
0
230
1
50
360
0
POINT
5
3A5
100
AcDbEntity
8
Defpoints
62
0
6
ByLayer
370
-1
48
1
60
0
100
AcDbPoint
10
6.4228
20
-31.75
30
0
39
0
210
0
220
0
230
1
50
360
0
POINT
5
3A6
100
AcDbEntity
8
Defpoints
62
0
6
ByLayer
370
-1
48
1
60
0
100
AcDbPoint
10
6.4228
20
-71.116278
30
0
39
0
210
0
220
0
230
1
50
360
0
ENDBLK
5
39D
100
AcDbEntity
8
0
100
AcDbBlockEnd
0
BLOCK
5
3AE
100
AcDbEntity
8
0
100
AcDbBlockBegin
2
_U2
70
0
10
0
20
0
30
0
3
_U2
0
MTEXT
5
3A8
100
AcDbEntity
8
SK2
62
256
6
ByLayer
370
18
48
1
60
0
100
AcDbMText
10
146.75093
20
-69.788606
30
0
210
0
220
0
230
1
1
\W0.7694;294.6
40
4.5
41
0
44
1.084337
50
0
71
7
72
5
7
iso_b_vert
0
LINE
5
3A9
100
AcDbEntity
8
SK2
62
256
6
ByLayer
370
13
48
1
60
0
100
AcDbLine
10
301
20
-34.0875
30
0
11
301
21
-74.291278
31
0
39
0
210
0
220
0
230
1
0
LINE
5
3AA
100
AcDbEntity
8
SK2
62
256
6
ByLayer
370
13
48
1
60
0
100
AcDbLine
10
6.4228
20
-33.3375
30
0
11
6.4228
21
-74.291278
31
0
39
0
210
0
220
0
230
1
0
LINE
5
3AB
100
AcDbEntity
8
SK2
62
256
6
ByLayer
370
13
48
1
60
0
100
AcDbLine
10
301
20
-71.116278
30
0
11
6.4228
21
-71.116278
31
0
39
0
210
0
220
0
230
1
0
SOLID
5
3AC
100
AcDbEntity
8
SK2
62
256
6
ByLayer
370
18
48
1
60
0
100
AcDbTrace
10
301
20
-71.116278
30
0
11
296.825003
21
-72.041853
31
0
12
296.824997
22
-70.190703
32
0
13
296.824997
23
-70.190703
33
0
39
0
210
0
220
0
230
1
0
SOLID
5
3AD
100
AcDbEntity
8
SK2
62
256
6
ByLayer
370
18
48
1
60
0
100
AcDbTrace
10
6.4228
20
-71.116278
30
0
11
10.597797
21
-70.190703
31
0
12
10.597803
22
-72.041853
32
0
13
10.597803
23
-72.041853
33
0
39
0
210
0
220
0
230
1
0
ENDBLK
5
3AF
100
AcDbEntity
8
0
100
AcDbBlockEnd
0
BLOCK
5
3B4
100
AcDbEntity
8
0
100
AcDbBlockBegin
2
*D7
70
1
10
0
20
0
30
0
3
*D7
0
LINE
5
3B6
100
AcDbEntity
8
0
62
256
6
ByLayer
370
-2
48
1
60
0
100
AcDbLine
10
36
20
-34.0875
30
0
11
36
21
-64.291278
31
0
39
0
210
0
220
0
230
1
0
LINE
5
3B7
100
AcDbEntity
8
0
62
256
6
ByLayer
370
-2
48
1
60
0
100
AcDbLine
10
301
20
-34.0875
30
0
11
301
21
-64.291278
31
0
39
0
210
0
220
0
230
1
0
LINE
5
3B8
100
AcDbEntity
8
0
62
256
6
ByLayer
370
-2
48
1
60
0
100
AcDbLine
10
40.175
20
-61.116278
30
0
11
296.825
21
-61.116278
31
0
39
0
210
0
220
0
230
1
0
SOLID
5
3B9
100
AcDbEntity
8
0
62
256
6
ByLayer
370
-1
48
1
60
0
100
AcDbTrace
10
40.175
20
-60.420445
30
0
11
40.175
21
-61.812111
31
0
12
36
22
-61.116278
32
0
13
36
23
-61.116278
33
0
39
0
210
0
220
0
230
1
0
SOLID
5
3BA
100
AcDbEntity
8
0
62
256
6
ByLayer
370
-1
48
1
60
0
100
AcDbTrace
10
296.825
20
-61.812111
30
0
11
296.825
21
-60.420445
31
0
12
301
22
-61.116278
32
0
13
301
23
-61.116278
33
0
39
0
210
0
220
0
230
1
0
MTEXT
5
3BB
100
AcDbEntity
8
0
62
256
6
ByLayer
370
18
48
1
60
0
100
AcDbMText
10
168.5
20
-51.722528
30
0
210
0
220
0
230
1
1
\A1;265
40
4.5
41
0
44
1
50
0
71
5
72
5
7
iso_b_vert
0
POINT
5
3BC
100
AcDbEntity
8
Defpoints
62
0
6
ByLayer
370
-1
48
1
60
0
100
AcDbPoint
10
36
20
-32.5
30
0
39
0
210
0
220
0
230
1
50
360
0
POINT
5
3BD
100
AcDbEntity
8
Defpoints
62
0
6
ByLayer
370
-1
48
1
60
0
100
AcDbPoint
10
301
20
-32.5
30
0
39
0
210
0
220
0
230
1
50
360
0
POINT
5
3BE
100
AcDbEntity
8
Defpoints
62
0
6
ByLayer
370
-1
48
1
60
0
100
AcDbPoint
10
301
20
-61.116278
30
0
39
0
210
0
220
0
230
1
50
360
0
ENDBLK
5
3B5
100
AcDbEntity
8
0
100
AcDbBlockEnd
0
BLOCK
5
3C6
100
AcDbEntity
8
0
100
AcDbBlockBegin
2
_U3
70
0
10
0
20
0
30
0
3
_U3
0
MTEXT
5
3C0
100
AcDbEntity
8
SK2
62
256
6
ByLayer
370
18
48
1
60
0
100
AcDbMText
10
164.369387
20
-59.788606
30
0
210
0
220
0
230
1
1
\W0.7138;265
40
4.5
41
0
44
1.084337
50
0
71
7
72
5
7
iso_b_vert
0
LINE
5
3C1
100
AcDbEntity
8
SK2
62
256
6
ByLayer
370
13
48
1
60
0
100
AcDbLine
10
36
20
-34.0875
30
0
11
36
21
-64.291278
31
0
39
0
210
0
220
0
230
1
0
LINE
5
3C2
100
AcDbEntity
8
SK2
62
256
6
ByLayer
370
13
48
1
60
0
100
AcDbLine
10
301
20
-34.0875
30
0
11
301
21
-64.291278
31
0
39
0
210
0
220
0
230
1
0
LINE
5
3C3
100
AcDbEntity
8
SK2
62
256
6
ByLayer
370
13
48
1
60
0
100
AcDbLine
10
36
20
-61.116278
30
0
11
301
21
-61.116278
31
0
39
0
210
0
220
0
230
1
0
SOLID
5
3C4
100
AcDbEntity
8
SK2
62
256
6
ByLayer
370
18
48
1
60
0
100
AcDbTrace
10
36
20
-61.116278
30
0
11
40.174997
21
-60.190703
31
0
12
40.175003
22
-62.041853
32
0
13
40.175003
23
-62.041853
33
0
39
0
210
0
220
0
230
1
0
SOLID
5
3C5
100
AcDbEntity
8
SK2
62
256
6
ByLayer
370
18
48
1
60
0
100
AcDbTrace
10
301
20
-61.116278
30
0
11
296.825003
21
-62.041853
31
0
12
296.824997
22
-60.190703
32
0
13
296.824997
23
-60.190703
33
0
39
0
210
0
220
0
230
1
0
ENDBLK
5
3C7
100
AcDbEntity
8
0
100
AcDbBlockEnd
0
BLOCK
5
3CC
100
AcDbEntity
8
0
100
AcDbBlockBegin
2
*D9
70
1
10
0
20
0
30
0
3
*D9
0
LINE
5
3CE
100
AcDbEntity
8
0
62
256
6
ByLayer
370
-2
48
1
60
0
100
AcDbLine
10
299.4109
20
-17.8375
30
0
11
299.4109
21
-54.291278
31
0
39
0
210
0
220
0
230
1
0
LINE
5
3CF
100
AcDbEntity
8
0
62
256
6
ByLayer
370
-2
48
1
60
0
100
AcDbLine
10
301
20
-1.5875
30
0
11
301
21
-54.291278
31
0
39
0
210
0
220
0
230
1
0
LINE
5
3D0
100
AcDbEntity
8
0
62
256
6
ByLayer
370
-2
48
1
60
0
100
AcDbLine
10
301
20
-51.116278
30
0
11
336.494643
21
-51.116278
31
0
39
0
210
0
220
0
230
1
0
LINE
5
3D1
100
AcDbEntity
8
0
62
256
6
ByLayer
370
-2
48
1
60
0
100
AcDbLine
10
295.2359
20
-51.116278
30
0
11
291.0609
21
-51.116278
31
0
39
0
210
0
220
0
230
1
0
LINE
5
3D2
100
AcDbEntity
8
0
62
256
6
ByLayer
370
-2
48
1
60
0
100
AcDbLine
10
305.175
20
-51.116278
30
0
11
309.35
21
-51.116278
31
0
39
0
210
0
220
0
230
1
0
SOLID
5
3D3
100
AcDbEntity
8
0
62
256
6
ByLayer
370
-1
48
1
60
0
100
AcDbTrace
10
295.2359
20
-51.812111
30
0
11
295.2359
21
-50.420445
31
0
12
299.4109
22
-51.116278
32
0
13
299.4109
23
-51.116278
33
0
39
0
210
0
220
0
230
1
0
SOLID
5
3D4
100
AcDbEntity
8
0
62
256
6
ByLayer
370
-1
48
1
60
0
100
AcDbTrace
10
305.175
20
-50.420445
30
0
11
305.175
21
-51.812111
31
0
12
301
22
-51.116278
32
0
13
301
23
-51.116278
33
0
39
0
210
0
220
0
230
1
0
MTEXT
5
3D5
100
AcDbEntity
8
0
62
256
6
ByLayer
370
18
48
1
60
0
100
AcDbMText
10
322.922321
20
-41.722528
30
0
210
0
220
0
230
1
1
\A1;1.59
40
4.5
41
0
44
1
50
0
71
5
72
5
7
iso_b_vert
0
POINT
5
3D6
100
AcDbEntity
8
Defpoints
62
0
6
ByLayer
370
-1
48
1
60
0
100
AcDbPoint
10
299.4109
20
-16.25
30
0
39
0
210
0
220
0
230
1
50
360
0
POINT
5
3D7
100
AcDbEntity
8
Defpoints
62
0
6
ByLayer
370
-1
48
1
60
0
100
AcDbPoint
10
301
20
0
30
0
39
0
210
0
220
0
230
1
50
360
0
POINT
5
3D8
100
AcDbEntity
8
Defpoints
62
0
6
ByLayer
370
-1
48
1
60
0
100
AcDbPoint
10
301
20
-51.116278
30
0
39
0
210
0
220
0
230
1
50
360
0
ENDBLK
5
3CD
100
AcDbEntity
8
0
100
AcDbBlockEnd
0
BLOCK
5
3E0
100
AcDbEntity
8
0
100
AcDbBlockBegin
2
_U4
70
0
10
0
20
0
30
0
3
_U4
0
MTEXT
5
3DA
100
AcDbEntity
8
2
62
256
6
ByLayer
370
18
48
1
60
0
100
AcDbMText
10
313.351
20
-49.788606
30
0
210
0
220
0
230
1
1
\W0.6662;1.59
40
4.5
41
0
44
1.084337
50
0
71
7
72
5
7
iso_b_vert
0
LINE
5
3DB
100
AcDbEntity
8
2
62
256
6
ByLayer
370
13
48
1
60
0
100
AcDbLine
10
299.4109
20
-17.8375
30
0
11
299.4109
21
-54.291278
31
0
39
0
210
0
220
0
230
1
0
LINE
5
3DC
100
AcDbEntity
8
2
62
256
6
ByLayer
370
13
48
1
60
0
100
AcDbLine
10
301
20
-1.5875
30
0
11
301
21
-54.291278
31
0
39
0
210
0
220
0
230
1
0
LINE
5
3DD
100
AcDbEntity
8
2
62
256
6
ByLayer
370
13
48
1
60
0
100
AcDbLine
10
322.549041
20
-51.116278
30
0
11
288.1609
21
-51.116278
31
0
39
0
210
0
220
0
230
1
0
SOLID
5
3DE
100
AcDbEntity
8
2
62
256
6
ByLayer
370
18
48
1
60
0
100
AcDbTrace
10
299.4109
20
-51.116278
30
0
11
295.235903
21
-52.041853
31
0
12
295.235897
22
-50.190703
32
0
13
295.235897
23
-50.190703
33
0
39
0
210
0
220
0
230
1
0
SOLID
5
3DF
100
AcDbEntity
8
2
62
256
6
ByLayer
370
18
48
1
60
0
100
AcDbTrace
10
301
20
-51.116278
30
0
11
305.174997
21
-50.190703
31
0
12
305.175003
22
-52.041853
32
0
13
305.175003
23
-52.041853
33
0
39
0
210
0
220
0
230
1
0
ENDBLK
5
3E1
100
AcDbEntity
8
0
100
AcDbBlockEnd
0
ENDSEC
0
SECTION
2
ENTITIES
0
ARC
5
195
100
AcDbEntity
8
SK1
62
256
6
ByLayer
370
13
48
1
60
0
100
AcDbCircle
39
0
10
-77.894505
20
-25.396
30
0
40
0.799999999999979
210
0
220
0
230
1
100
AcDbArc
50
70.982
51
141
0
ARC
5
196
100
AcDbEntity
8
SK1
62
256
6
ByLayer
370
13
48
1
60
0
100
AcDbCircle
39
0
10
-77.894505
20
25.396
30
0
40
0.799999999999979
210
0
220
0
230
1
100
AcDbArc
50
219
51
289.018
0
ARC
5
197
100
AcDbEntity
8
SK1
62
256
6
ByLayer
370
13
48
1
60
0
100
AcDbCircle
39
0
10
-0.15
20
25.146
30
0
40
0.399999999999999
210
0
220
0
230
1
100
AcDbArc
50
270
51
292.024313
0
ARC
5
198
100
AcDbEntity
8
SK1
62
256
6
ByLayer
370
13
48
1
60
0
100
AcDbCircle
39
0
10
-0.15
20
-25.146
30
0
40
0.399999999999999
210
0
220
0
230
1
100
AcDbArc
50
67.975687
51
90
0
ARC
5
199
100
AcDbEntity
8
SK1
62
256
6
ByLayer
370
13
48
1
60
0
100
AcDbCircle
39
0
10
-1.375195
20
25.146
30
0
40
0.400000000000004
210
0
220
0
230
1
100
AcDbArc
50
245
51
270
0
ARC
5
19A
100
AcDbEntity
8
SK1
62
256
6
ByLayer
370
13
48
1
60
0
100
AcDbCircle
39
0
10
-1.375195
20
-25.146
30
0
40
0.400000000000004
210
0
220
0
230
1
100
AcDbArc
50
90
51
115
0
ARC
5
19B
100
AcDbEntity
8
1
62
256
6
ByLayer
370
13
48
1
60
0
100
AcDbCircle
39
0
10
297.075268
20
30.691258
30
0
40
0.2
210
0
220
0
230
1
100
AcDbArc
50
8.973565
51
93
0
ARC
5
19C
100
AcDbEntity
8
1
62
256
6
ByLayer
370
13
48
1
60
0
100
AcDbCircle
39
0
10
297.266338
20
14.435508
30
0
40
0.2
210
0
220
0
230
1
100
AcDbArc
50
273
51
352.54557
0
ARC
5
19D
100
AcDbEntity
8
1
62
256
6
ByLayer
370
13
48
1
60
0
100
AcDbCircle
39
0
10
282.869
20
29.68102
30
0
40
0.2
210
0
220
0
230
1
100
AcDbArc
50
79.98854
51
93
0
ARC
5
19E
100
AcDbEntity
8
1
62
256
6
ByLayer
370
13
48
1
60
0
100
AcDbCircle
39
0
10
283.060069
20
13.425271
30
0
40
0.2
210
0
220
0
230
1
100
AcDbArc
50
273
51
303.773583
0
ELLIPSE
5
19F
100
AcDbEntity
8
1
62
256
6
ByLayer
370
18
48
1
60
0
100
AcDbEllipse
10
289.892243
20
22.049071
30
0
11
0.0675290843402799
21
-1.28853168869383
31
0
210
0
220
0
230
1
40
0.995562
41
-0.771408608870225
42
-8.85016112898767E-14
0
ELLIPSE
5
1A0
100
AcDbEntity
8
1
62
256
6
ByLayer
370
18
48
1
60
0
100
AcDbEllipse
10
289.087613
20
23.293327
30
0
11
-0.328745690776172
21
-0.214965491791412
31
0
210
0
220
0
230
1
40
0.490808
41
2.94320654539754
42
-2.46828145615016
0
ELLIPSE
5
1A1
100
AcDbEntity
8
1
62
256
6
ByLayer
370
18
48
1
60
0
100
AcDbEllipse
10
289.965077
20
22.052888
30
0
11
-0.149157475292373
21
2.84609417405054
31
0
210
0
220
0
230
1
40
0.995562
41
0
42
3.1414943057158
0
ELLIPSE
5
1A2
100
AcDbEntity
8
1
62
256
6
ByLayer
370
18
48
1
60
0
100
AcDbEllipse
10
290.04026
20
22.056828
30
0
11
0.0877359970456833
21
-1.67410255206257
31
0
210
0
220
0
230
1
40
0.995562
41
1.5707963267949
42
2.61799387799149
0
ELLIPSE
5
1A3
100
AcDbEntity
8
1
62
256
6
ByLayer
370
18
48
1
60
0
100
AcDbEllipse
10
290.04026
20
22.056828
30
0
11
-0.0942047212372888
21
1.79753316255823
31
0
210
0
220
0
230
1
40
0.995562
41
0
42
6.28318530717959
0
ELLIPSE
5
1A4
100
AcDbEntity
8
1
62
256
6
ByLayer
370
18
48
1
60
0
100
AcDbEllipse
10
290.04026
20
22.056828
30
0
11
0.0877359970456833
21
-1.67410255206257
31
0
210
0
220
0
230
1
40
0.995562
41
0.523598775598307
42
1.5707963267949
0
ELLIPSE
5
1A5
100
AcDbEntity
8
1
62
256
6
ByLayer
370
18
48
1
60
0
100
AcDbEllipse
10
291.20818
20
21.375368
30
0
11
-0.177620434615877
21
-0.351315571661227
31
0
210
0
220
0
230
1
40
0.48863
41
-2.85513231723953
42
-1.57326889137568
0
ELLIPSE
5
1A6
100
AcDbEntity
8
1
62
256
6
ByLayer
370
18
48
1
60
0
100
AcDbEllipse
10
290.04026
20
22.056828
30
0
11
0.0877359970456833
21
-1.67410255206257
31
0
210
0
220
0
230
1
40
0.995562
41
-0.523598775598257
42
0.523598775598307
0
ELLIPSE
5
1A7
100
AcDbEntity
8
1
62
256
6
ByLayer
370
18
48
1
60
0
100
AcDbEllipse
10
289.892243
20
22.049071
30
0
11
-0.0675290843402629
21
1.28853168869383
31
0
210
0
220
0
230
1
40
0.995562
41
-3.03775684415654
42
-2.0943951023932
0
ELLIPSE
5
1A8
100
AcDbEntity
8
1
62
256
6
ByLayer
370
18
48
1
60
0
100
AcDbEllipse
10
290.696873
20
20.804814
30
0
11
-0.328745690776203
21
-0.214965491791398
31
0
210
0
220
0
230
1
40
0.490808
41
0.673312264881209
42
-2.94818767871612
0
ELLIPSE
5
1A9
100
AcDbEntity
8
1
62
256
6
ByLayer
370
18
48
1
60
0
100
AcDbEllipse
10
289.892243
20
22.049071
30
0
11
0.0675290843402799
21
-1.28853168869383
31
0
210
0
220
0
230
1
40
0.995562
41
3.14159265358975
42
-2.35315137984992
0
ELLIPSE
5
1AA
100
AcDbEntity
8
1
62
256
6
ByLayer
370
18
48
1
60
0
100
AcDbEllipse
10
289.892243
20
22.049071
30
0
11
0.0675290843402799
21
-1.28853168869383
31
0
210
0
220
0
230
1
40
0.995562
41
1.0471975511966
42
2.0943951023932
0
ELLIPSE
5
1AB
100
AcDbEntity
8
1
62
256
6
ByLayer
370
18
48
1
60
0
100
AcDbEllipse
10
289.814613
20
23.530338
30
0
11
-0.391813266884246
21
-0.0205340632126795
31
0
210
0
220
0
230
1
40
0.491907
41
0.288932900933544
42
1.5707963267949
0
ELLIPSE
5
1AC
100
AcDbEntity
8
1
62
256
6
ByLayer
370
18
48
1
60
0
100
AcDbEllipse
10
291.13055
20
22.856635
30
0
11
-0.213369888118322
21
0.33082463712827
31
0
210
0
220
0
230
1
40
0.48863
41
1.57326889138317
42
2.85513231724156
0
ELLIPSE
5
1AD
100
AcDbEntity
8
1
62
256
6
ByLayer
370
18
48
1
60
0
100
AcDbEllipse
10
290.04026
20
22.056828
30
0
11
0.0877359970456833
21
-1.67410255206257
31
0
210
0
220
0
230
1
40
0.995562
41
-1.5707963267949
42
-0.523598775598257
0
ELLIPSE
5
1AE
100
AcDbEntity
8
1
62
256
6
ByLayer
370
18
48
1
60
0
100
AcDbEllipse
10
290.562405
20
23.370617
30
0
11
-0.349414799997455
21
0.179424606472476
31
0
210
0
220
0
230
1
40
0.490808
41
2.94818767871612
42
-0.625002372329293
0
ELLIPSE
5
1AF
100
AcDbEntity
8
1
62
256
6
ByLayer
370
18
48
1
60
0
100
AcDbEllipse
10
289.969873
20
20.567803
30
0
11
-0.3918132668793
21
-0.0205340632118628
31
0
210
0
220
0
230
1
40
0.491907
41
-1.5707963267949
42
-0.288932900935018
0
ELLIPSE
5
1B0
100
AcDbEntity
8
1
62
256
6
ByLayer
370
18
48
1
60
0
100
AcDbEllipse
10
291.20818
20
21.375368
30
0
11
-0.177620434612752
21
-0.351315571660732
31
0
210
0
220
0
230
1
40
0.48863
41
-1.57326889139027
42
-0.291405465521269
0
ELLIPSE
5
1B1
100
AcDbEntity
8
1
62
256
6
ByLayer
370
18
48
1
60
0
100
AcDbEllipse
10
289.892243
20
22.049071
30
0
11
0.0675290843402799
21
-1.28853168869383
31
0
210
0
220
0
230
1
40
0.995562
41
-1.89285840703661
42
-1.23277995487287
0
ELLIPSE
5
1B2
100
AcDbEntity
8
1
62
256
6
ByLayer
370
18
48
1
60
0
100
AcDbEllipse
10
290.04026
20
22.056828
30
0
11
0.0877359970456833
21
-1.67410255206257
31
0
210
0
220
0
230
1
40
0.995562
41
2.61799387799149
42
-2.61799387799149
0
ELLIPSE
5
1B3
100
AcDbEntity
8
1
62
256
6
ByLayer
370
18
48
1
60
0
100
AcDbEllipse
10
289.892243
20
22.049071
30
0
11
0.0675290843402799
21
-1.28853168869383
31
0
210
0
220
0
230
1
40
0.995562
41
2.09439510239319
42
3.14159265358979
0
ELLIPSE
5
1B4
100
AcDbEntity
8
1
62
256
6
ByLayer
370
18
48
1
60
0
100
AcDbEllipse
10
289.222081
20
20.727524
30
0
11
-0.349414799997461
21
0.179424606472467
31
0
210
0
220
0
230
1
40
0.490808
41
2.51659138569065
42
-2.94320654539737
0
ELLIPSE
5
1B5
100
AcDbEntity
8
1
62
256
6
ByLayer
370
18
48
1
60
0
100
AcDbEllipse
10
290.032817
20
22.056438
30
0
11
-0.149157475292373
21
2.84609417405054
31
0
210
0
220
0
230
1
40
0.995562
41
0
42
6.28318530717959
0
ELLIPSE
5
1B6
100
AcDbEntity
8
1
62
256
6
ByLayer
370
18
48
1
60
0
100
AcDbEllipse
10
291.13055
20
22.856635
30
0
11
-0.213369888114825
21
0.330824637125363
31
0
210
0
220
0
230
1
40
0.48863
41
0.291405465521765
42
1.57326889139071
0
ELLIPSE
5
1B7
100
AcDbEntity
8
1
62
256
6
ByLayer
370
18
48
1
60
0
100
AcDbEllipse
10
291.367036
20
22.126361
30
0
11
-0.0206256003553378
21
0.393559899646792
31
0
210
0
220
0
230
1
40
0.48755
41
-2.94566518558229
42
-0.320418374792229
0
ELLIPSE
5
1B8
100
AcDbEntity
8
1
62
256
6
ByLayer
370
18
48
1
60
0
100
AcDbEllipse
10
290.04026
20
22.056828
30
0
11
0.0877359970456833
21
-1.67410255206257
31
0
210
0
220
0
230
1
40
0.995562
41
-2.61799387799149
42
-1.5707963267949
0
ELLIPSE
5
1B9
100
AcDbEntity
8
1
62
256
6
ByLayer
370
18
48
1
60
0
100
AcDbEllipse
10
290.0001
20
-8.194694
30
0
11
-1.5
21
1.51595858262354E-15
31
0
210
0
220
0
230
1
40
0.995396
41
-2.7266077980544
42
-0.206167121796664
0
ELLIPSE
5
1BA
100
AcDbEntity
8
1
62
256
6
ByLayer
370
18
48
1
60
0
100
AcDbEllipse
10
290.0001
20
-8.242617
30
0
11
2
21
0
31
0
210
0
220
0
230
1
40
0.995396
41
0.578052874191018
42
2.76715400306227
0
ELLIPSE
5
1BB
100
AcDbEntity
8
1
62
256
6
ByLayer
370
13
48
1
60
0
100
AcDbEllipse
10
297.075268
20
30.691258
30
0
11
-0.111182483439557
21
0.16624817405377
31
0
210
0
220
0
230
1
40
0.080951
41
-1.61896516661991
42
-0.0481688398260049
0
ELLIPSE
5
1BC
100
AcDbEntity
8
1
62
256
6
ByLayer
370
13
48
1
60
0
100
AcDbEllipse
10
282.518229
20
29.722019
30
0
11
-0.157457627771855
21
-0.0472734989093241
31
0
210
0
220
0
230
1
40
0.020424
41
-3.05807782807754
42
-1.4872815009734
0
ELLIPSE
5
1BD
100
AcDbEntity
8
1
62
256
6
ByLayer
370
13
48
1
60
0
100
AcDbEllipse
10
295.155611
20
32.588979
30
0
11
0.104671912485902
21
-1.99725906950915
31
0
210
0
220
0
230
1
40
0.995562
41
0
42
0.289833749668452
0
ELLIPSE
5
1BE
100
AcDbEntity
8
1
62
256
6
ByLayer
370
13
48
1
60
0
100
AcDbEllipse
10
297.266338
20
14.435508
30
0
11
0.0104671912485902
21
-0.199725906950915
31
0
210
0
220
0
230
1
40
0.995562
41
-0.226119054284773
42
1.75822315973176E-05
0
ELLIPSE
5
1BF
100
AcDbEntity
8
1
62
256
6
ByLayer
370
13
48
1
60
0
100
AcDbEllipse
10
298.733283
20
31.680991
30
0
11
0.0366351693700666
21
-0.699040674328218
31
0
210
0
220
0
230
1
40
0.995562
41
1.67551608191251
42
3.06145142476406
0
ELLIPSE
5
1C0
100
AcDbEntity
8
1
62
256
6
ByLayer
370
13
48
1
60
0
100
AcDbEllipse
10
299.26377
20
13.841868
30
0
11
-0.223427023003906
21
-1.09873090113213
31
0
210
0
220
0
230
1
40
0.060635
41
1.06536317201968
42
1.25922191199144
0
ELLIPSE
5
1C1
100
AcDbEntity
8
1
62
256
6
ByLayer
370
13
48
1
60
0
100
AcDbEllipse
10
281.451633
20
21.570326
30
0
11
-0.148732254109673
21
0.0194606420103673
31
0
210
0
220
0
230
1
40
0.01715
41
1.4781176373135
42
3.04891396411238
0
ELLIPSE
5
1C2
100
AcDbEntity
8
1
62
256
6
ByLayer
370
13
48
1
60
0
100
AcDbEllipse
10
282.518229
20
29.722019
30
0
11
-0.0420204304825291
21
-0.159048282703145
31
0
210
0
220
0
230
1
40
0.081731
41
-3.11535881189313
42
-1.54456248512947
0
ELLIPSE
5
1C3
100
AcDbEntity
8
1
62
256
6
ByLayer
370
13
48
1
60
0
100
AcDbEllipse
10
299.661203
20
14.738713
30
0
11
0.148732254109675
21
-0.0194606420103554
31
0
210
0
220
0
230
1
40
0.01715
41
-1.66347501628655
42
-0.0926786894767254
0
ELLIPSE
5
1C4
100
AcDbEntity
8
1
62
256
6
ByLayer
370
13
48
1
60
0
100
AcDbEllipse
10
297.986691
20
32.180836
30
0
11
0.147123305935865
21
-0.0292358145175059
31
0
210
0
220
0
230
1
40
0.023245
41
3.05024863021027
42
-1.66214035016936
0
ELLIPSE
5
1C5
100
AcDbEntity
8
1
62
256
6
ByLayer
370
13
48
1
60
0
100
AcDbEllipse
10
300.689646
20
22.772645
30
0
11
0.148164061728345
21
0.0233968120084578
31
0
210
0
220
0
230
1
40
0.009837
41
0.0937345075201889
42
1.66453083432196
0
ELLIPSE
5
1C6
100
AcDbEntity
8
1
62
256
6
ByLayer
370
13
48
1
60
0
100
AcDbEllipse
10
279.4342
20
21.501218
30
0
11
-0.148732254109673
21
0.0194606420103673
31
0
210
0
220
0
230
1
40
0.01715
41
-0.0926786894815734
42
1.4781176373135
0
ELLIPSE
5
1C7
100
AcDbEntity
8
1
62
256
6
ByLayer
370
13
48
1
60
0
100
AcDbEllipse
10
282.576349
20
29.782471
30
0
11
0.00523359562429343
21
-0.0998629534754254
31
0
210
0
220
0
230
1
40
0.995562
41
1.38753675533599
42
3.11795457934149
0
ELLIPSE
5
1C8
100
AcDbEntity
8
1
62
256
6
ByLayer
370
13
48
1
60
0
100
AcDbEllipse
10
297.983564
20
32.182655
30
0
11
0.0126644888425817
21
-0.241652842685476
31
0
210
0
220
0
230
1
40
0.995562
41
-2.96705972839256
42
-1.82037975282063
0
ELLIPSE
5
1C9
100
AcDbEntity
8
1
62
256
6
ByLayer
370
13
48
1
60
0
100
AcDbEllipse
10
290.482693
20
14.139132
30
0
11
0.0104671912485902
21
-0.199725906950915
31
0
210
0
220
0
230
1
40
0.094108
41
0
42
1.5707963267949
0
ELLIPSE
5
1CA
100
AcDbEntity
8
1
62
256
6
ByLayer
370
13
48
1
60
0
100
AcDbEllipse
10
289.652645
20
29.977397
30
0
11
0.0104671912485902
21
-0.199725906950915
31
0
210
0
220
0
230
1
40
0.094108
41
1.5707963267949
42
3.14159265358979
0
ELLIPSE
5
1CB
100
AcDbEntity
8
1
62
256
6
ByLayer
370
13
48
1
60
0
100
AcDbEllipse
10
280.856552
20
12.34938
30
0
11
-0.148164061728345
21
-0.0233968120084623
31
0
210
0
220
0
230
1
40
0.009837
41
-1.4770618192667
42
0.0937345075250187
0
ELLIPSE
5
1CC
100
AcDbEntity
8
1
62
256
6
ByLayer
370
13
48
1
60
0
100
AcDbEllipse
10
281.803716
20
21.381329
30
0
11
-0.197552082304459
21
-0.0311957493446165
31
0
210
0
220
0
230
1
40
0.009837
41
0.0937345075262262
42
1.66453083432194
0
ELLIPSE
5
1CD
100
AcDbEntity
8
1
62
256
6
ByLayer
370
13
48
1
60
0
100
AcDbEllipse
10
280.469436
20
29.37757
30
0
11
0.00785039343644245
21
-0.149794430213182
31
0
210
0
220
0
230
1
40
0.995562
41
-3.02814625221095
42
-1.75405589825201
0
ELLIPSE
5
1CE
100
AcDbEntity
8
1
62
256
6
ByLayer
370
13
48
1
60
0
100
AcDbEllipse
10
298.671071
20
22.789625
30
0
11
0.148164061728345
21
0.0233968120084578
31
0
210
0
220
0
230
1
40
0.009837
41
1.66453083432272
42
2.85269002801232
0
ELLIPSE
5
1CF
100
AcDbEntity
8
1
62
256
6
ByLayer
370
13
48
1
60
0
100
AcDbEllipse
10
295.79467
20
32.62247
30
0
11
-0.104671912485876
21
1.99725906950915
31
0
210
0
220
0
230
1
40
0.995562
41
3.14159265358762
42
-1.82037975282034
0
ELLIPSE
5
1D0
100
AcDbEntity
8
1
62
256
6
ByLayer
370
13
48
1
60
0
100
AcDbEllipse
10
298.313207
20
30.481566
30
0
11
0.099438316861607
21
-1.89739611603369
31
0
210
0
220
0
230
1
40
0.995562
41
3.11701412729136
42
3.13286600732767
0
ELLIPSE
5
1D1
100
AcDbEntity
8
1
62
256
6
ByLayer
370
13
48
1
60
0
100
AcDbEllipse
10
279.963001
20
21.428564
30
0
11
-0.028784775933618
21
0.549246244115055
31
0
210
0
220
0
230
1
40
0.995562
41
1.38753675533528
42
1.67551608191457
0
ELLIPSE
5
1D2
100
AcDbEntity
8
1
62
256
6
ByLayer
370
13
48
1
60
0
100
AcDbEllipse
10
296.867557
20
12.150565
30
0
11
-0.104671912485876
21
1.99725906950915
31
0
210
0
220
0
230
1
40
0.995562
41
-0.289833749672794
42
-2.19822735916107E-12
0
ELLIPSE
5
1D3
100
AcDbEntity
8
1
62
256
6
ByLayer
370
13
48
1
60
0
100
AcDbEllipse
10
297.839981
20
22.657098
30
0
11
0.036635169370063
21
-0.699040674328149
31
0
210
0
220
0
230
1
40
0.995562
41
1.38753675533546
42
1.67551608191448
0
ELLIPSE
5
1D4
100
AcDbEntity
8
1
62
256
6
ByLayer
370
13
48
1
60
0
100
AcDbEllipse
10
282.438372
20
31.92248
30
0
11
-2.48293993488229
21
1.51817010779502
31
0
210
0
220
0
230
1
40
0.473305
41
1.21630812759802
42
1.241966387129
0
ELLIPSE
5
1D5
100
AcDbEntity
8
1
62
256
6
ByLayer
370
13
48
1
60
0
100
AcDbEllipse
10
280.464737
20
29.377323
30
0
11
0.0248313114068838
21
-0.147930409226144
31
0
210
0
220
0
230
1
40
0.093503
41
-3.04696247418879
42
-1.58149677262184
0
ELLIPSE
5
1D6
100
AcDbEntity
8
1
62
256
6
ByLayer
370
13
48
1
60
0
100
AcDbEllipse
10
297.266338
20
14.435508
30
0
11
0.0347690313632358
21
0.196954599992136
31
0
210
0
220
0
230
1
40
0.091713
41
-3.1204029627785
42
-1.54960663601806
0
ELLIPSE
5
1D7
100
AcDbEntity
8
1
62
256
6
ByLayer
370
13
48
1
60
0
100
AcDbEllipse
10
290.006755
20
22.055072
30
0
11
0.16148876483009
21
-3.08138919525491
31
0
210
0
220
0
230
1
40
0.995562
41
-0.832617303636146
42
0
0
ELLIPSE
5
1D8
100
AcDbEntity
8
1
62
256
6
ByLayer
370
13
48
1
60
0
100
AcDbEllipse
10
290.006755
20
22.055072
30
0
11
0.16148876483009
21
-3.08138919525491
31
0
210
0
220
0
230
1
40
0.995562
41
0
42
-2.30896949140972
0
ELLIPSE
5
1D9
100
AcDbEntity
8
1
62
256
6
ByLayer
370
13
48
1
60
0
100
AcDbEllipse
10
299.661203
20
14.738713
30
0
11
-0.0248313114069028
21
0.147930409226141
31
0
210
0
220
0
230
1
40
0.093503
41
1.56009588089746
42
3.1308922077277
0
ELLIPSE
5
1DA
100
AcDbEntity
8
1
62
256
6
ByLayer
370
13
48
1
60
0
100
AcDbEllipse
10
297.858777
20
22.658083
30
0
11
-0.0261679781214663
21
0.499314767377234
31
0
210
0
220
0
230
1
40
0.995562
41
-1.75405589825433
42
-1.46607657167531
0
ELLIPSE
5
1DB
100
AcDbEntity
8
1
62
256
6
ByLayer
370
13
48
1
60
0
100
AcDbEllipse
10
282.751095
20
31.938886
30
0
11
-1.90001443048578
21
1.34408422197699
31
0
210
0
220
0
230
1
40
0.758703
41
1.08025569956678
42
2.08597699581282
0
ELLIPSE
5
1DC
100
AcDbEntity
8
1
62
256
6
ByLayer
370
13
48
1
60
0
100
AcDbEllipse
10
298.728584
20
31.680744
30
0
11
0.0366351693700666
21
-0.699040674328218
31
0
210
0
220
0
230
1
40
0.995562
41
1.67551608191463
42
3.06145142476611
0
ELLIPSE
5
1DD
100
AcDbEntity
8
1
62
256
6
ByLayer
370
13
48
1
60
0
100
AcDbEllipse
10
297.266338
20
14.435508
30
0
11
-0.198309672146231
21
0.0259475226804897
31
0
210
0
220
0
230
1
40
0.01715
41
-3.14146404086676
42
-1.66347501627706
0
ELLIPSE
5
1DE
100
AcDbEntity
8
1
62
256
6
ByLayer
370
13
48
1
60
0
100
AcDbEllipse
10
299.665902
20
14.738959
30
0
11
0.00785039343644245
21
-0.149794430213182
31
0
210
0
220
0
230
1
40
0.995562
41
0.113446401374284
42
1.38753675533355
0
ELLIPSE
5
1DF
100
AcDbEntity
8
1
62
256
6
ByLayer
370
13
48
1
60
0
100
AcDbEllipse
10
281.82213
20
13.634962
30
0
11
0.099438316861607
21
-1.89739611603369
31
0
210
0
220
0
230
1
40
0.995562
41
-0.0245785262942231
42
-0.0087266462578577
0
ELLIPSE
5
1E0
100
AcDbEntity
8
1
62
256
6
ByLayer
370
13
48
1
60
0
100
AcDbEllipse
10
290.086465
20
22.059249
30
0
11
0.16459275201716
21
-3.14061679904835
31
0
210
0
220
0
230
1
40
0.995562
41
0
42
6.28318530717959
0
ELLIPSE
5
1E1
100
AcDbEntity
8
1
62
256
6
ByLayer
370
13
48
1
60
0
100
AcDbEllipse
10
282.276561
20
21.458445
30
0
11
0.0444855628065056
21
-0.848835104541334
31
0
210
0
220
0
230
1
40
0.995562
41
-1.75405589825433
42
-1.46607657167531
0
ELLIPSE
5
1E2
100
AcDbEntity
8
1
62
256
6
ByLayer
370
13
48
1
60
0
100
AcDbEllipse
10
282.139249
20
11.9352
30
0
11
-0.147123305935864
21
0.0292358145175114
31
0
210
0
220
0
230
1
40
0.023245
41
1.47945230342048
42
3.05024863021027
0
ELLIPSE
5
1E3
100
AcDbEntity
8
1
62
256
6
ByLayer
370
13
48
1
60
0
100
AcDbEllipse
10
298.294412
20
30.480581
30
0
11
-0.0915879234251415
21
1.74760168582051
31
0
210
0
220
0
230
1
40
0.995562
41
-0.0245785262962801
42
-0.00872664625993965
0
ELLIPSE
5
1E4
100
AcDbEntity
8
1
62
256
6
ByLayer
370
13
48
1
60
0
100
AcDbEllipse
10
281.383259
20
12.434553
30
0
11
-0.0287847759336168
21
0.549246244115032
31
0
210
0
220
0
230
1
40
0.995562
41
1.67551608191457
42
3.06145142476626
0
ELLIPSE
5
1E5
100
AcDbEntity
8
1
62
256
6
ByLayer
370
13
48
1
60
0
100
AcDbEllipse
10
281.402055
20
12.435538
30
0
11
0.0366351693700666
21
-0.699040674328218
31
0
210
0
220
0
230
1
40
0.995562
41
-1.46607657167304
42
-0.0801412288215573
0
ELLIPSE
5
1E6
100
AcDbEntity
8
1
62
256
6
ByLayer
370
13
48
1
60
0
100
AcDbEllipse
10
298.02141
20
32.170288
30
0
11
-0.00261679781214698
21
0.0499314767377304
31
0
210
0
220
0
230
1
40
0.995562
41
-0.00872664625760755
42
1.32121290077166
0
ELLIPSE
5
1E7
100
AcDbEntity
8
1
62
256
6
ByLayer
370
13
48
1
60
0
100
AcDbEllipse
10
298.033324
20
32.22098
30
0
11
-0.00653707867981071
21
0.149857487641873
31
0
210
0
220
0
230
1
40
0.094105
41
0.000824900290111307
42
1.57162122708202
0
ELLIPSE
5
1E8
100
AcDbEntity
8
1
62
256
6
ByLayer
370
13
48
1
60
0
100
AcDbEllipse
10
300.134745
20
22.685995
30
0
11
-0.028784775933618
21
0.549246244115055
31
0
210
0
220
0
230
1
40
0.995562
41
-1.75405589825451
42
-1.46607657167522
0
ELLIPSE
5
1E9
100
AcDbEntity
8
1
62
256
6
ByLayer
370
13
48
1
60
0
100
AcDbEllipse
10
298.259707
20
32.230635
30
0
11
-0.0041502446489173
21
0.149942573905326
31
0
210
0
220
0
230
1
40
0.09408
41
0.00232311668421395
42
1.57311944348227
0
ELLIPSE
5
1EA
100
AcDbEntity
8
1
62
256
6
ByLayer
370
13
48
1
60
0
100
AcDbEllipse
10
284.321872
20
11.493073
30
0
11
0.11775590154664
21
-2.2469164531978
31
0
210
0
220
0
230
1
40
0.995562
41
-2.41106345636188
42
-1.82037975281816
0
ELLIPSE
5
1EB
100
AcDbEntity
8
1
62
256
6
ByLayer
370
13
48
1
60
0
100
AcDbEllipse
10
298.674306
20
22.545711
30
0
11
0.148732254109675
21
-0.0194606420103554
31
0
210
0
220
0
230
1
40
0.01715
41
-2.85472889773309
42
-1.66347501627629
0
ELLIPSE
5
1EC
100
AcDbEntity
8
1
62
256
6
ByLayer
370
13
48
1
60
0
100
AcDbEllipse
10
283.060069
20
13.425271
30
0
11
0.0104671912485902
21
-0.199725906950915
31
0
210
0
220
0
230
1
40
0.995562
41
-1.46607657167303
42
-2.46857385051627E-05
0
ELLIPSE
5
1ED
100
AcDbEntity
8
1
62
256
6
ByLayer
370
13
48
1
60
0
100
AcDbEllipse
10
282.290657
20
21.459184
30
0
11
-0.0366351693700537
21
0.699040674328149
31
0
210
0
220
0
230
1
40
0.995562
41
1.38753675533546
42
1.67551608191448
0
ELLIPSE
5
1EE
100
AcDbEntity
8
1
62
256
6
ByLayer
370
13
48
1
60
0
100
AcDbEllipse
10
279.981797
20
21.429549
30
0
11
0.0366351693700677
21
-0.69904067432824
31
0
210
0
220
0
230
1
40
0.995562
41
-1.7540558982524
42
-1.46607657167312
0
ELLIPSE
5
1EF
100
AcDbEntity
8
1
62
256
6
ByLayer
370
13
48
1
60
0
100
AcDbEllipse
10
280.363346
20
30.536312
30
0
11
-0.0433887818431252
21
-0.261709360236279
31
0
210
0
220
0
230
1
40
0.938419
41
-2.83001826189888
42
-2.21164798400585
0
ELLIPSE
5
1F0
100
AcDbEntity
8
1
62
256
6
ByLayer
370
13
48
1
60
0
100
AcDbEllipse
10
297.821185
20
22.656113
30
0
11
0.0444855628065056
21
-0.848835104541334
31
0
210
0
220
0
230
1
40
0.995562
41
1.38753675533547
42
1.67551608191455
0
ELLIPSE
5
1F1
100
AcDbEntity
8
1
62
256
6
ByLayer
370
13
48
1
60
0
100
AcDbEllipse
10
298.508414
20
23.484307
30
0
11
0.465790010562265
21
-8.88780285931571
31
0
210
0
220
0
230
1
40
0.995562
41
3.06145142476403
42
3.11701412729161
0
ELLIPSE
5
1F2
100
AcDbEntity
8
1
62
256
6
ByLayer
370
13
48
1
60
0
100
AcDbEllipse
10
284.340668
20
11.494058
30
0
11
-0.10990550811017
21
2.09712202298462
31
0
210
0
220
0
230
1
40
0.995562
41
0.718961233331523
42
1.32121290077375
0
ELLIPSE
5
1F3
100
AcDbEntity
8
1
62
256
6
ByLayer
370
13
48
1
60
0
100
AcDbEllipse
10
296.228498
20
12.117073
30
0
11
0.104671912485902
21
-1.99725906950915
31
0
210
0
220
0
230
1
40
0.995562
41
2.05022935799096
42
2.70662419932148
0
ELLIPSE
5
1F4
100
AcDbEntity
8
1
62
256
6
ByLayer
370
13
48
1
60
0
100
AcDbEllipse
10
296.350872
20
12.123487
30
0
11
-1.52607791222186
21
-1.67412290957419
31
0
210
0
220
0
230
1
40
0.751206
41
2.583644245026
42
-2.7812547717001
0
ELLIPSE
5
1F5
100
AcDbEntity
8
1
62
256
6
ByLayer
370
13
48
1
60
0
100
AcDbEllipse
10
282.092616
20
11.895057
30
0
11
0.0065370786798103
21
-0.149857487641873
31
0
210
0
220
0
230
1
40
0.094105
41
-1.56997142650778
42
-0.0234595020633581
0
ELLIPSE
5
1F6
100
AcDbEntity
8
1
62
256
6
ByLayer
370
13
48
1
60
0
100
AcDbEllipse
10
282.581048
20
29.782717
30
0
11
0.00523359562429343
21
-0.0998629534754254
31
0
210
0
220
0
230
1
40
0.995562
41
1.38753675533831
42
-3.02814625220805
0
ELLIPSE
5
1F7
100
AcDbEntity
8
1
62
256
6
ByLayer
370
13
48
1
60
0
100
AcDbEllipse
10
295.672296
20
32.616057
30
0
11
-1.74911089440603
21
-1.53532677657522
31
0
210
0
220
0
230
1
40
0.758703
41
1.05561565777714
42
2.06133695402558
0
ELLIPSE
5
1F8
100
AcDbEntity
8
1
62
256
6
ByLayer
370
13
48
1
60
0
100
AcDbEllipse
10
295.775874
20
32.621485
30
0
11
0.11775590154664
21
-2.2469164531978
31
0
210
0
220
0
230
1
40
0.995562
41
0.730529197227915
42
1.32121290077163
0
ELLIPSE
5
1F9
100
AcDbEntity
8
1
62
256
6
ByLayer
370
13
48
1
60
0
100
AcDbEllipse
10
282.295356
20
21.45943
30
0
11
0.036635169370063
21
-0.699040674328149
31
0
210
0
220
0
230
1
40
0.995562
41
-1.75405589825433
42
-1.46607657167531
0
ELLIPSE
5
1FA
100
AcDbEntity
8
1
62
256
6
ByLayer
370
13
48
1
60
0
100
AcDbEllipse
10
298.714487
20
31.680006
30
0
11
-0.0287847759336168
21
0.549246244115032
31
0
210
0
220
0
230
1
40
0.995562
41
-1.46607657167512
42
-0.0801412288236562
0
ELLIPSE
5
1FB
100
AcDbEntity
8
1
62
256
6
ByLayer
370
13
48
1
60
0
100
AcDbEllipse
10
283.060069
20
13.425271
30
0
11
0.111182483439558
21
-0.166248174053769
31
0
210
0
220
0
230
1
40
0.080951
41
-1.97154906491257E-05
42
1.52262748697016
0
ELLIPSE
5
1FC
100
AcDbEntity
8
1
62
256
6
ByLayer
370
13
48
1
60
0
100
AcDbEllipse
10
282.813506
20
13.071774
30
0
11
0.00523359562429389
21
-0.0998629534754341
31
0
210
0
220
0
230
1
40
0.995562
41
0.71896123333144
42
1.67551608191735
0
ELLIPSE
5
1FD
100
AcDbEntity
8
1
62
256
6
ByLayer
370
13
48
1
60
0
100
AcDbEllipse
10
298.503715
20
23.484061
30
0
11
0.465790010562265
21
-8.88780285931571
31
0
210
0
220
0
230
1
40
0.995562
41
3.0614514247662
42
3.11701412729377
0
ELLIPSE
5
1FE
100
AcDbEntity
8
1
62
256
6
ByLayer
370
13
48
1
60
0
100
AcDbEllipse
10
297.321831
20
31.044755
30
0
11
0.00523359562429389
21
-0.0998629534754341
31
0
210
0
220
0
230
1
40
0.995562
41
-2.42263142026272
42
-1.46607657167701
0
ELLIPSE
5
1FF
100
AcDbEntity
8
1
62
256
6
ByLayer
370
13
48
1
60
0
100
AcDbEllipse
10
282.808807
20
13.071528
30
0
11
0.00523359562429389
21
-0.0998629534754341
31
0
210
0
220
0
230
1
40
0.995562
41
0.718961233328706
42
1.67551608191335
0
ELLIPSE
5
200
100
AcDbEntity
8
1
62
256
6
ByLayer
370
13
48
1
60
0
100
AcDbEllipse
10
282.869
20
29.68102
30
0
11
0.0104671912485902
21
-0.199725906950915
31
0
210
0
220
0
230
1
40
0.995562
41
-3.14157548478769
42
-1.754055898252
0
ELLIPSE
5
201
100
AcDbEntity
8
1
62
256
6
ByLayer
370
13
48
1
60
0
100
AcDbEllipse
10
297.55429
20
14.333812
30
0
11
0.00523359562429343
21
-0.0998629534754254
31
0
210
0
220
0
230
1
40
0.995562
41
-1.75405589825611
42
0.113446401377122
0
ELLIPSE
5
202
100
AcDbEntity
8
1
62
256
6
ByLayer
370
13
48
1
60
0
100
AcDbEllipse
10
282.090433
20
11.945009
30
0
11
0.0104671912485903
21
-0.199725906950916
31
0
210
0
220
0
230
1
40
0.995562
41
0.0115983514805167
42
1.32121290077195
0
ELLIPSE
5
203
100
AcDbEntity
8
1
62
256
6
ByLayer
370
13
48
1
60
0
100
AcDbEllipse
10
281.454869
20
21.326411
30
0
11
-0.148164061728345
21
-0.0233968120084623
31
0
210
0
220
0
230
1
40
0.009837
41
-3.04785814605994
42
-1.47706181926745
0
ELLIPSE
5
204
100
AcDbEntity
8
1
62
256
6
ByLayer
370
13
48
1
60
0
100
AcDbEllipse
10
299.667711
20
14.753076
30
0
11
-0.0433887818509758
21
-0.261709360233687
31
0
210
0
220
0
230
1
40
0.938419
41
0.311574391719167
42
1.60722929336269
0
ELLIPSE
5
205
100
AcDbEntity
8
1
62
256
6
ByLayer
370
13
48
1
60
0
100
AcDbEllipse
10
299.132933
20
13.546725
30
0
11
-0.0433887872584401
21
-0.261709357595743
31
0
210
0
220
0
230
1
40
0.938419
41
0.311574413038463
42
0.505433162728416
0
ELLIPSE
5
206
100
AcDbEntity
8
1
62
256
6
ByLayer
370
13
48
1
60
0
100
AcDbEllipse
10
298.743666
20
32.230522
30
0
11
0.00422000339726409
21
0.149940626820509
31
0
210
0
220
0
230
1
40
0.093806
41
0.00756732553555061
42
1.57836365232731
0
ELLIPSE
5
207
100
AcDbEntity
8
1
62
256
6
ByLayer
370
13
48
1
60
0
100
AcDbEllipse
10
300.69174
20
22.614818
30
0
11
0.148732254109675
21
-0.0194606420103554
31
0
210
0
220
0
230
1
40
0.01715
41
-1.66347501627629
42
-0.0926786894787881
0
ELLIPSE
5
208
100
AcDbEntity
8
1
62
256
6
ByLayer
370
13
48
1
60
0
100
AcDbEllipse
10
282.869
20
29.68102
30
0
11
0.198309672146233
21
-0.0259475226804738
31
0
210
0
220
0
230
1
40
0.01715
41
1.47811763731363
42
3.04891396409364
0
ELLIPSE
5
209
100
AcDbEntity
8
1
62
256
6
ByLayer
370
13
48
1
60
0
100
AcDbEllipse
10
279.436294
20
21.343391
30
0
11
-0.148164061728345
21
-0.0233968120084623
31
0
210
0
220
0
230
1
40
0.009837
41
-1.47706181926745
42
0.0937345075250187
0
ELLIPSE
5
20A
100
AcDbEntity
8
1
62
256
6
ByLayer
370
13
48
1
60
0
100
AcDbEllipse
10
297.075268
20
30.691258
30
0
11
-0.197552082304459
21
-0.0311957493446165
31
0
210
0
220
0
230
1
40
0.009837
41
1.66453083432223
42
-3.14150916126806
0
ELLIPSE
5
20B
100
AcDbEntity
8
1
62
256
6
ByLayer
370
13
48
1
60
0
100
AcDbEllipse
10
281.866233
20
11.885401
30
0
11
0.00415024464891698
21
-0.149942573905326
31
0
210
0
220
0
230
1
40
0.09408
41
-1.56847321010714
42
-0.0396676110912129
0
ELLIPSE
5
20C
100
AcDbEntity
8
1
62
256
6
ByLayer
370
13
48
1
60
0
100
AcDbEllipse
10
280.464737
20
29.377323
30
0
11
-0.148732254109673
21
0.0194606420103673
31
0
210
0
220
0
230
1
40
0.01715
41
0.265915951190101
42
1.47811763732457
0
ELLIPSE
5
20D
100
AcDbEntity
8
1
62
256
6
ByLayer
370
13
48
1
60
0
100
AcDbEllipse
10
298.333525
20
22.591721
30
0
11
0.198309672146233
21
-0.0259475226804738
31
0
210
0
220
0
230
1
40
0.01715
41
0.000128612804337637
42
1.47811763731419
0
ELLIPSE
5
20E
100
AcDbEntity
8
1
62
256
6
ByLayer
370
13
48
1
60
0
100
AcDbEllipse
10
281.803334
20
13.633977
30
0
11
-0.0915879234251415
21
1.74760168582051
31
0
210
0
220
0
230
1
40
0.995562
41
3.11701412729351
42
3.13286600732982
0
ELLIPSE
5
20F
100
AcDbEntity
8
1
62
256
6
ByLayer
370
13
48
1
60
0
100
AcDbEllipse
10
297.607711
20
14.394018
30
0
11
-0.042020430476976
21
-0.15904828268422
31
0
210
0
220
0
230
1
40
0.081731
41
-1.54456248518958
42
0.0262338417013966
0
ELLIPSE
5
210
100
AcDbEntity
8
1
62
256
6
ByLayer
370
13
48
1
60
0
100
AcDbEllipse
10
282.076336
20
11.94427
30
0
11
-0.00261679781214698
21
0.0499314767377304
31
0
210
0
220
0
230
1
40
0.995562
41
3.13286600733108
42
-1.82037975281813
0
ELLIPSE
5
211
100
AcDbEntity
8
1
62
256
6
ByLayer
370
13
48
1
60
0
100
AcDbEllipse
10
282.869
20
29.68102
30
0
11
-0.0347690313632471
21
-0.196954599992134
31
0
210
0
220
0
230
1
40
0.091713
41
1.59198601757173
42
-3.1204029628435
0
ELLIPSE
5
212
100
AcDbEntity
8
1
62
256
6
ByLayer
370
13
48
1
60
0
100
AcDbEllipse
10
295.79467
20
32.62247
30
0
11
-0.10990550811017
21
2.09712202298462
31
0
210
0
220
0
230
1
40
0.995562
41
-2.42263142026254
42
-1.82037975282034
0
ELLIPSE
5
213
100
AcDbEntity
8
1
62
256
6
ByLayer
370
13
48
1
60
0
100
AcDbEllipse
10
298.308508
20
30.48132
30
0
11
0.099438316861607
21
-1.89739611603369
31
0
210
0
220
0
230
1
40
0.995562
41
3.1170141272935
42
3.13286600732983
0
ELLIPSE
5
214
100
AcDbEntity
8
1
62
256
6
ByLayer
370
13
48
1
60
0
100
AcDbEllipse
10
297.607711
20
14.394018
30
0
11
-0.157457627801465
21
-0.0472734989191618
31
0
210
0
220
0
230
1
40
0.020424
41
-1.487281501305
42
-0.275077962953982
0
ELLIPSE
5
215
100
AcDbEntity
8
1
62
256
6
ByLayer
370
13
48
1
60
0
100
AcDbEllipse
10
284.335969
20
11.493812
30
0
11
-0.10990550811017
21
2.09712202298462
31
0
210
0
220
0
230
1
40
0.995562
41
0.718961233329387
42
1.3212129007716
0
ELLIPSE
5
216
100
AcDbEntity
8
1
62
256
6
ByLayer
370
13
48
1
60
0
100
AcDbEllipse
10
299.269388
20
31.766656
30
0
11
0.148164061728345
21
0.0233968120084578
31
0
210
0
220
0
230
1
40
0.009837
41
0.0937345075201889
42
1.66453083432272
0
ELLIPSE
5
217
100
AcDbEntity
8
1
62
256
6
ByLayer
370
13
48
1
60
0
100
AcDbEllipse
10
283.267781
20
31.965964
30
0
11
-0.104671912485876
21
1.99725906950915
31
0
210
0
220
0
230
1
40
0.995562
41
2.85175890392129
42
-3.14159265358768
0
ELLIPSE
5
218
100
AcDbEntity
8
1
62
256
6
ByLayer
370
13
48
1
60
0
100
AcDbEllipse
10
280.716819
20
31.277743
30
0
11
-0.300422843309342
21
0.183688194597151
31
0
210
0
220
0
230
1
40
0.473311
41
-1.92529218180482
42
-0.778612206220884
0
ELLIPSE
5
219
100
AcDbEntity
8
1
62
256
6
ByLayer
370
13
48
1
60
0
100
AcDbEllipse
10
282.151774
20
11.933874
30
0
11
0.0126644888425817
21
-0.241652842685476
31
0
210
0
220
0
230
1
40
0.995562
41
0.174532925201513
42
1.32121290077352
0
ELLIPSE
5
21A
100
AcDbEntity
8
1
62
256
6
ByLayer
370
13
48
1
60
0
100
AcDbEllipse
10
298.489618
20
23.483322
30
0
11
-0.457939617125708
21
8.73800842910253
31
0
210
0
220
0
230
1
40
0.995562
41
-0.0801412288236059
42
-0.0245785262960327
0
ELLIPSE
5
21B
100
AcDbEntity
8
1
62
256
6
ByLayer
370
13
48
1
60
0
100
AcDbEllipse
10
289.981192
20
22.053732
30
0
11
0.156043507061216
21
-2.97748748746713
31
0
210
0
220
0
230
1
40
0.995562
41
0
42
6.28318530717959
0
ELLIPSE
5
21C
100
AcDbEntity
8
1
62
256
6
ByLayer
370
13
48
1
60
0
100
AcDbEllipse
10
300.148842
20
22.686733
30
0
11
0.0366351693700677
21
-0.69904067432824
31
0
210
0
220
0
230
1
40
0.995562
41
1.38753675533532
42
1.67551608191455
0
ELLIPSE
5
21D
100
AcDbEntity
8
1
62
256
6
ByLayer
370
13
48
1
60
0
100
AcDbEllipse
10
281.608127
20
20.631236
30
0
11
-0.457939617125708
21
8.73800842910253
31
0
210
0
220
0
230
1
40
0.995562
41
3.06145142476619
42
3.11701412729376
0
ELLIPSE
5
21E
100
AcDbEntity
8
1
62
256
6
ByLayer
370
13
48
1
60
0
100
AcDbEllipse
10
281.893833
20
11.886385
30
0
11
0.0065370786798103
21
-0.149857487641873
31
0
210
0
220
0
230
1
40
0.094105
41
-1.56997142650778
42
0.000824900282309094
0
ELLIPSE
5
21F
100
AcDbEntity
8
1
62
256
6
ByLayer
370
13
48
1
60
0
100
AcDbEllipse
10
297.764536
20
32.171176
30
0
11
-0.279576450839742
21
-0.214084669590947
31
0
210
0
220
0
230
1
40
0.473311
41
-2.36298044736564
42
-1.21630047179027
0
ELLIPSE
5
220
100
AcDbEntity
8
1
62
256
6
ByLayer
370
13
48
1
60
0
100
AcDbEllipse
10
299.661203
20
14.738713
30
0
11
0.00785039343644245
21
-0.149794430213182
31
0
210
0
220
0
230
1
40
0.995562
41
0.113446401376518
42
1.38753675533547
0
ELLIPSE
5
221
100
AcDbEntity
8
1
62
256
6
ByLayer
370
13
48
1
60
0
100
AcDbEllipse
10
280.467627
20
29.363453
30
0
11
-0.0433887818806304
21
-0.261709360224053
31
0
210
0
220
0
230
1
40
0.938419
41
-2.83001826176178
42
-1.53436336010081
0
ELLIPSE
5
222
100
AcDbEntity
8
1
62
256
6
ByLayer
370
13
48
1
60
0
100
AcDbEllipse
10
282.314152
20
21.460416
30
0
11
-0.0261679781214663
21
0.499314767377234
31
0
210
0
220
0
230
1
40
0.995562
41
1.38753675533546
42
1.67551608191448
0
ELLIPSE
5
223
100
AcDbEntity
8
1
62
256
6
ByLayer
370
13
48
1
60
0
100
AcDbEllipse
10
281.801813
20
21.524808
30
0
11
-0.198309672146231
21
0.0259475226804897
31
0
210
0
220
0
230
1
40
0.01715
41
-1.66347501627617
42
-0.0926786894836711
0
ELLIPSE
5
224
100
AcDbEntity
8
1
62
256
6
ByLayer
370
13
48
1
60
0
100
AcDbEllipse
10
297.075268
20
30.691258
30
0
11
0.0104671912485902
21
-0.199725906950915
31
0
210
0
220
0
230
1
40
0.995562
41
3.14156912557004
42
-2.60644555906911
0
ELLIPSE
5
225
100
AcDbEntity
8
1
62
256
6
ByLayer
370
13
48
1
60
0
100
AcDbEllipse
10
298.232107
20
32.229651
30
0
11
-0.00653707867981071
21
0.149857487641873
31
0
210
0
220
0
230
1
40
0.094105
41
0.000824900294138256
42
1.57162122708202
0
ELLIPSE
5
226
100
AcDbEntity
8
1
62
256
6
ByLayer
370
13
48
1
60
0
100
AcDbEllipse
10
283.060069
20
13.425271
30
0
11
0.19755208230446
21
0.0311957493446105
31
0
210
0
220
0
230
1
40
0.009837
41
-3.04785814606084
42
-1.47706181926777
0
ELLIPSE
5
227
100
AcDbEntity
8
1
62
256
6
ByLayer
370
13
48
1
60
0
100
AcDbEllipse
10
282.095132
20
11.945255
30
0
11
0.0104671912485903
21
-0.199725906950916
31
0
210
0
220
0
230
1
40
0.995562
41
-0.00872664625727103
42
1.321212900774
0
ELLIPSE
5
228
100
AcDbEntity
8
1
62
256
6
ByLayer
370
13
48
1
60
0
100
AcDbEllipse
10
281.382273
20
11.885514
30
0
11
-0.00422000339726424
21
-0.149940626820509
31
0
210
0
220
0
230
1
40
0.093806
41
-1.56322900126248
42
-0.0736942388985364
0
ELLIPSE
5
229
100
AcDbEntity
8
1
62
256
6
ByLayer
370
13
48
1
60
0
100
AcDbEllipse
10
299.132933
20
13.546725
30
0
11
-0.0433887818566598
21
-0.261709360231873
31
0
210
0
220
0
230
1
40
0.938419
41
0.505433140737646
42
1.30197962217593
0
ELLIPSE
5
22A
100
AcDbEntity
8
1
62
256
6
ByLayer
370
13
48
1
60
0
100
AcDbEllipse
10
295.984973
20
32.632443
30
0
11
-2.310696099763
21
-1.7694078384059
31
0
210
0
220
0
230
1
40
0.47331
41
1.89963414396771
42
1.92529200967046
0
ELLIPSE
5
22B
100
AcDbEntity
8
1
62
256
6
ByLayer
370
13
48
1
60
0
100
AcDbEllipse
10
281.626923
20
20.632221
30
0
11
0.465790010562265
21
-8.88780285931571
31
0
210
0
220
0
230
1
40
0.995562
41
-0.0801412288214654
42
-0.0245785262938962
0
ELLIPSE
5
22C
100
AcDbEntity
8
1
62
256
6
ByLayer
370
13
48
1
60
0
100
AcDbEllipse
10
284.340668
20
11.494058
30
0
11
-0.104671912485876
21
1.99725906950915
31
0
210
0
220
0
230
1
40
0.995562
41
0
42
1.32121290077371
0
ELLIPSE
5
22D
100
AcDbEntity
8
1
62
256
6
ByLayer
370
13
48
1
60
0
100
AcDbEllipse
10
298.040205
20
32.171274
30
0
11
0.0104671912485903
21
-0.199725906950916
31
0
210
0
220
0
230
1
40
0.995562
41
3.13286600732851
42
-1.82037975282019
0
ELLIPSE
5
22E
100
AcDbEntity
8
1
62
256
6
ByLayer
370
13
48
1
60
0
100
AcDbEllipse
10
298.331622
20
22.7352
30
0
11
0.19755208230446
21
0.0311957493446105
31
0
210
0
220
0
230
1
40
0.009837
41
-1.47706181926757
42
8.34923108996331E-05
0
ELLIPSE
5
22F
100
AcDbEntity
8
1
62
256
6
ByLayer
370
13
48
1
60
0
100
AcDbEllipse
10
300.153541
20
22.68698
30
0
11
0.0366351693700677
21
-0.69904067432824
31
0
210
0
220
0
230
1
40
0.995562
41
1.38753675533318
42
1.67551608191234
0
ELLIPSE
5
230
100
AcDbEntity
8
1
62
256
6
ByLayer
370
13
48
1
60
0
100
AcDbEllipse
10
281.883294
20
22.018683
30
0
11
0.162241464353148
21
-3.09575155773918
31
0
210
0
220
0
230
1
40
0.995562
41
-2.23430559079018
42
-1.46607657167523
0
ELLIPSE
5
231
100
AcDbEntity
8
1
62
256
6
ByLayer
370
13
48
1
60
0
100
AcDbEllipse
10
236.075332
20
0
30
0
11
-335.682878602337
21
0.158172031863835
31
0
210
0
220
0
230
1
40
0.094396
41
-1.75220240269219
42
-1.70456073715667
0
ELLIPSE
5
232
100
AcDbEntity
8
1
62
256
6
ByLayer
370
13
48
1
60
0
100
AcDbEllipse
10
294.032672
20
-8.940055
30
0
11
-6.03298068031629
21
-0.0286123131414422
31
0
210
0
220
0
230
1
40
0.989944
41
3.00670530025555
42
-2.99005666262732
0
ELLIPSE
5
233
100
AcDbEntity
8
1
62
256
6
ByLayer
370
13
48
1
60
0
100
AcDbEllipse
10
298.676061
20
13.547129
30
0
11
-0.0180554823050762
21
1.00041956832821
31
0
210
0
220
0
230
1
40
0.105202
41
-3.13798134999556
42
-2.49127095406793
0
ELLIPSE
5
234
100
AcDbEntity
8
1
62
256
6
ByLayer
370
13
48
1
60
0
100
AcDbEllipse
10
281.090465
20
12.825781
30
0
11
-4.04277875715292
21
-0.708917705483593
31
0
210
0
220
0
230
1
40
0.014774
41
-3.02036303300554
42
-2.66133983534685
0
ELLIPSE
5
235
100
AcDbEntity
8
1
62
256
6
ByLayer
370
13
48
1
60
0
100
AcDbEllipse
10
299.175075
20
0.135224
30
0
11
-0.0101923142963721
21
0.505549834272901
31
0
210
0
220
0
230
1
40
0.102474
41
-0.110711429532806
42
0.297410813241966
0
ELLIPSE
5
236
100
AcDbEntity
8
1
62
256
6
ByLayer
370
13
48
1
60
0
100
AcDbEllipse
10
301.839603
20
0
30
0
11
-3.88583235525452
21
-31.6843267811005
31
0
210
0
220
0
230
1
40
0.115402
41
-1.32407339488263
42
-0.0783694788786529
0
ELLIPSE
5
237
100
AcDbEntity
8
1
62
256
6
ByLayer
370
13
48
1
60
0
100
AcDbEllipse
10
281.526698
20
0
30
0
11
-1.67562299816173
21
31.687105299217
31
0
210
0
220
0
230
1
40
0.094396
41
-0.0971302779493886
42
-0.00499218624706078
0
ELLIPSE
5
238
100
AcDbEntity
8
1
62
256
6
ByLayer
370
13
48
1
60
0
100
AcDbEllipse
10
299.279229
20
0.148192
30
0
11
-0.0203846285949102
21
1.01109966865893
31
0
210
0
220
0
230
1
40
0.102474
41
-0.110711429526339
42
1.07242465692853
0
ELLIPSE
5
239
100
AcDbEntity
8
1
62
256
6
ByLayer
370
13
48
1
60
0
100
AcDbEllipse
10
312.688023
20
-0.000103
30
0
11
-335.683429789888
21
0.158182618551088
31
0
210
0
220
0
230
1
40
0.094396
41
-1.4736658795674
42
-1.46585122387502
0
ELLIPSE
5
23A
100
AcDbEntity
8
1
62
256
6
ByLayer
370
13
48
1
60
0
100
AcDbEllipse
10
292.067166
20
16.805712
30
0
11
-1.97200939951954
21
-2.45265018938768
31
0
210
0
220
0
230
1
40
0.965978
41
0.712391850454798
42
1.04314259823443
0
ELLIPSE
5
23B
100
AcDbEntity
8
1
62
256
6
ByLayer
370
13
48
1
60
0
100
AcDbEllipse
10
289.798362
20
-8.006145
30
0
11
2
21
0
31
0
210
0
220
0
230
1
40
0.995396
41
0.413414154651218
42
2.73024053461023
0
ELLIPSE
5
23C
100
AcDbEntity
8
1
62
256
6
ByLayer
370
13
48
1
60
0
100
AcDbEllipse
10
302.373249
20
2.816869
30
0
11
-5.80230594174847
21
-2.07140150265863
31
0
210
0
220
0
230
1
40
0.877502
41
-0.38161799353605
42
-0.234065923451425
0
ELLIPSE
5
23D
100
AcDbEntity
8
1
62
256
6
ByLayer
370
13
48
1
60
0
100
AcDbEllipse
10
281.226214
20
14.364995
30
0
11
0.162241464353148
21
-3.09575155773918
31
0
210
0
220
0
230
1
40
0.995562
41
0.0839997461782125
42
1.07850402440023
0
ELLIPSE
5
23E
100
AcDbEntity
8
1
62
256
6
ByLayer
370
13
48
1
60
0
100
AcDbEllipse
10
289.798362
20
-8.475789
30
0
11
2
21
0
31
0
210
0
220
0
230
1
40
0.995396
41
2.35324927666052
42
2.58798498841173
0
ELLIPSE
5
23F
100
AcDbEntity
8
1
62
256
6
ByLayer
370
13
48
1
60
0
100
AcDbEllipse
10
285.175737
20
13.039881
30
0
11
-0.0261679781214689
21
0.499314767377287
31
0
210
0
220
0
230
1
40
0.995562
41
0.927295216955951
42
1.13183444118506
0
ELLIPSE
5
240
100
AcDbEntity
8
1
62
256
6
ByLayer
370
13
48
1
60
0
100
AcDbEllipse
10
315.928015
20
18.092822
30
0
11
-25.3476875796179
21
-4.44669922810177
31
0
210
0
220
0
230
1
40
0.014717
41
0.44900552246068
42
0.453125303930824
0
ELLIPSE
5
241
100
AcDbEntity
8
1
62
256
6
ByLayer
370
13
48
1
60
0
100
AcDbEllipse
10
289.798362
20
-8.006145
30
0
11
-2.1
21
2.12234201567296E-15
31
0
210
0
220
0
230
1
40
0.995396
41
-2.70108254911701
42
-0.44816792832451
0
ELLIPSE
5
242
100
AcDbEntity
8
1
62
256
6
ByLayer
370
13
48
1
60
0
100
AcDbEllipse
10
273
20
7.552588
30
0
11
-5.759281503421
21
2.12158975233026
31
0
210
0
220
0
230
1
40
0.793019
41
1.44599348250638
42
1.78668679591744
0
ELLIPSE
5
243
100
AcDbEntity
8
1
62
256
6
ByLayer
370
13
48
1
60
0
100
AcDbEllipse
10
299.24949
20
-2.531801
30
0
11
-2.62082967162521
21
4.02474819473906
31
0
210
0
220
0
230
1
40
0.411373
41
-0.975316553758771
42
-0.838969917432259
0
ELLIPSE
5
244
100
AcDbEntity
8
1
62
256
6
ByLayer
370
13
48
1
60
0
100
AcDbEllipse
10
296.60901
20
13.639073
30
0
11
-0.0261679781214691
21
0.499314767377289
31
0
210
0
220
0
230
1
40
0.995562
41
-0.998377754701987
42
-0.927295218001445
0
ELLIPSE
5
245
100
AcDbEntity
8
1
62
256
6
ByLayer
370
13
48
1
60
0
100
AcDbEllipse
10
288.152433
20
12.995609
30
0
11
0.0523359562429511
21
-0.998629534754574
31
0
210
0
220
0
230
1
40
0.094108
41
-1.5707963267949
42
6.04023237777957E-13
0
ELLIPSE
5
246
100
AcDbEntity
8
1
62
256
6
ByLayer
370
13
48
1
60
0
100
AcDbEllipse
10
299.515532
20
15.744074
30
0
11
0.162241464353148
21
-3.09575155773918
31
0
210
0
220
0
230
1
40
0.995562
41
-0.998377754702052
42
-0.80439336702769
0
ELLIPSE
5
247
100
AcDbEntity
8
1
62
256
6
ByLayer
370
13
48
1
60
0
100
AcDbEllipse
10
281.179224
20
14.362532
30
0
11
-0.136073486231638
21
2.59643679036189
31
0
210
0
220
0
230
1
40
0.995562
41
2.40144888609818
42
2.9799801399012
0
ELLIPSE
5
248
100
AcDbEntity
8
1
62
256
6
ByLayer
370
13
48
1
60
0
100
AcDbEllipse
10
281.179224
20
14.362532
30
0
11
-0.136073486231638
21
2.59643679036189
31
0
210
0
220
0
230
1
40
0.995562
41
-2.68543658663368
42
-2.07675099364108
0
ELLIPSE
5
249
100
AcDbEntity
8
1
62
256
6
ByLayer
370
13
48
1
60
0
100
AcDbEllipse
10
289.541145
20
13.268662
30
0
11
-4.04277875990362
21
-0.708917705979196
31
0
210
0
220
0
230
1
40
0.014774
41
-3.02036303265767
42
-2.68601592135718
0
ELLIPSE
5
24A
100
AcDbEntity
8
1
62
256
6
ByLayer
370
13
48
1
60
0
100
AcDbEllipse
10
281.424245
20
20.651699
30
0
11
-0.471023606186443
21
8.98766581279117
31
0
210
0
220
0
230
1
40
0.995562
41
-2.92946901796111
42
-2.82366807128869
0
ELLIPSE
5
24B
100
AcDbEntity
8
1
62
256
6
ByLayer
370
13
48
1
60
0
100
AcDbEllipse
10
299.130757
20
0
30
0
11
-5.35656677880573
21
31.6840646045993
31
0
210
0
220
0
230
1
40
0.08711
41
1.61388498572324
42
1.73207387601927
0
ELLIPSE
5
24C
100
AcDbEntity
8
1
62
256
6
ByLayer
370
13
48
1
60
0
100
AcDbEllipse
10
1008.761917
20
0
30
0
11
-1075.64373355803
21
22.5055308346761
31
0
210
0
220
0
230
1
40
0.020738
41
0.823740244486028
42
0.847644890576317
0
ELLIPSE
5
24D
100
AcDbEntity
8
1
62
256
6
ByLayer
370
13
48
1
60
0
100
AcDbEllipse
10
273
20
9.258724
30
0
11
-4
21
4.04255622032945E-15
31
0
210
0
220
0
230
1
40
0.761416
41
-3.11765704549331
42
-1.70218771441589
0
ELLIPSE
5
24E
100
AcDbEntity
8
1
62
256
6
ByLayer
370
13
48
1
60
0
100
AcDbEllipse
10
304.713316
20
0.703181
30
0
11
-6.03298074679236
21
-0.0286126458625486
31
0
210
0
220
0
230
1
40
0.989944
41
0.0306318527473028
42
0.151535935563621
0
ELLIPSE
5
24F
100
AcDbEntity
8
1
62
256
6
ByLayer
370
13
48
1
60
0
100
AcDbEllipse
10
299.150332
20
15.724935
30
0
11
-0.0937074030883562
21
3.09913319836578
31
0
210
0
220
0
230
1
40
0.525591
41
2.83885355684044
42
3.11592561686536
0
ELLIPSE
5
250
100
AcDbEntity
8
1
62
256
6
ByLayer
370
13
48
1
60
0
100
AcDbEllipse
10
297.825929
20
-19.82283
30
0
11
-0.2981615695625
21
-2.49771371687087
31
0
210
0
220
0
230
1
40
0.115639
41
0
42
6.28318530717959
0
ELLIPSE
5
251
100
AcDbEntity
8
1
62
256
6
ByLayer
370
13
48
1
60
0
100
AcDbEllipse
10
299.440778
20
12.999316
30
0
11
-0.0190934195946093
21
-0.501606840107838
31
0
210
0
220
0
230
1
40
0.197189
41
-0.688891549972792
42
-0.331191944131871
0
ELLIPSE
5
252
100
AcDbEntity
8
1
62
256
6
ByLayer
370
13
48
1
60
0
100
AcDbEllipse
10
280.847889
20
14.345168
30
0
11
-2.74310165163456
21
2.20554168965786
31
0
210
0
220
0
230
1
40
0.772244
41
3.13694524738674
42
-2.77548047985745
0
ELLIPSE
5
253
100
AcDbEntity
8
1
62
256
6
ByLayer
370
13
48
1
60
0
100
AcDbEllipse
10
299.295905
20
11.964255
30
0
11
-0.00902774115827875
21
0.500209784289092
31
0
210
0
220
0
230
1
40
0.105202
41
1.92347348079512
42
-2.7889154995991
0
ELLIPSE
5
254
100
AcDbEntity
8
1
62
256
6
ByLayer
370
13
48
1
60
0
100
AcDbEllipse
10
315.964307
20
0
30
0
11
-62.3471813897424
21
25.6360627222139
31
0
210
0
220
0
230
1
40
0.289773
41
0.795670889698356
42
0.932885870254722
0
ELLIPSE
5
255
100
AcDbEntity
8
1
62
256
6
ByLayer
370
13
48
1
60
0
100
AcDbEllipse
10
281.518224
20
20.656625
30
0
11
0.523359562429511
21
-9.98629534754574
31
0
210
0
220
0
230
1
40
0.995562
41
-5.96902202841387E-07
42
0.317924582301106
0
ELLIPSE
5
256
100
AcDbEntity
8
1
62
256
6
ByLayer
370
13
48
1
60
0
100
AcDbEllipse
10
284.85448
20
13.023045
30
0
11
-0.318066032234273
21
-0.395588740173573
31
0
210
0
220
0
230
1
40
0.965978
41
-2.06962855870243
42
-1.29736636181231
0
ELLIPSE
5
257
100
AcDbEntity
8
1
62
256
6
ByLayer
370
13
48
1
60
0
100
AcDbEllipse
10
288.728129
20
2.010684
30
0
11
-0.523359562429381
21
9.98629534754575
31
0
210
0
220
0
230
1
40
0.995562
41
0
42
0.317924582301102
0
ELLIPSE
5
258
100
AcDbEntity
8
1
62
256
6
ByLayer
370
13
48
1
60
0
100
AcDbEllipse
10
284.762681
20
12.265951
30
0
11
0.363113722374463
21
-0.931744828063651
31
0
210
0
220
0
230
1
40
0.089392
41
-1.60033673645362
42
-0.0295404096579599
0
ELLIPSE
5
259
100
AcDbEntity
8
1
62
256
6
ByLayer
370
13
48
1
60
0
100
AcDbEllipse
10
312.687915
20
-1E-06
30
0
11
-332.239983928781
21
0.156549905359851
31
0
210
0
220
0
230
1
40
0.094396
41
-1.45567516622044
42
-1.42991719824403
0
ELLIPSE
5
25A
100
AcDbEntity
8
1
62
256
6
ByLayer
370
13
48
1
60
0
100
AcDbEllipse
10
281.424245
20
20.651699
30
0
11
-0.471023606186443
21
8.98766581279117
31
0
210
0
220
0
230
1
40
0.995562
41
2.79252680319578
42
2.96271820098503
0
ELLIPSE
5
25B
100
AcDbEntity
8
1
62
256
6
ByLayer
370
13
48
1
60
0
100
AcDbEllipse
10
283.516814
20
12.639073
30
0
11
1.49975373857913
21
0.0271794707662022
31
0
210
0
220
0
230
1
40
0.340502
41
-1.53279213818768
42
-1.5122259603706
0
ELLIPSE
5
25C
100
AcDbEntity
8
1
62
256
6
ByLayer
370
13
48
1
60
0
100
AcDbEllipse
10
298.956018
20
-18.163808
30
0
11
-0.0645822969830173
21
-0.516093807636315
31
0
210
0
220
0
230
1
40
0.111912
41
-1.63334115112804
42
-0.0625448243177315
0
ELLIPSE
5
25D
100
AcDbEntity
8
1
62
256
6
ByLayer
370
13
48
1
60
0
100
AcDbEllipse
10
281.855876
20
14.397994
30
0
11
0.162241464353148
21
-3.09575155773918
31
0
210
0
220
0
230
1
40
0.995562
41
0.615809199294415
42
1.13183444118514
0
ELLIPSE
5
25E
100
AcDbEntity
8
1
62
256
6
ByLayer
370
13
48
1
60
0
100
AcDbEllipse
10
279.095321
20
16.695215
30
0
11
-0.0261679781214691
21
0.499314767377288
31
0
210
0
220
0
230
1
40
0.995562
41
-2.31498441521949
42
-1.46607657167521
0
ELLIPSE
5
25F
100
AcDbEntity
8
1
62
256
6
ByLayer
370
13
48
1
60
0
100
AcDbEllipse
10
278.900521
20
12.050597
30
0
11
-0.293740802135514
21
-0.955885108766104
31
0
210
0
220
0
230
1
40
0.088433
41
-1.53847716189229
42
-7.17550755061021E-06
0
ELLIPSE
5
260
100
AcDbEntity
8
1
62
256
6
ByLayer
370
13
48
1
60
0
100
AcDbEllipse
10
273
20
2.545987
30
0
11
-0.604706974762741
21
16.6641566809445
31
0
210
0
220
0
230
1
40
0.358221
41
-0.538974898634817
42
-0.357601555041776
0
ELLIPSE
5
261
100
AcDbEntity
8
1
62
256
6
ByLayer
370
13
48
1
60
0
100
AcDbEllipse
10
288.634149
20
2.005758
30
0
11
0.575695518672461
21
-10.9849248823003
31
0
210
0
220
0
230
1
40
0.995562
41
3.14159265358979
42
-2.82366807128869
0
ELLIPSE
5
262
100
AcDbEntity
8
1
62
256
6
ByLayer
370
13
48
1
60
0
100
AcDbEllipse
10
281.855876
20
14.397994
30
0
11
0.162241464353148
21
-3.09575155773918
31
0
210
0
220
0
230
1
40
0.995562
41
-2.31498441521961
42
-0.582560016270477
0
ELLIPSE
5
263
100
AcDbEntity
8
1
62
256
6
ByLayer
370
13
48
1
60
0
100
AcDbEllipse
10
281.586953
20
14.383901
30
0
11
-1.97200939179079
21
-2.45265019261737
31
0
210
0
220
0
230
1
40
0.965978
41
1.55736417291307
42
1.8442262891773
0
POINT
5
70
100
AcDbEntity
8
1
62
256
6
ByLayer
370
18
48
1
60
0
100
AcDbPoint
10
0
20
0
30
0
39
0
210
0
220
0
230
1
50
360
0
POINT
5
72
100
AcDbEntity
8
80
62
256
6
ByLayer
370
18
48
1
60
0
100
AcDbPoint
10
0
20
0
30
0
39
0
210
0
220
0
230
1
50
360
0
POINT
5
74
100
AcDbEntity
8
81
62
256
6
ByLayer
370
18
48
1
60
0
100
AcDbPoint
10
301
20
0
30
0
39
0
210
0
220
0
230
1
50
360
0
POINT
5
76
100
AcDbEntity
8
1
62
256
6
ByLayer
370
18
48
1
60
1
100
AcDbPoint
10
0
20
-31.75
30
0
39
0
210
0
220
0
230
1
50
360
0
POINT
5
77
100
AcDbEntity
8
1
62
256
6
ByLayer
370
18
48
1
60
1
100
AcDbPoint
10
301
20
-32.5
30
0
39
0
210
0
220
0
230
1
50
360
0
POINT
5
78
100
AcDbEntity
8
1
62
256
6
ByLayer
370
18
48
1
60
1
100
AcDbPoint
10
-80
20
-25
30
0
39
0
210
0
220
0
230
1
50
360
0
POINT
5
79
100
AcDbEntity
8
1
62
256
6
ByLayer
370
18
48
1
60
1
100
AcDbPoint
10
0
20
-31.75
30
0
39
0
210
0
220
0
230
1
50
360
0
POINT
5
7A
100
AcDbEntity
8
1
62
256
6
ByLayer
370
18
48
1
60
1
100
AcDbPoint
10
301
20
-32.5
30
0
39
0
210
0
220
0
230
1
50
360
0
POINT
5
7B
100
AcDbEntity
8
1
62
256
6
ByLayer
370
18
48
1
60
1
100
AcDbPoint
10
6.4228
20
-31.75
30
0
39
0
210
0
220
0
230
1
50
360
0
POINT
5
7C
100
AcDbEntity
8
1
62
256
6
ByLayer
370
18
48
1
60
1
100
AcDbPoint
10
36
20
-32.5
30
0
39
0
210
0
220
0
230
1
50
360
0
POINT
5
7D
100
AcDbEntity
8
1
62
256
6
ByLayer
370
18
48
1
60
1
100
AcDbPoint
10
301
20
-32.5
30
0
39
0
210
0
220
0
230
1
50
360
0
POINT
5
7E
100
AcDbEntity
8
1
62
256
6
ByLayer
370
18
48
1
60
1
100
AcDbPoint
10
299.4109
20
-16.25
30
0
39
0
210
0
220
0
230
1
50
360
0
SPLINE
5
264
100
AcDbEntity
8
SK1
62
256
6
ByLayer
370
13
48
1
60
0
100
AcDbSpline
70
4
71
3
72
8
73
4
40
0
40
0
40
0
40
0
40
1
40
1
40
1
40
1
41
1
10
-78.5162221138915
20
-10.4258292340309
30
0
41
1
10
-78.5439104435588
20
-10.5074660802026
30
0
41
1
10
-78.5718376779285
20
-10.5890166857158
30
0
41
1
10
-78.5999993841625
20
-10.6704826507519
30
0
0
SPLINE
5
265
100
AcDbEntity
8
SK1
62
256
6
ByLayer
370
13
48
1
60
0
100
AcDbSpline
70
4
71
3
72
8
73
4
40
0
40
0
40
0
40
0
40
1
40
1
40
1
40
1
41
1
10
-78.5999993841624
20
10.6704826507521
30
0
41
1
10
-78.571842816211
20
10.5890315497
30
0
41
1
10
-78.5439155289718
20
10.5074810741399
30
0
41
1
10
-78.5162221138982
20
10.4258292340508
30
0
0
SPLINE
5
266
100
AcDbEntity
8
SK1
62
256
6
ByLayer
370
13
48
1
60
0
100
AcDbSpline
70
4
71
3
72
10
73
6
40
0
40
0
40
0
40
0
40
0.5
40
0.5
40
1
40
1
40
1
40
1
41
1
10
-80
20
8.0540176309716
30
0
41
1
10
-79.85176739512
20
8.49565927489135
30
0
41
1
10
-79.6935189817436
20
8.93491944720282
30
0
41
1
10
-79.3587118244384
20
9.80908612108971
30
0
41
1
10
-79.1828143207057
20
10.2422333475178
30
0
41
1
10
-79
20
10.6704826507521
30
0
0
SPLINE
5
267
100
AcDbEntity
8
SK1
62
256
6
ByLayer
370
13
48
1
60
0
100
AcDbSpline
70
4
71
3
72
18
73
14
40
0
40
0
40
0
40
0
40
0.124999999999994
40
0.124999999999994
40
0.249999999999988
40
0.249999999999988
40
0.374999999999981
40
0.374999999999981
40
0.499999999999975
40
0.499999999999975
40
0.749999999999988
40
0.749999999999988
40
1
40
1
40
1
40
1
41
1
10
-77.6338131992802
20
-9.80675144594582
30
0
41
1
10
-77.6747633651724
20
-9.77128805754603
30
0
41
1
10
-77.7208435774768
20
-9.74055738411698
30
0
41
1
10
-77.8223424340443
20
-9.70060949890774
30
0
41
1
10
-77.877225313581
20
-9.69229190808377
30
0
41
1
10
-77.9860246497556
20
-9.70510854686367
30
0
41
1
10
-78.0378757025226
20
-9.72573581195073
30
0
41
1
10
-78.1301404068999
20
-9.78251362708679
30
0
41
1
10
-78.1717204994047
20
-9.81892837813635
30
0
41
1
10
-78.2826414870913
20
-9.93741839107241
30
0
41
1
10
-78.3411195831128
20
-10.0300646017818
30
0
41
1
10
-78.4407354299096
20
-10.2228684878255
30
0
41
1
10
-78.4816839215995
20
-10.3239961106508
30
0
41
1
10
-78.5162221138915
20
-10.4258292340309
30
0
0
SPLINE
5
268
100
AcDbEntity
8
SK1
62
256
6
ByLayer
370
13
48
1
60
0
100
AcDbSpline
70
4
71
3
72
74
73
70
40
0
40
0
40
0
40
0
40
0.0156249999999999
40
0.0156249999999999
40
0.0234374999999999
40
0.0234374999999999
40
0.0312499999999998
40
0.0312499999999998
40
0.0468749999999997
40
0.0468749999999997
40
0.0624999999999996
40
0.0624999999999996
40
0.0781249999999995
40
0.0781249999999995
40
0.0937499999999994
40
0.0937499999999994
40
0.124999999999999
40
0.124999999999999
40
0.140624999999999
40
0.140624999999999
40
0.156249999999999
40
0.156249999999999
40
0.187499999999999
40
0.187499999999999
40
0.249999999999999
40
0.249999999999999
40
0.281249999999999
40
0.281249999999999
40
0.312499999999999
40
0.312499999999999
40
0.374999999999999
40
0.374999999999999
40
0.437499999999999
40
0.437499999999999
40
0.499999999999999
40
0.499999999999999
40
0.562499999999999
40
0.562499999999999
40
0.593749999999999
40
0.593749999999999
40
0.624999999999999
40
0.624999999999999
40
0.687499999999999
40
0.687499999999999
40
0.749999999999999
40
0.749999999999999
40
0.781249999999999
40
0.781249999999999
40
0.812499999999999
40
0.812499999999999
40
0.84375
40
0.84375
40
0.875
40
0.875
40
0.90625
40
0.90625
40
0.9375
40
0.9375
40
0.9453125
40
0.9453125
40
0.953125
40
0.953125
40
0.96875
40
0.96875
40
0.984375
40
0.984375
40
0.9921875
40
0.9921875
40
1
40
1
40
1
40
1
41
1
10
-6.50000000009537
20
10.670482650752
30
0
41
1
10
-6.37048388891068
20
10.6704826507608
30
0
41
1
10
-6.24446776465052
20
10.6528697557375
30
0
41
1
10
-6.06010517952292
20
10.6029156441243
30
0
41
1
10
-5.99927461449792
20
10.5821925812253
30
0
41
1
10
-5.88223506583904
20
10.5345394314587
30
0
41
1
10
-5.82559748012396
20
10.5075199899682
30
0
41
1
10
-5.66065779452136
20
10.417975973631
30
0
41
1
10
-5.55712762892128
20
10.3466184036529
30
0
41
1
10
-5.36736536971405
20
10.1913586531549
30
0
41
1
10
-5.27997153671004
20
10.1068512703449
30
0
41
1
10
-5.11666218977227
20
9.92704332772249
30
0
41
1
10
-5.04055810401205
20
9.83130794393438
30
0
41
1
10
-4.90046448763793
20
9.63491798753748
30
0
41
1
10
-4.83603834410378
20
9.5338271584321
30
0
41
1
10
-4.65598112089407
20
9.22347109153861
30
0
41
1
10
-4.55339976152399
20
9.00719880738419
30
0
41
1
10
-4.41750582616754
20
8.67228763084432
30
0
41
1
10
-4.37530268897782
20
8.55891791867154
30
0
41
1
10
-4.29686000058592
20
8.33134323345735
30
0
41
1
10
-4.26049265592715
20
8.21682554312125
30
0
41
1
10
-4.1585724311424
20
7.87130398108656
30
0
41
1
10
-4.10013853486055
20
7.63834185023578
30
0
41
1
10
-3.94578977994675
20
6.93282891322849
30
0
41
1
10
-3.87048459563749
20
6.45370790232082
30
0
41
1
10
-3.78175631324949
20
5.72457369042988
30
0
41
1
10
-3.75634074966133
20
5.47976683985843
30
0
41
1
10
-3.7120067271199
20
4.98691048522593
30
0
41
1
10
-3.69308648223611
20
4.73862820397792
30
0
41
1
10
-3.64424139462162
20
3.99444565639502
30
0
41
1
10
-3.62191393829291
20
3.49753056604814
30
0
41
1
10
-3.58913059568964
20
2.50225576491911
30
0
41
1
10
-3.57872244966512
20
2.00389538867495
30
0
41
1
10
-3.56529013292472
20
1.00580199142325
30
0
41
1
10
-3.56228022077386
20
0.506068785393097
30
0
41
1
10
-3.56223334097642
20
-0.494754197166372
30
0
41
1
10
-3.56519357916225
20
-0.995843898846687
30
0
41
1
10
-3.57526735092097
20
-1.74852495498422
30
0
41
1
10
-3.57958751937886
20
-1.99959349362723
30
0
41
1
10
-3.59064705878916
20
-2.50209075145548
30
0
41
1
10
-3.59739709579894
20
-2.75385038007658
30
0
41
1
10
-3.62227132036486
20
-3.50710000839359
30
0
41
1
10
-3.64484459181701
20
-4.00580366741292
30
0
41
1
10
-3.71010606722081
20
-4.99571816607531
30
0
41
1
10
-3.75268745857275
20
-5.48693664959626
30
0
41
1
10
-3.84180186701059
20
-6.21737273914593
30
0
41
1
10
-3.87576317934641
20
-6.45978205407951
30
0
41
1
10
-3.95487127334194
20
-6.94225537606115
30
0
41
1
10
-3.99994180570394
20
-7.18182085753699
30
0
41
1
10
-4.10416683371689
20
-7.65518824089065
30
0
41
1
10
-4.16332953330694
20
-7.88926779084468
30
0
41
1
10
-4.30073575990994
20
-8.35126379883343
30
0
41
1
10
-4.37869000461005
20
-8.57819056735369
30
0
41
1
10
-4.55882768232694
20
-9.01890405609001
30
0
41
1
10
-4.66096064418579
20
-9.23316248710555
30
0
41
1
10
-4.9012460930548
20
-9.6450662502447
30
0
41
1
10
-5.04044720826909
20
-9.84412891865716
30
0
41
1
10
-5.24436673816899
20
-10.0673788314332
30
0
41
1
10
-5.28672193295479
20
-10.1108128419076
30
0
41
1
10
-5.37506018490618
20
-10.1949099292502
30
0
41
1
10
-5.42113974977889
20
-10.2356293471388
30
0
41
1
10
-5.56352602684599
20
-10.3512474104623
30
0
41
1
10
-5.66447995477702
20
-10.4202823836625
30
0
41
1
10
-5.88197798496884
20
-10.5378913469096
30
0
41
1
10
-6.00024980803649
20
-10.5867345345007
30
0
41
1
10
-6.18283559041274
20
-10.6361515407661
30
0
41
1
10
-6.24478714200797
20
-10.6488401790656
30
0
41
1
10
-6.37105473569075
20
-10.6660269221224
30
0
41
1
10
-6.43557318110055
20
-10.6704826507564
30
0
41
1
10
-6.50000000009538
20
-10.6704826507521
30
0
0
SPLINE
5
269
100
AcDbEntity
8
SK1
62
256
6
ByLayer
370
13
48
1
60
0
100
AcDbSpline
70
4
71
3
72
8
73
4
40
0
40
0
40
0
40
0
40
1
40
1
40
1
40
1
41
1
10
-79
20
-10.6704826507519
30
0
41
1
10
-79.3663118043068
20
-9.81238370995035
30
0
41
1
10
-79.7021882940637
20
-8.9413126460914
30
0
41
1
10
-80
20
-8.05401763097143
30
0
0
SPLINE
5
26A
100
AcDbEntity
8
SK1
62
256
6
ByLayer
370
13
48
1
60
0
100
AcDbSpline
70
4
71
3
72
22
73
18
40
0
40
0
40
0
40
0
40
0.250000000000013
40
0.250000000000013
40
0.375000000000011
40
0.375000000000011
40
0.500000000000009
40
0.500000000000009
40
0.625000000000006
40
0.625000000000006
40
0.687500000000005
40
0.687500000000005
40
0.750000000000004
40
0.750000000000004
40
0.875000000000002
40
0.875000000000002
40
1
40
1
40
1
40
1
41
1
10
-78.5162221138982
20
10.4258292340508
30
0
41
1
10
-78.4816010925007
20
10.3237518956136
30
0
41
1
10
-78.4411780188043
20
10.2239013321123
30
0
41
1
10
-78.3666785250411
20
10.0794467030181
30
0
41
1
10
-78.3393689035363
20
10.0320610579929
30
0
41
1
10
-78.2793566754053
20
9.94200016242738
30
0
41
1
10
-78.2466129799402
20
9.89906478118272
30
0
41
1
10
-78.1725895963645
20
9.81972659981167
30
0
41
1
10
-78.1310790894698
20
9.78319125007499
30
0
41
1
10
-78.0614135112523
20
9.74017151629326
30
0
41
1
10
-78.0367084860757
20
9.72773410304424
30
0
41
1
10
-77.9859900462305
20
9.70877612675764
30
0
41
1
10
-77.9597650984162
20
9.70209114959093
30
0
41
1
10
-77.8779326920127
20
9.69222679373803
30
0
41
1
10
-77.8229289559465
20
9.7004005561752
30
0
41
1
10
-77.720518632779
20
9.74066343125068
30
0
41
1
10
-77.6749703009745
20
9.77110884838677
30
0
41
1
10
-77.6338131992791
20
9.80675144594503
30
0
0
SPLINE
5
26B
100
AcDbEntity
8
SK1
62
256
6
ByLayer
370
13
48
1
60
0
100
AcDbSpline
70
4
71
3
72
8
73
4
40
0
40
0
40
0
40
0
40
1
40
1
40
1
40
1
41
1
10
-77.6338131992799
20
9.80675144594619
30
0
41
1
10
-77.2939543866941
20
10.101073698597
30
0
41
1
10
-76.9490850005699
20
10.3886250228495
30
0
41
1
10
-76.6000022063887
20
10.6704826507521
30
0
0
SPLINE
5
26C
100
AcDbEntity
8
1
62
256
6
ByLayer
370
18
48
1
60
0
100
AcDbSpline
70
4
71
3
72
8
73
4
40
0
40
0
40
0
40
0
40
1
40
1
40
1
40
1
41
1
10
291.026642208376
20
23.1688225177306
30
0
41
1
10
291.023413150011
20
23.1627993915652
30
0
41
1
10
291.020183867888
20
23.1567755059146
30
0
41
1
10
291.016954353535
20
23.150750831184
30
0
0
SPLINE
5
26D
100
AcDbEntity
8
1
62
256
6
ByLayer
370
18
48
1
60
0
100
AcDbSpline
70
4
71
3
72
18
73
14
40
0
40
0
40
0
40
0
40
0.125
40
0.125
40
0.25
40
0.25
40
0.5
40
0.5
40
0.75
40
0.75
40
0.875
40
0.875
40
1
40
1
40
1
40
1
41
1
10
289.041973558791
20
20.9617734452656
30
0
41
1
10
289.054119530704
20
20.9904608410816
30
0
41
1
10
289.056595639897
20
21.023495387783
30
0
41
1
10
289.051994819127
20
21.0908424263825
30
0
41
1
10
289.044726701381
20
21.1250392208862
30
0
41
1
10
289.013936404288
20
21.2263018867179
30
0
41
1
10
288.98151539874
20
21.2923437008875
30
0
41
1
10
288.902658290759
20
21.4142634351292
30
0
41
1
10
288.856416181565
20
21.4699502214994
30
0
41
1
10
288.778048431653
20
21.5373664707708
30
0
41
1
10
288.750402415977
20
21.5570730661113
30
0
41
1
10
288.692522889423
20
21.5864537795325
30
0
41
1
10
288.662302614252
20
21.5963779641029
30
0
41
1
10
288.632157802694
20
21.5955002039384
30
0
0
SPLINE
5
26E
100
AcDbEntity
8
1
62
256
6
ByLayer
370
18
48
1
60
0
100
AcDbSpline
70
4
71
3
72
16
73
12
40
0
40
0
40
0
40
0
40
0.249999999999997
40
0.249999999999997
40
0.499999999999994
40
0.499999999999994
40
0.749999999999991
40
0.749999999999991
40
0.874999999999995
40
0.874999999999995
40
1
40
1
40
1
40
1
41
1
10
288.373587563661
20
21.9694813337266
30
0
41
1
10
288.371271423236
20
22.0136759257759
30
0
41
1
10
288.372407501275
20
22.0581102362312
30
0
41
1
10
288.382520446237
20
22.1460203812567
30
0
41
1
10
288.391407291942
20
22.1895042043614
30
0
41
1
10
288.420383506408
20
22.2719789814276
30
0
41
1
10
288.440247216149
20
22.311328419052
30
0
41
1
10
288.484290198764
20
22.3541356526409
30
0
41
1
10
288.501300020746
20
22.3649563000473
30
0
41
1
10
288.537082904702
20
22.374649638981
30
0
41
1
10
288.555641302417
20
22.3734009511273
30
0
41
1
10
288.572830301093
20
22.3670160453727
30
0
0
SPLINE
5
26F
100
AcDbEntity
8
1
62
256
6
ByLayer
370
18
48
1
60
0
100
AcDbSpline
70
4
71
3
72
8
73
4
40
0
40
0
40
0
40
0
40
1
40
1
40
1
40
1
41
1
10
288.572830301093
20
22.3670160453727
30
0
41
1
10
288.579102416251
20
22.3674911939057
30
0
41
1
10
288.585375521301
20
22.3679664130227
30
0
41
1
10
288.591649655082
20
22.3684417054884
30
0
0
SPLINE
5
270
100
AcDbEntity
8
1
62
256
6
ByLayer
370
18
48
1
60
0
100
AcDbSpline
70
4
71
3
72
8
73
4
40
0
40
0
40
0
40
0
40
1
40
1
40
1
40
1
41
1
10
289.5689669195
20
23.4795218351639
30
0
41
1
10
289.572357333862
20
23.4739920617704
30
0
41
1
10
289.575748370017
20
23.4684615919109
30
0
41
1
10
289.579140052454
20
23.4629303984475
30
0
0
SPLINE
5
271
100
AcDbEntity
8
1
62
256
6
ByLayer
370
18
48
1
60
0
100
AcDbSpline
70
4
71
3
72
16
73
12
40
0
40
0
40
0
40
0
40
0.25
40
0.25
40
0.5
40
0.5
40
0.75
40
0.75
40
0.875
40
0.875
40
1
40
1
40
1
40
1
41
1
10
289.282905578768
20
20.5633393058926
30
0
41
1
10
289.243643728897
20
20.5834396674431
30
0
41
1
10
289.205846278802
20
20.6067458855661
30
0
41
1
10
289.134857674937
20
20.659911506249
30
0
41
1
10
289.101618168274
20
20.6896911734644
30
0
41
1
10
289.044350057249
20
20.7571484051416
30
0
41
1
10
289.019912339907
20
20.7947894064263
30
0
41
1
10
289.003882904923
20
20.8562608516424
30
0
41
1
10
289.002594087238
20
20.8771789101072
30
0
41
1
10
289.011074276246
20
20.9147627734265
30
0
41
1
10
289.020845443596
20
20.9311737614099
30
0
41
1
10
289.034368971562
20
20.9438109381482
30
0
0
SPLINE
5
272
100
AcDbEntity
8
1
62
256
6
ByLayer
370
18
48
1
60
0
100
AcDbSpline
70
4
71
3
72
16
73
12
40
0
40
0
40
0
40
0
40
0.124999999999983
40
0.124999999999983
40
0.249999999999966
40
0.249999999999966
40
0.499999999999977
40
0.499999999999977
40
0.749999999999989
40
0.749999999999989
40
1
40
1
40
1
40
1
41
1
10
288.923537391602
20
23.058603464684
30
0
41
1
10
288.908711891487
20
23.0697994388095
30
0
41
1
10
288.897226442117
20
23.0851967613095
30
0
41
1
10
288.884891482586
20
23.121966514446
30
0
41
1
10
288.884108877842
20
23.143179023047
30
0
41
1
10
288.893737396034
20
23.205472329911
30
0
41
1
10
288.914054063493
20
23.2454519574914
30
0
41
1
10
288.963861561669
20
23.3183533909282
30
0
41
1
10
288.993823014291
20
23.3514712164623
30
0
41
1
10
289.058790035318
20
23.4116994023898
30
0
41
1
10
289.094022216223
20
23.4388924160751
30
0
41
1
10
289.130942374232
20
23.4629699831457
30
0
0
SPLINE
5
273
100
AcDbEntity
8
1
62
256
6
ByLayer
370
18
48
1
60
0
100
AcDbSpline
70
4
71
3
72
18
73
14
40
0
40
0
40
0
40
0
40
0.125
40
0.125
40
0.25
40
0.25
40
0.5
40
0.5
40
0.75
40
0.75
40
0.875
40
0.875
40
1
40
1
40
1
40
1
41
1
10
288.591649655082
20
22.3684417054884
30
0
41
1
10
288.621706373272
20
22.3707186304304
30
0
41
1
10
288.650759011504
20
22.383749663784
30
0
41
1
10
288.705368342991
20
22.4191200718653
30
0
41
1
10
288.730735245917
20
22.441579064503
30
0
41
1
10
288.801477950946
20
22.5166680329632
30
0
41
1
10
288.84180102841
20
22.5770856667785
30
0
41
1
10
288.907460822346
20
22.7065925221921
30
0
41
1
10
288.932727396396
20
22.7754127316496
30
0
41
1
10
288.952799747394
20
22.8795530950369
30
0
41
1
10
288.956439009856
20
22.9143978721432
30
0
41
1
10
288.953961033485
20
22.9816973631258
30
0
41
1
10
288.948063376041
20
23.0142602707608
30
0
41
1
10
288.932977913372
20
23.0415342538769
30
0
0
SPLINE
5
274
100
AcDbEntity
8
1
62
256
6
ByLayer
370
18
48
1
60
0
100
AcDbSpline
70
4
71
3
72
16
73
12
40
0
40
0
40
0
40
0
40
0.250000000000066
40
0.250000000000066
40
0.500000000000133
40
0.500000000000133
40
0.750000000000199
40
0.750000000000199
40
0.875000000000099
40
0.875000000000099
40
1
40
1
40
1
40
1
41
1
10
289.130942374232
20
23.4629699831457
30
0
41
1
10
289.167888083678
20
23.4870642136445
30
0
41
1
10
289.206723307933
20
23.5081871540889
30
0
41
1
10
289.287376517488
20
23.5429081819658
30
0
41
1
10
289.329159266427
20
23.5565943303625
30
0
41
1
10
289.414240543031
20
23.5715509229422
30
0
41
1
10
289.457745823115
20
23.5732176349855
30
0
41
1
10
289.515756862152
20
23.5544453910856
30
0
41
1
10
289.533217353179
20
23.5443040545184
30
0
41
1
10
289.558615282611
20
23.5163137056019
30
0
41
1
10
289.566344607205
20
23.4985985872728
30
0
41
1
10
289.5689669195
20
23.4795218351639
30
0
0
SPLINE
5
275
100
AcDbEntity
8
1
62
256
6
ByLayer
370
18
48
1
60
0
100
AcDbSpline
70
4
71
3
72
8
73
4
40
0
40
0
40
0
40
0
40
1
40
1
40
1
40
1
41
1
10
289.728643845485
20
20.6102280882863
30
0
41
1
10
289.725848910192
20
20.6043726679264
30
0
41
1
10
289.723054542004
20
20.5985180347613
30
0
41
1
10
289.720260719401
20
20.5926641592419
30
0
0
SPLINE
5
276
100
AcDbEntity
8
1
62
256
6
ByLayer
370
18
48
1
60
0
100
AcDbSpline
70
4
71
3
72
16
73
12
40
0
40
0
40
0
40
0
40
0.125000000000003
40
0.125000000000003
40
0.250000000000006
40
0.250000000000006
40
0.500000000000004
40
0.500000000000004
40
0.750000000000002
40
0.750000000000002
40
1
40
1
40
1
40
1
41
1
10
289.720260719401
20
20.5926641592419
30
0
41
1
10
289.719644545488
20
20.5733459939468
30
0
41
1
10
289.713760419381
20
20.5548210133851
30
0
41
1
10
289.691188562014
20
20.5242064732175
30
0
41
1
10
289.674595022252
20
20.5122602380964
30
0
41
1
10
289.61921632974
20
20.4879020649445
30
0
41
1
10
289.575812719756
20
20.4849696258795
30
0
41
1
10
289.489825556881
20
20.4909563847046
30
0
41
1
10
289.446810335939
20
20.5002009332987
30
0
41
1
10
289.363064025426
20
20.5262692017311
30
0
41
1
10
289.322140275375
20
20.543252845634
30
0
41
1
10
289.282905578768
20
20.5633393058926
30
0
0
SPLINE
5
277
100
AcDbEntity
8
1
62
256
6
ByLayer
370
18
48
1
60
0
100
AcDbSpline
70
4
71
3
72
16
73
12
40
0
40
0
40
0
40
0
40
0.12499999999992
40
0.12499999999992
40
0.24999999999984
40
0.24999999999984
40
0.499999999999893
40
0.499999999999893
40
0.749999999999947
40
0.749999999999947
40
1
40
1
40
1
40
1
41
1
10
291.488180878845
20
21.745617410506
30
0
41
1
10
291.507528113767
20
21.7393184287982
30
0
41
1
10
291.528320760923
20
21.7381907680772
30
0
41
1
10
291.568135799656
20
21.7482619875636
30
0
41
1
10
291.586979886049
20
21.7594264829101
30
0
41
1
10
291.634626218995
20
21.8022563201608
30
0
41
1
10
291.656108360969
20
21.8416392754194
30
0
41
1
10
291.687322985055
20
21.9240594526929
30
0
41
1
10
291.69690951314
20
21.967608354478
30
0
41
1
10
291.707909221677
20
22.0554654599936
30
0
41
1
10
291.709247753615
20
22.1000105495678
30
0
41
1
10
291.706933215018
20
22.1441745768969
30
0
0
SPLINE
5
278
100
AcDbEntity
8
1
62
256
6
ByLayer
370
18
48
1
60
0
100
AcDbSpline
70
4
71
3
72
8
73
4
40
0
40
0
40
0
40
0
40
1
40
1
40
1
40
1
41
1
10
288.932977913372
20
23.0415342538769
30
0
41
1
10
288.929830466663
20
23.0472247262397
30
0
41
1
10
288.926683633831
20
23.052914453865
30
0
41
1
10
288.923537391602
20
23.058603464684
30
0
0
SPLINE
5
279
100
AcDbEntity
8
1
62
256
6
ByLayer
370
18
48
1
60
0
100
AcDbSpline
70
4
71
3
72
18
73
14
40
0
40
0
40
0
40
0
40
0.125000000000022
40
0.125000000000022
40
0.250000000000044
40
0.250000000000044
40
0.500000000000088
40
0.500000000000088
40
0.750000000000133
40
0.750000000000133
40
0.875000000000066
40
0.875000000000066
40
1
40
1
40
1
40
1
41
1
10
289.579140052454
20
23.4629303984475
30
0
41
1
10
289.595388166816
20
23.4364327927272
30
0
41
1
10
289.620492680185
20
23.416352134307
30
0
41
1
10
289.67716058001
20
23.3842422699846
30
0
41
1
10
289.708737764999
20
23.3724490292996
30
0
41
1
10
289.807720811087
20
23.346141694395
30
0
41
1
10
289.879596034659
20
23.340471979047
30
0
41
1
10
290.024114107685
20
23.3480591615941
30
0
41
1
10
290.096487493506
20
23.361237901823
30
0
41
1
10
290.197483174777
20
23.3980959482306
30
0
41
1
10
290.229829859739
20
23.4132897559709
30
0
41
1
10
290.287768651469
20
23.4513415047272
30
0
41
1
10
290.313561272449
20
23.4740572673979
30
0
41
1
10
290.330284066841
20
23.5022961881632
30
0
0
SPLINE
5
27A
100
AcDbEntity
8
1
62
256
6
ByLayer
370
18
48
1
60
0
100
AcDbSpline
70
4
71
3
72
16
73
12
40
0
40
0
40
0
40
0
40
0.250000000000071
40
0.250000000000071
40
0.500000000000142
40
0.500000000000142
40
0.750000000000213
40
0.750000000000213
40
0.875000000000106
40
0.875000000000106
40
1
40
1
40
1
40
1
41
1
10
290.949578404447
20
20.6506859274778
30
0
41
1
10
290.912632695001
20
20.626591696979
30
0
41
1
10
290.873600862987
20
20.6054584527586
30
0
41
1
10
290.792050974888
20
20.5706904319504
30
0
41
1
10
290.749581019091
20
20.5569682685684
30
0
41
1
10
290.662173644713
20
20.54188977037
30
0
41
1
10
290.61707607063
20
20.5401396097342
30
0
41
1
10
290.554942274469
20
20.5586957890887
30
0
41
1
10
290.535805486164
20
20.5687492746381
30
0
41
1
10
290.506598025698
20
20.596539974493
30
0
41
1
10
290.496752889563
20
20.6141442078379
30
0
41
1
10
290.492044260438
20
20.6331116207149
30
0
0
SPLINE
5
27B
100
AcDbEntity
8
1
62
256
6
ByLayer
370
18
48
1
60
0
100
AcDbSpline
70
4
71
3
72
8
73
4
40
0
40
0
40
0
40
0
40
1
40
1
40
1
40
1
41
1
10
291.125949998954
20
21.0709900225727
30
0
41
1
10
291.129791571681
20
21.0653359278131
30
0
41
1
10
291.133632830969
20
21.0596825935361
30
0
41
1
10
291.137473788336
20
21.0540299911948
30
0
0
SPLINE
5
27C
100
AcDbEntity
8
1
62
256
6
ByLayer
370
18
48
1
60
0
100
AcDbSpline
70
4
71
3
72
16
73
12
40
0
40
0
40
0
40
0
40
0.125000000000004
40
0.125000000000004
40
0.250000000000008
40
0.250000000000008
40
0.500000000000006
40
0.500000000000006
40
0.750000000000003
40
0.750000000000003
40
1
40
1
40
1
40
1
41
1
10
288.613292521034
20
21.5949508959865
30
0
41
1
10
288.596803796393
20
21.5867738312195
30
0
41
1
10
288.578370456002
20
21.5835904236009
30
0
41
1
10
288.541549359111
20
21.5896453134065
30
0
41
1
10
288.523329308087
20
21.5988673596199
30
0
41
1
10
288.4755417724
20
21.6366957197472
30
0
41
1
10
288.451656777269
20
21.6737010840977
30
0
41
1
10
288.414317373609
20
21.7525284970161
30
0
41
1
10
288.400919490776
20
21.7948728368669
30
0
41
1
10
288.381692291382
20
21.8811458172632
30
0
41
1
10
288.375902102258
20
21.9253173063974
30
0
41
1
10
288.373587563661
20
21.9694813337266
30
0
0
SPLINE
5
27D
100
AcDbEntity
8
1
62
256
6
ByLayer
370
18
48
1
60
0
100
AcDbSpline
70
4
71
3
72
16
73
12
40
0
40
0
40
0
40
0
40
0.124999999999997
40
0.124999999999997
40
0.249999999999994
40
0.249999999999994
40
0.499999999999996
40
0.499999999999996
40
0.749999999999998
40
0.749999999999998
40
1
40
1
40
1
40
1
41
1
10
290.340750460537
20
23.5199692966368
30
0
41
1
10
290.343460735676
20
23.5393972091268
30
0
41
1
10
290.351472391609
20
23.5580336888021
30
0
41
1
10
290.377872808966
20
23.5888488752966
30
0
41
1
10
290.396154161762
20
23.6008835649506
30
0
41
1
10
290.455607577006
20
23.6254552852721
30
0
41
1
10
290.500607292203
20
23.6284713726668
30
0
41
1
10
290.588913933
20
23.6226061725288
30
0
41
1
10
290.63261738297
20
23.6133976924896
30
0
41
1
10
290.717259513298
20
23.5873763719844
30
0
41
1
10
290.758380503305
20
23.5704030649894
30
0
41
1
10
290.797615199911
20
23.5503166047309
30
0
0
SPLINE
5
27E
100
AcDbEntity
8
1
62
256
6
ByLayer
370
18
48
1
60
0
100
AcDbSpline
70
4
71
3
72
8
73
4
40
0
40
0
40
0
40
0
40
1
40
1
40
1
40
1
41
1
10
291.447718658903
20
22.5176825598923
30
0
41
1
10
291.440736521365
20
22.5174630824754
30
0
41
1
10
291.433753680662
20
22.5172435869131
30
0
41
1
10
291.426770109632
20
22.5170240725112
30
0
0
SPLINE
5
27F
100
AcDbEntity
8
1
62
256
6
ByLayer
370
18
48
1
60
0
100
AcDbSpline
70
4
71
3
72
8
73
4
40
0
40
0
40
0
40
0
40
1
40
1
40
1
40
1
41
1
10
291.467278257244
20
21.7440825709612
30
0
41
1
10
291.474246517044
20
21.7445942410301
30
0
41
1
10
291.481214048549
20
21.7451058534954
30
0
41
1
10
291.488180878845
20
21.745617410506
30
0
0
SPLINE
5
280
100
AcDbEntity
8
1
62
256
6
ByLayer
370
18
48
1
60
0
100
AcDbSpline
70
4
71
3
72
16
73
12
40
0
40
0
40
0
40
0
40
0.25
40
0.25
40
0.5
40
0.5
40
0.75
40
0.75
40
0.875
40
0.875
40
1
40
1
40
1
40
1
41
1
10
290.797615199911
20
23.5503166047309
30
0
41
1
10
290.836877049782
20
23.5302162431804
30
0
41
1
10
290.874477892118
20
23.5068997212814
30
0
41
1
10
290.944569817439
20
23.4536871076672
30
0
41
1
10
290.977122117244
20
23.4238714254666
30
0
41
1
10
291.032064130495
20
23.3562922881706
30
0
41
1
10
291.054909553839
20
23.3185678382934
30
0
41
1
10
291.066816231699
20
23.2568803285319
30
0
41
1
10
291.066428752104
20
23.2358744190493
30
0
41
1
10
291.054139032063
20
23.1980909066684
30
0
41
1
10
291.042252053172
20
23.1815690337008
30
0
41
1
10
291.026642208376
20
23.1688225177305
30
0
0
SPLINE
5
281
100
AcDbEntity
8
1
62
256
6
ByLayer
370
18
48
1
60
0
100
AcDbSpline
70
4
71
3
72
16
73
12
40
0
40
0
40
0
40
0
40
0.12499999999999
40
0.12499999999999
40
0.24999999999998
40
0.24999999999998
40
0.499999999999987
40
0.499999999999987
40
0.749999999999994
40
0.749999999999994
40
1
40
1
40
1
40
1
41
1
10
291.137473788336
20
21.0540299911948
30
0
41
1
10
291.154393389677
20
21.0429437642641
30
0
41
1
10
291.168006368874
20
21.0276579408777
30
0
41
1
10
291.184169888393
20
20.991088834068
30
0
41
1
10
291.186640306171
20
20.96996478
30
0
41
1
10
291.181086510712
20
20.9078850203056
30
0
41
1
10
291.162365948466
20
20.8679890410549
30
0
41
1
10
291.114877928212
20
20.7952091663051
30
0
41
1
10
291.085604704618
20
20.762127409326
30
0
41
1
10
291.021533503406
20
20.7019461713257
30
0
41
1
10
290.986498562456
20
20.6747634945484
30
0
41
1
10
290.949578404447
20
20.6506859274778
30
0
0
SPLINE
5
282
100
AcDbEntity
8
1
62
256
6
ByLayer
370
18
48
1
60
0
100
AcDbSpline
70
4
71
3
72
18
73
14
40
0
40
0
40
0
40
0
40
0.124999999999996
40
0.124999999999996
40
0.249999999999992
40
0.249999999999992
40
0.499999999999991
40
0.499999999999991
40
0.74999999999999
40
0.74999999999999
40
0.874999999999995
40
0.874999999999995
40
1
40
1
40
1
40
1
41
1
10
291.426770109632
20
22.5170240725112
30
0
41
1
10
291.393280638529
20
22.5159713988592
30
0
41
1
10
291.360047969452
20
22.5257598097165
30
0
41
1
10
291.296897293633
20
22.555013573796
30
0
41
1
10
291.267182824586
20
22.5746183361741
30
0
41
1
10
291.183816470686
20
22.6417388856301
30
0
41
1
10
291.135632487231
20
22.6976052267724
30
0
41
1
10
291.056795670404
20
22.8197014070902
30
0
41
1
10
291.026369829482
20
22.8854967544436
30
0
41
1
10
291.000785310678
20
22.9865470312358
30
0
41
1
10
290.995609726893
20
23.021038212527
30
0
41
1
10
290.996028779963
20
23.0881869624383
30
0
41
1
10
291.001385459356
20
23.1217069833908
30
0
41
1
10
291.016954353535
20
23.1507508311839
30
0
0
SPLINE
5
283
100
AcDbEntity
8
1
62
256
6
ByLayer
370
18
48
1
60
0
100
AcDbSpline
70
4
71
3
72
20
73
16
40
0
40
0
40
0
40
0
40
0.125000000000024
40
0.125000000000024
40
0.250000000000048
40
0.250000000000048
40
0.375000000000073
40
0.375000000000073
40
0.500000000000097
40
0.500000000000097
40
0.750000000000048
40
0.750000000000048
40
0.875000000000024
40
0.875000000000024
40
1
40
1
40
1
40
1
41
1
10
291.125949998954
20
21.0709900225727
30
0
41
1
10
291.107464932066
20
21.0981966713159
30
0
41
1
10
291.09860243763
20
21.1308787900991
30
0
41
1
10
291.091134339818
20
21.1981416905552
30
0
41
1
10
291.092697118066
20
21.2326037439429
30
0
41
1
10
291.102670361392
20
21.301629119149
30
0
41
1
10
291.111226002271
20
21.3362870395307
30
0
41
1
10
291.133501051587
20
21.4035973139832
30
0
41
1
10
291.147296483195
20
21.436621797167
30
0
41
1
10
291.196506972891
20
21.5338951375741
30
0
41
1
10
291.238581297132
20
21.5945458619931
30
0
41
1
10
291.314642702759
20
21.6701791604554
30
0
41
1
10
291.342223428129
20
21.6928173641726
30
0
41
1
10
291.401848798
20
21.7284180748281
30
0
41
1
10
291.433841232014
20
21.7416273345764
30
0
41
1
10
291.467278257244
20
21.7440825709612
30
0
0
SPLINE
5
284
100
AcDbEntity
8
1
62
256
6
ByLayer
370
18
48
1
60
0
100
AcDbSpline
70
4
71
3
72
8
73
4
40
0
40
0
40
0
40
0
40
1
40
1
40
1
40
1
41
1
10
290.330284066841
20
23.5022961881632
30
0
41
1
10
290.333773128153
20
23.5081879861264
30
0
41
1
10
290.337261922796
20
23.5140790126398
30
0
41
1
10
290.340750460537
20
23.5199692966368
30
0
0
SPLINE
5
285
100
AcDbEntity
8
1
62
256
6
ByLayer
370
18
48
1
60
0
100
AcDbSpline
70
4
71
3
72
8
73
4
40
0
40
0
40
0
40
0
40
1
40
1
40
1
40
1
41
1
10
289.034368971562
20
20.9438109381482
30
0
41
1
10
289.036903314789
20
20.9497976558359
30
0
41
1
10
289.039438170456
20
20.9557851481382
30
0
41
1
10
289.041973558791
20
20.9617734452656
30
0
0
SPLINE
5
286
100
AcDbEntity
8
1
62
256
6
ByLayer
370
18
48
1
60
0
100
AcDbSpline
70
4
71
3
72
18
73
14
40
0
40
0
40
0
40
0
40
0.124999999999999
40
0.124999999999999
40
0.249999999999998
40
0.249999999999998
40
0.499999999999999
40
0.499999999999999
40
0.749999999999999
40
0.749999999999999
40
0.875
40
0.875
40
1
40
1
40
1
40
1
41
1
10
290.479787859872
20
20.6495938780021
30
0
41
1
10
290.460214481679
20
20.6759172140295
30
0
41
1
10
290.43216593697
20
20.6958435823051
30
0
41
1
10
290.370413532282
20
20.7276869790188
30
0
41
1
10
290.336720675928
20
20.7393693420659
30
0
41
1
10
290.232637717771
20
20.7654094019044
30
0
41
1
10
290.159024775319
20
20.7709880472648
30
0
41
1
10
290.014509044511
20
20.7634009874682
30
0
41
1
10
289.943865063843
20
20.7503128815228
30
0
41
1
10
289.847980543296
20
20.7137226996983
30
0
41
1
10
289.81775667198
20
20.698640143907
30
0
41
1
10
289.764892363344
20
20.6608543375407
30
0
41
1
10
289.742039748872
20
20.6382926540822
30
0
41
1
10
289.728643845485
20
20.6102280882863
30
0
0
SPLINE
5
287
100
AcDbEntity
8
1
62
256
6
ByLayer
370
18
48
1
60
0
100
AcDbSpline
70
4
71
3
72
8
73
4
40
0
40
0
40
0
40
0
40
1
40
1
40
1
40
1
41
1
10
288.632157802694
20
21.5955002039384
30
0
41
1
10
288.625868357683
20
21.5953170671396
30
0
41
1
10
288.619579943435
20
21.5951339649258
30
0
41
1
10
288.613292521034
20
21.5949508959865
30
0
0
SPLINE
5
288
100
AcDbEntity
8
1
62
256
6
ByLayer
370
18
48
1
60
0
100
AcDbSpline
70
4
71
3
72
16
73
12
40
0
40
0
40
0
40
0
40
0.249999999999936
40
0.249999999999936
40
0.499999999999872
40
0.499999999999872
40
0.749999999999809
40
0.749999999999809
40
0.874999999999904
40
0.874999999999904
40
1
40
1
40
1
40
1
41
1
10
291.706933215018
20
22.1441745768969
30
0
41
1
10
291.704617074592
20
22.1883691689463
30
0
41
1
10
291.69864596216
20
22.2324310073321
30
0
41
1
10
291.678502626059
20
22.3187554878577
30
0
41
1
10
291.664431959361
20
22.3610361587195
30
0
41
1
10
291.62466742015
20
22.4399083855393
30
0
41
1
10
291.599207095646
20
22.4768824911806
30
0
41
1
10
291.54680805363
20
22.5146354124291
30
0
41
1
10
291.52708405031
20
22.5235309216269
30
0
41
1
10
291.486674427878
20
22.5292311805027
30
0
41
1
10
291.46623240689
20
22.5259385673137
30
0
41
1
10
291.447718658903
20
22.5176825598923
30
0
0
SPLINE
5
289
100
AcDbEntity
8
1
62
256
6
ByLayer
370
18
48
1
60
0
100
AcDbSpline
70
4
71
3
72
8
73
4
40
0
40
0
40
0
40
0
40
1
40
1
40
1
40
1
41
1
10
290.492044260438
20
20.6331116207149
30
0
41
1
10
290.487959130938
20
20.6386049856308
30
0
41
1
10
290.483873668328
20
20.6440990621419
30
0
41
1
10
290.479787859872
20
20.6495938780021
30
0
0
SPLINE
5
28A
100
AcDbEntity
8
1
62
256
6
ByLayer
370
18
48
1
60
0
100
AcDbSpline
70
4
71
3
72
29
73
25
40
0
40
0
40
0
40
0
40
0.0028990811916265
40
0.010609419164184
40
0.026030095109299
40
0.0568714469995291
40
0.118554150779989
40
0.241919558340909
40
0.36528496590183
40
0.42696766968229
40
0.484795204476471
40
0.48865037346275
40
0.496360711435307
40
0.504071049407865
40
0.51949172535298
40
0.55033307724321
40
0.61201578102367
40
0.73538118858459
40
0.858746596145511
40
0.978256834720152
40
0.982112003706431
40
0.989822341678988
40
0.997532679651546
40
1
40
1
40
1
40
1
41
1
10
298.949110861471
20
-17.7426268262981
30
0
41
1
10
298.969949187906
20
-17.7335027492881
30
0
41
1
10
299.045827027555
20
-17.6944865972209
30
0
41
1
10
299.203912298431
20
-17.5433358640633
30
0
41
1
10
299.221436994426
20
-17.158646237387
30
0
41
1
10
299.323300052744
20
-16.5313286365832
30
0
41
1
10
299.482926719377
20
-15.228435156357
30
0
41
1
10
299.73416810407
20
-13.3884434486225
30
0
41
1
10
299.972399151115
20
-11.5413149620925
30
0
41
1
10
300.173213606229
20
-10.088933698899
30
0
41
1
10
300.269990981288
20
-9.34990412098702
30
0
41
1
10
300.323738627893
20
-8.92359693710307
30
0
41
1
10
300.31642523022
20
-8.78798526662132
30
0
41
1
10
300.272451801706
20
-8.59952492531525
30
0
41
1
10
300.230451521233
20
-8.2815206120851
30
0
41
1
10
300.122295761823
20
-7.63656786911977
30
0
41
1
10
299.921268209828
20
-6.35004723399382
30
0
41
1
10
299.626933134502
20
-4.51126110582337
30
0
41
1
10
299.279492452611
20
-2.32799681250174
30
0
41
1
10
299.045802387017
20
-0.857307662490626
30
0
41
1
10
298.922305911489
20
-0.0651818029713525
30
0
41
1
10
298.869790043795
20
0.0814293845577083
30
0
41
1
10
298.765438292836
20
0.189565982158882
30
0
41
1
10
298.70012369837
20
0.225467911820033
30
0
41
1
10
298.684024297736
20
0.232919436891223
30
0
0
SPLINE
5
28B
100
AcDbEntity
8
1
62
256
6
ByLayer
370
18
48
1
60
0
100
AcDbSpline
70
4
71
1
72
4
73
2
40
0
40
0
40
1
40
1
41
1
10
299.154124004944
20
0.480398518689043
30
0
41
1
10
298.682913864563
20
0.542148909158044
30
0
0
SPLINE
5
28C
100
AcDbEntity
8
1
62
256
6
ByLayer
370
18
48
1
60
0
100
AcDbSpline
70
4
71
1
72
4
73
2
40
0
40
0
40
1
40
1
41
1
10
299.444881431242
20
0.231019294259937
30
0
41
1
10
299.061525475767
20
0.171544078404111
30
0
0
SPLINE
5
28D
100
AcDbEntity
8
1
62
256
6
ByLayer
370
18
48
1
60
0
100
AcDbSpline
70
4
71
2
72
6
73
3
40
0
40
0
40
0
40
1
40
1
40
1
41
1
10
299.086559657847
20
0.0631072580971193
30
0
41
1
10
299.078905304525
20
0.111212452234042
30
0
41
1
10
299.065418342091
20
0.158030541545344
30
0
0
SPLINE
5
28E
100
AcDbEntity
8
1
62
256
6
ByLayer
370
18
48
1
60
0
100
AcDbSpline
70
4
71
1
72
4
73
2
40
0
40
0
40
1
40
1
41
1
10
300.964700644862
20
-8.9986745898986
30
0
41
1
10
300.915156809996
20
-8.6873072309775
30
0
0
SPLINE
5
28F
100
AcDbEntity
8
1
62
256
6
ByLayer
370
18
48
1
60
0
100
AcDbSpline
70
4
71
1
72
4
73
2
40
0
40
0
40
1
40
1
41
1
10
300.97182780269
20
-9.54838687248488
30
0
41
1
10
300.993155758101
20
-9.38713079209242
30
0
0
SPLINE
5
290
100
AcDbEntity
8
1
62
256
6
ByLayer
370
18
48
1
60
0
100
AcDbSpline
70
4
71
1
72
4
73
2
40
0
40
0
40
1
40
1
41
1
10
299.566951992569
20
-0.214265642190441
30
0
41
1
10
299.086559657847
20
0.0631072580972614
30
0
0
SPLINE
5
291
100
AcDbEntity
8
1
62
256
6
ByLayer
370
18
48
1
60
0
100
AcDbSpline
70
4
71
3
72
8
73
4
40
0
40
0
40
0
40
0
40
1
40
1
40
1
40
1
41
1
10
300.991114580211
20
-9.15849491173822
30
0
41
1
10
300.996050494156
20
-9.19644505022745
30
0
41
1
10
300.999429899271
20
-9.23450756295941
30
0
41
1
10
300.999933060269
20
-9.27276708232441
30
0
0
SPLINE
5
292
100
AcDbEntity
8
1
62
256
6
ByLayer
370
18
48
1
60
0
100
AcDbSpline
70
4
71
1
72
4
73
2
40
0
40
0
40
1
40
1
41
1
10
300.824553114684
20
-8.11789161359386
30
0
41
1
10
299.56695199257
20
-0.214265642190583
30
0
0
SPLINE
5
293
100
AcDbEntity
8
1
62
256
6
ByLayer
370
18
48
1
60
0
100
AcDbSpline
70
4
71
3
72
12
73
8
40
0
40
0
40
0
40
0
40
0.250320940061869
40
0.250320940061869
40
0.500642180886958
40
0.500642180886958
40
1
40
1
40
1
40
1
41
1
10
299.104701016635
20
-18.79979820322
30
0
41
1
10
299.112756568429
20
-18.7985279307482
30
0
41
1
10
299.120793615886
20
-18.7971353200011
30
0
41
1
10
299.136819285039
20
-18.7941063410781
30
0
41
1
10
299.144809777525
20
-18.7924696184579
30
0
41
1
10
299.168650849026
20
-18.787205929555
30
0
41
1
10
299.184428971315
20
-18.7832149159244
30
0
41
1
10
299.200063329256
20
-18.7787523352156
30
0
0
SPLINE
5
294
100
AcDbEntity
8
1
62
256
6
ByLayer
370
18
48
1
60
0
100
AcDbSpline
70
4
71
1
72
4
73
2
40
0
40
0
40
1
40
1
41
1
10
300.85459195905
20
-10.4347818532846
30
0
41
1
10
300.930382905578
20
-9.86174281925946
30
0
0
SPLINE
5
295
100
AcDbEntity
8
1
62
256
6
ByLayer
370
18
48
1
60
0
100
AcDbSpline
70
4
71
2
72
12
73
9
40
0
40
0
40
0
40
0.25
40
0.5
40
0.5
40
0.75
40
0.75
40
0.875
40
1
40
1
40
1
41
1
10
299.107138951109
20
-17.9132772428622
30
0
41
1
10
299.155623071258
20
-17.8994386499292
30
0
41
1
10
299.241353049886
20
-17.845277174254
30
0
41
1
10
299.27561857675
20
-17.8060237849725
30
0
41
1
10
299.308388915858
20
-17.7684832304961
30
0
41
1
10
299.32995561002
20
-17.7210914203241
30
0
41
1
10
299.339971554222
20
-17.6990818474719
30
0
41
1
10
299.354254536048
20
-17.649693925442
30
0
41
1
10
299.357671578086
20
-17.6238584060821
30
0
0
SPLINE
5
296
100
AcDbEntity
8
1
62
256
6
ByLayer
370
18
48
1
60
0
100
AcDbSpline
70
4
71
1
72
4
73
2
40
0
40
0
40
1
40
1
41
1
10
300.993155758101
20
-9.38713079209222
30
0
41
1
10
300.496924283901
20
-9.010213901578
30
0
0
SPLINE
5
297
100
AcDbEntity
8
1
62
256
6
ByLayer
370
18
48
1
60
0
100
AcDbSpline
70
4
71
1
72
4
73
2
40
0
40
0
40
1
40
1
41
1
10
300.493919067284
20
-8.78170226371634
30
0
41
1
10
300.990150541443
20
-9.15861915423582
30
0
0
SPLINE
5
298
100
AcDbEntity
8
1
62
256
6
ByLayer
370
18
48
1
60
0
100
AcDbSpline
70
4
71
2
72
12
73
9
40
0
40
0
40
0
40
0.25
40
0.5
40
0.5
40
0.75
40
0.75
40
0.875
40
1
40
1
40
1
41
1
10
299.061525475767
20
0.171544078404111
30
0
41
1
10
299.047622878031
20
0.219804987282487
30
0
41
1
10
298.9932109004
20
0.305140282090747
30
0
41
1
10
298.953775960478
20
0.339248057260107
30
0
41
1
10
298.916061777384
20
0.37186752822123
30
0
41
1
10
298.8684507756
20
0.393334933597146
30
0
41
1
10
298.846339406396
20
0.403304766373964
30
0
41
1
10
298.796723060546
20
0.417521992180468
30
0
41
1
10
298.770768049462
20
0.420923302830971
30
0
0
SPLINE
5
299
100
AcDbEntity
8
1
62
256
6
ByLayer
370
18
48
1
60
0
100
AcDbSpline
70
4
71
3
72
12
73
8
40
0
40
0
40
0
40
0
40
0.499999999999857
40
0.499999999999857
40
0.749999999999928
40
0.749999999999928
40
1
40
1
40
1
40
1
41
1
10
299.80257806524
20
-18.3888692573539
30
0
41
1
10
299.793678275185
20
-18.4556856214568
30
0
41
1
10
299.764643287864
20
-18.5196417408382
30
0
41
1
10
299.698462159025
20
-18.5962589356483
30
0
41
1
10
299.672588001869
20
-18.6185681317072
30
0
41
1
10
299.615575764894
20
-18.6547825138851
30
0
41
1
10
299.58435053694
20
-18.6681815414577
30
0
41
1
10
299.552045438288
20
-18.6782888799965
30
0
0
SPLINE
5
29A
100
AcDbEntity
8
1
62
256
6
ByLayer
370
18
48
1
60
0
100
AcDbSpline
70
4
71
1
72
4
73
2
40
0
40
0
40
1
40
1
41
1
10
300.915156809996
20
-8.6873072309775
30
0
41
1
10
300.824553114684
20
-8.11789161359386
30
0
0
SPLINE
5
29B
100
AcDbEntity
8
1
62
256
6
ByLayer
370
18
48
1
60
0
100
AcDbSpline
70
4
71
3
72
12
73
8
40
0
40
0
40
0
40
0
40
0.5
40
0.5
40
0.75
40
0.75
40
1
40
1
40
1
40
1
41
1
10
299.154124004944
20
0.480361738186332
30
0
41
1
10
299.221249363824
20
0.471502883942321
30
0
41
1
10
299.285500246452
20
0.442600532873712
30
0
41
1
10
299.362472602454
20
0.376724884559621
30
0
41
1
10
299.384884886238
20
0.350969752907048
30
0
41
1
10
299.421266502864
20
0.294219729663467
30
0
41
1
10
299.434727425342
20
0.263138179953046
30
0
41
1
10
299.444881431242
20
0.230981727899575
30
0
0
SPLINE
5
29C
100
AcDbEntity
8
1
62
256
6
ByLayer
370
18
48
1
60
0
100
AcDbSpline
70
4
71
3
72
10
73
6
40
0
40
0
40
0
40
0
40
0.510277543353044
40
0.510277543353044
40
1
40
1
40
1
40
1
41
1
10
299.200063329256
20
-18.7787523352156
30
0
41
1
10
299.260301580966
20
-18.7615582770401
30
0
41
1
10
299.320539833092
20
-18.7443657206362
30
0
41
1
10
299.438589809338
20
-18.7106718632957
30
0
41
1
10
299.496401534034
20
-18.6941705538441
30
0
41
1
10
299.55421325824
20
-18.6776701474902
30
0
0
SPLINE
5
29D
100
AcDbEntity
8
1
62
256
6
ByLayer
370
18
48
1
60
0
100
AcDbSpline
70
4
71
1
72
4
73
2
40
0
40
0
40
1
40
1
41
1
10
299.104701016635
20
-18.799759886348
30
0
41
1
10
298.998200600025
20
-17.9381961725639
30
0
0
SPLINE
5
29E
100
AcDbEntity
8
1
62
256
6
ByLayer
370
18
48
1
60
0
100
AcDbSpline
70
4
71
1
72
4
73
2
40
0
40
0
40
1
40
1
41
1
10
300.930382905578
20
-9.86174281925946
30
0
41
1
10
300.97182780269
20
-9.54838687248488
30
0
0
SPLINE
5
29F
100
AcDbEntity
8
1
62
256
6
ByLayer
370
18
48
1
60
0
100
AcDbSpline
70
4
71
1
72
4
73
2
40
0
40
0
40
1
40
1
41
1
10
299.80257806524
20
-18.3888324768512
30
0
41
1
10
300.85459195905
20
-10.4347818532846
30
0
0
SPLINE
5
2A0
100
AcDbEntity
8
1
62
256
6
ByLayer
370
18
48
1
60
0
100
AcDbSpline
70
4
71
1
72
4
73
2
40
0
40
0
40
1
40
1
41
1
10
299.357671578086
20
-17.6238584060815
30
0
41
1
10
299.802578065239
20
-18.3888324768511
30
0
0
SPLINE
5
2A1
100
AcDbEntity
8
1
62
256
6
ByLayer
370
18
48
1
60
0
100
AcDbSpline
70
4
71
1
72
4
73
2
40
0
40
0
40
1
40
1
41
1
10
299.093562912646
20
-17.9171521872637
30
0
41
1
10
299.200063329256
20
-18.7787159010445
30
0
0
SPLINE
5
2A2
100
AcDbEntity
8
1
62
256
6
ByLayer
370
18
48
1
60
0
100
AcDbSpline
70
4
71
1
72
4
73
2
40
0
40
0
40
1
40
1
41
1
10
299.065418342091
20
0.15803054154523
30
0
41
1
10
299.545810676813
20
-0.119342358740227
30
0
0
SPLINE
5
2A3
100
AcDbEntity
8
1
62
256
6
ByLayer
370
18
48
1
60
0
100
AcDbSpline
70
4
71
3
72
8
73
4
40
0
40
0
40
0
40
0
40
1
40
1
40
1
40
1
41
1
10
299.545810676813
20
-0.119342358740084
30
0
41
1
10
299.554801985068
20
-0.150554418284116
30
0
41
1
10
299.56184909032
20
-0.182195512767606
30
0
41
1
10
299.56695199257
20
-0.214265642190554
30
0
0
SPLINE
5
2A4
100
AcDbEntity
8
1
62
256
6
ByLayer
370
18
48
1
60
0
100
AcDbSpline
70
4
71
1
72
4
73
2
40
0
40
0
40
1
40
1
41
1
10
300.990150541443
20
-9.15861915423565
30
0
41
1
10
300.964700644862
20
-8.9986745898986
30
0
0
SPLINE
5
2A5
100
AcDbEntity
8
1
62
256
6
ByLayer
370
18
48
1
60
0
100
AcDbSpline
70
4
71
1
72
4
73
2
40
0
40
0
40
1
40
1
41
1
10
298.770768049462
20
0.420923302831028
30
0
41
1
10
299.154124004944
20
0.480398518689043
30
0
0
SPLINE
5
2A6
100
AcDbEntity
8
1
62
256
6
ByLayer
370
18
48
1
60
0
100
AcDbSpline
70
4
71
2
72
7
73
4
40
0
40
0
40
0
40
0.5
40
1
40
1
40
1
41
1
10
300.496924283901
20
-9.01021390157794
30
0
41
1
10
300.504416423585
20
-8.95356744580303
30
0
41
1
10
300.502990374551
20
-8.83871256576535
30
0
41
1
10
300.493919067284
20
-8.78170226371637
30
0
0
SPLINE
5
2A7
100
AcDbEntity
8
1
62
256
6
ByLayer
370
18
48
1
60
0
100
AcDbSpline
70
4
71
1
72
4
73
2
40
0
40
0
40
1
40
1
41
1
10
299.552045438287
20
-18.6782513136361
30
0
41
1
10
299.10713895111
20
-17.9132772428627
30
0
0
SPLINE
5
2A8
100
AcDbEntity
8
1
62
256
6
ByLayer
370
18
48
1
60
0
100
AcDbSpline
70
4
71
3
72
8
73
4
40
0
40
0
40
0
40
0
40
1
40
1
40
1
40
1
41
1
10
300.999933060269
20
-9.27276708232441
30
0
41
1
10
301.000436224146
20
-9.31102682051923
30
0
41
1
10
300.998063746246
20
-9.34916466485407
30
0
41
1
10
300.994132053538
20
-9.3872307118782
30
0
0
SPLINE
5
2A9
100
AcDbEntity
8
1
62
256
6
ByLayer
370
18
48
1
60
0
100
AcDbSpline
70
4
71
2
72
6
73
3
40
0
40
0
40
0
40
1
40
1
40
1
41
1
10
298.998200600025
20
-17.9381961725639
30
0
41
1
10
299.046528285467
20
-17.9305770582745
30
0
41
1
10
299.093562912646
20
-17.9171521872637
30
0
0
SPLINE
5
2AA
100
AcDbEntity
8
1
62
256
6
ByLayer
370
18
48
1
60
0
100
AcDbSpline
70
4
71
3
72
26
73
22
40
0
40
0
40
0
40
0
40
0.0032083690262883
40
0.0189355960932611
40
0.0503900502272068
40
0.113298958495098
40
0.239116775030881
40
0.364934591566664
40
0.427843499834555
40
0.486820601335703
40
0.490752408102447
40
0.498616021635933
40
0.50647963516942
40
0.522206862236392
40
0.553661316370338
40
0.616570224638229
40
0.742388041174012
40
0.868205857709795
40
0.990091867478835
40
0.994023674245578
40
1
40
1
40
1
40
1
41
1
10
298.990971770257
20
-17.5322734766948
30
0
41
1
10
299.002550513025
20
-17.5198765971022
30
0
41
1
10
299.063086648736
20
-17.4402187666273
30
0
41
1
10
299.077074434097
20
-17.1331688794201
30
0
41
1
10
299.179817856288
20
-16.5004296099423
30
0
41
1
10
299.339223859702
20
-15.1993372114186
30
0
41
1
10
299.590526984378
20
-13.3588933446716
30
0
41
1
10
299.828773542457
20
-11.5116445930755
30
0
41
1
10
300.029607127531
20
-10.0591249733287
30
0
41
1
10
300.126272831553
20
-9.320948158779
30
0
41
1
10
300.178363153964
20
-8.90778627993848
30
0
41
1
10
300.172424334601
20
-8.79766329053453
30
0
41
1
10
300.129720348679
20
-8.61464349804049
30
0
41
1
10
300.087126261418
20
-8.29214318816955
30
0
41
1
10
299.97925184585
20
-7.64886815042939
30
0
41
1
10
299.778141974506
20
-6.36182069427119
30
0
41
1
10
299.483838807
20
-4.52323390237459
30
0
41
1
10
299.136385227809
20
-2.33988856438859
30
0
41
1
10
298.902659614201
20
-0.868975698926107
30
0
41
1
10
298.782945914437
20
-0.101113159398892
30
0
41
1
10
298.765641460113
20
-0.0475871566518435
30
0
41
1
10
298.751278638071
20
-0.0181276913249917
30
0
0
SPLINE
5
2AB
100
AcDbEntity
8
1
62
256
6
ByLayer
370
18
48
1
60
0
100
AcDbSpline
70
4
71
3
72
8
73
4
40
0
40
0
40
0
40
0
40
1
40
1
40
1
40
1
41
1
10
299.200063329256
20
-18.7787159010445
30
0
41
1
10
299.168706911137
20
-18.7876658150557
30
0
41
1
10
299.136919473597
20
-18.7946804768235
30
0
41
1
10
299.104701016635
20
-18.799759886348
30
0
0
SPLINE
5
2AC
100
AcDbEntity
8
1
62
256
6
ByLayer
370
13
48
1
60
0
100
AcDbSpline
70
4
71
2
72
6
73
3
40
0
40
0
40
0
40
1
40
1
40
1
41
1
10
300.949929314873
20
22.6972657559631
30
0
41
0.997409491337352
10
300.950694565624
20
22.6395756415667
30
0
41
1
10
300.943210379186
20
22.5823760939645
30
0
0
SPLINE
5
2AD
100
AcDbEntity
8
1
62
256
6
ByLayer
370
13
48
1
60
0
100
AcDbSpline
70
4
71
3
72
9
73
5
40
0
40
0
40
0
40
0
40
0.80600947358546
40
1
40
1
40
1
40
1
41
1
10
280.194258582616
20
31.5341322079475
30
0
41
1
10
280.21341291418
20
31.5356109367286
30
0
41
1
10
280.237207570514
20
31.5370163058856
30
0
41
1
10
280.260998965794
20
31.5384618244206
30
0
41
1
10
280.265614185608
20
31.5387432937248
30
0
0
SPLINE
5
2AE
100
AcDbEntity
8
1
62
256
6
ByLayer
370
13
48
1
60
0
100
AcDbSpline
70
4
71
3
72
24
73
20
40
0
40
0
40
0
40
0
40
0.125
40
0.125
40
0.25
40
0.25
40
0.375
40
0.375
40
0.5
40
0.5
40
0.625
40
0.625
40
0.75
40
0.75
40
0.8125
40
0.8125
40
0.875
40
0.875
40
1
40
1
40
1
40
1
41
1
10
299.519907282623
20
31.8059534987197
30
0
41
1
10
299.511721551862
20
31.8616769739123
30
0
41
1
10
299.497654013587
20
31.9153470445261
30
0
41
1
10
299.45842322215
20
32.0188135479798
30
0
41
1
10
299.433179888664
20
32.0691231592825
30
0
41
1
10
299.372216245982
20
32.1632333038738
30
0
41
1
10
299.33663251293
20
32.2072441235005
30
0
41
1
10
299.258178011295
20
32.2857795084451
30
0
41
1
10
299.215132113955
20
32.3205902784182
30
0
41
1
10
299.12156326366
20
32.3814849940321
30
0
41
1
10
299.071591174821
20
32.4068971311252
30
0
41
1
10
298.96845647226
20
32.4466898201354
30
0
41
1
10
298.914301168589
20
32.4613778964242
30
0
41
1
10
298.831909322844
20
32.4749598790509
30
0
41
1
10
298.804407767
20
32.4779898622747
30
0
41
1
10
298.749337181477
20
32.4813633379359
30
0
41
1
10
298.721765925021
20
32.4816181705694
30
0
41
1
10
298.639074223896
20
32.4832613220913
30
0
41
1
10
298.583937737627
20
32.4840109399595
30
0
41
1
10
298.528786202938
20
32.4841614004672
30
0
0
SPLINE
5
2AF
100
AcDbEntity
8
1
62
256
6
ByLayer
370
13
48
1
60
0
100
AcDbSpline
70
4
71
3
72
18
73
14
40
0
40
0
40
0
40
0
40
0.499999999999976
40
0.499999999999976
40
0.749999999999951
40
0.749999999999951
40
0.874999999999951
40
0.874999999999951
40
0.906249999999964
40
0.906249999999964
40
0.937499999999976
40
0.937499999999976
40
1
40
1
40
1
40
1
41
1
10
289.6714405602
20
29.9783816308747
30
0
41
1
10
288.54122836596
20
29.919149719656
30
0
41
1
10
287.411015942599
20
29.8599228413063
30
0
41
1
10
285.715697604798
20
29.7710749171397
30
0
41
1
10
285.15059199636
20
29.7414463961705
30
0
41
1
10
284.302932758198
20
29.697024157674
30
0
41
1
10
284.020378706321
20
29.6822409455799
30
0
41
1
10
283.667188009067
20
29.6637154548036
30
0
41
1
10
283.596550384052
20
29.6599975547537
30
0
41
1
10
283.455273268188
20
29.652608186516
30
0
41
1
10
283.384674836653
20
29.6479149440853
30
0
41
1
10
283.172405900472
20
29.6456219398768
30
0
41
1
10
283.030381288655
20
29.6568342489854
30
0
41
1
10
282.887795752773
20
29.6820053339425
30
0
0
SPLINE
5
2B0
100
AcDbEntity
8
1
62
256
6
ByLayer
370
13
48
1
60
0
100
AcDbSpline
70
4
71
1
72
4
73
2
40
0
40
0
40
1
40
1
41
1
10
278.837431349627
20
21.6486552971115
30
0
41
1
10
278.915426832951
20
21.6514629112132
30
0
0
SPLINE
5
2B1
100
AcDbEntity
8
1
62
256
6
ByLayer
370
13
48
1
60
0
100
AcDbSpline
70
4
71
1
72
4
73
2
40
0
40
0
40
1
40
1
41
1
10
280.638995237126
20
31.2996324378439
30
0
41
1
10
280.448819731773
20
31.5200952101676
30
0
0
SPLINE
5
2B2
100
AcDbEntity
8
1
62
256
6
ByLayer
370
13
48
1
60
0
100
AcDbSpline
70
4
71
3
72
8
73
4
40
0
40
0
40
0
40
0
40
1
40
1
40
1
40
1
41
1
10
299.09915170074
20
12.7791778062149
30
0
41
1
10
299.007159633022
20
12.7732536809908
30
0
41
1
10
298.918638184616
20
12.7710638546318
30
0
41
1
10
298.832443851762
20
12.7706701626091
30
0
0
SPLINE
5
2B3
100
AcDbEntity
8
1
62
256
6
ByLayer
370
13
48
1
60
0
100
AcDbSpline
70
4
71
3
72
8
73
4
40
0
40
0
40
0
40
0
40
1
40
1
40
1
40
1
41
1
10
280.163226817664
20
31.291849294806
30
0
41
1
10
280.24370935299
20
31.2960001431169
30
0
41
1
10
280.323177855131
20
31.2979415213578
30
0
41
1
10
280.4015222825
20
31.2986196990587
30
0
0
SPLINE
5
2B4
100
AcDbEntity
8
1
62
256
6
ByLayer
370
13
48
1
60
0
100
AcDbSpline
70
4
71
3
72
8
73
4
40
0
40
0
40
0
40
0
40
1
40
1
40
1
40
1
41
1
10
280.448819731773
20
31.5200952101676
30
0
41
1
10
280.387742251337
20
31.5263124546464
30
0
41
1
10
280.326731781405
20
31.5325206251435
30
0
41
1
10
280.265614185608
20
31.5387432937248
30
0
0
SPLINE
5
2B5
100
AcDbEntity
8
1
62
256
6
ByLayer
370
13
48
1
60
0
100
AcDbSpline
70
4
71
2
72
6
73
3
40
0
40
0
40
0
40
1
40
1
40
1
41
1
10
279.185408335082
20
21.4192629851512
30
0
41
0.997409491337352
10
279.184643084332
20
21.4769530995477
30
0
41
1
10
279.19212727077
20
21.5341526471499
30
0
0
SPLINE
5
2B6
100
AcDbEntity
8
1
62
256
6
ByLayer
370
13
48
1
60
0
100
AcDbSpline
70
4
71
3
72
8
73
4
40
0
40
0
40
0
40
0
40
1
40
1
40
1
40
1
41
1
10
298.528786202938
20
32.4841614004672
30
0
41
1
10
298.438369970163
20
32.4844080676247
30
0
41
1
10
298.347918919547
20
32.4832684521107
30
0
41
1
10
298.257434069998
20
32.4807831220412
30
0
0
SPLINE
5
2B7
100
AcDbEntity
8
1
62
256
6
ByLayer
370
13
48
1
60
0
100
AcDbSpline
70
4
71
3
72
14
73
10
40
0
40
0
40
0
40
0
40
0.0757687514772626
40
0.0757687514772626
40
0.484009487588982
40
0.484009487588982
40
0.892250223700702
40
0.892250223700702
40
1
40
1
40
1
40
1
41
1
10
299.629849285387
20
12.8083424238807
30
0
41
1
10
299.621288260405
20
12.7993810603749
30
0
41
1
10
299.612519004895
20
12.7906238846258
30
0
41
1
10
299.555208317601
20
12.7360182833625
30
0
41
1
10
299.500248778496
20
12.6954766608055
30
0
41
1
10
299.383929202622
20
12.6303900367427
30
0
41
1
10
299.321276416191
20
12.6049791467822
30
0
41
1
10
299.2394680116
20
12.5829464245048
30
0
41
1
10
299.22228975544
20
12.5790725500852
30
0
41
1
10
299.205044327436
20
12.5757131466803
30
0
0
SPLINE
5
2B8
100
AcDbEntity
8
1
62
256
6
ByLayer
370
13
48
1
60
0
100
AcDbSpline
70
4
71
1
72
4
73
2
40
0
40
0
40
1
40
1
41
1
10
280.194258582616
20
31.5341322079475
30
0
41
1
10
280.4015222825
20
31.2986196990587
30
0
0
SPLINE
5
2B9
100
AcDbEntity
8
1
62
256
6
ByLayer
370
13
48
1
60
0
100
AcDbSpline
70
4
71
3
72
22
73
18
40
0
40
0
40
0
40
0
40
0.0624999999999414
40
0.0624999999999414
40
0.0937499999999221
40
0.0937499999999221
40
0.124999999999903
40
0.124999999999903
40
0.156249999999884
40
0.156249999999884
40
0.171874999999874
40
0.171874999999874
40
0.187499999999864
40
0.187499999999864
40
0.24999999999987
40
0.499999999999913
40
1
40
1
40
1
40
1
41
1
10
297.094064212913
20
30.6922431458115
30
0
41
1
10
296.961005900456
20
30.6032571842791
30
0
41
1
10
296.820839324879
20
30.5293652500912
30
0
41
1
10
296.600228061627
20
30.4405292430223
30
0
41
1
10
296.524581694802
20
30.414496858428
30
0
41
1
10
296.371448563971
20
30.3705599318252
30
0
41
1
10
296.294557569088
20
30.352804621024
30
0
41
1
10
296.14015635169
20
30.3253355021191
30
0
41
1
10
296.062653232395
20
30.3155294491661
30
0
41
1
10
295.945925729183
20
30.3069606281104
30
0
41
1
10
295.906934890419
20
30.3051649624323
30
0
41
1
10
295.828990531512
20
30.301088998637
30
0
41
1
10
295.790018989498
20
30.2990427387233
30
0
41
1
10
295.595159803852
20
30.2888306015307
30
0
41
1
10
294.815723061266
20
30.2479820527601
30
0
41
1
10
292.789187530543
20
30.1417758259568
30
0
41
1
10
290.918539348338
20
30.0437393089075
30
0
41
1
10
289.6714405602
20
29.9783816308747
30
0
0
SPLINE
5
2BA
100
AcDbEntity
8
1
62
256
6
ByLayer
370
13
48
1
60
0
100
AcDbSpline
70
4
71
2
72
6
73
3
40
0
40
0
40
0
40
1
40
1
40
1
41
1
10
278.933997650062
20
21.2971106115269
30
0
41
0.997409491337352
10
278.925666371566
20
21.3498697678073
30
0
41
1
10
278.924957890198
20
21.4032801972563
30
0
0
SPLINE
5
2BB
100
AcDbEntity
8
1
62
256
6
ByLayer
370
13
48
1
60
0
100
AcDbSpline
70
4
71
1
72
4
73
2
40
0
40
0
40
1
40
1
41
1
10
278.924957890198
20
21.4032801972563
30
0
41
1
10
279.185408335082
20
21.4192629851512
30
0
0
SPLINE
5
2BC
100
AcDbEntity
8
1
62
256
6
ByLayer
370
13
48
1
60
0
100
AcDbSpline
70
4
71
1
72
4
73
2
40
0
40
0
40
1
40
1
41
1
10
280.615430367333
20
12.3105752423947
30
0
41
1
10
280.584703922022
20
12.3096957596421
30
0
0
SPLINE
5
2BD
100
AcDbEntity
8
1
62
256
6
ByLayer
370
13
48
1
60
0
100
AcDbSpline
70
4
71
3
72
20
73
16
40
0
40
0
40
0
40
0
40
0.0624999999999615
40
0.0624999999999615
40
0.124999999999923
40
0.124999999999923
40
0.140624999999924
40
0.140624999999924
40
0.156249999999926
40
0.156249999999926
40
0.187499999999928
40
0.187499999999928
40
0.249999999999934
40
0.499999999999956
40
1
40
1
40
1
40
1
41
1
10
296.96486282761
20
30.8577468098124
30
0
41
1
10
296.834463352089
20
30.7705390097256
30
0
41
1
10
296.696866120496
20
30.6993526169613
30
0
41
1
10
296.407825414889
20
30.5878000325481
30
0
41
1
10
296.254697804342
20
30.547488673206
30
0
41
1
10
296.063624159475
20
30.5193158737827
30
0
41
1
10
296.025339894934
20
30.5147330849411
30
0
41
1
10
295.948628921171
20
30.5077220764113
30
0
41
1
10
295.910183931492
20
30.5055703606074
30
0
41
1
10
295.79481634038
20
30.4996086435155
30
0
41
1
10
295.717910958436
20
30.4955381861464
30
0
41
1
10
295.487186903079
20
30.483446450778
30
0
41
1
10
294.718106718558
20
30.4431406662167
30
0
41
1
10
292.718498238801
20
30.3383456263571
30
0
41
1
10
290.872705795957
20
30.2416117434102
30
0
41
1
10
289.642177500723
20
30.177122488112
30
0
0
SPLINE
5
2BE
100
AcDbEntity
8
1
62
256
6
ByLayer
370
13
48
1
60
0
100
AcDbSpline
70
4
71
3
72
24
73
20
40
0
40
0
40
0
40
0
40
0.0436863032241634
40
0.0436863032241634
40
0.0873726064483265
40
0.0873726064483265
40
0.13105890967249
40
0.13105890967249
40
0.174745212896653
40
0.174745212896653
40
0.26211781934496
40
0.26211781934496
40
0.349490425793267
40
0.349490425793267
40
0.524235638689883
40
0.524235638689883
40
0.698980851586498
40
0.698980851586498
40
1
40
1
40
1
40
1
41
1
10
280.584703922022
20
12.3096957596421
30
0
41
1
10
280.587757145576
20
12.2926016644498
30
0
41
1
10
280.591459246258
20
12.2738823224881
30
0
41
1
10
280.599367122979
20
12.2371089260948
30
0
41
1
10
280.603414184373
20
12.2199271493939
30
0
41
1
10
280.610917662981
20
12.1902265215992
30
0
41
1
10
280.6144554486
20
12.177262820529
30
0
41
1
10
280.621056989216
20
12.1541840696771
30
0
41
1
10
280.624168761082
20
12.1439053538932
30
0
41
1
10
280.633013083562
20
12.1158079806139
30
0
41
1
10
280.638309663915
20
12.1005472834698
30
0
41
1
10
280.64826481955
20
12.0736515597537
30
0
41
1
10
280.652877193455
20
12.0621821334985
30
0
41
1
10
280.666037778121
20
12.0314388893741
30
0
41
1
10
280.673878971833
20
12.0158607276168
30
0
41
1
10
280.688570704782
20
11.9897775864597
30
0
41
1
10
280.695386763898
20
11.9794296339271
30
0
41
1
10
280.712971947652
20
11.9561996243187
30
0
41
1
10
280.723031338219
20
11.9468160597494
30
0
41
1
10
280.732413692028
20
11.9407832881669
30
0
0
SPLINE
5
2BF
100
AcDbEntity
8
1
62
256
6
ByLayer
370
13
48
1
60
0
100
AcDbSpline
70
4
71
3
72
28
73
24
40
0
40
0
40
0
40
0
40
0.124999999999913
40
0.124999999999913
40
0.249999999999826
40
0.249999999999826
40
0.374999999999739
40
0.374999999999739
40
0.499999999999652
40
0.499999999999652
40
0.624999999999565
40
0.624999999999565
40
0.687499999999631
40
0.687499999999631
40
0.749999999999697
40
0.749999999999697
40
0.781249999999628
40
0.781249999999628
40
0.812499999999559
40
0.812499999999559
40
0.874999999999636
40
0.874999999999636
40
1
40
1
40
1
40
1
41
1
10
299.737304815314
20
12.9262320052942
30
0
41
1
10
299.718607248923
20
12.9154842876061
30
0
41
1
10
299.698778985871
20
12.9048758658523
30
0
41
1
10
299.656248346212
20
12.8840130981518
30
0
41
1
10
299.6333492985
20
12.8736942097997
30
0
41
1
10
299.584848893953
20
12.8541338689504
30
0
41
1
10
299.559217785607
20
12.8448350268193
30
0
41
1
10
299.504192918089
20
12.8275488512396
30
0
41
1
10
299.475164664658
20
12.8197563163069
30
0
41
1
10
299.41579072544
20
12.8070328216461
30
0
41
1
10
299.38554102207
20
12.8021315951302
30
0
41
1
10
299.342051050463
20
12.7975304724248
30
0
41
1
10
299.327691665572
20
12.7964180277447
30
0
41
1
10
299.299502478504
20
12.7946380809284
30
0
41
1
10
299.285546434424
20
12.7938861333493
30
0
41
1
10
299.265021582167
20
12.7931658792863
30
0
41
1
10
299.258147997224
20
12.792893947891
30
0
41
1
10
299.243814828188
20
12.7917663006375
30
0
41
1
10
299.236398516222
20
12.790951969376
30
0
41
1
10
299.213887857707
20
12.7882388846566
30
0
41
1
10
299.199078594614
20
12.7866312769413
30
0
41
1
10
299.155939174761
20
12.7831181362417
30
0
41
1
10
299.127396658904
20
12.7809967311859
30
0
41
1
10
299.09915170074
20
12.7791778062149
30
0
0
SPLINE
5
2C0
100
AcDbEntity
8
1
62
256
6
ByLayer
370
13
48
1
60
0
100
AcDbSpline
70
4
71
1
72
4
73
2
40
0
40
0
40
1
40
1
41
1
10
279.19212727077
20
21.5341526471499
30
0
41
1
10
278.931178388186
20
21.5096468815828
30
0
0
SPLINE
5
2C1
100
AcDbEntity
8
1
62
256
6
ByLayer
370
13
48
1
60
0
100
AcDbSpline
70
4
71
3
72
10
73
6
40
0
40
0
40
0
40
0
40
0.5
40
0.5
40
1
40
1
40
1
40
1
41
1
10
297.247715829493
20
31.1162230464944
30
0
41
1
10
297.243968284355
20
31.116026645976
30
0
41
1
10
297.253714624294
20
31.1058514397518
30
0
41
1
10
297.293829011785
20
31.0723360563461
30
0
41
1
10
297.324274372967
20
31.0490318513989
30
0
41
1
10
297.356213601929
20
31.0261593864962
30
0
0
SPLINE
5
2C2
100
AcDbEntity
8
1
62
256
6
ByLayer
370
13
48
1
60
0
100
AcDbSpline
70
4
71
3
72
18
73
14
40
0
40
0
40
0
40
0
40
0.499999999999988
40
0.499999999999988
40
0.74999999999997
40
0.74999999999997
40
0.87499999999996
40
0.87499999999996
40
0.90624999999997
40
0.90624999999997
40
0.93749999999998
40
0.93749999999998
40
1
40
1
40
1
40
1
41
1
10
290.501488826213
20
14.1401172096668
30
0
41
1
10
291.631701020453
20
14.1993491208856
30
0
41
1
10
292.761913443815
20
14.2585759992352
30
0
41
1
10
294.457231781616
20
14.3474239234019
30
0
41
1
10
295.022337390054
20
14.377052444371
30
0
41
1
10
295.869996628215
20
14.4214746828675
30
0
41
1
10
296.152550680093
20
14.4362578949616
30
0
41
1
10
296.505741377347
20
14.454783385738
30
0
41
1
10
296.576379002362
20
14.4585012857878
30
0
41
1
10
296.717656118226
20
14.4658906540255
30
0
41
1
10
296.78825454976
20
14.4705838964562
30
0
41
1
10
297.000523485942
20
14.4728769006647
30
0
41
1
10
297.142548097759
20
14.4616645915561
30
0
41
1
10
297.285133633641
20
14.436493506599
30
0
0
SPLINE
5
2C3
100
AcDbEntity
8
1
62
256
6
ByLayer
370
13
48
1
60
0
100
AcDbSpline
70
4
71
2
72
6
73
3
40
0
40
0
40
0
40
1
40
1
40
1
41
1
10
279.185408335082
20
21.4192629851512
30
0
41
0.997409491337352
10
279.186173585833
20
21.3615728707534
30
0
41
1
10
279.195172435203
20
21.3045862149178
30
0
0
SPLINE
5
2C4
100
AcDbEntity
8
1
62
256
6
ByLayer
370
13
48
1
60
0
100
AcDbSpline
70
4
71
3
72
10
73
6
40
0
40
0
40
0
40
0
40
0.5
40
0.5
40
1
40
1
40
1
40
1
41
1
10
282.907135535841
20
13.0871478510806
30
0
41
1
10
282.903386919157
20
13.0869513944049
30
0
41
1
10
282.883000894353
20
13.0870029962321
30
0
41
1
10
282.821690327672
20
13.0874958544618
30
0
41
1
10
282.780756841818
20
13.0879295511878
30
0
41
1
10
282.741532311568
20
13.0883992551911
30
0
0
SPLINE
5
2C5
100
AcDbEntity
8
1
62
256
6
ByLayer
370
13
48
1
60
0
100
AcDbSpline
70
4
71
1
72
4
73
2
40
0
40
0
40
1
40
1
41
1
10
278.85113815845
20
21.4330050640095
30
0
41
1
10
278.92565030073
20
21.4390506989576
30
0
0
SPLINE
5
2C6
100
AcDbEntity
8
1
62
256
6
ByLayer
370
13
48
1
60
0
100
AcDbSpline
70
4
71
3
72
24
73
20
40
0
40
0
40
0
40
0
40
0.0612470952992065
40
0.0612470952992065
40
0.122494190598413
40
0.122494190598413
40
0.183741285897619
40
0.183741285897619
40
0.244988381196826
40
0.244988381196826
40
0.367482571795238
40
0.367482571795238
40
0.489976762393651
40
0.489976762393651
40
0.734965143590475
40
0.734965143590475
40
0.979953524787298
40
0.979953524787298
40
1
40
1
40
1
40
1
41
1
10
299.878628430143
20
13.3208474967675
30
0
41
1
10
299.877378751968
20
13.3035278960517
30
0
41
1
10
299.87565363583
20
13.2845241257077
30
0
41
1
10
299.871632945899
20
13.2471255796264
30
0
41
1
10
299.869404039446
20
13.2296148933877
30
0
41
1
10
299.865046226659
20
13.1992926416521
30
0
41
1
10
299.862882897152
20
13.1860301577981
30
0
41
1
10
299.858729906827
20
13.1623877858629
30
0
41
1
10
299.856709599937
20
13.1518401092283
30
0
41
1
10
299.850850702832
20
13.122972172862
30
0
41
1
10
299.847178314922
20
13.107241432009
30
0
41
1
10
299.84008906334
20
13.0794524487615
30
0
41
1
10
299.836700838002
20
13.0675637288671
30
0
41
1
10
299.82682589246
20
13.0356132437599
30
0
41
1
10
299.820656014936
20
13.0193007928736
30
0
41
1
10
299.808771195501
20
12.9918248336248
30
0
41
1
10
299.803074131046
20
12.9808210960741
30
0
41
1
10
299.797089812659
20
12.9709108804826
30
0
41
1
10
299.796638316677
20
12.9701734769257
30
0
41
1
10
299.796187941809
20
12.9694480363991
30
0
0
SPLINE
5
2C7
100
AcDbEntity
8
1
62
256
6
ByLayer
370
13
48
1
60
0
100
AcDbSpline
70
4
71
3
72
10
73
6
40
0
40
0
40
0
40
0
40
0.121795174082397
40
0.121795174082397
40
1
40
1
40
1
40
1
41
1
10
299.77028953904
20
12.938515975292
30
0
41
1
10
299.768888621853
20
12.9373920012572
30
0
41
1
10
299.767496080969
20
12.9363562615846
30
0
41
1
10
299.756125135291
20
12.9285084365203
30
0
41
1
10
299.746570804231
20
12.9259297148052
30
0
41
1
10
299.737304815315
20
12.9262320052942
30
0
0
SPLINE
5
2C8
100
AcDbEntity
8
1
62
256
6
ByLayer
370
13
48
1
60
0
100
AcDbSpline
70
4
71
3
72
12
73
8
40
0
40
0
40
0
40
0
40
0.250000000000153
40
0.250000000000153
40
0.500000000000306
40
0.500000000000306
40
1
40
1
40
1
40
1
41
1
10
280.4015222825
20
31.2986196990587
30
0
41
1
10
280.421721186658
20
31.2991561507186
30
0
41
1
10
280.441368851602
20
31.2990848710237
30
0
41
1
10
280.480863054127
20
31.2991615588374
30
0
41
1
10
280.500644262184
20
31.2992359310332
30
0
41
1
10
280.559952954152
20
31.2994221474234
30
0
41
1
10
280.599467877657
20
31.2995207267355
30
0
41
1
10
280.638995237126
20
31.2996324378439
30
0
0
SPLINE
5
2C9
100
AcDbEntity
8
1
62
256
6
ByLayer
370
13
48
1
60
0
100
AcDbSpline
70
4
71
3
72
10
73
6
40
0
40
0
40
0
40
0
40
0.5
40
0.5
40
1
40
1
40
1
40
1
41
1
10
282.878223886348
20
12.9998131697631
30
0
41
1
10
282.87447634121
20
12.9996167692447
30
0
41
1
10
282.857399510896
20
13.0094078007472
30
0
41
1
10
282.806916880651
20
13.0423798075752
30
0
41
1
10
282.77347154053
20
13.0655267902883
30
0
41
1
10
282.741532311568
20
13.0883992551911
30
0
0
SPLINE
5
2CA
100
AcDbEntity
8
1
62
256
6
ByLayer
370
13
48
1
60
0
100
AcDbSpline
70
4
71
2
72
6
73
3
40
0
40
0
40
0
40
1
40
1
40
1
41
1
10
300.949929314873
20
22.6972657559631
30
0
41
0.997409491337352
10
300.949164064123
20
22.754955870361
30
0
41
1
10
300.940165214752
20
22.8119425261966
30
0
0
SPLINE
5
2CB
100
AcDbEntity
8
1
62
256
6
ByLayer
370
13
48
1
60
0
100
AcDbSpline
70
4
71
3
72
20
73
16
40
0
40
0
40
0
40
0
40
0.499999999999963
40
0.499999999999963
40
0.749999999999933
40
0.749999999999933
40
0.874999999999918
40
0.874999999999918
40
0.906249999999926
40
0.906249999999926
40
0.921874999999942
40
0.921874999999942
40
0.937499999999959
40
0.937499999999959
40
1
40
1
40
1
40
1
41
1
10
290.493160149233
20
13.9394062530024
30
0
41
1
10
291.615899162106
20
13.9982465113815
30
0
41
1
10
292.738638428837
20
14.0570819257839
30
0
41
1
10
294.422746959895
20
14.1453420891905
30
0
41
1
10
294.984115855182
20
14.1747738792199
30
0
41
1
10
295.826170123185
20
14.2189039138257
30
0
41
1
10
296.106856028708
20
14.2335919924981
30
0
41
1
10
296.457711465769
20
14.2519891983959
30
0
41
1
10
296.527882140549
20
14.2556765126035
30
0
41
1
10
296.633138727712
20
14.2611965130365
30
0
41
1
10
296.668224927354
20
14.2630227921731
30
0
41
1
10
296.738396521055
20
14.266693309799
30
0
41
1
10
296.773471082843
20
14.2687847861372
30
0
41
1
10
296.949093813227
20
14.2735426663354
30
0
41
1
10
297.090196802316
20
14.263556293254
30
0
41
1
10
297.231959265144
20
14.2385305080403
30
0
0
SPLINE
5
2CC
100
AcDbEntity
8
1
62
256
6
ByLayer
370
13
48
1
60
0
100
AcDbSpline
70
4
71
3
72
8
73
4
40
0
40
0
40
0
40
0
40
1
40
1
40
1
40
1
41
1
10
298.005734699259
20
32.4402141346749
30
0
41
1
10
298.065827711855
20
32.4527816556081
30
0
41
1
10
298.125855029527
20
32.4653331477629
30
0
41
1
10
298.185987370755
20
32.4779102562819
30
0
0
SPLINE
5
2CD
100
AcDbEntity
8
1
62
256
6
ByLayer
370
13
48
1
60
0
100
AcDbSpline
70
4
71
3
72
20
73
16
40
0
40
0
40
0
40
0
40
0.0624999999999808
40
0.0624999999999808
40
0.124999999999962
40
0.124999999999962
40
0.140624999999968
40
0.140624999999968
40
0.156249999999974
40
0.156249999999974
40
0.187499999999964
40
0.187499999999964
40
0.249999999999967
40
0.499999999999978
40
1
40
1
40
1
40
1
41
1
10
283.170474822345
20
13.258781931302
30
0
41
1
10
283.300874297866
20
13.3459897313887
30
0
41
1
10
283.438471529459
20
13.4171761241531
30
0
41
1
10
283.727512235066
20
13.5287287085662
30
0
41
1
10
283.880639845613
20
13.5690400679083
30
0
41
1
10
284.07171349048
20
13.5972128673317
30
0
41
1
10
284.109997755021
20
13.6017956561732
30
0
41
1
10
284.186708728784
20
13.608806664703
30
0
41
1
10
284.225153718462
20
13.6109583805069
30
0
41
1
10
284.340521309575
20
13.6169200975988
30
0
41
1
10
284.417426691519
20
13.6209905549679
30
0
41
1
10
284.648150746875
20
13.6330822903363
30
0
41
1
10
285.417230931396
20
13.6733880748976
30
0
41
1
10
287.416839411151
20
13.7781831147571
30
0
41
1
10
289.262631853999
20
13.8749169977042
30
0
41
1
10
290.493160149233
20
13.9394062530023
30
0
0
SPLINE
5
2CE
100
AcDbEntity
8
1
62
256
6
ByLayer
370
13
48
1
60
0
100
AcDbSpline
70
4
71
3
72
10
73
6
40
0
40
0
40
0
40
0
40
0.38105004812153
40
0.38105004812153
40
1
40
1
40
1
40
1
41
1
10
297.221680114193
20
31.0285646822586
30
0
41
1
10
297.226925883219
20
31.0283447565683
30
0
41
1
10
297.237901481099
20
31.0280570025175
30
0
41
1
10
297.279055682205
20
31.0272200156144
30
0
41
1
10
297.316989071679
20
31.0266290904994
30
0
41
1
10
297.356213601929
20
31.0261593864961
30
0
0
SPLINE
5
2CF
100
AcDbEntity
8
1
62
256
6
ByLayer
370
13
48
1
60
0
100
AcDbSpline
70
4
71
2
72
6
73
3
40
0
40
0
40
0
40
1
40
1
40
1
41
0.998850556413371
10
278.927420910473
20
21.4744287166951
30
0
41
0.998270163111939
10
278.924485202886
20
21.4389147720382
30
0
41
1
10
278.924957890198
20
21.4032801972563
30
0
0
SPLINE
5
2D0
100
AcDbEntity
8
1
62
256
6
ByLayer
370
13
48
1
60
0
100
AcDbSpline
70
4
71
3
72
9
73
5
40
0
40
0
40
0
40
0
40
0.806009473585663
40
1
40
1
40
1
40
1
41
1
10
298.257434069998
20
32.4807831220413
30
0
41
1
10
298.238230098619
20
32.480251577348
30
0
41
1
10
298.214418890825
20
32.4791620288852
30
0
41
1
10
298.190606729466
20
32.4781127507308
30
0
41
1
10
298.185987370755
20
32.4779102562819
30
0
0
SPLINE
5
2D1
100
AcDbEntity
8
1
62
256
6
ByLayer
370
13
48
1
60
0
100
AcDbSpline
70
4
71
2
72
6
73
3
40
0
40
0
40
0
40
1
40
1
40
1
41
0.998850556413363
10
278.927420910473
20
21.4744287166961
30
0
41
0.998270163111951
10
278.92078906694
20
21.5094412472454
30
0
41
1
10
278.91753433748
20
21.5449300213762
30
0
0
SPLINE
5
2D2
100
AcDbEntity
8
1
62
256
6
ByLayer
370
13
48
1
60
0
100
AcDbSpline
70
4
71
3
72
22
73
18
40
0
40
0
40
0
40
0
40
0.0625000000000132
40
0.0625000000000132
40
0.0937500000000098
40
0.0937500000000098
40
0.125000000000006
40
0.125000000000006
40
0.156250000000003
40
0.156250000000003
40
0.171875000000012
40
0.171875000000012
40
0.187500000000022
40
0.187500000000022
40
0.250000000000015
40
0.50000000000001
40
1
40
1
40
1
40
1
41
1
10
283.078865173501
20
13.42625569473
30
0
41
1
10
283.211923485957
20
13.5152416562624
30
0
41
1
10
283.352090061535
20
13.5891335904503
30
0
41
1
10
283.572701324787
20
13.6779695975192
30
0
41
1
10
283.648347691612
20
13.7040019821135
30
0
41
1
10
283.801480822443
20
13.7479389087164
30
0
41
1
10
283.878371817326
20
13.7656942195175
30
0
41
1
10
284.032773034723
20
13.7931633384224
30
0
41
1
10
284.110276154018
20
13.8029693913756
30
0
41
1
10
284.227003657231
20
13.8115382124311
30
0
41
1
10
284.265994495995
20
13.8133338781092
30
0
41
1
10
284.343938854902
20
13.8174098419046
30
0
41
1
10
284.382910396916
20
13.8194561018183
30
0
41
1
10
284.577769582562
20
13.8296682390109
30
0
41
1
10
285.357206325148
20
13.8705167877814
30
0
41
1
10
287.383741855871
20
13.9767230145848
30
0
41
1
10
289.254390038076
20
14.074759531634
30
0
41
1
10
290.501488826213
20
14.1401172096668
30
0
0
SPLINE
5
2D3
100
AcDbEntity
8
1
62
256
6
ByLayer
370
13
48
1
60
0
100
AcDbSpline
70
4
71
3
72
20
73
16
40
0
40
0
40
0
40
0
40
0.499999999999951
40
0.499999999999951
40
0.749999999999939
40
0.749999999999939
40
0.874999999999933
40
0.874999999999933
40
0.906249999999937
40
0.906249999999937
40
0.921874999999952
40
0.921874999999952
40
0.937499999999966
40
0.937499999999966
40
1
40
1
40
1
40
1
41
1
10
289.642177500723
20
30.177122488112
30
0
41
1
10
288.51943848785
20
30.1182822297329
30
0
41
1
10
287.396699221119
20
30.0594468153305
30
0
41
1
10
285.712590690061
20
29.9711866519239
30
0
41
1
10
285.151221794775
20
29.9417548618945
30
0
41
1
10
284.309167526772
20
29.8976248272888
30
0
41
1
10
284.028481621248
20
29.8829367486163
30
0
41
1
10
283.677626184187
20
29.8645395427185
30
0
41
1
10
283.607455509407
20
29.8608522285109
30
0
41
1
10
283.502198922244
20
29.8553322280779
30
0
41
1
10
283.467112722603
20
29.8535059489413
30
0
41
1
10
283.396941128902
20
29.8498354313154
30
0
41
1
10
283.361866567113
20
29.8477439549772
30
0
41
1
10
283.18624383673
20
29.842986074779
30
0
41
1
10
283.045140847639
20
29.8529724478603
30
0
41
1
10
282.903378384811
20
29.8779982330741
30
0
0
SPLINE
5
2D4
100
AcDbEntity
8
1
62
256
6
ByLayer
370
13
48
1
60
0
100
AcDbSpline
70
4
71
3
72
9
73
5
40
0
40
0
40
0
40
0
40
0.806009473584115
40
1
40
1
40
1
40
1
41
1
10
281.877903579957
20
11.6357456190731
30
0
41
1
10
281.897107551336
20
11.6362771637664
30
0
41
1
10
281.92091875913
20
11.6373667122291
30
0
41
1
10
281.944730920489
20
11.6384159903835
30
0
41
1
10
281.9493502792
20
11.6386184848325
30
0
0
SPLINE
5
2D5
100
AcDbEntity
8
1
62
256
6
ByLayer
370
13
48
1
60
0
100
AcDbSpline
70
4
71
3
72
20
73
16
40
0
40
0
40
0
40
0
40
0.125
40
0.125
40
0.25
40
0.25
40
0.375
40
0.375
40
0.5
40
0.5
40
0.625
40
0.625
40
0.75
40
0.75
40
1
40
1
40
1
40
1
41
1
10
280.615430367333
20
12.3105752423947
30
0
41
1
10
280.625293573938
20
12.2434325321516
30
0
41
1
10
280.64374643704
20
12.1792885667577
30
0
41
1
10
280.696318786878
20
12.0564700289467
30
0
41
1
10
280.731061374142
20
11.9975736895525
30
0
41
1
10
280.814026867592
20
11.8907820856301
30
0
41
1
10
280.861706500046
20
11.843381532663
30
0
41
1
10
280.967483604298
20
11.7618769092138
30
0
41
1
10
281.026379822802
20
11.7273022140716
30
0
41
1
10
281.148865592661
20
11.6747308478595
30
0
41
1
10
281.21383132185
20
11.656008160898
30
0
41
1
10
281.346216568483
20
11.6348667283274
30
0
41
1
10
281.412673453021
20
11.6348176511435
30
0
41
1
10
281.611958725924
20
11.6312709611591
30
0
41
1
10
281.74489558932
20
11.6320923140142
30
0
41
1
10
281.877903579957
20
11.6357456190731
30
0
0
SPLINE
5
2D6
100
AcDbEntity
8
1
62
256
6
ByLayer
370
13
48
1
60
0
100
AcDbSpline
70
4
71
1
72
4
73
2
40
0
40
0
40
1
40
1
41
1
10
279.195172435203
20
21.3045862149178
30
0
41
1
10
278.933997650062
20
21.2971106115269
30
0
0
SPLINE
5
2D7
100
AcDbEntity
8
1
62
256
6
ByLayer
370
13
48
1
60
0
100
AcDbSpline
70
4
71
1
72
4
73
2
40
0
40
0
40
1
40
1
41
1
10
278.91753433748
20
21.5449300213762
30
0
41
1
10
278.861536318056
20
21.5416499822612
30
0
0
SPLINE
5
2D8
100
AcDbEntity
8
1
62
256
6
ByLayer
370
13
48
1
60
0
100
AcDbSpline
70
4
71
2
72
6
73
3
40
0
40
0
40
0
40
1
40
1
40
1
41
1
10
278.915426832951
20
21.6514629112132
30
0
41
0.997409491337352
10
278.912656027601
20
21.598121919373
30
0
41
1
10
278.91753433748
20
21.5449300213762
30
0
0
SPLINE
5
2D9
100
AcDbEntity
8
1
62
256
6
ByLayer
370
13
48
1
60
0
100
AcDbSpline
70
4
71
2
72
6
73
3
40
0
40
0
40
0
40
1
40
1
40
1
41
1
10
278.931178388186
20
21.5096468815828
30
0
41
0.999139328225413
10
278.928880286603
20
21.4920831327421
30
0
41
0.998850556413371
10
278.927420910473
20
21.4744287166951
30
0
0
SPLINE
5
2DA
100
AcDbEntity
8
1
62
256
6
ByLayer
370
13
48
1
60
0
100
AcDbSpline
70
4
71
3
72
12
73
8
40
0
40
0
40
0
40
0
40
0.249999999999999
40
0.249999999999999
40
0.499999999999999
40
0.499999999999999
40
1
40
1
40
1
40
1
41
1
10
298.832443851762
20
12.7706701626091
30
0
41
1
10
298.813777200487
20
12.7702140129202
30
0
41
1
10
298.795938379865
20
12.7703800901291
30
0
41
1
10
298.759962082444
20
12.7704877679096
30
0
41
1
10
298.741923558346
20
12.77050472591
30
0
41
1
10
298.687859580556
20
12.770593373343
30
0
41
1
10
298.651852676768
20
12.7706786415539
30
0
41
1
10
298.615827407754
20
12.7707504672291
30
0
0
SPLINE
5
2DB
100
AcDbEntity
8
SK1
62
256
6
ByLayer
370
13
48
1
60
0
100
AcDbSpline
70
4
71
3
72
8
73
4
40
0
40
0
40
0
40
0
40
1
40
1
40
1
40
1
41
1
10
-76.6000022063887
20
-10.6704826507519
30
0
41
1
10
-76.9486457469478
20
-10.3889796865166
30
0
41
1
10
-77.2935001928291
20
-10.1014670365259
30
0
41
1
10
-77.6338131992803
20
-9.80675144594593
30
0
0
SPLINE
5
2DC
100
AcDbEntity
8
1
62
256
6
ByLayer
370
13
48
1
60
0
100
AcDbSpline
70
4
71
3
72
8
73
4
40
0
40
0
40
0
40
0
40
1
40
1
40
1
40
1
41
1
10
277.539169144041
20
-31.5519700199334
30
0
41
1
10
276.539169143317
20
-31.4441347819561
30
0
41
1
10
275.53916914331
20
-31.3362995373927
30
0
41
1
10
274.539169144041
20
-31.2284642860364
30
0
0
SPLINE
5
2DD
100
AcDbEntity
8
1
62
256
6
ByLayer
370
13
48
1
60
0
100
AcDbSpline
70
4
71
3
72
20
73
16
40
0
40
0
40
0
40
0
40
0.125000000000008
40
0.125000000000008
40
0.250000000000015
40
0.250000000000015
40
0.375000000000023
40
0.375000000000023
40
0.500000000000031
40
0.500000000000031
40
0.625000000000038
40
0.625000000000038
40
0.750000000000046
40
0.750000000000046
40
1
40
1
40
1
40
1
41
1
10
277.574888096104
20
12.3327284273297
30
0
41
1
10
277.580178514329
20
12.2701204899608
30
0
41
1
10
277.588138877454
20
12.2073312219492
30
0
41
1
10
277.609545112966
20
12.0858437390244
30
0
41
1
10
277.622932106721
20
12.02710437217
30
0
41
1
10
277.655382029493
20
11.9133715272501
30
0
41
1
10
277.674619112947
20
11.8580391390662
30
0
41
1
10
277.717894362724
20
11.7537831831911
30
0
41
1
10
277.741961711039
20
11.7045822933943
30
0
41
1
10
277.794712147111
20
11.6115251941371
30
0
41
1
10
277.823591235705
20
11.5674334602945
30
0
41
1
10
277.88454939022
20
11.486003401577
30
0
41
1
10
277.916631350533
20
11.4485586236601
30
0
41
1
10
278.01705750278
20
11.3454660372328
30
0
41
1
10
278.090395040005
20
11.2885298253642
30
0
41
1
10
278.164505683515
20
11.2470967389258
30
0
0
SPLINE
5
2DE
100
AcDbEntity
8
1
62
256
6
ByLayer
370
13
48
1
60
0
100
AcDbSpline
70
4
71
3
72
8
73
4
40
0
40
0
40
0
40
0
40
1
40
1
40
1
40
1
41
1
10
17.5044124437158
20
-11.9359172941497
30
0
41
1
10
21.6432286091764
20
-11.9289827347561
30
0
41
1
10
25.7820447727339
20
-11.9220475677808
30
0
41
1
10
29.920860934382
20
-11.9151117914184
30
0
0
SPLINE
5
2DF
100
AcDbEntity
8
1
62
256
6
ByLayer
370
13
48
1
60
0
100
AcDbSpline
70
4
71
3
72
8
73
4
40
0
40
0
40
0
40
0
40
1
40
1
40
1
40
1
41
1
10
288.085172465964
20
13.6930442844618
30
0
41
1
10
288.141760801968
20
13.6960099534849
30
0
41
1
10
288.19828360401
20
13.6891804485396
30
0
41
1
10
288.252115878551
20
13.6739775194813
30
0
0
SPLINE
5
2E0
100
AcDbEntity
8
1
62
256
6
ByLayer
370
13
48
1
60
0
100
AcDbSpline
70
4
71
3
72
8
73
4
40
0
40
0
40
0
40
0
40
1
40
1
40
1
40
1
41
1
10
274.19661312858
20
14.4204457012299
30
0
41
1
10
274.613569352315
20
14.4278271766446
30
0
41
1
10
275.016163812831
20
14.4033339690827
30
0
41
1
10
275.404595195211
20
14.3462013081005
30
0
0
SPLINE
5
2E1
100
AcDbEntity
8
1
62
256
6
ByLayer
370
13
48
1
60
0
100
AcDbSpline
70
4
71
3
72
19
73
15
40
0
40
0
40
0
40
0
40
0.250000000000001
40
0.250000000000001
40
0.375000000000001
40
0.375000000000001
40
0.5
40
0.5
40
0.625
40
0.625
40
0.75
40
0.875
40
0.875
40
1
40
1
40
1
40
1
41
1
10
36.0050000357638
20
-17.4180388031208
30
0
41
1
10
33.936180877392
20
-17.8402422206306
30
0
41
1
10
31.8846449273951
20
-18.4801747823112
30
0
41
1
10
28.9713570876356
20
-19.759951701549
30
0
41
1
10
28.0277641167932
20
-20.2405091294315
30
0
41
1
10
26.217156760917
20
-21.3021237751825
30
0
41
1
10
25.3499822238608
20
-21.8824997107932
30
0
41
1
10
23.7122082597152
20
-23.1296161942096
30
0
41
1
10
22.9416192656847
20
-23.7963634090237
30
0
41
1
10
21.5172905472084
20
-25.2034225722868
30
0
41
1
10
20.2093457613155
20
-26.683749105959
30
0
41
1
10
19.1511283871828
20
-28.2699367334346
30
0
41
1
10
18.2262544923697
20
-29.8887180846731
30
0
41
1
10
17.8314267321467
20
-30.7143325371286
30
0
41
1
10
17.5044172052211
20
-31.546316606512
30
0
0
SPLINE
5
2E2
100
AcDbEntity
8
1
62
256
6
ByLayer
370
13
48
1
60
0
100
AcDbSpline
70
4
71
3
72
12
73
8
40
0
40
0
40
0
40
0
40
0.500000000000002
40
0.500000000000002
40
0.750000000000001
40
0.750000000000001
40
1
40
1
40
1
40
1
41
1
10
284.018925842043
20
13.0441376818554
30
0
41
1
10
284.024244869615
20
13.0683354127287
30
0
41
1
10
284.014461052574
20
13.0928092682057
30
0
41
1
10
283.974680658669
20
13.1259673759979
30
0
41
1
10
283.957238452054
20
13.1364258145686
30
0
41
1
10
283.915436284573
20
13.155200568543
30
0
41
1
10
283.890447553605
20
13.163761756409
30
0
41
1
10
283.863019877619
20
13.1709514275356
30
0
0
SPLINE
5
2E3
100
AcDbEntity
8
1
62
256
6
ByLayer
370
13
48
1
60
0
100
AcDbSpline
70
4
71
3
72
8
73
4
40
0
40
0
40
0
40
0
40
1
40
1
40
1
40
1
41
1
10
273.257818097329
20
11.1881596395133
30
0
41
1
10
273.353352920484
20
11.550462165582
30
0
41
1
10
273.440883330573
20
11.9139702140798
30
0
41
1
10
273.524054654543
20
12.2781347724358
30
0
0
SPLINE
5
2E4
100
AcDbEntity
8
1
62
256
6
ByLayer
370
13
48
1
60
0
100
AcDbSpline
70
4
71
3
72
48
73
44
40
0
40
0
40
0
40
0
40
0.09138369716261
40
0.17086969959804
40
0.255951177261863
40
0.346723605848388
40
0.443222790885212
40
0.545419262702716
40
0.554038448258566
40
0.562910488668346
40
0.572035989667458
40
0.581415542254191
40
0.591049721068683
40
0.600939082617673
40
0.611084163354395
40
0.621485477621566
40
0.632143515464258
40
0.643058740318579
40
0.654231586581466
40
0.665662457066363
40
0.677351720349277
40
0.689299708009451
40
0.701506711768822
40
0.713972980534422
40
0.726698717347914
40
0.73968407624665
40
0.752929159040793
40
0.766434012011329
40
0.780198622534114
40
0.794222915635417
40
0.808506750484907
40
0.823049916832365
40
0.837852131394991
40
0.852913034202652
40
0.86823218490894
40
0.883809059076576
40
0.899643044446253
40
0.915733437198719
40
0.932079438220505
40
0.948680149384553
40
0.965534569857566
40
0.982641592446839
40
1
40
1
40
1
40
1
41
1
10
31.4118086997237
20
-11.4248950318507
30
0
41
1
10
31.4999178370715
20
-11.6086162845866
30
0
41
1
10
31.6758405182249
20
-11.9570026422178
30
0
41
1
10
31.9690234064151
20
-12.489739393788
30
0
41
1
10
32.2903626107897
20
-13.0285156252135
30
0
41
1
10
32.6648543044787
20
-13.606716355692
30
0
41
1
10
33.0957406937362
20
-14.2200036808528
30
0
41
1
10
33.4263088518799
20
-14.6543597461326
30
0
41
1
10
33.6225199752613
20
-14.9020691640872
30
0
41
1
10
33.6663040262877
20
-14.9570877789375
30
0
41
1
10
33.7115172832579
20
-15.0135775134652
30
0
41
1
10
33.758179732137
20
-15.0715242998559
30
0
41
1
10
33.8063153283603
20
-15.1309078727507
30
0
41
1
10
33.855946290158
20
-15.1917080528009
30
0
41
1
10
33.9070945648557
20
-15.253902920239
30
0
41
1
10
33.9597812876095
20
-15.3174692525284
30
0
41
1
10
34.0140267951315
20
-15.3823823305587
30
0
41
1
10
34.0698504798265
20
-15.4486159210118
30
0
41
1
10
34.1272706834264
20
-15.5161422101133
30
0
41
1
10
34.1863045747399
20
-15.5849317515517
30
0
41
1
10
34.2469680269705
20
-15.6549534113315
30
0
41
1
10
34.3092754903797
20
-15.7261743145856
30
0
41
1
10
34.3732398615611
20
-15.7985597931972
30
0
41
1
10
34.4388723490918
20
-15.8720733348041
30
0
41
1
10
34.5061823357674
20
-15.9466765332916
30
0
41
1
10
34.5751772375333
20
-16.0223290410169
30
0
41
1
10
34.6458623592778
20
-16.0989885229804
30
0
41
1
10
34.7182407476684
20
-16.176610613177
30
0
41
1
10
34.79231304124
20
-16.2551488733539
30
0
41
1
10
34.868077317969
20
-16.3345547544478
30
0
41
1
10
34.9455289405906
20
-16.4147775608383
30
0
41
1
10
35.0246603999714
20
-16.4957644180873
30
0
41
1
10
35.1054611567626
20
-16.5774602428287
30
0
41
1
10
35.1879174820529
20
-16.6598077211784
30
0
41
1
10
35.2720122959883
20
-16.7427472725258
30
0
41
1
10
35.3577250101872
20
-16.8262170885958
30
0
41
1
10
35.445031353688
20
-16.9101529050601
30
0
41
1
10
35.5339032621362
20
-16.9944888180051
30
0
41
1
10
35.6243085278229
20
-17.0791541289828
30
0
41
1
10
35.7162113687584
20
-17.1640853908114
30
0
41
1
10
35.8095694952189
20
-17.2491804175358
30
0
41
1
10
35.9043445595668
20
-17.33447390011
30
0
41
1
10
35.9679601860158
20
-17.3907273373993
30
0
41
1
10
36
20
-17.4190592075282
30
0
0
SPLINE
5
2E5
100
AcDbEntity
8
1
62
256
6
ByLayer
370
13
48
1
60
0
100
AcDbSpline
70
4
71
3
72
18
73
14
40
0
40
0
40
0
40
0
40
0.249999999999969
40
0.249999999999969
40
0.374999999999931
40
0.374999999999931
40
0.499999999999893
40
0.499999999999893
40
0.749999999999946
40
0.749999999999946
40
0.874999999999973
40
0.874999999999973
40
1
40
1
40
1
40
1
41
1
10
284.752959616462
20
13.3181359397213
30
0
41
1
10
284.747539013915
20
13.3178518579844
30
0
41
1
10
284.74870306217
20
13.3281048991322
30
0
41
1
10
284.763828497676
20
13.3565155605374
30
0
41
1
10
284.771142838917
20
13.3680175803793
30
0
41
1
10
284.791002901174
20
13.3935113578031
30
0
41
1
10
284.803815423111
20
13.4077539844917
30
0
41
1
10
284.849796732624
20
13.4502153439206
30
0
41
1
10
284.891932277518
20
13.4789053232518
30
0
41
1
10
284.965166391424
20
13.5100880308818
30
0
41
1
10
284.991663651597
20
13.5187653954439
30
0
41
1
10
285.045785705077
20
13.5312461586461
30
0
41
1
10
285.073642941944
20
13.5352008110819
30
0
41
1
10
285.102306336465
20
13.5367188569408
30
0
0
SPLINE
5
2E6
100
AcDbEntity
8
1
62
256
6
ByLayer
370
13
48
1
60
0
100
AcDbSpline
70
4
71
3
72
14
73
10
40
0
40
0
40
0
40
0
40
0.0635245108085773
40
0.0635245108085773
40
0.21960375900715
40
0.21960375900715
40
0.375683007205722
40
0.375683007205722
40
1
40
1
40
1
40
1
41
1
10
245.357753805637
20
14.2663091690925
30
0
41
1
10
245.819930066886
20
14.08157756724
30
0
41
1
10
246.282124498946
20
13.8958792699309
30
0
41
1
10
247.880040769824
20
13.2506916226231
30
0
41
1
10
249.015925176145
20
12.7865342269198
30
0
41
1
10
251.288471444692
20
11.8480319468327
30
0
41
1
10
252.424750837585
20
11.3738405602131
30
0
41
1
10
258.102265366749
20
8.9828742190092
30
0
41
1
10
262.636603135323
20
7.00400629043369
30
0
41
1
10
267.17935035448
20
4.9922333225706
30
0
0
SPLINE
5
2E7
100
AcDbEntity
8
1
62
256
6
ByLayer
370
13
48
1
60
0
100
AcDbSpline
70
4
71
3
72
10
73
6
40
0
40
0
40
0
40
0
40
0.831982487579369
40
0.831982487579369
40
1
40
1
40
1
40
1
41
1
10
279.461358086286
20
23.9933223154395
30
0
41
1
10
279.425887053883
20
23.9461872728545
30
0
41
1
10
279.395054038124
20
23.9010109735742
30
0
41
1
10
279.367673478873
20
23.8559144865376
30
0
41
1
10
279.363434019059
20
23.8486973348626
30
0
41
1
10
279.35965057321
20
23.8419972806337
30
0
0
SPLINE
5
2E8
100
AcDbEntity
8
1
62
256
6
ByLayer
370
13
48
1
60
0
100
AcDbSpline
70
4
71
3
72
8
73
4
40
0
40
0
40
0
40
0
40
1
40
1
40
1
40
1
41
1
10
29.9342958526571
20
-31.5219055888843
30
0
41
1
10
25.7910029720898
20
-31.5300433098197
30
0
41
1
10
21.6477100896091
20
-31.5381803149879
30
0
41
1
10
17.5044172052211
20
-31.546316606512
30
0
0
SPLINE
5
2E9
100
AcDbEntity
8
1
62
256
6
ByLayer
370
13
48
1
60
0
100
AcDbSpline
70
4
71
3
72
42
73
38
40
0
40
0
40
0
40
0
40
0.0624999999999996
40
0.0624999999999996
40
0.124999999999999
40
0.124999999999999
40
0.156249999999999
40
0.156249999999999
40
0.187499999999999
40
0.187499999999999
40
0.249999999999999
40
0.249999999999999
40
0.281249999999999
40
0.281249999999999
40
0.312499999999999
40
0.312499999999999
40
0.374999999999999
40
0.374999999999999
40
0.437499999999999
40
0.437499999999999
40
0.499999999999999
40
0.499999999999999
40
0.624999999999999
40
0.624999999999999
40
0.687499999999999
40
0.687499999999999
40
0.718749999999999
40
0.718749999999999
40
0.749999999999999
40
0.749999999999999
40
0.812499999999999
40
0.812499999999999
40
0.874999999999999
40
0.874999999999999
40
0.9375
40
0.9375
40
1
40
1
40
1
40
1
41
1
10
17.5044172052211
20
-31.546316606512
30
0
41
1
10
17.090980170158
20
-31.5471286064447
30
0
41
1
10
16.6816876164823
20
-31.544999728672
30
0
41
1
10
15.8706271156846
20
-31.5350029263588
30
0
41
1
10
15.4688764385632
20
-31.5271198315364
30
0
41
1
10
14.8717208773101
20
-31.5102854832977
30
0
41
1
10
14.6730836811173
20
-31.5038107142591
30
0
41
1
10
14.2816565559713
20
-31.4891448973145
30
0
41
1
10
14.0885262860443
20
-31.4809488163935
30
0
41
1
10
13.516549750839
20
-31.4535481816178
30
0
41
1
10
13.1451220121905
20
-31.4315418183277
30
0
41
1
10
12.6021305501475
20
-31.3916548173889
30
0
41
1
10
12.4234789946739
20
-31.3772144023095
30
0
41
1
10
12.0708625431748
20
-31.3457650064099
30
0
41
1
10
11.8966405964375
20
-31.3287288557415
30
0
41
1
10
11.3829185016117
20
-31.2734025416652
30
0
41
1
10
11.0555770723417
20
-31.2313613021775
30
0
41
1
10
10.4299906551171
20
-31.1350020235003
30
0
41
1
10
10.1317401414316
20
-31.0806894283485
30
0
41
1
10
9.56418866327778
20
-30.9574029369163
30
0
41
1
10
9.29467991915158
20
-30.888338996245
30
0
41
1
10
8.5336726152596
20
-30.6549024523381
30
0
41
1
10
8.10597495470736
20
-30.4697943721153
30
0
41
1
10
7.58531665678746
20
-30.135748903343
30
0
41
1
10
7.43200432253724
20
-30.0149789426154
30
0
41
1
10
7.23520709250538
20
-29.817424540016
30
0
41
1
10
7.17536301196677
20
-29.7489592674551
30
0
41
1
10
7.06876844757544
20
-29.6085040641454
30
0
41
1
10
7.02171628962586
20
-29.5362714886499
30
0
41
1
10
6.89961106874607
20
-29.3134258033974
30
0
41
1
10
6.84319710816699
20
-29.1566879188798
30
0
41
1
10
6.78105991325217
20
-28.8261485370708
30
0
41
1
10
6.77564941943922
20
-28.6523325170268
30
0
41
1
10
6.81965954192557
20
-28.2866134442773
30
0
41
1
10
6.86887769237966
20
-28.0986869395879
30
0
41
1
10
7.01956847988966
20
-27.7148662257749
30
0
41
1
10
7.12143130565534
20
-27.5188064362744
30
0
41
1
10
7.2495294756235
20
-27.3190927283449
30
0
0
SPLINE
5
2EA
100
AcDbEntity
8
1
62
256
6
ByLayer
370
13
48
1
60
0
100
AcDbSpline
70
4
71
3
72
16
73
12
40
0
40
0
40
0
40
0
40
0.250000000000005
40
0.250000000000005
40
0.50000000000001
40
0.50000000000001
40
0.625000000000012
40
0.625000000000012
40
0.750000000000015
40
0.750000000000015
40
1
40
1
40
1
40
1
41
1
10
279.271056713929
20
10.9499130025952
30
0
41
1
10
279.80619227044
20
10.8265894493545
30
0
41
1
10
280.340847499834
20
10.7457828674454
30
0
41
1
10
281.409742457176
20
10.6619003101675
30
0
41
1
10
281.943977056382
20
10.6588939142091
30
0
41
1
10
282.744915069902
20
10.7119369322875
30
0
41
1
10
283.012342158724
20
10.7393269545111
30
0
41
1
10
283.544641070877
20
10.8133776247623
30
0
41
1
10
283.808156245538
20
10.8598086141798
30
0
41
1
10
284.590807905736
20
11.0266528490396
30
0
41
1
10
285.102105177615
20
11.1745001552249
30
0
41
1
10
285.602279677378
20
11.3587629674303
30
0
0
SPLINE
5
2EB
100
AcDbEntity
8
1
62
256
6
ByLayer
370
13
48
1
60
0
100
AcDbSpline
70
4
71
3
72
8
73
4
40
0
40
0
40
0
40
0
40
1
40
1
40
1
40
1
41
1
10
41
20
-11.3926842606446
30
0
41
1
10
39.3333332834433
20
-11.3924363253761
30
0
41
1
10
37.6666665785179
20
-11.3920015304384
30
0
41
1
10
36
20
-11.3913217217838
30
0
0
SPLINE
5
2EC
100
AcDbEntity
8
1
62
256
6
ByLayer
370
13
48
1
60
0
100
AcDbSpline
70
4
71
3
72
14
73
10
40
0
40
0
40
0
40
0
40
0.0145581563091611
40
0.0145581563091611
40
0.343038770872774
40
0.343038770872774
40
0.671519385436387
40
0.671519385436387
40
1
40
1
40
1
40
1
41
1
10
280.191890710356
20
30.1960964662065
30
0
41
1
10
280.191899997023
20
30.1929234368544
30
0
41
1
10
280.19191178338
20
30.189741600092
30
0
41
1
10
280.192240074466
20
30.114622371189
30
0
41
1
10
280.193704453329
20
30.0379435847512
30
0
41
1
10
280.197343052513
20
29.8833603266017
30
0
41
1
10
280.199589420293
20
29.8049520614906
30
0
41
1
10
280.204543214699
20
29.6472450423334
30
0
41
1
10
280.207258979333
20
29.5679397798918
30
0
41
1
10
280.210137023227
20
29.4883276103116
30
0
0
SPLINE
5
2ED
100
AcDbEntity
8
1
62
256
6
ByLayer
370
13
48
1
60
0
100
AcDbSpline
70
4
71
3
72
20
73
16
40
0
40
0
40
0
40
0
40
0.124999999999999
40
0.124999999999999
40
0.249999999999998
40
0.249999999999998
40
0.499999999999997
40
0.499999999999997
40
0.624999999999998
40
0.624999999999998
40
0.687499999999998
40
0.687499999999998
40
0.749999999999999
40
0.749999999999999
40
1
40
1
40
1
40
1
41
1
10
297.005803814138
20
10.8431235321347
30
0
41
1
10
296.998080333679
20
10.6201038346188
30
0
41
1
10
296.989333194744
20
10.4012874441874
30
0
41
1
10
296.969743336361
20
9.97225945548502
30
0
41
1
10
296.958844948631
20
9.76120588655289
30
0
41
1
10
296.923506673415
20
9.15136620949104
30
0
41
1
10
296.896375709876
20
8.77349620532144
30
0
41
1
10
296.850600516371
20
8.24748166538862
30
0
41
1
10
296.834492557497
20
8.07896681856084
30
0
41
1
10
296.809065430301
20
7.83635603745975
30
0
41
1
10
296.800378688285
20
7.75718070901553
30
0
41
1
10
296.782582671327
20
7.60222366693927
30
0
41
1
10
296.773454443619
20
7.52629522836861
30
0
41
1
10
296.727022603228
20
7.1572804240231
30
0
41
1
10
296.687419763537
20
6.89611585254698
30
0
41
1
10
296.645582800411
20
6.66590546766136
30
0
0
SPLINE
5
2EE
100
AcDbEntity
8
1
62
256
6
ByLayer
370
13
48
1
60
0
100
AcDbSpline
70
4
71
3
72
12
73
8
40
0
40
0
40
0
40
0
40
0.5
40
0.5
40
0.75
40
0.75
40
1
40
1
40
1
40
1
41
1
10
33.1414286319792
20
-30.8802579715498
30
0
41
1
10
32.583097556437
20
-30.8804676982503
30
0
41
1
10
32.0364707304382
20
-30.9369221058848
30
0
41
1
10
31.2327012327667
20
-31.0993120901176
30
0
41
1
10
30.9674896589818
20
-31.1664726198191
30
0
41
1
10
30.4424353750562
20
-31.3265937120711
30
0
41
1
10
30.1853451893468
20
-31.4187420064518
30
0
41
1
10
29.9342958526571
20
-31.5219055888843
30
0
0
SPLINE
5
2EF
100
AcDbEntity
8
1
62
256
6
ByLayer
370
13
48
1
60
0
100
AcDbSpline
70
4
71
3
72
28
73
24
40
0
40
0
40
0
40
0
40
0.0004498119156999
40
0.0004498119156999
40
0.0504273213199149
40
0.0504273213199149
40
0.10040483072413
40
0.10040483072413
40
0.20035984953256
40
0.20035984953256
40
0.40026988714942
40
0.40026988714942
40
0.50022490595785
40
0.50022490595785
40
0.550202415362065
40
0.550202415362065
40
0.600179924766279
40
0.600179924766279
40
0.70013494357471
40
0.70013494357471
40
0.80008996238314
40
0.80008996238314
40
1
40
1
40
1
40
1
41
1
10
18.3813371056186
20
-11.923255543937
30
0
41
1
10
18.3787244259254
20
-11.9249728713901
30
0
41
1
10
18.3761120343137
20
-11.9266905843172
30
0
41
1
10
18.0832754495333
20
-12.1193024178363
30
0
41
1
10
17.7966437069459
20
-12.3150041196604
30
0
41
1
10
17.2306502606418
20
-12.7160982133205
30
0
41
1
10
16.9525757899017
20
-12.9205909160175
30
0
41
1
10
16.1350220901061
20
-13.5441174060994
30
0
41
1
10
15.6112373869446
20
-13.973832219115
30
0
41
1
10
14.1029129320472
20
-15.3042022011606
30
0
41
1
10
13.1818750704876
20
-16.2471684493995
30
0
41
1
10
11.921886830427
20
-17.743095144788
30
0
41
1
10
11.5222444064452
20
-18.2552805904469
30
0
41
1
10
10.9539196788296
20
-19.0440928904986
30
0
41
1
10
10.7696780285058
20
-19.3104590488152
30
0
41
1
10
10.4118292199034
20
-19.8501684642668
30
0
41
1
10
10.2391718905151
20
-20.1220876644997
30
0
41
1
10
9.74046647149747
20
-20.9431130962891
30
0
41
1
10
9.43361952088644
20
-21.4976888799431
30
0
41
1
10
8.87017816113111
20
-22.6227153072976
30
0
41
1
10
8.61324357422625
20
-23.1930023802288
30
0
41
1
10
7.9121464740449
20
-24.925485456232
30
0
41
1
10
7.53702660353521
20
-26.1091229388361
30
0
41
1
10
7.2495294756235
20
-27.3190927283449
30
0
0
SPLINE
5
2F0
100
AcDbEntity
8
1
62
256
6
ByLayer
370
13
48
1
60
0
100
AcDbSpline
70
4
71
3
72
10
73
6
40
0
40
0
40
0
40
0
40
0.5
40
0.5
40
1
40
1
40
1
40
1
41
1
10
297.266723583978
20
-5.54836119231058
30
0
41
1
10
297.320441119887
20
-5.84082260250378
30
0
41
1
10
297.353296600541
20
-6.1333322134968
30
0
41
1
10
297.379143578641
20
-6.71833970728022
30
0
41
1
10
297.372132639373
20
-7.01083780679249
30
0
41
1
10
297.344859325567
20
-7.30332805197091
30
0
0
SPLINE
5
2F1
100
AcDbEntity
8
1
62
256
6
ByLayer
370
13
48
1
60
0
100
AcDbSpline
70
4
71
3
72
14
73
10
40
0
40
0
40
0
40
0
40
0.25
40
0.25
40
0.5
40
0.5
40
0.75
40
0.75
40
1
40
1
40
1
40
1
41
1
10
283.863019877619
20
13.1709514275353
30
0
41
1
10
283.838189913335
20
13.1774601553394
30
0
41
1
10
283.811463401323
20
13.1847760722989
30
0
41
1
10
283.755744850538
20
13.1986756627096
30
0
41
1
10
283.726563757483
20
13.2053099680028
30
0
41
1
10
283.66508514717
20
13.2161181089282
30
0
41
1
10
283.633782163179
20
13.2200772907192
30
0
41
1
10
283.570407159337
20
13.2242036267602
30
0
41
1
10
283.537888888429
20
13.2243444418383
30
0
41
1
10
283.506226946961
20
13.2226851097983
30
0
0
SPLINE
5
2F2
100
AcDbEntity
8
1
62
256
6
ByLayer
370
13
48
1
60
0
100
AcDbSpline
70
4
71
3
72
8
73
4
40
0
40
0
40
0
40
0
40
1
40
1
40
1
40
1
41
1
10
33.1414286319792
20
-30.8802579715498
30
0
41
1
10
33.1414286339564
20
-31.1100359645377
30
0
41
1
10
33.1414286359549
20
-31.3398139575094
30
0
41
1
10
33.1414286379748
20
-31.5695919504649
30
0
0
SPLINE
5
2F3
100
AcDbEntity
8
1
62
256
6
ByLayer
370
13
48
1
60
0
100
AcDbSpline
70
4
71
3
72
58
73
54
40
0
40
0
40
0
40
0
40
0.031249999999999
40
0.031249999999999
40
0.062499999999998
40
0.062499999999998
40
0.093749999999997
40
0.093749999999997
40
0.124999999999996
40
0.124999999999996
40
0.140624999999996
40
0.140624999999996
40
0.156249999999996
40
0.156249999999996
40
0.171874999999995
40
0.171874999999995
40
0.179687499999995
40
0.179687499999995
40
0.187499999999995
40
0.187499999999995
40
0.195312499999995
40
0.195312499999995
40
0.203124999999995
40
0.203124999999995
40
0.218749999999995
40
0.218749999999995
40
0.249999999999995
40
0.249999999999995
40
0.312499999999996
40
0.312499999999996
40
0.374999999999996
40
0.374999999999996
40
0.437499999999996
40
0.437499999999996
40
0.499999999999997
40
0.499999999999997
40
0.562499999999997
40
0.562499999999997
40
0.624999999999998
40
0.624999999999998
40
0.687499999999998
40
0.687499999999998
40
0.749999999999998
40
0.749999999999998
40
0.812499999999999
40
0.812499999999999
40
0.843749999999999
40
0.843749999999999
40
0.874999999999999
40
0.874999999999999
40
0.9375
40
0.9375
40
1
40
1
40
1
40
1
41
1
10
261.993980086286
20
-31.2284642860364
30
0
41
1
10
260.699885423097
20
-31.2114161486025
30
0
41
1
10
259.402347954121
20
-31.1957615821673
30
0
41
1
10
256.803886570661
20
-31.166170101774
30
0
41
1
10
255.502987294276
20
-31.1521797536177
30
0
41
1
10
252.901472649266
20
-31.1225673029253
30
0
41
1
10
251.600766445584
20
-31.1070711970998
30
0
41
1
10
249.005222683839
20
-31.0680984176422
30
0
41
1
10
247.710397548524
20
-31.0446749027338
30
0
41
1
10
245.77702585325
20
-30.9960065825223
30
0
41
1
10
245.133778657701
20
-30.9774958164712
30
0
41
1
10
243.856142730608
20
-30.9341144541294
30
0
41
1
10
243.22123818307
20
-30.9092340125582
30
0
41
1
10
241.960979972073
20
-30.8506209491649
30
0
41
1
10
241.335536178471
20
-30.8169661898139
30
0
41
1
10
240.406429203499
20
-30.7569687596869
30
0
41
1
10
240.098182208387
20
-30.7353058147946
30
0
41
1
10
239.485305809435
20
-30.6884477557477
30
0
41
1
10
239.181119281532
20
-30.6633559354748
30
0
41
1
10
238.578163685358
20
-30.6090284908706
30
0
41
1
10
238.278209420255
20
-30.5803587381377
30
0
41
1
10
237.678506222205
20
-30.5213160080462
30
0
41
1
10
237.378746292834
20
-30.4909636251971
30
0
41
1
10
236.480373196668
20
-30.3970308907103
30
0
41
1
10
235.883317960716
20
-30.3301665559698
30
0
41
1
10
234.090618867392
20
-30.1206221614549
30
0
41
1
10
232.89233354182
20
-29.9699701928787
30
0
41
1
10
229.298183525513
20
-29.4798348343007
30
0
41
1
10
226.903185577325
20
-29.1011169824589
30
0
41
1
10
222.117876709544
20
-28.2440360768171
30
0
41
1
10
219.725976101977
20
-27.7652662413958
30
0
41
1
10
214.931776798483
20
-26.7253451386718
30
0
41
1
10
212.531404827859
20
-26.1646479852418
30
0
41
1
10
207.705864684184
20
-24.994380230173
30
0
41
1
10
205.280311776529
20
-24.3846656158748
30
0
41
1
10
200.404048317807
20
-23.1476490865952
30
0
41
1
10
197.952198192994
20
-22.5198243807727
30
0
41
1
10
193.019012108236
20
-21.2674323475897
30
0
41
1
10
190.540309123339
20
-20.6435550791949
30
0
41
1
10
185.554671986483
20
-19.4222497085447
30
0
41
1
10
183.046796654239
20
-18.8245239342281
30
0
41
1
10
178.011037745557
20
-17.6782821756002
30
0
41
1
10
175.481906110871
20
-17.1296217248201
30
0
41
1
10
170.398380036632
20
-16.1006569388484
30
0
41
1
10
167.844279575173
20
-15.6194254001332
30
0
41
1
10
163.996073575218
20
-14.948605165995
30
0
41
1
10
162.710281360825
20
-14.7334677232156
30
0
41
1
10
160.136274196648
20
-14.320822859301
30
0
41
1
10
158.84770108962
20
-14.1232163954679
30
0
41
1
10
154.977346343263
20
-13.556994813116
30
0
41
1
10
152.390895875212
20
-13.215210789615
30
0
41
1
10
147.205188845531
20
-12.6096046241805
30
0
41
1
10
144.605995931809
20
-12.3453677994014
30
0
41
1
10
142
20
-12.1243434879835
30
0
0
SPLINE
5
2F4
100
AcDbEntity
8
1
62
256
6
ByLayer
370
13
48
1
60
0
100
AcDbSpline
70
4
71
3
72
14
73
10
40
0
40
0
40
0
40
0
40
0.499999999999991
40
0.499999999999991
40
0.624999999999986
40
0.624999999999986
40
0.749999999999981
40
0.749999999999981
40
1
40
1
40
1
40
1
41
1
10
277.572732608063
20
12.4248177772379
30
0
41
1
10
277.576721648494
20
12.7517507356077
30
0
41
1
10
277.550374948072
20
13.0761470333189
30
0
41
1
10
277.46652995417
20
13.4773851994112
30
0
41
1
10
277.447090223007
20
13.5576916878381
30
0
41
1
10
277.403097569091
20
13.7159036139407
30
0
41
1
10
277.378543900603
20
13.7939108175515
30
0
41
1
10
277.296911544785
20
14.0245075450196
30
0
41
1
10
277.231891793521
20
14.1736851980474
30
0
41
1
10
277.155175209951
20
14.3178373178112
30
0
0
SPLINE
5
2F5
100
AcDbEntity
8
1
62
256
6
ByLayer
370
13
48
1
60
0
100
AcDbSpline
70
4
71
3
72
18
73
14
40
0
40
0
40
0
40
0
40
0.25
40
0.25
40
0.375
40
0.375
40
0.5
40
0.5
40
0.75
40
0.75
40
0.875
40
0.875
40
1
40
1
40
1
40
1
41
1
10
296.535851908976
20
14.1359256275028
30
0
41
1
10
296.593218874437
20
14.1389321027668
30
0
41
1
10
296.650978754446
20
14.1317576833135
30
0
41
1
10
296.732306124868
20
14.1083830490072
30
0
41
1
10
296.75820243134
20
14.0986125668857
30
0
41
1
10
296.806386965566
20
14.0766700897317
30
0
41
1
10
296.829065104018
20
14.0642800587758
30
0
41
1
10
296.889137596936
20
14.0273602754282
30
0
41
1
10
296.920033886235
20
14.002496304716
30
0
41
1
10
296.952375108359
20
13.9768634484929
30
0
41
1
10
296.961094706919
20
13.9700403764244
30
0
41
1
10
296.974273120033
20
13.9611089140939
30
0
41
1
10
296.978879126339
20
13.9588692309271
30
0
41
1
10
296.981589869296
20
13.9590112949457
30
0
0
SPLINE
5
2F6
100
AcDbEntity
8
1
62
256
6
ByLayer
370
13
48
1
60
0
100
AcDbSpline
70
4
71
3
72
10
73
6
40
0
40
0
40
0
40
0
40
0.5
40
0.5
40
1
40
1
40
1
40
1
41
1
10
277.155175209951
20
14.3178373178112
30
0
41
1
10
277.127871618646
20
14.4146081494328
30
0
41
1
10
277.093861118117
20
14.5091653307378
30
0
41
1
10
277.011302279354
20
14.6934814043055
30
0
41
1
10
276.962508486967
20
14.7834591811668
30
0
41
1
10
276.907135493432
20
14.8689572191966
30
0
0
SPLINE
5
2F7
100
AcDbEntity
8
1
62
256
6
ByLayer
370
13
48
1
60
0
100
AcDbSpline
70
4
71
3
72
8
73
4
40
0
40
0
40
0
40
0
40
1
40
1
40
1
40
1
41
1
10
36.45
20
-30.8654775029289
30
0
41
1
10
36.3033333324813
20
-30.8655289670278
30
0
41
1
10
36.1566666657798
20
-30.8655821726986
30
0
41
1
10
36.01
20
-30.8656371573426
30
0
0
SPLINE
5
2F8
100
AcDbEntity
8
1
62
256
6
ByLayer
370
13
48
1
60
0
100
AcDbSpline
70
4
71
3
72
16
73
12
40
0
40
0
40
0
40
0
40
0.339789257314056
40
0.339789257314056
40
0.509683885971084
40
0.509683885971084
40
0.594631200299598
40
0.594631200299598
40
0.679578514628112
40
0.679578514628112
40
1
40
1
40
1
40
1
41
1
10
7.24957952516013
20
-23.0766809327805
30
0
41
1
10
7.53739169864782
20
-21.9071139477579
30
0
41
1
10
7.91374616180957
20
-20.7540319490477
30
0
41
1
10
8.62069009071203
20
-19.0495490205575
30
0
41
1
10
8.88024720938344
20
-18.4856142828777
30
0
41
1
10
9.30823545609293
20
-17.6464117625333
30
0
41
1
10
9.457157183858
20
-17.3682301050872
30
0
41
1
10
9.7662002532915
20
-16.8179621717143
30
0
41
1
10
9.92649623057409
20
-16.5455255672084
30
0
41
1
10
10.7182128288814
20
-15.2578770919447
30
0
41
1
10
11.4230696614311
20
-14.2766972740816
30
0
41
1
10
12.2049037483395
20
-13.3303247345828
30
0
0
SPLINE
5
2F9
100
AcDbEntity
8
1
62
256
6
ByLayer
370
13
48
1
60
0
100
AcDbSpline
70
4
71
3
72
32
73
28
40
0
40
0
40
0
40
0
40
0.140974146374188
40
0.140974146374188
40
0.21146121956128
40
0.21146121956128
40
0.281948292748373
40
0.281948292748373
40
0.42292243912256
40
0.42292243912256
40
0.493409512309654
40
0.493409512309654
40
0.563896585496748
40
0.563896585496748
40
0.704870731870935
40
0.704870731870935
40
0.775357805058029
40
0.775357805058029
40
0.845844878245123
40
0.845844878245123
40
0.916331951432217
40
0.916331951432217
40
0.951575488025764
40
0.951575488025764
40
0.986819024619311
40
0.986819024619311
40
1
40
1
40
1
40
1
41
1
10
266.051538540858
20
31.0733846151651
30
0
41
1
10
263.543177726974
20
31.2266109025051
30
0
41
1
10
261.037008706489
20
31.3190923484355
30
0
41
1
10
257.277216971756
20
31.3661160880995
30
0
41
1
10
256.023865234153
20
31.3665131150277
30
0
41
1
10
253.516378998285
20
31.336705624742
30
0
41
1
10
252.261836877263
20
31.3064834529607
30
0
41
1
10
248.499892368525
20
31.1700247080595
30
0
41
1
10
245.994189679995
20
31.0180071456272
30
0
41
1
10
242.235208069099
20
30.6995029410677
30
0
41
1
10
240.982117356202
20
30.5782685401241
30
0
41
1
10
238.475010203006
20
30.3059834918396
30
0
41
1
10
237.220599844576
20
30.1548768848007
30
0
41
1
10
233.459001823066
20
29.6579790060069
30
0
41
1
10
230.952564930772
20
29.26888307308
30
0
41
1
10
227.192928896081
20
28.6001686892525
30
0
41
1
10
225.939848094537
20
28.3629530272231
30
0
41
1
10
223.433236763029
20
27.8603629705814
30
0
41
1
10
222.179285713276
20
27.5950525018155
30
0
41
1
10
219.670768853852
20
27.0392754889615
30
0
41
1
10
218.416323435009
20
26.748414308561
30
0
41
1
10
216.531228386428
20
26.296859356205
30
0
41
1
10
215.902206592556
20
26.1439090851635
30
0
41
1
10
214.642008930588
20
25.834421541571
30
0
41
1
10
214.0110860132
20
25.6779213576263
30
0
41
1
10
213.143159183266
20
25.460658897913
30
0
41
1
10
212.906799649542
20
25.401300499255
30
0
41
1
10
212.670331609186
20
25.3417210901819
30
0
0
SPLINE
5
2FA
100
AcDbEntity
8
1
62
256
6
ByLayer
370
13
48
1
60
0
100
AcDbSpline
70
4
71
3
72
10
73
6
40
0
40
0
40
0
40
0
40
0.5
40
0.5
40
1
40
1
40
1
40
1
41
1
10
276.998854228034
20
9.3316164777666
30
0
41
1
10
276.414242444937
20
9.69367543986053
30
0
41
1
10
275.806457318062
20
10.0243741966883
30
0
41
1
10
274.556516788488
20
10.6392588326531
30
0
41
1
10
273.914231938216
20
10.923269531959
30
0
41
1
10
273.257818097329
20
11.1881596395133
30
0
0
SPLINE
5
2FB
100
AcDbEntity
8
1
62
256
6
ByLayer
370
13
48
1
60
0
100
AcDbSpline
70
4
71
3
72
8
73
4
40
0
40
0
40
0
40
0
40
1
40
1
40
1
40
1
41
1
10
267.026877450159
20
5.03475522401118
30
0
41
1
10
267.077714990046
20
5.02050737924608
30
0
41
1
10
267.128539330069
20
5.00633319678769
30
0
41
1
10
267.179350354481
20
4.99223332257216
30
0
0
SPLINE
5
2FC
100
AcDbEntity
8
1
62
256
6
ByLayer
370
13
48
1
60
0
100
AcDbSpline
70
4
71
3
72
14
73
10
40
0
40
0
40
0
40
0
40
0.124999999999984
40
0.124999999999984
40
0.249999999999968
40
0.249999999999968
40
0.499999999999935
40
0.499999999999935
40
1
40
1
40
1
40
1
41
1
10
292.424967649591
20
13.7202088433792
30
0
41
1
10
292.465658114938
20
13.722341340306
30
0
41
1
10
292.507114571246
20
13.725409735604
30
0
41
1
10
292.588916168713
20
13.7332655728348
30
0
41
1
10
292.629667993412
20
13.7380725019352
30
0
41
1
10
292.75154932817
20
13.7551197609472
30
0
41
1
10
292.832304212869
20
13.7699785740436
30
0
41
1
10
293.073641151445
20
13.8252324810565
30
0
41
1
10
293.233219567449
20
13.876104694798
30
0
41
1
10
293.393438565166
20
13.9434228240644
30
0
0
SPLINE
5
2FD
100
AcDbEntity
8
1
62
256
6
ByLayer
370
13
48
1
60
0
100
AcDbSpline
70
4
71
3
72
10
73
6
40
0
40
0
40
0
40
0
40
0.5
40
0.5
40
1
40
1
40
1
40
1
41
1
10
283.929458131622
20
12.446211114432
30
0
41
1
10
283.893998060842
20
12.4032615806036
30
0
41
1
10
283.857776562227
20
12.3623381225698
30
0
41
1
10
283.786685914892
20
12.2867849793467
30
0
41
1
10
283.75158983479
20
12.251867527841
30
0
41
1
10
283.717701577099
20
12.2201381486018
30
0
0
SPLINE
5
2FE
100
AcDbEntity
8
1
62
256
6
ByLayer
370
13
48
1
60
0
100
AcDbSpline
70
4
71
3
72
16
73
12
40
0
40
0
40
0
40
0
40
0.25
40
0.25
40
0.499999999999999
40
0.499999999999999
40
0.624999999999999
40
0.624999999999999
40
0.749999999999999
40
0.749999999999999
40
1
40
1
40
1
40
1
41
1
10
283.717701577094
20
12.2201381485963
30
0
41
1
10
283.690107789464
20
12.1943022451895
30
0
41
1
10
283.664394051734
20
12.1716493376828
30
0
41
1
10
283.618609168726
20
12.1336243961126
30
0
41
1
10
283.599216294079
20
12.1188305519587
30
0
41
1
10
283.578650480833
20
12.1051108824214
30
0
41
1
10
283.573297702034
20
12.102002887394
30
0
41
1
10
283.565916922274
20
12.0989446225747
30
0
41
1
10
283.563951400939
20
12.0990498791807
30
0
41
1
10
283.563502567874
20
12.1042587911673
30
0
41
1
10
283.570602023583
20
12.1145184099755
30
0
41
1
10
283.583045292631
20
12.1298051908048
30
0
0
SPLINE
5
2FF
100
AcDbEntity
8
1
62
256
6
ByLayer
370
13
48
1
60
0
100
AcDbSpline
70
4
71
3
72
8
73
4
40
0
40
0
40
0
40
0
40
1
40
1
40
1
40
1
41
1
10
33.1414287958719
20
-11.3903748560272
30
0
41
1
10
34.094285863961
20
-11.3906905573789
30
0
41
1
10
35.0471429320037
20
-11.3910061792991
30
0
41
1
10
36
20
-11.3913217217838
30
0
0
SPLINE
5
300
100
AcDbEntity
8
1
62
256
6
ByLayer
370
13
48
1
60
0
100
AcDbSpline
70
4
71
3
72
8
73
4
40
0
40
0
40
0
40
0
40
1
40
1
40
1
40
1
41
1
10
273.524054654543
20
12.2781347724358
30
0
41
1
10
273.524672879176
20
12.2808416609374
30
0
41
1
10
273.525374727945
20
12.2835380160585
30
0
41
1
10
273.526158377435
20
12.2862240920838
30
0
0
SPLINE
5
301
100
AcDbEntity
8
1
62
256
6
ByLayer
370
13
48
1
60
0
100
AcDbSpline
70
4
71
3
72
8
73
4
40
0
40
0
40
0
40
0
40
1
40
1
40
1
40
1
41
1
10
298.72008067038
20
0.588906430484116
30
0
41
1
10
298.864314101088
20
0.609533187876679
30
0
41
1
10
299.007328660704
20
0.618853654915625
30
0
41
1
10
299.150148748234
20
0.618273247318967
30
0
0
SPLINE
5
302
100
AcDbEntity
8
1
62
256
6
ByLayer
370
13
48
1
60
0
100
AcDbSpline
70
4
71
3
72
24
73
20
40
0
40
0
40
0
40
0
40
0.124999999999989
40
0.124999999999989
40
0.249999999999978
40
0.249999999999978
40
0.374999999999968
40
0.374999999999968
40
0.499999999999957
40
0.499999999999957
40
0.624999999999946
40
0.624999999999946
40
0.68749999999994
40
0.68749999999994
40
0.749999999999935
40
0.749999999999935
40
0.874999999999967
40
0.874999999999967
40
1
40
1
40
1
40
1
41
1
10
283.76854414633
20
11.9642105612357
30
0
41
1
10
283.647874541019
20
11.8685569377009
30
0
41
1
10
283.520289913449
20
11.7817354043008
30
0
41
1
10
283.252114252458
20
11.6274836934909
30
0
41
1
10
283.113975934332
20
11.5613928209236
30
0
41
1
10
282.829133499698
20
11.4504592132996
30
0
41
1
10
282.682046219437
20
11.4055335008692
30
0
41
1
10
282.38004818898
20
11.3380958247743
30
0
41
1
10
282.228125409137
20
11.3161938304443
30
0
41
1
10
281.922389134892
20
11.2951155872516
30
0
41
1
10
281.76857568002
20
11.295940531473
30
0
41
1
10
281.53648474418
20
11.3147199460163
30
0
41
1
10
281.458773169932
20
11.3239619541393
30
0
41
1
10
281.305544477614
20
11.3480362164734
30
0
41
1
10
281.229702311492
20
11.3628827544282
30
0
41
1
10
281.004479409822
20
11.4156999265613
30
0
41
1
10
280.857385677806
20
11.4618963966908
30
0
41
1
10
280.569629179865
20
11.5766980938402
30
0
41
1
10
280.428669404933
20
11.6457183937742
30
0
41
1
10
280.295745705763
20
11.7240021055835
30
0
0
SPLINE
5
303
100
AcDbEntity
8
1
62
256
6
ByLayer
370
13
48
1
60
0
100
AcDbSpline
70
2053
71
3
72
91
73
87
40
0
40
0
40
0
40
0
40
0.0312500000000118
40
0.0312500000000118
40
0.0468750000000177
40
0.0468750000000177
40
0.0625000000000236
40
0.0625000000000236
40
0.0937500000000466
40
0.0937500000000466
40
0.109375000000053
40
0.109375000000053
40
0.12500000000006
40
0.12500000000006
40
0.156250000000064
40
0.156250000000064
40
0.187500000000068
40
0.187500000000068
40
0.203125000000068
40
0.203125000000068
40
0.218750000000068
40
0.218750000000068
40
0.250000000000069
40
0.250000000000069
40
0.281250000000069
40
0.281250000000069
40
0.312500000000069
40
0.312500000000069
40
0.328125000000069
40
0.328125000000069
40
0.34375000000007
40
0.34375000000007
40
0.375000000000063
40
0.375000000000063
40
0.406250000000057
40
0.406250000000057
40
0.421875000000059
40
0.421875000000059
40
0.437500000000061
40
0.437500000000061
40
0.468750000000065
40
0.468750000000065
40
0.500000000000069
40
0.500000000000069
40
0.531250000000072
40
0.531250000000072
40
0.546875000000074
40
0.546875000000074
40
0.562500000000076
40
0.578125000000078
40
0.578125000000078
40
0.59375000000008
40
0.59375000000008
40
0.625000000000083
40
0.625000000000083
40
0.640625000000081
40
0.640625000000081
40
0.656250000000079
40
0.656250000000079
40
0.687500000000074
40
0.687500000000074
40
0.718750000000068
40
0.718750000000068
40
0.734375000000066
40
0.734375000000066
40
0.750000000000063
40
0.750000000000063
40
0.781250000000058
40
0.781250000000058
40
0.796875000000055
40
0.796875000000055
40
0.812500000000053
40
0.812500000000053
40
0.843750000000048
40
0.843750000000048
40
0.875000000000043
40
0.875000000000043
40
0.906250000000038
40
0.906250000000038
40
0.921875000000035
40
0.921875000000035
40
0.937500000000033
40
0.937500000000033
40
0.968750000000016
40
0.968750000000016
40
1
40
1
40
1
40
1
41
1
10
289.798361855942
20
-4.03648999026066
30
0
41
1
10
289.9402897373
20
-4.03648999026066
30
0
41
1
10
290.079720672517
20
-4.05097434872599
30
0
41
1
10
290.285280927424
20
-4.09349235435781
30
0
41
1
10
290.353198602868
20
-4.11115741463456
30
0
41
1
10
290.487799564292
20
-4.15363911742034
30
0
41
1
10
290.554364733004
20
-4.17847288272344
30
0
41
1
10
290.747654402906
20
-4.26196347149496
30
0
41
1
10
290.869598656298
20
-4.32997521039548
30
0
41
1
10
291.042220021245
20
-4.45033035783834
30
0
41
1
10
291.098304057579
20
-4.49378779796629
30
0
41
1
10
291.20483709975
20
-4.58524920969128
30
0
41
1
10
291.255456806349
20
-4.63332334067462
30
0
41
1
10
291.399614449144
20
-4.78434861873714
30
0
41
1
10
291.485741619673
20
-4.89438837960927
30
0
41
1
10
291.63618269587
20
-5.13139699518519
30
0
41
1
10
291.698598454727
20
-5.25521744635384
30
0
41
1
10
291.774046607875
20
-5.44843726231898
30
0
41
1
10
291.796144415841
20
-5.51410152109071
30
0
41
1
10
291.834150760271
20
-5.64797337694748
30
0
41
1
10
291.849997509102
20
-5.71612146508721
30
0
41
1
10
291.887368472602
20
-5.92017754807813
30
0
41
1
10
291.899241466598
20
-6.05707582814861
30
0
41
1
10
291.89738183795
20
-6.33254089650885
30
0
41
1
10
291.883270015863
20
-6.4716497377762
30
0
41
1
10
291.830285699799
20
-6.74065708104791
30
0
41
1
10
291.791525834963
20
-6.87193637631143
30
0
41
1
10
291.714548059699
20
-7.06394907840226
30
0
41
1
10
291.685603071608
20
-7.12730242847366
30
0
41
1
10
291.622464624869
20
-7.24977924608186
30
0
41
1
10
291.588168239397
20
-7.30921334183506
30
0
41
1
10
291.477179951852
20
-7.48217768426619
30
0
41
1
10
291.392474623634
20
-7.59042524313409
30
0
41
1
10
291.200138638156
20
-7.79193957567006
30
0
41
1
10
291.09489626261
20
-7.88253361241053
30
0
41
1
10
290.925433729345
20
-8.00166789591088
30
0
41
1
10
290.866901973025
20
-8.03866911390477
30
0
41
1
10
290.745601815482
20
-8.10707160867693
30
0
41
1
10
290.682436466182
20
-8.13863741744035
30
0
41
1
10
290.489339413364
20
-8.22305159888415
30
0
41
1
10
290.356608476771
20
-8.26560741723489
30
0
41
1
10
290.083157399039
20
-8.32340452372355
30
0
41
1
10
289.940749129599
20
-8.33845636357123
30
0
41
1
10
289.66005595449
20
-8.33873778157488
30
0
41
1
10
289.520850886017
20
-8.32450578591099
30
0
41
1
10
289.313770906317
20
-8.28138072792015
30
0
41
1
10
289.245064720617
20
-8.26329691614708
30
0
41
1
10
289.111466685183
20
-8.22071046809771
30
0
41
1
10
288.980835233723
20
-8.17155631738729
30
0
41
1
10
288.855974540662
20
-8.1096011026946
30
0
41
1
10
288.734003858078
20
-8.04121962994674
30
0
41
1
10
288.674271853022
20
-8.00364275490026
30
0
41
1
10
288.503070140863
20
-7.88364259409397
30
0
41
1
10
288.398341254635
20
-7.79347620943739
30
0
41
1
10
288.254771757246
20
-7.64350534970981
30
0
41
1
10
288.208977172921
20
-7.59076408184552
30
0
41
1
10
288.123184818378
20
-7.48171306170516
30
0
41
1
10
288.083229633217
20
-7.42552524982321
30
0
41
1
10
287.971855694328
20
-7.25213987192674
30
0
41
1
10
287.908849483542
20
-7.13016470350246
30
0
41
1
10
287.80557739727
20
-6.87319811298977
30
0
41
1
10
287.766505759695
20
-6.74087283176399
30
0
41
1
10
287.726781496919
20
-6.53938031102615
30
0
41
1
10
287.716653896869
20
-6.47157324868169
30
0
41
1
10
287.702723068274
20
-6.33464975914606
30
0
41
1
10
287.698921874725
20
-6.26520568539522
30
0
41
1
10
287.697415322899
20
-6.05728499723804
30
0
41
1
10
287.709384363332
20
-5.92032374616778
30
0
41
1
10
287.746476150708
20
-5.71733565584501
30
0
41
1
10
287.762051363506
20
-5.65008495146753
30
0
41
1
10
287.799839687681
20
-5.51644131877151
30
0
41
1
10
287.822171086364
20
-5.44983375923758
30
0
41
1
10
287.897902482041
20
-5.25558919350027
30
0
41
1
10
287.960236177695
20
-5.13216601506088
30
0
41
1
10
288.108750433155
20
-4.89762030683949
30
0
41
1
10
288.196066931269
20
-4.78556983625313
30
0
41
1
10
288.388500466213
20
-4.5837115985093
30
0
41
1
10
288.493954112545
20
-4.49286481372255
30
0
41
1
10
288.666362900263
20
-4.37218724934516
30
0
41
1
10
288.726573327549
20
-4.33440772960958
30
0
41
1
10
288.849408331609
20
-4.26577559186137
30
0
41
1
10
288.912183489503
20
-4.23476775202451
30
0
41
1
10
289.104507298088
20
-4.15149837908345
30
0
41
1
10
289.238219390365
20
-4.10884563402314
30
0
41
1
10
289.515956930075
20
-4.05098720171739
30
0
41
1
10
289.656433974584
20
-4.03648999026066
30
0
41
1
10
289.798361855942
20
-4.03648999026066
30
0
0
SPLINE
5
304
100
AcDbEntity
8
1
62
256
6
ByLayer
370
13
48
1
60
0
100
AcDbSpline
70
4
71
3
72
8
73
4
40
0
40
0
40
0
40
0
40
1
40
1
40
1
40
1
41
1
10
275.4064930618
20
2.82175092950123
30
0
41
1
10
275.57741174495
20
2.76627466208899
30
0
41
1
10
275.749544194797
20
2.71380854968265
30
0
41
1
10
275.922942878326
20
2.66447656708826
30
0
0
SPLINE
5
305
100
AcDbEntity
8
1
62
256
6
ByLayer
370
13
48
1
60
0
100
AcDbSpline
70
4
71
3
72
28
73
24
40
0
40
0
40
0
40
0
40
0.0624999999999991
40
0.0624999999999991
40
0.0937499999999986
40
0.0937499999999986
40
0.124999999999998
40
0.124999999999998
40
0.187499999999998
40
0.187499999999998
40
0.218749999999998
40
0.218749999999998
40
0.249999999999998
40
0.249999999999998
40
0.312499999999998
40
0.312499999999998
40
0.374999999999999
40
0.374999999999999
40
0.499999999999999
40
0.499999999999999
40
0.749999999999999
40
0.749999999999999
40
1
40
1
40
1
40
1
41
1
10
142
20
-31.2952208408134
30
0
41
1
10
139.903810456952
20
-31.2889875525778
30
0
41
1
10
137.804999640393
20
-31.2833503212177
30
0
41
1
10
134.652769256251
20
-31.2784450478593
30
0
41
1
10
133.601183304377
20
-31.2774001564107
30
0
41
1
10
131.497874932908
20
-31.2767251021606
30
0
41
1
10
130.446090206847
20
-31.2770754491693
30
0
41
1
10
127.290409597103
20
-31.2800465247237
30
0
41
1
10
125.18617710003
20
-31.2846763943579
30
0
41
1
10
122.029480819822
20
-31.2938733317425
30
0
41
1
10
120.977193615114
20
-31.2972883800062
30
0
41
1
10
118.872573885612
20
-31.3044060963971
30
0
41
1
10
117.820243205416
20
-31.3080856867674
30
0
41
1
10
114.663257286584
20
-31.3191651380918
30
0
41
1
10
112.558602150373
20
-31.3266686934373
30
0
41
1
10
108.349284121544
20
-31.3412406129344
30
0
41
1
10
106.244621845801
20
-31.3483441093884
30
0
41
1
10
99.9306297043229
20
-31.3693598300786
30
0
41
1
10
95.7212955057475
20
-31.3830315998842
30
0
41
1
10
83.0933000520207
20
-31.4244413001984
30
0
41
1
10
74.6746388967517
20
-31.4521890901913
30
0
41
1
10
57.8373197282784
20
-31.5079634816869
30
0
41
1
10
49.4186618855404
20
-31.535982631257
30
0
41
1
10
40.9999999999999
20
-31.5636833604916
30
0
0
SPLINE
5
306
100
AcDbEntity
8
1
62
256
6
ByLayer
370
13
48
1
60
0
100
AcDbSpline
70
4
71
3
72
10
73
6
40
0
40
0
40
0
40
0
40
0.629921337160453
40
0.629921337160453
40
1
40
1
40
1
40
1
41
1
10
273.526158377435
20
12.2862240920838
30
0
41
1
10
268.631366869378
20
12.4395576462001
30
0
41
1
10
263.740578653455
20
12.4973206324845
30
0
41
1
10
255.977568192486
20
12.4415454271043
30
0
41
1
10
253.104880809182
20
12.3888669992328
30
0
41
1
10
250.231772467027
20
12.3050275786622
30
0
0
SPLINE
5
307
100
AcDbEntity
8
1
62
256
6
ByLayer
370
13
48
1
60
0
100
AcDbSpline
70
4
71
3
72
8
73
4
40
0
40
0
40
0
40
0
40
1
40
1
40
1
40
1
41
1
10
278.647559267408
20
11.0963575016696
30
0
41
1
10
278.542900670788
20
11.1239336413764
30
0
41
1
10
278.436760071055
20
11.152006529171
30
0
41
1
10
278.329106859799
20
11.180586424593
30
0
0
SPLINE
5
308
100
AcDbEntity
8
1
62
256
6
ByLayer
370
13
48
1
60
0
100
AcDbSpline
70
4
71
3
72
12
73
8
40
0
40
0
40
0
40
0
40
0.499999999999998
40
0.499999999999998
40
0.749999999999999
40
0.749999999999999
40
1
40
1
40
1
40
1
41
1
10
29.9342958526571
20
-31.5219055888843
30
0
41
1
10
30.4430350670992
20
-31.5402537689748
30
0
41
1
10
30.9670555183994
20
-31.5524809649067
30
0
41
1
10
31.7770132931681
20
-31.5639680906072
30
0
41
1
10
32.0488260549772
20
-31.566599817939
30
0
41
1
10
32.593642825266
20
-31.5696976269775
30
0
41
1
10
32.8670374265253
20
-31.5701691904282
30
0
41
1
10
33.1414286379748
20
-31.5695919504649
30
0
0
SPLINE
5
309
100
AcDbEntity
8
1
62
256
6
ByLayer
370
13
48
1
60
0
100
AcDbSpline
70
4
71
3
72
8
73
4
40
0
40
0
40
0
40
0
40
1
40
1
40
1
40
1
41
1
10
0.0999999999999801
20
-5.61248608016083
30
0
41
1
10
0.0648887286361486
20
-5.41386057804294
30
0
41
1
10
0.0315459658542636
20
-5.21502450127616
30
0
41
1
10
0
20
-5.01597448159387
30
0
0
SPLINE
5
30A
100
AcDbEntity
8
1
62
256
6
ByLayer
370
13
48
1
60
0
100
AcDbSpline
70
4
71
3
72
8
73
4
40
0
40
0
40
0
40
0
40
1
40
1
40
1
40
1
41
1
10
275.923695862193
20
2.66426236491384
30
0
41
1
10
276.188241867605
20
2.59496281094633
30
0
41
1
10
276.454369830456
20
2.53376538824364
30
0
41
1
10
276.721966074225
20
2.48047235585417
30
0
0
SPLINE
5
30B
100
AcDbEntity
8
1
62
256
6
ByLayer
370
13
48
1
60
0
100
AcDbSpline
70
4
71
3
72
30
73
26
40
0
40
0
40
0
40
0
40
0.0469887324708285
40
0.0469887324708285
40
0.0999338028891161
40
0.0999338028891161
40
0.152878873307404
40
0.152878873307404
40
0.205823943725691
40
0.205823943725691
40
0.258769014143979
40
0.258769014143979
40
0.311714084562267
40
0.311714084562267
40
0.364659154980554
40
0.364659154980554
40
0.470549295817128
40
0.470549295817128
40
0.576439436653702
40
0.576439436653702
40
0.788219718326851
40
0.788219718326851
40
0.894109859163425
40
0.894109859163425
40
1
40
1
40
1
40
1
41
1
10
212.686015055728
20
-26.2115732316356
30
0
41
1
10
211.627175259012
20
-26.4679929000539
30
0
41
1
10
210.568745255643
20
-26.7161060470666
30
0
41
1
10
208.317159170144
20
-27.2243113025391
30
0
41
1
10
207.12392212055
20
-27.4819201524201
30
0
41
1
10
204.734653361764
20
-27.9718339798485
30
0
41
1
10
203.538313240336
20
-28.2041770170589
30
0
41
1
10
201.140775510559
20
-28.6391838274306
30
0
41
1
10
199.939351277899
20
-28.8418774371462
30
0
41
1
10
197.526395374747
20
-29.2155693741986
30
0
41
1
10
196.315008888952
20
-29.3867996768186
30
0
41
1
10
193.882439268252
20
-29.7012753623034
30
0
41
1
10
192.661257039578
20
-29.8445196927859
30
0
41
1
10
190.209129325269
20
-30.1059968866532
30
0
41
1
10
188.977738272621
20
-30.2242653614958
30
0
41
1
10
185.272508110408
20
-30.5453615977012
30
0
41
1
10
182.788232346131
20
-30.7144438499543
30
0
41
1
10
177.792709212868
20
-30.9843106474186
30
0
41
1
10
175.281575833608
20
-31.0852345541012
30
0
41
1
10
167.710921780715
20
-31.3112984389688
30
0
41
1
10
162.627313131924
20
-31.3588606531195
30
0
41
1
10
154.927763278161
20
-31.364011697473
30
0
41
1
10
152.353363691424
20
-31.354903452285
30
0
41
1
10
147.188589894722
20
-31.3286404602914
30
0
41
1
10
144.598253361313
20
-31.311483075032
30
0
41
1
10
142
20
-31.2952208408133
30
0
0
SPLINE
5
30C
100
AcDbEntity
8
1
62
256
6
ByLayer
370
13
48
1
60
0
100
AcDbSpline
70
4
71
3
72
8
73
4
40
0
40
0
40
0
40
0
40
1
40
1
40
1
40
1
41
1
10
278.329106859799
20
11.180586424593
30
0
41
1
10
278.271853358132
20
11.1957861485128
30
0
41
1
10
278.21713050118
20
11.2180479276117
30
0
41
1
10
278.164505683515
20
11.2470967389258
30
0
0
SPLINE
5
30D
100
AcDbEntity
8
1
62
256
6
ByLayer
370
13
48
1
60
0
100
AcDbSpline
70
4
71
3
72
8
73
4
40
0
40
0
40
0
40
0
40
1
40
1
40
1
40
1
41
1
10
272.867700832833
20
0.753158007822066
30
0
41
1
10
273.393311734492
20
0.392253112841758
30
0
41
1
10
273.949021616218
20
0.0866331866336054
30
0
41
1
10
274.539169144041
20
-0.155673930483431
30
0
0
SPLINE
5
30E
100
AcDbEntity
8
1
62
256
6
ByLayer
370
13
48
1
60
0
100
AcDbSpline
70
4
71
3
72
8
73
4
40
0
40
0
40
0
40
0
40
1
40
1
40
1
40
1
41
1
10
277.574888096104
20
12.3327284273298
30
0
41
1
10
277.57312431483
20
12.3631702300763
30
0
41
1
10
277.572354842837
20
12.3938569722096
30
0
41
1
10
277.572732608063
20
12.424817777238
30
0
0
SPLINE
5
30F
100
AcDbEntity
8
1
62
256
6
ByLayer
370
13
48
1
60
0
100
AcDbSpline
70
4
71
3
72
8
73
4
40
0
40
0
40
0
40
0
40
1
40
1
40
1
40
1
41
1
10
298.68403273208
20
0.491667824305694
30
0
41
1
10
298.682117986814
20
0.545301164905595
30
0
41
1
10
298.681852181553
20
0.598885308058925
30
0
41
1
10
298.683134311773
20
0.648392847777387
30
0
0
SPLINE
5
310
100
AcDbEntity
8
1
62
256
6
ByLayer
370
13
48
1
60
0
100
AcDbSpline
70
4
71
3
72
28
73
24
40
0
40
0
40
0
40
0
40
0.0625
40
0.0625
40
0.125
40
0.125
40
0.1875
40
0.1875
40
0.21875
40
0.21875
40
0.25
40
0.25
40
0.3125
40
0.3125
40
0.375
40
0.375
40
0.5
40
0.5
40
0.625
40
0.625
40
0.75
40
0.75
40
1
40
1
40
1
40
1
41
1
10
142
20
-12.1243434879835
30
0
41
1
10
139.902949859692
20
-11.9469090332768
30
0
41
1
10
137.803603691431
20
-11.7985020951818
30
0
41
1
10
133.599294846122
20
-11.5744673362108
30
0
41
1
10
131.494624833591
20
-11.498154690557
30
0
41
1
10
127.286383814618
20
-11.4000209579453
30
0
41
1
10
125.182020181983
20
-11.3791270984502
30
0
41
1
10
122.025317198931
20
-11.3661622686916
30
0
41
1
10
120.973057469722
20
-11.3647979757698
30
0
41
1
10
118.86851996967
20
-11.3641713855252
30
0
41
1
10
117.816240554302
20
-11.3651004239255
30
0
41
1
10
114.659387156185
20
-11.3696527273133
30
0
41
1
10
112.554802287866
20
-11.3745439306526
30
0
41
1
10
108.345659636543
20
-11.3811711539189
30
0
41
1
10
106.24109521298
20
-11.3836808033717
30
0
41
1
10
99.9274201485509
20
-11.3890891197817
30
0
41
1
10
95.7183240110715
20
-11.3896351236734
30
0
41
1
10
87.3001230171446
20
-11.3880751397772
30
0
41
1
10
83.0910238093259
20
-11.3863733842874
30
0
41
1
10
74.672821953979
20
-11.3854071318251
30
0
41
1
10
70.4637198420916
20
-11.3857118319002
30
0
41
1
10
57.8364115472262
20
-11.3885190543634
30
0
41
1
10
49.4182032848862
20
-11.3929377666782
30
0
41
1
10
41
20
-11.3926842606446
30
0
0
SPLINE
5
311
100
AcDbEntity
8
1
62
256
6
ByLayer
370
13
48
1
60
0
100
AcDbSpline
70
4
71
3
72
10
73
6
40
0
40
0
40
0
40
0
40
0.5
40
0.5
40
1
40
1
40
1
40
1
41
1
10
293.393438565164
20
13.9434228240644
30
0
41
1
10
293.417895995668
20
13.9536989367083
30
0
41
1
10
293.443960152737
20
13.9620917772459
30
0
41
1
10
293.497295542471
20
13.9742434658889
30
0
41
1
10
293.524744011682
20
13.9781044839366
30
0
41
1
10
293.552985779204
20
13.9796001999676
30
0
0
SPLINE
5
312
100
AcDbEntity
8
1
62
256
6
ByLayer
370
13
48
1
60
0
100
AcDbSpline
70
4
71
3
72
8
73
4
40
0
40
0
40
0
40
0
40
1
40
1
40
1
40
1
41
1
10
275.544877894958
20
14.3543554096044
30
0
41
1
10
275.498895914008
20
14.3486858275792
30
0
41
1
10
275.452107692203
20
14.3461740148087
30
0
41
1
10
275.404595195211
20
14.3462013081006
30
0
0
SPLINE
5
313
100
AcDbEntity
8
1
62
256
6
ByLayer
370
13
48
1
60
0
100
AcDbSpline
70
4
71
3
72
22
73
18
40
0
40
0
40
0
40
0
40
0.125
40
0.125
40
0.25
40
0.25
40
0.375
40
0.375
40
0.5
40
0.5
40
0.625
40
0.625
40
0.75
40
0.75
40
0.875
40
0.875
40
1
40
1
40
1
40
1
41
1
10
273.526158377435
20
12.2862240920837
30
0
41
1
10
273.545853665521
20
12.3537326425705
30
0
41
1
10
273.565074327216
20
12.4257036781637
30
0
41
1
10
273.602018874119
20
12.5745264948359
30
0
41
1
10
273.619885911164
20
12.6518730396526
30
0
41
1
10
273.65477141193
20
12.8123812319834
30
0
41
1
10
273.671899026171
20
12.8961356377843
30
0
41
1
10
273.705049639353
20
13.0667420637957
30
0
41
1
10
273.720986347297
20
13.1530844745248
30
0
41
1
10
273.752029662097
20
13.327725630244
30
0
41
1
10
273.767129309289
20
13.4160255162909
30
0
41
1
10
273.797050213385
20
13.5945416439332
30
0
41
1
10
273.811773194945
20
13.6842362159207
30
0
41
1
10
273.841018024709
20
13.8602249580344
30
0
41
1
10
273.855606514294
20
13.947126239028
30
0
41
1
10
273.886548219427
20
14.1183922471532
30
0
41
1
10
273.90290039111
20
14.2033893609883
30
0
41
1
10
273.922086942697
20
14.284697767151
30
0
0
SPLINE
5
314
100
AcDbEntity
8
1
62
256
6
ByLayer
370
13
48
1
60
0
100
AcDbSpline
70
4
71
3
72
66
73
62
40
0
40
0
40
0
40
0
40
0.0315356045819901
40
0.0315356045819901
40
0.0416237753675946
40
0.0416237753675946
40
0.051711946153199
40
0.051711946153199
40
0.0618001169388035
40
0.0618001169388035
40
0.0718882877244079
40
0.0718882877244079
40
0.0920646292956168
40
0.0920646292956168
40
0.112240970866826
40
0.112240970866826
40
0.152593654009243
40
0.152593654009243
40
0.172769995580452
40
0.172769995580452
40
0.192946337151661
40
0.192946337151661
40
0.233299020294078
40
0.233299020294078
40
0.273651703436495
40
0.273651703436495
40
0.314004386578913
40
0.314004386578913
40
0.334180728150121
40
0.334180728150121
40
0.35435706972133
40
0.35435706972133
40
0.394709752863747
40
0.394709752863747
40
0.435062436006165
40
0.435062436006165
40
0.455238777577373
40
0.455238777577373
40
0.475415119148582
40
0.475415119148582
40
0.485503289934186
40
0.485503289934186
40
0.495591460719791
40
0.495591460719791
40
0.505679631505395
40
0.505679631505395
40
0.515767802290999
40
0.515767802290999
40
0.535944143862207
40
0.535944143862207
40
0.556120485433416
40
0.556120485433416
40
0.596473168575833
40
0.596473168575833
40
0.677178534860666
40
0.677178534860666
40
0.757883901145499
40
0.757883901145499
40
0.838589267430333
40
0.838589267430333
40
1
40
1
40
1
40
1
41
1
10
212.164639462258
20
-26.0890311546951
30
0
41
1
10
210.440598802217
20
-26.4955431798903
30
0
41
1
10
208.717559179248
20
-26.8811813909423
30
0
41
1
10
206.442173058792
20
-27.3518481738978
30
0
41
1
10
205.890599762672
20
-27.4629546556094
30
0
41
1
10
204.787038405387
20
-27.6783733960547
30
0
41
1
10
204.235051464183
20
-27.7825210066152
30
0
41
1
10
203.129825122108
20
-27.9853593577784
30
0
41
1
10
202.576559808621
20
-28.0842248425246
30
0
41
1
10
201.468114520086
20
-28.2777480637213
30
0
41
1
10
200.912974116622
20
-28.3721705366485
30
0
41
1
10
199.244327327696
20
-28.6465581896271
30
0
41
1
10
198.128519242321
20
-28.8164210443065
30
0
41
1
10
195.889428826879
20
-29.1295504187469
30
0
41
1
10
194.766199569731
20
-29.2734173323793
30
0
41
1
10
191.385381855854
20
-29.6707918972581
30
0
41
1
10
189.116667207067
20
-29.8900628968342
30
0
41
1
10
185.690945778028
20
-30.1660506871393
30
0
41
1
10
184.544933551585
20
-30.249141058847
30
0
41
1
10
182.247980535748
20
-30.3987348852575
30
0
41
1
10
181.096872459014
20
-30.4653544270869
30
0
41
1
10
177.635965247879
20
-30.6441304365678
30
0
41
1
10
175.318705889057
20
-30.7361180181174
30
0
41
1
10
170.664717902935
20
-30.8743154428635
30
0
41
1
10
168.327189432545
20
-30.9196565987362
30
0
41
1
10
163.63738808984
20
-30.9803934386261
30
0
41
1
10
161.284432108196
20
-30.9958882007406
30
0
41
1
10
157.741344792209
20
-31.0031757830861
30
0
41
1
10
156.558045539979
20
-31.0029487045272
30
0
41
1
10
154.186669694871
20
-30.9983575981442
30
0
41
1
10
152.998239790089
20
-30.9940806704276
30
0
41
1
10
149.428901677931
20
-30.9792339611407
30
0
41
1
10
147.04400001557
20
-30.9671012417684
30
0
41
1
10
142.263841085054
20
-30.9397642340502
30
0
41
1
10
139.868596987107
20
-30.9247442015049
30
0
41
1
10
136.268029159571
20
-30.8999635431997
30
0
41
1
10
135.066796098106
20
-30.8913963067295
30
0
41
1
10
132.664314388646
20
-30.8754044603104
30
0
41
1
10
131.46276588815
20
-30.8678022031486
30
0
41
1
10
129.660022624049
20
-30.8620799306021
30
0
41
1
10
129.059038193171
20
-30.8611223949623
30
0
41
1
10
127.856936426173
20
-30.8619622191817
30
0
41
1
10
127.255816808604
20
-30.8640510969108
30
0
41
1
10
126.053469343216
20
-30.869592743333
30
0
41
1
10
125.452242457891
20
-30.8728596616119
30
0
41
1
10
124.249721765027
20
-30.8777221255201
30
0
41
1
10
123.648429808859
20
-30.8791085885952
30
0
41
1
10
121.844486605536
20
-30.8804700243053
30
0
41
1
10
120.641752486329
20
-30.8779690251332
30
0
41
1
10
118.236279429895
20
-30.8723174996547
30
0
41
1
10
117.033544341353
20
-30.8695793495717
30
0
41
1
10
113.425338504457
20
-30.8632251045884
30
0
41
1
10
111.019867115773
20
-30.861435408696
30
0
41
1
10
103.803438155623
20
-30.8610230916558
30
0
41
1
10
98.992475106763
20
-30.865107498959
30
0
41
1
10
89.3705564081745
20
-30.8666043876879
30
0
41
1
10
84.5595966667216
20
-30.8651585798663
30
0
41
1
10
74.93767737323
20
-30.864581505061
30
0
41
1
10
70.1267177043744
20
-30.8653034746633
30
0
41
1
10
55.6938386674576
20
-30.8663300117446
30
0
41
1
10
46.0719192704301
20
-30.8657968203018
30
0
41
1
10
36.45
20
-30.8654775778417
30
0
0
SPLINE
5
315
100
AcDbEntity
8
1
62
256
6
ByLayer
370
13
48
1
60
0
100
AcDbSpline
70
4
71
3
72
12
73
8
40
0
40
0
40
0
40
0
40
0.5
40
0.5
40
0.75
40
0.75
40
1
40
1
40
1
40
1
41
1
10
278.486548470005
20
9.76462244597508
30
0
41
1
10
278.483620588153
20
10.0127559742952
30
0
41
1
10
278.454653964804
20
10.2599306090283
30
0
41
1
10
278.373657822688
20
10.6300610212095
30
0
41
1
10
278.340384021861
20
10.7533440879072
30
0
41
1
10
278.261493755532
20
11.0001447352313
30
0
41
1
10
278.215645517379
20
11.124162813773
30
0
41
1
10
278.164505683515
20
11.2470967389255
30
0
0
SPLINE
5
316
100
AcDbEntity
8
1
62
256
6
ByLayer
370
13
48
1
60
0
100
AcDbSpline
70
4
71
3
72
14
73
10
40
0
40
0
40
0
40
0
40
0.499999999999999
40
0.499999999999999
40
0.749999999999998
40
0.749999999999998
40
0.874999999999999
40
0.874999999999999
40
1
40
1
40
1
40
1
41
1
10
33.1414287958719
20
-11.3903748560272
30
0
41
1
10
32.5886941581646
20
-11.3901917235532
30
0
41
1
10
32.0441019233806
20
-11.4349464505292
30
0
41
1
10
31.2389145192419
20
-11.5663265616433
30
0
41
1
10
30.9724803886893
20
-11.6208847456386
30
0
41
1
10
30.5758068326305
20
-11.7189591909356
30
0
41
1
10
30.4440792566461
20
-11.7543601117929
30
0
41
1
10
30.1816321308797
20
-11.8306357399559
30
0
41
1
10
30.0506216117327
20
-11.8716102580596
30
0
41
1
10
29.920860934382
20
-11.9151117914184
30
0
0
SPLINE
5
317
100
AcDbEntity
8
1
62
256
6
ByLayer
370
13
48
1
60
0
100
AcDbSpline
70
4
71
3
72
8
73
4
40
0
40
0
40
0
40
0
40
1
40
1
40
1
40
1
41
1
10
274.539169144042
20
31.1725019505082
30
0
41
1
10
275.53910474837
20
31.291991528352
30
0
41
1
10
276.539105759444
20
31.4109322018982
30
0
41
1
10
277.539169144042
20
31.5293421759358
30
0
0
SPLINE
5
318
100
AcDbEntity
8
1
62
256
6
ByLayer
370
13
48
1
60
0
100
AcDbSpline
70
4
71
3
72
14
73
10
40
0
40
0
40
0
40
0
40
0.499999999999977
40
0.499999999999977
40
0.749999999999988
40
0.749999999999988
40
0.874999999999994
40
0.874999999999994
40
1
40
1
40
1
40
1
41
1
10
272.590332948191
20
2.63690947289746
30
0
41
1
10
273.061390907121
20
2.55082203447213
30
0
41
1
10
273.535283917059
20
2.52236876752968
30
0
41
1
10
274.244401541824
20
2.56754903210123
30
0
41
1
10
274.480476222627
20
2.59733774242318
30
0
41
1
10
274.833178477793
20
2.66511353821238
30
0
41
1
10
274.950018473586
20
2.69148590412684
30
0
41
1
10
275.180382514346
20
2.75128706169105
30
0
41
1
10
275.294169982703
20
2.78476483186122
30
0
41
1
10
275.4064930618
20
2.82175092950118
30
0
0
SPLINE
5
319
100
AcDbEntity
8
1
62
256
6
ByLayer
370
13
48
1
60
0
100
AcDbSpline
70
4
71
3
72
14
73
10
40
0
40
0
40
0
40
0
40
0.25
40
0.25
40
0.5
40
0.5
40
0.75
40
0.75
40
1
40
1
40
1
40
1
41
1
10
273.922086942704
20
14.284697767114
30
0
41
1
10
273.928185131201
20
14.3105405552282
30
0
41
1
10
273.944561343709
20
14.333106131694
30
0
41
1
10
273.984847501622
20
14.367943578596
30
0
41
1
10
274.008978876874
20
14.3810769972431
30
0
41
1
10
274.059352316205
20
14.4010530450635
30
0
41
1
10
274.086274088882
20
14.4081090850195
30
0
41
1
10
274.140740811628
20
14.4175241682642
30
0
41
1
10
274.16847501671
20
14.4199476343099
30
0
41
1
10
274.196633018955
20
14.4204460533294
30
0
0
SPLINE
5
31A
100
AcDbEntity
8
1
62
256
6
ByLayer
370
13
48
1
60
0
100
AcDbSpline
70
4
71
3
72
44
73
40
40
0
40
0
40
0
40
0
40
0.125000000000001
40
0.125000000000001
40
0.156250000000001
40
0.156250000000001
40
0.187500000000001
40
0.187500000000001
40
0.250000000000002
40
0.250000000000002
40
0.281250000000002
40
0.281250000000002
40
0.312500000000002
40
0.312500000000002
40
0.375000000000002
40
0.375000000000002
40
0.437500000000003
40
0.437500000000003
40
0.468750000000003
40
0.468750000000003
40
0.500000000000003
40
0.500000000000003
40
0.562500000000002
40
0.562500000000002
40
0.593750000000002
40
0.593750000000002
40
0.625000000000002
40
0.625000000000002
40
0.750000000000001
40
0.750000000000001
40
0.781250000000001
40
0.781250000000001
40
0.812500000000001
40
0.812500000000001
40
0.875000000000001
40
0.875000000000001
40
0.9375
40
0.9375
40
1
40
1
40
1
40
1
41
1
10
7.24957952516014
20
-23.0766809327805
30
0
41
1
10
6.99360348755418
20
-22.5396827940987
30
0
41
1
10
6.8421364830382
20
-21.9677995886653
30
0
41
1
10
6.78677052313505
20
-21.2045737457635
30
0
41
1
10
6.78257298082112
20
-21.0506548987711
30
0
41
1
10
6.78739701796351
20
-20.7418920740255
30
0
41
1
10
6.79646742767559
20
-20.5867972957347
30
0
41
1
10
6.84316425470145
20
-20.1194173807015
30
0
41
1
10
6.89985565867535
20
-19.8050027447278
30
0
41
1
10
7.02296536301469
20
-19.329418085918
30
0
41
1
10
7.07045050740851
20
-19.170237957179
30
0
41
1
10
7.17815670208105
20
-18.850606130745
30
0
41
1
10
7.23795581929325
20
-18.6915742242298
30
0
41
1
10
7.43420622669683
20
-18.2178828245513
30
0
41
1
10
7.58759221385652
20
-17.9061575056243
30
0
41
1
10
7.93686554029931
20
-17.2910759075954
30
0
41
1
10
8.1328447128471
20
-16.9877490579165
30
0
41
1
10
8.45875523538024
20
-16.5398488243346
30
0
41
1
10
8.57218289361171
20
-16.3925166109921
30
0
41
1
10
8.80716903381375
20
-16.103327137349
30
0
41
1
10
8.92890660914684
20
-15.9612226270685
30
0
41
1
10
9.30656612411578
20
-15.5424152362317
30
0
41
1
10
9.57488629809596
20
-15.2731857706759
30
0
41
1
10
10.0019630013603
20
-14.885040545437
30
0
41
1
10
10.1484361122811
20
-14.7582854310088
30
0
41
1
10
10.4496024664193
20
-14.5101615794002
30
0
41
1
10
10.6047742620635
20
-14.3884783143001
30
0
41
1
10
11.395351482065
20
-13.799196905171
30
0
41
1
10
12.0731052463906
20
-13.3888300685596
30
0
41
1
10
12.9769752279523
20
-12.9573379822989
30
0
41
1
10
13.1606124039729
20
-12.8751499330941
30
0
41
1
10
13.5338867805718
20
-12.7195086827333
30
0
41
1
10
13.7239591416585
20
-12.6459051407034
30
0
41
1
10
14.3006105164064
20
-12.4399491141908
30
0
41
1
10
14.6896911477919
20
-12.3238825384202
30
0
41
1
10
15.4772191372631
20
-12.135204735406
30
0
41
1
10
15.875646403472
20
-12.0624988774385
30
0
41
1
10
16.6823735343841
20
-11.9633156853417
30
0
41
1
10
17.0906247783853
20
-11.9366116672777
30
0
41
1
10
17.5044124437158
20
-11.9359172941497
30
0
0
SPLINE
5
31B
100
AcDbEntity
8
1
62
256
6
ByLayer
370
13
48
1
60
0
100
AcDbSpline
70
4
71
3
72
32
73
28
40
0
40
0
40
0
40
0
40
0.127097103331998
40
0.127097103331998
40
0.254194206663996
40
0.254194206663996
40
0.381291309995993
40
0.381291309995993
40
0.444839861661992
40
0.444839861661992
40
0.508388413327991
40
0.508388413327991
40
0.635485516659987
40
0.635485516659987
40
0.699034068325986
40
0.699034068325986
40
0.762582619991985
40
0.762582619991985
40
0.889679723323983
40
0.889679723323983
40
0.921453999156983
40
0.921453999156983
40
0.953228274989983
40
0.953228274989983
40
0.985002550822983
40
0.985002550822983
40
1
40
1
40
1
40
1
41
1
10
266.000534201374
20
30.9967521716222
30
0
41
1
10
263.743503067162
20
31.1337236064605
30
0
41
1
10
261.486728786127
20
31.2222187378152
30
0
41
1
10
256.973452131403
20
31.3018555447002
30
0
41
1
10
254.718738033521
20
31.2929888337055
30
0
41
1
10
250.209566953036
20
31.1768428883598
30
0
41
1
10
247.955117101309
20
31.0694514807616
30
0
41
1
10
244.570719969655
20
30.8331114659419
30
0
41
1
10
243.442512320695
20
30.7418921753034
30
0
41
1
10
241.187212310951
20
30.5352115035433
30
0
41
1
10
240.05985651016
20
30.4197330847503
30
0
41
1
10
236.677952236285
20
30.0376877252726
30
0
41
1
10
234.423549955857
20
29.7356196503184
30
0
41
1
10
231.039654616431
20
29.2141640283761
30
0
41
1
10
229.911008720252
20
29.0287287709768
30
0
41
1
10
227.654882344805
20
28.6340765103132
30
0
41
1
10
226.52724148182
20
28.424767359759
30
0
41
1
10
223.144819772553
20
27.7602534152604
30
0
41
1
10
220.890244887186
20
27.2702485605531
30
0
41
1
10
218.070185226709
20
26.6207491836856
30
0
41
1
10
217.506228235579
20
26.48949925717
30
0
41
1
10
216.377323626085
20
26.2235647465234
30
0
41
1
10
215.812120989609
20
26.088308156589
30
0
41
1
10
214.678759538232
20
25.8113640960713
30
0
41
1
10
214.111023393728
20
25.6702299391415
30
0
41
1
10
213.274176405919
20
25.4603104724424
30
0
41
1
10
213.005668209922
20
25.3926708788983
30
0
41
1
10
212.737006398216
20
25.3247596824404
30
0
0
SPLINE
5
31C
100
AcDbEntity
8
1
62
256
6
ByLayer
370
13
48
1
60
0
100
AcDbSpline
70
4
71
3
72
8
73
4
40
0
40
0
40
0
40
0
40
1
40
1
40
1
40
1
41
1
10
33.1414286379748
20
-31.5695919504649
30
0
41
1
10
34.0942857586867
20
-31.5675874139255
30
0
41
1
10
35.0471428793618
20
-31.5655828656292
30
0
41
1
10
36
20
-31.5635783055654
30
0
0
SPLINE
5
31D
100
AcDbEntity
8
1
62
256
6
ByLayer
370
13
48
1
60
0
100
AcDbSpline
70
4
71
3
72
8
73
4
40
0
40
0
40
0
40
0
40
1
40
1
40
1
40
1
41
1
10
274.196690724971
20
14.4211066683646
30
0
41
1
10
274.307723898794
20
15.6922114428622
30
0
41
1
10
274.41682966599
20
16.9622853694217
30
0
41
1
10
274.523607310976
20
18.2314513052967
30
0
0
SPLINE
5
31E
100
AcDbEntity
8
1
62
256
6
ByLayer
370
13
48
1
60
0
100
AcDbSpline
70
4
71
3
72
10
73
6
40
0
40
0
40
0
40
0
40
0.5
40
0.5
40
1
40
1
40
1
40
1
41
1
10
288.913392059706
20
12.034116445932
30
0
41
1
10
290.25650764516
20
12.104506151086
30
0
41
1
10
291.54639297909
20
12.1721061769671
30
0
41
1
10
294.004455832907
20
12.3009277924737
30
0
41
1
10
295.172776857101
20
12.3621569028414
30
0
41
1
10
296.266815976974
20
12.4194930635627
30
0
0
SPLINE
5
31F
100
AcDbEntity
8
1
62
256
6
ByLayer
370
13
48
1
60
0
100
AcDbSpline
70
4
71
3
72
8
73
4
40
0
40
0
40
0
40
0
40
1
40
1
40
1
40
1
41
1
10
278.486548469984
20
9.7646224459607
30
0
41
1
10
278.755741533633
20
10.1602413241474
30
0
41
1
10
279.015828268002
20
10.5563604060751
30
0
41
1
10
279.271056713929
20
10.9499130025957
30
0
0
SPLINE
5
320
100
AcDbEntity
8
1
62
256
6
ByLayer
370
13
48
1
60
0
100
AcDbSpline
70
4
71
3
72
8
73
4
40
0
40
0
40
0
40
0
40
1
40
1
40
1
40
1
41
1
10
270.613663104399
20
3.28500855552952
30
0
41
1
10
269.465468801296
20
3.84265665492731
30
0
41
1
10
268.320749743094
20
4.4119046740731
30
0
41
1
10
267.179350354469
20
4.99223332257552
30
0
0
SPLINE
5
321
100
AcDbEntity
8
1
62
256
6
ByLayer
370
13
48
1
60
0
100
AcDbSpline
70
4
71
3
72
8
73
4
40
0
40
0
40
0
40
0
40
1
40
1
40
1
40
1
41
1
10
5.92280000000001
20
5.61248608016095
30
0
41
1
10
7.62280120523268
20
5.5925021779592
30
0
41
1
10
9.3228013012935
20
5.57241490659223
30
0
41
1
10
11.0228
20
5.55222086658489
30
0
0
SPLINE
5
322
100
AcDbEntity
8
1
62
256
6
ByLayer
370
13
48
1
60
0
100
AcDbSpline
70
4
71
3
72
12
73
8
40
0
40
0
40
0
40
0
40
0.499999999999955
40
0.499999999999955
40
0.749999999999977
40
0.749999999999977
40
1
40
1
40
1
40
1
41
1
10
298.754151568105
20
12.7520556043581
30
0
41
1
10
298.510296635899
20
12.8147731578883
30
0
41
1
10
298.275170682418
20
12.9040522587279
30
0
41
1
10
297.931001900419
20
13.0870658754571
30
0
41
1
10
297.819760779558
20
13.1554561084221
30
0
41
1
10
297.606949906366
20
13.3064896168513
30
0
41
1
10
297.504955684646
20
13.3893182794603
30
0
41
1
10
297.407741221223
20
13.4806587679396
30
0
0
SPLINE
5
323
100
AcDbEntity
8
1
62
256
6
ByLayer
370
13
48
1
60
0
100
AcDbSpline
70
4
71
3
72
10
73
6
40
0
40
0
40
0
40
0
40
0.5
40
0.5
40
1
40
1
40
1
40
1
41
1
10
275.997505570633
20
14.3637815668397
30
0
41
1
10
276.19904358825
20
14.3441550071263
30
0
41
1
10
276.395179321183
20
14.3316760640647
30
0
41
1
10
276.780150483443
20
14.3174343922673
30
0
41
1
10
276.968968047688
20
14.3156436777135
30
0
41
1
10
277.155175209951
20
14.3178373178113
30
0
0
SPLINE
5
324
100
AcDbEntity
8
1
62
256
6
ByLayer
370
13
48
1
60
0
100
AcDbSpline
70
4
71
3
72
52
73
48
40
0
40
0
40
0
40
0
40
0.015625
40
0.015625
40
0.0312500000000001
40
0.0312500000000001
40
0.0468750000000001
40
0.0468750000000001
40
0.0625000000000002
40
0.0625000000000002
40
0.0781250000000002
40
0.0781250000000002
40
0.0937500000000002
40
0.0937500000000002
40
0.125
40
0.125
40
0.156250000000001
40
0.156250000000001
40
0.187500000000001
40
0.187500000000001
40
0.250000000000001
40
0.250000000000001
40
0.375000000000001
40
0.375000000000001
40
0.437500000000001
40
0.437500000000001
40
0.500000000000001
40
0.500000000000001
40
0.625000000000001
40
0.625000000000001
40
0.750000000000001
40
0.750000000000001
40
0.812500000000001
40
0.812500000000001
40
0.875000000000001
40
0.875000000000001
40
0.906250000000001
40
0.906250000000001
40
0.937500000000001
40
0.937500000000001
40
0.953125000000001
40
0.953125000000001
40
0.96875
40
0.96875
40
0.984375
40
0.984375
40
1
40
1
40
1
40
1
41
1
10
11.0228
20
-5.55222086658492
30
0
41
1
10
11.0883189121093
20
-5.55144257685248
30
0
41
1
10
11.1515393826906
20
-5.53869781380826
30
0
41
1
10
11.2739254975445
20
-5.49324041451848
30
0
41
1
10
11.3299519133122
20
-5.46185391566141
30
0
41
1
10
11.435050479989
20
-5.38740454955766
30
0
41
1
10
11.4837256343243
20
-5.34440139770589
30
0
41
1
10
11.573035163937
20
-5.25311290735996
30
0
41
1
10
11.6141921828597
20
-5.20439283418099
30
0
41
1
10
11.691482591885
20
-5.1025141828533
30
0
41
1
10
11.7276640595682
20
-5.04918702469007
30
0
41
1
10
11.7950194498316
20
-4.94095025240696
30
0
41
1
10
11.826373771218
20
-4.88580448517828
30
0
41
1
10
11.9151088793779
20
-4.71799114267716
30
0
41
1
10
11.9672422145779
20
-4.60298214489092
30
0
41
1
10
12.0621499081672
20
-4.36870850395727
30
0
41
1
10
12.1048548340535
20
-4.24941392635279
30
0
41
1
10
12.1831988847222
20
-4.00754914353294
30
0
41
1
10
12.2187893152503
20
-3.88498019729852
30
0
41
1
10
12.3161976515138
20
-3.51706963162278
30
0
41
1
10
12.3692930884327
20
-3.27010037704594
30
0
41
1
10
12.5047587287255
20
-2.52557423488406
30
0
41
1
10
12.5637462133131
20
-2.02445442390575
30
0
41
1
10
12.6221226429199
20
-1.26771983419877
30
0
41
1
10
12.6363347569382
20
-1.0146035738573
30
0
41
1
10
12.655203251205
20
-0.506740581871895
30
0
41
1
10
12.6598471664682
20
-0.251513924796086
30
0
41
1
10
12.6597398149389
20
0.51177492737736
30
0
41
1
10
12.6414266392604
20
1.01805357236103
30
0
41
1
10
12.5636594700103
20
2.02500534786228
30
0
41
1
10
12.5047576496173
20
2.52573479904226
30
0
41
1
10
12.369123573409
20
3.2709545781793
30
0
41
1
10
12.3159230466946
20
3.51837086065856
30
0
41
1
10
12.1855123355033
20
4.01040085419771
30
0
41
1
10
12.1090135809568
20
4.2536206338566
30
0
41
1
10
11.9652897928183
20
4.60749850006192
30
0
41
1
10
11.9127486887007
20
4.72292406291874
30
0
41
1
10
11.7940931529338
20
4.94636281343065
30
0
41
1
10
11.7281774546144
20
5.05457279204214
30
0
41
1
10
11.6118296080172
20
5.20728411555407
30
0
41
1
10
11.5705412835683
20
5.25591761696501
30
0
41
1
10
11.4810067069592
20
5.34690967278735
30
0
41
1
10
11.4323442763188
20
5.38954805258075
30
0
41
1
10
11.3283354043754
20
5.46276290631889
30
0
41
1
10
11.2728397970157
20
5.49371674668734
30
0
41
1
10
11.1513690736154
20
5.53868723686804
30
0
41
1
10
11.0879965335687
20
5.5514464063408
30
0
41
1
10
11.0228
20
5.55222086658492
30
0
0
SPLINE
5
325
100
AcDbEntity
8
1
62
256
6
ByLayer
370
13
48
1
60
0
100
AcDbSpline
70
4
71
3
72
10
73
6
40
0
40
0
40
0
40
0
40
0.5
40
0.5
40
1
40
1
40
1
40
1
41
1
10
275.54487789496
20
14.3543554095985
30
0
41
1
10
275.619088656742
20
14.3626194830715
30
0
41
1
10
275.693719306247
20
14.3685934940905
30
0
41
1
10
275.844327551925
20
14.3731952856469
30
0
41
1
10
275.920270447295
20
14.3720123239277
30
0
41
1
10
275.997505570633
20
14.3637815668394
30
0
0
SPLINE
5
326
100
AcDbEntity
8
1
62
256
6
ByLayer
370
13
48
1
60
0
100
AcDbSpline
70
4
71
3
72
12
73
8
40
0
40
0
40
0
40
0
40
0.0795350643814127
40
0.0795350643814127
40
0.505482035991265
40
0.505482035991265
40
1
40
1
40
1
40
1
41
1
10
36.45
20
-30.8654775778417
30
0
41
1
10
36.45
20
-30.5088538051887
30
0
41
1
10
36.45
20
-30.1522300326521
30
0
41
1
10
36.45
20
-27.8857213931247
30
0
41
1
10
36.45
20
-25.9758365293563
30
0
41
1
10
36.45
20
-21.8486043566476
30
0
41
1
10
36.45
20
-19.6312570488682
30
0
41
1
10
36.45
20
-17.4139097455835
30
0
0
SPLINE
5
327
100
AcDbEntity
8
1
62
256
6
ByLayer
370
13
48
1
60
0
100
AcDbSpline
70
4
71
3
72
34
73
30
40
0
40
0
40
0
40
0
40
0.113568522348353
40
0.113568522348353
40
0.227137044696707
40
0.227137044696707
40
0.34070556704506
40
0.34070556704506
40
0.397489828219237
40
0.397489828219237
40
0.454274089393414
40
0.454274089393414
40
0.567842611741767
40
0.567842611741767
40
0.681411134090121
40
0.681411134090121
40
0.738195395264302
40
0.738195395264302
40
0.766587525851392
40
0.766587525851392
40
0.794979656438483
40
0.794979656438483
40
0.908548178786837
40
0.908548178786837
40
0.965332439961018
40
0.965332439961018
40
0.993724570548108
40
0.993724570548108
40
1
40
1
40
1
40
1
41
1
10
273.257818097329
20
11.1881596395138
30
0
41
1
10
272.610199732325
20
11.3379846535876
30
0
41
1
10
271.95626555271
20
11.4605241987012
30
0
41
1
10
270.63701258873
20
11.659955911997
30
0
41
1
10
269.971676118538
20
11.7367623260888
30
0
41
1
10
268.629537092055
20
11.8488011880259
30
0
41
1
10
267.952729555904
20
11.88399719661
30
0
41
1
10
266.928149295606
20
11.906548896767
30
0
41
1
10
266.585054016727
20
11.9090065210255
30
0
41
1
10
265.89551222595
20
11.9037539052255
30
0
41
1
10
265.548279696622
20
11.8960081151538
30
0
41
1
10
264.507876314304
20
11.85753087305
30
0
41
1
10
263.816546844149
20
11.8117463816088
30
0
41
1
10
262.438350213322
20
11.6804582870452
30
0
41
1
10
261.751481164535
20
11.5949720115185
30
0
41
1
10
260.724616558258
20
11.4359752868921
30
0
41
1
10
260.382903256188
20
11.3778328464207
30
0
41
1
10
259.871228856404
20
11.2825864178574
30
0
41
1
10
259.700820160925
20
11.2494972023621
30
0
41
1
10
259.360309768381
20
11.1805617333407
30
0
41
1
10
259.19018136982
20
11.1447036744392
30
0
41
1
10
258.345929580532
20
10.9595690182626
30
0
41
1
10
257.686435642051
20
10.7920811758432
30
0
41
1
10
256.72452354052
20
10.5095966578574
30
0
41
1
10
256.408464103791
20
10.4101926602674
30
0
41
1
10
255.942011593381
20
10.2524719255964
30
0
41
1
10
255.787803214248
20
10.198458307825
30
0
41
1
10
255.601175242638
20
10.1306314399637
30
0
41
1
10
255.567458131453
20
10.1182776426611
30
0
41
1
10
255.533823360913
20
10.1058529871781
30
0
0
SPLINE
5
328
100
AcDbEntity
8
1
62
256
6
ByLayer
370
13
48
1
60
0
100
AcDbSpline
70
4
71
3
72
8
73
4
40
0
40
0
40
0
40
0
40
1
40
1
40
1
40
1
41
1
10
11.0228
20
-5.55222086658492
30
0
41
1
10
9.32280130129347
20
-5.57241490659226
30
0
41
1
10
7.62280120523265
20
-5.5925021779592
30
0
41
1
10
5.9228
20
-5.61248608016095
30
0
0
SPLINE
5
329
100
AcDbEntity
8
1
62
256
6
ByLayer
370
13
48
1
60
0
100
AcDbSpline
70
4
71
3
72
10
73
6
40
0
40
0
40
0
40
0
40
0.5
40
0.5
40
1
40
1
40
1
40
1
41
1
10
274.539169144041
20
-0.155673930483459
30
0
41
1
10
274.967000674114
20
-0.374587525132426
30
0
41
1
10
275.405555493621
20
-0.558560142679141
30
0
41
1
10
276.30494337519
20
-0.852559737490736
30
0
41
1
10
276.765744246167
20
-0.962693817002588
30
0
41
1
10
277.23900510789
20
-1.0310121782727
30
0
0
SPLINE
5
32A
100
AcDbEntity
8
1
62
256
6
ByLayer
370
13
48
1
60
0
100
AcDbSpline
70
4
71
3
72
8
73
4
40
0
40
0
40
0
40
0
40
1
40
1
40
1
40
1
41
1
10
279.498542806229
20
24.0498116636611
30
0
41
1
10
279.486759801546
20
24.0291875610532
30
0
41
1
10
279.474199875524
20
24.0103868957923
30
0
41
1
10
279.461358086286
20
23.9933223154395
30
0
0
SPLINE
5
32B
100
AcDbEntity
8
1
62
256
6
ByLayer
370
13
48
1
60
0
100
AcDbSpline
70
4
71
3
72
8
73
4
40
0
40
0
40
0
40
0
40
1
40
1
40
1
40
1
41
1
10
36.0099999999999
20
-30.8791804882128
30
0
41
1
10
35.0538095437181
20
-30.8795391111868
30
0
41
1
10
34.0976190879789
20
-30.8798987963417
30
0
41
1
10
33.1414286319792
20
-30.8802579715303
30
0
0
SPLINE
5
32C
100
AcDbEntity
8
1
62
256
6
ByLayer
370
13
48
1
60
0
100
AcDbSpline
70
4
71
3
72
18
73
14
40
0
40
0
40
0
40
0
40
0.130076138940399
40
0.130076138940399
40
0.30406091115232
40
0.30406091115232
40
0.47804568336424
40
0.47804568336424
40
0.652030455576161
40
0.652030455576161
40
0.82601522778808
40
0.82601522778808
40
1
40
1
40
1
40
1
41
1
10
36.4499856344847
20
-11.3828097570058
30
0
41
1
10
36.4499551248492
20
-11.6216627649541
30
0
41
1
10
36.4499265989941
20
-11.8697132862221
30
0
41
1
10
36.4498651946343
20
-12.4656821358053
30
0
41
1
10
36.4498340986118
20
-12.8190344204424
30
0
41
1
10
36.449781025222
20
-13.5386048676295
30
0
41
1
10
36.4497590488507
20
-13.9048095251342
30
0
41
1
10
36.4497249511138
20
-14.6378206815402
30
0
41
1
10
36.4497128303882
20
-15.0046134231382
30
0
41
1
10
36.4496988502463
20
-15.7265165553908
30
0
41
1
10
36.4496969910924
20
-16.0816133972197
30
0
41
1
10
36.4497035967441
20
-16.7682317825509
30
0
41
1
10
36.4497120614257
20
-17.0997404394589
30
0
41
1
10
36.4497255465358
20
-17.4139097449339
30
0
0
SPLINE
5
32D
100
AcDbEntity
8
1
62
256
6
ByLayer
370
13
48
1
60
0
100
AcDbSpline
70
4
71
3
72
14
73
10
40
0
40
0
40
0
40
0
40
0.5
40
0.5
40
0.75
40
0.75
40
0.875
40
0.875
40
1
40
1
40
1
40
1
41
1
10
288.252115878551
20
13.6739775194813
30
0
41
1
10
288.428094872949
20
13.6242787803811
30
0
41
1
10
288.60345890345
20
13.5909601564485
30
0
41
1
10
288.867370356774
20
13.5621851956415
30
0
41
1
10
288.955473112969
20
13.5561758365193
30
0
41
1
10
289.087996003557
20
13.552461337998
30
0
41
1
10
289.132231659222
20
13.5521084140103
30
0
41
1
10
289.220854336183
20
13.5531841345382
30
0
41
1
10
289.265679991533
20
13.5546375931041
30
0
41
1
10
289.309581836171
20
13.556938391288
30
0
0
SPLINE
5
32E
100
AcDbEntity
8
1
62
256
6
ByLayer
370
13
48
1
60
0
100
AcDbSpline
70
4
71
3
72
60
73
56
40
0
40
0
40
0
40
0
40
0.0321765854202936
40
0.0321765854202936
40
0.0643531708405872
40
0.0643531708405872
40
0.128706341681173
40
0.128706341681173
40
0.160882927101466
40
0.160882927101466
40
0.193059512521759
40
0.193059512521759
40
0.257412683362346
40
0.257412683362346
40
0.289589268782639
40
0.289589268782639
40
0.321765854202933
40
0.321765854202933
40
0.386119025043519
40
0.386119025043519
40
0.418295610463811
40
0.418295610463811
40
0.450472195884104
40
0.450472195884104
40
0.482648781304397
40
0.482648781304397
40
0.51482536672469
40
0.51482536672469
40
0.547001952144982
40
0.547001952144982
40
0.579178537565275
40
0.579178537565275
40
0.611355122985568
40
0.611355122985568
40
0.64353170840586
40
0.64353170840586
40
0.675708293826153
40
0.675708293826153
40
0.707884879246446
40
0.707884879246446
40
0.740061464666739
40
0.740061464666739
40
0.772238050087031
40
0.772238050087031
40
0.804414635507324
40
0.804414635507324
40
0.836591220927617
40
0.836591220927617
40
0.868767806347909
40
0.868767806347909
40
0.900944391768202
40
0.900944391768202
40
0.965297562608788
40
0.965297562608788
40
1
40
1
40
1
40
1
41
1
10
267.026877450159
20
5.03475522401121
30
0
41
1
10
265.758250286862
20
5.59757996132322
30
0
41
1
10
264.489492684053
20
6.15814641035996
30
0
41
1
10
261.953582002047
20
7.2723201586403
30
0
41
1
10
260.686117306465
20
7.82606534653613
30
0
41
1
10
256.884213765986
20
9.47514672404557
30
0
41
1
10
254.350277416911
20
10.5583445635781
30
0
41
1
10
250.546166062877
20
12.1498749658494
30
0
41
1
10
249.277768148012
20
12.6747562269993
30
0
41
1
10
246.742476113343
20
13.7105699481969
30
0
41
1
10
245.47517982465
20
14.221670604358
30
0
41
1
10
241.673242735755
20
15.7324244147429
30
0
41
1
10
239.138450045655
20
16.7093382722545
30
0
41
1
10
235.332836427495
20
18.1233072700093
30
0
41
1
10
234.064104912389
20
18.585925315734
30
0
41
1
10
231.528188103806
20
19.4919133572179
30
0
41
1
10
230.26064591059
20
19.9354164502222
30
0
41
1
10
226.458462886537
20
21.2360402857269
30
0
41
1
10
223.924298919337
20
22.0633011113759
30
0
41
1
10
220.119731966174
20
23.2372582427738
30
0
41
1
10
218.851593713942
20
23.6172456757326
30
0
41
1
10
216.316749552034
20
24.3531935418662
30
0
41
1
10
215.049788439595
20
24.7092838310861
30
0
41
1
10
212.516047524374
20
25.3966452370979
30
0
41
1
10
211.249210064438
20
25.727828729786
30
0
41
1
10
208.714220723589
20
26.3635163965335
30
0
41
1
10
207.446384658632
20
26.6683698798679
30
0
41
1
10
204.906042701635
20
27.2478182151669
30
0
41
1
10
203.634143956177
20
27.5218240686347
30
0
41
1
10
201.08175460977
20
28.032789653029
30
0
41
1
10
199.800667246947
20
28.2694088918953
30
0
41
1
10
197.225983163424
20
28.7058953651737
30
0
41
1
10
195.932554022473
20
28.905958771548
30
0
41
1
10
193.331886042972
20
29.2722975332426
30
0
41
1
10
192.024469647798
20
29.4384642502153
30
0
41
1
10
189.397181939246
20
29.7422235353967
30
0
41
1
10
188.078948532797
20
29.8796568101304
30
0
41
1
10
185.435290240002
20
30.1303981399314
30
0
41
1
10
184.109734924284
20
30.2436478740777
30
0
41
1
10
181.451107050137
20
30.4487176421044
30
0
41
1
10
180.11800295624
20
30.5405155896
30
0
41
1
10
177.444411635784
20
30.7054240400181
30
0
41
1
10
176.103981161864
20
30.7786385560827
30
0
41
1
10
173.417868698091
20
30.9097372129133
30
0
41
1
10
172.073040134985
20
30.9676978131666
30
0
41
1
10
169.379884373769
20
31.0700334245627
30
0
41
1
10
168.031295423637
20
31.1141901074655
30
0
41
1
10
165.327638713765
20
31.1892512623287
30
0
41
1
10
163.972431429676
20
31.220117893129
30
0
41
1
10
161.253894103493
20
31.2706970572365
30
0
41
1
10
159.890548343749
20
31.2904638585447
30
0
41
1
10
155.788348977991
20
31.3369690612815
30
0
41
1
10
153.043245985521
20
31.3511053163478
30
0
41
1
10
148.804136221862
20
31.3612514167004
30
0
41
1
10
147.316479288521
20
31.3625512236561
30
0
41
1
10
145.826136152402
20
31.362528390185
30
0
0
SPLINE
5
32F
100
AcDbEntity
8
1
62
256
6
ByLayer
370
13
48
1
60
0
100
AcDbSpline
70
4
71
3
72
40
73
36
40
0
40
0
40
0
40
0
40
0.125000000000007
40
0.125000000000007
40
0.250000000000015
40
0.250000000000015
40
0.312500000000019
40
0.312500000000019
40
0.343750000000024
40
0.343750000000024
40
0.37500000000003
40
0.37500000000003
40
0.500000000000037
40
0.500000000000037
40
0.531250000000037
40
0.531250000000037
40
0.562500000000037
40
0.562500000000037
40
0.625000000000031
40
0.625000000000031
40
0.687500000000024
40
0.687500000000024
40
0.718750000000024
40
0.718750000000024
40
0.750000000000023
40
0.750000000000023
40
0.812500000000017
40
0.812500000000017
40
0.875000000000012
40
0.875000000000012
40
0.906250000000009
40
0.906250000000009
40
0.937500000000006
40
0.937500000000006
40
1
40
1
40
1
40
1
41
1
10
276.721966074216
20
2.48047235585545
30
0
41
1
10
277.649372866065
20
2.29577499426193
30
0
41
1
10
278.581792066645
20
2.13375368178126
30
0
41
1
10
280.460074318072
20
1.87053079943902
30
0
41
1
10
281.405915026801
20
1.76922815423205
30
0
41
1
10
282.837752957622
20
1.6764337064667
30
0
41
1
10
283.317218190096
20
1.65539129754424
30
0
41
1
10
284.040173886183
20
1.64082811972159
30
0
41
1
10
284.282008418317
20
1.63882296565453
30
0
41
1
10
284.763581081748
20
1.64085566736236
30
0
41
1
10
285.003707216236
20
1.64487991503941
30
0
41
1
10
286.20089744257
20
1.6806760252459
30
0
41
1
10
287.147726421518
20
1.75907965520273
30
0
41
1
10
288.314668879484
20
1.93268635077962
30
0
41
1
10
288.54722155582
20
1.9712157126375
30
0
41
1
10
289.01055117538
20
2.05636477930489
30
0
41
1
10
289.241858227214
20
2.10311503508697
30
0
41
1
10
289.926584554334
20
2.254852387618
30
0
41
1
10
290.372149153955
20
2.37146084103279
30
0
41
1
10
291.240148512665
20
2.63740426564019
30
0
41
1
10
291.662593591349
20
2.78672463559147
30
0
41
1
10
292.277407262733
20
3.03738172636048
30
0
41
1
10
292.479196211836
20
3.12538954156418
30
0
41
1
10
292.876122166483
20
3.31081703751832
30
0
41
1
10
293.071826340386
20
3.40856818252735
30
0
41
1
10
293.641167179266
20
3.71289306481307
30
0
41
1
10
293.998813628688
20
3.93115236722073
30
0
41
1
10
294.668940218332
20
4.39936193841896
30
0
41
1
10
294.981439193436
20
4.64929899170306
30
0
41
1
10
295.413915194175
20
5.04965516503793
30
0
41
1
10
295.552512528239
20
5.18794515593751
30
0
41
1
10
295.81337919006
20
5.46946090339711
30
0
41
1
10
295.935920343216
20
5.61284802975914
30
0
41
1
10
296.280155779732
20
6.05080105049697
30
0
41
1
10
296.478547244229
20
6.35313020106665
30
0
41
1
10
296.645582800407
20
6.66590546765826
30
0
0
SPLINE
5
330
100
AcDbEntity
8
1
62
256
6
ByLayer
370
13
48
1
60
0
100
AcDbSpline
70
4
71
1
72
4
73
2
40
0
40
0
40
1
40
1
41
1
10
36.45
20
-17.4139097458052
30
0
41
1
10
36.01
20
-17.4139097458052
30
0
0
SPLINE
5
331
100
AcDbEntity
8
1
62
256
6
ByLayer
370
13
48
1
60
0
100
AcDbSpline
70
4
71
3
72
8
73
4
40
0
40
0
40
0
40
0
40
1
40
1
40
1
40
1
41
1
10
41
20
-31.5636833604917
30
0
41
1
10
39.3333333045732
20
-31.5636614964094
30
0
41
1
10
37.6666666203625
20
-31.5636276174937
30
0
41
1
10
36
20
-31.5635783055654
30
0
0
SPLINE
5
332
100
AcDbEntity
8
1
62
256
6
ByLayer
370
13
48
1
60
0
100
AcDbSpline
70
4
71
3
72
16
73
12
40
0
40
0
40
0
40
0
40
0.500000000000016
40
0.500000000000016
40
0.625000000000017
40
0.625000000000017
40
0.687500000000014
40
0.687500000000014
40
0.750000000000011
40
0.750000000000011
40
1
40
1
40
1
40
1
41
1
10
266.000534201391
20
30.9967521716211
30
0
41
1
10
267.019301819255
20
28.6233100782545
30
0
41
1
10
268.203663040973
20
26.3459037460717
30
0
41
1
10
269.964888587201
20
23.6619803003835
30
0
41
1
10
270.331197763249
20
23.1333520456087
30
0
41
1
10
270.903165157873
20
22.3534606100961
30
0
41
1
10
271.097571298138
20
22.095671803487
30
0
41
1
10
271.494113791706
20
21.5845773156786
30
0
41
1
10
271.696405487786
20
21.3310961699001
30
0
41
1
10
272.723246954641
20
20.0805716539473
30
0
41
1
10
273.596956386769
20
19.1304307614379
30
0
41
1
10
274.523588643823
20
18.2312294265959
30
0
0
SPLINE
5
333
100
AcDbEntity
8
1
62
256
6
ByLayer
370
13
48
1
60
0
100
AcDbSpline
70
4
71
3
72
8
73
4
40
0
40
0
40
0
40
0
40
1
40
1
40
1
40
1
41
1
10
277.23900510789
20
-1.03101217827339
30
0
41
1
10
277.339057607685
20
-1.04545542380632
30
0
41
1
10
277.439112292779
20
-1.05988992991737
30
0
41
1
10
277.539169144041
20
-1.0743157539861
30
0
0
SPLINE
5
334
100
AcDbEntity
8
1
62
256
6
ByLayer
370
13
48
1
60
0
100
AcDbSpline
70
4
71
3
72
32
73
28
40
0
40
0
40
0
40
0
40
0.032907947698008
40
0.032907947698008
40
0.0866352839370069
40
0.0866352839370069
40
0.140362620176006
40
0.140362620176006
40
0.247817292654004
40
0.247817292654004
40
0.301544628893003
40
0.301544628893003
40
0.328408297012503
40
0.328408297012503
40
0.355271965132002
40
0.355271965132002
40
0.408999301371002
40
0.408999301371002
40
0.462726637610002
40
0.462726637610002
40
0.570181310088002
40
0.570181310088002
40
0.677635982566001
40
0.677635982566001
40
0.785090655044001
40
0.785090655044001
40
1
40
1
40
1
40
1
41
1
10
170.543459930533
20
-16.1569488921182
30
0
41
1
10
169.094255309975
20
-16.2564848525305
30
0
41
1
10
167.64402275171
20
-16.3507705990079
30
0
41
1
10
163.823075863532
20
-16.5833649359174
30
0
41
1
10
161.450427737126
20
-16.7114019203299
30
0
41
1
10
156.697931229773
20
-16.930744521868
30
0
41
1
10
154.318002539943
20
-17.0214528870168
30
0
41
1
10
147.1666529231
20
-17.2394021159892
30
0
41
1
10
142.383878185568
20
-17.3150324494874
30
0
41
1
10
135.191041635335
20
-17.3826951438577
30
0
41
1
10
132.790367553012
20
-17.397916099233
30
0
41
1
10
129.1842263351
20
-17.4098003702339
30
0
41
1
10
127.981260690804
20
-17.4117647725247
30
0
41
1
10
125.573989292073
20
-17.4138970281474
30
0
41
1
10
124.369783110985
20
-17.4138567324841
30
0
41
1
10
120.757056785513
20
-17.4134830844808
30
0
41
1
10
118.348213896519
20
-17.4138213900255
30
0
41
1
10
113.530672243778
20
-17.4138707322194
30
0
41
1
10
111.121901656816
20
-17.4139144690638
30
0
41
1
10
103.895589427506
20
-17.4140872920327
30
0
41
1
10
99.0780475294518
20
-17.4139885316159
30
0
41
1
10
89.4429634387549
20
-17.4137646737234
30
0
41
1
10
84.6254212774989
20
-17.4136340922441
30
0
41
1
10
74.9903370286522
20
-17.41367024116
30
0
41
1
10
70.1727949011295
20
-17.4138360893515
30
0
41
1
10
55.7201685125906
20
-17.4140712715339
30
0
41
1
10
46.0850842460221
20
-17.4139325553556
30
0
41
1
10
36.4499999999999
20
-17.4139097455835
30
0
0
SPLINE
5
335
100
AcDbEntity
8
1
62
256
6
ByLayer
370
13
48
1
60
0
100
AcDbSpline
70
4
71
3
72
8
73
4
40
0
40
0
40
0
40
0
40
1
40
1
40
1
40
1
41
1
10
297.005803814132
20
10.8431235321272
30
0
41
1
10
296.833507746479
20
11.3829075187379
30
0
41
1
10
296.584826577367
20
11.9079088733696
30
0
41
1
10
296.266815976973
20
12.41949306355
30
0
0
SPLINE
5
336
100
AcDbEntity
8
1
62
256
6
ByLayer
370
13
48
1
60
0
100
AcDbSpline
70
4
71
3
72
16
73
12
40
0
40
0
40
0
40
0
40
0.250000000000021
40
0.250000000000021
40
0.375000000000024
40
0.375000000000024
40
0.500000000000028
40
0.500000000000028
40
0.750000000000014
40
0.750000000000014
40
1
40
1
40
1
40
1
41
1
10
298.683134311773
20
0.648392847777387
30
0
41
1
10
298.6843924163
20
0.69697267133472
30
0
41
1
10
298.686504447114
20
0.742908710504281
30
0
41
1
10
298.690745358303
20
0.803049618113818
30
0
41
1
10
298.692333727333
20
0.821690817521699
30
0
41
1
10
298.695864290059
20
0.856126593390229
30
0
41
1
10
298.697823209681
20
0.872000283999483
30
0
41
1
10
298.704054410594
20
0.913687098600775
30
0
41
1
10
298.70877735751
20
0.93439302718221
30
0
41
1
10
298.718991360922
20
0.959554636483176
30
0
41
1
10
298.724334393163
20
0.963897725095279
30
0
41
1
10
298.729920957161
20
0.959741297061782
30
0
0
SPLINE
5
337
100
AcDbEntity
8
1
62
256
6
ByLayer
370
13
48
1
60
0
100
AcDbSpline
70
4
71
3
72
18
73
14
40
0
40
0
40
0
40
0
40
0.124999999999995
40
0.124999999999995
40
0.249999999999989
40
0.249999999999989
40
0.499999999999979
40
0.499999999999979
40
0.749999999999968
40
0.749999999999968
40
0.874999999999984
40
0.874999999999984
40
1
40
1
40
1
40
1
41
1
10
277.574888096117
20
12.3327284273449
30
0
41
1
10
277.509677668179
20
12.4298169447081
30
0
41
1
10
277.441048770022
20
12.526515475927
30
0
41
1
10
277.296372523418
20
12.7188164929272
30
0
41
1
10
277.220921959006
20
12.8136036591217
30
0
41
1
10
276.986141546085
20
13.0920924133253
30
0
41
1
10
276.817958751202
20
13.2705666925271
30
0
41
1
10
276.456805867691
20
13.6109039238158
30
0
41
1
10
276.263820888543
20
13.7727321842041
30
0
41
1
10
275.954018696215
20
14.0009075447132
30
0
41
1
10
275.846835401765
20
14.0748634015586
30
0
41
1
10
275.628585845449
20
14.2156842380955
30
0
41
1
10
275.517522537298
20
14.2826109323797
30
0
41
1
10
275.404595195211
20
14.3462013081003
30
0
0
SPLINE
5
338
100
AcDbEntity
8
1
62
256
6
ByLayer
370
13
48
1
60
0
100
AcDbSpline
70
4
71
3
72
20
73
16
40
0
40
0
40
0
40
0
40
0.25
40
0.25
40
0.375
40
0.375
40
0.5
40
0.5
40
0.625
40
0.625
40
0.75
40
0.75
40
0.875
40
0.875
40
1
40
1
40
1
40
1
41
1
10
278.486548469984
20
9.7646224459605
30
0
41
1
10
278.406015525939
20
9.63287498436918
30
0
41
1
10
278.311153789019
20
9.51305171879358
30
0
41
1
10
278.139593025563
20
9.36008160861758
30
0
41
1
10
278.07888489936
20
9.31502539832294
30
0
41
1
10
277.949994806058
20
9.23906789216528
30
0
41
1
10
277.880751433272
20
9.20794776789657
30
0
41
1
10
277.740902881093
20
9.16514430881043
30
0
41
1
10
277.669783222696
20
9.15293036364037
30
0
41
1
10
277.525146037609
20
9.14733434652072
30
0
41
1
10
277.454028689144
20
9.15411782865192
30
0
41
1
10
277.315745111837
20
9.18335156410492
30
0
41
1
10
277.248095642035
20
9.20599893546898
30
0
41
1
10
277.119778014224
20
9.26164012014837
30
0
41
1
10
277.058372615334
20
9.29475583596232
30
0
41
1
10
276.998854228034
20
9.33161647776663
30
0
0
SPLINE
5
339
100
AcDbEntity
8
1
62
256
6
ByLayer
370
13
48
1
60
0
100
AcDbSpline
70
4
71
3
72
20
73
16
40
0
40
0
40
0
40
0
40
0.174071989714225
40
0.174071989714225
40
0.348143979428449
40
0.348143979428449
40
0.522215969142674
40
0.522215969142674
40
0.609251963999786
40
0.609251963999786
40
0.696287958856898
40
0.696287958856898
40
0.870359948571122
40
0.870359948571122
40
1
40
1
40
1
40
1
41
1
10
36.01
20
-17.4139097455835
30
0
41
1
10
36.01
20
-17.0969376660656
30
0
41
1
10
36.01
20
-16.7674575399586
30
0
41
1
10
36.01
20
-16.0845240437432
30
0
41
1
10
36.01
20
-15.7282975397668
30
0
41
1
10
36.01
20
-15.003245975071
30
0
41
1
10
36.01
20
-14.6395333222967
30
0
41
1
10
36.01
20
-14.092230630626
30
0
41
1
10
36.01
20
-13.9095056279084
30
0
41
1
10
36.01
20
-13.5434596529432
30
0
41
1
10
36.01
20
-13.3599580065298
30
0
41
1
10
36.01
20
-12.8198759701643
30
0
41
1
10
36.01
20
-12.4698141351268
30
0
41
1
10
36.01
20
-11.8762951183982
30
0
41
1
10
36.01
20
-11.6270267450147
30
0
41
1
10
36.01
20
-11.3881177456013
30
0
0
SPLINE
5
33A
100
AcDbEntity
8
1
62
256
6
ByLayer
370
13
48
1
60
0
100
AcDbSpline
70
4
71
3
72
8
73
4
40
0
40
0
40
0
40
0
40
1
40
1
40
1
40
1
41
1
10
1.42E-14
20
5.01597448159384
30
0
41
1
10
0.0315739816359013
20
5.21520127639576
30
0
41
1
10
0.0649196913889227
20
5.41403573525247
30
0
41
1
10
0.0999999999999943
20
5.61248608016083
30
0
0
SPLINE
5
33B
100
AcDbEntity
8
1
62
256
6
ByLayer
370
13
48
1
60
0
100
AcDbSpline
70
4
71
1
72
4
73
2
40
0
40
0
40
1
40
1
41
1
10
36.0099999989703
20
-30.8656371573427
30
0
41
1
10
36.0100000010297
20
-30.8791804881863
30
0
0
SPLINE
5
33C
100
AcDbEntity
8
1
62
256
6
ByLayer
370
13
48
1
60
0
100
AcDbSpline
70
4
71
3
72
8
73
4
40
0
40
0
40
0
40
0
40
1
40
1
40
1
40
1
41
1
10
266.000534201386
20
30.9967521716147
30
0
41
1
10
266.017554779955
20
31.022283384768
30
0
41
1
10
266.034556201681
20
31.0478275493652
30
0
41
1
10
266.051538540858
20
31.0733846151773
30
0
0
SPLINE
5
33D
100
AcDbEntity
8
1
62
256
6
ByLayer
370
13
48
1
60
0
100
AcDbSpline
70
4
71
3
72
8
73
4
40
0
40
0
40
0
40
0
40
1
40
1
40
1
40
1
41
1
10
279.271056713929
20
10.9499130025953
30
0
41
1
10
279.067869553771
20
10.9919655505995
30
0
41
1
10
278.860275366834
20
11.0403096559596
30
0
41
1
10
278.647559267408
20
11.0963575016698
30
0
0
SPLINE
5
33E
100
AcDbEntity
8
1
62
256
6
ByLayer
370
13
48
1
60
0
100
AcDbSpline
70
4
71
3
72
10
73
6
40
0
40
0
40
0
40
0
40
0.5
40
0.5
40
1
40
1
40
1
40
1
41
1
10
285.602279677378
20
11.3587629674303
30
0
41
1
10
286.159667391721
20
11.5641029593402
30
0
41
1
10
286.714004209808
20
11.7173386881687
30
0
41
1
10
287.817929948046
20
11.9381928483504
30
0
41
1
10
288.367482767239
20
12.0055065522231
30
0
41
1
10
288.913392059706
20
12.034116445932
30
0
0
SPLINE
5
33F
100
AcDbEntity
8
1
62
256
6
ByLayer
370
13
48
1
60
0
100
AcDbSpline
70
4
71
3
72
12
73
8
40
0
40
0
40
0
40
0
40
0.469636682139139
40
0.469636682139139
40
0.734818341069569
40
0.734818341069569
40
1
40
1
40
1
40
1
41
1
10
246.278732036123
20
13.879051050716
30
0
41
1
10
250.605022282211
20
14.1182031966684
30
0
41
1
10
254.930392126396
20
14.2776052512598
30
0
41
1
10
261.701504855563
20
14.3957863296254
30
0
41
1
10
264.146094821289
20
14.4117120899455
30
0
41
1
10
269.034108429156
20
14.3891354584302
30
0
41
1
10
271.477923684551
20
14.3506476995427
30
0
41
1
10
273.922086942715
20
14.2846977671201
30
0
0
SPLINE
5
340
100
AcDbEntity
8
1
62
256
6
ByLayer
370
13
48
1
60
0
100
AcDbSpline
70
4
71
3
72
22
73
18
40
0
40
0
40
0
40
0
40
0.249999999999998
40
0.249999999999998
40
0.312499999999997
40
0.312499999999997
40
0.374999999999997
40
0.374999999999997
40
0.499999999999997
40
0.499999999999997
40
0.624999999999997
40
0.624999999999997
40
0.687499999999997
40
0.687499999999997
40
0.749999999999997
40
0.749999999999997
40
1
40
1
40
1
40
1
41
1
10
7.24952947562352
20
-27.3190927283449
30
0
41
1
10
7.02727264867504
20
-27.0338680109961
30
0
41
1
10
6.85690092137847
20
-26.727231623012
30
0
41
1
10
6.71272159388671
20
-26.3133760019873
30
0
41
1
10
6.68739209337706
20
-26.2290091459065
30
0
41
1
10
6.64418993456107
20
-26.0589934430808
30
0
41
1
10
6.62623069052076
20
-25.9731205030232
30
0
41
1
10
6.58308505698992
20
-25.71290927243
30
0
41
1
10
6.56856640870963
20
-25.5359793836952
30
0
41
1
10
6.56857185998027
20
-25.175204043607
30
0
41
1
10
6.58277178488135
20
-24.9913600490447
30
0
41
1
10
6.62593540546162
20
-24.7103933230232
30
0
41
1
10
6.64396843072444
20
-24.6158708209555
30
0
41
1
10
6.6874243579453
20
-24.4250876336736
30
0
41
1
10
6.71290835246243
20
-24.3286847897787
30
0
41
1
10
6.8572822275904
20
-23.8476085114902
30
0
41
1
10
7.02771551788292
20
-23.4618922252049
30
0
41
1
10
7.24957952516016
20
-23.0766809327804
30
0
0
SPLINE
5
341
100
AcDbEntity
8
1
62
256
6
ByLayer
370
13
48
1
60
0
100
AcDbSpline
70
4
71
1
72
4
73
2
40
0
40
0
40
1
40
1
41
1
10
245.34723866594
20
14.2705252410206
30
0
41
1
10
245.328595028314
20
14.2780036526492
30
0
0
SPLINE
5
342
100
AcDbEntity
8
1
62
256
6
ByLayer
370
13
48
1
60
0
100
AcDbSpline
70
4
71
1
72
4
73
2
40
0
40
0
40
1
40
1
41
1
10
299.628979123819
20
12.8074762278197
30
0
41
1
10
299.773654116804
20
12.9370407406584
30
0
0
SPLINE
5
343
100
AcDbEntity
8
1
62
256
6
ByLayer
370
13
48
1
60
0
100
AcDbSpline
70
4
71
1
72
4
73
2
40
0
40
0
40
1
40
1
41
1
10
280.729221905496
20
11.938964340757
30
0
41
1
10
280.886647533153
20
11.8252322505661
30
0
0
LINE
5
7F
100
AcDbEntity
8
SK1
62
256
6
ByLayer
370
13
48
1
60
0
100
AcDbLine
10
-76.600002
20
10.670483
30
0
11
-6.5
21
10.670483
31
0
39
0
210
0
220
0
230
1
0
LINE
5
81
100
AcDbEntity
8
SK1
62
256
6
ByLayer
370
13
48
1
60
0
100
AcDbLine
10
-77.633813
20
24.639667
30
0
11
-77.633813
21
9.806751
31
0
39
0
210
0
220
0
230
1
0
LINE
5
82
100
AcDbEntity
8
SK1
62
256
6
ByLayer
370
13
48
1
60
0
100
AcDbLine
10
-77.633813
20
-9.806751
30
0
11
-77.633813
21
-24.639667
31
0
39
0
210
0
220
0
230
1
0
LINE
5
83
100
AcDbEntity
8
SK1
62
256
6
ByLayer
370
13
48
1
60
0
100
AcDbLine
10
-78.599999
20
-24.996
30
0
11
-78.599999
21
-10.670483
31
0
39
0
210
0
220
0
230
1
0
LINE
5
84
100
AcDbEntity
8
SK1
62
256
6
ByLayer
370
13
48
1
60
0
100
AcDbLine
10
-78.599999
20
10.670483
30
0
11
-78.599999
21
24.996
31
0
39
0
210
0
220
0
230
1
0
LINE
5
85
100
AcDbEntity
8
SK1
62
256
6
ByLayer
370
13
48
1
60
0
100
AcDbLine
10
-0.15
20
-24.746
30
0
11
-0.15
21
24.746
31
0
39
0
210
0
220
0
230
1
0
LINE
5
86
100
AcDbEntity
8
SK1
62
256
6
ByLayer
370
13
48
1
60
0
100
AcDbLine
10
-78.599999
20
-10.670483
30
0
11
-79
21
-10.670483
31
0
39
0
210
0
220
0
230
1
0
LINE
5
87
100
AcDbEntity
8
SK1
62
256
6
ByLayer
370
13
48
1
60
0
100
AcDbLine
10
-6.5
20
-10.670483
30
0
11
-6.5
21
10.670483
31
0
39
0
210
0
220
0
230
1
0
LINE
5
88
100
AcDbEntity
8
SK1
62
256
6
ByLayer
370
13
48
1
60
0
100
AcDbLine
10
-78.516222
20
24.892544
30
0
11
-78.516222
21
10.425829
31
0
39
0
210
0
220
0
230
1
0
LINE
5
89
100
AcDbEntity
8
SK1
62
256
6
ByLayer
370
13
48
1
60
0
100
AcDbLine
10
-78.516222
20
-10.425829
30
0
11
-78.516222
21
-24.892544
31
0
39
0
210
0
220
0
230
1
0
LINE
5
8A
100
AcDbEntity
8
SK1
62
256
6
ByLayer
370
13
48
1
60
0
100
AcDbLine
10
-1.544243
20
-24.783477
30
0
11
-1.544243
21
24.783477
31
0
39
0
210
0
220
0
230
1
0
LINE
5
8B
100
AcDbEntity
8
SK1
62
256
6
ByLayer
370
13
48
1
60
0
100
AcDbLine
10
-80
20
-23.996
30
0
11
-80
21
-8.054018
31
0
39
0
210
0
220
0
230
1
0
LINE
5
8C
100
AcDbEntity
8
SK1
62
256
6
ByLayer
370
13
48
1
60
0
100
AcDbLine
10
-80
20
8.054018
30
0
11
-80
21
23.996
31
0
39
0
210
0
220
0
230
1
0
LINE
5
8D
100
AcDbEntity
8
SK1
62
256
6
ByLayer
370
13
48
1
60
0
100
AcDbLine
10
-79
20
10.670483
30
0
11
-78.599999
21
10.670483
31
0
39
0
210
0
220
0
230
1
0
LINE
5
8E
100
AcDbEntity
8
SK1
62
256
6
ByLayer
370
13
48
1
60
0
100
AcDbLine
10
-2
20
-24.996
30
0
11
-2
21
24.996
31
0
39
0
210
0
220
0
230
1
0
LINE
5
8F
100
AcDbEntity
8
SK1
62
256
6
ByLayer
370
13
48
1
60
0
100
AcDbLine
10
-79
20
-24.996
30
0
11
-79
21
-10.670483
31
0
39
0
210
0
220
0
230
1
0
LINE
5
90
100
AcDbEntity
8
SK1
62
256
6
ByLayer
370
13
48
1
60
0
100
AcDbLine
10
-79
20
10.670483
30
0
11
-79
21
24.996
31
0
39
0
210
0
220
0
230
1
0
LINE
5
91
100
AcDbEntity
8
SK1
62
256
6
ByLayer
370
13
48
1
60
0
100
AcDbLine
10
-76.600002
20
24.996
30
0
11
-76.600002
21
10.670483
31
0
39
0
210
0
220
0
230
1
0
LINE
5
92
100
AcDbEntity
8
SK1
62
256
6
ByLayer
370
13
48
1
60
0
100
AcDbLine
10
-76.600002
20
-10.670483
30
0
11
-76.600002
21
-24.996
31
0
39
0
210
0
220
0
230
1
0
LINE
5
93
100
AcDbEntity
8
SK1
62
256
6
ByLayer
370
13
48
1
60
0
100
AcDbLine
10
-1.375195
20
-24.746
30
0
11
-1.375195
21
24.746
31
0
39
0
210
0
220
0
230
1
0
LINE
5
94
100
AcDbEntity
8
1
62
256
6
ByLayer
370
18
48
1
60
0
100
AcDbLine
10
288.613293
20
21.594951
30
0
11
288.545058
21
21.591375
31
0
39
0
210
0
220
0
230
1
0
LINE
5
95
100
AcDbEntity
8
1
62
256
6
ByLayer
370
18
48
1
60
0
100
AcDbLine
10
291.309456
20
22.510437
30
0
11
291.289549
21
22.509833
31
0
39
0
210
0
220
0
230
1
0
LINE
5
96
100
AcDbEntity
8
1
62
256
6
ByLayer
370
18
48
1
60
0
100
AcDbLine
10
289.57914
20
23.46293
30
0
11
289.441919
21
23.455739
31
0
39
0
210
0
220
0
230
1
0
LINE
5
97
100
AcDbEntity
8
1
62
256
6
ByLayer
370
18
48
1
60
0
100
AcDbLine
10
291.12595
20
21.07099
30
0
11
290.988729
21
21.063799
31
0
39
0
210
0
220
0
230
1
0
LINE
5
98
100
AcDbEntity
8
1
62
256
6
ByLayer
370
18
48
1
60
0
100
AcDbLine
10
289.728644
20
20.610228
30
0
11
289.591423
21
20.603037
31
0
39
0
210
0
220
0
230
1
0
LINE
5
99
100
AcDbEntity
8
1
62
256
6
ByLayer
370
18
48
1
60
0
100
AcDbLine
10
290.999211
20
21.046784
30
0
11
290.988729
21
21.063799
31
0
39
0
210
0
220
0
230
1
0
LINE
5
9A
100
AcDbEntity
8
1
62
256
6
ByLayer
370
18
48
1
60
0
100
AcDbLine
10
291.137474
20
21.05403
30
0
11
290.999211
21
21.046784
31
0
39
0
210
0
220
0
230
1
0
LINE
5
9B
100
AcDbEntity
8
1
62
256
6
ByLayer
370
18
48
1
60
0
100
AcDbLine
10
291.016954
20
23.150751
30
0
11
290.879733
21
23.143559
31
0
39
0
210
0
220
0
230
1
0
LINE
5
9C
100
AcDbEntity
8
1
62
256
6
ByLayer
370
18
48
1
60
0
100
AcDbLine
10
289.720261
20
20.592664
30
0
11
289.581998
21
20.585418
31
0
39
0
210
0
220
0
230
1
0
LINE
5
9D
100
AcDbEntity
8
1
62
256
6
ByLayer
370
18
48
1
60
0
100
AcDbLine
10
291.467278
20
21.744083
30
0
11
291.330057
21
21.736891
31
0
39
0
210
0
220
0
230
1
0
LINE
5
9E
100
AcDbEntity
8
1
62
256
6
ByLayer
370
18
48
1
60
0
100
AcDbLine
10
291.026642
20
23.168823
30
0
11
290.88838
21
23.161576
31
0
39
0
210
0
220
0
230
1
0
LINE
5
9F
100
AcDbEntity
8
1
62
256
6
ByLayer
370
18
48
1
60
0
100
AcDbLine
10
288.57283
20
22.367016
30
0
11
288.505185
21
22.363471
31
0
39
0
210
0
220
0
230
1
0
LINE
5
A0
100
AcDbEntity
8
1
62
256
6
ByLayer
370
18
48
1
60
0
100
AcDbLine
10
289.581998
20
20.585418
30
0
11
289.591423
21
20.603037
31
0
39
0
210
0
220
0
230
1
0
LINE
5
A1
100
AcDbEntity
8
1
62
256
6
ByLayer
370
18
48
1
60
0
100
AcDbLine
10
289.568967
20
23.479522
30
0
11
289.430704
21
23.472276
31
0
39
0
210
0
220
0
230
1
0
LINE
5
A2
100
AcDbEntity
8
1
62
256
6
ByLayer
370
18
48
1
60
0
100
AcDbLine
10
291.42677
20
22.517024
30
0
11
291.289549
21
22.509833
31
0
39
0
210
0
220
0
230
1
0
LINE
5
A3
100
AcDbEntity
8
1
62
256
6
ByLayer
370
18
48
1
60
0
100
AcDbLine
10
290.879733
20
23.143559
30
0
11
290.88838
21
23.161576
31
0
39
0
210
0
220
0
230
1
0
LINE
5
A4
100
AcDbEntity
8
1
62
256
6
ByLayer
370
18
48
1
60
0
100
AcDbLine
10
289.441919
20
23.455739
30
0
11
289.430704
21
23.472276
31
0
39
0
210
0
220
0
230
1
0
LINE
5
A5
100
AcDbEntity
8
1
62
256
6
ByLayer
370
18
48
1
60
0
100
AcDbLine
10
291.330057
20
21.736891
30
0
11
291.349918
21
21.738371
31
0
39
0
210
0
220
0
230
1
0
LINE
5
A6
100
AcDbEntity
8
1
62
256
6
ByLayer
370
18
48
1
60
0
100
AcDbLine
10
298.686397
20
0.43198
30
0
11
298.770768
21
0.420923
31
0
39
0
210
0
220
0
230
1
0
LINE
5
A7
100
AcDbEntity
8
1
62
256
6
ByLayer
370
18
48
1
60
0
100
AcDbLine
10
298.998201
20
-17.938196
30
0
11
298.925449
21
-17.949666
31
0
39
0
210
0
220
0
230
1
0
LINE
5
A8
100
AcDbEntity
8
1
62
256
6
ByLayer
370
18
48
1
60
0
100
AcDbLine
10
299.545811
20
-0.119342
30
0
11
299.444881
21
0.231019
31
0
39
0
210
0
220
0
230
1
0
LINE
5
A9
100
AcDbEntity
8
1
62
256
6
ByLayer
370
18
48
1
60
0
100
AcDbLine
10
299.061525
20
0.171544
30
0
11
299.065418
21
0.158031
31
0
39
0
210
0
220
0
230
1
0
LINE
5
AA
100
AcDbEntity
8
1
62
256
6
ByLayer
370
18
48
1
60
0
100
AcDbLine
10
300.496924
20
-9.010214
30
0
11
299.357672
21
-17.623858
31
0
39
0
210
0
220
0
230
1
0
LINE
5
AB
100
AcDbEntity
8
1
62
256
6
ByLayer
370
18
48
1
60
0
100
AcDbLine
10
299.107139
20
-17.913277
30
0
11
299.093563
21
-17.917152
31
0
39
0
210
0
220
0
230
1
0
LINE
5
AC
100
AcDbEntity
8
1
62
256
6
ByLayer
370
18
48
1
60
0
100
AcDbLine
10
299.200063
20
-18.778716
30
0
11
299.552045
21
-18.678251
31
0
39
0
210
0
220
0
230
1
0
LINE
5
AD
100
AcDbEntity
8
1
62
256
6
ByLayer
370
18
48
1
60
0
100
AcDbLine
10
299.08656
20
0.063107
30
0
11
300.493919
21
-8.781702
31
0
39
0
210
0
220
0
230
1
0
LINE
5
AE
100
AcDbEntity
8
1
62
256
6
ByLayer
370
13
48
1
60
0
100
AcDbLine
10
300.94321
20
22.582376
30
0
11
299.914721
21
14.721919
31
0
39
0
210
0
220
0
230
1
0
LINE
5
AF
100
AcDbEntity
8
1
62
256
6
ByLayer
370
13
48
1
60
0
100
AcDbLine
10
299.473748
20
14.453222
30
0
11
299.258691
21
13.492149
31
0
39
0
210
0
220
0
230
1
0
LINE
5
B0
100
AcDbEntity
8
1
62
256
6
ByLayer
370
13
48
1
60
0
100
AcDbLine
10
297.572462
20
32.220962
30
0
11
297.74731
21
32.230125
31
0
39
0
210
0
220
0
230
1
0
LINE
5
B1
100
AcDbEntity
8
1
62
256
6
ByLayer
370
13
48
1
60
0
100
AcDbLine
10
279.197857
20
23.547798
30
0
11
278.931178
21
21.509647
31
0
39
0
210
0
220
0
230
1
0
LINE
5
B2
100
AcDbEntity
8
1
62
256
6
ByLayer
370
13
48
1
60
0
100
AcDbLine
10
280.45064
20
29.376585
30
0
11
279.420103
21
21.500479
31
0
39
0
210
0
220
0
230
1
0
LINE
5
B3
100
AcDbEntity
8
1
62
256
6
ByLayer
370
13
48
1
60
0
100
AcDbLine
10
297.33552
20
14.094303
30
0
11
299.473748
21
14.453222
31
0
39
0
210
0
220
0
230
1
0
LINE
5
B4
100
AcDbEntity
8
1
62
256
6
ByLayer
370
13
48
1
60
0
100
AcDbLine
10
300.675549
20
22.771907
30
0
11
299.255291
21
31.765918
31
0
39
0
210
0
220
0
230
1
0
LINE
5
B5
100
AcDbEntity
8
1
62
256
6
ByLayer
370
13
48
1
60
0
100
AcDbLine
10
280.44882
20
31.520095
30
0
11
280.56401
21
31.50837
31
0
39
0
210
0
220
0
230
1
0
LINE
5
B6
100
AcDbEntity
8
1
62
256
6
ByLayer
370
13
48
1
60
0
100
AcDbLine
10
298.752479
20
32.380708
30
0
11
298.74778
21
32.380461
31
0
39
0
210
0
220
0
230
1
0
LINE
5
B7
100
AcDbEntity
8
1
62
256
6
ByLayer
370
13
48
1
60
0
100
AcDbLine
10
300.841837
20
22.796322
30
0
11
300.837138
21
22.796076
31
0
39
0
210
0
220
0
230
1
0
LINE
5
B8
100
AcDbEntity
8
1
62
256
6
ByLayer
370
13
48
1
60
0
100
AcDbLine
10
300.844502
20
22.595452
30
0
11
300.839803
21
22.595205
31
0
39
0
210
0
220
0
230
1
0
LINE
5
B9
100
AcDbEntity
8
1
62
256
6
ByLayer
370
13
48
1
60
0
100
AcDbLine
10
282.671582
20
29.707171
30
0
11
282.679756
21
29.769642
31
0
39
0
210
0
220
0
230
1
0
LINE
5
BA
100
AcDbEntity
8
1
62
256
6
ByLayer
370
13
48
1
60
0
100
AcDbLine
10
280.713758
20
12.326196
30
0
11
279.293501
21
21.320207
31
0
39
0
210
0
220
0
230
1
0
LINE
5
BB
100
AcDbEntity
8
1
62
256
6
ByLayer
370
13
48
1
60
0
100
AcDbLine
10
296.762885
20
14.147824
30
0
11
284.235996
21
13.491317
31
0
39
0
210
0
220
0
230
1
0
LINE
5
BC
100
AcDbEntity
8
1
62
256
6
ByLayer
370
13
48
1
60
0
100
AcDbLine
10
300.100915
20
16.14497
30
0
11
299.878628
21
13.320847
31
0
39
0
210
0
220
0
230
1
0
LINE
5
BD
100
AcDbEntity
8
1
62
256
6
ByLayer
370
13
48
1
60
0
100
AcDbLine
10
298.230257
20
32.379754
30
0
11
298.225558
21
32.379508
31
0
39
0
210
0
220
0
230
1
0
LINE
5
BE
100
AcDbEntity
8
1
62
256
6
ByLayer
370
13
48
1
60
0
100
AcDbLine
10
297.285134
20
14.436494
30
0
11
298.352321
21
22.592706
31
0
39
0
210
0
220
0
230
1
0
LINE
5
BF
100
AcDbEntity
8
1
62
256
6
ByLayer
370
13
48
1
60
0
100
AcDbLine
10
281.879736
20
11.885647
30
0
11
282.078519
21
11.894318
31
0
39
0
210
0
220
0
230
1
0
LINE
5
C0
100
AcDbEntity
8
1
62
256
6
ByLayer
370
13
48
1
60
0
100
AcDbLine
10
298.21801
20
32.228912
30
0
11
298.019227
21
32.220241
31
0
39
0
210
0
220
0
230
1
0
LINE
5
C1
100
AcDbEntity
8
1
62
256
6
ByLayer
370
13
48
1
60
0
100
AcDbLine
10
297.570745
20
14.23518
30
0
11
297.566046
21
14.234934
31
0
39
0
210
0
220
0
230
1
0
LINE
5
C2
100
AcDbEntity
8
1
62
256
6
ByLayer
370
13
48
1
60
0
100
AcDbLine
10
282.882923
20
13.000059
30
0
11
282.878224
21
12.999813
31
0
39
0
210
0
220
0
230
1
0
LINE
5
C3
100
AcDbEntity
8
1
62
256
6
ByLayer
370
13
48
1
60
0
100
AcDbLine
10
297.461395
20
14.391319
30
0
11
297.455581
21
14.346887
31
0
39
0
210
0
220
0
230
1
0
LINE
5
C4
100
AcDbEntity
8
1
62
256
6
ByLayer
370
13
48
1
60
0
100
AcDbLine
10
281.437536
20
21.569587
30
0
11
282.504132
21
29.72128
31
0
39
0
210
0
220
0
230
1
0
LINE
5
C5
100
AcDbEntity
8
1
62
256
6
ByLayer
370
13
48
1
60
0
100
AcDbLine
10
299.802917
20
14.441203
30
0
11
299.695374
21
13.373839
31
0
39
0
210
0
220
0
230
1
0
LINE
5
C6
100
AcDbEntity
8
1
62
256
6
ByLayer
370
13
48
1
60
0
100
AcDbLine
10
281.60706
20
21.350088
30
0
11
281.602361
21
21.349842
31
0
39
0
210
0
220
0
230
1
0
LINE
5
C7
100
AcDbEntity
8
1
62
256
6
ByLayer
370
13
48
1
60
0
100
AcDbLine
10
299.166921
20
13.285134
30
0
11
299.258691
21
13.492149
31
0
39
0
210
0
220
0
230
1
0
LINE
5
C8
100
AcDbEntity
8
1
62
256
6
ByLayer
370
13
48
1
60
0
100
AcDbLine
10
299.258691
20
13.492149
30
0
11
299.701699
21
14.491485
31
0
39
0
210
0
220
0
230
1
0
LINE
5
C9
100
AcDbEntity
8
1
62
256
6
ByLayer
370
13
48
1
60
0
100
AcDbLine
10
300.844502
20
22.595452
30
0
11
299.813965
21
14.719346
31
0
39
0
210
0
220
0
230
1
0
LINE
5
CA
100
AcDbEntity
8
1
62
256
6
ByLayer
370
13
48
1
60
0
100
AcDbLine
10
282.679756
20
29.769642
30
0
11
282.675057
21
29.769395
31
0
39
0
210
0
220
0
230
1
0
LINE
5
CB
100
AcDbEntity
8
1
62
256
6
ByLayer
370
13
48
1
60
0
100
AcDbLine
10
282.504132
20
29.72128
30
0
11
280.45064
21
29.376585
31
0
39
0
210
0
220
0
230
1
0
LINE
5
CC
100
AcDbEntity
8
1
62
256
6
ByLayer
370
13
48
1
60
0
100
AcDbLine
10
297.557172
20
14.233853
30
0
11
297.566046
21
14.234934
31
0
39
0
210
0
220
0
230
1
0
LINE
5
CD
100
AcDbEntity
8
1
62
256
6
ByLayer
370
13
48
1
60
0
100
AcDbLine
10
280.329357
20
30.797903
30
0
11
280.189845
21
30.774485
31
0
39
0
210
0
220
0
230
1
0
LINE
5
CE
100
AcDbEntity
8
1
62
256
6
ByLayer
370
13
48
1
60
0
100
AcDbLine
10
281.604395
20
21.550959
30
0
11
282.671582
21
29.707171
31
0
39
0
210
0
220
0
230
1
0
LINE
5
CF
100
AcDbEntity
8
1
62
256
6
ByLayer
370
13
48
1
60
0
100
AcDbLine
10
299.214142
20
13.293061
30
0
11
299.099152
21
12.779178
31
0
39
0
210
0
220
0
230
1
0
LINE
5
D0
100
AcDbEntity
8
1
62
256
6
ByLayer
370
13
48
1
60
0
100
AcDbLine
10
279.431691
20
17.756649
30
0
11
280.068417
21
15.095171
31
0
39
0
210
0
220
0
230
1
0
LINE
5
D1
100
AcDbEntity
8
1
62
256
6
ByLayer
370
13
48
1
60
0
100
AcDbLine
10
282.741532
20
13.088399
30
0
11
281.440772
21
21.325672
31
0
39
0
210
0
220
0
230
1
0
LINE
5
D2
100
AcDbEntity
8
1
62
256
6
ByLayer
370
13
48
1
60
0
100
AcDbLine
10
299.690584
20
14.591012
30
0
11
297.570745
21
14.23518
31
0
39
0
210
0
220
0
230
1
0
LINE
5
D3
100
AcDbEntity
8
1
62
256
6
ByLayer
370
13
48
1
60
0
100
AcDbLine
10
278.944309
20
22.207482
30
0
11
279.049055
21
23.247083
31
0
39
0
210
0
220
0
230
1
0
LINE
5
D4
100
AcDbEntity
8
1
62
256
6
ByLayer
370
13
48
1
60
0
100
AcDbLine
10
299.166921
20
13.285134
30
0
11
299.214142
21
13.293061
31
0
39
0
210
0
220
0
230
1
0
LINE
5
D5
100
AcDbEntity
8
1
62
256
6
ByLayer
370
13
48
1
60
0
100
AcDbLine
10
299.421579
20
31.790333
30
0
11
299.41688
21
31.790087
31
0
39
0
210
0
220
0
230
1
0
LINE
5
D6
100
AcDbEntity
8
1
62
256
6
ByLayer
370
13
48
1
60
0
100
AcDbLine
10
298.005735
20
32.440214
30
0
11
297.892401
21
32.416512
31
0
39
0
210
0
220
0
230
1
0
LINE
5
D7
100
AcDbEntity
8
1
62
256
6
ByLayer
370
13
48
1
60
0
100
AcDbLine
10
283.372452
20
29.968705
30
0
11
295.899342
21
30.625211
31
0
39
0
210
0
220
0
230
1
0
LINE
5
D8
100
AcDbEntity
8
1
62
256
6
ByLayer
370
13
48
1
60
0
100
AcDbLine
10
282.911835
20
13.087394
30
0
11
282.863413
21
13.39403
31
0
39
0
210
0
220
0
230
1
0
LINE
5
D9
100
AcDbEntity
8
1
62
256
6
ByLayer
370
13
48
1
60
0
100
AcDbLine
10
299.690584
20
14.591012
30
0
11
299.685885
21
14.590766
31
0
39
0
210
0
220
0
230
1
0
LINE
5
DA
100
AcDbEntity
8
1
62
256
6
ByLayer
370
13
48
1
60
0
100
AcDbLine
10
299.41688
20
31.790087
30
0
11
300.837138
21
22.796076
31
0
39
0
210
0
220
0
230
1
0
LINE
5
DB
100
AcDbEntity
8
1
62
256
6
ByLayer
370
13
48
1
60
0
100
AcDbLine
10
280.956484
20
31.30053
30
0
11
280.638995
21
31.299632
31
0
39
0
210
0
220
0
230
1
0
LINE
5
DC
100
AcDbEntity
8
1
62
256
6
ByLayer
370
13
48
1
60
0
100
AcDbLine
10
280.220617
20
29.39461
30
0
11
280.166768
21
30.000245
31
0
39
0
210
0
220
0
230
1
0
LINE
5
DD
100
AcDbEntity
8
1
62
256
6
ByLayer
370
13
48
1
60
0
100
AcDbLine
10
297.929315
20
32.418447
30
0
11
298.185987
21
32.47791
31
0
39
0
210
0
220
0
230
1
0
LINE
5
DE
100
AcDbEntity
8
1
62
256
6
ByLayer
370
13
48
1
60
0
100
AcDbLine
10
279.290836
20
21.521077
30
0
11
280.321373
21
29.397183
31
0
39
0
210
0
220
0
230
1
0
LINE
5
DF
100
AcDbEntity
8
1
62
256
6
ByLayer
370
13
48
1
60
0
100
AcDbLine
10
298.260223
20
32.380822
30
0
11
298.255524
21
32.380576
31
0
39
0
210
0
220
0
230
1
0
LINE
5
E0
100
AcDbEntity
8
1
62
256
6
ByLayer
370
13
48
1
60
0
100
AcDbLine
10
281.602361
20
21.349842
30
0
11
282.907136
21
13.087148
31
0
39
0
210
0
220
0
230
1
0
LINE
5
E1
100
AcDbEntity
8
1
62
256
6
ByLayer
370
13
48
1
60
0
100
AcDbLine
10
278.944309
20
22.207482
30
0
11
278.915427
21
21.651463
31
0
39
0
210
0
220
0
230
1
0
LINE
5
E2
100
AcDbEntity
8
1
62
256
6
ByLayer
370
13
48
1
60
0
100
AcDbLine
10
298.027436
20
32.370865
30
0
11
298.225558
21
32.379508
31
0
39
0
210
0
220
0
230
1
0
LINE
5
E3
100
AcDbEntity
8
1
62
256
6
ByLayer
370
13
48
1
60
0
100
AcDbLine
10
280.329357
20
30.797903
30
0
11
280.433638
21
29.625044
31
0
39
0
210
0
220
0
230
1
0
LINE
5
E4
100
AcDbEntity
8
1
62
256
6
ByLayer
370
13
48
1
60
0
100
AcDbLine
10
282.206022
20
11.698082
30
0
11
281.94935
21
11.638618
31
0
39
0
210
0
220
0
230
1
0
LINE
5
E5
100
AcDbEntity
8
1
62
256
6
ByLayer
370
13
48
1
60
0
100
AcDbLine
10
299.685885
20
14.590766
30
0
11
297.566046
21
14.234934
31
0
39
0
210
0
220
0
230
1
0
LINE
5
E6
100
AcDbEntity
8
1
62
256
6
ByLayer
370
13
48
1
60
0
100
AcDbLine
10
299.813965
20
14.719346
30
0
11
299.809266
21
14.7191
31
0
39
0
210
0
220
0
230
1
0
LINE
5
E7
100
AcDbEntity
8
1
62
256
6
ByLayer
370
13
48
1
60
0
100
AcDbLine
10
279.192127
20
21.534153
30
0
11
280.220617
21
29.39461
31
0
39
0
210
0
220
0
230
1
0
LINE
5
E8
100
AcDbEntity
8
1
62
256
6
ByLayer
370
13
48
1
60
0
100
AcDbLine
10
299.473748
20
14.453222
30
0
11
299.701699
21
14.491485
31
0
39
0
210
0
220
0
230
1
0
LINE
5
E9
100
AcDbEntity
8
1
62
256
6
ByLayer
370
13
48
1
60
0
100
AcDbLine
10
298.031474
20
32.371083
30
0
11
298.026775
21
32.370836
31
0
39
0
210
0
220
0
230
1
0
LINE
5
EA
100
AcDbEntity
8
1
62
256
6
ByLayer
370
13
48
1
60
0
100
AcDbLine
10
299.737305
20
12.926232
30
0
11
299.695374
21
13.373839
31
0
39
0
210
0
220
0
230
1
0
LINE
5
EB
100
AcDbEntity
8
1
62
256
6
ByLayer
370
13
48
1
60
0
100
AcDbLine
10
279.020842
20
20.747156
30
0
11
278.933998
21
21.297111
31
0
39
0
210
0
220
0
230
1
0
LINE
5
EC
100
AcDbEntity
8
1
62
256
6
ByLayer
370
13
48
1
60
0
100
AcDbLine
10
299.421579
20
31.790333
30
0
11
300.841837
21
22.796322
31
0
39
0
210
0
220
0
230
1
0
LINE
5
ED
100
AcDbEntity
8
1
62
256
6
ByLayer
370
13
48
1
60
0
100
AcDbLine
10
282.103864
20
11.745446
30
0
11
281.905081
21
11.736775
31
0
39
0
210
0
220
0
230
1
0
LINE
5
EE
100
AcDbEntity
8
1
62
256
6
ByLayer
370
13
48
1
60
0
100
AcDbLine
10
282.675057
20
29.769395
30
0
11
281.599696
21
21.550712
31
0
39
0
210
0
220
0
230
1
0
LINE
5
EF
100
AcDbEntity
8
1
62
256
6
ByLayer
370
13
48
1
60
0
100
AcDbLine
10
299.647106
20
14.737974
30
0
11
300.677643
21
22.61408
31
0
39
0
210
0
220
0
230
1
0
LINE
5
F0
100
AcDbEntity
8
1
62
256
6
ByLayer
370
13
48
1
60
0
100
AcDbLine
10
282.911835
20
13.087394
30
0
11
282.907136
21
13.087148
31
0
39
0
210
0
220
0
230
1
0
LINE
5
F1
100
AcDbEntity
8
1
62
256
6
ByLayer
370
13
48
1
60
0
100
AcDbLine
10
297.892401
20
32.416512
30
0
11
297.929315
21
32.418447
31
0
39
0
210
0
220
0
230
1
0
LINE
5
F2
100
AcDbEntity
8
1
62
256
6
ByLayer
370
13
48
1
60
0
100
AcDbLine
10
297.356214
20
31.026159
30
0
11
298.656974
21
22.788886
31
0
39
0
210
0
220
0
230
1
0
LINE
5
F3
100
AcDbEntity
8
1
62
256
6
ByLayer
370
13
48
1
60
0
100
AcDbLine
10
282.799817
20
30.022226
30
0
11
280.433638
21
29.625044
31
0
39
0
210
0
220
0
230
1
0
LINE
5
F4
100
AcDbEntity
8
1
62
256
6
ByLayer
370
13
48
1
60
0
100
AcDbLine
10
300.839803
20
22.595205
30
0
11
299.809266
21
14.7191
31
0
39
0
210
0
220
0
230
1
0
LINE
5
F5
100
AcDbEntity
8
1
62
256
6
ByLayer
370
13
48
1
60
0
100
AcDbLine
10
279.020842
20
20.747156
30
0
11
280.584704
21
12.309696
31
0
39
0
210
0
220
0
230
1
0
LINE
5
F6
100
AcDbEntity
8
1
62
256
6
ByLayer
370
13
48
1
60
0
100
AcDbLine
10
298.031474
20
32.371083
30
0
11
298.230257
21
32.379754
31
0
39
0
210
0
220
0
230
1
0
LINE
5
F7
100
AcDbEntity
8
1
62
256
6
ByLayer
370
13
48
1
60
0
100
AcDbLine
10
281.822512
20
21.382314
30
0
11
283.078865
21
13.426256
31
0
39
0
210
0
220
0
230
1
0
LINE
5
F8
100
AcDbEntity
8
1
62
256
6
ByLayer
370
13
48
1
60
0
100
AcDbLine
10
282.290396
20
11.906021
30
0
11
282.285697
21
11.905774
31
0
39
0
210
0
220
0
230
1
0
LINE
5
F9
100
AcDbEntity
8
1
62
256
6
ByLayer
370
13
48
1
60
0
100
AcDbLine
10
282.863413
20
13.39403
30
0
11
281.60706
21
21.350088
31
0
39
0
210
0
220
0
230
1
0
LINE
5
FA
100
AcDbEntity
8
1
62
256
6
ByLayer
370
13
48
1
60
0
100
AcDbLine
10
298.660209
20
22.544972
30
0
11
297.593614
21
14.393279
31
0
39
0
210
0
220
0
230
1
0
LINE
5
FB
100
AcDbEntity
8
1
62
256
6
ByLayer
370
13
48
1
60
0
100
AcDbLine
10
282.887796
20
29.682005
30
0
11
281.820609
21
21.525793
31
0
39
0
210
0
220
0
230
1
0
LINE
5
FC
100
AcDbEntity
8
1
62
256
6
ByLayer
370
13
48
1
60
0
100
AcDbLine
10
279.422197
20
21.342652
30
0
11
280.842455
21
12.348641
31
0
39
0
210
0
220
0
230
1
0
LINE
5
FD
100
AcDbEntity
8
1
62
256
6
ByLayer
370
13
48
1
60
0
100
AcDbLine
10
297.223503
20
31.029135
30
0
11
297.269033
21
30.740811
31
0
39
0
210
0
220
0
230
1
0
LINE
5
FE
100
AcDbEntity
8
1
62
256
6
ByLayer
370
13
48
1
60
0
100
AcDbLine
10
300.940165
20
22.811943
30
0
11
299.519907
21
31.805953
31
0
39
0
210
0
220
0
230
1
0
LINE
5
FF
100
AcDbEntity
8
1
62
256
6
ByLayer
370
13
48
1
60
0
100
AcDbLine
10
298.350417
20
22.736185
30
0
11
297.094064
21
30.692243
31
0
39
0
210
0
220
0
230
1
0
LINE
5
100
100
AcDbEntity
8
1
62
256
6
ByLayer
370
13
48
1
60
0
100
AcDbLine
10
280.444754
20
29.525516
30
0
11
282.564593
21
29.881348
31
0
39
0
210
0
220
0
230
1
0
LINE
5
101
100
AcDbEntity
8
1
62
256
6
ByLayer
370
13
48
1
60
0
100
AcDbLine
10
299.214142
20
13.293061
30
0
11
299.695374
21
13.373839
31
0
39
0
210
0
220
0
230
1
0
LINE
5
102
100
AcDbEntity
8
1
62
256
6
ByLayer
370
13
48
1
60
0
100
AcDbLine
10
279.195172
20
21.304586
30
0
11
280.61543
21
12.310575
31
0
39
0
210
0
220
0
230
1
0
LINE
5
103
100
AcDbEntity
8
1
62
256
6
ByLayer
370
13
48
1
60
0
100
AcDbLine
10
278.944309
20
22.207482
30
0
11
278.954454
21
22.997524
31
0
39
0
210
0
220
0
230
1
0
LINE
5
104
100
AcDbEntity
8
1
62
256
6
ByLayer
370
13
48
1
60
0
100
AcDbLine
10
297.593614
20
14.393279
30
0
11
299.647106
21
14.737974
31
0
39
0
210
0
220
0
230
1
0
LINE
5
105
100
AcDbEntity
8
1
62
256
6
ByLayer
370
13
48
1
60
0
100
AcDbLine
10
281.604395
20
21.550959
30
0
11
281.599696
21
21.550712
31
0
39
0
210
0
220
0
230
1
0
LINE
5
106
100
AcDbEntity
8
SK1
62
256
6
ByLayer
370
13
48
1
60
0
100
AcDbLine
10
-6.5
20
-10.670483
30
0
11
-76.600002
21
-10.670483
31
0
39
0
210
0
220
0
230
1
0
LINE
5
107
100
AcDbEntity
8
SK1
62
256
6
ByLayer
370
13
48
1
60
0
100
AcDbLine
10
-80
20
8.054018
30
0
11
-80
21
-8.054018
31
0
39
0
210
0
220
0
230
1
0
LINE
5
108
100
AcDbEntity
8
1
62
256
6
ByLayer
370
13
48
1
60
0
100
AcDbLine
10
274.539169
20
31.3625
30
0
11
274.539169
21
31.172502
31
0
39
0
210
0
220
0
230
1
0
LINE
5
109
100
AcDbEntity
8
1
62
256
6
ByLayer
370
13
48
1
60
0
100
AcDbLine
10
297.145714
20
12.465554
30
0
11
297.005804
21
10.843124
31
0
39
0
210
0
220
0
230
1
0
LINE
5
10A
100
AcDbEntity
8
1
62
256
6
ByLayer
370
13
48
1
60
0
100
AcDbLine
10
285.123176
20
11.333654
30
0
11
285.60228
21
11.358763
31
0
39
0
210
0
220
0
230
1
0
LINE
5
10B
100
AcDbEntity
8
1
62
256
6
ByLayer
370
13
48
1
60
0
100
AcDbLine
10
276.907135
20
14.868957
30
0
11
275.544878
21
16.958935
31
0
39
0
210
0
220
0
230
1
0
LINE
5
10C
100
AcDbEntity
8
1
62
256
6
ByLayer
370
13
48
1
60
0
100
AcDbLine
10
280.210137
20
29.488328
30
0
11
279.498543
21
24.049812
31
0
39
0
210
0
220
0
230
1
0
LINE
5
10D
100
AcDbEntity
8
1
62
256
6
ByLayer
370
13
48
1
60
0
100
AcDbLine
10
279.355252
20
23.798058
30
0
11
280.212221
21
30.347638
31
0
39
0
210
0
220
0
230
1
0
LINE
5
10E
100
AcDbEntity
8
1
62
256
6
ByLayer
370
13
48
1
60
0
100
AcDbLine
10
275.997506
20
14.363782
30
0
11
276.907135
21
14.868957
31
0
39
0
210
0
220
0
230
1
0
LINE
5
10F
100
AcDbEntity
8
1
62
256
6
ByLayer
370
13
48
1
60
0
100
AcDbLine
10
5.9228
20
-31.75
30
0
11
5.9228
21
-5.612486
31
0
39
0
210
0
220
0
230
1
0
LINE
5
110
100
AcDbEntity
8
1
62
256
6
ByLayer
370
13
48
1
60
0
100
AcDbLine
10
297.145714
20
12.465554
30
0
11
298.694496
21
12.546722
31
0
39
0
210
0
220
0
230
1
0
LINE
5
111
100
AcDbEntity
8
1
62
256
6
ByLayer
370
13
48
1
60
0
100
AcDbLine
10
274.539169
20
-31.228464
30
0
11
274.539169
21
-0.155674
31
0
39
0
210
0
220
0
230
1
0
LINE
5
112
100
AcDbEntity
8
1
62
256
6
ByLayer
370
13
48
1
60
0
100
AcDbLine
10
296.990988
20
13.959504
30
0
11
284.762358
21
13.318628
31
0
39
0
210
0
220
0
230
1
0
LINE
5
113
100
AcDbEntity
8
1
62
256
6
ByLayer
370
13
48
1
60
0
100
AcDbLine
10
296.311404
20
2.790681
30
0
11
298.683134
21
0.648393
31
0
39
0
210
0
220
0
230
1
0
LINE
5
114
100
AcDbEntity
8
1
62
256
6
ByLayer
370
13
48
1
60
0
100
AcDbLine
10
274.539169
20
-31.228464
30
0
11
261.99398
21
-31.228464
31
0
39
0
210
0
220
0
230
1
0
LINE
5
115
100
AcDbEntity
8
1
62
256
6
ByLayer
370
13
48
1
60
0
100
AcDbLine
10
277.539169
20
-31.55197
30
0
11
277.539169
21
-1.074316
31
0
39
0
210
0
220
0
230
1
0
LINE
5
116
100
AcDbEntity
8
1
62
256
6
ByLayer
370
13
48
1
60
0
100
AcDbLine
10
284.75296
20
13.318136
30
0
11
284.762358
21
13.318628
31
0
39
0
210
0
220
0
230
1
0
LINE
5
117
100
AcDbEntity
8
1
62
256
6
ByLayer
370
13
48
1
60
0
100
AcDbLine
10
297.679437
20
-31.55197
30
0
11
299.338256
21
-19.01
31
0
39
0
210
0
220
0
230
1
0
LINE
5
118
100
AcDbEntity
8
1
62
256
6
ByLayer
370
13
48
1
60
0
100
AcDbLine
10
0.1
20
5.612486
30
0
11
5.9228
21
5.612486
31
0
39
0
210
0
220
0
230
1
0
LINE
5
119
100
AcDbEntity
8
1
62
256
6
ByLayer
370
13
48
1
60
0
100
AcDbLine
10
277.539169
20
31.6875
30
0
11
277.539169
21
31.529342
31
0
39
0
210
0
220
0
230
1
0
LINE
5
11A
100
AcDbEntity
8
1
62
256
6
ByLayer
370
13
48
1
60
0
100
AcDbLine
10
284.394886
20
13.198825
30
0
11
283.86302
21
13.170951
31
0
39
0
210
0
220
0
230
1
0
LINE
5
11B
100
AcDbEntity
8
1
62
256
6
ByLayer
370
13
48
1
60
0
100
AcDbLine
10
41
20
31.6875
30
0
11
41
21
-11.392684
31
0
39
0
210
0
220
0
230
1
0
LINE
5
11C
100
AcDbEntity
8
1
62
256
6
ByLayer
370
13
48
1
60
0
100
AcDbLine
10
41
20
-31.563683
30
0
11
41
21
-31.6875
31
0
39
0
210
0
220
0
230
1
0
LINE
5
11D
100
AcDbEntity
8
1
62
256
6
ByLayer
370
13
48
1
60
0
100
AcDbLine
10
293.552986
20
13.9796
30
0
11
296.535852
21
14.135926
31
0
39
0
210
0
220
0
230
1
0
LINE
5
11E
100
AcDbEntity
8
1
62
256
6
ByLayer
370
13
48
1
60
0
100
AcDbLine
10
299.528124
20
0.884833
30
0
11
299.184932
21
0.767828
31
0
39
0
210
0
220
0
230
1
0
LINE
5
11F
100
AcDbEntity
8
1
62
256
6
ByLayer
370
13
48
1
60
0
100
AcDbLine
10
297.679437
20
-31.55197
30
0
11
277.539169
21
-31.55197
31
0
39
0
210
0
220
0
230
1
0
LINE
5
120
100
AcDbEntity
8
1
62
256
6
ByLayer
370
13
48
1
60
0
100
AcDbLine
10
0
20
-5.015974
30
0
11
0
21
5.015974
31
0
39
0
210
0
220
0
230
1
0
LINE
5
121
100
AcDbEntity
8
1
62
256
6
ByLayer
370
13
48
1
60
0
100
AcDbLine
10
298.753747
20
-0.226663
30
0
11
296.307585
21
1.982855
31
0
39
0
210
0
220
0
230
1
0
LINE
5
122
100
AcDbEntity
8
1
62
256
6
ByLayer
370
13
48
1
60
0
100
AcDbLine
10
0
20
31.65
30
0
11
0
21
5.015974
31
0
39
0
210
0
220
0
230
1
0
LINE
5
123
100
AcDbEntity
8
1
62
256
6
ByLayer
370
13
48
1
60
0
100
AcDbLine
10
142
20
-31.295221
30
0
11
142
21
-31.3625
31
0
39
0
210
0
220
0
230
1
0
LINE
5
124
100
AcDbEntity
8
1
62
256
6
ByLayer
370
13
48
1
60
0
100
AcDbLine
10
272.590333
20
2.636909
30
0
11
272.867701
21
0.753158
31
0
39
0
210
0
220
0
230
1
0
LINE
5
125
100
AcDbEntity
8
1
62
256
6
ByLayer
370
13
48
1
60
0
100
AcDbLine
10
275.544878
20
14.354355
30
0
11
275.544878
21
16.958935
31
0
39
0
210
0
220
0
230
1
0
LINE
5
126
100
AcDbEntity
8
1
62
256
6
ByLayer
370
13
48
1
60
0
100
AcDbLine
10
142
20
31.3625
30
0
11
142
21
-12.124343
31
0
39
0
210
0
220
0
230
1
0
LINE
5
127
100
AcDbEntity
8
1
62
256
6
ByLayer
370
13
48
1
60
0
100
AcDbLine
10
299.338256
20
-19.01
30
0
11
298.887952
21
-18.678441
31
0
39
0
210
0
220
0
230
1
0
LINE
5
128
100
AcDbEntity
8
1
62
256
6
ByLayer
370
13
48
1
60
0
100
AcDbLine
10
36
20
-31.6875
30
0
11
36
21
-31.563578
31
0
39
0
210
0
220
0
230
1
0
LINE
5
129
100
AcDbEntity
8
1
62
256
6
ByLayer
370
13
48
1
60
0
100
AcDbLine
10
299.178477
20
0.629659
30
0
11
299.155791
21
0.632632
31
0
39
0
210
0
220
0
230
1
0
LINE
5
12A
100
AcDbEntity
8
1
62
256
6
ByLayer
370
13
48
1
60
0
100
AcDbLine
10
299.322553
20
11.49516
30
0
11
299.286578
21
11.493275
31
0
39
0
210
0
220
0
230
1
0
LINE
5
12B
100
AcDbEntity
8
1
62
256
6
ByLayer
370
13
48
1
60
0
100
AcDbLine
10
284.714645
20
13.228508
30
0
11
284.400657
21
13.212052
31
0
39
0
210
0
220
0
230
1
0
LINE
5
12C
100
AcDbEntity
8
1
62
256
6
ByLayer
370
13
48
1
60
0
100
AcDbLine
10
299.390559
20
12.526193
30
0
11
299.527564
21
12.264713
31
0
39
0
210
0
220
0
230
1
0
LINE
5
12D
100
AcDbEntity
8
1
62
256
6
ByLayer
370
13
48
1
60
0
100
AcDbLine
10
299.390559
20
12.526193
30
0
11
299.208384
21
12.516645
31
0
39
0
210
0
220
0
230
1
0
LINE
5
12E
100
AcDbEntity
8
1
62
256
6
ByLayer
370
13
48
1
60
0
100
AcDbLine
10
276.721966
20
2.480472
30
0
11
277.239005
21
-1.031012
31
0
39
0
210
0
220
0
230
1
0
LINE
5
12F
100
AcDbEntity
8
1
62
256
6
ByLayer
370
13
48
1
60
0
100
AcDbLine
10
11.0228
20
-5.552221
30
0
11
11.0228
21
5.552221
31
0
39
0
210
0
220
0
230
1
0
LINE
5
130
100
AcDbEntity
8
1
62
256
6
ByLayer
370
13
48
1
60
0
100
AcDbLine
10
299.270417
20
1.153332
30
0
11
299.528124
21
0.884833
31
0
39
0
210
0
220
0
230
1
0
LINE
5
131
100
AcDbEntity
8
1
62
256
6
ByLayer
370
13
48
1
60
0
100
AcDbLine
10
279.586961
20
16.773317
30
0
11
278.835123
21
21.534452
31
0
39
0
210
0
220
0
230
1
0
LINE
5
132
100
AcDbEntity
8
1
62
256
6
ByLayer
370
13
48
1
60
0
100
AcDbLine
10
296.307585
20
1.982855
30
0
11
296.604051
21
-1.83098
31
0
39
0
210
0
220
0
230
1
0
LINE
5
133
100
AcDbEntity
8
1
62
256
6
ByLayer
370
13
48
1
60
0
100
AcDbLine
10
293.393439
20
13.943423
30
0
11
293.166982
21
13.931555
31
0
39
0
210
0
220
0
230
1
0
LINE
5
134
100
AcDbEntity
8
1
62
256
6
ByLayer
370
13
48
1
60
0
100
AcDbLine
10
285.102307
20
13.536719
30
0
11
288.085172
21
13.693044
31
0
39
0
210
0
220
0
230
1
0
LINE
5
135
100
AcDbEntity
8
1
62
256
6
ByLayer
370
13
48
1
60
0
100
AcDbLine
10
299.527564
20
12.264713
30
0
11
299.322553
21
11.49516
31
0
39
0
210
0
220
0
230
1
0
LINE
5
136
100
AcDbEntity
8
1
62
256
6
ByLayer
370
13
48
1
60
0
100
AcDbLine
10
300.014661
20
-9.714852
30
0
11
297.344859
21
-7.303328
31
0
39
0
210
0
220
0
230
1
0
LINE
5
137
100
AcDbEntity
8
1
62
256
6
ByLayer
370
13
48
1
60
0
100
AcDbLine
10
5.9228
20
31.75
30
0
11
5.9228
21
5.612486
31
0
39
0
210
0
220
0
230
1
0
LINE
5
138
100
AcDbEntity
8
1
62
256
6
ByLayer
370
13
48
1
60
0
100
AcDbLine
10
0.1
20
31.75
30
0
11
0.1
21
5.612486
31
0
39
0
210
0
220
0
230
1
0
LINE
5
139
100
AcDbEntity
8
1
62
256
6
ByLayer
370
13
48
1
60
0
100
AcDbLine
10
296.266816
20
12.419493
30
0
11
297.145714
21
12.465554
31
0
39
0
210
0
220
0
230
1
0
LINE
5
13A
100
AcDbEntity
8
1
62
256
6
ByLayer
370
13
48
1
60
0
100
AcDbLine
10
296.645583
20
6.665905
30
0
11
296.311404
21
2.790681
31
0
39
0
210
0
220
0
230
1
0
LINE
5
13B
100
AcDbEntity
8
1
62
256
6
ByLayer
370
13
48
1
60
0
100
AcDbLine
10
298.753747
20
-0.226663
30
0
11
299.992241
21
-8.010211
31
0
39
0
210
0
220
0
230
1
0
LINE
5
13C
100
AcDbEntity
8
1
62
256
6
ByLayer
370
13
48
1
60
0
100
AcDbLine
10
299.270417
20
1.153332
30
0
11
299.250484
21
1.155944
31
0
39
0
210
0
220
0
230
1
0
LINE
5
13D
100
AcDbEntity
8
1
62
256
6
ByLayer
370
13
48
1
60
0
100
AcDbLine
10
283.33997
20
13.22358
30
0
11
283.341632
21
13.214059
31
0
39
0
210
0
220
0
230
1
0
LINE
5
13E
100
AcDbEntity
8
1
62
256
6
ByLayer
370
13
48
1
60
0
100
AcDbLine
10
0
20
-31.65
30
0
11
0
21
-5.015974
31
0
39
0
210
0
220
0
230
1
0
LINE
5
13F
100
AcDbEntity
8
1
62
256
6
ByLayer
370
13
48
1
60
0
100
AcDbLine
10
297.266724
20
-5.548361
30
0
11
299.992241
21
-8.010211
31
0
39
0
210
0
220
0
230
1
0
LINE
5
140
100
AcDbEntity
8
1
62
256
6
ByLayer
370
13
48
1
60
0
100
AcDbLine
10
299.170669
20
0.637794
30
0
11
299.178477
21
0.629659
31
0
39
0
210
0
220
0
230
1
0
LINE
5
141
100
AcDbEntity
8
1
62
256
6
ByLayer
370
13
48
1
60
0
100
AcDbLine
10
277.572733
20
12.424818
30
0
11
278.806542
21
12.045672
31
0
39
0
210
0
220
0
230
1
0
LINE
5
142
100
AcDbEntity
8
1
62
256
6
ByLayer
370
13
48
1
60
0
100
AcDbLine
10
299.249639
20
11.790585
30
0
11
299.202205
21
12.625558
31
0
39
0
210
0
220
0
230
1
0
LINE
5
143
100
AcDbEntity
8
1
62
256
6
ByLayer
370
13
48
1
60
0
100
AcDbLine
10
0.1
20
-31.75
30
0
11
0.1
21
-5.612486
31
0
39
0
210
0
220
0
230
1
0
LINE
5
144
100
AcDbEntity
8
1
62
256
6
ByLayer
370
13
48
1
60
0
100
AcDbLine
10
288.058454
20
12.990683
30
0
11
297.407741
21
13.480659
31
0
39
0
210
0
220
0
230
1
0
LINE
5
145
100
AcDbEntity
8
1
62
256
6
ByLayer
370
13
48
1
60
0
100
AcDbLine
10
288.204769
20
11.996979
30
0
11
288.913392
21
12.034116
31
0
39
0
210
0
220
0
230
1
0
LINE
5
146
100
AcDbEntity
8
1
62
256
6
ByLayer
370
13
48
1
60
0
100
AcDbLine
10
299.527564
20
12.264713
30
0
11
299.528124
21
0.884833
31
0
39
0
210
0
220
0
230
1
0
LINE
5
147
100
AcDbEntity
8
1
62
256
6
ByLayer
370
13
48
1
60
0
100
AcDbLine
10
280.212221
20
30.347638
30
0
11
280.149046
21
31.553089
31
0
39
0
210
0
220
0
230
1
0
LINE
5
148
100
AcDbEntity
8
1
62
256
6
ByLayer
370
13
48
1
60
0
100
AcDbLine
10
283.341632
20
13.214059
30
0
11
283.506227
21
13.222685
31
0
39
0
210
0
220
0
230
1
0
LINE
5
149
100
AcDbEntity
8
1
62
256
6
ByLayer
370
13
48
1
60
0
100
AcDbLine
10
5.9228
20
-5.612486
30
0
11
0.1
21
-5.612486
31
0
39
0
210
0
220
0
230
1
0
LINE
5
14A
100
AcDbEntity
8
1
62
256
6
ByLayer
370
13
48
1
60
0
100
AcDbLine
10
36.01
20
-17.41391
30
0
11
36.01
21
-30.865637
31
0
39
0
210
0
220
0
230
1
0
LINE
5
14B
100
AcDbEntity
8
1
62
256
6
ByLayer
370
13
48
1
60
0
100
AcDbLine
10
36
20
31.6875
30
0
11
36
21
-11.391322
31
0
39
0
210
0
220
0
230
1
0
LINE
5
14C
100
AcDbEntity
8
1
62
256
6
ByLayer
370
13
48
1
60
0
100
AcDbLine
10
299.170669
20
0.637794
30
0
11
299.160685
21
0.639102
31
0
39
0
210
0
220
0
230
1
0
LINE
5
14D
100
AcDbEntity
8
1
62
256
6
ByLayer
370
13
48
1
60
0
100
AcDbLine
10
300.014661
20
-9.714852
30
0
11
298.902411
21
-18.124336
31
0
39
0
210
0
220
0
230
1
0
LINE
5
14E
100
AcDbEntity
8
4
62
256
6
ByLayer
370
18
48
0.05
60
0
100
AcDbLine
10
301
20
0
30
0
11
0
21
0
31
0
39
0
210
0
220
0
230
1
0
LINE
5
150
100
AcDbEntity
8
SK4
62
256
6
ByLayer
370
13
48
0.05
60
0
100
AcDbLine
10
301
20
0
30
0
11
-80
21
0
31
0
39
0
210
0
220
0
230
1
0
LINE
5
152
100
AcDbEntity
8
SK1
62
256
6
ByLayer
370
13
48
1
60
0
100
AcDbLine
10
-78.516222
20
24.892544
30
0
11
-78.599999
21
24.996
31
0
39
0
210
0
220
0
230
1
0
LINE
5
153
100
AcDbEntity
8
SK1
62
256
6
ByLayer
370
13
48
1
60
0
100
AcDbLine
10
-78.599999
20
-24.996
30
0
11
-78.516222
21
-24.892544
31
0
39
0
210
0
220
0
230
1
0
LINE
5
154
100
AcDbEntity
8
SK1
62
256
6
ByLayer
370
13
48
1
60
0
100
AcDbLine
10
-78.599999
20
24.996
30
0
11
-79
21
24.996
31
0
39
0
210
0
220
0
230
1
0
LINE
5
155
100
AcDbEntity
8
SK1
62
256
6
ByLayer
370
13
48
1
60
0
100
AcDbLine
10
-79
20
-24.996
30
0
11
-78.599999
21
-24.996
31
0
39
0
210
0
220
0
230
1
0
LINE
5
156
100
AcDbEntity
8
SK1
62
256
6
ByLayer
370
13
48
1
60
0
100
AcDbLine
10
-80
20
-23.996
30
0
11
-79
21
-24.996
31
0
39
0
210
0
220
0
230
1
0
LINE
5
157
100
AcDbEntity
8
SK1
62
256
6
ByLayer
370
13
48
1
60
0
100
AcDbLine
10
-79
20
24.996
30
0
11
-80
21
23.996
31
0
39
0
210
0
220
0
230
1
0
LINE
5
158
100
AcDbEntity
8
SK1
62
256
6
ByLayer
370
13
48
1
60
0
100
AcDbLine
10
-77.633813
20
-24.639667
30
0
11
-76.600002
21
-24.996
31
0
39
0
210
0
220
0
230
1
0
LINE
5
159
100
AcDbEntity
8
SK1
62
256
6
ByLayer
370
13
48
1
60
0
100
AcDbLine
10
-76.600002
20
24.996
30
0
11
-77.633813
21
24.639667
31
0
39
0
210
0
220
0
230
1
0
LINE
5
15A
100
AcDbEntity
8
SK1
62
256
6
ByLayer
370
13
48
1
60
0
100
AcDbLine
10
-0.15
20
24.746
30
0
11
-1.375195
21
24.746
31
0
39
0
210
0
220
0
230
1
0
LINE
5
15B
100
AcDbEntity
8
SK1
62
256
6
ByLayer
370
13
48
1
60
0
100
AcDbLine
10
-1.375195
20
-24.746
30
0
11
-0.15
21
-24.746
31
0
39
0
210
0
220
0
230
1
0
LINE
5
15C
100
AcDbEntity
8
SK1
62
256
6
ByLayer
370
13
48
1
60
0
100
AcDbLine
10
-2
20
24.996
30
0
11
-76.600002
21
24.996
31
0
39
0
210
0
220
0
230
1
0
LINE
5
15D
100
AcDbEntity
8
SK1
62
256
6
ByLayer
370
13
48
1
60
0
100
AcDbLine
10
-76.600002
20
-24.996
30
0
11
-2
21
-24.996
31
0
39
0
210
0
220
0
230
1
0
LINE
5
15E
100
AcDbEntity
8
SK1
62
256
6
ByLayer
370
13
48
1
60
0
100
AcDbLine
10
-1.544243
20
24.783477
30
0
11
-2
21
24.996
31
0
39
0
210
0
220
0
230
1
0
LINE
5
15F
100
AcDbEntity
8
SK1
62
256
6
ByLayer
370
13
48
1
60
0
100
AcDbLine
10
-2
20
-24.996
30
0
11
-1.544243
21
-24.783477
31
0
39
0
210
0
220
0
230
1
0
LINE
5
160
100
AcDbEntity
8
1
62
256
6
ByLayer
370
13
48
1
60
0
100
AcDbLine
10
36
20
-31.6875
30
0
11
41
21
-31.6875
31
0
39
0
210
0
220
0
230
1
0
LINE
5
161
100
AcDbEntity
8
1
62
256
6
ByLayer
370
13
48
1
60
0
100
AcDbLine
10
279.866027
20
31.6875
30
0
11
277.539169
21
31.6875
31
0
39
0
210
0
220
0
230
1
0
LINE
5
162
100
AcDbEntity
8
1
62
256
6
ByLayer
370
13
48
1
60
0
100
AcDbLine
10
41
20
-31.6875
30
0
11
142
21
-31.3625
31
0
39
0
210
0
220
0
230
1
0
LINE
5
163
100
AcDbEntity
8
1
62
256
6
ByLayer
370
13
48
1
60
0
100
AcDbLine
10
277.539169
20
31.6875
30
0
11
274.539169
21
31.3625
31
0
39
0
210
0
220
0
230
1
0
LINE
5
164
100
AcDbEntity
8
1
62
256
6
ByLayer
370
13
48
1
60
0
100
AcDbLine
10
142
20
-31.3625
30
0
11
156.773837
21
-31.3625
31
0
39
0
210
0
220
0
230
1
0
LINE
5
165
100
AcDbEntity
8
1
62
256
6
ByLayer
370
13
48
1
60
0
100
AcDbLine
10
274.539169
20
31.3625
30
0
11
256.602898
21
31.3625
31
0
39
0
210
0
220
0
230
1
0
LINE
5
166
100
AcDbEntity
8
1
62
256
6
ByLayer
370
13
48
1
60
0
100
AcDbLine
10
0
20
-31.65
30
0
11
0.1
21
-31.75
31
0
39
0
210
0
220
0
230
1
0
LINE
5
167
100
AcDbEntity
8
1
62
256
6
ByLayer
370
13
48
1
60
0
100
AcDbLine
10
0.1
20
-31.75
30
0
11
5.9228
21
-31.75
31
0
39
0
210
0
220
0
230
1
0
LINE
5
168
100
AcDbEntity
8
1
62
256
6
ByLayer
370
13
48
1
60
0
100
AcDbLine
10
0.1
20
31.75
30
0
11
0
21
31.65
31
0
39
0
210
0
220
0
230
1
0
LINE
5
169
100
AcDbEntity
8
1
62
256
6
ByLayer
370
13
48
1
60
0
100
AcDbLine
10
5.9228
20
31.75
30
0
11
0.1
21
31.75
31
0
39
0
210
0
220
0
230
1
0
LINE
5
16A
100
AcDbEntity
8
1
62
256
6
ByLayer
370
13
48
1
60
0
100
AcDbLine
10
145.822314
20
31.3625
30
0
11
142
21
31.3625
31
0
39
0
210
0
220
0
230
1
0
LINE
5
16B
100
AcDbEntity
8
1
62
256
6
ByLayer
370
13
48
1
60
0
100
AcDbLine
10
142
20
31.3625
30
0
11
41
21
31.6875
31
0
39
0
210
0
220
0
230
1
0
LINE
5
16C
100
AcDbEntity
8
1
62
256
6
ByLayer
370
13
48
1
60
0
100
AcDbLine
10
41
20
31.6875
30
0
11
36
21
31.6875
31
0
39
0
210
0
220
0
230
1
0
LINE
5
16D
100
AcDbEntity
8
1
62
256
6
ByLayer
370
13
48
1
60
0
100
AcDbLine
10
36
20
31.6875
30
0
11
5.9228
21
31.75
31
0
39
0
210
0
220
0
230
1
0
LINE
5
16E
100
AcDbEntity
8
1
62
256
6
ByLayer
370
13
48
1
60
0
100
AcDbLine
10
5.9228
20
-31.75
30
0
11
36
21
-31.6875
31
0
39
0
210
0
220
0
230
1
0
LINE
5
16F
100
AcDbEntity
8
1
62
256
6
ByLayer
370
13
48
1
60
0
100
AcDbLine
10
299.358182
20
13.437964
30
0
11
299.89296
21
14.644315
31
0
39
0
210
0
220
0
230
1
0
LINE
5
170
100
AcDbEntity
8
1
62
256
6
ByLayer
370
13
48
1
60
0
100
AcDbLine
10
298.529174
20
22.766396
30
0
11
297.27282
21
30.722454
31
0
39
0
210
0
220
0
230
1
0
LINE
5
171
100
AcDbEntity
8
1
62
256
6
ByLayer
370
13
48
1
60
0
100
AcDbLine
10
297.464647
20
14.409561
30
0
11
298.531834
21
22.565773
31
0
39
0
210
0
220
0
230
1
0
LINE
5
172
100
AcDbEntity
8
1
62
256
6
ByLayer
370
18
48
1
60
0
100
AcDbLine
10
290.08684
20
20.767198
30
0
11
289.959772
21
20.760539
31
0
39
0
210
0
220
0
230
1
0
LINE
5
173
100
AcDbEntity
8
1
62
256
6
ByLayer
370
18
48
1
60
0
100
AcDbLine
10
289.824714
20
23.337602
30
0
11
289.951782
21
23.344262
31
0
39
0
210
0
220
0
230
1
0
LINE
5
174
100
AcDbEntity
8
1
62
256
6
ByLayer
370
18
48
1
60
0
100
AcDbLine
10
290.114234
20
19.206794
30
0
11
290.181975
21
19.210344
31
0
39
0
210
0
220
0
230
1
0
LINE
5
175
100
AcDbEntity
8
1
62
256
6
ByLayer
370
18
48
1
60
0
100
AcDbLine
10
289.88366
20
24.902532
30
0
11
289.815919
21
24.898982
31
0
39
0
210
0
220
0
230
1
0
LINE
5
176
100
AcDbEntity
8
81
62
256
6
ByLayer
370
18
48
1
60
0
100
AcDbLine
10
301
20
0
30
0
11
308
21
0
31
0
39
0
210
0
220
0
230
1
0
LINE
5
177
100
AcDbEntity
8
80
62
256
6
ByLayer
370
18
48
1
60
0
100
AcDbLine
10
0
20
0
30
0
11
-7
21
0
31
0
39
0
210
0
220
0
230
1
0
LINE
5
178
100
AcDbEntity
8
SK2
62
256
6
ByLayer
370
13
48
1
60
0
100
AcDbLine
10
-100.725
20
25
30
0
11
-100.725
21
-25
31
0
39
0
210
0
220
0
230
1
0
LINE
5
17A
100
AcDbEntity
8
SK2
62
256
6
ByLayer
370
13
48
1
60
0
100
AcDbLine
10
-81.5875
20
-25
30
0
11
-103.9
21
-25
31
0
39
0
210
0
220
0
230
1
0
LINE
5
17B
100
AcDbEntity
8
SK2
62
256
6
ByLayer
370
13
48
1
60
0
100
AcDbLine
10
-81.5875
20
25
30
0
11
-103.9
21
25
31
0
39
0
210
0
220
0
230
1
0
LINE
5
17C
100
AcDbEntity
8
1
62
256
6
ByLayer
370
18
48
1
60
1
100
AcDbLine
10
-100.725
20
-25
30
0
11
-101.650575
21
-20.825003
31
0
39
0
210
0
220
0
230
1
0
LINE
5
17D
100
AcDbEntity
8
1
62
256
6
ByLayer
370
18
48
1
60
1
100
AcDbLine
10
-101.650575
20
-20.825003
30
0
11
-99.799425
21
-20.824997
31
0
39
0
210
0
220
0
230
1
0
LINE
5
17E
100
AcDbEntity
8
1
62
256
6
ByLayer
370
18
48
1
60
1
100
AcDbLine
10
-99.799425
20
-20.824997
30
0
11
-100.725
21
-25
31
0
39
0
210
0
220
0
230
1
0
LINE
5
17F
100
AcDbEntity
8
1
62
256
6
ByLayer
370
18
48
1
60
1
100
AcDbLine
10
-100.725
20
25
30
0
11
-99.799425
21
20.825003
31
0
39
0
210
0
220
0
230
1
0
LINE
5
180
100
AcDbEntity
8
1
62
256
6
ByLayer
370
18
48
1
60
1
100
AcDbLine
10
-99.799425
20
20.825003
30
0
11
-101.650575
21
20.824997
31
0
39
0
210
0
220
0
230
1
0
LINE
5
181
100
AcDbEntity
8
1
62
256
6
ByLayer
370
18
48
1
60
1
100
AcDbLine
10
-101.650575
20
20.824997
30
0
11
-100.725
21
25
31
0
39
0
210
0
220
0
230
1
0
LINE
5
182
100
AcDbEntity
8
SK2
62
256
6
ByLayer
370
13
48
1
60
0
100
AcDbLine
10
-110.725
20
-31.75
30
0
11
-110.725
21
31.75
31
0
39
0
210
0
220
0
230
1
0
LINE
5
183
100
AcDbEntity
8
SK2
62
256
6
ByLayer
370
13
48
1
60
0
100
AcDbLine
10
-1.5875
20
31.75
30
0
11
-113.9
21
31.75
31
0
39
0
210
0
220
0
230
1
0
LINE
5
184
100
AcDbEntity
8
SK2
62
256
6
ByLayer
370
13
48
1
60
0
100
AcDbLine
10
-1.5875
20
-31.75
30
0
11
-113.9
21
-31.75
31
0
39
0
210
0
220
0
230
1
0
LINE
5
185
100
AcDbEntity
8
1
62
256
6
ByLayer
370
18
48
1
60
1
100
AcDbLine
10
-110.725
20
31.75
30
0
11
-109.799425
21
27.575003
31
0
39
0
210
0
220
0
230
1
0
LINE
5
186
100
AcDbEntity
8
1
62
256
6
ByLayer
370
18
48
1
60
1
100
AcDbLine
10
-109.799425
20
27.575003
30
0
11
-111.650575
21
27.574997
31
0
39
0
210
0
220
0
230
1
0
LINE
5
187
100
AcDbEntity
8
1
62
256
6
ByLayer
370
18
48
1
60
1
100
AcDbLine
10
-111.650575
20
27.574997
30
0
11
-110.725
21
31.75
31
0
39
0
210
0
220
0
230
1
0
LINE
5
188
100
AcDbEntity
8
1
62
256
6
ByLayer
370
18
48
1
60
1
100
AcDbLine
10
-110.725
20
-31.75
30
0
11
-111.650575
21
-27.575003
31
0
39
0
210
0
220
0
230
1
0
LINE
5
189
100
AcDbEntity
8
1
62
256
6
ByLayer
370
18
48
1
60
1
100
AcDbLine
10
-111.650575
20
-27.575003
30
0
11
-109.799425
21
-27.574997
31
0
39
0
210
0
220
0
230
1
0
LINE
5
18A
100
AcDbEntity
8
1
62
256
6
ByLayer
370
18
48
1
60
1
100
AcDbLine
10
-109.799425
20
-27.574997
30
0
11
-110.725
21
-31.75
31
0
39
0
210
0
220
0
230
1
0
LINE
5
18B
100
AcDbEntity
8
2
62
256
6
ByLayer
370
13
48
1
60
0
100
AcDbLine
10
327.975
20
32.5
30
0
11
327.975
21
-32.5
31
0
39
0
210
0
220
0
230
1
0
LINE
5
18D
100
AcDbEntity
8
2
62
256
6
ByLayer
370
13
48
1
60
0
100
AcDbLine
10
302.5875
20
-32.5
30
0
11
331.15
21
-32.5
31
0
39
0
210
0
220
0
230
1
0
LINE
5
18E
100
AcDbEntity
8
2
62
256
6
ByLayer
370
13
48
1
60
0
100
AcDbLine
10
302.5875
20
32.5
30
0
11
331.15
21
32.5
31
0
39
0
210
0
220
0
230
1
0
LINE
5
18F
100
AcDbEntity
8
1
62
256
6
ByLayer
370
18
48
1
60
1
100
AcDbLine
10
327.975
20
-32.5
30
0
11
327.049425
21
-28.325003
31
0
39
0
210
0
220
0
230
1
0
LINE
5
190
100
AcDbEntity
8
1
62
256
6
ByLayer
370
18
48
1
60
1
100
AcDbLine
10
327.049425
20
-28.325003
30
0
11
328.900575
21
-28.324997
31
0
39
0
210
0
220
0
230
1
0
LINE
5
191
100
AcDbEntity
8
1
62
256
6
ByLayer
370
18
48
1
60
1
100
AcDbLine
10
328.900575
20
-28.324997
30
0
11
327.975
21
-32.5
31
0
39
0
210
0
220
0
230
1
0
LINE
5
192
100
AcDbEntity
8
1
62
256
6
ByLayer
370
18
48
1
60
1
100
AcDbLine
10
327.975
20
32.5
30
0
11
328.900575
21
28.325003
31
0
39
0
210
0
220
0
230
1
0
LINE
5
193
100
AcDbEntity
8
1
62
256
6
ByLayer
370
18
48
1
60
1
100
AcDbLine
10
328.900575
20
28.325003
30
0
11
327.049425
21
28.324997
31
0
39
0
210
0
220
0
230
1
0
LINE
5
194
100
AcDbEntity
8
1
62
256
6
ByLayer
370
18
48
1
60
1
100
AcDbLine
10
327.049425
20
28.324997
30
0
11
327.975
21
32.5
31
0
39
0
210
0
220
0
230
1
0
LINE
5
348
100
AcDbEntity
8
1
62
256
6
ByLayer
370
18
48
1
60
1
100
AcDbLine
10
-100.725
20
-25
30
0
11
-101.650575
21
-20.825003
31
0
39
0
210
0
220
0
230
1
0
LINE
5
349
100
AcDbEntity
8
1
62
256
6
ByLayer
370
18
48
1
60
1
100
AcDbLine
10
-101.650575
20
-20.825003
30
0
11
-99.799425
21
-20.824997
31
0
39
0
210
0
220
0
230
1
0
LINE
5
34A
100
AcDbEntity
8
1
62
256
6
ByLayer
370
18
48
1
60
1
100
AcDbLine
10
-99.799425
20
-20.824997
30
0
11
-100.725
21
-25
31
0
39
0
210
0
220
0
230
1
0
LINE
5
34C
100
AcDbEntity
8
1
62
256
6
ByLayer
370
18
48
1
60
1
100
AcDbLine
10
-100.725
20
25
30
0
11
-99.799425
21
20.825003
31
0
39
0
210
0
220
0
230
1
0
LINE
5
34D
100
AcDbEntity
8
1
62
256
6
ByLayer
370
18
48
1
60
1
100
AcDbLine
10
-99.799425
20
20.825003
30
0
11
-101.650575
21
20.824997
31
0
39
0
210
0
220
0
230
1
0
LINE
5
34E
100
AcDbEntity
8
1
62
256
6
ByLayer
370
18
48
1
60
1
100
AcDbLine
10
-101.650575
20
20.824997
30
0
11
-100.725
21
25
31
0
39
0
210
0
220
0
230
1
0
LINE
5
352
100
AcDbEntity
8
1
62
256
6
ByLayer
370
18
48
1
60
1
100
AcDbLine
10
-110.725
20
31.75
30
0
11
-109.799425
21
27.575003
31
0
39
0
210
0
220
0
230
1
0
LINE
5
353
100
AcDbEntity
8
1
62
256
6
ByLayer
370
18
48
1
60
1
100
AcDbLine
10
-109.799425
20
27.575003
30
0
11
-111.650575
21
27.574997
31
0
39
0
210
0
220
0
230
1
0
LINE
5
354
100
AcDbEntity
8
1
62
256
6
ByLayer
370
18
48
1
60
1
100
AcDbLine
10
-111.650575
20
27.574997
30
0
11
-110.725
21
31.75
31
0
39
0
210
0
220
0
230
1
0
LINE
5
356
100
AcDbEntity
8
1
62
256
6
ByLayer
370
18
48
1
60
1
100
AcDbLine
10
-110.725
20
-31.75
30
0
11
-111.650575
21
-27.575003
31
0
39
0
210
0
220
0
230
1
0
LINE
5
357
100
AcDbEntity
8
1
62
256
6
ByLayer
370
18
48
1
60
1
100
AcDbLine
10
-111.650575
20
-27.575003
30
0
11
-109.799425
21
-27.574997
31
0
39
0
210
0
220
0
230
1
0
LINE
5
358
100
AcDbEntity
8
1
62
256
6
ByLayer
370
18
48
1
60
1
100
AcDbLine
10
-109.799425
20
-27.574997
30
0
11
-110.725
21
-31.75
31
0
39
0
210
0
220
0
230
1
0
LINE
5
35C
100
AcDbEntity
8
1
62
256
6
ByLayer
370
18
48
1
60
1
100
AcDbLine
10
327.975
20
-32.5
30
0
11
327.049425
21
-28.325003
31
0
39
0
210
0
220
0
230
1
0
LINE
5
35D
100
AcDbEntity
8
1
62
256
6
ByLayer
370
18
48
1
60
1
100
AcDbLine
10
327.049425
20
-28.325003
30
0
11
328.900575
21
-28.324997
31
0
39
0
210
0
220
0
230
1
0
LINE
5
35E
100
AcDbEntity
8
1
62
256
6
ByLayer
370
18
48
1
60
1
100
AcDbLine
10
328.900575
20
-28.324997
30
0
11
327.975
21
-32.5
31
0
39
0
210
0
220
0
230
1
0
LINE
5
360
100
AcDbEntity
8
1
62
256
6
ByLayer
370
18
48
1
60
1
100
AcDbLine
10
327.975
20
32.5
30
0
11
328.900575
21
28.325003
31
0
39
0
210
0
220
0
230
1
0
LINE
5
361
100
AcDbEntity
8
1
62
256
6
ByLayer
370
18
48
1
60
1
100
AcDbLine
10
328.900575
20
28.325003
30
0
11
327.049425
21
28.324997
31
0
39
0
210
0
220
0
230
1
0
LINE
5
362
100
AcDbEntity
8
1
62
256
6
ByLayer
370
18
48
1
60
1
100
AcDbLine
10
327.049425
20
28.324997
30
0
11
327.975
21
32.5
31
0
39
0
210
0
220
0
230
1
0
MTEXT
5
344
100
AcDbEntity
8
SK2
62
256
6
ByLayer
370
18
48
1
60
0
100
AcDbMText
10
-102.736672
20
-6.949399
30
0
210
0
220
0
230
1
1
%%c
40
4.5
41
0
44
1.084337
50
90
71
7
72
5
7
iso_b_vert
0
MTEXT
5
347
100
AcDbEntity
8
SK2
62
256
6
ByLayer
370
18
48
1
60
0
100
AcDbMText
10
-102.736672
20
4.265444
30
0
210
0
220
0
230
1
1
\W0.6740;50
40
4.5
41
0
44
1.084337
50
90
71
7
72
5
7
iso_b_vert
0
MTEXT
5
350
100
AcDbEntity
8
SK2
62
256
6
ByLayer
370
18
48
1
60
0
100
AcDbMText
10
-112.736672
20
-9.541655
30
0
210
0
220
0
230
1
1
%%c
40
4.5
41
0
44
1.084337
50
90
71
7
72
5
7
iso_b_vert
0
MTEXT
5
351
100
AcDbEntity
8
SK2
62
256
6
ByLayer
370
18
48
1
60
0
100
AcDbMText
10
-112.736672
20
1.673189
30
0
210
0
220
0
230
1
1
\W0.7346;63.5
40
4.5
41
0
44
1.084337
50
90
71
7
72
5
7
iso_b_vert
0
MTEXT
5
35A
100
AcDbEntity
8
2
62
256
6
ByLayer
370
18
48
1
60
0
100
AcDbMText
10
325.963328
20
-6.949399
30
0
210
0
220
0
230
1
1
%%c
40
4.5
41
0
44
1.084337
50
90
71
7
72
5
7
iso_b_vert
0
MTEXT
5
35B
100
AcDbEntity
8
2
62
256
6
ByLayer
370
18
48
1
60
0
100
AcDbMText
10
325.963328
20
4.265444
30
0
210
0
220
0
230
1
1
\W0.6740;65
40
4.5
41
0
44
1.084337
50
90
71
7
72
5
7
iso_b_vert
0
MTEXT
5
364
100
AcDbEntity
8
SK6
62
256
6
ByLayer
370
18
48
1
60
0
100
AcDbMText
10
9.308916
20
-94.592562
30
0
210
0
220
0
230
1
1
\W0.7699;DS20-D6500L50-04
40
3.5
41
0
44
1.084337
50
0
71
7
72
5
7
iso_b_vert
0
HATCH
5
34B
100
AcDbEntity
8
SK2
62
256
6
ByLayer
370
13
48
1
60
0
100
AcDbHatch
10
0
20
0
30
0
210
0
220
0
230
1
2
ANSI31
70
0
71
0
91
1
92
5
93
3
72
1
10
-100.725
20
-24.9999999999999
11
-101.650575216528
21
-20.8250033998275
72
1
10
-101.650575216528
20
-20.8250033998275
11
-99.7994247834721
21
-20.8249966001723
72
1
10
-99.7994247834721
20
-20.8249966001723
11
-100.725
21
-24.9999999999999
97
0
75
0
76
1
52
0
41
0.0062
77
0
78
1
53
45
43
0
44
0
45
-0.0139193969876572
46
0.0139193969876572
79
0
47
0
98
1
10
0
20
0
0
HATCH
5
34F
100
AcDbEntity
8
SK2
62
256
6
ByLayer
370
13
48
1
60
0
100
AcDbHatch
10
0
20
0
30
0
210
0
220
0
230
1
2
ANSI31
70
0
71
0
91
1
92
5
93
3
72
1
10
-100.725
20
25.0000000000001
11
-99.7994247834721
21
20.8250033998277
72
1
10
-99.7994247834721
20
20.8250033998277
11
-101.650575216528
21
20.8249966001725
72
1
10
-101.650575216528
20
20.8249966001725
11
-100.725
21
25.0000000000001
97
0
75
0
76
1
52
0
41
0.0062
77
0
78
1
53
45
43
0
44
0
45
-0.0139193969876572
46
0.0139193969876572
79
0
47
0
98
1
10
0
20
0
0
HATCH
5
355
100
AcDbEntity
8
SK2
62
256
6
ByLayer
370
13
48
1
60
0
100
AcDbHatch
10
0
20
0
30
0
210
0
220
0
230
1
2
ANSI31
70
0
71
0
91
1
92
5
93
3
72
1
10
-110.725
20
31.75
11
-109.799424783472
21
27.5750033998276
72
1
10
-109.799424783472
20
27.5750033998276
11
-111.650575216528
21
27.5749966001724
72
1
10
-111.650575216528
20
27.5749966001724
11
-110.725
21
31.75
97
0
75
0
76
1
52
0
41
0.0062
77
0
78
1
53
45
43
0
44
0
45
-0.0139193969876572
46
0.0139193969876572
79
0
47
0
98
1
10
0
20
0
0
HATCH
5
359
100
AcDbEntity
8
SK2
62
256
6
ByLayer
370
13
48
1
60
0
100
AcDbHatch
10
0
20
0
30
0
210
0
220
0
230
1
2
ANSI31
70
0
71
0
91
1
92
5
93
3
72
1
10
-110.725
20
-31.75
11
-111.650575216528
21
-27.5750033998276
72
1
10
-111.650575216528
20
-27.5750033998276
11
-109.799424783472
21
-27.5749966001723
72
1
10
-109.799424783472
20
-27.5749966001723
11
-110.725
21
-31.75
97
0
75
0
76
1
52
0
41
0.0062
77
0
78
1
53
45
43
0
44
0
45
-0.0139193969876572
46
0.0139193969876572
79
0
47
0
98
1
10
0
20
0
0
HATCH
5
35F
100
AcDbEntity
8
2
62
256
6
ByLayer
370
13
48
1
60
0
100
AcDbHatch
10
0
20
0
30
0
210
0
220
0
230
1
2
ANSI31
70
0
71
0
91
1
92
5
93
3
72
1
10
327.975
20
-32.5000000000003
11
327.049424783472
21
-28.3250033998279
72
1
10
327.049424783472
20
-28.3250033998279
11
328.900575216528
21
-28.3249966001727
72
1
10
328.900575216528
20
-28.3249966001727
11
327.975
21
-32.5000000000003
97
0
75
0
76
1
52
0
41
0.0062
77
0
78
1
53
45
43
0
44
0
45
-0.0139193969876572
46
0.0139193969876572
79
0
47
0
98
1
10
0
20
0
0
HATCH
5
363
100
AcDbEntity
8
2
62
256
6
ByLayer
370
13
48
1
60
0
100
AcDbHatch
10
0
20
0
30
0
210
0
220
0
230
1
2
ANSI31
70
0
71
0
91
1
92
5
93
3
72
1
10
327.975
20
32.4999999999997
11
328.900575216528
21
28.3250033998273
72
1
10
328.900575216528
20
28.3250033998273
11
327.049424783472
21
28.324996600172
72
1
10
327.049424783472
20
28.324996600172
11
327.975
21
32.4999999999997
97
0
75
0
76
1
52
0
41
0.0062
77
0
78
1
53
45
43
0
44
0
45
-0.0139193969876572
46
0.0139193969876572
79
0
47
0
98
1
10
0
20
0
0
DIMENSION
5
367
100
AcDbEntity
8
2
62
256
6
ByLayer
370
18
48
1
60
0
100
AcDbDimension
2
_U0
10
301
20
-81.116278
30
0
11
150.5
21
-81.116278
31
0
70
32
71
1
72
1
41
1
210
0
220
0
230
1
3
Standard
100
AcDbAlignedDimension
13
0
23
-31.75
33
0
14
301
24
-32.5
34
0
50
0
100
AcDbRotatedDimension
1001
ACAD
1000
DSTYLE
1002
{
1070
   371
1070
    13
1070
   372
1070
    13
1070
   170
1070
     0
1070
   144
1040
1.0
1070
   277
1070
     2
1070
   284
1070
     8
1070
   278
1070
    46
1070
   146
1040
0.777778
1070
   345
1005
16
1070
   347
1005
16
1070
   346
1005
16
1070
   344
1005
0
1070
   343
1005
0
1070
   172
1070
     1
1070
    76
1070
     0
1070
    75
1070
     0
1070
   282
1070
     0
1070
   281
1070
     0
1070
    71
1070
     0
1070
    74
1070
     0
1070
   279
1070
     0
1070
   173
1070
     1
1070
   340
1005
345
1070
   271
1070
     1
1070
   272
1070
     2
1070
    77
1070
     1
1070
    73
1070
     1
1070
   171
1070
     3
1070
   274
1070
     4
1070
   177
1070
   150
1070
   176
1070
     9
1070
   178
1070
    43
1070
    78
1070
     8
1070
    48
1040
-0.1
1070
    41
1040
4.175
1070
   147
1040
2.25
1070
    42
1040
1.5875
1070
    44
1040
3.175
1070
   140
1040
4.5
1002
}
1001
ACAD_DSTYLE_DIM_LINETYPE
1070
   380
1005
16
1001
ACAD_DSTYLE_DIM_EXT1_LINETYPE
1070
   381
1005
16
1001
ACAD_DSTYLE_DIM_EXT2_LINETYPE
1070
   382
1005
16
0
DIMENSION
5
380
100
AcDbEntity
8
SK2
62
256
6
ByLayer
370
18
48
1
60
0
100
AcDbDimension
2
_U1
10
0
20
-81.116278
30
0
11
-40
21
-81.116278
31
0
70
32
71
1
72
1
41
1
210
0
220
0
230
1
3
Standard
100
AcDbAlignedDimension
13
-80
23
-25
33
0
14
0
24
-31.75
34
0
50
0
100
AcDbRotatedDimension
1001
ACAD
1000
DSTYLE
1002
{
1070
   371
1070
    13
1070
   372
1070
    13
1070
   170
1070
     0
1070
   144
1040
1.0
1070
   277
1070
     2
1070
   284
1070
     8
1070
   278
1070
    46
1070
   146
1040
0.777778
1070
   345
1005
16
1070
   347
1005
16
1070
   346
1005
16
1070
   344
1005
0
1070
   343
1005
0
1070
   172
1070
     1
1070
    76
1070
     0
1070
    75
1070
     0
1070
   282
1070
     0
1070
   281
1070
     0
1070
    71
1070
     0
1070
    74
1070
     0
1070
   279
1070
     0
1070
   173
1070
     1
1070
   340
1005
345
1070
   271
1070
     1
1070
   272
1070
     2
1070
    77
1070
     1
1070
    73
1070
     1
1070
   171
1070
     3
1070
   274
1070
     4
1070
   177
1070
   150
1070
   176
1070
     9
1070
   178
1070
    43
1070
    78
1070
     8
1070
    48
1040
-0.1
1070
    41
1040
4.175
1070
   147
1040
2.25
1070
    42
1040
1.5875
1070
    44
1040
3.175
1070
   140
1040
4.5
1002
}
1001
ACAD_DSTYLE_DIM_LINETYPE
1070
   380
1005
16
1001
ACAD_DSTYLE_DIM_EXT1_LINETYPE
1070
   381
1005
16
1001
ACAD_DSTYLE_DIM_EXT2_LINETYPE
1070
   382
1005
16
0
DIMENSION
5
398
100
AcDbEntity
8
SK2
62
256
6
ByLayer
370
18
48
1
60
0
100
AcDbDimension
2
_U2
10
6.4228
20
-71.116278
30
0
11
153.7114
21
-71.116278
31
0
70
32
71
1
72
1
41
1
210
0
220
0
230
1
3
Standard
100
AcDbAlignedDimension
13
301
23
-32.5
33
0
14
6.4228
24
-31.75
34
0
50
0
100
AcDbRotatedDimension
1001
ACAD
1000
DSTYLE
1002
{
1070
   371
1070
    13
1070
   372
1070
    13
1070
   170
1070
     0
1070
   144
1040
1.0
1070
   277
1070
     2
1070
   284
1070
     8
1070
   278
1070
    46
1070
   146
1040
0.777778
1070
   345
1005
16
1070
   347
1005
16
1070
   346
1005
16
1070
   344
1005
0
1070
   343
1005
0
1070
   172
1070
     1
1070
    76
1070
     0
1070
    75
1070
     0
1070
   282
1070
     0
1070
   281
1070
     0
1070
    71
1070
     0
1070
    74
1070
     0
1070
   279
1070
     0
1070
   173
1070
     1
1070
   340
1005
345
1070
   271
1070
     1
1070
   272
1070
     2
1070
    77
1070
     1
1070
    73
1070
     1
1070
   171
1070
     3
1070
   274
1070
     4
1070
   177
1070
   150
1070
   176
1070
     9
1070
   178
1070
    43
1070
    78
1070
     8
1070
    48
1040
-0.1
1070
    41
1040
4.175
1070
   147
1040
2.25
1070
    42
1040
1.5875
1070
    44
1040
3.175
1070
   140
1040
4.5
1002
}
1001
ACAD_DSTYLE_DIM_LINETYPE
1070
   380
1005
16
1001
ACAD_DSTYLE_DIM_EXT1_LINETYPE
1070
   381
1005
16
1001
ACAD_DSTYLE_DIM_EXT2_LINETYPE
1070
   382
1005
16
0
DIMENSION
5
3B0
100
AcDbEntity
8
SK2
62
256
6
ByLayer
370
18
48
1
60
0
100
AcDbDimension
2
_U3
10
301
20
-61.116278
30
0
11
168.5
21
-61.116278
31
0
70
32
71
1
72
1
41
1
210
0
220
0
230
1
3
Standard
100
AcDbAlignedDimension
13
36
23
-32.5
33
0
14
301
24
-32.5
34
0
50
0
100
AcDbRotatedDimension
1001
ACAD
1000
DSTYLE
1002
{
1070
   371
1070
    13
1070
   372
1070
    13
1070
   170
1070
     0
1070
   144
1040
1.0
1070
   277
1070
     2
1070
   284
1070
     8
1070
   278
1070
    46
1070
   146
1040
0.777778
1070
   345
1005
16
1070
   347
1005
16
1070
   346
1005
16
1070
   344
1005
0
1070
   343
1005
0
1070
   172
1070
     1
1070
    76
1070
     0
1070
    75
1070
     0
1070
   282
1070
     0
1070
   281
1070
     0
1070
    71
1070
     0
1070
    74
1070
     0
1070
   279
1070
     0
1070
   173
1070
     1
1070
   340
1005
345
1070
   271
1070
     1
1070
   272
1070
     2
1070
    77
1070
     1
1070
    73
1070
     1
1070
   171
1070
     3
1070
   274
1070
     4
1070
   177
1070
   150
1070
   176
1070
     9
1070
   178
1070
    43
1070
    78
1070
     8
1070
    48
1040
-0.1
1070
    41
1040
4.175
1070
   147
1040
2.25
1070
    42
1040
1.5875
1070
    44
1040
3.175
1070
   140
1040
4.5
1002
}
1001
ACAD_DSTYLE_DIM_LINETYPE
1070
   380
1005
16
1001
ACAD_DSTYLE_DIM_EXT1_LINETYPE
1070
   381
1005
16
1001
ACAD_DSTYLE_DIM_EXT2_LINETYPE
1070
   382
1005
16
0
DIMENSION
5
3C8
100
AcDbEntity
8
2
62
256
6
ByLayer
370
18
48
1
60
0
100
AcDbDimension
2
_U4
10
301
20
-51.116278
30
0
11
322.922321
21
-51.116278
31
0
70
32
71
1
72
1
41
1
210
0
220
0
230
1
3
Standard
100
AcDbAlignedDimension
13
299.4109
23
-16.25
33
0
14
301
24
0
34
0
50
0
100
AcDbRotatedDimension
1001
ACAD
1000
DSTYLE
1002
{
1070
   371
1070
    13
1070
   372
1070
    13
1070
   170
1070
     0
1070
   144
1040
1.0
1070
   277
1070
     2
1070
   284
1070
     8
1070
   278
1070
    46
1070
   146
1040
0.777778
1070
   345
1005
16
1070
   347
1005
16
1070
   346
1005
16
1070
   344
1005
0
1070
   343
1005
0
1070
   172
1070
     1
1070
    76
1070
     0
1070
    75
1070
     0
1070
   282
1070
     0
1070
   281
1070
     0
1070
    71
1070
     0
1070
    74
1070
     0
1070
   279
1070
     0
1070
   173
1070
     1
1070
   340
1005
345
1070
   271
1070
     2
1070
   272
1070
     2
1070
    77
1070
     1
1070
    73
1070
     1
1070
   171
1070
     3
1070
   274
1070
     4
1070
   177
1070
   150
1070
   176
1070
     9
1070
   178
1070
    43
1070
    78
1070
     8
1070
    48
1040
-0.1
1070
    41
1040
4.175
1070
   147
1040
2.25
1070
    42
1040
1.5875
1070
    44
1040
3.175
1070
   140
1040
4.5
1002
}
1001
ACAD_DSTYLE_DIM_LINETYPE
1070
   380
1005
16
1001
ACAD_DSTYLE_DIM_EXT1_LINETYPE
1070
   381
1005
16
1001
ACAD_DSTYLE_DIM_EXT2_LINETYPE
1070
   382
1005
16
0
ENDSEC
0
SECTION
2
OBJECTS
0
DICTIONARY
5
452
330
0
100
AcDbDictionary
280
0
281
1
3
ACAD_GROUP
350
453
3
ACAD_MLINESTYLE
350
454
0
DICTIONARY
5
453
330
0
100
AcDbDictionary
280
0
281
1
0
DICTIONARY
5
454
330
0
100
AcDbDictionary
280
0
281
1
3
Standard
350
18
0
MLINESTYLE
5
18
330
454
100
AcDbMlineStyle
2
Standard
70
0
3

62
256
51
90
52
90
71
2
49
-0.5
62
256
6
ByLayer
49
0.5
62
256
6
ByLayer
0
RASTERVARIABLES
5
440
330

100
AcDbRasterVariables
90
0
70
1
71
1
72
1
0
ENDSEC
0
EOF
