0
SECTION
2
HEADER
9
$ACADVER
1
AC1015
9
$DWGCODEPAGE
3
ANSI_1252
9
$HANDSEED
5
43e
9
$ANGBASE
50
0
9
$ANGDIR
70
0
9
$ATTMODE
70
1
9
$AUNITS
70
0
9
$AUPREC
70
0
9
$CECOLOR
62
256
9
$CELTSCALE
40
1
9
$CELTYPE
6
ByLayer
9
$CELWEIGHT
370
18
9
$CLAYER
8
0
9
$CMLJUST
70
0
9
$CMLSCALE
40
1
9
$CMLSTYLE
2
Standard
9
$DIMSTYLE
2
Standard
9
$TEXTSIZE
40
0.2
9
$TEXTSTYLE
7
Standard
9
$LUNITS
70
2
9
$LUPREC
70
4
9
$EXTNAMES
290
1
9
$INSUNITS
70
4
9
$LTSCALE
40
1
9
$LWDISPLAY
290
1
9
$PDMODE
70
0
9
$PDSIZE
40
0
9
$PLINEGEN
70
0
0
ENDSEC
0
SECTION
2
CLASSES
0
CLASS
1
RASTERVARIABLES
2
AcDbRasterVariables
3
ISM
90
0
280
0
281
0
0
ENDSEC
0
SECTION
2
TABLES
0
TABLE
2
VPORT
5
434
100
AcDbSymbolTable
0
VPORT
5
1
100
AcDbSymbolTableRecord
100
AcDbViewportTableRecord
2
*Active
70
0
10
0
20
0
11
1
21
1
12
-1
22
1
13
0
23
0
14
0.5
24
0.5
15
10
25
10
16
0
26
0
36
1
17
0
27
0
37
0
0
ENDTAB
0
TABLE
2
LTYPE
5
435
100
AcDbSymbolTable
0
LTYPE
5
14
100
AcDbSymbolTableRecord
100
AcDbLinetypeTableRecord
70
0
2
ByBlock
3

72
65
73
0
40
0
0
LTYPE
5
15
100
AcDbSymbolTableRecord
100
AcDbLinetypeTableRecord
70
0
2
ByLayer
3

72
65
73
0
40
0
0
LTYPE
5
16
100
AcDbSymbolTableRecord
100
AcDbLinetypeTableRecord
70
0
2
Continuous
3
Solid line
72
65
73
0
40
0
0
LTYPE
5
6E
100
AcDbSymbolTableRecord
100
AcDbLinetypeTableRecord
70
0
2
CENTER
3
____ _ ____ _ ____ _ ____
72
65
73
4
40
47.5
49
22
74
0
49
-8.5
74
0
49
8.5
74
0
49
-8.5
74
0
0
LTYPE
5
6F
100
AcDbSymbolTableRecord
100
AcDbLinetypeTableRecord
70
0
2
DASHED
3
__ __ __ __ __ __ __ __ __
72
65
73
2
40
25.72
49
12.86
74
0
49
-12.86
74
0
0
ENDTAB
0
TABLE
2
LAYER
5
436
100
AcDbSymbolTable
0
LAYER
5
10
100
AcDbSymbolTableRecord
100
AcDbLayerTableRecord
2
0
70
0
62
7
6
Continuous
290
1
370
-3
390
0
0
LAYER
5
71
100
AcDbSymbolTableRecord
100
AcDbLayerTableRecord
2
1
70
0
62
4
6
Continuous
290
1
370
-3
390
0
0
LAYER
5
73
100
AcDbSymbolTableRecord
100
AcDbLayerTableRecord
2
80
70
0
62
-6
6
Continuous
290
1
370
-3
390
0
0
LAYER
5
75
100
AcDbSymbolTableRecord
100
AcDbLayerTableRecord
2
81
70
0
62
-3
6
Continuous
290
1
370
-3
390
0
0
LAYER
5
13F
100
AcDbSymbolTableRecord
100
AcDbLayerTableRecord
2
4
70
0
62
-2
6
CENTER
290
1
370
-3
390
0
0
LAYER
5
172
100
AcDbSymbolTableRecord
100
AcDbLayerTableRecord
2
2
70
0
62
7
6
Continuous
290
1
370
-3
390
0
0
LAYER
5
349
100
AcDbSymbolTableRecord
100
AcDbLayerTableRecord
2
Defpoints
70
0
62
7
6
Continuous
290
0
370
-3
390
0
0
LAYER
5
420
100
AcDbSymbolTableRecord
100
AcDbLayerTableRecord
2
SK1
70
0
62
4
6
Continuous
290
1
370
-3
390
0
0
LAYER
5
421
100
AcDbSymbolTableRecord
100
AcDbLayerTableRecord
2
SK4
70
0
62
2
6
CENTER
290
1
370
-3
390
0
0
LAYER
5
422
100
AcDbSymbolTableRecord
100
AcDbLayerTableRecord
2
SK2
70
0
62
7
6
Continuous
290
1
370
-3
390
0
0
LAYER
5
423
100
AcDbSymbolTableRecord
100
AcDbLayerTableRecord
2
SK6
70
0
62
5
6
Continuous
290
1
370
-3
390
0
0
ENDTAB
0
TABLE
2
STYLE
5
437
100
AcDbSymbolTable
0
STYLE
5
11
100
AcDbSymbolTableRecord
100
AcDbTextStyleTableRecord
2
Standard
3
txt
70
0
71
0
40
0
41
1
42
0
50
0
0
STYLE
5
324
100
AcDbSymbolTableRecord
100
AcDbTextStyleTableRecord
2
iso_b_vert
3
simplex.shx
70
0
71
0
40
0
41
1
42
0
50
0
0
STYLE
5
325
100
AcDbSymbolTableRecord
100
AcDbTextStyleTableRecord
2
DWGDirectTextStyle
3
simplex
70
0
71
0
40
0
41
1
42
0
50
0
0
ENDTAB
0
TABLE
2
DIMSTYLE
5
438
100
AcDbSymbolTable
100
AcDbDimStyleTable
0
DIMSTYLE
105
27
100
AcDbSymbolTableRecord
100
AcDbDimStyleTableRecord
2
Standard
70
0
3
<>
41
0.18
42
0.0625
44
0.18
140
0.18
147
0.09
73
0
74
0
77
1
271
2
275
0
278
52
280
0
340
11
0
ENDTAB
0
TABLE
2
VIEW
5
439
100
AcDbSymbolTable
0
ENDTAB
0
TABLE
2
UCS
5
43a
100
AcDbSymbolTable
0
ENDTAB
0
TABLE
2
APPID
5
43b
100
AcDbSymbolTable
0
APPID
5
12
100
AcDbSymbolTableRecord
100
AcDbRegAppTableRecord
2
ACAD
70
0
0
APPID
5
345
100
AcDbSymbolTableRecord
100
AcDbRegAppTableRecord
2
ACAD_DSTYLE_DIMBREAK
70
0
0
APPID
5
3DF
100
AcDbSymbolTableRecord
100
AcDbRegAppTableRecord
2
ACAD_DSTYLE_DIM_LINETYPE
70
0
0
APPID
5
3E0
100
AcDbSymbolTableRecord
100
AcDbRegAppTableRecord
2
ACAD_DSTYLE_DIM_EXT1_LINETYPE
70
0
0
APPID
5
3E1
100
AcDbSymbolTableRecord
100
AcDbRegAppTableRecord
2
ACAD_DSTYLE_DIM_EXT2_LINETYPE
70
0
0
APPID
5
41C
100
AcDbSymbolTableRecord
100
AcDbRegAppTableRecord
2
ACAD_MLEADERVER
70
0
0
ENDTAB
0
TABLE
2
BLOCK_RECORD
5
43c
100
AcDbSymbolTable
0
BLOCK_RECORD
5
1F
100
AcDbSymbolTableRecord
100
AcDbBlockTableRecord
2
*Model_Space
340
0
70
0
0
BLOCK_RECORD
5
1B
100
AcDbSymbolTableRecord
100
AcDbBlockTableRecord
2
*Paper_Space
340
0
70
0
0
BLOCK_RECORD
5
23
100
AcDbSymbolTableRecord
100
AcDbBlockTableRecord
2
*Paper_Space0
340
0
70
0
0
BLOCK_RECORD
5
34A
100
AcDbSymbolTableRecord
100
AcDbBlockTableRecord
2
*D1
340
0
70
0
0
BLOCK_RECORD
5
356
100
AcDbSymbolTableRecord
100
AcDbBlockTableRecord
2
_U0
340
0
70
0
0
BLOCK_RECORD
5
362
100
AcDbSymbolTableRecord
100
AcDbBlockTableRecord
2
*D3
340
0
70
0
0
BLOCK_RECORD
5
36E
100
AcDbSymbolTableRecord
100
AcDbBlockTableRecord
2
_U1
340
0
70
0
0
BLOCK_RECORD
5
37A
100
AcDbSymbolTableRecord
100
AcDbBlockTableRecord
2
*D5
340
0
70
0
0
BLOCK_RECORD
5
386
100
AcDbSymbolTableRecord
100
AcDbBlockTableRecord
2
_U2
340
0
70
0
0
BLOCK_RECORD
5
392
100
AcDbSymbolTableRecord
100
AcDbBlockTableRecord
2
*D7
340
0
70
0
0
BLOCK_RECORD
5
39E
100
AcDbSymbolTableRecord
100
AcDbBlockTableRecord
2
_U3
340
0
70
0
0
BLOCK_RECORD
5
3AA
100
AcDbSymbolTableRecord
100
AcDbBlockTableRecord
2
*D9
340
0
70
0
0
BLOCK_RECORD
5
3B8
100
AcDbSymbolTableRecord
100
AcDbBlockTableRecord
2
_U4
340
0
70
0
0
ENDTAB
0
ENDSEC
0
SECTION
2
BLOCKS
0
BLOCK
5
20
100
AcDbEntity
8
0
100
AcDbBlockBegin
2
*Model_Space
70
0
10
0
20
0
30
0
3
*Model_Space
0
ENDBLK
5
21
100
AcDbEntity
8
0
100
AcDbBlockEnd
0
BLOCK
5
1C
100
AcDbEntity
8
0
100
AcDbBlockBegin
2
*Paper_Space
70
0
10
0
20
0
30
0
3
*Paper_Space
0
ENDBLK
5
1D
100
AcDbEntity
8
0
100
AcDbBlockEnd
0
BLOCK
5
24
100
AcDbEntity
8
0
100
AcDbBlockBegin
2
*Paper_Space0
70
0
10
0
20
0
30
0
3
*Paper_Space0
0
ENDBLK
5
25
100
AcDbEntity
8
0
100
AcDbBlockEnd
0
BLOCK
5
34B
100
AcDbEntity
8
0
100
AcDbBlockBegin
2
*D1
70
1
10
0
20
0
30
0
3
*D1
0
LINE
5
34D
100
AcDbEntity
8
0
62
256
6
ByLayer
370
-2
48
1
60
0
100
AcDbLine
10
0
20
-32.8375
30
0
11
0
21
-83.309314
31
0
39
0
210
0
220
0
230
1
0
LINE
5
34E
100
AcDbEntity
8
0
62
256
6
ByLayer
370
-2
48
1
60
0
100
AcDbLine
10
345
20
-32.0875
30
0
11
345
21
-83.309314
31
0
39
0
210
0
220
0
230
1
0
LINE
5
34F
100
AcDbEntity
8
0
62
256
6
ByLayer
370
-2
48
1
60
0
100
AcDbLine
10
4.175
20
-80.134314
30
0
11
340.825
21
-80.134314
31
0
39
0
210
0
220
0
230
1
0
SOLID
5
350
100
AcDbEntity
8
0
62
256
6
ByLayer
370
-1
48
1
60
0
100
AcDbTrace
10
4.175
20
-79.438481
30
0
11
4.175
21
-80.830148
31
0
12
0
22
-80.134314
32
0
13
0
23
-80.134314
33
0
39
0
210
0
220
0
230
1
0
SOLID
5
351
100
AcDbEntity
8
0
62
256
6
ByLayer
370
-1
48
1
60
0
100
AcDbTrace
10
340.825
20
-80.830148
30
0
11
340.825
21
-79.438481
31
0
12
345
22
-80.134314
32
0
13
345
23
-80.134314
33
0
39
0
210
0
220
0
230
1
0
MTEXT
5
352
100
AcDbEntity
8
0
62
256
6
ByLayer
370
18
48
1
60
0
100
AcDbMText
10
172.5
20
-70.740564
30
0
210
0
220
0
230
1
1
\A1;345
40
4.5
41
0
44
1
50
0
71
5
72
5
7
iso_b_vert
0
POINT
5
353
100
AcDbEntity
8
Defpoints
62
0
6
ByLayer
370
-1
48
1
60
0
100
AcDbPoint
10
0
20
-31.25
30
0
39
0
210
0
220
0
230
1
50
360
0
POINT
5
354
100
AcDbEntity
8
Defpoints
62
0
6
ByLayer
370
-1
48
1
60
0
100
AcDbPoint
10
345
20
-30.5
30
0
39
0
210
0
220
0
230
1
50
360
0
POINT
5
355
100
AcDbEntity
8
Defpoints
62
0
6
ByLayer
370
-1
48
1
60
0
100
AcDbPoint
10
345
20
-80.134314
30
0
39
0
210
0
220
0
230
1
50
360
0
ENDBLK
5
34C
100
AcDbEntity
8
0
100
AcDbBlockEnd
0
BLOCK
5
35D
100
AcDbEntity
8
0
100
AcDbBlockBegin
2
_U0
70
0
10
0
20
0
30
0
3
_U0
0
MTEXT
5
357
100
AcDbEntity
8
2
62
256
6
ByLayer
370
18
48
1
60
0
100
AcDbMText
10
168.132472
20
-78.806643
30
0
210
0
220
0
230
1
1
\W0.7541;345
40
4.5
41
0
44
1.084337
50
0
71
7
72
5
7
iso_b_vert
0
LINE
5
358
100
AcDbEntity
8
2
62
256
6
ByLayer
370
13
48
1
60
0
100
AcDbLine
10
0
20
-32.8375
30
0
11
0
21
-83.309314
31
0
39
0
210
0
220
0
230
1
0
LINE
5
359
100
AcDbEntity
8
2
62
256
6
ByLayer
370
13
48
1
60
0
100
AcDbLine
10
345
20
-32.0875
30
0
11
345
21
-83.309314
31
0
39
0
210
0
220
0
230
1
0
LINE
5
35A
100
AcDbEntity
8
2
62
256
6
ByLayer
370
13
48
1
60
0
100
AcDbLine
10
0
20
-80.134314
30
0
11
345
21
-80.134314
31
0
39
0
210
0
220
0
230
1
0
SOLID
5
35B
100
AcDbEntity
8
2
62
256
6
ByLayer
370
18
48
1
60
0
100
AcDbTrace
10
0
20
-80.134314
30
0
11
4.174997
21
-79.208739
31
0
12
4.175003
22
-81.05989
32
0
13
4.175003
23
-81.05989
33
0
39
0
210
0
220
0
230
1
0
SOLID
5
35C
100
AcDbEntity
8
2
62
256
6
ByLayer
370
18
48
1
60
0
100
AcDbTrace
10
345
20
-80.134314
30
0
11
340.825003
21
-81.05989
31
0
12
340.824997
22
-79.208739
32
0
13
340.824997
23
-79.208739
33
0
39
0
210
0
220
0
230
1
0
ENDBLK
5
35E
100
AcDbEntity
8
0
100
AcDbBlockEnd
0
BLOCK
5
363
100
AcDbEntity
8
0
100
AcDbBlockBegin
2
*D3
70
1
10
0
20
0
30
0
3
*D3
0
LINE
5
365
100
AcDbEntity
8
0
62
256
6
ByLayer
370
-2
48
1
60
0
100
AcDbLine
10
-80
20
-26.5875
30
0
11
-80
21
-83.309314
31
0
39
0
210
0
220
0
230
1
0
LINE
5
366
100
AcDbEntity
8
0
62
256
6
ByLayer
370
-2
48
1
60
0
100
AcDbLine
10
0
20
-32.8375
30
0
11
0
21
-83.309314
31
0
39
0
210
0
220
0
230
1
0
LINE
5
367
100
AcDbEntity
8
0
62
256
6
ByLayer
370
-2
48
1
60
0
100
AcDbLine
10
-75.825
20
-80.134314
30
0
11
-4.175
21
-80.134314
31
0
39
0
210
0
220
0
230
1
0
SOLID
5
368
100
AcDbEntity
8
0
62
256
6
ByLayer
370
-1
48
1
60
0
100
AcDbTrace
10
-75.825
20
-79.438481
30
0
11
-75.825
21
-80.830148
31
0
12
-80
22
-80.134314
32
0
13
-80
23
-80.134314
33
0
39
0
210
0
220
0
230
1
0
SOLID
5
369
100
AcDbEntity
8
0
62
256
6
ByLayer
370
-1
48
1
60
0
100
AcDbTrace
10
-4.175
20
-80.830148
30
0
11
-4.175
21
-79.438481
31
0
12
0
22
-80.134314
32
0
13
0
23
-80.134314
33
0
39
0
210
0
220
0
230
1
0
MTEXT
5
36A
100
AcDbEntity
8
0
62
256
6
ByLayer
370
18
48
1
60
0
100
AcDbMText
10
-40
20
-70.740564
30
0
210
0
220
0
230
1
1
\A1;80
40
4.5
41
0
44
1
50
0
71
5
72
5
7
iso_b_vert
0
POINT
5
36B
100
AcDbEntity
8
Defpoints
62
0
6
ByLayer
370
-1
48
1
60
0
100
AcDbPoint
10
-80
20
-25
30
0
39
0
210
0
220
0
230
1
50
360
0
POINT
5
36C
100
AcDbEntity
8
Defpoints
62
0
6
ByLayer
370
-1
48
1
60
0
100
AcDbPoint
10
0
20
-31.25
30
0
39
0
210
0
220
0
230
1
50
360
0
POINT
5
36D
100
AcDbEntity
8
Defpoints
62
0
6
ByLayer
370
-1
48
1
60
0
100
AcDbPoint
10
0
20
-80.134314
30
0
39
0
210
0
220
0
230
1
50
360
0
ENDBLK
5
364
100
AcDbEntity
8
0
100
AcDbBlockEnd
0
BLOCK
5
375
100
AcDbEntity
8
0
100
AcDbBlockBegin
2
_U1
70
0
10
0
20
0
30
0
3
_U1
0
MTEXT
5
36F
100
AcDbEntity
8
SK2
62
256
6
ByLayer
370
18
48
1
60
0
100
AcDbMText
10
-42.449242
20
-78.806643
30
0
210
0
220
0
230
1
1
\W0.6740;80
40
4.5
41
0
44
1.084337
50
0
71
7
72
5
7
iso_b_vert
0
LINE
5
370
100
AcDbEntity
8
SK2
62
256
6
ByLayer
370
13
48
1
60
0
100
AcDbLine
10
-80
20
-26.5875
30
0
11
-80
21
-83.309314
31
0
39
0
210
0
220
0
230
1
0
LINE
5
371
100
AcDbEntity
8
SK2
62
256
6
ByLayer
370
13
48
1
60
0
100
AcDbLine
10
0
20
-32.8375
30
0
11
0
21
-83.309314
31
0
39
0
210
0
220
0
230
1
0
LINE
5
372
100
AcDbEntity
8
SK2
62
256
6
ByLayer
370
13
48
1
60
0
100
AcDbLine
10
-80
20
-80.134314
30
0
11
0
21
-80.134314
31
0
39
0
210
0
220
0
230
1
0
SOLID
5
373
100
AcDbEntity
8
SK2
62
256
6
ByLayer
370
18
48
1
60
0
100
AcDbTrace
10
-80
20
-80.134314
30
0
11
-75.825003
21
-79.208739
31
0
12
-75.824997
22
-81.05989
32
0
13
-75.824997
23
-81.05989
33
0
39
0
210
0
220
0
230
1
0
SOLID
5
374
100
AcDbEntity
8
SK2
62
256
6
ByLayer
370
18
48
1
60
0
100
AcDbTrace
10
0
20
-80.134314
30
0
11
-4.174997
21
-81.05989
31
0
12
-4.175003
22
-79.208739
32
0
13
-4.175003
23
-79.208739
33
0
39
0
210
0
220
0
230
1
0
ENDBLK
5
376
100
AcDbEntity
8
0
100
AcDbBlockEnd
0
BLOCK
5
37B
100
AcDbEntity
8
0
100
AcDbBlockBegin
2
*D5
70
1
10
0
20
0
30
0
3
*D5
0
LINE
5
37D
100
AcDbEntity
8
0
62
256
6
ByLayer
370
-2
48
1
60
0
100
AcDbLine
10
345
20
-32.0875
30
0
11
345
21
-73.309314
31
0
39
0
210
0
220
0
230
1
0
LINE
5
37E
100
AcDbEntity
8
0
62
256
6
ByLayer
370
-2
48
1
60
0
100
AcDbLine
10
5.6564
20
-32.8375
30
0
11
5.6564
21
-73.309314
31
0
39
0
210
0
220
0
230
1
0
LINE
5
37F
100
AcDbEntity
8
0
62
256
6
ByLayer
370
-2
48
1
60
0
100
AcDbLine
10
340.825
20
-70.134314
30
0
11
9.8314
21
-70.134314
31
0
39
0
210
0
220
0
230
1
0
SOLID
5
380
100
AcDbEntity
8
0
62
256
6
ByLayer
370
-1
48
1
60
0
100
AcDbTrace
10
340.825
20
-70.830148
30
0
11
340.825
21
-69.438481
31
0
12
345
22
-70.134314
32
0
13
345
23
-70.134314
33
0
39
0
210
0
220
0
230
1
0
SOLID
5
381
100
AcDbEntity
8
0
62
256
6
ByLayer
370
-1
48
1
60
0
100
AcDbTrace
10
9.8314
20
-69.438481
30
0
11
9.8314
21
-70.830148
31
0
12
5.6564
22
-70.134314
32
0
13
5.6564
23
-70.134314
33
0
39
0
210
0
220
0
230
1
0
MTEXT
5
382
100
AcDbEntity
8
0
62
256
6
ByLayer
370
18
48
1
60
0
100
AcDbMText
10
175.3282
20
-60.740564
30
0
210
0
220
0
230
1
1
\A1;339.3
40
4.5
41
0
44
1
50
0
71
5
72
5
7
iso_b_vert
0
POINT
5
383
100
AcDbEntity
8
Defpoints
62
0
6
ByLayer
370
-1
48
1
60
0
100
AcDbPoint
10
345
20
-30.5
30
0
39
0
210
0
220
0
230
1
50
360
0
POINT
5
384
100
AcDbEntity
8
Defpoints
62
0
6
ByLayer
370
-1
48
1
60
0
100
AcDbPoint
10
5.6564
20
-31.25
30
0
39
0
210
0
220
0
230
1
50
360
0
POINT
5
385
100
AcDbEntity
8
Defpoints
62
0
6
ByLayer
370
-1
48
1
60
0
100
AcDbPoint
10
5.6564
20
-70.134314
30
0
39
0
210
0
220
0
230
1
50
360
0
ENDBLK
5
37C
100
AcDbEntity
8
0
100
AcDbBlockEnd
0
BLOCK
5
38D
100
AcDbEntity
8
0
100
AcDbBlockBegin
2
_U2
70
0
10
0
20
0
30
0
3
_U2
0
MTEXT
5
387
100
AcDbEntity
8
SK2
62
256
6
ByLayer
370
18
48
1
60
0
100
AcDbMText
10
168.604644
20
-68.806643
30
0
210
0
220
0
230
1
1
\W0.7468;339.3
40
4.5
41
0
44
1.084337
50
0
71
7
72
5
7
iso_b_vert
0
LINE
5
388
100
AcDbEntity
8
SK2
62
256
6
ByLayer
370
13
48
1
60
0
100
AcDbLine
10
345
20
-32.0875
30
0
11
345
21
-73.309314
31
0
39
0
210
0
220
0
230
1
0
LINE
5
389
100
AcDbEntity
8
SK2
62
256
6
ByLayer
370
13
48
1
60
0
100
AcDbLine
10
5.6564
20
-32.8375
30
0
11
5.6564
21
-73.309314
31
0
39
0
210
0
220
0
230
1
0
LINE
5
38A
100
AcDbEntity
8
SK2
62
256
6
ByLayer
370
13
48
1
60
0
100
AcDbLine
10
345
20
-70.134314
30
0
11
5.6564
21
-70.134314
31
0
39
0
210
0
220
0
230
1
0
SOLID
5
38B
100
AcDbEntity
8
SK2
62
256
6
ByLayer
370
18
48
1
60
0
100
AcDbTrace
10
345
20
-70.134314
30
0
11
340.825003
21
-71.05989
31
0
12
340.824997
22
-69.208739
32
0
13
340.824997
23
-69.208739
33
0
39
0
210
0
220
0
230
1
0
SOLID
5
38C
100
AcDbEntity
8
SK2
62
256
6
ByLayer
370
18
48
1
60
0
100
AcDbTrace
10
5.6564
20
-70.134314
30
0
11
9.831397
21
-69.208739
31
0
12
9.831403
22
-71.05989
32
0
13
9.831403
23
-71.05989
33
0
39
0
210
0
220
0
230
1
0
ENDBLK
5
38E
100
AcDbEntity
8
0
100
AcDbBlockEnd
0
BLOCK
5
393
100
AcDbEntity
8
0
100
AcDbBlockBegin
2
*D7
70
1
10
0
20
0
30
0
3
*D7
0
LINE
5
395
100
AcDbEntity
8
0
62
256
6
ByLayer
370
-2
48
1
60
0
100
AcDbLine
10
35
20
-32.0875
30
0
11
35
21
-63.309314
31
0
39
0
210
0
220
0
230
1
0
LINE
5
396
100
AcDbEntity
8
0
62
256
6
ByLayer
370
-2
48
1
60
0
100
AcDbLine
10
345
20
-32.0875
30
0
11
345
21
-63.309314
31
0
39
0
210
0
220
0
230
1
0
LINE
5
397
100
AcDbEntity
8
0
62
256
6
ByLayer
370
-2
48
1
60
0
100
AcDbLine
10
39.175
20
-60.134314
30
0
11
340.825
21
-60.134314
31
0
39
0
210
0
220
0
230
1
0
SOLID
5
398
100
AcDbEntity
8
0
62
256
6
ByLayer
370
-1
48
1
60
0
100
AcDbTrace
10
39.175
20
-59.438481
30
0
11
39.175
21
-60.830148
31
0
12
35
22
-60.134314
32
0
13
35
23
-60.134314
33
0
39
0
210
0
220
0
230
1
0
SOLID
5
399
100
AcDbEntity
8
0
62
256
6
ByLayer
370
-1
48
1
60
0
100
AcDbTrace
10
340.825
20
-60.830148
30
0
11
340.825
21
-59.438481
31
0
12
345
22
-60.134314
32
0
13
345
23
-60.134314
33
0
39
0
210
0
220
0
230
1
0
MTEXT
5
39A
100
AcDbEntity
8
0
62
256
6
ByLayer
370
18
48
1
60
0
100
AcDbMText
10
190
20
-50.740564
30
0
210
0
220
0
230
1
1
\A1;310
40
4.5
41
0
44
1
50
0
71
5
72
5
7
iso_b_vert
0
POINT
5
39B
100
AcDbEntity
8
Defpoints
62
0
6
ByLayer
370
-1
48
1
60
0
100
AcDbPoint
10
35
20
-30.5
30
0
39
0
210
0
220
0
230
1
50
360
0
POINT
5
39C
100
AcDbEntity
8
Defpoints
62
0
6
ByLayer
370
-1
48
1
60
0
100
AcDbPoint
10
345
20
-30.5
30
0
39
0
210
0
220
0
230
1
50
360
0
POINT
5
39D
100
AcDbEntity
8
Defpoints
62
0
6
ByLayer
370
-1
48
1
60
0
100
AcDbPoint
10
345
20
-60.134314
30
0
39
0
210
0
220
0
230
1
50
360
0
ENDBLK
5
394
100
AcDbEntity
8
0
100
AcDbBlockEnd
0
BLOCK
5
3A5
100
AcDbEntity
8
0
100
AcDbBlockBegin
2
_U3
70
0
10
0
20
0
30
0
3
_U3
0
MTEXT
5
39F
100
AcDbEntity
8
SK2
62
256
6
ByLayer
370
18
48
1
60
0
100
AcDbMText
10
186.431801
20
-58.806643
30
0
210
0
220
0
230
1
1
\W0.6217;310
40
4.5
41
0
44
1.084337
50
0
71
7
72
5
7
iso_b_vert
0
LINE
5
3A0
100
AcDbEntity
8
SK2
62
256
6
ByLayer
370
13
48
1
60
0
100
AcDbLine
10
35
20
-32.0875
30
0
11
35
21
-63.309314
31
0
39
0
210
0
220
0
230
1
0
LINE
5
3A1
100
AcDbEntity
8
SK2
62
256
6
ByLayer
370
13
48
1
60
0
100
AcDbLine
10
345
20
-32.0875
30
0
11
345
21
-63.309314
31
0
39
0
210
0
220
0
230
1
0
LINE
5
3A2
100
AcDbEntity
8
SK2
62
256
6
ByLayer
370
13
48
1
60
0
100
AcDbLine
10
35
20
-60.134314
30
0
11
345
21
-60.134314
31
0
39
0
210
0
220
0
230
1
0
SOLID
5
3A3
100
AcDbEntity
8
SK2
62
256
6
ByLayer
370
18
48
1
60
0
100
AcDbTrace
10
35
20
-60.134314
30
0
11
39.174997
21
-59.208739
31
0
12
39.175003
22
-61.05989
32
0
13
39.175003
23
-61.05989
33
0
39
0
210
0
220
0
230
1
0
SOLID
5
3A4
100
AcDbEntity
8
SK2
62
256
6
ByLayer
370
18
48
1
60
0
100
AcDbTrace
10
345
20
-60.134314
30
0
11
340.825003
21
-61.05989
31
0
12
340.824997
22
-59.208739
32
0
13
340.824997
23
-59.208739
33
0
39
0
210
0
220
0
230
1
0
ENDBLK
5
3A6
100
AcDbEntity
8
0
100
AcDbBlockEnd
0
BLOCK
5
3AB
100
AcDbEntity
8
0
100
AcDbBlockBegin
2
*D9
70
1
10
0
20
0
30
0
3
*D9
0
LINE
5
3AD
100
AcDbEntity
8
0
62
256
6
ByLayer
370
-2
48
1
60
0
100
AcDbLine
10
343.4109
20
-16.8375
30
0
11
343.4109
21
-53.309314
31
0
39
0
210
0
220
0
230
1
0
LINE
5
3AE
100
AcDbEntity
8
0
62
256
6
ByLayer
370
-2
48
1
60
0
100
AcDbLine
10
345
20
-1.5875
30
0
11
345
21
-53.309314
31
0
39
0
210
0
220
0
230
1
0
LINE
5
3AF
100
AcDbEntity
8
0
62
256
6
ByLayer
370
-2
48
1
60
0
100
AcDbLine
10
345
20
-50.134314
30
0
11
380.494643
21
-50.134314
31
0
39
0
210
0
220
0
230
1
0
LINE
5
3B0
100
AcDbEntity
8
0
62
256
6
ByLayer
370
-2
48
1
60
0
100
AcDbLine
10
339.2359
20
-50.134314
30
0
11
335.0609
21
-50.134314
31
0
39
0
210
0
220
0
230
1
0
LINE
5
3B1
100
AcDbEntity
8
0
62
256
6
ByLayer
370
-2
48
1
60
0
100
AcDbLine
10
349.175
20
-50.134314
30
0
11
353.35
21
-50.134314
31
0
39
0
210
0
220
0
230
1
0
SOLID
5
3B2
100
AcDbEntity
8
0
62
256
6
ByLayer
370
-1
48
1
60
0
100
AcDbTrace
10
339.2359
20
-50.830148
30
0
11
339.2359
21
-49.438481
31
0
12
343.4109
22
-50.134314
32
0
13
343.4109
23
-50.134314
33
0
39
0
210
0
220
0
230
1
0
SOLID
5
3B3
100
AcDbEntity
8
0
62
256
6
ByLayer
370
-1
48
1
60
0
100
AcDbTrace
10
349.175
20
-49.438481
30
0
11
349.175
21
-50.830148
31
0
12
345
22
-50.134314
32
0
13
345
23
-50.134314
33
0
39
0
210
0
220
0
230
1
0
MTEXT
5
3B4
100
AcDbEntity
8
0
62
256
6
ByLayer
370
18
48
1
60
0
100
AcDbMText
10
366.922321
20
-40.740564
30
0
210
0
220
0
230
1
1
\A1;1.59
40
4.5
41
0
44
1
50
0
71
5
72
5
7
iso_b_vert
0
POINT
5
3B5
100
AcDbEntity
8
Defpoints
62
0
6
ByLayer
370
-1
48
1
60
0
100
AcDbPoint
10
343.4109
20
-15.25
30
0
39
0
210
0
220
0
230
1
50
360
0
POINT
5
3B6
100
AcDbEntity
8
Defpoints
62
0
6
ByLayer
370
-1
48
1
60
0
100
AcDbPoint
10
345
20
0
30
0
39
0
210
0
220
0
230
1
50
360
0
POINT
5
3B7
100
AcDbEntity
8
Defpoints
62
0
6
ByLayer
370
-1
48
1
60
0
100
AcDbPoint
10
345
20
-50.134314
30
0
39
0
210
0
220
0
230
1
50
360
0
ENDBLK
5
3AC
100
AcDbEntity
8
0
100
AcDbBlockEnd
0
BLOCK
5
3BF
100
AcDbEntity
8
0
100
AcDbBlockBegin
2
_U4
70
0
10
0
20
0
30
0
3
_U4
0
MTEXT
5
3B9
100
AcDbEntity
8
2
62
256
6
ByLayer
370
18
48
1
60
0
100
AcDbMText
10
357.351
20
-48.806643
30
0
210
0
220
0
230
1
1
\W0.6662;1.59
40
4.5
41
0
44
1.084337
50
0
71
7
72
5
7
iso_b_vert
0
LINE
5
3BA
100
AcDbEntity
8
2
62
256
6
ByLayer
370
13
48
1
60
0
100
AcDbLine
10
343.4109
20
-16.8375
30
0
11
343.4109
21
-53.309314
31
0
39
0
210
0
220
0
230
1
0
LINE
5
3BB
100
AcDbEntity
8
2
62
256
6
ByLayer
370
13
48
1
60
0
100
AcDbLine
10
345
20
-1.5875
30
0
11
345
21
-53.309314
31
0
39
0
210
0
220
0
230
1
0
LINE
5
3BC
100
AcDbEntity
8
2
62
256
6
ByLayer
370
13
48
1
60
0
100
AcDbLine
10
366.549041
20
-50.134314
30
0
11
332.1609
21
-50.134314
31
0
39
0
210
0
220
0
230
1
0
SOLID
5
3BD
100
AcDbEntity
8
2
62
256
6
ByLayer
370
18
48
1
60
0
100
AcDbTrace
10
343.4109
20
-50.134314
30
0
11
339.235903
21
-51.05989
31
0
12
339.235897
22
-49.208739
32
0
13
339.235897
23
-49.208739
33
0
39
0
210
0
220
0
230
1
0
SOLID
5
3BE
100
AcDbEntity
8
2
62
256
6
ByLayer
370
18
48
1
60
0
100
AcDbTrace
10
345
20
-50.134314
30
0
11
349.174997
21
-49.208739
31
0
12
349.175003
22
-51.05989
32
0
13
349.175003
23
-51.05989
33
0
39
0
210
0
220
0
230
1
0
ENDBLK
5
3C0
100
AcDbEntity
8
0
100
AcDbBlockEnd
0
ENDSEC
0
SECTION
2
ENTITIES
0
ARC
5
17B
100
AcDbEntity
8
SK1
62
256
6
ByLayer
370
13
48
1
60
0
100
AcDbCircle
39
0
10
-0.15
20
25.146
30
0
40
0.399999999999999
210
0
220
0
230
1
100
AcDbArc
50
270
51
292.024313
0
ARC
5
17C
100
AcDbEntity
8
SK1
62
256
6
ByLayer
370
13
48
1
60
0
100
AcDbCircle
39
0
10
-0.15
20
-25.146
30
0
40
0.399999999999999
210
0
220
0
230
1
100
AcDbArc
50
67.975687
51
90
0
ARC
5
17D
100
AcDbEntity
8
SK1
62
256
6
ByLayer
370
13
48
1
60
0
100
AcDbCircle
39
0
10
-1.375195
20
25.146
30
0
40
0.400000000000004
210
0
220
0
230
1
100
AcDbArc
50
245
51
270
0
ARC
5
17E
100
AcDbEntity
8
SK1
62
256
6
ByLayer
370
13
48
1
60
0
100
AcDbCircle
39
0
10
-1.375195
20
-25.146
30
0
40
0.400000000000004
210
0
220
0
230
1
100
AcDbArc
50
90
51
115
0
ARC
5
17F
100
AcDbEntity
8
1
62
256
6
ByLayer
370
13
48
1
60
0
100
AcDbCircle
39
0
10
341.075268
20
28.692158
30
0
40
0.2
210
0
220
0
230
1
100
AcDbArc
50
8.973565
51
93
0
ARC
5
180
100
AcDbEntity
8
1
62
256
6
ByLayer
370
13
48
1
60
0
100
AcDbCircle
39
0
10
341.266338
20
12.436409
30
0
40
0.2
210
0
220
0
230
1
100
AcDbArc
50
273
51
352.54557
0
ARC
5
181
100
AcDbEntity
8
1
62
256
6
ByLayer
370
13
48
1
60
0
100
AcDbCircle
39
0
10
326.869
20
27.68192
30
0
40
0.2
210
0
220
0
230
1
100
AcDbArc
50
79.98854
51
93
0
ARC
5
182
100
AcDbEntity
8
1
62
256
6
ByLayer
370
13
48
1
60
0
100
AcDbCircle
39
0
10
327.060069
20
11.426171
30
0
40
0.2
210
0
220
0
230
1
100
AcDbArc
50
273
51
303.773583
0
ELLIPSE
5
183
100
AcDbEntity
8
1
62
256
6
ByLayer
370
18
48
1
60
0
100
AcDbEllipse
10
334.04026
20
20.057728
30
0
11
0.087735997045646
21
-1.67410255206257
31
0
210
0
220
0
230
1
40
0.995562
41
0.523598775598321
42
1.5707963267949
0
ELLIPSE
5
184
100
AcDbEntity
8
1
62
256
6
ByLayer
370
18
48
1
60
0
100
AcDbEllipse
10
334.032817
20
20.057338
30
0
11
-0.149157475292373
21
2.84609417405054
31
0
210
0
220
0
230
1
40
0.995562
41
0
42
6.28318530717959
0
ELLIPSE
5
185
100
AcDbEntity
8
1
62
256
6
ByLayer
370
18
48
1
60
0
100
AcDbEllipse
10
335.20818
20
19.376268
30
0
11
-0.177620434615744
21
-0.351315571670794
31
0
210
0
220
0
230
1
40
0.48863
41
-2.85513231724473
42
-1.57326889140176
0
ELLIPSE
5
186
100
AcDbEntity
8
1
62
256
6
ByLayer
370
18
48
1
60
0
100
AcDbEllipse
10
333.892243
20
20.049971
30
0
11
0.0675290843402512
21
-1.28853168869383
31
0
210
0
220
0
230
1
40
0.995562
41
2.0943951023932
42
3.14159265358979
0
ELLIPSE
5
187
100
AcDbEntity
8
1
62
256
6
ByLayer
370
18
48
1
60
0
100
AcDbEllipse
10
333.965077
20
20.053788
30
0
11
-0.149157475292373
21
2.84609417405054
31
0
210
0
220
0
230
1
40
0.995562
41
0
42
3.1414943057158
0
ELLIPSE
5
188
100
AcDbEntity
8
1
62
256
6
ByLayer
370
18
48
1
60
0
100
AcDbEllipse
10
333.892243
20
20.049971
30
0
11
0.0675290843402512
21
-1.28853168869383
31
0
210
0
220
0
230
1
40
0.995562
41
-0.771408608870169
42
-4.42508056449383E-14
0
ELLIPSE
5
189
100
AcDbEntity
8
1
62
256
6
ByLayer
370
18
48
1
60
0
100
AcDbEllipse
10
333.222081
20
18.728424
30
0
11
-0.349414799997437
21
0.179424606472403
31
0
210
0
220
0
230
1
40
0.490808
41
2.51659138569057
42
-2.94320654539754
0
ELLIPSE
5
18A
100
AcDbEntity
8
1
62
256
6
ByLayer
370
18
48
1
60
0
100
AcDbEllipse
10
333.814613
20
21.531238
30
0
11
-0.391813266884798
21
-0.0205340632130082
31
0
210
0
220
0
230
1
40
0.491907
41
0.288932900933201
42
1.5707963267949
0
ELLIPSE
5
18B
100
AcDbEntity
8
1
62
256
6
ByLayer
370
18
48
1
60
0
100
AcDbEllipse
10
333.892243
20
20.049971
30
0
11
-0.0675290843402629
21
1.28853168869383
31
0
210
0
220
0
230
1
40
0.995562
41
-3.03775684415652
42
-2.09439510239319
0
ELLIPSE
5
18C
100
AcDbEntity
8
1
62
256
6
ByLayer
370
18
48
1
60
0
100
AcDbEllipse
10
334.04026
20
20.057728
30
0
11
-0.0942047212372888
21
1.79753316255823
31
0
210
0
220
0
230
1
40
0.995562
41
0
42
6.28318530717959
0
ELLIPSE
5
18D
100
AcDbEntity
8
1
62
256
6
ByLayer
370
18
48
1
60
0
100
AcDbEllipse
10
335.367036
20
20.127262
30
0
11
-0.0206256003553378
21
0.393559899646792
31
0
210
0
220
0
230
1
40
0.48755
41
-2.94566518558227
42
-0.320418374792229
0
ELLIPSE
5
18E
100
AcDbEntity
8
1
62
256
6
ByLayer
370
18
48
1
60
0
100
AcDbEllipse
10
333.892243
20
20.049971
30
0
11
0.0675290843402512
21
-1.28853168869383
31
0
210
0
220
0
230
1
40
0.995562
41
1.0471975511966
42
2.0943951023932
0
ELLIPSE
5
18F
100
AcDbEntity
8
1
62
256
6
ByLayer
370
18
48
1
60
0
100
AcDbEllipse
10
335.20818
20
19.376268
30
0
11
-0.177620434613108
21
-0.351315571660965
31
0
210
0
220
0
230
1
40
0.48863
41
-1.57326889138912
42
-0.291405465521109
0
ELLIPSE
5
190
100
AcDbEntity
8
1
62
256
6
ByLayer
370
18
48
1
60
0
100
AcDbEllipse
10
334.04026
20
20.057728
30
0
11
0.087735997045646
21
-1.67410255206257
31
0
210
0
220
0
230
1
40
0.995562
41
-0.523598775598257
42
0.523598775598321
0
ELLIPSE
5
191
100
AcDbEntity
8
1
62
256
6
ByLayer
370
18
48
1
60
0
100
AcDbEllipse
10
334.562405
20
21.371518
30
0
11
-0.34941479999737
21
0.179424606472536
31
0
210
0
220
0
230
1
40
0.490808
41
2.94818767871644
42
-0.62500237232866
0
ELLIPSE
5
192
100
AcDbEntity
8
1
62
256
6
ByLayer
370
18
48
1
60
0
100
AcDbEllipse
10
333.087613
20
21.294227
30
0
11
-0.328745690776168
21
-0.214965491791421
31
0
210
0
220
0
230
1
40
0.490808
41
2.94320654539732
42
-2.46828145615021
0
ELLIPSE
5
193
100
AcDbEntity
8
1
62
256
6
ByLayer
370
18
48
1
60
0
100
AcDbEllipse
10
335.13055
20
20.857536
30
0
11
-0.213369888118096
21
0.330824637125915
31
0
210
0
220
0
230
1
40
0.48863
41
1.57326889137712
42
2.85513231724105
0
ELLIPSE
5
194
100
AcDbEntity
8
1
62
256
6
ByLayer
370
18
48
1
60
0
100
AcDbEllipse
10
334.04026
20
20.057728
30
0
11
0.087735997045646
21
-1.67410255206257
31
0
210
0
220
0
230
1
40
0.995562
41
1.5707963267949
42
2.61799387799147
0
ELLIPSE
5
195
100
AcDbEntity
8
1
62
256
6
ByLayer
370
18
48
1
60
0
100
AcDbEllipse
10
334.04026
20
20.057728
30
0
11
0.087735997045646
21
-1.67410255206257
31
0
210
0
220
0
230
1
40
0.995562
41
2.61799387799147
42
-2.61799387799147
0
ELLIPSE
5
196
100
AcDbEntity
8
1
62
256
6
ByLayer
370
18
48
1
60
0
100
AcDbEllipse
10
334.696873
20
18.805715
30
0
11
-0.328745690776158
21
-0.214965491791415
31
0
210
0
220
0
230
1
40
0.490808
41
0.673312264881094
42
-2.94818767871623
0
ELLIPSE
5
197
100
AcDbEntity
8
1
62
256
6
ByLayer
370
18
48
1
60
0
100
AcDbEllipse
10
335.13055
20
20.857536
30
0
11
-0.213369888113081
21
0.330824637124326
31
0
210
0
220
0
230
1
40
0.48863
41
0.291405465522792
42
1.57326889139621
0
ELLIPSE
5
198
100
AcDbEntity
8
1
62
256
6
ByLayer
370
18
48
1
60
0
100
AcDbEllipse
10
334.04026
20
20.057728
30
0
11
0.087735997045646
21
-1.67410255206257
31
0
210
0
220
0
230
1
40
0.995562
41
-2.61799387799147
42
-1.5707963267949
0
ELLIPSE
5
199
100
AcDbEntity
8
1
62
256
6
ByLayer
370
18
48
1
60
0
100
AcDbEllipse
10
333.892243
20
20.049971
30
0
11
0.0675290843402512
21
-1.28853168869383
31
0
210
0
220
0
230
1
40
0.995562
41
-1.89285840703661
42
-1.23277995487282
0
ELLIPSE
5
19A
100
AcDbEntity
8
1
62
256
6
ByLayer
370
18
48
1
60
0
100
AcDbEllipse
10
333.892243
20
20.049971
30
0
11
0.0675290843402512
21
-1.28853168869383
31
0
210
0
220
0
230
1
40
0.995562
41
3.14159265358979
42
-2.35315137984987
0
ELLIPSE
5
19B
100
AcDbEntity
8
1
62
256
6
ByLayer
370
18
48
1
60
0
100
AcDbEllipse
10
334.04026
20
20.057728
30
0
11
0.087735997045646
21
-1.67410255206257
31
0
210
0
220
0
230
1
40
0.995562
41
-1.5707963267949
42
-0.523598775598257
0
ELLIPSE
5
19C
100
AcDbEntity
8
1
62
256
6
ByLayer
370
18
48
1
60
0
100
AcDbEllipse
10
333.969873
20
18.568704
30
0
11
-0.391813266880355
21
-0.020534063211435
31
0
210
0
220
0
230
1
40
0.491907
41
-1.5707963267949
42
-0.288932900935357
0
ELLIPSE
5
19D
100
AcDbEntity
8
1
62
256
6
ByLayer
370
18
48
1
60
0
100
AcDbEllipse
10
334.0001
20
-8.099312
30
0
11
-1.5
21
1.51595858262354E-15
31
0
210
0
220
0
230
1
40
0.994591
41
-2.75979098218644
42
-0.163952194533749
0
ELLIPSE
5
19E
100
AcDbEntity
8
1
62
256
6
ByLayer
370
18
48
1
60
0
100
AcDbEllipse
10
334.0001
20
-8.151245
30
0
11
2
21
0
31
0
210
0
220
0
230
1
40
0.994591
41
0.559301768902256
42
2.78875243635944
0
ELLIPSE
5
19F
100
AcDbEntity
8
1
62
256
6
ByLayer
370
13
48
1
60
0
100
AcDbEllipse
10
341.266338
20
12.436409
30
0
11
0.0104671912485858
21
-0.199725906950915
31
0
210
0
220
0
230
1
40
0.995562
41
-0.226119054283353
42
1.75822330336593E-05
0
ELLIPSE
5
1A0
100
AcDbEntity
8
1
62
256
6
ByLayer
370
13
48
1
60
0
100
AcDbEllipse
10
342.333525
20
20.592621
30
0
11
0.19830967214623
21
-0.0259475226804906
31
0
210
0
220
0
230
1
40
0.01715
41
0.000128612645863821
42
1.47811763731127
0
ELLIPSE
5
1A1
100
AcDbEntity
8
1
62
256
6
ByLayer
370
13
48
1
60
0
100
AcDbEllipse
10
327.060069
20
11.426171
30
0
11
0.197552082304459
21
0.0311957493446203
31
0
210
0
220
0
230
1
40
0.009837
41
-3.04785814606809
42
-1.47706181926748
0
ELLIPSE
5
1A2
100
AcDbEntity
8
1
62
256
6
ByLayer
370
13
48
1
60
0
100
AcDbEllipse
10
326.290657
20
19.460084
30
0
11
-0.0366351693700567
21
0.699040674328205
31
0
210
0
220
0
230
1
40
0.995562
41
1.38753675533548
42
1.67551608191472
0
ELLIPSE
5
1A3
100
AcDbEntity
8
1
62
256
6
ByLayer
370
13
48
1
60
0
100
AcDbEllipse
10
341.986691
20
30.181736
30
0
11
0.147123305935848
21
-0.0292358145175893
31
0
210
0
220
0
230
1
40
0.023245
41
-2.87789326820123
42
-1.66214035016974
0
ELLIPSE
5
1A4
100
AcDbEntity
8
1
62
256
6
ByLayer
370
13
48
1
60
0
100
AcDbEllipse
10
341.321831
20
29.045655
30
0
11
0.0052335956242914
21
-0.0998629534754291
31
0
210
0
220
0
230
1
40
0.995562
41
-2.4226314202602
42
-1.46607657167815
0
ELLIPSE
5
1A5
100
AcDbEntity
8
1
62
256
6
ByLayer
370
13
48
1
60
0
100
AcDbEllipse
10
327.267781
20
29.966864
30
0
11
-0.104671912485876
21
1.99725906950915
31
0
210
0
220
0
230
1
40
0.995562
41
2.85175890392099
42
-3.14159265358794
0
ELLIPSE
5
1A6
100
AcDbEntity
8
1
62
256
6
ByLayer
370
13
48
1
60
0
100
AcDbEllipse
10
324.469436
20
27.37847
30
0
11
0.00785039343643969
21
-0.149794430213193
31
0
210
0
220
0
230
1
40
0.995562
41
-3.02814625221253
42
-1.75405589825276
0
ELLIPSE
5
1A7
100
AcDbEntity
8
1
62
256
6
ByLayer
370
13
48
1
60
0
100
AcDbEllipse
10
325.626923
20
18.633122
30
0
11
0.465790010562067
21
-8.88780285931572
31
0
210
0
220
0
230
1
40
0.995562
41
-0.0801412288217487
42
-0.0245785262941405
0
ELLIPSE
5
1A8
100
AcDbEntity
8
1
62
256
6
ByLayer
370
13
48
1
60
0
100
AcDbEllipse
10
327.060069
20
11.426171
30
0
11
0.0104671912485858
21
-0.199725906950915
31
0
210
0
220
0
230
1
40
0.995562
41
-1.46607657167332
42
-2.46857386925116E-05
0
ELLIPSE
5
1A9
100
AcDbEntity
8
1
62
256
6
ByLayer
370
13
48
1
60
0
100
AcDbEllipse
10
325.82213
20
11.635863
30
0
11
0.0994383168615647
21
-1.89739611603369
31
0
210
0
220
0
230
1
40
0.995562
41
-0.0245785262940729
42
-0.0087266462580981
0
ELLIPSE
5
1AA
100
AcDbEntity
8
1
62
256
6
ByLayer
370
13
48
1
60
0
100
AcDbEllipse
10
341.858777
20
20.658984
30
0
11
-0.0261679781214692
21
0.49931476737729
31
0
210
0
220
0
230
1
40
0.995562
41
-1.75405589825431
42
-1.46607657167509
0
ELLIPSE
5
1AB
100
AcDbEntity
8
1
62
256
6
ByLayer
370
13
48
1
60
0
100
AcDbEllipse
10
325.803334
20
11.634878
30
0
11
-0.0915879234251411
21
1.74760168582051
31
0
210
0
220
0
230
1
40
0.995562
41
3.11701412729377
42
3.13286600732976
0
ELLIPSE
5
1AC
100
AcDbEntity
8
1
62
256
6
ByLayer
370
13
48
1
60
0
100
AcDbEllipse
10
334.482693
20
12.140032
30
0
11
0.0104671912485858
21
-0.199725906950915
31
0
210
0
220
0
230
1
40
0.094108
41
0
42
1.5707963267949
0
ELLIPSE
5
1AD
100
AcDbEntity
8
1
62
256
6
ByLayer
370
13
48
1
60
0
100
AcDbEllipse
10
326.151774
20
9.934774
30
0
11
0.0126644888425957
21
-0.241652842685847
31
0
210
0
220
0
230
1
40
0.995562
41
0.174532925201755
42
1.32121290077246
0
ELLIPSE
5
1AE
100
AcDbEntity
8
1
62
256
6
ByLayer
370
13
48
1
60
0
100
AcDbEllipse
10
323.4342
20
19.502118
30
0
11
-0.148732254109673
21
0.0194606420103638
31
0
210
0
220
0
230
1
40
0.01715
41
-0.0926786894760379
42
1.4781176373135
0
ELLIPSE
5
1AF
100
AcDbEntity
8
1
62
256
6
ByLayer
370
13
48
1
60
0
100
AcDbEllipse
10
341.839981
20
20.657998
30
0
11
0.0366351693700503
21
-0.699040674328205
31
0
210
0
220
0
230
1
40
0.995562
41
1.38753675533548
42
1.67551608191472
0
ELLIPSE
5
1B0
100
AcDbEntity
8
1
62
256
6
ByLayer
370
13
48
1
60
0
100
AcDbEllipse
10
342.714487
20
29.680906
30
0
11
-0.0287847759336168
21
0.549246244115033
31
0
210
0
220
0
230
1
40
0.995562
41
-1.46607657167522
42
-0.0801412288236562
0
ELLIPSE
5
1B1
100
AcDbEntity
8
1
62
256
6
ByLayer
370
13
48
1
60
0
100
AcDbEllipse
10
326.576349
20
27.783371
30
0
11
0.00523359562429122
21
-0.0998629534754257
31
0
210
0
220
0
230
1
40
0.995562
41
1.38753675533773
42
3.11795457934313
0
ELLIPSE
5
1B2
100
AcDbEntity
8
1
62
256
6
ByLayer
370
13
48
1
60
0
100
AcDbEllipse
10
341.075268
20
28.692158
30
0
11
-0.111182483439601
21
0.16624817405374
31
0
210
0
220
0
230
1
40
0.080951
41
-1.6189651666202
42
-0.0481688398257857
0
ELLIPSE
5
1B3
100
AcDbEntity
8
1
62
256
6
ByLayer
370
13
48
1
60
0
100
AcDbEllipse
10
341.075268
20
28.692158
30
0
11
-0.197552082304459
21
-0.0311957493446177
31
0
210
0
220
0
230
1
40
0.009837
41
1.66453083432166
42
-3.14150916132765
0
ELLIPSE
5
1B4
100
AcDbEntity
8
1
62
256
6
ByLayer
370
13
48
1
60
0
100
AcDbEllipse
10
342.259707
20
30.231535
30
0
11
-0.0041502446489173
21
0.149942573905326
31
0
210
0
220
0
230
1
40
0.09408
41
0.00232311668849371
42
1.57311944348265
0
ELLIPSE
5
1B5
100
AcDbEntity
8
1
62
256
6
ByLayer
370
13
48
1
60
0
100
AcDbEllipse
10
342.733283
20
29.681891
30
0
11
0.0366351693700511
21
-0.699040674328219
31
0
210
0
220
0
230
1
40
0.995562
41
1.67551608191267
42
3.06145142476422
0
ELLIPSE
5
1B6
100
AcDbEntity
8
1
62
256
6
ByLayer
370
13
48
1
60
0
100
AcDbEllipse
10
339.155611
20
30.589879
30
0
11
0.104671912485858
21
-1.99725906950915
31
0
210
0
220
0
230
1
40
0.995562
41
0
42
0.289833749668772
0
ELLIPSE
5
1B7
100
AcDbEntity
8
1
62
256
6
ByLayer
370
13
48
1
60
0
100
AcDbEllipse
10
342.331622
20
20.7361
30
0
11
0.197552082304459
21
0.0311957493446203
31
0
210
0
220
0
230
1
40
0.009837
41
-1.4770618192704
42
8.34920147498713E-05
0
ELLIPSE
5
1B8
100
AcDbEntity
8
1
62
256
6
ByLayer
370
13
48
1
60
0
100
AcDbEllipse
10
342.743666
20
30.231422
30
0
11
0.00422000339726432
21
0.149940626820509
31
0
210
0
220
0
230
1
40
0.093806
41
0.00756732552747127
42
1.57836365232731
0
ELLIPSE
5
1B9
100
AcDbEntity
8
1
62
256
6
ByLayer
370
13
48
1
60
0
100
AcDbEllipse
10
325.893833
20
9.887286
30
0
11
0.0065370786798103
21
-0.149857487641873
31
0
210
0
220
0
230
1
40
0.094105
41
-1.56997142650778
42
0.000824900282309094
0
ELLIPSE
5
1BA
100
AcDbEntity
8
1
62
256
6
ByLayer
370
13
48
1
60
0
100
AcDbEllipse
10
328.340668
20
9.494959
30
0
11
-0.104671912485876
21
1.99725906950915
31
0
210
0
220
0
230
1
40
0.995562
41
0
42
1.3212129007735
0
ELLIPSE
5
1BB
100
AcDbEntity
8
1
62
256
6
ByLayer
370
13
48
1
60
0
100
AcDbEllipse
10
333.981192
20
20.054633
30
0
11
0.15604350706115
21
-2.97748748746714
31
0
210
0
220
0
230
1
40
0.995562
41
0
42
6.28318530717959
0
ELLIPSE
5
1BC
100
AcDbEntity
8
1
62
256
6
ByLayer
370
13
48
1
60
0
100
AcDbEllipse
10
344.69174
20
20.615719
30
0
11
0.148732254109673
21
-0.019460642010368
31
0
210
0
220
0
230
1
40
0.01715
41
-1.66347501627629
42
-0.0926786894787881
0
ELLIPSE
5
1BD
100
AcDbEntity
8
1
62
256
6
ByLayer
370
13
48
1
60
0
100
AcDbEllipse
10
324.363346
20
28.537212
30
0
11
-0.0433887818457603
21
-0.261709360235604
31
0
210
0
220
0
230
1
40
0.938419
41
-2.83001826189146
42
-2.21164798399637
0
ELLIPSE
5
1BE
100
AcDbEntity
8
1
62
256
6
ByLayer
370
13
48
1
60
0
100
AcDbEllipse
10
341.266338
20
12.436409
30
0
11
0.034769031363014
21
0.196954599992175
31
0
210
0
220
0
230
1
40
0.091713
41
-3.1204029628157
42
-1.54960663601806
0
ELLIPSE
5
1BF
100
AcDbEntity
8
1
62
256
6
ByLayer
370
13
48
1
60
0
100
AcDbEllipse
10
325.451633
20
19.571226
30
0
11
-0.148732254109673
21
0.0194606420103638
31
0
210
0
220
0
230
1
40
0.01715
41
1.47811763730935
42
3.0489139641096
0
ELLIPSE
5
1C0
100
AcDbEntity
8
1
62
256
6
ByLayer
370
13
48
1
60
0
100
AcDbEllipse
10
343.661203
20
12.739613
30
0
11
-0.0248313114068471
21
0.14793040922615
31
0
210
0
220
0
230
1
40
0.093503
41
1.56009588092892
42
3.13089220773175
0
ELLIPSE
5
1C1
100
AcDbEntity
8
1
62
256
6
ByLayer
370
13
48
1
60
0
100
AcDbEllipse
10
326.092616
20
9.895957
30
0
11
0.0065370786798103
21
-0.149857487641873
31
0
210
0
220
0
230
1
40
0.094105
41
-1.56997142650778
42
-0.0234595020702775
0
ELLIPSE
5
1C2
100
AcDbEntity
8
1
62
256
6
ByLayer
370
13
48
1
60
0
100
AcDbEllipse
10
343.269388
20
29.767557
30
0
11
0.148164061728344
21
0.0233968120084652
31
0
210
0
220
0
230
1
40
0.009837
41
0.0937345075250187
42
1.66453083432196
0
ELLIPSE
5
1C3
100
AcDbEntity
8
1
62
256
6
ByLayer
370
13
48
1
60
0
100
AcDbEllipse
10
342.503715
20
21.484961
30
0
11
0.465790010562067
21
-8.88780285931572
31
0
210
0
220
0
230
1
40
0.995562
41
3.06145142476615
42
3.11701412729375
0
ELLIPSE
5
1C4
100
AcDbEntity
8
1
62
256
6
ByLayer
370
13
48
1
60
0
100
AcDbEllipse
10
343.26377
20
11.842768
30
0
11
-0.223427008639874
21
-1.09873081309791
31
0
210
0
220
0
230
1
40
0.060635
41
1.06536319151648
42
1.25922194476353
0
ELLIPSE
5
1C5
100
AcDbEntity
8
1
62
256
6
ByLayer
370
13
48
1
60
0
100
AcDbEllipse
10
342.313207
20
28.482466
30
0
11
0.0994383168615647
21
-1.89739611603369
31
0
210
0
220
0
230
1
40
0.995562
41
3.11701412729187
42
3.13286600732791
0
ELLIPSE
5
1C6
100
AcDbEntity
8
1
62
256
6
ByLayer
370
13
48
1
60
0
100
AcDbEllipse
10
326.869
20
27.68192
30
0
11
0.0104671912485858
21
-0.199725906950915
31
0
210
0
220
0
230
1
40
0.995562
41
-3.141575484788
42
-1.75405589825229
0
ELLIPSE
5
1C7
100
AcDbEntity
8
1
62
256
6
ByLayer
370
13
48
1
60
0
100
AcDbEllipse
10
326.808807
20
11.072428
30
0
11
0.0052335956242914
21
-0.0998629534754291
31
0
210
0
220
0
230
1
40
0.995562
41
0.718961233332123
42
1.67551608191507
0
ELLIPSE
5
1C8
100
AcDbEntity
8
1
62
256
6
ByLayer
370
13
48
1
60
0
100
AcDbEllipse
10
343.132933
20
11.547625
30
0
11
-0.043388781833862
21
-0.261709360239444
31
0
210
0
220
0
230
1
40
0.938419
41
0.505433140654242
42
1.30197962208358
0
ELLIPSE
5
1C9
100
AcDbEntity
8
1
62
256
6
ByLayer
370
13
48
1
60
0
100
AcDbEllipse
10
344.689646
20
20.773546
30
0
11
0.148164061728344
21
0.0233968120084652
31
0
210
0
220
0
230
1
40
0.009837
41
0.0937345075274513
42
1.66453083432158
0
ELLIPSE
5
1CA
100
AcDbEntity
8
1
62
256
6
ByLayer
370
13
48
1
60
0
100
AcDbEllipse
10
324.716819
20
29.278643
30
0
11
-0.300422843311698
21
0.183688194599792
31
0
210
0
220
0
230
1
40
0.473311
41
-1.92529218179489
42
-0.778612206221698
0
ELLIPSE
5
1CB
100
AcDbEntity
8
1
62
256
6
ByLayer
370
13
48
1
60
0
100
AcDbEllipse
10
334.006755
20
20.055972
30
0
11
0.161488764830021
21
-3.08138919525491
31
0
210
0
220
0
230
1
40
0.995562
41
-0.832617303636146
42
0
0
ELLIPSE
5
1CC
100
AcDbEntity
8
1
62
256
6
ByLayer
370
13
48
1
60
0
100
AcDbEllipse
10
334.006755
20
20.055972
30
0
11
0.161488764830021
21
-3.08138919525491
31
0
210
0
220
0
230
1
40
0.995562
41
0
42
-2.30896949140972
0
ELLIPSE
5
1CD
100
AcDbEntity
8
1
62
256
6
ByLayer
370
13
48
1
60
0
100
AcDbEllipse
10
324.467627
20
27.364353
30
0
11
-0.0433887818459777
21
-0.261709360235528
31
0
210
0
220
0
230
1
40
0.938419
41
-2.83001826188954
42
-1.53436336024954
0
ELLIPSE
5
1CE
100
AcDbEntity
8
1
62
256
6
ByLayer
370
13
48
1
60
0
100
AcDbEllipse
10
344.153541
20
20.68788
30
0
11
0.0366351693700492
21
-0.699040674328184
31
0
210
0
220
0
230
1
40
0.995562
41
1.38753675533333
42
1.6755160819126
0
ELLIPSE
5
1CF
100
AcDbEntity
8
1
62
256
6
ByLayer
370
13
48
1
60
0
100
AcDbEllipse
10
341.607711
20
12.394918
30
0
11
-0.0420204304792777
21
-0.159048282691562
31
0
210
0
220
0
230
1
40
0.081731
41
-1.54456248514379
42
0.0262338416991164
0
ELLIPSE
5
1D0
100
AcDbEntity
8
1
62
256
6
ByLayer
370
13
48
1
60
0
100
AcDbEllipse
10
326.076336
20
9.94517
30
0
11
-0.00261679781214662
21
0.0499314767377233
31
0
210
0
220
0
230
1
40
0.995562
41
3.13286600733336
42
-1.82037975281817
0
ELLIPSE
5
1D1
100
AcDbEntity
8
1
62
256
6
ByLayer
370
13
48
1
60
0
100
AcDbEllipse
10
326.869
20
27.68192
30
0
11
0.19830967214623
21
-0.0259475226804906
31
0
210
0
220
0
230
1
40
0.01715
41
1.47811763731391
42
3.04891396409364
0
ELLIPSE
5
1D2
100
AcDbEntity
8
1
62
256
6
ByLayer
370
13
48
1
60
0
100
AcDbEllipse
10
340.867557
20
10.151465
30
0
11
-0.104671912485876
21
1.99725906950915
31
0
210
0
220
0
230
1
40
0.995562
41
-0.28983374967259
42
-1.91363542426968E-12
0
ELLIPSE
5
1D3
100
AcDbEntity
8
1
62
256
6
ByLayer
370
13
48
1
60
0
100
AcDbEllipse
10
340.228498
20
10.117973
30
0
11
0.104671912485858
21
-1.99725906950915
31
0
210
0
220
0
230
1
40
0.995562
41
2.05695928441
42
2.70662419932171
0
ELLIPSE
5
1D4
100
AcDbEntity
8
1
62
256
6
ByLayer
370
13
48
1
60
0
100
AcDbEllipse
10
325.402055
20
10.436438
30
0
11
0.0366351693700511
21
-0.699040674328219
31
0
210
0
220
0
230
1
40
0.995562
41
-1.46607657167328
42
-0.0801412288218826
0
ELLIPSE
5
1D5
100
AcDbEntity
8
1
62
256
6
ByLayer
370
13
48
1
60
0
100
AcDbEllipse
10
325.454869
20
19.327311
30
0
11
-0.148164061728344
21
-0.0233968120084633
31
0
210
0
220
0
230
1
40
0.009837
41
-3.04785814606721
42
-1.47706181927123
0
ELLIPSE
5
1D6
100
AcDbEntity
8
1
62
256
6
ByLayer
370
13
48
1
60
0
100
AcDbEllipse
10
341.075268
20
28.692158
30
0
11
0.0104671912485858
21
-0.199725906950915
31
0
210
0
220
0
230
1
40
0.995562
41
3.14156912557061
42
-2.60644555906855
0
ELLIPSE
5
1D7
100
AcDbEntity
8
1
62
256
6
ByLayer
370
13
48
1
60
0
100
AcDbEllipse
10
342.02141
20
30.171189
30
0
11
-0.00261679781214662
21
0.0499314767377233
31
0
210
0
220
0
230
1
40
0.995562
41
-0.00872664625639429
42
1.32121290077163
0
ELLIPSE
5
1D8
100
AcDbEntity
8
1
62
256
6
ByLayer
370
13
48
1
60
0
100
AcDbEllipse
10
341.549591
20
12.334465
30
0
11
0.00523359562429122
21
-0.0998629534754257
31
0
210
0
220
0
230
1
40
0.995562
41
-4.94053534912363E-06
42
0.113446401384129
0
ELLIPSE
5
1D9
100
AcDbEntity
8
1
62
256
6
ByLayer
370
13
48
1
60
0
100
AcDbEllipse
10
342.232107
20
30.230551
30
0
11
-0.00653707867981058
21
0.149857487641873
31
0
210
0
220
0
230
1
40
0.094105
41
0.000824900290362992
42
1.57162122708202
0
ELLIPSE
5
1DA
100
AcDbEntity
8
1
62
256
6
ByLayer
370
13
48
1
60
0
100
AcDbEllipse
10
325.801813
20
19.525708
30
0
11
-0.198309672146231
21
0.025947522680485
31
0
210
0
220
0
230
1
40
0.01715
41
-1.66347501627305
42
-0.0926786894794932
0
ELLIPSE
5
1DB
100
AcDbEntity
8
1
62
256
6
ByLayer
370
13
48
1
60
0
100
AcDbEllipse
10
326.581048
20
27.783617
30
0
11
0.00523359562429122
21
-0.0998629534754257
31
0
210
0
220
0
230
1
40
0.995562
41
1.38753675533947
42
-3.02814625220862
0
ELLIPSE
5
1DC
100
AcDbEntity
8
1
62
256
6
ByLayer
370
13
48
1
60
0
100
AcDbEllipse
10
342.508414
20
21.485208
30
0
11
0.465790010562067
21
-8.88780285931572
31
0
210
0
220
0
230
1
40
0.995562
41
3.06145142476425
42
3.11701412729185
0
ELLIPSE
5
1DD
100
AcDbEntity
8
1
62
256
6
ByLayer
370
13
48
1
60
0
100
AcDbEllipse
10
326.813506
20
11.072674
30
0
11
0.0052335956242914
21
-0.0998629534754291
31
0
210
0
220
0
230
1
40
0.995562
41
0.718961233333021
42
1.67551608191565
0
ELLIPSE
5
1DE
100
AcDbEntity
8
1
62
256
6
ByLayer
370
13
48
1
60
0
100
AcDbEllipse
10
326.518229
20
27.722919
30
0
11
-0.157457627846793
21
-0.0472734989333649
31
0
210
0
220
0
230
1
40
0.020424
41
-3.05807782799021
42
-1.48728150148499
0
ELLIPSE
5
1DF
100
AcDbEntity
8
1
62
256
6
ByLayer
370
13
48
1
60
0
100
AcDbEllipse
10
342.308508
20
28.48222
30
0
11
0.0994383168615647
21
-1.89739611603369
31
0
210
0
220
0
230
1
40
0.995562
41
3.1170141272938
42
3.13286600732983
0
ELLIPSE
5
1E0
100
AcDbEntity
8
1
62
256
6
ByLayer
370
13
48
1
60
0
100
AcDbEllipse
10
326.090433
20
9.945909
30
0
11
0.0104671912485855
21
-0.19972590695091
31
0
210
0
220
0
230
1
40
0.995562
41
0.0115983514800439
42
1.32121290077136
0
ELLIPSE
5
1E1
100
AcDbEntity
8
1
62
256
6
ByLayer
370
13
48
1
60
0
100
AcDbEllipse
10
343.661203
20
12.739613
30
0
11
0.148732254109673
21
-0.019460642010368
31
0
210
0
220
0
230
1
40
0.01715
41
-1.6634750162778
42
-0.0926786894822609
0
ELLIPSE
5
1E2
100
AcDbEntity
8
1
62
256
6
ByLayer
370
13
48
1
60
0
100
AcDbEllipse
10
326.095132
20
9.946155
30
0
11
0.0104671912485855
21
-0.19972590695091
31
0
210
0
220
0
230
1
40
0.995562
41
-0.00872664625384535
42
1.32121290077341
0
ELLIPSE
5
1E3
100
AcDbEntity
8
1
62
256
6
ByLayer
370
13
48
1
60
0
100
AcDbEllipse
10
343.667711
20
12.753976
30
0
11
-0.0433887818644723
21
-0.261709360229329
31
0
210
0
220
0
230
1
40
0.938419
41
0.311574391766916
42
1.60722929341959
0
ELLIPSE
5
1E4
100
AcDbEntity
8
1
62
256
6
ByLayer
370
13
48
1
60
0
100
AcDbEllipse
10
326.276561
20
19.459346
30
0
11
0.0444855628064897
21
-0.848835104541391
31
0
210
0
220
0
230
1
40
0.995562
41
-1.75405589825431
42
-1.46607657167512
0
ELLIPSE
5
1E5
100
AcDbEntity
8
1
62
256
6
ByLayer
370
13
48
1
60
0
100
AcDbEllipse
10
328.321872
20
9.493974
30
0
11
0.117755901546591
21
-2.24691645319781
31
0
210
0
220
0
230
1
40
0.995562
41
-2.41106345636192
42
-1.82037975281816
0
ELLIPSE
5
1E6
100
AcDbEntity
8
1
62
256
6
ByLayer
370
13
48
1
60
0
100
AcDbEllipse
10
326.438379
20
29.923383
30
0
11
-2.48294720286391
21
1.51817168429561
31
0
210
0
220
0
230
1
40
0.473306
41
1.21630706149067
42
1.24196526545119
0
ELLIPSE
5
1E7
100
AcDbEntity
8
1
62
256
6
ByLayer
370
13
48
1
60
0
100
AcDbEllipse
10
334.086465
20
20.06015
30
0
11
0.164592752017091
21
-3.14061679904836
31
0
210
0
220
0
230
1
40
0.995562
41
0
42
6.28318530717959
0
ELLIPSE
5
1E8
100
AcDbEntity
8
1
62
256
6
ByLayer
370
13
48
1
60
0
100
AcDbEllipse
10
326.751095
20
29.939786
30
0
11
-1.90001443048895
21
1.34408422197896
31
0
210
0
220
0
230
1
40
0.758703
41
1.08025569956747
42
2.08597699581172
0
ELLIPSE
5
1E9
100
AcDbEntity
8
1
62
256
6
ByLayer
370
13
48
1
60
0
100
AcDbEllipse
10
325.866233
20
9.886302
30
0
11
0.00415024464891698
21
-0.149942573905326
31
0
210
0
220
0
230
1
40
0.09408
41
-1.56847321010714
42
-0.0396676110914644
0
ELLIPSE
5
1EA
100
AcDbEntity
8
1
62
256
6
ByLayer
370
13
48
1
60
0
100
AcDbEllipse
10
342.040205
20
30.172174
30
0
11
0.0104671912485855
21
-0.19972590695091
31
0
210
0
220
0
230
1
40
0.995562
41
3.13286600733195
42
-1.8203797528202
0
ELLIPSE
5
1EB
100
AcDbEntity
8
1
62
256
6
ByLayer
370
13
48
1
60
0
100
AcDbEllipse
10
341.821185
20
20.657013
30
0
11
0.0444855628064897
21
-0.848835104541391
31
0
210
0
220
0
230
1
40
0.995562
41
1.38753675533555
42
1.67551608191467
0
ELLIPSE
5
1EC
100
AcDbEntity
8
1
62
256
6
ByLayer
370
13
48
1
60
0
100
AcDbEllipse
10
339.672296
20
30.616957
30
0
11
-1.74911089441542
21
-1.53532677659179
31
0
210
0
220
0
230
1
40
0.758703
41
1.05561565777798
42
2.06133695401788
0
ELLIPSE
5
1ED
100
AcDbEntity
8
1
62
256
6
ByLayer
370
13
48
1
60
0
100
AcDbEllipse
10
325.382273
20
9.886414
30
0
11
-0.0042200033972645
21
-0.149940626820509
31
0
210
0
220
0
230
1
40
0.093806
41
-1.56322900126248
42
-0.0736942388982846
0
ELLIPSE
5
1EE
100
AcDbEntity
8
1
62
256
6
ByLayer
370
13
48
1
60
0
100
AcDbEllipse
10
326.869
20
27.68192
30
0
11
-0.0347690313630216
21
-0.196954599992174
31
0
210
0
220
0
230
1
40
0.091713
41
1.59198601757173
42
-3.1204029628063
0
ELLIPSE
5
1EF
100
AcDbEntity
8
1
62
256
6
ByLayer
370
13
48
1
60
0
100
AcDbEllipse
10
341.607711
20
12.394918
30
0
11
-0.157457627790054
21
-0.0472734989159006
31
0
210
0
220
0
230
1
40
0.020424
41
-1.48728150137253
42
-0.275077962967783
0
ELLIPSE
5
1F0
100
AcDbEntity
8
1
62
256
6
ByLayer
370
13
48
1
60
0
100
AcDbEllipse
10
344.148842
20
20.687634
30
0
11
0.0366351693700492
21
-0.699040674328184
31
0
210
0
220
0
230
1
40
0.995562
41
1.38753675533523
42
1.67551608191448
0
ELLIPSE
5
1F1
100
AcDbEntity
8
1
62
256
6
ByLayer
370
13
48
1
60
0
100
AcDbEllipse
10
341.983564
20
30.183555
30
0
11
0.0126644888425957
21
-0.241652842685847
31
0
210
0
220
0
230
1
40
0.995562
41
-2.96705972839211
42
-1.82037975282121
0
ELLIPSE
5
1F2
100
AcDbEntity
8
1
62
256
6
ByLayer
370
13
48
1
60
0
100
AcDbEllipse
10
342.674306
20
20.546611
30
0
11
0.148732254109673
21
-0.019460642010368
31
0
210
0
220
0
230
1
40
0.01715
41
-2.8547288977202
42
-1.66347501627252
0
ELLIPSE
5
1F3
100
AcDbEntity
8
1
62
256
6
ByLayer
370
13
48
1
60
0
100
AcDbEllipse
10
341.764536
20
30.172076
30
0
11
-0.279576450837281
21
-0.21408466958764
31
0
210
0
220
0
230
1
40
0.473311
41
-2.36298044737018
42
-1.21630047177972
0
ELLIPSE
5
1F4
100
AcDbEntity
8
1
62
256
6
ByLayer
370
13
48
1
60
0
100
AcDbEllipse
10
325.608127
20
18.632137
30
0
11
-0.457939617125708
21
8.73800842910253
31
0
210
0
220
0
230
1
40
0.995562
41
3.06145142476613
42
3.11701412729374
0
ELLIPSE
5
1F5
100
AcDbEntity
8
1
62
256
6
ByLayer
370
13
48
1
60
0
100
AcDbEllipse
10
325.803716
20
19.382229
30
0
11
-0.197552082304459
21
-0.0311957493446177
31
0
210
0
220
0
230
1
40
0.009837
41
0.0937345075334974
42
1.66453083432551
0
ELLIPSE
5
1F6
100
AcDbEntity
8
1
62
256
6
ByLayer
370
13
48
1
60
0
100
AcDbEllipse
10
323.963001
20
19.429464
30
0
11
-0.0287847759336149
21
0.549246244114998
31
0
210
0
220
0
230
1
40
0.995562
41
1.38753675533516
42
1.67551608191448
0
ELLIPSE
5
1F7
100
AcDbEntity
8
1
62
256
6
ByLayer
370
13
48
1
60
0
100
AcDbEllipse
10
327.060069
20
11.426171
30
0
11
0.111182483439595
21
-0.166248174053745
31
0
210
0
220
0
230
1
40
0.080951
41
-1.9715491746306E-05
42
1.52262748697016
0
ELLIPSE
5
1F8
100
AcDbEntity
8
1
62
256
6
ByLayer
370
13
48
1
60
0
100
AcDbEllipse
10
342.489618
20
21.484223
30
0
11
-0.457939617125708
21
8.73800842910253
31
0
210
0
220
0
230
1
40
0.995562
41
-0.0801412288236394
42
-0.02457852629604
0
ELLIPSE
5
1F9
100
AcDbEntity
8
1
62
256
6
ByLayer
370
13
48
1
60
0
100
AcDbEllipse
10
339.985008
20
30.633334
30
0
11
-2.31065919077321
21
-1.76939563660653
31
0
210
0
220
0
230
1
40
0.473306
41
1.89962831577525
42
1.92528647231834
0
ELLIPSE
5
1FA
100
AcDbEntity
8
1
62
256
6
ByLayer
370
13
48
1
60
0
100
AcDbEllipse
10
339.79467
20
30.623371
30
0
11
-0.104671912485876
21
1.99725906950915
31
0
210
0
220
0
230
1
40
0.995562
41
3.14159265358779
42
-1.8203797528201
0
ELLIPSE
5
1FB
100
AcDbEntity
8
1
62
256
6
ByLayer
370
13
48
1
60
0
100
AcDbEllipse
10
340.350872
20
10.124387
30
0
11
-1.52607791224026
21
-1.67412290958309
31
0
210
0
220
0
230
1
40
0.751206
41
2.58255961213368
42
-2.78125477169921
0
ELLIPSE
5
1FC
100
AcDbEntity
8
1
62
256
6
ByLayer
370
13
48
1
60
0
100
AcDbEllipse
10
328.335969
20
9.494712
30
0
11
-0.109905508110171
21
2.09712202298462
31
0
210
0
220
0
230
1
40
0.995562
41
0.718961233329348
42
1.32121290077166
0
ELLIPSE
5
1FD
100
AcDbEntity
8
1
62
256
6
ByLayer
370
13
48
1
60
0
100
AcDbEllipse
10
325.383259
20
10.435453
30
0
11
-0.0287847759336168
21
0.549246244115033
31
0
210
0
220
0
230
1
40
0.995562
41
1.67551608191457
42
3.06145142476604
0
ELLIPSE
5
1FE
100
AcDbEntity
8
1
62
256
6
ByLayer
370
13
48
1
60
0
100
AcDbEllipse
10
343.132933
20
11.547625
30
0
11
-0.0433887798340193
21
-0.261709361115583
31
0
210
0
220
0
230
1
40
0.938419
41
0.311574383897971
42
0.505433132674721
0
ELLIPSE
5
1FF
100
AcDbEntity
8
1
62
256
6
ByLayer
370
13
48
1
60
0
100
AcDbEllipse
10
339.79467
20
30.623371
30
0
11
-0.109905508110171
21
2.09712202298462
31
0
210
0
220
0
230
1
40
0.995562
41
-2.42263142026234
42
-1.82037975282006
0
ELLIPSE
5
200
100
AcDbEntity
8
1
62
256
6
ByLayer
370
13
48
1
60
0
100
AcDbEllipse
10
343.661203
20
12.739613
30
0
11
0.00785039343643969
21
-0.149794430213193
31
0
210
0
220
0
230
1
40
0.995562
41
0.113446401375785
42
1.38753675533549
0
ELLIPSE
5
201
100
AcDbEntity
8
1
62
256
6
ByLayer
370
13
48
1
60
0
100
AcDbEllipse
10
342.294412
20
28.481481
30
0
11
-0.0915879234251411
21
1.74760168582051
31
0
210
0
220
0
230
1
40
0.995562
41
-0.0245785262959551
42
-0.00872664625997228
0
ELLIPSE
5
202
100
AcDbEntity
8
1
62
256
6
ByLayer
370
13
48
1
60
0
100
AcDbEllipse
10
333.652645
20
27.978297
30
0
11
0.0104671912485858
21
-0.199725906950915
31
0
210
0
220
0
230
1
40
0.094108
41
1.5707963267949
42
3.14159265358677
0
ELLIPSE
5
203
100
AcDbEntity
8
1
62
256
6
ByLayer
370
13
48
1
60
0
100
AcDbEllipse
10
344.134745
20
20.686895
30
0
11
-0.0287847759336149
21
0.549246244114998
31
0
210
0
220
0
230
1
40
0.995562
41
-1.75405589825453
42
-1.46607657167532
0
ELLIPSE
5
204
100
AcDbEntity
8
1
62
256
6
ByLayer
370
13
48
1
60
0
100
AcDbEllipse
10
326.139249
20
9.936101
30
0
11
-0.147123305935848
21
0.0292358145175916
31
0
210
0
220
0
230
1
40
0.023245
41
1.47945230342048
42
3.05024863021846
0
ELLIPSE
5
205
100
AcDbEntity
8
1
62
256
6
ByLayer
370
13
48
1
60
0
100
AcDbEllipse
10
324.464737
20
27.378224
30
0
11
-0.148732254109673
21
0.0194606420103638
31
0
210
0
220
0
230
1
40
0.01715
41
0.265915951152867
42
1.47811763731463
0
ELLIPSE
5
206
100
AcDbEntity
8
1
62
256
6
ByLayer
370
13
48
1
60
0
100
AcDbEllipse
10
323.436294
20
19.344291
30
0
11
-0.148164061728344
21
-0.0233968120084633
31
0
210
0
220
0
230
1
40
0.009837
41
-1.47706181926708
42
0.0937345075177563
0
ELLIPSE
5
207
100
AcDbEntity
8
1
62
256
6
ByLayer
370
13
48
1
60
0
100
AcDbEllipse
10
339.775874
20
30.622385
30
0
11
0.117755901546591
21
-2.24691645319781
31
0
210
0
220
0
230
1
40
0.995562
41
0.730529197227879
42
1.32121290077163
0
ELLIPSE
5
208
100
AcDbEntity
8
1
62
256
6
ByLayer
370
13
48
1
60
0
100
AcDbEllipse
10
342.728584
20
29.681645
30
0
11
0.0366351693700511
21
-0.699040674328219
31
0
210
0
220
0
230
1
40
0.995562
41
1.67551608191463
42
3.06145142476603
0
ELLIPSE
5
209
100
AcDbEntity
8
1
62
256
6
ByLayer
370
13
48
1
60
0
100
AcDbEllipse
10
342.671071
20
20.790525
30
0
11
0.148164061728344
21
0.0233968120084652
31
0
210
0
220
0
230
1
40
0.009837
41
1.66453083432573
42
2.85269002802231
0
ELLIPSE
5
20A
100
AcDbEntity
8
1
62
256
6
ByLayer
370
13
48
1
60
0
100
AcDbEllipse
10
341.266338
20
12.436409
30
0
11
-0.198309672146231
21
0.025947522680485
31
0
210
0
220
0
230
1
40
0.01715
41
-3.14146404084916
42
-1.66347501627678
0
ELLIPSE
5
20B
100
AcDbEntity
8
1
62
256
6
ByLayer
370
13
48
1
60
0
100
AcDbEllipse
10
326.314152
20
19.461316
30
0
11
-0.0261679781214692
21
0.49931476737729
31
0
210
0
220
0
230
1
40
0.995562
41
1.38753675533548
42
1.6755160819147
0
ELLIPSE
5
20C
100
AcDbEntity
8
1
62
256
6
ByLayer
370
13
48
1
60
0
100
AcDbEllipse
10
341.55429
20
12.334712
30
0
11
0.00523359562429122
21
-0.0998629534754257
31
0
210
0
220
0
230
1
40
0.995562
41
-1.75405589825437
42
0.113446401376573
0
ELLIPSE
5
20D
100
AcDbEntity
8
1
62
256
6
ByLayer
370
13
48
1
60
0
100
AcDbEllipse
10
324.464737
20
27.378224
30
0
11
0.0248313114068268
21
-0.147930409226153
31
0
210
0
220
0
230
1
40
0.093503
41
-3.04696247442592
42
-1.5814967726533
0
ELLIPSE
5
20E
100
AcDbEntity
8
1
62
256
6
ByLayer
370
13
48
1
60
0
100
AcDbEllipse
10
326.295356
20
19.460331
30
0
11
0.0366351693700503
21
-0.699040674328205
31
0
210
0
220
0
230
1
40
0.995562
41
-1.75405589825431
42
-1.46607657167516
0
ELLIPSE
5
20F
100
AcDbEntity
8
1
62
256
6
ByLayer
370
13
48
1
60
0
100
AcDbEllipse
10
342.033324
20
30.22188
30
0
11
-0.00653707867981058
21
0.149857487641873
31
0
210
0
220
0
230
1
40
0.094105
41
0.000824900290362992
42
1.57162122708202
0
ELLIPSE
5
210
100
AcDbEntity
8
1
62
256
6
ByLayer
370
13
48
1
60
0
100
AcDbEllipse
10
326.518229
20
27.722919
30
0
11
-0.0420204304823454
21
-0.159048282702154
31
0
210
0
220
0
230
1
40
0.081731
41
-3.11535881189481
42
-1.54456248512343
0
ELLIPSE
5
211
100
AcDbEntity
8
1
62
256
6
ByLayer
370
13
48
1
60
0
100
AcDbEllipse
10
323.981797
20
19.430449
30
0
11
0.0366351693700492
21
-0.699040674328184
31
0
210
0
220
0
230
1
40
0.995562
41
-1.75405589825267
42
-1.46607657167344
0
ELLIPSE
5
212
100
AcDbEntity
8
1
62
256
6
ByLayer
370
13
48
1
60
0
100
AcDbEllipse
10
328.340668
20
9.494959
30
0
11
-0.109905508110171
21
2.09712202298462
31
0
210
0
220
0
230
1
40
0.995562
41
0.718961233331278
42
1.32121290077356
0
ELLIPSE
5
213
100
AcDbEntity
8
1
62
256
6
ByLayer
370
13
48
1
60
0
100
AcDbEllipse
10
343.665902
20
12.739859
30
0
11
0.00785039343643969
21
-0.149794430213193
31
0
210
0
220
0
230
1
40
0.995562
41
0.113446401373083
42
1.38753675533317
0
ELLIPSE
5
214
100
AcDbEntity
8
1
62
256
6
ByLayer
370
13
48
1
60
0
100
AcDbEllipse
10
324.856552
20
10.35028
30
0
11
-0.148164061728344
21
-0.0233968120084633
31
0
210
0
220
0
230
1
40
0.009837
41
-1.47706181926745
42
0.0937345075262173
0
ELLIPSE
5
215
100
AcDbEntity
8
1
62
256
6
ByLayer
370
13
48
1
60
0
100
AcDbEllipse
10
325.518224
20
18.657525
30
0
11
0.523359562429289
21
-9.98629534754575
31
0
210
0
220
0
230
1
40
0.995562
41
-5.96902200343401E-07
42
0.317924582301111
0
ELLIPSE
5
216
100
AcDbEntity
8
1
62
256
6
ByLayer
370
13
48
1
60
0
100
AcDbEllipse
10
324.847889
20
12.346068
30
0
11
-2.74310165213803
21
2.20554168988165
31
0
210
0
220
0
230
1
40
0.772244
41
3.13694524735552
42
-2.77548047991641
0
ELLIPSE
5
217
100
AcDbEntity
8
1
62
256
6
ByLayer
370
13
48
1
60
0
100
AcDbEllipse
10
323.095321
20
14.696116
30
0
11
-0.0261679781214691
21
0.499314767377288
31
0
210
0
220
0
230
1
40
0.995562
41
-2.31498441521948
42
-1.46607657167532
0
ELLIPSE
5
218
100
AcDbEntity
8
1
62
256
6
ByLayer
370
13
48
1
60
0
100
AcDbEllipse
10
333.798362
20
-7.911657
30
0
11
-2.1
21
2.12234201567296E-15
31
0
210
0
220
0
230
1
40
0.994591
41
-2.72326978070502
42
-0.429416132742287
0
ELLIPSE
5
219
100
AcDbEntity
8
1
62
256
6
ByLayer
370
13
48
1
60
0
100
AcDbEllipse
10
343.24949
20
-2.53803
30
0
11
-2.64696386921279
21
4.20662507294595
31
0
210
0
220
0
230
1
40
0.383576
41
-0.991304184607526
42
-0.854957547486762
0
ELLIPSE
5
21A
100
AcDbEntity
8
1
62
256
6
ByLayer
370
13
48
1
60
0
100
AcDbEllipse
10
343.334198
20
9.967162
30
0
11
-0.00945520337317884
21
0.500187552006874
31
0
210
0
220
0
230
1
40
0.105045
41
1.92337816719604
42
-2.78901081319555
0
ELLIPSE
5
21B
100
AcDbEntity
8
1
62
256
6
ByLayer
370
13
48
1
60
0
100
AcDbEllipse
10
325.090465
20
10.826681
30
0
11
-4.04277875821491
21
-0.708917705673825
31
0
210
0
220
0
230
1
40
0.014774
41
-3.02036303284618
42
-2.66133983541051
0
ELLIPSE
5
21C
100
AcDbEntity
8
1
62
256
6
ByLayer
370
13
48
1
60
0
100
AcDbEllipse
10
325.883294
20
20.019583
30
0
11
0.162241464353079
21
-3.09575155773918
31
0
210
0
220
0
230
1
40
0.995562
41
-2.23430559079022
42
-1.46607657167523
0
ELLIPSE
5
21D
100
AcDbEntity
8
1
62
256
6
ByLayer
370
13
48
1
60
0
100
AcDbEllipse
10
325.226214
20
12.365895
30
0
11
0.162241464353079
21
-3.09575155773918
31
0
210
0
220
0
230
1
40
0.995562
41
0.0839997461782142
42
1.07850402440023
0
ELLIPSE
5
21E
100
AcDbEntity
8
1
62
256
6
ByLayer
370
13
48
1
60
0
100
AcDbEllipse
10
333.541145
20
11.269563
30
0
11
-4.04277876029292
21
-0.708917706046946
31
0
210
0
220
0
230
1
40
0.014774
41
-3.02036303277803
42
-2.6860159213804
0
ELLIPSE
5
21F
100
AcDbEntity
8
1
62
256
6
ByLayer
370
13
48
1
60
0
100
AcDbEllipse
10
279.334958
20
0
30
0
11
-315.025471088274
21
0.148438356314982
31
0
210
0
220
0
230
1
40
0.094396
41
-1.76664383092398
42
-1.71567524998693
0
ELLIPSE
5
220
100
AcDbEntity
8
1
62
256
6
ByLayer
370
13
48
1
60
0
100
AcDbEllipse
10
325.179224
20
12.363433
30
0
11
-0.136073486231638
21
2.59643679036189
31
0
210
0
220
0
230
1
40
0.995562
41
2.4014488860982
42
2.97998013990122
0
ELLIPSE
5
221
100
AcDbEntity
8
1
62
256
6
ByLayer
370
13
48
1
60
0
100
AcDbEllipse
10
325.179224
20
12.363433
30
0
11
-0.136073486231638
21
2.59643679036189
31
0
210
0
220
0
230
1
40
0.995562
41
-2.68543658663365
42
-2.07675099364106
0
ELLIPSE
5
222
100
AcDbEntity
8
1
62
256
6
ByLayer
370
13
48
1
60
0
100
AcDbEllipse
10
325.586953
20
12.384801
30
0
11
-1.97200940100793
21
-2.45265018824978
31
0
210
0
220
0
230
1
40
0.965978
41
1.55736417618736
42
1.84422629223854
0
ELLIPSE
5
223
100
AcDbEntity
8
1
62
256
6
ByLayer
370
13
48
1
60
0
100
AcDbEllipse
10
1217.039283
20
-1E-06
30
0
11
-1414.02577828143
21
22.7244733129197
31
0
210
0
220
0
230
1
40
0.013565
41
0.885206656658329
42
0.902570638005625
0
ELLIPSE
5
224
100
AcDbEntity
8
1
62
256
6
ByLayer
370
13
48
1
60
0
100
AcDbEllipse
10
354.95912
20
0
30
0
11
-59.8581256286639
21
25.1708683620754
31
0
210
0
220
0
230
1
40
0.254844
41
0.861505677324128
42
0.985898185052781
0
ELLIPSE
5
225
100
AcDbEntity
8
1
62
256
6
ByLayer
370
13
48
1
60
0
100
AcDbEllipse
10
336.067166
20
14.806612
30
0
11
-1.97200940103624
21
-2.45265018790252
31
0
210
0
220
0
230
1
40
0.965978
41
0.712391851118659
42
1.04314259891391
0
ELLIPSE
5
226
100
AcDbEntity
8
1
62
256
6
ByLayer
370
13
48
1
60
0
100
AcDbEllipse
10
343.132873
20
0
30
0
11
-5.04722164912645
21
29.7343485874068
31
0
210
0
220
0
230
1
40
0.085773
41
1.58905629443841
42
1.74268129956993
0
ELLIPSE
5
227
100
AcDbEntity
8
1
62
256
6
ByLayer
370
13
48
1
60
0
100
AcDbEllipse
10
328.762681
20
10.266851
30
0
11
0.363113722374463
21
-0.931744828063651
31
0
210
0
220
0
230
1
40
0.089392
41
-1.60033673645357
42
-0.0295404096585972
0
ELLIPSE
5
228
100
AcDbEntity
8
1
62
256
6
ByLayer
370
13
48
1
60
0
100
AcDbEllipse
10
338.032672
20
-8.899074
30
0
11
-6.03299026117417
21
-0.0264916901961935
31
0
210
0
220
0
230
1
40
0.989143
41
3.00705678549233
42
-2.98970517733946
0
ELLIPSE
5
229
100
AcDbEntity
8
1
62
256
6
ByLayer
370
13
48
1
60
0
100
AcDbEllipse
10
322.900521
20
10.051497
30
0
11
-0.293740802135514
21
-0.955885108766104
31
0
210
0
220
0
230
1
40
0.088433
41
-1.53847716189229
42
-7.17550718904357E-06
0
ELLIPSE
5
22A
100
AcDbEntity
8
1
62
256
6
ByLayer
370
13
48
1
60
0
100
AcDbEllipse
10
343.515532
20
13.744974
30
0
11
0.162241464353079
21
-3.09575155773918
31
0
210
0
220
0
230
1
40
0.995562
41
-0.998377754702095
42
-0.804393367027739
0
ELLIPSE
5
22B
100
AcDbEntity
8
1
62
256
6
ByLayer
370
13
48
1
60
0
100
AcDbEllipse
10
355.947537
20
3E-06
30
0
11
-311.794426429796
21
0.146915576257826
31
0
210
0
220
0
230
1
40
0.094396
41
-1.45048446103436
42
-1.42574052164088
0
ELLIPSE
5
22C
100
AcDbEntity
8
1
62
256
6
ByLayer
370
13
48
1
60
0
100
AcDbEllipse
10
342.713906
20
11.550012
30
0
11
-0.0189104067479953
21
1.00037510402583
31
0
210
0
220
0
230
1
40
0.105045
41
-3.13807666359281
42
-2.51023284940206
0
ELLIPSE
5
22D
100
AcDbEntity
8
1
62
256
6
ByLayer
370
13
48
1
60
0
100
AcDbEllipse
10
345.843618
20
0
30
0
11
-3.61896498557847
21
-29.73451698687
31
0
210
0
220
0
230
1
40
0.116386
41
-1.30951325249556
42
-0.0872002035666431
0
ELLIPSE
5
22E
100
AcDbEntity
8
1
62
256
6
ByLayer
370
13
48
1
60
0
100
AcDbEllipse
10
343.166972
20
13.726707
30
0
11
-0.0953965529029811
21
3.0990551866489
31
0
210
0
220
0
230
1
40
0.525215
41
2.85048851587551
42
3.12793559667234
0
ELLIPSE
5
22F
100
AcDbEntity
8
1
62
256
6
ByLayer
370
13
48
1
60
0
100
AcDbEllipse
10
342.956018
20
-18.119417
30
0
11
-0.0641300525605243
21
-0.516001661504399
31
0
210
0
220
0
230
1
40
0.112904
41
-1.64113735320048
42
-0.0703410264088005
0
ELLIPSE
5
230
100
AcDbEntity
8
1
62
256
6
ByLayer
370
13
48
1
60
0
100
AcDbEllipse
10
329.175737
20
11.040781
30
0
11
-0.0261679781214689
21
0.499314767377287
31
0
210
0
220
0
230
1
40
0.995562
41
0.927295216955951
42
1.13183444118506
0
ELLIPSE
5
231
100
AcDbEntity
8
1
62
256
6
ByLayer
370
13
48
1
60
0
100
AcDbEllipse
10
332.634149
20
0.006659
30
0
11
0.575695518672216
21
-10.9849248823003
31
0
210
0
220
0
230
1
40
0.995562
41
-3.14159265358979
42
-2.82366807128868
0
ELLIPSE
5
232
100
AcDbEntity
8
1
62
256
6
ByLayer
370
13
48
1
60
0
100
AcDbEllipse
10
343.279229
20
0.13566
30
0
11
-0.0212172530223226
21
1.01119200746778
31
0
210
0
220
0
230
1
40
0.102299
41
-0.118753920292744
42
1.06438216613631
0
ELLIPSE
5
233
100
AcDbEntity
8
1
62
256
6
ByLayer
370
13
48
1
60
0
100
AcDbEllipse
10
328.85448
20
11.023945
30
0
11
-0.318066032257435
21
-0.395588740150768
31
0
210
0
220
0
230
1
40
0.965978
41
-2.06962855863884
42
-1.29736636174433
0
ELLIPSE
5
234
100
AcDbEntity
8
1
62
256
6
ByLayer
370
13
48
1
60
0
100
AcDbEllipse
10
332.728129
20
0.011584
30
0
11
-0.523359562429381
21
9.98629534754575
31
0
210
0
220
0
230
1
40
0.995562
41
0
42
0.317924582301119
0
ELLIPSE
5
235
100
AcDbEntity
8
1
62
256
6
ByLayer
370
13
48
1
60
0
100
AcDbEllipse
10
333.798362
20
-7.911657
30
0
11
2
21
0
31
0
210
0
220
0
230
1
40
0.994591
41
0.393484593798267
42
2.75380223019254
0
ELLIPSE
5
236
100
AcDbEntity
8
1
62
256
6
ByLayer
370
13
48
1
60
0
100
AcDbEllipse
10
359.760236
20
16.063054
30
0
11
-25.1789471075422
21
-4.41598684463927
31
0
210
0
220
0
230
1
40
0.014751
41
0.45045000779777
42
0.454585042908184
0
ELLIPSE
5
237
100
AcDbEntity
8
1
62
256
6
ByLayer
370
13
48
1
60
0
100
AcDbEllipse
10
348.713316
20
0.736364
30
0
11
-6.03299030907894
21
-0.0264919224473282
31
0
210
0
220
0
230
1
40
0.989143
41
0.0309833545771417
42
0.151887437590032
0
ELLIPSE
5
238
100
AcDbEntity
8
1
62
256
6
ByLayer
370
13
48
1
60
0
100
AcDbEllipse
10
317
20
8.448172
30
0
11
-4
21
4.04255622032945E-15
31
0
210
0
220
0
230
1
40
0.761111
41
-3.09026292935323
42
-1.69884184427646
0
ELLIPSE
5
239
100
AcDbEntity
8
1
62
256
6
ByLayer
370
13
48
1
60
0
100
AcDbEllipse
10
333.798362
20
-8.420605
30
0
11
2
21
0
31
0
210
0
220
0
230
1
40
0.994591
41
2.41676814911542
42
2.5952499609672
0
ELLIPSE
5
23A
100
AcDbEntity
8
1
62
256
6
ByLayer
370
13
48
1
60
0
100
AcDbEllipse
10
325.424245
20
18.6526
30
0
11
-0.471023606186443
21
8.98766581279117
31
0
210
0
220
0
230
1
40
0.995562
41
-2.92946901796103
42
-2.82366807128868
0
ELLIPSE
5
23B
100
AcDbEntity
8
1
62
256
6
ByLayer
370
13
48
1
60
0
100
AcDbEllipse
10
325.855876
20
12.398894
30
0
11
0.162241464353079
21
-3.09575155773918
31
0
210
0
220
0
230
1
40
0.995562
41
0.615809199294487
42
1.13183444118514
0
ELLIPSE
5
23C
100
AcDbEntity
8
1
62
256
6
ByLayer
370
13
48
1
60
0
100
AcDbEllipse
10
340.60901
20
11.639974
30
0
11
-0.0261679781214691
21
0.499314767377289
31
0
210
0
220
0
230
1
40
0.995562
41
-0.998377754701857
42
-0.927295218001581
0
ELLIPSE
5
23D
100
AcDbEntity
8
1
62
256
6
ByLayer
370
13
48
1
60
0
100
AcDbEllipse
10
317
20
7.241188
30
0
11
-5.80183843775235
21
1.99179722567443
31
0
210
0
220
0
230
1
40
0.767785
41
1.41830492842417
42
1.71805179099602
0
ELLIPSE
5
23E
100
AcDbEntity
8
1
62
256
6
ByLayer
370
13
48
1
60
0
100
AcDbEllipse
10
332.152433
20
10.996509
30
0
11
0.0523359562429289
21
-0.998629534754575
31
0
210
0
220
0
230
1
40
0.094108
41
-1.5707963267949
42
-6.04023237777957E-13
0
ELLIPSE
5
23F
100
AcDbEntity
8
1
62
256
6
ByLayer
370
13
48
1
60
0
100
AcDbEllipse
10
327.516814
20
10.639973
30
0
11
1.49975373857981
21
0.0271794707662146
31
0
210
0
220
0
230
1
40
0.340502
41
-1.53279213818914
42
-1.51222596037207
0
ELLIPSE
5
240
100
AcDbEntity
8
1
62
256
6
ByLayer
370
13
48
1
60
0
100
AcDbEllipse
10
343.440778
20
11.000216
30
0
11
-0.0190934195968556
21
-0.501606840117563
31
0
210
0
220
0
230
1
40
0.197189
41
-0.688891549969935
42
-0.331191944137198
0
ELLIPSE
5
241
100
AcDbEntity
8
1
62
256
6
ByLayer
370
13
48
1
60
0
100
AcDbEllipse
10
343.175075
20
0.130801
30
0
11
-0.0106086265070206
21
0.505596003601798
31
0
210
0
220
0
230
1
40
0.102299
41
-0.118753920308598
42
0.289368322488541
0
ELLIPSE
5
242
100
AcDbEntity
8
1
62
256
6
ByLayer
370
13
48
1
60
0
100
AcDbEllipse
10
325.427609
20
0
30
0
11
-1.57250773302089
21
29.7371295128549
31
0
210
0
220
0
230
1
40
0.094396
41
-0.101163824855072
42
-0.00499187034701969
0
ELLIPSE
5
243
100
AcDbEntity
8
1
62
256
6
ByLayer
370
13
48
1
60
0
100
AcDbEllipse
10
355.947296
20
0.00022
30
0
11
-315.02428790481
21
0.148414619793039
31
0
210
0
220
0
230
1
40
0.094396
41
-1.4696329088606
42
-1.46130978399379
0
ELLIPSE
5
244
100
AcDbEntity
8
1
62
256
6
ByLayer
370
13
48
1
60
0
100
AcDbEllipse
10
346.554649
20
2.850964
30
0
11
-5.83721839376513
21
-2.00080041240925
31
0
210
0
220
0
230
1
40
0.854019
41
-0.376286293224703
42
-0.228734223133038
0
ELLIPSE
5
245
100
AcDbEntity
8
1
62
256
6
ByLayer
370
13
48
1
60
0
100
AcDbEllipse
10
325.855876
20
12.398894
30
0
11
0.162241464353079
21
-3.09575155773918
31
0
210
0
220
0
230
1
40
0.995562
41
-2.31498441521963
42
-0.582560016270373
0
ELLIPSE
5
246
100
AcDbEntity
8
1
62
256
6
ByLayer
370
13
48
1
60
0
100
AcDbEllipse
10
341.96347
20
-19.140672
30
0
11
-0.295604627006777
21
-2.49705273531879
31
0
210
0
220
0
230
1
40
0.116734
41
0
42
6.28318530717959
0
ELLIPSE
5
247
100
AcDbEntity
8
1
62
256
6
ByLayer
370
13
48
1
60
0
100
AcDbEllipse
10
325.424245
20
18.6526
30
0
11
-0.471023606186443
21
8.98766581279117
31
0
210
0
220
0
230
1
40
0.995562
41
2.79252680319575
42
2.96271820098512
0
ELLIPSE
5
248
100
AcDbEntity
8
1
62
256
6
ByLayer
370
13
48
1
60
0
100
AcDbEllipse
10
317
20
1.786846
30
0
11
-0.604598592284035
21
16.6844253987183
31
0
210
0
220
0
230
1
40
0.357786
41
-0.538956742548286
42
-0.362971787938895
0
POINT
5
70
100
AcDbEntity
8
1
62
256
6
ByLayer
370
18
48
1
60
0
100
AcDbPoint
10
0
20
0
30
0
39
0
210
0
220
0
230
1
50
360
0
POINT
5
72
100
AcDbEntity
8
80
62
256
6
ByLayer
370
18
48
1
60
0
100
AcDbPoint
10
0
20
0
30
0
39
0
210
0
220
0
230
1
50
360
0
POINT
5
74
100
AcDbEntity
8
81
62
256
6
ByLayer
370
18
48
1
60
0
100
AcDbPoint
10
345
20
0
30
0
39
0
210
0
220
0
230
1
50
360
0
POINT
5
76
100
AcDbEntity
8
1
62
256
6
ByLayer
370
18
48
1
60
1
100
AcDbPoint
10
0
20
-31.25
30
0
39
0
210
0
220
0
230
1
50
360
0
POINT
5
77
100
AcDbEntity
8
1
62
256
6
ByLayer
370
18
48
1
60
1
100
AcDbPoint
10
345
20
-30.5
30
0
39
0
210
0
220
0
230
1
50
360
0
POINT
5
78
100
AcDbEntity
8
1
62
256
6
ByLayer
370
18
48
1
60
1
100
AcDbPoint
10
-80
20
-25
30
0
39
0
210
0
220
0
230
1
50
360
0
POINT
5
79
100
AcDbEntity
8
1
62
256
6
ByLayer
370
18
48
1
60
1
100
AcDbPoint
10
0
20
-31.25
30
0
39
0
210
0
220
0
230
1
50
360
0
POINT
5
7A
100
AcDbEntity
8
1
62
256
6
ByLayer
370
18
48
1
60
1
100
AcDbPoint
10
345
20
-30.5
30
0
39
0
210
0
220
0
230
1
50
360
0
POINT
5
7B
100
AcDbEntity
8
1
62
256
6
ByLayer
370
18
48
1
60
1
100
AcDbPoint
10
5.6564
20
-31.25
30
0
39
0
210
0
220
0
230
1
50
360
0
POINT
5
7C
100
AcDbEntity
8
1
62
256
6
ByLayer
370
18
48
1
60
1
100
AcDbPoint
10
35
20
-30.5
30
0
39
0
210
0
220
0
230
1
50
360
0
POINT
5
7D
100
AcDbEntity
8
1
62
256
6
ByLayer
370
18
48
1
60
1
100
AcDbPoint
10
345
20
-30.5
30
0
39
0
210
0
220
0
230
1
50
360
0
POINT
5
7E
100
AcDbEntity
8
1
62
256
6
ByLayer
370
18
48
1
60
1
100
AcDbPoint
10
343.4109
20
-15.25
30
0
39
0
210
0
220
0
230
1
50
360
0
SPLINE
5
249
100
AcDbEntity
8
SK1
62
256
6
ByLayer
370
13
48
1
60
0
100
AcDbSpline
70
4
71
3
72
74
73
70
40
0
40
0
40
0
40
0
40
0.0156249999999999
40
0.0156249999999999
40
0.0234374999999999
40
0.0234374999999999
40
0.0312499999999998
40
0.0312499999999998
40
0.0468749999999997
40
0.0468749999999997
40
0.0624999999999996
40
0.0624999999999996
40
0.0781249999999995
40
0.0781249999999995
40
0.0937499999999994
40
0.0937499999999994
40
0.124999999999999
40
0.124999999999999
40
0.140624999999999
40
0.140624999999999
40
0.156249999999999
40
0.156249999999999
40
0.187499999999999
40
0.187499999999999
40
0.249999999999999
40
0.249999999999999
40
0.281249999999999
40
0.281249999999999
40
0.312499999999999
40
0.312499999999999
40
0.374999999999999
40
0.374999999999999
40
0.437499999999999
40
0.437499999999999
40
0.499999999999999
40
0.499999999999999
40
0.562499999999999
40
0.562499999999999
40
0.593749999999999
40
0.593749999999999
40
0.624999999999999
40
0.624999999999999
40
0.687499999999999
40
0.687499999999999
40
0.749999999999999
40
0.749999999999999
40
0.781249999999999
40
0.781249999999999
40
0.812499999999999
40
0.812499999999999
40
0.84375
40
0.84375
40
0.875
40
0.875
40
0.90625
40
0.90625
40
0.9375
40
0.9375
40
0.9453125
40
0.9453125
40
0.953125
40
0.953125
40
0.96875
40
0.96875
40
0.984375
40
0.984375
40
0.9921875
40
0.9921875
40
1
40
1
40
1
40
1
41
1
10
-6.50000000009537
20
10.670482650752
30
0
41
1
10
-6.37048388891068
20
10.6704826507608
30
0
41
1
10
-6.24446776465052
20
10.6528697557375
30
0
41
1
10
-6.06010517952292
20
10.6029156441243
30
0
41
1
10
-5.99927461449791
20
10.5821925812253
30
0
41
1
10
-5.88223506583903
20
10.5345394314587
30
0
41
1
10
-5.82559748012396
20
10.5075199899682
30
0
41
1
10
-5.66065779452136
20
10.417975973631
30
0
41
1
10
-5.55712762892129
20
10.3466184036529
30
0
41
1
10
-5.36736536971404
20
10.1913586531549
30
0
41
1
10
-5.27997153671004
20
10.1068512703449
30
0
41
1
10
-5.11666218977226
20
9.92704332772249
30
0
41
1
10
-5.04055810401205
20
9.83130794393438
30
0
41
1
10
-4.90046448763794
20
9.63491798753748
30
0
41
1
10
-4.83603834410379
20
9.53382715843213
30
0
41
1
10
-4.65598112089407
20
9.22347109153861
30
0
41
1
10
-4.55339976152399
20
9.00719880738419
30
0
41
1
10
-4.41750582616753
20
8.67228763084432
30
0
41
1
10
-4.37530268897782
20
8.55891791867154
30
0
41
1
10
-4.29686000058593
20
8.33134323345735
30
0
41
1
10
-4.26049265592715
20
8.21682554312125
30
0
41
1
10
-4.1585724311424
20
7.87130398108656
30
0
41
1
10
-4.10013853486055
20
7.63834185023578
30
0
41
1
10
-3.94578977994675
20
6.93282891322849
30
0
41
1
10
-3.87048459563748
20
6.45370790232082
30
0
41
1
10
-3.78175631324948
20
5.72457369042985
30
0
41
1
10
-3.75634074966133
20
5.47976683985843
30
0
41
1
10
-3.71200672711989
20
4.98691048522593
30
0
41
1
10
-3.6930864822361
20
4.73862820397792
30
0
41
1
10
-3.64424139462162
20
3.99444565639502
30
0
41
1
10
-3.62191393829291
20
3.49753056604814
30
0
41
1
10
-3.58913059568964
20
2.50225576491911
30
0
41
1
10
-3.57872244966511
20
2.00389538867495
30
0
41
1
10
-3.56529013292472
20
1.00580199142325
30
0
41
1
10
-3.56228022077386
20
0.506068785393097
30
0
41
1
10
-3.56223334097642
20
-0.494754197166372
30
0
41
1
10
-3.56519357916225
20
-0.995843898846687
30
0
41
1
10
-3.57526735092096
20
-1.74852495498422
30
0
41
1
10
-3.57958751937886
20
-1.99959349362723
30
0
41
1
10
-3.59064705878916
20
-2.50209075145548
30
0
41
1
10
-3.59739709579894
20
-2.75385038007658
30
0
41
1
10
-3.62227132036486
20
-3.50710000839359
30
0
41
1
10
-3.64484459181701
20
-4.00580366741292
30
0
41
1
10
-3.71010606722081
20
-4.99571816607528
30
0
41
1
10
-3.75268745857275
20
-5.48693664959626
30
0
41
1
10
-3.8418018670106
20
-6.21737273914593
30
0
41
1
10
-3.87576317934641
20
-6.45978205407948
30
0
41
1
10
-3.95487127334194
20
-6.94225537606115
30
0
41
1
10
-3.99994180570393
20
-7.18182085753699
30
0
41
1
10
-4.1041668337169
20
-7.65518824089065
30
0
41
1
10
-4.16332953330694
20
-7.88926779084468
30
0
41
1
10
-4.30073575990994
20
-8.35126379883343
30
0
41
1
10
-4.37869000461004
20
-8.57819056735369
30
0
41
1
10
-4.55882768232693
20
-9.01890405609001
30
0
41
1
10
-4.66096064418578
20
-9.23316248710555
30
0
41
1
10
-4.9012460930548
20
-9.6450662502447
30
0
41
1
10
-5.04044720826909
20
-9.84412891865716
30
0
41
1
10
-5.24436673816899
20
-10.0673788314332
30
0
41
1
10
-5.28672193295479
20
-10.1108128419076
30
0
41
1
10
-5.37506018490618
20
-10.1949099292502
30
0
41
1
10
-5.42113974977889
20
-10.2356293471388
30
0
41
1
10
-5.56352602684599
20
-10.3512474104622
30
0
41
1
10
-5.66447995477703
20
-10.4202823836625
30
0
41
1
10
-5.88197798496885
20
-10.5378913469096
30
0
41
1
10
-6.00024980803648
20
-10.5867345345007
30
0
41
1
10
-6.18283559041274
20
-10.6361515407661
30
0
41
1
10
-6.24478714200797
20
-10.6488401790656
30
0
41
1
10
-6.37105473569075
20
-10.6660269221224
30
0
41
1
10
-6.43557318110056
20
-10.6704826507564
30
0
41
1
10
-6.50000000009538
20
-10.6704826507521
30
0
0
SPLINE
5
24A
100
AcDbEntity
8
1
62
256
6
ByLayer
370
18
48
1
60
0
100
AcDbSpline
70
4
71
3
72
8
73
4
40
0
40
0
40
0
40
0
40
1
40
1
40
1
40
1
41
1
10
335.026642208376
20
21.1697227203217
30
0
41
1
10
335.023413150011
20
21.1636995941564
30
0
41
1
10
335.020183867889
20
21.1576757085058
30
0
41
1
10
335.016954353535
20
21.1516510337751
30
0
0
SPLINE
5
24B
100
AcDbEntity
8
1
62
256
6
ByLayer
370
18
48
1
60
0
100
AcDbSpline
70
4
71
3
72
8
73
4
40
0
40
0
40
0
40
0
40
1
40
1
40
1
40
1
41
1
10
335.125949998954
20
19.0718902251639
30
0
41
1
10
335.129791571682
20
19.0662361304043
30
0
41
1
10
335.133632830969
20
19.0605827961273
30
0
41
1
10
335.137473788336
20
19.0549301937859
30
0
0
SPLINE
5
24C
100
AcDbEntity
8
1
62
256
6
ByLayer
370
18
48
1
60
0
100
AcDbSpline
70
4
71
3
72
18
73
14
40
0
40
0
40
0
40
0
40
0.125000000000001
40
0.125000000000001
40
0.250000000000002
40
0.250000000000002
40
0.500000000000002
40
0.500000000000002
40
0.750000000000001
40
0.750000000000001
40
0.875
40
0.875
40
1
40
1
40
1
40
1
41
1
10
334.479787859872
20
18.6504940805933
30
0
41
1
10
334.460214481679
20
18.6768174166207
30
0
41
1
10
334.43216593697
20
18.6967437848963
30
0
41
1
10
334.370413532282
20
18.72858718161
30
0
41
1
10
334.336720675928
20
18.740269544657
30
0
41
1
10
334.232637717771
20
18.7663096044955
30
0
41
1
10
334.159024775319
20
18.771888249856
30
0
41
1
10
334.014509044511
20
18.7643011900594
30
0
41
1
10
333.943865063843
20
18.751213084114
30
0
41
1
10
333.847980543296
20
18.7146229022894
30
0
41
1
10
333.81775667198
20
18.6995403464982
30
0
41
1
10
333.764892363344
20
18.6617545401319
30
0
41
1
10
333.742039748872
20
18.6391928566733
30
0
41
1
10
333.728643845485
20
18.6111282908775
30
0
0
SPLINE
5
24D
100
AcDbEntity
8
1
62
256
6
ByLayer
370
18
48
1
60
0
100
AcDbSpline
70
4
71
3
72
20
73
16
40
0
40
0
40
0
40
0
40
0.124999999999978
40
0.124999999999978
40
0.249999999999957
40
0.249999999999957
40
0.374999999999935
40
0.374999999999935
40
0.499999999999914
40
0.499999999999914
40
0.749999999999957
40
0.749999999999957
40
0.874999999999978
40
0.874999999999978
40
1
40
1
40
1
40
1
41
1
10
335.125949998954
20
19.0718902251639
30
0
41
1
10
335.107464932066
20
19.0990968739071
30
0
41
1
10
335.09860243763
20
19.1317789926902
30
0
41
1
10
335.091134339819
20
19.1990418931464
30
0
41
1
10
335.092697118066
20
19.2335039465341
30
0
41
1
10
335.102670361392
20
19.3025293217402
30
0
41
1
10
335.111226002272
20
19.3371872421219
30
0
41
1
10
335.133501051587
20
19.4044975165744
30
0
41
1
10
335.147296483195
20
19.4375219997582
30
0
41
1
10
335.196506972891
20
19.5347953401652
30
0
41
1
10
335.238581297132
20
19.5954460645843
30
0
41
1
10
335.314642702759
20
19.6710793630465
30
0
41
1
10
335.342223428129
20
19.6937175667637
30
0
41
1
10
335.401848798
20
19.7293182774192
30
0
41
1
10
335.433841232014
20
19.7425275371676
30
0
41
1
10
335.467278257244
20
19.7449827735524
30
0
0
SPLINE
5
24E
100
AcDbEntity
8
1
62
256
6
ByLayer
370
18
48
1
60
0
100
AcDbSpline
70
4
71
3
72
16
73
12
40
0
40
0
40
0
40
0
40
0.250000000000064
40
0.250000000000064
40
0.500000000000128
40
0.500000000000128
40
0.750000000000191
40
0.750000000000191
40
0.875000000000096
40
0.875000000000096
40
1
40
1
40
1
40
1
41
1
10
335.706933215018
20
20.1450747794881
30
0
41
1
10
335.704617074592
20
20.1892693715374
30
0
41
1
10
335.69864596216
20
20.2333312099232
30
0
41
1
10
335.678502626059
20
20.3196556904488
30
0
41
1
10
335.664431959361
20
20.3619363613107
30
0
41
1
10
335.624667420151
20
20.4408085881304
30
0
41
1
10
335.599207095646
20
20.4777826937718
30
0
41
1
10
335.54680805363
20
20.5155356150202
30
0
41
1
10
335.52708405031
20
20.524431124218
30
0
41
1
10
335.486674427879
20
20.5301313830939
30
0
41
1
10
335.46623240689
20
20.5268387699049
30
0
41
1
10
335.447718658904
20
20.5185827624834
30
0
0
SPLINE
5
24F
100
AcDbEntity
8
1
62
256
6
ByLayer
370
18
48
1
60
0
100
AcDbSpline
70
4
71
3
72
16
73
12
40
0
40
0
40
0
40
0
40
0.124999999999997
40
0.124999999999997
40
0.249999999999994
40
0.249999999999994
40
0.499999999999996
40
0.499999999999996
40
0.749999999999998
40
0.749999999999998
40
1
40
1
40
1
40
1
41
1
10
334.340750460537
20
21.520869499228
30
0
41
1
10
334.343460735676
20
21.540297411718
30
0
41
1
10
334.351472391609
20
21.5589338913932
30
0
41
1
10
334.377872808966
20
21.5897490778877
30
0
41
1
10
334.396154161762
20
21.6017837675418
30
0
41
1
10
334.455607577006
20
21.6263554878633
30
0
41
1
10
334.500607292203
20
21.629371575258
30
0
41
1
10
334.588913933
20
21.6235063751199
30
0
41
1
10
334.63261738297
20
21.6142978950808
30
0
41
1
10
334.717259513298
20
21.5882765745755
30
0
41
1
10
334.758380503305
20
21.5713032675806
30
0
41
1
10
334.797615199911
20
21.5512168073221
30
0
0
SPLINE
5
250
100
AcDbEntity
8
1
62
256
6
ByLayer
370
18
48
1
60
0
100
AcDbSpline
70
4
71
3
72
16
73
12
40
0
40
0
40
0
40
0
40
0.125000000000017
40
0.125000000000017
40
0.250000000000034
40
0.250000000000034
40
0.500000000000023
40
0.500000000000023
40
0.750000000000011
40
0.750000000000011
40
1
40
1
40
1
40
1
41
1
10
332.923537391602
20
21.0595036672751
30
0
41
1
10
332.908711891487
20
21.0706996414006
30
0
41
1
10
332.897226442117
20
21.0860969639006
30
0
41
1
10
332.884891482587
20
21.1228667170372
30
0
41
1
10
332.884108877842
20
21.1440792256382
30
0
41
1
10
332.893737396034
20
21.2063725325021
30
0
41
1
10
332.914054063493
20
21.2463521600825
30
0
41
1
10
332.963861561669
20
21.3192535935194
30
0
41
1
10
332.993823014291
20
21.3523714190535
30
0
41
1
10
333.058790035318
20
21.412599604981
30
0
41
1
10
333.094022216223
20
21.4397926186663
30
0
41
1
10
333.130942374233
20
21.4638701857369
30
0
0
SPLINE
5
251
100
AcDbEntity
8
1
62
256
6
ByLayer
370
18
48
1
60
0
100
AcDbSpline
70
4
71
3
72
18
73
14
40
0
40
0
40
0
40
0
40
0.124999999999996
40
0.124999999999996
40
0.249999999999992
40
0.249999999999992
40
0.499999999999991
40
0.499999999999991
40
0.74999999999999
40
0.74999999999999
40
0.874999999999995
40
0.874999999999995
40
1
40
1
40
1
40
1
41
1
10
335.426770109632
20
20.5179242751023
30
0
41
1
10
335.393280638529
20
20.5168716014503
30
0
41
1
10
335.360047969452
20
20.5266600123076
30
0
41
1
10
335.296897293633
20
20.5559137763872
30
0
41
1
10
335.267182824586
20
20.5755185387653
30
0
41
1
10
335.183816470686
20
20.6426390882213
30
0
41
1
10
335.135632487232
20
20.6985054293635
30
0
41
1
10
335.056795670404
20
20.8206016096813
30
0
41
1
10
335.026369829482
20
20.8863969570348
30
0
41
1
10
335.000785310678
20
20.9874472338269
30
0
41
1
10
334.995609726893
20
21.0219384151181
30
0
41
1
10
334.996028779963
20
21.0890871650295
30
0
41
1
10
335.001385459357
20
21.122607185982
30
0
41
1
10
335.016954353535
20
21.1516510337751
30
0
0
SPLINE
5
252
100
AcDbEntity
8
1
62
256
6
ByLayer
370
18
48
1
60
0
100
AcDbSpline
70
4
71
3
72
8
73
4
40
0
40
0
40
0
40
0
40
1
40
1
40
1
40
1
41
1
10
333.034368971562
20
18.9447111407394
30
0
41
1
10
333.036903314789
20
18.9506978584271
30
0
41
1
10
333.039438170456
20
18.9566853507293
30
0
41
1
10
333.041973558791
20
18.9626736478568
30
0
0
SPLINE
5
253
100
AcDbEntity
8
1
62
256
6
ByLayer
370
18
48
1
60
0
100
AcDbSpline
70
4
71
3
72
8
73
4
40
0
40
0
40
0
40
0
40
1
40
1
40
1
40
1
41
1
10
333.728643845485
20
18.6111282908775
30
0
41
1
10
333.725848910192
20
18.6052728705175
30
0
41
1
10
333.723054542004
20
18.5994182373525
30
0
41
1
10
333.720260719401
20
18.5935643618331
30
0
0
SPLINE
5
254
100
AcDbEntity
8
1
62
256
6
ByLayer
370
18
48
1
60
0
100
AcDbSpline
70
4
71
3
72
8
73
4
40
0
40
0
40
0
40
0
40
1
40
1
40
1
40
1
41
1
10
335.447718658904
20
20.5185827624834
30
0
41
1
10
335.440736521365
20
20.5183632850665
30
0
41
1
10
335.433753680662
20
20.5181437895043
30
0
41
1
10
335.426770109632
20
20.5179242751023
30
0
0
SPLINE
5
255
100
AcDbEntity
8
1
62
256
6
ByLayer
370
18
48
1
60
0
100
AcDbSpline
70
4
71
3
72
16
73
12
40
0
40
0
40
0
40
0
40
0.249999999999926
40
0.249999999999926
40
0.499999999999853
40
0.499999999999853
40
0.749999999999779
40
0.749999999999779
40
0.874999999999889
40
0.874999999999889
40
1
40
1
40
1
40
1
41
1
10
334.949578404447
20
18.6515861300689
30
0
41
1
10
334.912632695002
20
18.6274918995701
30
0
41
1
10
334.873600862987
20
18.6063586553498
30
0
41
1
10
334.792050974888
20
18.5715906345416
30
0
41
1
10
334.749581019091
20
18.5578684711595
30
0
41
1
10
334.662173644713
20
18.5427899729611
30
0
41
1
10
334.617076070631
20
18.5410398123254
30
0
41
1
10
334.554942274469
20
18.5595959916799
30
0
41
1
10
334.535805486164
20
18.5696494772293
30
0
41
1
10
334.506598025698
20
18.5974401770841
30
0
41
1
10
334.496752889563
20
18.6150444104291
30
0
41
1
10
334.492044260438
20
18.634011823306
30
0
0
SPLINE
5
256
100
AcDbEntity
8
1
62
256
6
ByLayer
370
18
48
1
60
0
100
AcDbSpline
70
4
71
3
72
16
73
12
40
0
40
0
40
0
40
0
40
0.124999999999996
40
0.124999999999996
40
0.249999999999992
40
0.249999999999992
40
0.499999999999994
40
0.499999999999994
40
0.749999999999997
40
0.749999999999997
40
1
40
1
40
1
40
1
41
1
10
332.613292521034
20
19.5958510985777
30
0
41
1
10
332.596803796393
20
19.5876740338106
30
0
41
1
10
332.578370456003
20
19.5844906261921
30
0
41
1
10
332.541549359111
20
19.5905455159976
30
0
41
1
10
332.523329308087
20
19.5997675622111
30
0
41
1
10
332.475541772401
20
19.6375959223384
30
0
41
1
10
332.451656777269
20
19.6746012866889
30
0
41
1
10
332.41431737361
20
19.7534286996073
30
0
41
1
10
332.400919490776
20
19.795773039458
30
0
41
1
10
332.381692291382
20
19.8820460198544
30
0
41
1
10
332.375902102258
20
19.9262175089886
30
0
41
1
10
332.373587563661
20
19.9703815363177
30
0
0
SPLINE
5
257
100
AcDbEntity
8
1
62
256
6
ByLayer
370
18
48
1
60
0
100
AcDbSpline
70
4
71
3
72
16
73
12
40
0
40
0
40
0
40
0
40
0.249999999999931
40
0.249999999999931
40
0.499999999999862
40
0.499999999999862
40
0.749999999999794
40
0.749999999999794
40
0.874999999999897
40
0.874999999999897
40
1
40
1
40
1
40
1
41
1
10
333.130942374233
20
21.4638701857369
30
0
41
1
10
333.167888083678
20
21.4879644162357
30
0
41
1
10
333.206723307933
20
21.50908735668
30
0
41
1
10
333.287376517488
20
21.543808384557
30
0
41
1
10
333.329159266428
20
21.5574945329537
30
0
41
1
10
333.414240543032
20
21.5724511255333
30
0
41
1
10
333.457745823116
20
21.5741178375767
30
0
41
1
10
333.515756862152
20
21.5553455936768
30
0
41
1
10
333.533217353179
20
21.5452042571096
30
0
41
1
10
333.558615282611
20
21.5172139081931
30
0
41
1
10
333.566344607205
20
21.4994987898639
30
0
41
1
10
333.5689669195
20
21.480422037755
30
0
0
SPLINE
5
258
100
AcDbEntity
8
1
62
256
6
ByLayer
370
18
48
1
60
0
100
AcDbSpline
70
4
71
3
72
16
73
12
40
0
40
0
40
0
40
0
40
0.124999999999997
40
0.124999999999997
40
0.249999999999995
40
0.249999999999995
40
0.499999999999996
40
0.499999999999996
40
0.749999999999998
40
0.749999999999998
40
1
40
1
40
1
40
1
41
1
10
333.720260719401
20
18.5935643618331
30
0
41
1
10
333.719644545488
20
18.5742461965379
30
0
41
1
10
333.713760419381
20
18.5557212159762
30
0
41
1
10
333.691188562014
20
18.5251066758086
30
0
41
1
10
333.674595022252
20
18.5131604406875
30
0
41
1
10
333.61921632974
20
18.4888022675357
30
0
41
1
10
333.575812719756
20
18.4858698284707
30
0
41
1
10
333.489825556882
20
18.4918565872957
30
0
41
1
10
333.446810335939
20
18.5011011358898
30
0
41
1
10
333.363064025426
20
18.5271694043223
30
0
41
1
10
333.322140275375
20
18.5441530482252
30
0
41
1
10
333.282905578769
20
18.5642395084838
30
0
0
SPLINE
5
259
100
AcDbEntity
8
1
62
256
6
ByLayer
370
18
48
1
60
0
100
AcDbSpline
70
4
71
3
72
8
73
4
40
0
40
0
40
0
40
0
40
1
40
1
40
1
40
1
41
1
10
332.572830301093
20
20.3679162479639
30
0
41
1
10
332.579102416251
20
20.3683913964969
30
0
41
1
10
332.585375521301
20
20.3688666156139
30
0
41
1
10
332.591649655083
20
20.3693419080795
30
0
0
SPLINE
5
25A
100
AcDbEntity
8
1
62
256
6
ByLayer
370
18
48
1
60
0
100
AcDbSpline
70
4
71
3
72
18
73
14
40
0
40
0
40
0
40
0
40
0.125
40
0.125
40
0.25
40
0.25
40
0.5
40
0.5
40
0.75
40
0.75
40
0.875
40
0.875
40
1
40
1
40
1
40
1
41
1
10
332.591649655083
20
20.3693419080795
30
0
41
1
10
332.621706373273
20
20.3716188330216
30
0
41
1
10
332.650759011504
20
20.3846498663751
30
0
41
1
10
332.705368342991
20
20.4200202744565
30
0
41
1
10
332.730735245917
20
20.4424792670942
30
0
41
1
10
332.801477950946
20
20.5175682355544
30
0
41
1
10
332.84180102841
20
20.5779858693697
30
0
41
1
10
332.907460822347
20
20.7074927247832
30
0
41
1
10
332.932727396396
20
20.7763129342407
30
0
41
1
10
332.952799747394
20
20.8804532976281
30
0
41
1
10
332.956439009856
20
20.9152980747343
30
0
41
1
10
332.953961033485
20
20.9825975657169
30
0
41
1
10
332.948063376041
20
21.0151604733519
30
0
41
1
10
332.932977913372
20
21.042434456468
30
0
0
SPLINE
5
25B
100
AcDbEntity
8
1
62
256
6
ByLayer
370
18
48
1
60
0
100
AcDbSpline
70
4
71
3
72
8
73
4
40
0
40
0
40
0
40
0
40
1
40
1
40
1
40
1
41
1
10
335.467278257244
20
19.7449827735524
30
0
41
1
10
335.474246517044
20
19.7454944436212
30
0
41
1
10
335.481214048549
20
19.7460060560866
30
0
41
1
10
335.488180878845
20
19.7465176130972
30
0
0
SPLINE
5
25C
100
AcDbEntity
8
1
62
256
6
ByLayer
370
18
48
1
60
0
100
AcDbSpline
70
4
71
3
72
8
73
4
40
0
40
0
40
0
40
0
40
1
40
1
40
1
40
1
41
1
10
332.932977913372
20
21.042434456468
30
0
41
1
10
332.929830466663
20
21.0481249288308
30
0
41
1
10
332.926683633831
20
21.0538146564562
30
0
41
1
10
332.923537391602
20
21.0595036672751
30
0
0
SPLINE
5
25D
100
AcDbEntity
8
1
62
256
6
ByLayer
370
18
48
1
60
0
100
AcDbSpline
70
4
71
3
72
18
73
14
40
0
40
0
40
0
40
0
40
0.125
40
0.125
40
0.25
40
0.25
40
0.5
40
0.5
40
0.75
40
0.75
40
0.875
40
0.875
40
1
40
1
40
1
40
1
41
1
10
333.041973558791
20
18.9626736478568
30
0
41
1
10
333.054119530704
20
18.9913610436728
30
0
41
1
10
333.056595639897
20
19.0243955903742
30
0
41
1
10
333.051994819127
20
19.0917426289736
30
0
41
1
10
333.044726701382
20
19.1259394234773
30
0
41
1
10
333.013936404288
20
19.2272020893091
30
0
41
1
10
332.98151539874
20
19.2932439034786
30
0
41
1
10
332.902658290759
20
19.4151636377203
30
0
41
1
10
332.856416181565
20
19.4708504240906
30
0
41
1
10
332.778048431653
20
19.5382666733619
30
0
41
1
10
332.750402415977
20
19.5579732687024
30
0
41
1
10
332.692522889423
20
19.5873539821237
30
0
41
1
10
332.662302614252
20
19.5972781666941
30
0
41
1
10
332.632157802695
20
19.5964004065295
30
0
0
SPLINE
5
25E
100
AcDbEntity
8
1
62
256
6
ByLayer
370
18
48
1
60
0
100
AcDbSpline
70
4
71
3
72
16
73
12
40
0
40
0
40
0
40
0
40
0.250000000000003
40
0.250000000000003
40
0.500000000000006
40
0.500000000000006
40
0.750000000000009
40
0.750000000000009
40
0.875000000000005
40
0.875000000000005
40
1
40
1
40
1
40
1
41
1
10
332.373587563661
20
19.9703815363177
30
0
41
1
10
332.371271423236
20
20.0145761283671
30
0
41
1
10
332.372407501275
20
20.0590104388224
30
0
41
1
10
332.382520446237
20
20.1469205838479
30
0
41
1
10
332.391407291943
20
20.1904044069526
30
0
41
1
10
332.420383506409
20
20.2728791840188
30
0
41
1
10
332.44024721615
20
20.3122286216431
30
0
41
1
10
332.484290198764
20
20.3550358552321
30
0
41
1
10
332.501300020746
20
20.3658565026385
30
0
41
1
10
332.537082904702
20
20.3755498415721
30
0
41
1
10
332.555641302417
20
20.3743011537184
30
0
41
1
10
332.572830301093
20
20.3679162479639
30
0
0
SPLINE
5
25F
100
AcDbEntity
8
1
62
256
6
ByLayer
370
18
48
1
60
0
100
AcDbSpline
70
4
71
3
72
18
73
14
40
0
40
0
40
0
40
0
40
0.124999999999978
40
0.124999999999978
40
0.249999999999956
40
0.249999999999956
40
0.499999999999911
40
0.499999999999911
40
0.749999999999867
40
0.749999999999867
40
0.874999999999934
40
0.874999999999934
40
1
40
1
40
1
40
1
41
1
10
333.579140052454
20
21.4638306010386
30
0
41
1
10
333.595388166816
20
21.4373329953183
30
0
41
1
10
333.620492680186
20
21.4172523368981
30
0
41
1
10
333.67716058001
20
21.3851424725757
30
0
41
1
10
333.708737764999
20
21.3733492318907
30
0
41
1
10
333.807720811087
20
21.3470418969861
30
0
41
1
10
333.879596034659
20
21.3413721816381
30
0
41
1
10
334.024114107685
20
21.3489593641852
30
0
41
1
10
334.096487493506
20
21.3621381044142
30
0
41
1
10
334.197483174777
20
21.3989961508218
30
0
41
1
10
334.229829859739
20
21.4141899585621
30
0
41
1
10
334.287768651469
20
21.4522417073184
30
0
41
1
10
334.313561272449
20
21.4749574699891
30
0
41
1
10
334.330284066841
20
21.5031963907544
30
0
0
SPLINE
5
260
100
AcDbEntity
8
1
62
256
6
ByLayer
370
18
48
1
60
0
100
AcDbSpline
70
4
71
3
72
16
73
12
40
0
40
0
40
0
40
0
40
0.12500000000008
40
0.12500000000008
40
0.25000000000016
40
0.25000000000016
40
0.500000000000106
40
0.500000000000106
40
0.750000000000053
40
0.750000000000053
40
1
40
1
40
1
40
1
41
1
10
335.488180878845
20
19.7465176130972
30
0
41
1
10
335.507528113767
20
19.7402186313894
30
0
41
1
10
335.528320760924
20
19.7390909706683
30
0
41
1
10
335.568135799656
20
19.7491621901548
30
0
41
1
10
335.586979886049
20
19.7603266855012
30
0
41
1
10
335.634626218996
20
19.8031565227519
30
0
41
1
10
335.656108360969
20
19.8425394780105
30
0
41
1
10
335.687322985055
20
19.924959655284
30
0
41
1
10
335.69690951314
20
19.9685085570691
30
0
41
1
10
335.707909221677
20
20.0563656625847
30
0
41
1
10
335.709247753615
20
20.100910752159
30
0
41
1
10
335.706933215018
20
20.1450747794881
30
0
0
SPLINE
5
261
100
AcDbEntity
8
1
62
256
6
ByLayer
370
18
48
1
60
0
100
AcDbSpline
70
4
71
3
72
16
73
12
40
0
40
0
40
0
40
0
40
0.12500000000001
40
0.12500000000001
40
0.250000000000019
40
0.250000000000019
40
0.500000000000013
40
0.500000000000013
40
0.750000000000006
40
0.750000000000006
40
1
40
1
40
1
40
1
41
1
10
335.137473788336
20
19.0549301937859
30
0
41
1
10
335.154393389677
20
19.0438439668553
30
0
41
1
10
335.168006368874
20
19.0285581434688
30
0
41
1
10
335.184169888393
20
18.9919890366592
30
0
41
1
10
335.186640306171
20
18.9708649825911
30
0
41
1
10
335.181086510712
20
18.9087852228968
30
0
41
1
10
335.162365948466
20
18.8688892436461
30
0
41
1
10
335.114877928212
20
18.7961093688963
30
0
41
1
10
335.085604704618
20
18.7630276119172
30
0
41
1
10
335.021533503406
20
18.7028463739168
30
0
41
1
10
334.986498562457
20
18.6756636971396
30
0
41
1
10
334.949578404447
20
18.6515861300689
30
0
0
SPLINE
5
262
100
AcDbEntity
8
1
62
256
6
ByLayer
370
18
48
1
60
0
100
AcDbSpline
70
4
71
3
72
8
73
4
40
0
40
0
40
0
40
0
40
1
40
1
40
1
40
1
41
1
10
334.492044260438
20
18.634011823306
30
0
41
1
10
334.487959130938
20
18.6395051882219
30
0
41
1
10
334.483873668328
20
18.644999264733
30
0
41
1
10
334.479787859872
20
18.6504940805933
30
0
0
SPLINE
5
263
100
AcDbEntity
8
1
62
256
6
ByLayer
370
18
48
1
60
0
100
AcDbSpline
70
4
71
3
72
8
73
4
40
0
40
0
40
0
40
0
40
1
40
1
40
1
40
1
41
1
10
334.330284066841
20
21.5031963907544
30
0
41
1
10
334.333773128153
20
21.5090881887176
30
0
41
1
10
334.337261922796
20
21.514979215231
30
0
41
1
10
334.340750460537
20
21.520869499228
30
0
0
SPLINE
5
264
100
AcDbEntity
8
1
62
256
6
ByLayer
370
18
48
1
60
0
100
AcDbSpline
70
4
71
3
72
8
73
4
40
0
40
0
40
0
40
0
40
1
40
1
40
1
40
1
41
1
10
332.632157802695
20
19.5964004065295
30
0
41
1
10
332.625868357683
20
19.5962172697308
30
0
41
1
10
332.619579943435
20
19.5960341675169
30
0
41
1
10
332.613292521034
20
19.5958510985777
30
0
0
SPLINE
5
265
100
AcDbEntity
8
1
62
256
6
ByLayer
370
18
48
1
60
0
100
AcDbSpline
70
4
71
3
72
16
73
12
40
0
40
0
40
0
40
0
40
0.25
40
0.25
40
0.5
40
0.5
40
0.75
40
0.75
40
0.875
40
0.875
40
1
40
1
40
1
40
1
41
1
10
334.797615199911
20
21.5512168073221
30
0
41
1
10
334.836877049782
20
21.5311164457716
30
0
41
1
10
334.874477892119
20
21.5077999238725
30
0
41
1
10
334.944569817439
20
21.4545873102584
30
0
41
1
10
334.977122117244
20
21.4247716280577
30
0
41
1
10
335.032064130495
20
21.3571924907618
30
0
41
1
10
335.054909553839
20
21.3194680408846
30
0
41
1
10
335.066816231699
20
21.2577805311231
30
0
41
1
10
335.066428752105
20
21.2367746216405
30
0
41
1
10
335.054139032063
20
21.1989911092596
30
0
41
1
10
335.042252053172
20
21.182469236292
30
0
41
1
10
335.026642208376
20
21.1697227203217
30
0
0
SPLINE
5
266
100
AcDbEntity
8
1
62
256
6
ByLayer
370
18
48
1
60
0
100
AcDbSpline
70
4
71
3
72
16
73
12
40
0
40
0
40
0
40
0
40
0.25
40
0.25
40
0.5
40
0.5
40
0.75
40
0.75
40
0.875
40
0.875
40
1
40
1
40
1
40
1
41
1
10
333.282905578769
20
18.5642395084838
30
0
41
1
10
333.243643728898
20
18.5843398700342
30
0
41
1
10
333.205846278802
20
18.6076460881572
30
0
41
1
10
333.134857674937
20
18.6608117088402
30
0
41
1
10
333.101618168275
20
18.6905913760555
30
0
41
1
10
333.044350057249
20
18.7580486077327
30
0
41
1
10
333.019912339907
20
18.7956896090174
30
0
41
1
10
333.003882904923
20
18.8571610542336
30
0
41
1
10
333.002594087239
20
18.8780791126984
30
0
41
1
10
333.011074276246
20
18.9156629760177
30
0
41
1
10
333.020845443596
20
18.932073964001
30
0
41
1
10
333.034368971562
20
18.9447111407394
30
0
0
SPLINE
5
267
100
AcDbEntity
8
1
62
256
6
ByLayer
370
18
48
1
60
0
100
AcDbSpline
70
4
71
3
72
8
73
4
40
0
40
0
40
0
40
0
40
1
40
1
40
1
40
1
41
1
10
333.5689669195
20
21.480422037755
30
0
41
1
10
333.572357333862
20
21.4748922643615
30
0
41
1
10
333.575748370017
20
21.4693617945021
30
0
41
1
10
333.579140052454
20
21.4638306010386
30
0
0
SPLINE
5
268
100
AcDbEntity
8
1
62
256
6
ByLayer
370
18
48
1
60
0
100
AcDbSpline
70
4
71
2
72
12
73
9
40
0
40
0
40
0
40
0.25
40
0.5
40
0.5
40
0.75
40
0.75
40
0.875
40
1
40
1
40
1
41
1
10
343.107138951137
20
-17.8690887076892
30
0
41
1
10
343.155623071291
20
-17.8552613063921
30
0
41
1
10
343.241353049914
20
-17.8011436325353
30
0
41
1
10
343.275618576775
20
-17.7619219885091
30
0
41
1
10
343.308388915886
20
-17.7244117940675
30
0
41
1
10
343.329955610038
20
-17.6770583109075
30
0
41
1
10
343.339971554236
20
-17.6550665377782
30
0
41
1
10
343.354254536056
20
-17.6057185570737
30
0
41
1
10
343.357671578092
20
-17.5799039315736
30
0
0
SPLINE
5
269
100
AcDbEntity
8
1
62
256
6
ByLayer
370
18
48
1
60
0
100
AcDbSpline
70
4
71
1
72
4
73
2
40
0
40
0
40
1
40
1
41
1
10
342.77076804944
20
0.45028448491118
30
0
41
1
10
343.154124004945
20
0.477316542497874
30
0
0
SPLINE
5
26A
100
AcDbEntity
8
1
62
256
6
ByLayer
370
18
48
1
60
0
100
AcDbSpline
70
4
71
2
72
6
73
3
40
0
40
0
40
0
40
1
40
1
40
1
41
1
10
343.0865596579
20
0.0927578151670048
30
0
41
1
10
343.078905304498
20
0.14082410560377
30
0
41
1
10
343.065418342181
20
0.187604331653688
30
0
0
SPLINE
5
26B
100
AcDbEntity
8
1
62
256
6
ByLayer
370
18
48
1
60
0
100
AcDbSpline
70
4
71
3
72
12
73
8
40
0
40
0
40
0
40
0
40
0.25032094023853
40
0.25032094023853
40
0.500642181239162
40
0.500642181239162
40
1
40
1
40
1
40
1
41
1
10
343.104701016638
20
-18.7872910118615
30
0
41
1
10
343.112756568438
20
-18.7860217436371
30
0
41
1
10
343.120793615901
20
-18.7846302387784
30
0
41
1
10
343.136819285065
20
-18.78160367404
30
0
41
1
10
343.144809777557
20
-18.7799682600015
30
0
41
1
10
343.168650849052
20
-18.7747087898436
30
0
41
1
10
343.184428971329
20
-18.7707209880687
30
0
41
1
10
343.20006332926
20
-18.7662620044268
30
0
0
SPLINE
5
26C
100
AcDbEntity
8
1
62
256
6
ByLayer
370
18
48
1
60
0
100
AcDbSpline
70
4
71
1
72
4
73
2
40
0
40
0
40
1
40
1
41
1
10
344.993155758089
20
-9.3822326363599
30
0
41
1
10
344.496924283911
20
-8.97322550925625
30
0
0
SPLINE
5
26D
100
AcDbEntity
8
1
62
256
6
ByLayer
370
18
48
1
60
0
100
AcDbSpline
70
4
71
1
72
4
73
2
40
0
40
0
40
1
40
1
41
1
10
343.552045438294
20
-18.6658391827849
30
0
41
1
10
343.107138951137
20
-17.8690887076895
30
0
0
SPLINE
5
26E
100
AcDbEntity
8
1
62
256
6
ByLayer
370
18
48
1
60
0
100
AcDbSpline
70
4
71
3
72
8
73
4
40
0
40
0
40
0
40
0
40
1
40
1
40
1
40
1
41
1
10
344.991114580226
20
-9.15378165989031
30
0
41
1
10
344.996050494164
20
-9.19170110706088
30
0
41
1
10
344.999429899271
20
-9.22973283759362
30
0
41
1
10
344.999933060269
20
-9.2679614154338
30
0
0
SPLINE
5
26F
100
AcDbEntity
8
1
62
256
6
ByLayer
370
18
48
1
60
0
100
AcDbSpline
70
4
71
1
72
4
73
2
40
0
40
0
40
1
40
1
41
1
10
344.824553114988
20
-8.11401992693425
30
0
41
1
10
343.566951992565
20
-0.216785825045434
30
0
0
SPLINE
5
270
100
AcDbEntity
8
1
62
256
6
ByLayer
370
18
48
1
60
0
100
AcDbSpline
70
4
71
1
72
4
73
2
40
0
40
0
40
1
40
1
41
1
10
344.49391906728
20
-8.74489867480401
30
0
41
1
10
344.990150541465
20
-9.15390580190976
30
0
0
SPLINE
5
271
100
AcDbEntity
8
1
62
256
6
ByLayer
370
18
48
1
60
0
100
AcDbSpline
70
4
71
3
72
26
73
22
40
0
40
0
40
0
40
0
40
0.0032085384550565
40
0.018936755349265
40
0.0503931891376819
40
0.113306056714516
40
0.239131791868184
40
0.364957527021851
40
0.427870394598685
40
0.486851207951967
40
0.490783262175519
40
0.498647370622623
40
0.506511479069728
40
0.522239695963936
40
0.553696129752353
40
0.616608997329187
40
0.742434732482855
40
0.868260467636523
40
0.990154148566638
40
0.99408620279019
40
1
40
1
40
1
40
1
41
1
10
342.990972122074
20
-17.4874922954561
30
0
41
1
10
343.002550720797
20
-17.4751055447401
30
0
41
1
10
343.06308665776
20
-17.3955122109907
30
0
41
1
10
343.0770744341
20
-17.0887108409977
30
0
41
1
10
343.179817856291
20
-16.4564832845089
30
0
41
1
10
343.339223859705
20
-15.1564431138337
30
0
41
1
10
343.590526984382
20
-13.3174876627385
30
0
41
1
10
343.828773542461
20
-11.4717328300842
30
0
41
1
10
344.029607127534
20
-10.0203879013869
30
0
41
1
10
344.126272831556
20
-9.28280806995886
30
0
41
1
10
344.178363153967
20
-8.86998032606175
30
0
41
1
10
344.172424334604
20
-8.75994639603289
30
0
41
1
10
344.129720348683
20
-8.57707461648707
30
0
41
1
10
344.087126261422
20
-8.25483512115017
30
0
41
1
10
343.979251845853
20
-7.61208031695332
30
0
41
1
10
343.778141974509
20
-6.32607373012729
30
0
41
1
10
343.483838807003
20
-4.48897385201675
30
0
41
1
10
343.136385227812
20
-2.30739424317511
30
0
41
1
10
342.902659614204
20
-0.837670943866101
30
0
41
1
10
342.783003049588
20
-0.0707955725569889
30
0
41
1
10
342.76586083638
20
-0.0176259079946988
30
0
41
1
10
342.751730839989
20
0.0115585948182115
30
0
0
SPLINE
5
272
100
AcDbEntity
8
1
62
256
6
ByLayer
370
18
48
1
60
0
100
AcDbSpline
70
4
71
1
72
4
73
2
40
0
40
0
40
1
40
1
41
1
10
344.854591959314
20
-10.4290364323386
30
0
41
1
10
344.930382905499
20
-9.85646083273178
30
0
0
SPLINE
5
273
100
AcDbEntity
8
1
62
256
6
ByLayer
370
18
48
1
60
0
100
AcDbSpline
70
4
71
1
72
4
73
2
40
0
40
0
40
1
40
1
41
1
10
343.065418342181
20
0.187604331653745
30
0
41
1
10
343.545810676804
20
-0.121939308574724
30
0
0
SPLINE
5
274
100
AcDbEntity
8
1
62
256
6
ByLayer
370
18
48
1
60
0
100
AcDbSpline
70
4
71
1
72
4
73
2
40
0
40
0
40
1
40
1
41
1
10
343.093562912647
20
-17.8729605183284
30
0
41
1
10
343.20006332926
20
-18.7662225218243
30
0
0
SPLINE
5
275
100
AcDbEntity
8
1
62
256
6
ByLayer
370
18
48
1
60
0
100
AcDbSpline
70
4
71
1
72
4
73
2
40
0
40
0
40
1
40
1
41
1
10
344.930382905499
20
-9.85646083273178
30
0
41
1
10
344.971827802719
20
-9.54335830438473
30
0
0
SPLINE
5
276
100
AcDbEntity
8
1
62
256
6
ByLayer
370
18
48
1
60
0
100
AcDbSpline
70
4
71
2
72
6
73
3
40
0
40
0
40
0
40
1
40
1
40
1
41
1
10
342.998200600026
20
-17.8939874848004
30
0
41
1
10
343.046528285492
20
-17.8863745322911
30
0
41
1
10
343.093562912647
20
-17.8729605183284
30
0
0
SPLINE
5
277
100
AcDbEntity
8
1
62
256
6
ByLayer
370
18
48
1
60
0
100
AcDbSpline
70
4
71
3
72
10
73
6
40
0
40
0
40
0
40
0
40
0.508424882769528
40
0.508424882769528
40
1
40
1
40
1
40
1
41
1
10
343.200063329246
20
-18.7662620044309
30
0
41
1
10
343.260083675789
20
-18.74914395298
30
0
41
1
10
343.320104022748
20
-18.7320275208199
30
0
41
1
10
343.438155575176
20
-18.6983605147327
30
0
41
1
10
343.496186781224
20
-18.6818099213112
30
0
41
1
10
343.55421798678
20
-18.6652603100288
30
0
0
SPLINE
5
278
100
AcDbEntity
8
1
62
256
6
ByLayer
370
18
48
1
60
0
100
AcDbSpline
70
4
71
3
72
8
73
4
40
0
40
0
40
0
40
0
40
1
40
1
40
1
40
1
41
1
10
343.20006332926
20
-18.7662225218242
30
0
41
1
10
343.168706911117
20
-18.7751651978072
30
0
41
1
10
343.136919473577
20
-18.7821741866325
30
0
41
1
10
343.104701016638
20
-18.7872494883002
30
0
0
SPLINE
5
279
100
AcDbEntity
8
1
62
256
6
ByLayer
370
18
48
1
60
0
100
AcDbSpline
70
4
71
3
72
12
73
8
40
0
40
0
40
0
40
0
40
0.5
40
0.5
40
0.75
40
0.75
40
1
40
1
40
1
40
1
41
1
10
343.154124004946
20
0.477276691094744
30
0
41
1
10
343.221249435534
20
0.468424994289165
30
0
41
1
10
343.28550033976
20
0.439545886012439
30
0
41
1
10
343.362472678875
20
0.373723557158797
30
0
41
1
10
343.384884951008
20
0.347989244855711
30
0
41
1
10
343.421266529635
20
0.29128511136588
30
0
41
1
10
343.434727430496
20
0.260228711861515
30
0
41
1
10
343.444881431246
20
0.228098291278371
30
0
0
SPLINE
5
27A
100
AcDbEntity
8
1
62
256
6
ByLayer
370
18
48
1
60
0
100
AcDbSpline
70
4
71
1
72
4
73
2
40
0
40
0
40
1
40
1
41
1
10
343.566951992565
20
-0.216785825045264
30
0
41
1
10
343.0865596579
20
0.0927578151669763
30
0
0
SPLINE
5
27B
100
AcDbEntity
8
1
62
256
6
ByLayer
370
18
48
1
60
0
100
AcDbSpline
70
4
71
3
72
8
73
4
40
0
40
0
40
0
40
0
40
1
40
1
40
1
40
1
41
1
10
343.545810676804
20
-0.121939308574554
30
0
41
1
10
343.554801985035
20
-0.153126125941128
30
0
41
1
10
343.561849090289
20
-0.184741631431393
30
0
41
1
10
343.566951992565
20
-0.216785825045406
30
0
0
SPLINE
5
27C
100
AcDbEntity
8
1
62
256
6
ByLayer
370
18
48
1
60
0
100
AcDbSpline
70
4
71
1
72
4
73
2
40
0
40
0
40
1
40
1
41
1
10
343.444881431246
20
0.228138997645772
30
0
41
1
10
343.061525475771
20
0.201106940056348
30
0
0
SPLINE
5
27D
100
AcDbEntity
8
1
62
256
6
ByLayer
370
18
48
1
60
0
100
AcDbSpline
70
4
71
3
72
12
73
8
40
0
40
0
40
0
40
0
40
0.500000000000124
40
0.500000000000124
40
0.750000000000062
40
0.750000000000062
40
1
40
1
40
1
40
1
41
1
10
343.802578065244
20
-18.3766942580684
30
0
41
1
10
343.793678272129
20
-18.443456661236
30
0
41
1
10
343.764643241085
20
-18.5073611669089
30
0
41
1
10
343.698462089751
20
-18.5839163161173
30
0
41
1
10
343.672587931295
20
-18.6062074667656
30
0
41
1
10
343.615575711396
20
-18.6423925460987
30
0
41
1
10
343.584350504044
20
-18.6557807227792
30
0
41
1
10
343.552045438295
20
-18.6658798891525
30
0
0
SPLINE
5
27E
100
AcDbEntity
8
1
62
256
6
ByLayer
370
18
48
1
60
0
100
AcDbSpline
70
4
71
1
72
4
73
2
40
0
40
0
40
1
40
1
41
1
10
343.154124004946
20
0.477316542497874
30
0
41
1
10
342.683662983599
20
0.538918903835054
30
0
0
SPLINE
5
27F
100
AcDbEntity
8
1
62
256
6
ByLayer
370
18
48
1
60
0
100
AcDbSpline
70
4
71
2
72
7
73
4
40
0
40
0
40
0
40
0.5
40
1
40
1
40
1
41
1
10
344.496924283911
20
-8.97322550925628
30
0
41
1
10
344.504416423612
20
-8.91662486503401
30
0
41
1
10
344.502990374569
20
-8.80186287117928
30
0
41
1
10
344.49391906728
20
-8.74489867480395
30
0
0
SPLINE
5
280
100
AcDbEntity
8
1
62
256
6
ByLayer
370
18
48
1
60
0
100
AcDbSpline
70
4
71
1
72
4
73
2
40
0
40
0
40
1
40
1
41
1
10
343.357671578092
20
-17.5799039315732
30
0
41
1
10
343.802578065244
20
-18.3766544066653
30
0
0
SPLINE
5
281
100
AcDbEntity
8
1
62
256
6
ByLayer
370
18
48
1
60
0
100
AcDbSpline
70
4
71
3
72
8
73
4
40
0
40
0
40
0
40
0
40
1
40
1
40
1
40
1
41
1
10
344.999933060269
20
-9.2679614154338
30
0
41
1
10
345.000436224146
20
-9.30619021200513
30
0
41
1
10
344.998063746241
20
-9.34429721329425
30
0
41
1
10
344.994132053527
20
-9.38233247533665
30
0
0
SPLINE
5
282
100
AcDbEntity
8
1
62
256
6
ByLayer
370
18
48
1
60
0
100
AcDbSpline
70
4
71
1
72
4
73
2
40
0
40
0
40
1
40
1
41
1
10
344.915156809903
20
-8.68297504035004
30
0
41
1
10
344.824553114988
20
-8.11401992693425
30
0
0
SPLINE
5
283
100
AcDbEntity
8
1
62
256
6
ByLayer
370
18
48
1
60
0
100
AcDbSpline
70
4
71
1
72
4
73
2
40
0
40
0
40
1
40
1
41
1
10
343.104701016638
20
-18.7872494883002
30
0
41
1
10
342.998200600026
20
-17.8939874848004
30
0
0
SPLINE
5
284
100
AcDbEntity
8
1
62
256
6
ByLayer
370
18
48
1
60
0
100
AcDbSpline
70
4
71
3
72
9
73
5
40
0
40
0
40
0
40
0
40
0.790326890274267
40
1
40
1
40
1
40
1
41
1
10
344.071090777787
20
-8.80206560240157
30
0
41
1
10
344.071384389355
20
-8.81747549962799
30
0
41
1
10
344.070831457832
20
-8.8373076473778
30
0
41
1
10
344.069026231971
20
-8.85847351946325
30
0
41
1
10
344.06860401407
20
-8.86295822108127
30
0
0
SPLINE
5
285
100
AcDbEntity
8
1
62
256
6
ByLayer
370
18
48
1
60
0
100
AcDbSpline
70
4
71
1
72
4
73
2
40
0
40
0
40
1
40
1
41
1
10
344.964700644896
20
-8.99409058905275
30
0
41
1
10
344.915156809903
20
-8.68297504035004
30
0
0
SPLINE
5
286
100
AcDbEntity
8
1
62
256
6
ByLayer
370
18
48
1
60
0
100
AcDbSpline
70
4
71
1
72
4
73
2
40
0
40
0
40
1
40
1
41
1
10
344.990150541465
20
-9.15390580190973
30
0
41
1
10
344.964700644896
20
-8.99409058905275
30
0
0
SPLINE
5
287
100
AcDbEntity
8
1
62
256
6
ByLayer
370
18
48
1
60
0
100
AcDbSpline
70
4
71
2
72
12
73
9
40
0
40
0
40
0
40
0.25
40
0.5
40
0.5
40
0.75
40
0.75
40
0.875
40
1
40
1
40
1
41
1
10
343.061525475771
20
0.20110694005632
30
0
41
1
10
343.047622878045
20
0.249328819074719
30
0
41
1
10
342.993210900415
20
0.334595100984103
30
0
41
1
10
342.953775960488
20
0.368675292291272
30
0
41
1
10
342.916061777387
20
0.401268383024472
30
0
41
1
10
342.868450775595
20
0.422718427134072
30
0
41
1
10
342.846339406383
20
0.432680197041492
30
0
41
1
10
342.79672306053
20
0.446885924993353
30
0
41
1
10
342.770768049441
20
0.450284484911066
30
0
0
SPLINE
5
288
100
AcDbEntity
8
1
62
256
6
ByLayer
370
18
48
1
60
0
100
AcDbSpline
70
4
71
1
72
4
73
2
40
0
40
0
40
1
40
1
41
1
10
344.971827802719
20
-9.54335830438473
30
0
41
1
10
344.993155758089
20
-9.3822326363599
30
0
0
SPLINE
5
289
100
AcDbEntity
8
1
62
256
6
ByLayer
370
18
48
1
60
0
100
AcDbSpline
70
4
71
1
72
4
73
2
40
0
40
0
40
1
40
1
41
1
10
343.802578065244
20
-18.3766544066653
30
0
41
1
10
344.854591959314
20
-10.4290364323386
30
0
0
SPLINE
5
28A
100
AcDbEntity
8
1
62
256
6
ByLayer
370
18
48
1
60
0
100
AcDbSpline
70
4
71
3
72
29
73
25
40
0
40
0
40
0
40
0
40
0.0028990929772353
40
0.0106094309815445
40
0.0260301069901627
40
0.0568714590073992
40
0.118554163041872
40
0.241919571110818
40
0.365284979179764
40
0.426967683214237
40
0.484795218246556
40
0.48865038724871
40
0.496360725253019
40
0.504071063257329
40
0.519491739265947
40
0.550333091283183
40
0.612015795317656
40
0.735381203386602
40
0.858746611455548
40
0.97825685052234
40
0.982112019524494
40
0.989822357528803
40
0.997532695533113
40
1
40
1
40
1
40
1
41
1
10
342.94911060759
20
-17.6985764117124
30
0
41
1
10
342.9699490195
20
-17.6894596890368
30
0
41
1
10
343.045826956055
20
-17.6504750721506
30
0
41
1
10
343.203912298434
20
-17.4994465102787
30
0
41
1
10
343.221436994429
20
-17.1150679922822
30
0
41
1
10
343.323300052747
20
-16.4882577198205
30
0
41
1
10
343.48292671938
20
-15.1864179240251
30
0
41
1
10
343.734168104073
20
-13.3479142662695
30
0
41
1
10
343.972399151119
20
-11.5022796014198
30
0
41
1
10
344.173213606232
20
-10.0510729173832
30
0
41
1
10
344.269990981291
20
-9.31264101224519
30
0
41
1
10
344.323738627897
20
-8.88667859426073
30
0
41
1
10
344.316425230223
20
-8.75117659652489
30
0
41
1
10
344.272451801709
20
-8.5628686680827
30
0
41
1
10
344.230451521236
20
-8.24512153335519
30
0
41
1
10
344.122295761826
20
-7.60069038073777
30
0
41
1
10
343.921268209832
20
-6.31521018888984
30
0
41
1
10
343.626933134506
20
-4.47791113571398
30
0
41
1
10
343.279492452614
20
-2.29641250599374
30
0
41
1
10
343.04580238702
20
-0.826912741211487
30
0
41
1
10
342.922305911492
20
-0.0354274948338684
30
0
41
1
10
342.869790043798
20
0.111065124348499
30
0
41
1
10
342.765438385546
20
0.219114173030931
30
0
41
1
10
342.700123902343
20
0.254987051816414
30
0
41
1
10
342.684024608823
20
0.262432518801432
30
0
0
SPLINE
5
28B
100
AcDbEntity
8
1
62
256
6
ByLayer
370
13
48
1
60
0
100
AcDbSpline
70
4
71
1
72
4
73
2
40
0
40
0
40
1
40
1
41
1
10
322.917534337479
20
19.5458302239676
30
0
41
1
10
322.861536318056
20
19.5425501848526
30
0
0
SPLINE
5
28C
100
AcDbEntity
8
1
62
256
6
ByLayer
370
13
48
1
60
0
100
AcDbSpline
70
4
71
3
72
8
73
4
40
0
40
0
40
0
40
0
40
1
40
1
40
1
40
1
41
1
10
342.528786202937
20
30.4850616030584
30
0
41
1
10
342.438369970162
20
30.4853082702159
30
0
41
1
10
342.347918919547
20
30.4841686547017
30
0
41
1
10
342.257434069998
20
30.4816833246323
30
0
0
SPLINE
5
28D
100
AcDbEntity
8
1
62
256
6
ByLayer
370
13
48
1
60
0
100
AcDbSpline
70
4
71
3
72
9
73
5
40
0
40
0
40
0
40
0
40
0.806009473585805
40
1
40
1
40
1
40
1
41
1
10
324.194258582616
20
29.5350324105389
30
0
41
1
10
324.21341291418
20
29.53651113932
30
0
41
1
10
324.237207570513
20
29.537916508477
30
0
41
1
10
324.260998965793
20
29.539362027012
30
0
41
1
10
324.265614185608
20
29.5396434963162
30
0
0
SPLINE
5
28E
100
AcDbEntity
8
1
62
256
6
ByLayer
370
13
48
1
60
0
100
AcDbSpline
70
4
71
3
72
18
73
14
40
0
40
0
40
0
40
0
40
0.500000000000037
40
0.500000000000037
40
0.750000000000043
40
0.750000000000043
40
0.875000000000046
40
0.875000000000046
40
0.906250000000034
40
0.906250000000034
40
0.937500000000023
40
0.937500000000023
40
1
40
1
40
1
40
1
41
1
10
334.501488826214
20
12.141017412258
30
0
41
1
10
335.631701020453
20
12.2002493234768
30
0
41
1
10
336.761913443815
20
12.2594762018264
30
0
41
1
10
338.457231781616
20
12.348324125993
30
0
41
1
10
339.022337390054
20
12.3779526469621
30
0
41
1
10
339.869996628215
20
12.4223748854587
30
0
41
1
10
340.152550680093
20
12.4371580975528
30
0
41
1
10
340.505741377347
20
12.4556835883291
30
0
41
1
10
340.576379002362
20
12.459401488379
30
0
41
1
10
340.717656118226
20
12.4667908566167
30
0
41
1
10
340.78825454976
20
12.4714840990474
30
0
41
1
10
341.000523485942
20
12.4737771032559
30
0
41
1
10
341.142548097759
20
12.4625647941472
30
0
41
1
10
341.285133633641
20
12.4373937091902
30
0
0
SPLINE
5
28F
100
AcDbEntity
8
1
62
256
6
ByLayer
370
13
48
1
60
0
100
AcDbSpline
70
4
71
2
72
6
73
3
40
0
40
0
40
0
40
1
40
1
40
1
41
0.998850556413393
10
322.927420910473
20
19.4753289192867
30
0
41
0.998270163111906
10
322.924485202886
20
19.4398149746293
30
0
41
1
10
322.924957890197
20
19.4041803998474
30
0
0
SPLINE
5
290
100
AcDbEntity
8
1
62
256
6
ByLayer
370
13
48
1
60
0
100
AcDbSpline
70
4
71
2
72
6
73
3
40
0
40
0
40
0
40
1
40
1
40
1
41
1
10
323.185408335082
20
19.4201631877424
30
0
41
0.997409491337351
10
323.186173585832
20
19.3624730733445
30
0
41
1
10
323.195172435203
20
19.3054864175089
30
0
0
SPLINE
5
291
100
AcDbEntity
8
1
62
256
6
ByLayer
370
13
48
1
60
0
100
AcDbSpline
70
4
71
3
72
20
73
16
40
0
40
0
40
0
40
0
40
0.062499999999914
40
0.062499999999914
40
0.124999999999828
40
0.124999999999828
40
0.140624999999818
40
0.140624999999818
40
0.156249999999807
40
0.156249999999807
40
0.187499999999808
40
0.187499999999808
40
0.249999999999833
40
0.499999999999889
40
1
40
1
40
1
40
1
41
1
10
327.170474822346
20
11.2596821338942
30
0
41
1
10
327.300874297866
20
11.3468899339801
30
0
41
1
10
327.438471529461
20
11.4180763267453
30
0
41
1
10
327.727512235076
20
11.5296289111606
30
0
41
1
10
327.880639845625
20
11.5699402705023
30
0
41
1
10
328.071713490492
20
11.5981130699243
30
0
41
1
10
328.109997755032
20
11.6026958587656
30
0
41
1
10
328.186708728795
20
11.609706867295
30
0
41
1
10
328.225153718474
20
11.6118585830987
30
0
41
1
10
328.340521309586
20
11.6178203001905
30
0
41
1
10
328.41742669153
20
11.6218907575597
30
0
41
1
10
328.648150746886
20
11.6339824929281
30
0
41
1
10
329.417230931406
20
11.6742882774893
30
0
41
1
10
331.41683941116
20
11.7790833173487
30
0
41
1
10
333.262631854001
20
11.8758172002954
30
0
41
1
10
334.493160149232
20
11.9403064555935
30
0
0
SPLINE
5
292
100
AcDbEntity
8
1
62
256
6
ByLayer
370
13
48
1
60
0
100
AcDbSpline
70
4
71
3
72
12
73
8
40
0
40
0
40
0
40
0
40
0.472979732284417
40
0.472979732284417
40
0.945959464568834
40
0.945959464568834
40
1
40
1
40
1
40
1
41
1
10
342.832443851761
20
10.7715703651999
30
0
41
1
10
342.813777200486
20
10.771114215511
30
0
41
1
10
342.795938379865
20
10.7712802927199
30
0
41
1
10
342.759962082444
20
10.7713879705004
30
0
41
1
10
342.741923558345
20
10.7714049285008
30
0
41
1
10
342.721843196825
20
10.7714378537974
30
0
41
1
10
342.7197842779
20
10.7714413153572
30
0
41
1
10
342.717725465554
20
10.7714448549394
30
0
0
SPLINE
5
293
100
AcDbEntity
8
1
62
256
6
ByLayer
370
13
48
1
60
0
100
AcDbSpline
70
4
71
2
72
6
73
3
40
0
40
0
40
0
40
1
40
1
40
1
41
1
10
322.933997650061
20
19.2980108141183
30
0
41
0.997409491337352
10
322.925666371566
20
19.3507699703988
30
0
41
1
10
322.924957890197
20
19.4041803998474
30
0
0
SPLINE
5
294
100
AcDbEntity
8
1
62
256
6
ByLayer
370
13
48
1
60
0
100
AcDbSpline
70
4
71
3
72
26
73
22
40
0
40
0
40
0
40
0
40
0.0312499999999947
40
0.0312499999999947
40
0.0624999999999893
40
0.0624999999999893
40
0.0937499999999841
40
0.0937499999999841
40
0.124999999999979
40
0.124999999999979
40
0.187499999999979
40
0.187499999999979
40
0.249999999999979
40
0.249999999999979
40
0.374999999999981
40
0.374999999999981
40
0.499999999999982
40
0.499999999999982
40
0.749999999999991
40
0.749999999999991
40
1
40
1
40
1
40
1
41
1
10
343.878628430143
20
11.3217476993584
30
0
41
1
10
343.877378751968
20
11.3044280986419
30
0
41
1
10
343.87565363583
20
11.2854243282981
30
0
41
1
10
343.871632945899
20
11.2480257822165
30
0
41
1
10
343.869404039445
20
11.2305150959782
30
0
41
1
10
343.865046226659
20
11.2001928442424
30
0
41
1
10
343.862882897151
20
11.1869303603885
30
0
41
1
10
343.858729906826
20
11.1632879884535
30
0
41
1
10
343.856709599937
20
11.1527403118191
30
0
41
1
10
343.850850702832
20
11.1238723754533
30
0
41
1
10
343.847178314922
20
11.1081416345998
30
0
41
1
10
343.840089063339
20
11.080352651352
30
0
41
1
10
343.836700838002
20
11.0684639314574
30
0
41
1
10
343.82682589246
20
11.0365134463499
30
0
41
1
10
343.820656014936
20
11.0202009954637
30
0
41
1
10
343.8087711955
20
10.9927250362152
30
0
41
1
10
343.803074131045
20
10.9817212986648
30
0
41
1
10
343.786479085843
20
10.9542393926099
30
0
41
1
10
343.776097174029
20
10.9431926348003
30
0
41
1
10
343.756125135291
20
10.9294086391112
30
0
41
1
10
343.746570804231
20
10.9268299173959
30
0
41
1
10
343.737304815314
20
10.9271322078849
30
0
0
SPLINE
5
295
100
AcDbEntity
8
1
62
256
6
ByLayer
370
13
48
1
60
0
100
AcDbSpline
70
4
71
3
72
8
73
4
40
0
40
0
40
0
40
0
40
1
40
1
40
1
40
1
41
1
10
343.099151700739
20
10.7800780088056
30
0
41
1
10
343.007159633021
20
10.7741538835816
30
0
41
1
10
342.918638184616
20
10.7719640572227
30
0
41
1
10
342.832443851761
20
10.7715703651999
30
0
0
SPLINE
5
296
100
AcDbEntity
8
1
62
256
6
ByLayer
370
13
48
1
60
0
100
AcDbSpline
70
4
71
3
72
18
73
14
40
0
40
0
40
0
40
0
40
0.500000000000012
40
0.500000000000012
40
0.750000000000018
40
0.750000000000018
40
0.875000000000033
40
0.875000000000033
40
0.906250000000025
40
0.906250000000025
40
0.937500000000017
40
0.937500000000017
40
1
40
1
40
1
40
1
41
1
10
333.6714405602
20
27.9792818334658
30
0
41
1
10
332.54122836596
20
27.920049922247
30
0
41
1
10
331.411015942598
20
27.8608230438974
30
0
41
1
10
329.715697604797
20
27.7719751197308
30
0
41
1
10
329.15059199636
20
27.7423465987617
30
0
41
1
10
328.302932758198
20
27.6979243602651
30
0
41
1
10
328.02037870632
20
27.683141148171
30
0
41
1
10
327.667188009067
20
27.6646156573947
30
0
41
1
10
327.596550384051
20
27.6608977573448
30
0
41
1
10
327.455273268188
20
27.6535083891071
30
0
41
1
10
327.384674836653
20
27.6488151466764
30
0
41
1
10
327.172405900472
20
27.6465221424679
30
0
41
1
10
327.030381288655
20
27.6577344515766
30
0
41
1
10
326.887795752773
20
27.6829055365336
30
0
0
SPLINE
5
297
100
AcDbEntity
8
1
62
256
6
ByLayer
370
13
48
1
60
0
100
AcDbSpline
70
4
71
3
72
10
73
6
40
0
40
0
40
0
40
0
40
0.5
40
0.5
40
1
40
1
40
1
40
1
41
1
10
341.247715829493
20
29.1171232490856
30
0
41
1
10
341.243968284355
20
29.1169268485672
30
0
41
1
10
341.253714624294
20
29.1067516423429
30
0
41
1
10
341.293829011785
20
29.0732362589372
30
0
41
1
10
341.324274372973
20
29.0499320539989
30
0
41
1
10
341.356213601929
20
29.0270595890872
30
0
0
SPLINE
5
298
100
AcDbEntity
8
1
62
256
6
ByLayer
370
13
48
1
60
0
100
AcDbSpline
70
4
71
2
72
6
73
3
40
0
40
0
40
0
40
1
40
1
40
1
41
1
10
322.915426832951
20
19.6523631138043
30
0
41
0.997409491337352
10
322.9126560276
20
19.5990221219641
30
0
41
1
10
322.917534337479
20
19.5458302239676
30
0
0
SPLINE
5
299
100
AcDbEntity
8
1
62
256
6
ByLayer
370
13
48
1
60
0
100
AcDbSpline
70
4
71
3
72
20
73
16
40
0
40
0
40
0
40
0
40
0.500000000000037
40
0.500000000000037
40
0.750000000000055
40
0.750000000000055
40
0.875000000000076
40
0.875000000000076
40
0.906250000000063
40
0.906250000000063
40
0.921875000000045
40
0.921875000000045
40
0.937500000000026
40
0.937500000000026
40
1
40
1
40
1
40
1
41
1
10
334.493160149233
20
11.9403064555935
30
0
41
1
10
335.615899162106
20
11.9991467139726
30
0
41
1
10
336.738638428837
20
12.057982128375
30
0
41
1
10
338.422746959894
20
12.1462422917817
30
0
41
1
10
338.984115855181
20
12.175674081811
30
0
41
1
10
339.826170123184
20
12.2198041164168
30
0
41
1
10
340.106856028708
20
12.2344921950893
30
0
41
1
10
340.457711465769
20
12.252889400987
30
0
41
1
10
340.527882140548
20
12.2565767151946
30
0
41
1
10
340.633138727711
20
12.2620967156276
30
0
41
1
10
340.668224927354
20
12.2639229947642
30
0
41
1
10
340.738396521055
20
12.2675935123902
30
0
41
1
10
340.773471082843
20
12.2696849887284
30
0
41
1
10
340.949093813226
20
12.2744428689265
30
0
41
1
10
341.090196802317
20
12.2644564958451
30
0
41
1
10
341.231959265144
20
12.2394307106315
30
0
0
SPLINE
5
29A
100
AcDbEntity
8
1
62
256
6
ByLayer
370
13
48
1
60
0
100
AcDbSpline
70
4
71
1
72
4
73
2
40
0
40
0
40
1
40
1
41
1
10
324.194258582616
20
29.5350324105389
30
0
41
1
10
324.4015222825
20
29.2995199016502
30
0
0
SPLINE
5
29B
100
AcDbEntity
8
1
62
256
6
ByLayer
370
13
48
1
60
0
100
AcDbSpline
70
4
71
3
72
10
73
6
40
0
40
0
40
0
40
0
40
0.381050048121835
40
0.381050048121835
40
1
40
1
40
1
40
1
41
1
10
341.221680114193
20
29.0294648848496
30
0
41
1
10
341.226925883219
20
29.0292449591593
30
0
41
1
10
341.237901481099
20
29.0289572051086
30
0
41
1
10
341.279055682205
20
29.0281202182054
30
0
41
1
10
341.316989071679
20
29.0275292930947
30
0
41
1
10
341.356213601929
20
29.0270595890872
30
0
0
SPLINE
5
29C
100
AcDbEntity
8
1
62
256
6
ByLayer
370
13
48
1
60
0
100
AcDbSpline
70
4
71
2
72
6
73
3
40
0
40
0
40
0
40
1
40
1
40
1
41
1
10
323.185408335082
20
19.4201631877424
30
0
41
0.997409491337352
10
323.184643084332
20
19.4778533021388
30
0
41
1
10
323.19212727077
20
19.535052849741
30
0
0
SPLINE
5
29D
100
AcDbEntity
8
1
62
256
6
ByLayer
370
13
48
1
60
0
100
AcDbSpline
70
4
71
3
72
14
73
10
40
0
40
0
40
0
40
0
40
0.0743014863487078
40
0.0743014863487078
40
0.474636623175305
40
0.474636623175305
40
0.874971760001902
40
0.874971760001902
40
1
40
1
40
1
40
1
41
1
10
343.629849285383
20
10.809242626468
30
0
41
1
10
343.621288260404
20
10.8002812629647
30
0
41
1
10
343.612519004896
20
10.7915240872182
30
0
41
1
10
343.555208317606
20
10.7369184859574
30
0
41
1
10
343.500248778501
20
10.6963768634003
30
0
41
1
10
343.383929202627
20
10.6312902393364
30
0
41
1
10
343.3212764162
20
10.6058793493762
30
0
41
1
10
343.236337125313
20
10.5830034136334
30
0
41
1
10
343.215990000784
20
10.578577231497
30
0
41
1
10
343.195555948186
20
10.5748168338609
30
0
0
SPLINE
5
29E
100
AcDbEntity
8
1
62
256
6
ByLayer
370
13
48
1
60
0
100
AcDbSpline
70
4
71
3
72
10
73
6
40
0
40
0
40
0
40
0
40
0.5
40
0.5
40
1
40
1
40
1
40
1
41
1
10
326.90713553584
20
11.0880480536719
30
0
41
1
10
326.903386919157
20
11.0878515969961
30
0
41
1
10
326.883000894353
20
11.0879031988233
30
0
41
1
10
326.821690327672
20
11.0883960570529
30
0
41
1
10
326.780756841818
20
11.0888297537747
30
0
41
1
10
326.741532311568
20
11.0892994577822
30
0
0
SPLINE
5
29F
100
AcDbEntity
8
1
62
256
6
ByLayer
370
13
48
1
60
0
100
AcDbSpline
70
4
71
3
72
20
73
16
40
0
40
0
40
0
40
0
40
0.499999999999988
40
0.499999999999988
40
0.749999999999982
40
0.749999999999982
40
0.874999999999991
40
0.874999999999991
40
0.906249999999999
40
0.906249999999999
40
0.921874999999991
40
0.921874999999991
40
0.937499999999983
40
0.937499999999983
40
1
40
1
40
1
40
1
41
1
10
333.642177500722
20
28.1780226907031
30
0
41
1
10
332.519438487849
20
28.119182432324
30
0
41
1
10
331.396699221118
20
28.0603470179216
30
0
41
1
10
329.71259069006
20
27.9720868545149
30
0
41
1
10
329.151221794774
20
27.9426550644857
30
0
41
1
10
328.309167526772
20
27.8985250298799
30
0
41
1
10
328.028481621247
20
27.8838369512073
30
0
41
1
10
327.677626184186
20
27.8654397453096
30
0
41
1
10
327.607455509407
20
27.861752431102
30
0
41
1
10
327.502198922243
20
27.856232430669
30
0
41
1
10
327.467112722601
20
27.8544061515324
30
0
41
1
10
327.3969411289
20
27.8507356339064
30
0
41
1
10
327.361866567112
20
27.8486441575682
30
0
41
1
10
327.186243836729
20
27.8438862773702
30
0
41
1
10
327.045140847639
20
27.8538726504515
30
0
41
1
10
326.903378384812
20
27.8788984356652
30
0
0
SPLINE
5
2A0
100
AcDbEntity
8
1
62
256
6
ByLayer
370
13
48
1
60
0
100
AcDbSpline
70
4
71
1
72
4
73
2
40
0
40
0
40
1
40
1
41
1
10
323.19212727077
20
19.535052849741
30
0
41
1
10
322.931178388186
20
19.5105470841728
30
0
0
SPLINE
5
2A1
100
AcDbEntity
8
1
62
256
6
ByLayer
370
13
48
1
60
0
100
AcDbSpline
70
4
71
2
72
6
73
3
40
0
40
0
40
0
40
1
40
1
40
1
41
1
10
322.931178388186
20
19.5105470841728
30
0
41
0.999139328225446
10
322.928880286603
20
19.4929833353328
30
0
41
0.998850556413393
10
322.927420910473
20
19.4753289192867
30
0
0
SPLINE
5
2A2
100
AcDbEntity
8
1
62
256
6
ByLayer
370
13
48
1
60
0
100
AcDbSpline
70
4
71
3
72
22
73
18
40
0
40
0
40
0
40
0
40
0.0625000000000481
40
0.0625000000000481
40
0.0937500000000721
40
0.0937500000000721
40
0.125000000000096
40
0.125000000000096
40
0.15625000000012
40
0.15625000000012
40
0.171875000000132
40
0.171875000000132
40
0.187500000000144
40
0.187500000000144
40
0.250000000000148
40
0.500000000000099
40
1
40
1
40
1
40
1
41
1
10
341.094064212913
20
28.6931433484027
30
0
41
1
10
340.961005900456
20
28.6041573868703
30
0
41
1
10
340.820839324879
20
28.5302654526825
30
0
41
1
10
340.600228061627
20
28.4414294456136
30
0
41
1
10
340.524581694802
20
28.4153970610193
30
0
41
1
10
340.371448563971
20
28.3714601344163
30
0
41
1
10
340.294557569088
20
28.3537048236151
30
0
41
1
10
340.14015635169
20
28.3262357047102
30
0
41
1
10
340.062653232396
20
28.3164296517572
30
0
41
1
10
339.945925729184
20
28.3078608307015
30
0
41
1
10
339.906934890419
20
28.3060651650234
30
0
41
1
10
339.828990531512
20
28.301989201228
30
0
41
1
10
339.790018989498
20
28.2999429413144
30
0
41
1
10
339.595159803852
20
28.2897308041218
30
0
41
1
10
338.815723061266
20
28.2488822553513
30
0
41
1
10
336.789187530543
20
28.1426760285479
30
0
41
1
10
334.918539348338
20
28.0446395114986
30
0
41
1
10
333.6714405602
20
27.9792818334658
30
0
0
SPLINE
5
2A3
100
AcDbEntity
8
1
62
256
6
ByLayer
370
13
48
1
60
0
100
AcDbSpline
70
4
71
1
72
4
73
2
40
0
40
0
40
1
40
1
41
1
10
324.638995237126
20
29.3005326404353
30
0
41
1
10
324.448819731772
20
29.520995412759
30
0
0
SPLINE
5
2A4
100
AcDbEntity
8
1
62
256
6
ByLayer
370
13
48
1
60
0
100
AcDbSpline
70
4
71
3
72
9
73
5
40
0
40
0
40
0
40
0
40
0.806009473584852
40
1
40
1
40
1
40
1
41
1
10
342.257434069998
20
30.4816833246324
30
0
41
1
10
342.238230098619
20
30.4811517799391
30
0
41
1
10
342.214418890825
20
30.4800622314763
30
0
41
1
10
342.190606729466
20
30.479012953322
30
0
41
1
10
342.185987370755
20
30.478810458873
30
0
0
SPLINE
5
2A5
100
AcDbEntity
8
1
62
256
6
ByLayer
370
13
48
1
60
0
100
AcDbSpline
70
4
71
3
72
24
73
20
40
0
40
0
40
0
40
0
40
0.125
40
0.125
40
0.250000000000001
40
0.250000000000001
40
0.375000000000001
40
0.375000000000001
40
0.500000000000001
40
0.500000000000001
40
0.625000000000002
40
0.625000000000002
40
0.750000000000002
40
0.750000000000002
40
0.812500000000001
40
0.812500000000001
40
0.875000000000001
40
0.875000000000001
40
1
40
1
40
1
40
1
41
1
10
343.519907282623
20
29.8068537013108
30
0
41
1
10
343.511721551861
20
29.8625771765031
30
0
41
1
10
343.497654013588
20
29.9162472471162
30
0
41
1
10
343.458423222151
20
30.0197137505682
30
0
41
1
10
343.433179888666
20
30.0700233618697
30
0
41
1
10
343.372216245985
20
30.1641335064614
30
0
41
1
10
343.336632512933
20
30.2081443260879
30
0
41
1
10
343.258178011298
20
30.2866797110337
30
0
41
1
10
343.215132113958
20
30.321490481007
30
0
41
1
10
343.121563263665
20
30.3823851966202
30
0
41
1
10
343.071591174824
20
30.4077973337142
30
0
41
1
10
342.968456472265
20
30.4475900227251
30
0
41
1
10
342.914301168596
20
30.4622780990138
30
0
41
1
10
342.831909322848
20
30.4758600816414
30
0
41
1
10
342.804407767004
20
30.4788900648655
30
0
41
1
10
342.74933718148
20
30.482263540527
30
0
41
1
10
342.721765925024
20
30.4825183731605
30
0
41
1
10
342.639074223897
20
30.4841615246824
30
0
41
1
10
342.583937737628
20
30.4849111425506
30
0
41
1
10
342.528786202937
20
30.4850616030584
30
0
0
SPLINE
5
2A6
100
AcDbEntity
8
1
62
256
6
ByLayer
370
13
48
1
60
0
100
AcDbSpline
70
4
71
3
72
28
73
24
40
0
40
0
40
0
40
0
40
0.124999999999837
40
0.124999999999837
40
0.249999999999674
40
0.249999999999674
40
0.374999999999511
40
0.374999999999511
40
0.499999999999348
40
0.499999999999348
40
0.624999999999186
40
0.624999999999186
40
0.687499999999214
40
0.687499999999214
40
0.749999999999242
40
0.749999999999242
40
0.781249999999256
40
0.781249999999256
40
0.81249999999927
40
0.81249999999927
40
0.874999999999513
40
0.874999999999513
40
1
40
1
40
1
40
1
41
1
10
343.737304815314
20
10.9271322078849
30
0
41
1
10
343.718607248923
20
10.9163844901973
30
0
41
1
10
343.698778985872
20
10.9057760684438
30
0
41
1
10
343.656248346213
20
10.8849133007432
30
0
41
1
10
343.633349298501
20
10.8745944123911
30
0
41
1
10
343.584848893957
20
10.8550340715427
30
0
41
1
10
343.559217785611
20
10.8457352294117
30
0
41
1
10
343.504192918094
20
10.8284490538318
30
0
41
1
10
343.475164664662
20
10.8206565188988
30
0
41
1
10
343.415790725443
20
10.8079330242375
30
0
41
1
10
343.385541022073
20
10.8030317977215
30
0
41
1
10
343.342051050465
20
10.7984306750158
30
0
41
1
10
343.327691665574
20
10.7973182303356
30
0
41
1
10
343.299502478506
20
10.7955382835193
30
0
41
1
10
343.285546434426
20
10.7947863359402
30
0
41
1
10
343.265021582168
20
10.7940660818771
30
0
41
1
10
343.258147997225
20
10.7937941504819
30
0
41
1
10
343.243814828189
20
10.7926665032284
30
0
41
1
10
343.236398516223
20
10.7918521719669
30
0
41
1
10
343.213887857708
20
10.7891390872475
30
0
41
1
10
343.199078594614
20
10.7875314795321
30
0
41
1
10
343.155939174761
20
10.7840183388325
30
0
41
1
10
343.127396658904
20
10.7818969337768
30
0
41
1
10
343.099151700739
20
10.7800780088056
30
0
0
SPLINE
5
2A7
100
AcDbEntity
8
1
62
256
6
ByLayer
370
13
48
1
60
0
100
AcDbSpline
70
4
71
1
72
4
73
2
40
0
40
0
40
1
40
1
41
1
10
322.924957890197
20
19.4041803998474
30
0
41
1
10
323.185408335082
20
19.4201631877424
30
0
0
SPLINE
5
2A8
100
AcDbEntity
8
1
62
256
6
ByLayer
370
13
48
1
60
0
100
AcDbSpline
70
4
71
3
72
9
73
5
40
0
40
0
40
0
40
0
40
0.806009473587277
40
1
40
1
40
1
40
1
41
1
10
325.877903579957
20
9.63664582166425
30
0
41
1
10
325.897107551336
20
9.63717736635752
30
0
41
1
10
325.92091875913
20
9.63826691482029
30
0
41
1
10
325.944730920488
20
9.63931619297466
30
0
41
1
10
325.9493502792
20
9.63951868742356
30
0
0
SPLINE
5
2A9
100
AcDbEntity
8
1
62
256
6
ByLayer
370
13
48
1
60
0
100
AcDbSpline
70
4
71
1
72
4
73
2
40
0
40
0
40
1
40
1
41
1
10
324.615430367332
20
10.3114754449858
30
0
41
1
10
324.584703922021
20
10.3105959622333
30
0
0
SPLINE
5
2AA
100
AcDbEntity
8
1
62
256
6
ByLayer
370
13
48
1
60
0
100
AcDbSpline
70
4
71
2
72
6
73
3
40
0
40
0
40
0
40
1
40
1
40
1
41
1
10
344.949929314873
20
20.6981659585543
30
0
41
0.997409491337352
10
344.950694565623
20
20.6404758441578
30
0
41
1
10
344.943210379185
20
20.5832762965556
30
0
0
SPLINE
5
2AB
100
AcDbEntity
8
1
62
256
6
ByLayer
370
13
48
1
60
0
100
AcDbSpline
70
4
71
2
72
6
73
3
40
0
40
0
40
0
40
1
40
1
40
1
41
1
10
344.949929314873
20
20.6981659585543
30
0
41
0.997409491337352
10
344.949164064123
20
20.7558560729522
30
0
41
1
10
344.940165214752
20
20.8128427287877
30
0
0
SPLINE
5
2AC
100
AcDbEntity
8
1
62
256
6
ByLayer
370
13
48
1
60
0
100
AcDbSpline
70
4
71
3
72
10
73
6
40
0
40
0
40
0
40
0
40
0.5
40
0.5
40
1
40
1
40
1
40
1
41
1
10
326.878223886348
20
11.0007133723542
30
0
41
1
10
326.87447634121
20
11.0005169718358
30
0
41
1
10
326.857399510896
20
11.0103080033384
30
0
41
1
10
326.80691688065
20
11.0432800101663
30
0
41
1
10
326.773471540523
20
11.0664269928706
30
0
41
1
10
326.741532311568
20
11.0892994577822
30
0
0
SPLINE
5
2AD
100
AcDbEntity
8
1
62
256
6
ByLayer
370
13
48
1
60
0
100
AcDbSpline
70
4
71
3
72
8
73
4
40
0
40
0
40
0
40
0
40
1
40
1
40
1
40
1
41
1
10
324.109886019688
20
29.5281143887523
30
0
41
1
10
324.137993412649
20
29.5305490269479
30
0
41
1
10
324.1661177461
20
29.5328539174592
30
0
41
1
10
324.194258582616
20
29.5350324105389
30
0
0
SPLINE
5
2AE
100
AcDbEntity
8
1
62
256
6
ByLayer
370
13
48
1
60
0
100
AcDbSpline
70
4
71
1
72
4
73
2
40
0
40
0
40
1
40
1
41
1
10
323.195172435203
20
19.3054864175089
30
0
41
1
10
322.933997650061
20
19.2980108141183
30
0
0
SPLINE
5
2AF
100
AcDbEntity
8
1
62
256
6
ByLayer
370
13
48
1
60
0
100
AcDbSpline
70
4
71
3
72
22
73
18
40
0
40
0
40
0
40
0
40
0.0624999999999928
40
0.0624999999999928
40
0.0937499999999791
40
0.0937499999999791
40
0.124999999999965
40
0.124999999999965
40
0.156249999999952
40
0.156249999999952
40
0.171874999999945
40
0.171874999999945
40
0.187499999999938
40
0.187499999999938
40
0.249999999999955
40
0.499999999999977
40
1
40
1
40
1
40
1
41
1
10
327.078865173501
20
11.4271558973211
30
0
41
1
10
327.211923485957
20
11.5161418588535
30
0
41
1
10
327.352090061534
20
11.5900337930414
30
0
41
1
10
327.572701324786
20
11.6788698001103
30
0
41
1
10
327.648347691611
20
11.7049021847045
30
0
41
1
10
327.801480822442
20
11.7488391113075
30
0
41
1
10
327.878371817326
20
11.7665944221087
30
0
41
1
10
328.032773034723
20
11.7940635410136
30
0
41
1
10
328.110276154018
20
11.8038695939666
30
0
41
1
10
328.22700365723
20
11.8124384150223
30
0
41
1
10
328.265994495995
20
11.8142340807004
30
0
41
1
10
328.343938854902
20
11.8183100444958
30
0
41
1
10
328.382910396915
20
11.8203563044094
30
0
41
1
10
328.577769582562
20
11.830568441602
30
0
41
1
10
329.357206325148
20
11.8714169903726
30
0
41
1
10
331.383741855871
20
11.9776232171759
30
0
41
1
10
333.254390038076
20
12.0756597342252
30
0
41
1
10
334.501488826213
20
12.141017412258
30
0
0
SPLINE
5
2B0
100
AcDbEntity
8
1
62
256
6
ByLayer
370
13
48
1
60
0
100
AcDbSpline
70
4
71
3
72
8
73
4
40
0
40
0
40
0
40
0
40
1
40
1
40
1
40
1
41
1
10
342.005734699258
20
30.441114337266
30
0
41
1
10
342.065827711855
20
30.4536818581993
30
0
41
1
10
342.125855029527
20
30.4662333503541
30
0
41
1
10
342.185987370755
20
30.4788104588731
30
0
0
SPLINE
5
2B1
100
AcDbEntity
8
1
62
256
6
ByLayer
370
13
48
1
60
0
100
AcDbSpline
70
4
71
3
72
8
73
4
40
0
40
0
40
0
40
0
40
1
40
1
40
1
40
1
41
1
10
324.163226817664
20
29.2927494973976
30
0
41
1
10
324.24370935299
20
29.2969003457084
30
0
41
1
10
324.323177855131
20
29.2988417239493
30
0
41
1
10
324.4015222825
20
29.2995199016502
30
0
0
SPLINE
5
2B2
100
AcDbEntity
8
1
62
256
6
ByLayer
370
13
48
1
60
0
100
AcDbSpline
70
4
71
3
72
20
73
16
40
0
40
0
40
0
40
0
40
0.125
40
0.125
40
0.25
40
0.25
40
0.375
40
0.375
40
0.5
40
0.5
40
0.625
40
0.625
40
0.75
40
0.75
40
1
40
1
40
1
40
1
41
1
10
324.615430367332
20
10.3114754449858
30
0
41
1
10
324.625293573939
20
10.2443327347435
30
0
41
1
10
324.64374643704
20
10.1801887693508
30
0
41
1
10
324.696318786876
20
10.0573702315421
30
0
41
1
10
324.731061374139
20
9.99847389214784
30
0
41
1
10
324.814026867587
20
9.89168228822686
30
0
41
1
10
324.861706500042
20
9.84428173525779
30
0
41
1
10
324.967483604292
20
9.76277711180836
30
0
41
1
10
325.026379822796
20
9.72820241666599
30
0
41
1
10
325.148865592655
20
9.67563105045286
30
0
41
1
10
325.213831321841
20
9.65690836349125
30
0
41
1
10
325.346216568476
20
9.63576693091895
30
0
41
1
10
325.412673453015
20
9.63571785373475
30
0
41
1
10
325.61195872592
20
9.63217116375014
30
0
41
1
10
325.744895589319
20
9.63299251660547
30
0
41
1
10
325.877903579957
20
9.63664582166427
30
0
0
SPLINE
5
2B3
100
AcDbEntity
8
1
62
256
6
ByLayer
370
13
48
1
60
0
100
AcDbSpline
70
4
71
1
72
4
73
2
40
0
40
0
40
1
40
1
41
1
10
322.837431349626
20
19.6495554997026
30
0
41
1
10
322.915426832951
20
19.6523631138043
30
0
0
SPLINE
5
2B4
100
AcDbEntity
8
1
62
256
6
ByLayer
370
13
48
1
60
0
100
AcDbSpline
70
4
71
3
72
8
73
4
40
0
40
0
40
0
40
0
40
1
40
1
40
1
40
1
41
1
10
324.448819731773
20
29.520995412759
30
0
41
1
10
324.387742251337
20
29.5272126572378
30
0
41
1
10
324.326731781405
20
29.5334208277349
30
0
41
1
10
324.265614185608
20
29.5396434963162
30
0
0
SPLINE
5
2B5
100
AcDbEntity
8
1
62
256
6
ByLayer
370
13
48
1
60
0
100
AcDbSpline
70
4
71
1
72
4
73
2
40
0
40
0
40
1
40
1
41
1
10
322.85113815845
20
19.4339052666018
30
0
41
1
10
322.92565030073
20
19.4399509015501
30
0
0
SPLINE
5
2B6
100
AcDbEntity
8
1
62
256
6
ByLayer
370
13
48
1
60
0
100
AcDbSpline
70
4
71
2
72
6
73
3
40
0
40
0
40
0
40
1
40
1
40
1
41
0.998850556413375
10
322.927420910472
20
19.4753289192877
30
0
41
0.998270163111933
10
322.920789066939
20
19.5103414498372
30
0
41
1
10
322.917534337479
20
19.5458302239676
30
0
0
SPLINE
5
2B7
100
AcDbEntity
8
1
62
256
6
ByLayer
370
13
48
1
60
0
100
AcDbSpline
70
4
71
3
72
20
73
16
40
0
40
0
40
0
40
0
40
0.0624999999999973
40
0.0624999999999973
40
0.124999999999995
40
0.124999999999995
40
0.140625
40
0.140625
40
0.156250000000004
40
0.156250000000004
40
0.187500000000014
40
0.187500000000014
40
0.250000000000011
40
0.5
40
1
40
1
40
1
40
1
41
1
10
340.964862827609
20
28.8586470124024
30
0
41
1
10
340.834463352088
20
28.7714392123163
30
0
41
1
10
340.696866120494
20
28.7002528195509
30
0
41
1
10
340.407825414878
20
28.5887002351357
30
0
41
1
10
340.254697804328
20
28.548388875794
30
0
41
1
10
340.063624159461
20
28.520216076372
30
0
41
1
10
340.025339894921
20
28.5156332875308
30
0
41
1
10
339.948628921158
20
28.5086222790014
30
0
41
1
10
339.910183931479
20
28.5064705631978
30
0
41
1
10
339.794816340366
20
28.5005088461059
30
0
41
1
10
339.717910958422
20
28.4964383887368
30
0
41
1
10
339.487186903066
20
28.4843466533684
30
0
41
1
10
338.718106718544
20
28.444040868807
30
0
41
1
10
336.718498238779
20
28.339245828947
30
0
41
1
10
334.872705795957
20
28.2425119460013
30
0
41
1
10
333.642177500723
20
28.1780226907031
30
0
0
SPLINE
5
2B8
100
AcDbEntity
8
1
62
256
6
ByLayer
370
13
48
1
60
0
100
AcDbSpline
70
4
71
3
72
24
73
20
40
0
40
0
40
0
40
0
40
0.0436863032242698
40
0.0436863032242698
40
0.0873726064485394
40
0.0873726064485394
40
0.131058909672809
40
0.131058909672809
40
0.174745212897079
40
0.174745212897079
40
0.262117819345618
40
0.262117819345618
40
0.349490425794158
40
0.349490425794158
40
0.524235638691237
40
0.524235638691237
40
0.698980851588315
40
0.698980851588315
40
1
40
1
40
1
40
1
41
1
10
324.584703922021
20
10.3105959622332
30
0
41
1
10
324.587757145576
20
10.293501867041
30
0
41
1
10
324.591459246258
20
10.2747825250788
30
0
41
1
10
324.599367122979
20
10.2380091286848
30
0
41
1
10
324.603414184373
20
10.220827351984
30
0
41
1
10
324.610917662981
20
10.1911267241898
30
0
41
1
10
324.6144554486
20
10.1781630231194
30
0
41
1
10
324.621056989216
20
10.1550842722684
30
0
41
1
10
324.624168761082
20
10.1448055564841
30
0
41
1
10
324.633013083562
20
10.1167081832051
30
0
41
1
10
324.638309663915
20
10.101447486061
30
0
41
1
10
324.64826481955
20
10.0745517623447
30
0
41
1
10
324.652877193455
20
10.0630823360893
30
0
41
1
10
324.666037778121
20
10.0323390919649
30
0
41
1
10
324.673878971833
20
10.0167609302074
30
0
41
1
10
324.688570704782
20
9.99067778905035
30
0
41
1
10
324.695386763898
20
9.98032983651808
30
0
41
1
10
324.712971947651
20
9.95709982691017
30
0
41
1
10
324.723031338219
20
9.94771626234098
30
0
41
1
10
324.732413692027
20
9.94168349075832
30
0
0
SPLINE
5
2B9
100
AcDbEntity
8
1
62
256
6
ByLayer
370
13
48
1
60
0
100
AcDbSpline
70
4
71
3
72
12
73
8
40
0
40
0
40
0
40
0
40
0.25
40
0.25
40
0.5
40
0.5
40
1
40
1
40
1
40
1
41
1
10
324.4015222825
20
29.2995199016502
30
0
41
1
10
324.421721186658
20
29.30005635331
30
0
41
1
10
324.441368851601
20
29.2999850736151
30
0
41
1
10
324.480863054127
20
29.3000617614289
30
0
41
1
10
324.500644262183
20
29.3001361336247
30
0
41
1
10
324.559952954152
20
29.3003223500148
30
0
41
1
10
324.599467877657
20
29.300420929327
30
0
41
1
10
324.638995237126
20
29.3005326404353
30
0
0
SPLINE
5
2BA
100
AcDbEntity
8
1
62
256
6
ByLayer
370
13
48
1
60
0
100
AcDbSpline
70
4
71
3
72
42
73
38
40
0
40
0
40
0
40
0
40
0.0156250000000002
40
0.0156250000000002
40
0.0312500000000004
40
0.0312500000000004
40
0.0625000000000005
40
0.0625000000000005
40
0.0937500000000006
40
0.0937500000000006
40
0.125000000000001
40
0.125000000000001
40
0.187500000000001
40
0.187500000000001
40
0.250000000000001
40
0.250000000000001
40
0.375
40
0.375
40
0.5
40
0.5
40
0.625
40
0.625
40
0.75
40
0.75
40
0.8125
40
0.8125
40
0.875
40
0.875
40
0.90625
40
0.90625
40
0.9375
40
0.9375
40
0.96875
40
0.96875
40
0.984375
40
0.984375
40
1
40
1
40
1
40
1
41
1
10
10.2564
20
4.74143664446012
30
0
41
1
10
10.3099395458051
20
4.72874745419429
30
0
41
1
10
10.3596514618597
20
4.70769189698322
30
0
41
1
10
10.4536843246901
20
4.65379143197143
30
0
41
1
10
10.4977335977248
20
4.62088686762479
30
0
41
1
10
10.6187983810687
20
4.51377226465104
30
0
41
1
10
10.6880965260417
20
4.42906213962797
30
0
41
1
10
10.8097816696854
20
4.25234056748556
30
0
41
1
10
10.8625508587467
20
4.15970232688662
30
0
41
1
10
10.958342121849
20
3.96920935481069
30
0
41
1
10
11.0012370025817
20
3.87128810041483
30
0
41
1
10
11.1192988750748
20
3.57177951981862
30
0
41
1
10
11.1828302455108
20
3.367793875404
30
0
41
1
10
11.2916660239009
20
2.95725062986222
30
0
41
1
10
11.3368620867797
20
2.75006952103885
30
0
41
1
10
11.4529374419404
20
2.12433708758803
30
0
41
1
10
11.5046574788379
20
1.70166400873129
30
0
41
1
10
11.5728992417975
20
0.848295874024757
30
0
41
1
10
11.5887005477132
20
0.422197745716119
30
0
41
1
10
11.5885567762379
20
-0.427836294884656
30
0
41
1
10
11.5726098494341
20
-0.851972403445188
30
0
41
1
10
11.5049214150504
20
-1.69830578861371
30
0
41
1
10
11.4536397176091
20
-2.12052351907244
30
0
41
1
10
11.3365430464784
20
-2.75180326996588
30
0
41
1
10
11.2908561627023
20
-2.96089739365357
30
0
41
1
10
11.1810467444108
20
-3.37391546771045
30
0
41
1
10
11.1169645529573
20
-3.5784148806157
30
0
41
1
10
10.9995079287006
20
-3.87530444622811
30
0
41
1
10
10.9567260410066
20
-3.97273399648111
30
0
41
1
10
10.8606297848812
20
-4.16320009949652
30
0
41
1
10
10.8071193010727
20
-4.25668838200792
30
0
41
1
10
10.6853278692127
20
-4.43257976123769
30
0
41
1
10
10.61630112696
20
-4.51635875174375
30
0
41
1
10
10.4960813400923
20
-4.62215333521746
30
0
41
1
10
10.4529266124825
20
-4.6543052729929
30
0
41
1
10
10.3589217420099
20
-4.70802939687593
30
0
41
1
10
10.3093979861438
20
-4.72887580704969
30
0
41
1
10
10.2564
20
-4.74143664446012
30
0
0
SPLINE
5
2BB
100
AcDbEntity
8
1
62
256
6
ByLayer
370
13
48
1
60
0
100
AcDbSpline
70
4
71
3
72
8
73
4
40
0
40
0
40
0
40
0
40
1
40
1
40
1
40
1
41
1
10
40.0000000000001
20
-10.7037082430722
30
0
41
1
10
38.3333333326653
20
-10.7038063274853
30
0
41
1
10
36.6666666658471
20
-10.7039127261253
30
0
41
1
10
35.0000000000001
20
-10.7040307820105
30
0
0
SPLINE
5
2BC
100
AcDbEntity
8
1
62
256
6
ByLayer
370
13
48
1
60
0
100
AcDbSpline
70
4
71
3
72
74
73
70
40
0
40
0
40
0
40
0
40
0.0312500000000012
40
0.0312500000000012
40
0.0468750000000012
40
0.0468750000000012
40
0.0625000000000013
40
0.0625000000000013
40
0.0937500000000013
40
0.0937500000000013
40
0.101562500000001
40
0.101562500000001
40
0.109375000000001
40
0.109375000000001
40
0.117187500000001
40
0.117187500000001
40
0.125000000000001
40
0.125000000000001
40
0.132812500000001
40
0.132812500000001
40
0.140625000000001
40
0.140625000000001
40
0.156250000000001
40
0.156250000000001
40
0.187500000000002
40
0.187500000000002
40
0.218750000000002
40
0.218750000000002
40
0.250000000000002
40
0.250000000000002
40
0.281250000000002
40
0.281250000000002
40
0.312500000000002
40
0.312500000000002
40
0.343750000000002
40
0.343750000000002
40
0.375000000000002
40
0.375000000000002
40
0.437500000000002
40
0.437500000000002
40
0.500000000000002
40
0.500000000000002
40
0.562500000000002
40
0.562500000000002
40
0.593750000000002
40
0.593750000000002
40
0.625000000000002
40
0.625000000000002
40
0.656250000000002
40
0.656250000000002
40
0.687500000000002
40
0.687500000000002
40
0.718750000000002
40
0.718750000000002
40
0.750000000000001
40
0.750000000000001
40
0.781250000000001
40
0.781250000000001
40
0.812500000000001
40
0.812500000000001
40
0.843750000000001
40
0.843750000000001
40
0.875000000000001
40
0.875000000000001
40
0.906250000000001
40
0.906250000000001
40
0.937500000000001
40
0.937500000000001
40
1
40
1
40
1
40
1
41
1
10
303.959490607763
20
-29.2815065753504
30
0
41
1
10
302.401462543966
20
-29.2632048902724
30
0
41
1
10
300.840345331007
20
-29.2464262380096
30
0
41
1
10
298.499259124025
20
-29.2190456779012
30
0
41
1
10
297.718989951784
20
-29.2095232588295
30
0
41
1
10
296.159652805546
20
-29.1883479648803
30
0
41
1
10
295.380394504681
20
-29.1766716890139
30
0
41
1
10
293.049399647724
20
-29.135450540597
30
0
41
1
10
291.503776161268
20
-29.1003707443085
30
0
41
1
10
289.593656094191
20
-29.0307155986295
30
0
41
1
10
289.212730346508
20
-29.0154490566392
30
0
41
1
10
288.453378124357
20
-28.981614019766
30
0
41
1
10
288.074454466672
20
-28.9630140566726
30
0
41
1
10
287.323142296272
20
-28.921741535537
30
0
41
1
10
286.950600415183
20
-28.8990642419569
30
0
41
1
10
286.212775487165
20
-28.8485393049509
30
0
41
1
10
285.847661460129
20
-28.8205993764163
30
0
41
1
10
285.123991157602
20
-28.7591553436365
30
0
41
1
10
284.764804759727
20
-28.7259521913455
30
0
41
1
10
284.047239768728
20
-28.6566448168993
30
0
41
1
10
283.689200774802
20
-28.6203738241263
30
0
41
1
10
282.61583622236
20
-28.5073829753444
30
0
41
1
10
281.900744504517
20
-28.4267925150617
30
0
41
1
10
279.753860966046
20
-28.1711437200675
30
0
41
1
10
278.321554765068
20
-27.9820234875396
30
0
41
1
10
275.457408785329
20
-27.5655338108681
30
0
41
1
10
274.025433299983
20
-27.3378834371786
30
0
41
1
10
271.16247140313
20
-26.8446898245777
30
0
41
1
10
269.731561769309
20
-26.5791866424405
30
0
41
1
10
266.869692719171
20
-26.0113099110005
30
0
41
1
10
265.438700362689
20
-25.7087173545412
30
0
41
1
10
262.574052646732
20
-25.0742359205512
30
0
41
1
10
261.140010134653
20
-24.7423057803309
30
0
41
1
10
258.263088374703
20
-24.0583832977692
30
0
41
1
10
256.820268354923
20
-23.7063815151234
30
0
41
1
10
253.923853105735
20
-22.9885053250746
30
0
41
1
10
252.469649574466
20
-22.6224888667456
30
0
41
1
10
248.093000249597
20
-21.5149504486446
30
0
41
1
10
245.157197606373
20
-20.7637826884922
30
0
41
1
10
239.243609213905
20
-19.2732046802946
30
0
41
1
10
236.263601616416
20
-18.5338847833902
30
0
41
1
10
230.26560075837
20
-17.127056011733
30
0
41
1
10
227.246620773048
20
-16.4578134755441
30
0
41
1
10
222.688562599913
20
-15.5196050513525
30
0
41
1
10
221.164279375385
20
-15.217810277701
30
0
41
1
10
218.109854014545
20
-14.6391734299563
30
0
41
1
10
216.579189474512
20
-14.3622672138002
30
0
41
1
10
213.510888486161
20
-13.8352518388092
30
0
41
1
10
211.973272054095
20
-13.5850546577575
30
0
41
1
10
208.891217898484
20
-13.1122426570714
30
0
41
1
10
207.346340903161
20
-12.8895692635629
30
0
41
1
10
204.252587145688
20
-12.4730686634163
30
0
41
1
10
202.703659211983
20
-12.2792216021928
30
0
41
1
10
199.601721188594
20
-11.9211022667979
30
0
41
1
10
198.048742268731
20
-11.7565890817235
30
0
41
1
10
194.938521605801
20
-11.4592986010746
30
0
41
1
10
193.381124517436
20
-11.326809097578
30
0
41
1
10
190.261878357249
20
-11.0994609940972
30
0
41
1
10
188.701486751551
20
-11.005246397196
30
0
41
1
10
185.579153591615
20
-10.8565633621605
30
0
41
1
10
184.01721125516
20
-10.8021175263385
30
0
41
1
10
180.892086838318
20
-10.7252314934798
30
0
41
1
10
179.3289164579
20
-10.7024853204849
30
0
41
1
10
176.201862131668
20
-10.6754630008547
30
0
41
1
10
174.637966976071
20
-10.6707450492968
30
0
41
1
10
171.51036911601
20
-10.6676617387532
30
0
41
1
10
169.946572266153
20
-10.6689435490482
30
0
41
1
10
165.25518304089
20
-10.6745862692104
30
0
41
1
10
162.127592499442
20
-10.6814357508929
30
0
41
1
10
159
20
-10.6856274841165
30
0
0
SPLINE
5
2BD
100
AcDbEntity
8
1
62
256
6
ByLayer
370
13
48
1
60
0
100
AcDbSpline
70
4
71
3
72
10
73
6
40
0
40
0
40
0
40
0
40
0.797288804754314
40
0.797288804754314
40
1
40
1
40
1
40
1
41
1
10
317.512829096952
20
11.4751325315245
30
0
41
1
10
311.690975977071
20
11.660592177558
30
0
41
1
10
305.875054177135
20
11.7032217390008
30
0
41
1
10
298.580178550286
20
11.5836182649595
30
0
41
1
10
297.1014220059
20
11.5505050442443
30
0
41
1
10
295.622559666885
20
11.5086468947917
30
0
0
SPLINE
5
2BE
100
AcDbEntity
8
1
62
256
6
ByLayer
370
13
48
1
60
0
100
AcDbSpline
70
4
71
3
72
16
73
12
40
0
40
0
40
0
40
0
40
0.250000000000044
40
0.250000000000044
40
0.500000000000088
40
0.500000000000088
40
0.625000000000067
40
0.625000000000067
40
0.750000000000046
40
0.750000000000046
40
1
40
1
40
1
40
1
41
1
10
327.717701577094
20
10.2210383511866
30
0
41
1
10
327.690107789464
20
10.1952024477796
30
0
41
1
10
327.664394051734
20
10.1725495402728
30
0
41
1
10
327.618609168725
20
10.1345245987022
30
0
41
1
10
327.599216294077
20
10.1197307545482
30
0
41
1
10
327.578650480832
20
10.1060110850107
30
0
41
1
10
327.573297702032
20
10.1029030899833
30
0
41
1
10
327.565916922272
20
10.0998448251638
30
0
41
1
10
327.563951400937
20
10.0999500817698
30
0
41
1
10
327.563502567872
20
10.1051589937563
30
0
41
1
10
327.570602023581
20
10.1154186125646
30
0
41
1
10
327.583045292629
20
10.1307053933939
30
0
0
SPLINE
5
2BF
100
AcDbEntity
8
1
62
256
6
ByLayer
370
13
48
1
60
0
100
AcDbSpline
70
4
71
3
72
10
73
6
40
0
40
0
40
0
40
0
40
0.5
40
0.5
40
1
40
1
40
1
40
1
41
1
10
319.997505573822
20
13.5522481210357
30
0
41
1
10
320.205613964775
20
13.532027029206
30
0
41
1
10
320.407966745401
20
13.5194293172904
30
0
41
1
10
320.804990948894
20
13.5055461590524
30
0
41
1
10
320.999641023925
20
13.5042308696013
30
0
41
1
10
321.191564962036
20
13.5070891441124
30
0
0
SPLINE
5
2C0
100
AcDbEntity
8
1
62
256
6
ByLayer
370
13
48
1
60
0
100
AcDbSpline
70
4
71
3
72
8
73
4
40
0
40
0
40
0
40
0
40
1
40
1
40
1
40
1
41
1
10
40
20
-29.6198790612614
30
0
41
1
10
38.333333332361
20
-29.619884836207
30
0
41
1
10
36.6666666652938
20
-29.619892342505
30
0
41
1
10
35
20
-29.6199020919737
30
0
0
SPLINE
5
2C1
100
AcDbEntity
8
1
62
256
6
ByLayer
370
13
48
1
60
0
100
AcDbSpline
70
4
71
3
72
10
73
6
40
0
40
0
40
0
40
0
40
0.5
40
0.5
40
1
40
1
40
1
40
1
41
1
10
327.929458131622
20
10.4471113170231
30
0
41
1
10
327.893998060843
20
10.4041617831947
30
0
41
1
10
327.857776562228
20
10.3632383251609
30
0
41
1
10
327.786685914892
20
10.2876851819376
30
0
41
1
10
327.751589834791
20
10.252767730432
30
0
41
1
10
327.717701577099
20
10.2210383511927
30
0
0
SPLINE
5
2C2
100
AcDbEntity
8
1
62
256
6
ByLayer
370
13
48
1
60
0
100
AcDbSpline
70
4
71
3
72
10
73
6
40
0
40
0
40
0
40
0
40
0.831982487583324
40
0.831982487583324
40
1
40
1
40
1
40
1
41
1
10
323.461358086286
20
21.9942225180308
30
0
41
1
10
323.425887053883
20
21.9470874754458
30
0
41
1
10
323.395054038124
20
21.9019111761654
30
0
41
1
10
323.367673478873
20
21.8568146891291
30
0
41
1
10
323.36343401906
20
21.8495975374544
30
0
41
1
10
323.359650573211
20
21.8428974832256
30
0
0
SPLINE
5
2C3
100
AcDbEntity
8
1
62
256
6
ByLayer
370
13
48
1
60
0
100
AcDbSpline
70
4
71
3
72
8
73
4
40
0
40
0
40
0
40
0
40
1
40
1
40
1
40
1
41
1
10
332.085172465964
20
11.6939444870529
30
0
41
1
10
332.141760801968
20
11.6969101560761
30
0
41
1
10
332.19828360401
20
11.6900806511308
30
0
41
1
10
332.252115878551
20
11.6748777220725
30
0
0
SPLINE
5
2C4
100
AcDbEntity
8
1
62
256
6
ByLayer
370
13
48
1
60
0
100
AcDbSpline
70
4
71
3
72
8
73
4
40
0
40
0
40
0
40
0
40
1
40
1
40
1
40
1
41
1
10
35
20
-29.6199020919718
30
0
41
1
10
34.0468664530388
20
-29.6199076674993
30
0
41
1
10
33.0940093770945
20
-29.6323221319252
30
0
41
1
10
32.1414284370356
20
-29.6571303888769
30
0
0
SPLINE
5
2C5
100
AcDbEntity
8
1
62
256
6
ByLayer
370
13
48
1
60
0
100
AcDbSpline
70
4
71
3
72
20
73
16
40
0
40
0
40
0
40
0
40
0.17806268044246
40
0.17806268044246
40
0.356125360884919
40
0.356125360884919
40
0.534188041327378
40
0.534188041327378
40
0.623219381548608
40
0.623219381548608
40
0.712250721769837
40
0.712250721769837
40
0.890313402212295
40
0.890313402212295
40
1
40
1
40
1
40
1
41
1
10
35.01
20
-16.6063423228198
30
0
41
1
10
35.01
20
-16.2893715346042
30
0
41
1
10
35.01
20
-15.9598925778732
30
0
41
1
10
35.01
20
-15.2769611869973
30
0
41
1
10
35.01
20
-14.9207356557849
30
0
41
1
10
35.01
20
-14.195685593416
30
0
41
1
10
35.0100000000001
20
-13.8319735332896
30
0
41
1
10
35.01
20
-13.2846714995173
30
0
41
1
10
35.01
20
-13.1019466773475
30
0
41
1
10
35.01
20
-12.7359009841905
30
0
41
1
10
35.01
20
-12.5523993921546
30
0
41
1
10
35.01
20
-12.0123173663054
30
0
41
1
10
35.01
20
-11.6622553648546
30
0
41
1
10
35.01
20
-11.1125331392313
30
0
41
1
10
35.0100000000001
20
-10.905774231563
30
0
41
1
10
35.0100000000001
20
-10.7053593228541
30
0
0
SPLINE
5
2C6
100
AcDbEntity
8
1
62
256
6
ByLayer
370
13
48
1
60
0
100
AcDbSpline
70
4
71
3
72
10
73
6
40
0
40
0
40
0
40
0
40
0.492720434397184
40
0.492720434397184
40
1
40
1
40
1
40
1
41
1
10
35.45
20
-28.9354584606942
30
0
41
1
10
35.45
20
-26.9105226405496
30
0
41
1
10
35.4500000000001
20
-24.8855868206098
30
0
41
1
10
35.4500000000001
20
-20.7758814413061
30
0
41
1
10
35.4500000000001
20
-18.6911118819544
30
0
41
1
10
35.4500000000001
20
-16.6063423228198
30
0
0
SPLINE
5
2C7
100
AcDbEntity
8
1
62
256
6
ByLayer
370
13
48
1
60
0
100
AcDbSpline
70
4
71
3
72
8
73
4
40
0
40
0
40
0
40
0
40
1
40
1
40
1
40
1
41
1
10
316.56225403199
20
1.17849041648537
30
0
41
1
10
317.183420008806
20
0.784500611523924
30
0
41
1
10
317.840833983483
20
0.466051299268201
30
0
41
1
10
318.539169144047
20
0.233095452081898
30
0
0
SPLINE
5
2C8
100
AcDbEntity
8
1
62
256
6
ByLayer
370
13
48
1
60
0
100
AcDbSpline
70
4
71
3
72
8
73
4
40
0
40
0
40
0
40
0
40
1
40
1
40
1
40
1
41
1
10
319.228579187481
20
2.6250467838882
30
0
41
1
10
319.403923864754
20
2.57217471480007
30
0
41
1
10
319.580413634485
20
2.52253270589705
30
0
41
1
10
319.758100361595
20
2.47624814456859
30
0
0
SPLINE
5
2C9
100
AcDbEntity
8
1
62
256
6
ByLayer
370
13
48
1
60
0
100
AcDbSpline
70
4
71
3
72
8
73
4
40
0
40
0
40
0
40
0
40
1
40
1
40
1
40
1
41
1
10
342.684032732079
20
0.525021175802976
30
0
41
1
10
342.682118004461
20
0.578610647725441
30
0
41
1
10
342.68185217533
20
0.632081689989519
30
0
41
1
10
342.683134311772
20
0.681416131249989
30
0
0
SPLINE
5
2CA
100
AcDbEntity
8
1
62
256
6
ByLayer
370
13
48
1
60
0
100
AcDbSpline
70
4
71
3
72
8
73
4
40
0
40
0
40
0
40
0
40
1
40
1
40
1
40
1
41
1
10
319.544877894959
20
13.5427140515188
30
0
41
1
10
319.498895910261
20
13.5370326131615
30
0
41
1
10
319.452107684581
20
13.5345096798074
30
0
41
1
10
319.404595183607
20
13.5345265188177
30
0
0
SPLINE
5
2CB
100
AcDbEntity
8
1
62
256
6
ByLayer
370
13
48
1
60
0
100
AcDbSpline
70
4
71
3
72
44
73
40
40
0
40
0
40
0
40
0
40
0.125
40
0.125
40
0.15625
40
0.15625
40
0.1875
40
0.1875
40
0.25
40
0.25
40
0.28125
40
0.28125
40
0.3125
40
0.3125
40
0.375
40
0.375
40
0.4375
40
0.4375
40
0.46875
40
0.46875
40
0.5
40
0.5
40
0.5625
40
0.5625
40
0.625
40
0.625
40
0.687500000000001
40
0.687500000000001
40
0.750000000000001
40
0.750000000000001
40
0.812500000000001
40
0.812500000000001
40
0.843750000000001
40
0.843750000000001
40
0.875000000000001
40
0.875000000000001
40
0.937500000000001
40
0.937500000000001
40
1
40
1
40
1
40
1
41
1
10
6.29341376191293
20
-26.6671501297807
30
0
41
1
10
6.07735179313634
20
-27.0739909242208
30
0
41
1
10
5.96196604105668
20
-27.4620027533303
30
0
41
1
10
5.94505005396744
20
-27.9200134792803
30
0
41
1
10
5.94808984286978
20
-28.0097234960444
30
0
41
1
10
5.96687333479235
20
-28.1841492203249
30
0
41
1
10
5.98254641460474
20
-28.2690766688367
30
0
41
1
10
6.04770767680077
20
-28.5172049246861
30
0
41
1
10
6.11527126923025
20
-28.673760772848
30
0
41
1
10
6.25292800342464
20
-28.895768762694
30
0
41
1
10
6.30479351311872
20
-28.9676381418916
30
0
41
1
10
6.42067435379973
20
-29.1071618209769
30
0
41
1
10
6.48449676094131
20
-29.1745306439212
30
0
41
1
10
6.69139092060672
20
-29.3681113373237
30
0
41
1
10
6.85032984635568
20
-29.4865822795988
30
0
41
1
10
7.20810196354574
20
-29.7045619922384
30
0
41
1
10
7.40699352208593
20
-29.8040546957695
30
0
41
1
10
7.73520535208536
20
-29.94024305944
30
0
41
1
10
7.84969699569717
20
-29.9834668325696
30
0
41
1
10
8.08594713307708
20
-30.0648364231708
30
0
41
1
10
8.20801188196536
20
-30.1031187643646
30
0
41
1
10
8.58572771761798
20
-30.2112816224208
30
0
41
1
10
8.85286082842572
20
-30.2744976317558
30
0
41
1
10
9.41722172744615
20
-30.3853668665143
30
0
41
1
10
9.71433807162386
20
-30.4330402861817
30
0
41
1
10
10.3396530861148
20
-30.5143999020787
30
0
41
1
10
10.6631346981612
20
-30.5475187101966
30
0
41
1
10
11.329609207223
20
-30.6007530827903
30
0
41
1
10
11.6728393335825
20
-30.6209273842679
30
0
41
1
10
12.3793772577343
20
-30.6501780678879
30
0
41
1
10
12.7428408355772
20
-30.6592000526776
30
0
41
1
10
13.3042247592875
20
-30.6651692986069
30
0
41
1
10
13.4940820211969
20
-30.665883006438
30
0
41
1
10
13.8747646120225
20
-30.6649010664259
30
0
41
1
10
14.0661503777438
20
-30.6632139608853
30
0
41
1
10
14.643465716206
20
-30.6548032958021
30
0
41
1
10
15.0325490886559
20
-30.644750176749
30
0
41
1
10
15.8194970281843
20
-30.6164449260531
30
0
41
1
10
16.2173437843442
20
-30.5982075601292
30
0
41
1
10
16.6200205420755
20
-30.5757523215397
30
0
0
SPLINE
5
2CC
100
AcDbEntity
8
1
62
256
6
ByLayer
370
13
48
1
60
0
100
AcDbSpline
70
4
71
3
72
10
73
6
40
0
40
0
40
0
40
0
40
0.5
40
0.5
40
1
40
1
40
1
40
1
41
1
10
5.15640000000019
20
-5.56776436283184
30
0
41
1
10
6.01508397437237
20
-5.48363957128208
30
0
41
1
10
6.86989000542839
20
-5.37558055790558
30
0
41
1
10
8.57050229237694
20
-5.10391695000845
30
0
41
1
10
9.41634458435765
20
-4.9405347660942
30
0
41
1
10
10.2564
20
-4.74143664446009
30
0
0
SPLINE
5
2CD
100
AcDbEntity
8
1
62
256
6
ByLayer
370
13
48
1
60
0
100
AcDbSpline
70
4
71
3
72
26
73
22
40
0
40
0
40
0
40
0
40
0.029378502393533
40
0.029378502393533
40
0.137225335460918
40
0.137225335460918
40
0.245072168528304
40
0.245072168528304
40
0.352919001595689
40
0.352919001595689
40
0.460765834663075
40
0.460765834663075
40
0.514689251196767
40
0.514689251196767
40
0.56861266773046
40
0.56861266773046
40
0.676459500797845
40
0.676459500797845
40
0.78430633386523
40
0.78430633386523
40
1
40
1
40
1
40
1
41
1
10
16.1072620733366
20
-12.1424826661785
30
0
41
1
10
15.9541525387529
20
-12.2524690222755
30
0
41
1
10
15.8024954556561
20
-12.363693062914
30
0
41
1
10
15.1026818214625
20
-12.8876619001625
30
0
41
1
10
14.5748683655961
20
-13.3139465196881
30
0
41
1
10
13.5630513572343
20
-14.194897759549
30
0
41
1
10
13.0792378117511
20
-14.6497512423466
30
0
41
1
10
12.154543337482
20
-15.5884267906443
30
0
41
1
10
11.7135765839173
20
-16.0720331259233
30
0
41
1
10
10.8738821263144
20
-17.0672309470252
30
0
41
1
10
10.4751502453068
20
-17.578820491734
30
0
41
1
10
9.909373796323
20
-18.3674135550083
30
0
41
1
10
9.72617966053919
20
-18.6338194549959
30
0
41
1
10
9.3708426491354
20
-19.1738400578921
30
0
41
1
10
9.19937074953512
20
-19.4464655137525
30
0
41
1
10
8.70544842098369
20
-20.2690660025125
30
0
41
1
10
8.40288495273907
20
-20.8248491799138
30
0
41
1
10
7.84991703717864
20
-21.9529315247377
30
0
41
1
10
7.59914259518577
20
-22.5249996532504
30
0
41
1
10
6.91895070227915
20
-24.2634447499183
30
0
41
1
10
6.5609469145171
20
-25.4518762927262
30
0
41
1
10
6.29341376191294
20
-26.6671501297807
30
0
0
SPLINE
5
2CE
100
AcDbEntity
8
1
62
256
6
ByLayer
370
13
48
1
60
0
100
AcDbSpline
70
4
71
3
72
10
73
6
40
0
40
0
40
0
40
0
40
0.5
40
0.5
40
1
40
1
40
1
40
1
41
1
10
318.539169144043
20
0.233095452082807
30
0
41
1
10
318.923526109606
20
0.0733317261220918
30
0
41
1
10
319.314052511799
20
-0.0591467780317316
30
0
41
1
10
320.107572869196
20
-0.267929675820739
30
0
41
1
10
320.510558300463
20
-0.344272832165018
30
0
41
1
10
320.920219499785
20
-0.390212225885222
30
0
0
SPLINE
5
2CF
100
AcDbEntity
8
1
62
256
6
ByLayer
370
13
48
1
60
0
100
AcDbSpline
70
4
71
3
72
14
73
10
40
0
40
0
40
0
40
0
40
0.5
40
0.5
40
0.75
40
0.75
40
0.875
40
0.875
40
1
40
1
40
1
40
1
41
1
10
32.1414284370356
20
-29.6571303888769
30
0
41
1
10
31.5307228698487
20
-29.6730351167541
30
0
41
1
10
30.9293341094456
20
-29.688761785835
30
0
41
1
10
30.0406852584601
20
-29.7104377131622
30
0
41
1
10
29.7467229368695
20
-29.7173074802931
30
0
41
1
10
29.3092245408728
20
-29.7265236925667
30
0
41
1
10
29.1639668307718
20
-29.7294118074681
30
0
41
1
10
28.8746237947975
20
-29.7346939245444
30
0
41
1
10
28.7310543326232
20
-29.737077005001
30
0
41
1
10
28.5895196979402
20
-29.7391234384869
30
0
0
SPLINE
5
2D0
100
AcDbEntity
8
1
62
256
6
ByLayer
370
13
48
1
60
0
100
AcDbSpline
70
4
71
3
72
8
73
4
40
0
40
0
40
0
40
0
40
1
40
1
40
1
40
1
41
1
10
322.485228494425
20
9.01778348943947
30
0
41
1
10
322.483789223532
20
9.06615099087841
30
0
41
1
10
322.481360550705
20
9.11448535495893
30
0
41
1
10
322.477952173391
20
9.16278838589824
30
0
0
SPLINE
5
2D1
100
AcDbEntity
8
1
62
256
6
ByLayer
370
13
48
1
60
0
100
AcDbSpline
70
4
71
3
72
8
73
4
40
0
40
0
40
0
40
0
40
1
40
1
40
1
40
1
41
1
10
32.141428436774
20
-28.9489731557545
30
0
41
1
10
32.1414284368602
20
-29.1850255667958
30
0
41
1
10
32.1414284369473
20
-29.4210779778366
30
0
41
1
10
32.1414284370356
20
-29.6571303888769
30
0
0
SPLINE
5
2D2
100
AcDbEntity
8
1
62
256
6
ByLayer
370
13
48
1
60
0
100
AcDbSpline
70
4
71
3
72
10
73
6
40
0
40
0
40
0
40
0
40
0.5
40
0.5
40
1
40
1
40
1
40
1
41
1
10
321.191564962036
20
13.507089144112
30
0
41
1
10
321.164364892171
20
13.6068725665035
30
0
41
1
10
321.130074817765
20
13.7044464271208
30
0
41
1
10
321.045984313504
20
13.8947604295181
30
0
41
1
10
320.996028408012
20
13.9875002686146
30
0
41
1
10
320.939109117536
20
14.075495583031
30
0
0
SPLINE
5
2D3
100
AcDbEntity
8
1
62
256
6
ByLayer
370
13
48
1
60
0
100
AcDbSpline
70
4
71
3
72
12
73
8
40
0
40
0
40
0
40
0
40
0.5
40
0.5
40
0.75
40
0.75
40
1
40
1
40
1
40
1
41
1
10
342.791196819339
20
10.743656237552
30
0
41
1
10
342.54037152655
20
10.8050820996882
30
0
41
1
10
342.298651322869
20
10.8943715139431
30
0
41
1
10
341.944412387647
20
11.0799806197167
30
0
41
1
10
341.830558308039
20
11.1492539882238
30
0
41
1
10
341.612171074028
20
11.3031632808557
30
0
41
1
10
341.507500404834
20
11.3878275211096
30
0
41
1
10
341.407741221223
20
11.4815589705308
30
0
0
SPLINE
5
2D4
100
AcDbEntity
8
1
62
256
6
ByLayer
370
13
48
1
60
0
100
AcDbSpline
70
4
71
3
72
12
73
8
40
0
40
0
40
0
40
0
40
0.499999999999999
40
0.499999999999999
40
0.75
40
0.75
40
1
40
1
40
1
40
1
41
1
10
328.018925842043
20
11.0450378844466
30
0
41
1
10
328.024244869616
20
11.0692356153198
30
0
41
1
10
328.014461052575
20
11.0937094707969
30
0
41
1
10
327.97468065867
20
11.126867578589
30
0
41
1
10
327.957238452054
20
11.1373260171598
30
0
41
1
10
327.915436284574
20
11.1561007711342
30
0
41
1
10
327.890447553605
20
11.1646619590001
30
0
41
1
10
327.863019877619
20
11.1718516301268
30
0
0
SPLINE
5
2D5
100
AcDbEntity
8
1
62
256
6
ByLayer
370
13
48
1
60
0
100
AcDbSpline
70
4
71
1
72
4
73
2
40
0
40
0
40
1
40
1
41
1
10
35.4500000000001
20
-16.6063423228304
30
0
41
1
10
35.01
20
-16.6063423228304
30
0
0
SPLINE
5
2D6
100
AcDbEntity
8
1
62
256
6
ByLayer
370
13
48
1
60
0
100
AcDbSpline
70
4
71
3
72
22
73
18
40
0
40
0
40
0
40
0
40
0.125
40
0.125
40
0.25
40
0.25
40
0.375
40
0.375
40
0.5
40
0.5
40
0.625
40
0.625
40
0.75
40
0.75
40
0.875
40
0.875
40
1
40
1
40
1
40
1
41
1
10
322.485228494425
20
9.01778348944003
30
0
41
1
10
322.445632258868
20
8.95066221487943
30
0
41
1
10
322.401738680347
20
8.88597365092826
30
0
41
1
10
322.305820910861
20
8.76499407627855
30
0
41
1
10
322.253607259135
20
8.70829852663564
30
0
41
1
10
322.138532754342
20
8.60448066528994
30
0
41
1
10
322.077065703261
20
8.55871072383346
30
0
41
1
10
321.946336305907
20
8.48259515137045
30
0
41
1
10
321.876007758343
20
8.45207003381867
30
0
41
1
10
321.734424636439
20
8.41194904853174
30
0
41
1
10
321.661898172951
20
8.40171671434345
30
0
41
1
10
321.516557628423
20
8.4012548367067
30
0
41
1
10
321.445927199065
20
8.41085172679615
30
0
41
1
10
321.307874007086
20
8.44573181127015
30
0
41
1
10
321.241377248389
20
8.47085807779575
30
0
41
1
10
321.114624517045
20
8.53083786578031
30
0
41
1
10
321.053822047978
20
8.56586191176433
30
0
41
1
10
320.994731675698
20
8.60437400577101
30
0
0
SPLINE
5
2D7
100
AcDbEntity
8
1
62
256
6
ByLayer
370
13
48
1
60
0
100
AcDbSpline
70
4
71
3
72
8
73
4
40
0
40
0
40
0
40
0
40
1
40
1
40
1
40
1
41
1
10
321.539169144041
20
-29.5848579989493
30
0
41
1
10
320.539169143657
20
-29.4837408615026
30
0
41
1
10
319.539169143654
20
-29.3826237203419
30
0
41
1
10
318.539169144041
20
-29.2815065753504
30
0
0
SPLINE
5
2D8
100
AcDbEntity
8
1
62
256
6
ByLayer
370
13
48
1
60
0
100
AcDbSpline
70
4
71
3
72
54
73
50
40
0
40
0
40
0
40
0
40
0.124999999999999
40
0.124999999999999
40
0.187499999999996
40
0.187499999999996
40
0.218749999999995
40
0.218749999999995
40
0.249999999999993
40
0.249999999999993
40
0.31249999999999
40
0.31249999999999
40
0.374999999999987
40
0.374999999999987
40
0.406249999999982
40
0.406249999999982
40
0.437499999999978
40
0.437499999999978
40
0.499999999999969
40
0.499999999999969
40
0.531249999999966
40
0.531249999999966
40
0.546874999999968
40
0.546874999999968
40
0.562499999999969
40
0.562499999999969
40
0.624999999999975
40
0.624999999999975
40
0.656249999999978
40
0.656249999999978
40
0.687499999999981
40
0.687499999999981
40
0.749999999999986
40
0.749999999999986
40
0.765624999999988
40
0.765624999999988
40
0.781249999999989
40
0.781249999999989
40
0.81249999999999
40
0.81249999999999
40
0.874999999999993
40
0.874999999999993
40
0.906249999999995
40
0.906249999999995
40
0.937499999999997
40
0.937499999999997
40
0.968749999999998
40
0.968749999999998
40
1
40
1
40
1
40
1
41
1
10
320.475345069957
20
2.32250727021463
30
0
41
1
10
321.614944592576
20
2.10967063475522
30
0
41
1
10
322.762940895793
20
1.92848602765841
30
0
41
1
10
324.504110350627
20
1.72899011056108
30
0
41
1
10
325.087705722765
20
1.67457494572784
30
0
41
1
10
325.968917148489
20
1.6148847869897
30
0
41
1
10
326.263625858525
20
1.59865043557528
30
0
41
1
10
326.855185176317
20
1.57425570902956
30
0
41
1
10
327.15265426019
20
1.56608960123589
30
0
41
1
10
328.043963715753
20
1.55503204804884
30
0
41
1
10
328.634554620442
20
1.56549687217009
30
0
41
1
10
329.80750190693
20
1.62705143702269
30
0
41
1
10
330.389866412682
20
1.67810109833348
30
0
41
1
10
331.25622985067
20
1.79011441363173
30
0
41
1
10
331.544021014384
20
1.83341111599898
30
0
41
1
10
332.116134016691
20
1.93283384700561
30
0
41
1
10
332.397875412937
20
1.9885070434006
30
0
41
1
10
333.229644335662
20
2.17411668364917
30
0
41
1
10
333.766292918478
20
2.32253773015816
30
0
41
1
10
334.541348112318
20
2.58650413533212
30
0
41
1
10
334.794697031526
20
2.68140491722812
30
0
41
1
10
335.166617324189
20
2.8349514677864
30
0
41
1
10
335.289522071833
20
2.88813622001905
30
0
41
1
10
335.530592119953
20
2.99752663676958
30
0
41
1
10
335.648847972926
20
3.05375620207729
30
0
41
1
10
336.228667525823
20
3.34261880202536
30
0
41
1
10
336.656062218867
20
3.59825469629089
30
0
41
1
10
337.238883439525
20
4.02093693763194
30
0
41
1
10
337.42360260367
20
4.16857158770563
30
0
41
1
10
337.771518877104
20
4.47706227911195
30
0
41
1
10
337.932157648211
20
4.63561850847699
30
0
41
1
10
338.375003012136
20
5.12393271756395
30
0
41
1
10
338.61839336106
20
5.46625378148366
30
0
41
1
10
338.856911805291
20
5.91542557518113
30
0
41
1
10
338.901309228203
20
6.00633002450996
30
0
41
1
10
338.983384413877
20
6.19031377698633
30
0
41
1
10
339.020993633377
20
6.28329779679743
30
0
41
1
10
339.122562490949
20
6.56237586349243
30
0
41
1
10
339.175755955283
20
6.7496104157886
30
0
41
1
10
339.293646399434
20
7.31470950806931
30
0
41
1
10
339.316890693442
20
7.69595015957188
30
0
41
1
10
339.271211427241
20
8.27437117713538
30
0
41
1
10
339.242604555239
20
8.46635839789991
30
0
41
1
10
339.160643427686
20
8.84659360656229
30
0
41
1
10
339.107256577506
20
9.03521176575453
30
0
41
1
10
338.976963489493
20
9.40960549044559
30
0
41
1
10
338.900053666047
20
9.59538062258119
30
0
41
1
10
338.723585536777
20
9.96419355227002
30
0
41
1
10
338.623771992405
20
10.1476165918831
30
0
41
1
10
338.513667814789
20
10.3285146642097
30
0
0
SPLINE
5
2D9
100
AcDbEntity
8
1
62
256
6
ByLayer
370
13
48
1
60
0
100
AcDbSpline
70
4
71
3
72
8
73
4
40
0
40
0
40
0
40
0
40
1
40
1
40
1
40
1
41
1
10
35
20
-10.7040307820105
30
0
41
1
10
34.0468648325172
20
-10.70409829594
30
0
41
1
10
33.0940077591116
20
-10.7046121134442
30
0
41
1
10
32.1414284400865
20
-10.7055719573884
30
0
0
SPLINE
5
2DA
100
AcDbEntity
8
1
62
256
6
ByLayer
370
13
48
1
60
0
100
AcDbSpline
70
4
71
3
72
12
73
8
40
0
40
0
40
0
40
0
40
0.500000000000025
40
0.500000000000025
40
0.750000000000013
40
0.750000000000013
40
1
40
1
40
1
40
1
41
1
10
321.595765826943
20
11.4902137311342
30
0
41
1
10
321.594307060497
20
11.3154454531857
30
0
41
1
10
321.570868595881
20
11.1440834856415
30
0
41
1
10
321.494707257058
20
10.8933950861917
30
0
41
1
10
321.462556111707
20
10.8119436895742
30
0
41
1
10
321.384920936472
20
10.6572791752568
30
0
41
1
10
321.339188153742
20
10.583365041041
30
0
41
1
10
321.285799840107
20
10.5138916114172
30
0
0
SPLINE
5
2DB
100
AcDbEntity
8
1
62
256
6
ByLayer
370
13
48
1
60
0
100
AcDbSpline
70
4
71
3
72
30
73
26
40
0
40
0
40
0
40
0
40
0.112742122398992
40
0.112742122398992
40
0.225484244797983
40
0.225484244797983
40
0.338226367196975
40
0.338226367196975
40
0.394597428396475
40
0.394597428396475
40
0.450968489595976
40
0.450968489595976
40
0.563710611994986
40
0.563710611994986
40
0.676452734393997
40
0.676452734393997
40
0.732823795593502
40
0.732823795593502
40
0.789194856793007
40
0.789194856793007
40
0.901936979192018
40
0.901936979192018
40
0.958308040391523
40
0.958308040391523
40
1
40
1
40
1
40
1
41
1
10
317.262382573039
20
10.5175942048836
30
0
41
1
10
316.656010590901
20
10.6612633528052
30
0
41
1
10
316.043451593843
20
10.7792223957801
30
0
41
1
10
314.807157309011
20
10.9719949089978
30
0
41
1
10
314.183404945984
20
11.0467287297006
30
0
41
1
10
312.924619302384
20
11.1567817495884
30
0
41
1
10
312.289581395238
20
11.1920673970534
30
0
41
1
10
311.327785114502
20
11.2162353695293
30
0
41
1
10
311.00563947505
20
11.219479738395
30
0
41
1
10
310.358038827857
20
11.2162829280998
30
0
41
1
10
310.031864126336
20
11.2098059758173
30
0
41
1
10
309.055574437376
20
11.1758870765155
30
0
41
1
10
308.406626831651
20
11.1340953363187
30
0
41
1
10
307.112434992097
20
11.0125673717895
30
0
41
1
10
306.467189175925
20
10.9328496337487
30
0
41
1
10
305.502134466395
20
10.783769890031
30
0
41
1
10
305.180919995448
20
10.7291440454327
30
0
41
1
10
304.53946201885
20
10.609593198936
30
0
41
1
10
304.218310916139
20
10.5444480031007
30
0
41
1
10
303.268008349614
20
10.3352230024651
30
0
41
1
10
302.649300247742
20
10.1771531623631
30
0
41
1
10
301.746856464503
20
9.90984611322776
30
0
41
1
10
301.450334206808
20
9.81567641571121
30
0
41
1
10
300.942847468804
20
9.64214527867716
30
0
41
1
10
300.72913178375
20
9.56506105738359
30
0
41
1
10
300.520198332869
20
9.48533612552347
30
0
0
SPLINE
5
2DC
100
AcDbEntity
8
1
62
256
6
ByLayer
370
13
48
1
60
0
100
AcDbSpline
70
4
71
3
72
8
73
4
40
0
40
0
40
0
40
0
40
1
40
1
40
1
40
1
41
1
10
323.49854280623
20
22.0507118662524
30
0
41
1
10
323.486759801547
20
22.0300877636444
30
0
41
1
10
323.474199875524
20
22.0112870983835
30
0
41
1
10
323.461358086286
20
21.9942225180308
30
0
0
SPLINE
5
2DD
100
AcDbEntity
8
1
62
256
6
ByLayer
370
13
48
1
60
0
100
AcDbSpline
70
4
71
3
72
8
73
4
40
0
40
0
40
0
40
0
40
1
40
1
40
1
40
1
41
1
10
35.0100000000001
20
-28.9491846107397
30
0
41
1
10
34.0538094789128
20
-28.9491142448632
30
0
41
1
10
33.0976189578494
20
-28.9490436403868
30
0
41
1
10
32.141428436774
20
-28.9489731557343
30
0
0
SPLINE
5
2DE
100
AcDbEntity
8
1
62
256
6
ByLayer
370
13
48
1
60
0
100
AcDbSpline
70
4
71
3
72
48
73
44
40
0
40
0
40
0
40
0
40
0.0134446846975925
40
0.0134446846975925
40
0.0363878315650903
40
0.0363878315650903
40
0.0822741253000875
40
0.0822741253000875
40
0.128160419035083
40
0.128160419035083
40
0.151103565902581
40
0.151103565902581
40
0.174046712770079
40
0.174046712770079
40
0.219933006505074
40
0.219933006505074
40
0.26581930024007
40
0.26581930024007
40
0.311705593975066
40
0.311705593975066
40
0.357591887710061
40
0.357591887710061
40
0.449364475180052
40
0.449364475180052
40
0.495250768915048
40
0.495250768915048
40
0.541137062650043
40
0.541137062650043
40
0.587023356385039
40
0.587023356385039
40
0.632909650120035
40
0.632909650120035
40
0.67879594385503
40
0.67879594385503
40
0.724682237590026
40
0.724682237590026
40
0.770568531325022
40
0.770568531325022
40
0.816454825060017
40
0.816454825060017
40
0.908227412530009
40
0.908227412530009
40
1
40
1
40
1
40
1
41
1
10
260.342080904268
20
-24.5808116542775
30
0
41
1
10
259.913856892639
20
-24.6845411929569
30
0
41
1
10
259.485737455006
20
-24.7868224617242
30
0
41
1
10
258.327342102576
20
-25.0597335777767
30
0
41
1
10
257.597323957241
20
-25.2276440131557
30
0
41
1
10
255.407218192533
20
-25.7174343022707
30
0
41
1
10
253.947136035245
20
-26.0253270337269
30
0
41
1
10
251.019572928202
20
-26.5970936365149
30
0
41
1
10
249.55183677293
20
-26.860905659582
30
0
41
1
10
247.338693772767
20
-27.2201217724394
30
0
41
1
10
246.599349015537
20
-27.3337180014275
30
0
41
1
10
245.116581171107
20
-27.5486791772201
30
0
41
1
10
244.373235043358
20
-27.6501249489087
30
0
41
1
10
242.137295849725
20
-27.9376081713694
30
0
41
1
10
240.638169655732
20
-28.1068673361796
30
0
41
1
10
237.62808858383
20
-28.406284810118
30
0
41
1
10
236.11700113219
20
-28.5364474993058
30
0
41
1
10
233.083269586723
20
-28.763993822138
30
0
41
1
10
231.560640120572
20
-28.8613833752816
30
0
41
1
10
228.504490719412
20
-29.0287975316165
30
0
41
1
10
226.97099498809
20
-29.0988047440647
30
0
41
1
10
222.353477017226
20
-29.2740715577379
30
0
41
1
10
219.258381065467
20
-29.3444244510573
30
0
41
1
10
214.589810472828
20
-29.4050691215828
30
0
41
1
10
213.029191799119
20
-29.4177881088704
30
0
41
1
10
209.898539530702
20
-29.4321230598269
30
0
41
1
10
208.327972679374
20
-29.4337289921299
30
0
41
1
10
205.181677199123
20
-29.4296125152526
30
0
41
1
10
203.60541179694
20
-29.4239108680549
30
0
41
1
10
200.446361271425
20
-29.4087990661977
30
0
41
1
10
198.863633706026
20
-29.3993889485412
30
0
41
1
10
195.692032468687
20
-29.3796156334867
30
0
41
1
10
194.102863997234
20
-29.3692361474772
30
0
41
1
10
190.91987493646
20
-29.3496091600092
30
0
41
1
10
189.327491332303
20
-29.3403301883654
30
0
41
1
10
186.140737107128
20
-29.3248412603381
30
0
41
1
10
184.546281563417
20
-29.3188240647665
30
0
41
1
10
181.355628380054
20
-29.3103849541439
30
0
41
1
10
179.759446927014
20
-29.307915816347
30
0
41
1
10
174.969611548272
20
-29.3033987849277
30
0
41
1
10
171.77533919032
20
-29.3038215056748
30
0
41
1
10
165.387669610148
20
-29.3049731382533
30
0
41
1
10
162.193835944897
20
-29.305678079932
30
0
41
1
10
159
20
-29.306115466787
30
0
0
SPLINE
5
2DF
100
AcDbEntity
8
1
62
256
6
ByLayer
370
13
48
1
60
0
100
AcDbSpline
70
4
71
3
72
10
73
6
40
0
40
0
40
0
40
0
40
0.5
40
0.5
40
1
40
1
40
1
40
1
41
1
10
320.994731675698
20
8.60437400577138
30
0
41
1
10
320.417250342188
20
8.9807469163699
30
0
41
1
10
319.812813387215
20
9.32234783685951
30
0
41
1
10
318.565097114906
20
9.95544412780242
30
0
41
1
10
317.921631850362
20
10.2466996316126
30
0
41
1
10
317.262382573039
20
10.517594204883
30
0
0
SPLINE
5
2E0
100
AcDbEntity
8
1
62
256
6
ByLayer
370
13
48
1
60
0
100
AcDbSpline
70
4
71
3
72
14
73
10
40
0
40
0
40
0
40
0
40
0.12500000000005
40
0.12500000000005
40
0.250000000000099
40
0.250000000000099
40
0.500000000000066
40
0.500000000000066
40
1
40
1
40
1
40
1
41
1
10
336.424967649591
20
11.7211090459703
30
0
41
1
10
336.465658114954
20
11.723241542898
30
0
41
1
10
336.507114571247
20
11.7263099381952
30
0
41
1
10
336.588916168714
20
11.734165775426
30
0
41
1
10
336.629667993413
20
11.7389727045264
30
0
41
1
10
336.75154932817
20
11.7560199635383
30
0
41
1
10
336.832304212869
20
11.7708787766346
30
0
41
1
10
337.073641151445
20
11.8261326836476
30
0
41
1
10
337.233219567449
20
11.8770048973892
30
0
41
1
10
337.393438565166
20
11.9443230266555
30
0
0
SPLINE
5
2E1
100
AcDbEntity
8
1
62
256
6
ByLayer
370
13
48
1
60
0
100
AcDbSpline
70
4
71
3
72
10
73
6
40
0
40
0
40
0
40
0
40
0.5
40
0.5
40
1
40
1
40
1
40
1
41
1
10
10.2564
20
4.74143664446007
30
0
41
1
10
9.41634458435767
20
4.9405347660942
30
0
41
1
10
8.570502292377
20
5.10391695000837
30
0
41
1
10
6.8698900054285
20
5.37558055790549
30
0
41
1
10
6.01508397437235
20
5.48363957128205
30
0
41
1
10
5.15640000000019
20
5.56776436283181
30
0
0
SPLINE
5
2E2
100
AcDbEntity
8
1
62
256
6
ByLayer
370
13
48
1
60
0
100
AcDbSpline
70
4
71
3
72
12
73
8
40
0
40
0
40
0
40
0
40
0.335769213655918
40
0.335769213655918
40
0.667884606827959
40
0.667884606827959
40
1
40
1
40
1
40
1
41
1
10
291.682886415145
20
13.0803921806047
30
0
41
1
10
294.619408493331
20
13.2453148833879
30
0
41
1
10
297.555493224635
20
13.3710038722336
30
0
41
1
10
303.397047854178
20
13.5401173320184
30
0
41
1
10
306.303093269173
20
13.584363419333
30
0
41
1
10
312.115566080264
20
13.5907501506656
30
0
41
1
10
315.021263689137
20
13.5528991379408
30
0
41
1
10
317.927476469374
20
13.4735633764209
30
0
0
SPLINE
5
2E3
100
AcDbEntity
8
1
62
256
6
ByLayer
370
13
48
1
60
0
100
AcDbSpline
70
4
71
3
72
16
73
12
40
0
40
0
40
0
40
0
40
0.25
40
0.25
40
0.375
40
0.375
40
0.5
40
0.5
40
0.75
40
0.75
40
1
40
1
40
1
40
1
41
1
10
342.683134311772
20
0.681416131249989
30
0
41
1
10
342.684392325262
20
0.729822362136304
30
0
41
1
10
342.686503796921
20
0.775516933443186
30
0
41
1
10
342.690744323397
20
0.835238432951684
30
0
41
1
10
342.692332439448
20
0.853726854723504
30
0
41
1
10
342.695862065498
20
0.887832248952066
30
0
41
1
10
342.697820605308
20
0.903529973720453
30
0
41
1
10
342.704051464222
20
0.944675526773494
30
0
41
1
10
342.708771809958
20
0.96497944734358
30
0
41
1
10
342.718987020606
20
0.989324757090856
30
0
41
1
10
342.72433160832
20
0.993253167241164
30
0
41
1
10
342.729920957157
20
0.988666722770262
30
0
0
SPLINE
5
2E4
100
AcDbEntity
8
1
62
256
6
ByLayer
370
13
48
1
60
0
100
AcDbSpline
70
4
71
3
72
16
73
12
40
0
40
0
40
0
40
0
40
0.250000000000005
40
0.250000000000005
40
0.500000000000009
40
0.500000000000009
40
0.625000000000012
40
0.625000000000012
40
0.750000000000014
40
0.750000000000014
40
1
40
1
40
1
40
1
41
1
10
322.705500060705
20
9.10029425256727
30
0
41
1
10
323.285717933934
20
8.93354153323503
30
0
41
1
10
323.866375629988
20
8.81839770135053
30
0
41
1
10
325.029464194781
20
8.68038477076234
30
0
41
1
10
325.611887383879
20
8.65763583636155
30
0
41
1
10
326.486972736592
20
8.69164467920729
30
0
41
1
10
326.778904814948
20
8.71439696458663
30
0
41
1
10
327.363202569288
20
8.78323361232123
30
0
41
1
10
327.653097723704
20
8.82904626633413
30
0
41
1
10
328.513951547253
20
8.99978256921085
30
0
41
1
10
329.077053085556
20
9.15792740906289
30
0
41
1
10
329.628399187187
20
9.36103203553017
30
0
0
SPLINE
5
2E5
100
AcDbEntity
8
1
62
256
6
ByLayer
370
13
48
1
60
0
100
AcDbSpline
70
4
71
3
72
8
73
4
40
0
40
0
40
0
40
0
40
1
40
1
40
1
40
1
41
1
10
318.539169144041
20
29.237008986227
30
0
41
1
10
319.539104153563
20
29.3503475730697
30
0
41
1
10
320.539105217202
20
29.4631020145519
30
0
41
1
10
321.539169144041
20
29.5752918931905
30
0
0
SPLINE
5
2E6
100
AcDbEntity
8
1
62
256
6
ByLayer
370
13
48
1
60
0
100
AcDbSpline
70
4
71
3
72
14
73
10
40
0
40
0
40
0
40
0
40
0.0145581563149267
40
0.0145581563149267
40
0.343038770876618
40
0.343038770876618
40
0.671519385438309
40
0.671519385438309
40
1
40
1
40
1
40
1
41
1
10
324.191890710356
20
28.1969966688012
30
0
41
1
10
324.191899997023
20
28.1938236394477
30
0
41
1
10
324.19191178338
20
28.1906418026841
30
0
41
1
10
324.192240074466
20
28.1155225737798
30
0
41
1
10
324.193704453329
20
28.038843787342
30
0
41
1
10
324.197343052513
20
27.8842605291925
30
0
41
1
10
324.199589420293
20
27.8058522640814
30
0
41
1
10
324.204543214699
20
27.6481452449243
30
0
41
1
10
324.207258979334
20
27.5688399824827
30
0
41
1
10
324.210137023227
20
27.4892278129024
30
0
0
SPLINE
5
2E7
100
AcDbEntity
8
1
62
256
6
ByLayer
370
13
48
1
60
0
100
AcDbSpline
70
4
71
3
72
10
73
6
40
0
40
0
40
0
40
0
40
0.5
40
0.5
40
1
40
1
40
1
40
1
41
1
10
332.951308693994
20
10.0370037751241
30
0
41
1
10
333.964500550482
20
10.0901029103102
30
0
41
1
10
334.937953742204
20
10.1411194303244
30
0
41
1
10
336.796169740848
20
10.2385044042415
30
0
41
1
10
337.681016830895
20
10.2848772752359
30
0
41
1
10
338.513667814791
20
10.3285146642197
30
0
0
SPLINE
5
2E8
100
AcDbEntity
8
1
62
256
6
ByLayer
370
13
48
1
60
0
100
AcDbSpline
70
4
71
3
72
19
73
15
40
0
40
0
40
0
40
0
40
0.25
40
0.25
40
0.375
40
0.375
40
0.5
40
0.5
40
0.75
40
0.75
40
0.812500000000001
40
0.812500000000001
40
0.875000000000001
40
1
40
1
40
1
40
1
41
1
10
6.29355167076041
20
-22.9708754795405
30
0
41
1
10
6.12614078939701
20
-23.3079058420388
30
0
41
1
10
5.99768819185493
20
-23.6437732278387
30
0
41
1
10
5.86764497210352
20
-24.1447574452177
30
0
41
1
10
5.83521654534788
20
-24.3097251616655
30
0
41
1
10
5.79229627148104
20
-24.6332236295355
30
0
41
1
10
5.78169764221892
20
-24.7921406645408
30
0
41
1
10
5.78171500105175
20
-25.2604495890082
30
0
41
1
10
5.82458499199961
20
-25.5614012558148
30
0
41
1
10
5.93231020886456
20
-25.9234633447226
30
0
41
1
10
5.95660611273779
20
-25.9951014468282
30
0
41
1
10
6.0103460325101
20
-26.1356833526011
30
0
41
1
10
6.09859512797262
20
-26.3430424888219
30
0
41
1
10
6.20953978304638
20
-26.5401224938825
30
0
41
1
10
6.29341376191294
20
-26.6671501297807
30
0
0
SPLINE
5
2E9
100
AcDbEntity
8
1
62
256
6
ByLayer
370
13
48
1
60
0
100
AcDbSpline
70
4
71
3
72
16
73
12
40
0
40
0
40
0
40
0
40
0.125
40
0.125
40
0.25
40
0.25
40
0.5
40
0.5
40
0.75
40
0.75
40
1
40
1
40
1
40
1
41
1
10
159
20
-29.306115466787
30
0
41
1
10
154.041677548825
20
-29.3198599011704
30
0
41
1
10
149.083343561105
20
-29.3330264704418
30
0
41
1
10
139.166676184021
20
-29.359139216678
30
0
41
1
10
134.2083419303
20
-29.3721320447226
30
0
41
1
10
119.333339096827
20
-29.411101242226
30
0
41
1
10
109.416670269614
20
-29.4370496689432
30
0
41
1
10
89.5833354702535
20
-29.4892477992191
30
0
41
1
10
79.6666689489994
20
-29.5154365977395
30
0
41
1
10
59.833334637127
20
-29.567678359732
30
0
41
1
10
49.9166669797887
20
-29.5937468563202
30
0
41
1
10
40
20
-29.6198790612613
30
0
0
SPLINE
5
2EA
100
AcDbEntity
8
1
62
256
6
ByLayer
370
13
48
1
60
0
100
AcDbSpline
70
4
71
3
72
14
73
10
40
0
40
0
40
0
40
0
40
0.499999999999996
40
0.499999999999996
40
0.624999999999997
40
0.624999999999997
40
0.749999999999998
40
0.749999999999998
40
1
40
1
40
1
40
1
41
1
10
310.828768154165
20
29.0478254903627
30
0
41
1
10
311.763922360778
20
26.9013761182655
30
0
41
1
10
312.84546417189
20
24.8408044008582
30
0
41
1
10
314.441421008601
20
22.4082486469622
30
0
41
1
10
314.772829736187
20
21.9289047576998
30
0
41
1
10
315.46161623446
20
20.9854516059295
30
0
41
1
10
315.819351355945
20
20.5209081669632
30
0
41
1
10
316.93140672016
20
19.1542758400826
30
0
41
1
10
317.719364569002
20
18.2856200442169
30
0
41
1
10
318.554952201786
20
17.4603458956758
30
0
0
SPLINE
5
2EB
100
AcDbEntity
8
1
62
256
6
ByLayer
370
13
48
1
60
0
100
AcDbSpline
70
4
71
3
72
8
73
4
40
0
40
0
40
0
40
0
40
1
40
1
40
1
40
1
41
1
10
291.016413912372
20
13.3718844149353
30
0
41
1
10
292.348993875425
20
12.839902513704
30
0
41
1
10
293.681557421093
20
12.299567142426
30
0
41
1
10
295.014530927707
20
11.751689718396
30
0
0
SPLINE
5
2EC
100
AcDbEntity
8
1
62
256
6
ByLayer
370
13
48
1
60
0
100
AcDbSpline
70
4
71
3
72
12
73
8
40
0
40
0
40
0
40
0
40
0.24146659791251
40
0.24146659791251
40
0.494311065275009
40
0.494311065275009
40
1
40
1
40
1
40
1
41
1
10
295.305662235693
20
11.6319122858001
30
0
41
1
10
296.592899194289
20
11.1018007002753
30
0
41
1
10
297.8808124158
20
10.5645917032838
30
0
41
1
10
300.517596912675
20
9.45266750816174
30
0
41
1
10
301.86553900861
20
8.87779969918
30
0
41
1
10
305.908355587608
20
7.13788590650552
30
0
41
1
10
308.602242431448
20
5.95757390487498
30
0
41
1
10
311.298268544674
20
4.76456621871935
30
0
0
SPLINE
5
2ED
100
AcDbEntity
8
1
62
256
6
ByLayer
370
13
48
1
60
0
100
AcDbSpline
70
4
71
3
72
8
73
4
40
0
40
0
40
0
40
0
40
1
40
1
40
1
40
1
41
1
10
322.565820494331
20
9.14044922023245
30
0
41
1
10
322.536692175795
20
9.14784262457732
30
0
41
1
10
322.507402579809
20
9.15528906432496
30
0
41
1
10
322.477952173391
20
9.16278838589784
30
0
0
SPLINE
5
2EE
100
AcDbEntity
8
1
62
256
6
ByLayer
370
13
48
1
60
0
100
AcDbSpline
70
4
71
1
72
4
73
2
40
0
40
0
40
1
40
1
41
1
10
35.0100000001474
20
-28.9354273093701
30
0
41
1
10
35.0099999998526
20
-28.9491846107397
30
0
0
SPLINE
5
2EF
100
AcDbEntity
8
1
62
256
6
ByLayer
370
13
48
1
60
0
100
AcDbSpline
70
4
71
3
72
12
73
8
40
0
40
0
40
0
40
0
40
0.500000000000054
40
0.500000000000054
40
0.750000000000027
40
0.750000000000027
40
1
40
1
40
1
40
1
41
1
10
321.80816315342
20
9.34157116116813
30
0
41
1
10
321.938511550756
20
9.30540998316684
30
0
41
1
10
322.059618188171
20
9.27239373537415
30
0
41
1
10
322.22737269707
20
9.22760132614886
30
0
41
1
10
322.280961452693
20
9.21346321240452
30
0
41
1
10
322.383318923103
20
9.18682722358983
30
0
41
1
10
322.432185841817
20
9.17430570468619
30
0
41
1
10
322.477952173391
20
9.16278838589784
30
0
0
SPLINE
5
2F0
100
AcDbEntity
8
1
62
256
6
ByLayer
370
13
48
1
60
0
100
AcDbSpline
70
4
71
3
72
10
73
6
40
0
40
0
40
0
40
0
40
0.5
40
0.5
40
1
40
1
40
1
40
1
41
1
10
319.54487789496
20
13.542714051513
30
0
41
1
10
319.619080930973
20
13.5509961612139
30
0
41
1
10
319.693706393783
20
13.5569887575601
30
0
41
1
10
319.844312759656
20
13.5616275920662
30
0
41
1
10
319.920258670844
20
13.560463482881
30
0
41
1
10
319.997505573822
20
13.5522481210356
30
0
0
SPLINE
5
2F1
100
AcDbEntity
8
1
62
256
6
ByLayer
370
13
48
1
60
0
100
AcDbSpline
70
4
71
3
72
8
73
4
40
0
40
0
40
0
40
0
40
1
40
1
40
1
40
1
41
1
10
320.920219499785
20
-0.390212225885819
30
0
41
1
10
321.126531089825
20
-0.41334800095936
30
0
41
1
10
321.332847662857
20
-0.436462268023917
30
0
41
1
10
321.539169144041
20
-0.45955527932
30
0
0
SPLINE
5
2F2
100
AcDbEntity
8
1
62
256
6
ByLayer
370
13
48
1
60
0
100
AcDbSpline
70
4
71
3
72
8
73
4
40
0
40
0
40
0
40
0
40
1
40
1
40
1
40
1
41
1
10
318.203958412573
20
13.6087192919955
30
0
41
1
10
318.618296152652
20
13.6157243109515
30
0
41
1
10
319.018445197393
20
13.5912488027261
30
0
41
1
10
319.404595183607
20
13.5345265188178
30
0
0
SPLINE
5
2F3
100
AcDbEntity
8
1
62
256
6
ByLayer
370
13
48
1
60
0
100
AcDbSpline
70
4
71
3
72
8
73
4
40
0
40
0
40
0
40
0
40
1
40
1
40
1
40
1
41
1
10
314.607122551424
20
3.14089636246328
30
0
41
1
10
313.501161713101
20
3.67262558335278
30
0
41
1
10
312.398258327343
20
4.21400013586629
30
0
41
1
10
311.298268544674
20
4.76456621871944
30
0
0
SPLINE
5
2F4
100
AcDbEntity
8
1
62
256
6
ByLayer
370
13
48
1
60
0
100
AcDbSpline
70
4
71
3
72
8
73
4
40
0
40
0
40
0
40
0
40
1
40
1
40
1
40
1
41
1
10
0.0999999999999659
20
-5.56776436282993
30
0
41
1
10
0.0648944344305846
20
-5.37072855948901
30
0
41
1
10
0.03155109950454
20
-5.17345582387856
30
0
41
1
10
0
20
-4.97594212184998
30
0
0
SPLINE
5
2F5
100
AcDbEntity
8
1
62
256
6
ByLayer
370
13
48
1
60
0
100
AcDbSpline
70
4
71
3
72
10
73
6
40
0
40
0
40
0
40
0
40
0.5
40
0.5
40
1
40
1
40
1
40
1
41
1
10
341.48333675229
20
-5.51229278905546
30
0
41
1
10
341.537715819867
20
-5.80607233423279
30
0
41
1
10
341.571196530165
20
-6.09981818232822
30
0
41
1
10
341.598357368368
20
-6.6871197447893
30
0
41
1
10
341.592034179202
20
-6.98067574172384
30
0
41
1
10
341.565551092596
20
-7.27412902899783
30
0
0
SPLINE
5
2F6
100
AcDbEntity
8
1
62
256
6
ByLayer
370
13
48
1
60
0
100
AcDbSpline
70
4
71
3
72
10
73
6
40
0
40
0
40
0
40
0
40
0.5
40
0.5
40
1
40
1
40
1
40
1
41
1
10
329.628399187187
20
9.3610320355302
30
0
41
1
10
330.197342508764
20
9.57061911788853
30
0
41
1
10
330.758072553239
20
9.72389671666488
30
0
41
1
10
331.865820309674
20
9.94319469155164
30
0
41
1
10
332.412743501104
20
10.0087787693649
30
0
41
1
10
332.951308693994
20
10.0370037751241
30
0
0
SPLINE
5
2F7
100
AcDbEntity
8
1
62
256
6
ByLayer
370
13
48
1
60
0
100
AcDbSpline
70
4
71
3
72
18
73
14
40
0
40
0
40
0
40
0
40
0.111151788049087
40
0.111151788049087
40
0.288921430439269
40
0.288921430439269
40
0.466691072829452
40
0.466691072829452
40
0.644460715219635
40
0.644460715219635
40
0.822230357609818
40
0.822230357609818
40
1
40
1
40
1
40
1
41
1
10
35.4500085697263
20
-10.6932653232486
30
0
41
1
10
35.4500131216257
20
-10.8954899188912
30
0
41
1
10
35.4500173789325
20
-11.1038847461587
30
0
41
1
10
35.4500276038021
20
-11.6581234353165
30
0
41
1
10
35.4500330668889
20
-12.0114758780573
30
0
41
1
10
35.4500421542213
20
-12.7310462359213
30
0
41
1
10
35.4500457782964
20
-13.0972506460669
30
0
41
1
10
35.4500510661631
20
-13.8302609404419
30
0
41
1
10
35.4500527298555
20
-14.1970530674516
30
0
41
1
10
35.4500540411649
20
-14.9189546537824
30
0
41
1
10
35.4500536887574
20
-15.2740505643732
30
0
41
1
10
35.4500509795936
20
-15.9606668307039
30
0
41
1
10
35.4500486228881
20
-16.2921742999523
30
0
41
1
10
35.4500453034348
20
-16.6063423229471
30
0
0
SPLINE
5
2F8
100
AcDbEntity
8
1
62
256
6
ByLayer
370
13
48
1
60
0
100
AcDbSpline
70
4
71
3
72
8
73
4
40
0
40
0
40
0
40
0
40
1
40
1
40
1
40
1
41
1
10
342.684178736446
20
0.581663675733665
30
0
41
1
10
342.840597408016
20
0.605636177643987
30
0
41
1
10
342.995487106756
20
0.61616537047766
30
0
41
1
10
343.15014874823
20
0.615067160418334
30
0
0
SPLINE
5
2F9
100
AcDbEntity
8
1
62
256
6
ByLayer
370
13
48
1
60
0
100
AcDbSpline
70
4
71
3
72
10
73
6
40
0
40
0
40
0
40
0
40
0.5
40
0.5
40
1
40
1
40
1
40
1
41
1
10
337.393438565164
20
11.9443230266555
30
0
41
1
10
337.417895995676
20
11.9545991393027
30
0
41
1
10
337.443960152755
20
11.9629919798426
30
0
41
1
10
337.497295542507
20
11.9751436684866
30
0
41
1
10
337.524744011728
20
11.9790046865333
30
0
41
1
10
337.552985779259
20
11.9805004025616
30
0
0
SPLINE
5
2FA
100
AcDbEntity
8
1
62
256
6
ByLayer
370
13
48
1
60
0
100
AcDbSpline
70
4
71
3
72
73
73
69
40
0
40
0
40
0
40
0
40
0.0101273433029012
40
0.0101273433029012
40
0.029163355931691
40
0.029163355931691
40
0.0481993685604808
40
0.0481993685604808
40
0.0577173748748757
40
0.0577173748748757
40
0.0672353811892706
40
0.0672353811892706
40
0.0862713938180608
40
0.0862713938180608
40
0.105307406446851
40
0.105307406446851
40
0.124343419075641
40
0.124343419075641
40
0.143379431704431
40
0.143379431704431
40
0.162415444333221
40
0.162415444333221
40
0.181451456962012
40
0.181451456962012
40
0.200487469590802
40
0.200487469590802
40
0.219523482219592
40
0.219523482219592
40
0.238559494848382
40
0.238559494848382
40
0.257595507477172
40
0.257595507477172
40
0.276631520105962
40
0.276631520105962
40
0.295667532734752
40
0.295667532734752
40
0.314703545363543
40
0.314703545363543
40
0.333739557992333
40
0.333739557992333
40
0.352775570621123
40
0.352775570621123
40
0.362293576935518
40
0.362293576935518
40
0.371811583249913
40
0.371811583249913
40
0.381329589564308
40
0.381329589564308
40
0.390847595878703
40
0.409883608507494
40
0.409883608507494
40
0.428919621136284
40
0.428919621136284
40
0.466991646393865
40
0.466991646393865
40
0.505063671651446
40
0.505063671651446
40
0.543135696909027
40
0.543135696909027
40
0.581207722166608
40
0.581207722166608
40
0.619279747424189
40
0.619279747424189
40
0.695423797939351
40
0.695423797939351
40
0.847711898969676
40
0.847711898969676
40
1
40
1
40
1
40
1
41
1
10
259.872474400436
20
-24.4397989929079
30
0
41
1
10
259.168199813113
20
-24.6056097170982
30
0
41
1
10
258.46403250247
20
-24.7679152473651
30
0
41
1
10
256.437330057828
20
-25.2243781238261
30
0
41
1
10
255.115480188362
20
-25.5061619401054
30
0
41
1
10
252.467561571834
20
-26.0328052313116
30
0
41
1
10
251.141367875698
20
-26.2779148302478
30
0
41
1
10
249.145583672247
20
-26.618140923181
30
0
41
1
10
248.479170366536
20
-26.7270353773325
30
0
41
1
10
247.143213427874
20
-26.936200821053
30
0
41
1
10
246.473644547058
20
-27.0364031378993
30
0
41
1
10
244.459772006224
20
-27.3219967237136
30
0
41
1
10
243.110569645084
20
-27.4930900146615
30
0
41
1
10
240.402889329705
20
-27.8011106723471
30
0
41
1
10
239.043843303676
20
-27.9382046746325
30
0
41
1
10
236.315373904914
20
-28.1815879703818
30
0
41
1
10
234.945965011474
20
-28.2880308114342
30
0
41
1
10
232.197209980119
20
-28.4758893978079
30
0
41
1
10
230.817867698968
20
-28.5573217280608
30
0
41
1
10
228.049702732728
20
-28.7002596548481
30
0
41
1
10
226.661824480762
20
-28.7615428564133
30
0
41
1
10
223.87963314696
20
-28.8650582676832
30
0
41
1
10
222.48510860242
20
-28.9072980506418
30
0
41
1
10
219.688935001916
20
-28.9742633919612
30
0
41
1
10
218.287304999484
20
-28.9987318710122
30
0
41
1
10
215.476471683629
20
-29.0332178540125
30
0
41
1
10
214.066922157246
20
-29.0436976193398
30
0
41
1
10
211.240853617028
20
-29.058442989692
30
0
41
1
10
209.825133906066
20
-29.0629696912978
30
0
41
1
10
206.988089681745
20
-29.0660802130025
30
0
41
1
10
205.566766988776
20
-29.0646227836622
30
0
41
1
10
202.718222501343
20
-29.0552122076058
30
0
41
1
10
201.290987222425
20
-29.0471411769973
30
0
41
1
10
198.430646708157
20
-29.0285999007914
30
0
41
1
10
196.996966239262
20
-29.0181759479905
30
0
41
1
10
194.127307206719
20
-28.9990758114329
30
0
41
1
10
192.691315370848
20
-28.9902906579575
30
0
41
1
10
189.817063880106
20
-28.9753020098356
30
0
41
1
10
188.378817512885
20
-28.9694864369128
30
0
41
1
10
185.499887019751
20
-28.9546146700358
30
0
41
1
10
184.059173563737
20
-28.9439187939682
30
0
41
1
10
181.896458244158
20
-28.9335816079083
30
0
41
1
10
181.1752287491
20
-28.9314496897501
30
0
41
1
10
179.732424901995
20
-28.9335357787799
30
0
41
1
10
179.011020243632
20
-28.9372531635359
30
0
41
1
10
177.568207567437
20
-28.9439922920949
30
0
41
1
10
176.846799649945
20
-28.9465823333641
30
0
41
1
10
175.403981759979
20
-28.9491611142767
30
0
41
1
10
173.239751625041
20
-28.949875976334
30
0
41
1
10
171.075514183937
20
-28.9444158285651
30
0
41
1
10
168.18986239676
20
-28.937525994314
30
0
41
1
10
166.747035853636
20
-28.9347196235769
30
0
41
1
10
162.418556355516
20
-28.9294615069425
30
0
41
1
10
159.532903337032
20
-28.9298598785795
30
0
41
1
10
153.761601022785
20
-28.9338909455103
30
0
41
1
10
150.875951338872
20
-28.9359518566898
30
0
41
1
10
145.104653541442
20
-28.937384879849
30
0
41
1
10
142.219004873383
20
-28.9371279729907
30
0
41
1
10
136.447707673352
20
-28.9352962079994
30
0
41
1
10
133.562059148542
20
-28.9338711683953
30
0
41
1
10
127.790761963097
20
-28.9322974947732
30
0
41
1
10
124.905113291017
20
-28.9322469055969
30
0
41
1
10
116.24816712868
20
-28.9332749020297
30
0
41
1
10
110.476869547584
20
-28.9354751387207
30
0
41
1
10
93.1629768045549
20
-28.9380679453591
30
0
41
1
10
81.620381414145
20
-28.9355328710356
30
0
41
1
10
58.5351907214006
20
-28.9342421997215
30
0
41
1
10
46.9925953568555
20
-28.93535843801
30
0
41
1
10
35.45
20
-28.9354584606942
30
0
0
SPLINE
5
2FB
100
AcDbEntity
8
1
62
256
6
ByLayer
370
13
48
1
60
0
100
AcDbSpline
70
4
71
3
72
12
73
8
40
0
40
0
40
0
40
0
40
0.5
40
0.5
40
0.75
40
0.75
40
1
40
1
40
1
40
1
41
1
10
316.338547346664
20
2.54259103904533
30
0
41
1
10
316.821891845409
20
2.43587462158715
30
0
41
1
10
317.307944680112
20
2.38937468890291
30
0
41
1
10
318.035554684503
20
2.40939136012165
30
0
41
1
10
318.277831926016
20
2.43112485622018
30
0
41
1
10
318.760627069331
20
2.50582371867901
30
0
41
1
10
318.997728252623
20
2.55832700421141
30
0
41
1
10
319.228579187481
20
2.62504678388817
30
0
0
SPLINE
5
2FC
100
AcDbEntity
8
1
62
256
6
ByLayer
370
13
48
1
60
0
100
AcDbSpline
70
4
71
3
72
20
73
16
40
0
40
0
40
0
40
0
40
0.24999999999999
40
0.24999999999999
40
0.374999999999992
40
0.374999999999992
40
0.499999999999993
40
0.499999999999993
40
0.624999999999995
40
0.624999999999995
40
0.749999999999997
40
0.749999999999997
40
0.874999999999998
40
0.874999999999998
40
1
40
1
40
1
40
1
41
1
10
317.512829096951
20
11.4751325315246
30
0
41
1
10
317.55383925982
20
11.6098493193531
30
0
41
1
10
317.591688301164
20
11.7583033124081
30
0
41
1
10
317.646581247201
20
12.0015092124554
30
0
41
1
10
317.664306673229
20
12.0850476361273
30
0
41
1
10
317.698522968694
20
12.2544138479689
30
0
41
1
10
317.715094490563
20
12.3406202371308
30
0
41
1
10
317.747612915054
20
12.5160265170464
30
0
41
1
10
317.763666571719
20
12.6058931469612
30
0
41
1
10
317.794946149824
20
12.7840370499609
30
0
41
1
10
317.810213690682
20
12.8725617603594
30
0
41
1
10
317.841014344761
20
13.0483511963792
30
0
41
1
10
317.856506465719
20
13.1356236174392
30
0
41
1
10
317.889705249105
20
13.3085030310228
30
0
41
1
10
317.907025792623
20
13.392767207788
30
0
41
1
10
317.927476469374
20
13.4735633764209
30
0
0
SPLINE
5
2FD
100
AcDbEntity
8
1
62
256
6
ByLayer
370
13
48
1
60
0
100
AcDbSpline
70
4
71
3
72
18
73
14
40
0
40
0
40
0
40
0
40
0.125000000000011
40
0.125000000000011
40
0.250000000000022
40
0.250000000000022
40
0.500000000000015
40
0.500000000000015
40
0.750000000000007
40
0.750000000000007
40
0.875000000000004
40
0.875000000000004
40
1
40
1
40
1
40
1
41
1
10
321.595765827014
20
11.4902137312131
30
0
41
1
10
321.530421805499
20
11.5886596747036
30
0
41
1
10
321.461596589751
20
11.68672331188
30
0
41
1
10
321.316387200194
20
11.881758069865
30
0
41
1
10
321.240336091837
20
11.9782396946561
30
0
41
1
10
321.003836549693
20
12.2612756517596
30
0
41
1
10
320.834213887053
20
12.4426314618216
30
0
41
1
10
320.469566933212
20
12.7883678845509
30
0
41
1
10
320.274527856208
20
12.9527138602296
30
0
41
1
10
319.961122500214
20
13.1843062981661
30
0
41
1
10
319.852637372365
20
13.2593508173429
30
0
41
1
10
319.631565419243
20
13.4022296511559
30
0
41
1
10
319.519037481949
20
13.4700906083519
30
0
41
1
10
319.404595183607
20
13.5345265188179
30
0
0
SPLINE
5
2FE
100
AcDbEntity
8
1
62
256
6
ByLayer
370
13
48
1
60
0
100
AcDbSpline
70
4
71
3
72
18
73
14
40
0
40
0
40
0
40
0
40
0.249999999999905
40
0.249999999999905
40
0.374999999999878
40
0.374999999999878
40
0.499999999999852
40
0.499999999999852
40
0.749999999999928
40
0.749999999999928
40
0.874999999999964
40
0.874999999999964
40
1
40
1
40
1
40
1
41
1
10
328.752959616462
20
11.3190361423125
30
0
41
1
10
328.747539013916
20
11.3187520605756
30
0
41
1
10
328.74870306217
20
11.3290051017203
30
0
41
1
10
328.76382849767
20
11.3574157631193
30
0
41
1
10
328.771142838909
20
11.3689177829582
30
0
41
1
10
328.79100290116
20
11.394411560377
30
0
41
1
10
328.803815423092
20
11.408654187063
30
0
41
1
10
328.849796732591
20
11.4511155464859
30
0
41
1
10
328.891932277473
20
11.4798055258161
30
0
41
1
10
328.965166391362
20
11.5109882334506
30
0
41
1
10
328.99166365153
20
11.5196655980151
30
0
41
1
10
329.045785705
20
11.5321463612238
30
0
41
1
10
329.073642941862
20
11.5361010136637
30
0
41
1
10
329.102306336378
20
11.5376190595275
30
0
0
SPLINE
5
2FF
100
AcDbEntity
8
1
62
256
6
ByLayer
370
13
48
1
60
0
100
AcDbSpline
70
4
71
3
72
14
73
10
40
0
40
0
40
0
40
0
40
0.25
40
0.25
40
0.5
40
0.5
40
0.75
40
0.75
40
1
40
1
40
1
40
1
41
1
10
327.86301987762
20
11.1718516301265
30
0
41
1
10
327.838189913335
20
11.1783603579306
30
0
41
1
10
327.811463401323
20
11.1856762748901
30
0
41
1
10
327.755744850538
20
11.1995758653008
30
0
41
1
10
327.726563757483
20
11.206210170594
30
0
41
1
10
327.66508514717
20
11.2170183115194
30
0
41
1
10
327.63378216318
20
11.2209774933104
30
0
41
1
10
327.570407159338
20
11.2251038293513
30
0
41
1
10
327.537888888429
20
11.2252446444295
30
0
41
1
10
327.506226946961
20
11.2235853123895
30
0
0
SPLINE
5
300
100
AcDbEntity
8
1
62
256
6
ByLayer
370
13
48
1
60
0
100
AcDbSpline
70
4
71
3
72
19
73
15
40
0
40
0
40
0
40
0
40
0.25
40
0.25
40
0.375
40
0.375
40
0.5
40
0.5
40
0.625
40
0.625
40
0.75
40
0.875
40
0.875
40
1
40
1
40
1
40
1
41
1
10
35.0050000325476
20
-16.610557771286
30
0
41
1
10
32.9389867581309
20
-16.9963394899268
30
0
41
1
10
30.8846414089311
20
-17.6057210435509
30
0
41
1
10
27.9673671809348
20
-18.8509090748863
30
0
41
1
10
27.0224861687661
20
-19.3218901588102
30
0
41
1
10
25.2108177643893
20
-20.3679295674787
30
0
41
1
10
24.3438740826973
20
-20.9422509164234
30
0
41
1
10
22.709556216611
20
-22.1799953152451
30
0
41
1
10
21.9422017739894
20
-22.8434309153337
30
0
41
1
10
20.5287695032401
20
-24.2458505205704
30
0
41
1
10
19.2359564091946
20
-25.7234005852048
30
0
41
1
10
18.2018784186729
20
-27.3076287320252
30
0
41
1
10
17.305916355118
20
-28.9234045021091
30
0
41
1
10
16.928041090036
20
-29.746962733509
30
0
41
1
10
16.6200205420755
20
-30.5757523215397
30
0
0
SPLINE
5
301
100
AcDbEntity
8
1
62
256
6
ByLayer
370
13
48
1
60
0
100
AcDbSpline
70
4
71
3
72
18
73
14
40
0
40
0
40
0
40
0
40
0.249999999999829
40
0.249999999999829
40
0.374999999999857
40
0.374999999999857
40
0.499999999999885
40
0.499999999999885
40
0.749999999999942
40
0.749999999999942
40
0.874999999999971
40
0.874999999999971
40
1
40
1
40
1
40
1
41
1
10
340.535851908976
20
12.136825830094
30
0
41
1
10
340.593218874437
20
12.1398323053581
30
0
41
1
10
340.650978754446
20
12.1326578859048
30
0
41
1
10
340.732306124869
20
12.1092832515984
30
0
41
1
10
340.75820243134
20
12.099512769477
30
0
41
1
10
340.806386965567
20
12.0775702923229
30
0
41
1
10
340.829065104019
20
12.065180261367
30
0
41
1
10
340.889137596936
20
12.0282604780194
30
0
41
1
10
340.920033886236
20
12.0033965073072
30
0
41
1
10
340.952375108359
20
11.9777636510841
30
0
41
1
10
340.961094706919
20
11.9709405790155
30
0
41
1
10
340.974273120033
20
11.962009116685
30
0
41
1
10
340.978879126339
20
11.9597694335183
30
0
41
1
10
340.981589869297
20
11.9599114975369
30
0
0
SPLINE
5
302
100
AcDbEntity
8
1
62
256
6
ByLayer
370
13
48
1
60
0
100
AcDbSpline
70
4
71
3
72
8
73
4
40
0
40
0
40
0
40
0
40
1
40
1
40
1
40
1
41
1
10
322.565820494329
20
9.14044922023325
30
0
41
1
10
322.612419552526
20
9.12704913134206
30
0
41
1
10
322.658979470308
20
9.11366411811508
30
0
41
1
10
322.705500060704
20
9.10029425256707
30
0
0
SPLINE
5
303
100
AcDbEntity
8
1
62
256
6
ByLayer
370
13
48
1
60
0
100
AcDbSpline
70
4
71
3
72
8
73
4
40
0
40
0
40
0
40
0
40
1
40
1
40
1
40
1
41
1
10
319.759060688774
20
2.47599803039756
30
0
41
1
10
319.996870220912
20
2.41838506268292
30
0
41
1
10
320.235661942927
20
2.36727154864821
30
0
41
1
10
320.475345069968
20
2.32250727021267
30
0
0
SPLINE
5
304
100
AcDbEntity
8
1
62
256
6
ByLayer
370
13
48
1
60
0
100
AcDbSpline
70
4
71
3
72
14
73
10
40
0
40
0
40
0
40
0
40
0.499999999999994
40
0.499999999999994
40
0.624999999999995
40
0.624999999999995
40
0.749999999999996
40
0.749999999999996
40
1
40
1
40
1
40
1
41
1
10
28.592174129202
20
-11.3537783378526
30
0
41
1
10
29.1527348245953
20
-11.1426078556124
30
0
41
1
10
29.7313714427121
20
-10.9811506957696
30
0
41
1
10
30.4778616813811
20
-10.8441136076188
30
0
41
1
10
30.628416727673
20
-10.8199731446337
30
0
41
1
10
30.9295080847994
20
-10.7786549107533
30
0
41
1
10
31.0803341408719
20
-10.761417858223
30
0
41
1
10
31.5336500583268
20
-10.7199290871651
30
0
41
1
10
31.836975974843
20
-10.7058787316898
30
0
41
1
10
32.1414284400865
20
-10.7055719573884
30
0
0
SPLINE
5
305
100
AcDbEntity
8
1
62
256
6
ByLayer
370
13
48
1
60
0
100
AcDbSpline
70
4
71
3
72
13
73
9
40
0
40
0
40
0
40
0
40
0.25
40
0.25
40
0.375
40
0.375
40
0.5
40
1
40
1
40
1
40
1
41
1
10
28.592174129202
20
-11.3537783378526
30
0
41
1
10
27.5938970664806
20
-11.399523281731
30
0
41
1
10
26.5963159096504
20
-11.4559327296903
30
0
41
1
10
25.1009850379506
20
-11.5564977560045
30
0
41
1
10
24.6028291457916
20
-11.5934934319333
30
0
41
1
10
23.606116388402
20
-11.6631654505395
30
0
41
1
10
21.1137241784692
20
-11.8317793276535
30
0
41
1
10
18.6182903464734
20
-11.9726531964208
30
0
41
1
10
16.6200110770412
20
-12.0677303287383
30
0
0
SPLINE
5
306
100
AcDbEntity
8
1
62
256
6
ByLayer
370
13
48
1
60
0
100
AcDbSpline
70
4
71
3
72
14
73
10
40
0
40
0
40
0
40
0
40
0.499999999999984
40
0.499999999999984
40
0.624999999999988
40
0.624999999999988
40
0.749999999999992
40
0.749999999999992
40
1
40
1
40
1
40
1
41
1
10
321.595765826943
20
11.4902137311345
30
0
41
1
10
321.609354046873
20
11.8377565530197
30
0
41
1
10
321.589983101287
20
12.1828604155754
30
0
41
1
10
321.509881341444
20
12.6101045580886
30
0
41
1
10
321.490937985701
20
12.6956453463287
30
0
41
1
10
321.447197196813
20
12.8646835376661
30
0
41
1
10
321.422468860976
20
12.948007040138
30
0
41
1
10
321.339349962643
20
13.1942401374312
30
0
41
1
10
321.272064210288
20
13.3534285123193
30
0
41
1
10
321.191564962036
20
13.507089144112
30
0
0
SPLINE
5
307
100
AcDbEntity
8
1
62
256
6
ByLayer
370
13
48
1
60
0
100
AcDbSpline
70
4
71
3
72
8
73
4
40
0
40
0
40
0
40
0
40
1
40
1
40
1
40
1
41
1
10
317.262382573039
20
10.517594204883
30
0
41
1
10
317.351052059164
20
10.8333409920314
30
0
41
1
10
317.432868781671
20
11.1501998957073
30
0
41
1
10
317.51078362346
20
11.4676920250827
30
0
0
SPLINE
5
308
100
AcDbEntity
8
1
62
256
6
ByLayer
370
13
48
1
60
0
100
AcDbSpline
70
4
71
3
72
8
73
4
40
0
40
0
40
0
40
0
40
1
40
1
40
1
40
1
41
1
10
318.203993307631
20
13.6085680637072
30
0
41
1
10
318.323400527913
20
14.8937221711013
30
0
41
1
10
318.440558863995
20
16.1776866457664
30
0
41
1
10
318.554976281497
20
17.4606158940414
30
0
0
SPLINE
5
309
100
AcDbEntity
8
1
62
256
6
ByLayer
370
13
48
1
60
0
100
AcDbSpline
70
4
71
3
72
14
73
10
40
0
40
0
40
0
40
0
40
0.500000000000073
40
0.500000000000073
40
0.750000000000036
40
0.750000000000036
40
0.875000000000018
40
0.875000000000018
40
1
40
1
40
1
40
1
41
1
10
332.252115878551
20
11.6748777220725
30
0
41
1
10
332.428094872949
20
11.6251789829723
30
0
41
1
10
332.60345890345
20
11.5918603590397
30
0
41
1
10
332.867370356775
20
11.5630853982326
30
0
41
1
10
332.955473112969
20
11.5570760391105
30
0
41
1
10
333.087996003557
20
11.5533615405891
30
0
41
1
10
333.132231659223
20
11.5530086166015
30
0
41
1
10
333.220854336184
20
11.5540843371294
30
0
41
1
10
333.265679991538
20
11.5555377956955
30
0
41
1
10
333.309581836171
20
11.5578385938792
30
0
0
SPLINE
5
30A
100
AcDbEntity
8
1
62
256
6
ByLayer
370
13
48
1
60
0
100
AcDbSpline
70
4
71
3
72
8
73
4
40
0
40
0
40
0
40
0
40
1
40
1
40
1
40
1
41
1
10
310.82876815416
20
29.0478254903551
30
0
41
1
10
310.849913548717
20
29.0799518440934
30
0
41
1
10
310.871026891736
20
29.1120996209802
30
0
41
1
10
310.89210835479
20
29.1442687063368
30
0
0
SPLINE
5
30B
100
AcDbEntity
8
1
62
256
6
ByLayer
370
13
48
1
60
0
100
AcDbSpline
70
4
71
3
72
8
73
4
40
0
40
0
40
0
40
0
40
1
40
1
40
1
40
1
41
1
10
322.485228494425
20
9.01778348944023
30
0
41
1
10
322.512178008428
20
9.05867072091166
30
0
41
1
10
322.539040219311
20
9.0995605589689
30
0
41
1
10
322.565820494323
20
9.14044922021526
30
0
0
SPLINE
5
30C
100
AcDbEntity
8
1
62
256
6
ByLayer
370
13
48
1
60
0
100
AcDbSpline
70
4
71
3
72
8
73
4
40
0
40
0
40
0
40
0
40
1
40
1
40
1
40
1
41
1
10
1.42E-14
20
4.97594212184995
30
0
41
1
10
0.031571657597965
20
5.1735845200318
30
0
41
1
10
0.0649171506606621
20
5.37085605809409
30
0
41
1
10
0.0999999999999801
20
5.56776436282993
30
0
0
SPLINE
5
30D
100
AcDbEntity
8
1
62
256
6
ByLayer
370
13
48
1
60
0
100
AcDbSpline
70
4
71
3
72
16
73
12
40
0
40
0
40
0
40
0
40
0.389995340695147
40
0.389995340695147
40
0.58499301104272
40
0.58499301104272
40
0.682491846216507
40
0.682491846216507
40
0.779990681390293
40
0.779990681390293
40
1
40
1
40
1
40
1
41
1
10
6.29355167076041
20
-22.9708754795404
30
0
41
1
10
6.56118619314236
20
-21.7914050483482
30
0
41
1
10
6.91983982143195
20
-20.6286488912799
30
0
41
1
10
7.6037370367206
20
-18.909615195077
30
0
41
1
10
7.85620703113459
20
-18.3408270528545
30
0
41
1
10
8.2745032580014
20
-17.4943162540239
30
0
41
1
10
8.42056574528098
20
-17.2132196638154
30
0
41
1
10
8.72642609595925
20
-16.6535551521536
30
0
41
1
10
8.88544533621516
20
-16.3764707338353
30
0
41
1
10
9.42203978442839
20
-15.4835400839683
30
0
41
1
10
9.82306754760685
20
-14.8789138518033
30
0
41
1
10
10.2526298253915
20
-14.287858949632
30
0
0
SPLINE
5
30E
100
AcDbEntity
8
1
62
256
6
ByLayer
370
13
48
1
60
0
100
AcDbSpline
70
4
71
3
72
34
73
30
40
0
40
0
40
0
40
0
40
0.0800256075452356
40
0.0800256075452356
40
0.160051215090471
40
0.160051215090471
40
0.320102430180942
40
0.320102430180942
40
0.400128037726179
40
0.400128037726179
40
0.480153645271416
40
0.480153645271416
40
0.64020486036189
40
0.64020486036189
40
0.720230467907127
40
0.720230467907127
40
0.800256075452364
40
0.800256075452364
40
0.880281682997601
40
0.880281682997601
40
0.900288084883912
40
0.900288084883912
40
0.920294486770222
40
0.920294486770222
40
0.940300888656533
40
0.940300888656533
40
0.960307290542843
40
0.960307290542843
40
1
40
1
40
1
40
1
41
1
10
310.828768154146
20
29.047825490364
30
0
41
1
10
309.485134753501
20
29.1322594343975
30
0
41
1
10
308.141779950529
20
29.198439930353
30
0
41
1
10
305.454771766002
20
29.2942316738431
30
0
41
1
10
304.110934663896
20
29.3238348091703
30
0
41
1
10
300.08224582384
20
29.3574607281063
30
0
41
1
10
297.3988524726
20
29.3063123018135
30
0
41
1
10
293.372095161803
20
29.1128060840818
30
0
41
1
10
292.02954360621
20
29.0287476275541
30
0
41
1
10
289.342878453378
20
28.8238467720429
30
0
41
1
10
287.999877432407
20
28.7030953696274
30
0
41
1
10
283.972442729854
20
28.2897346604635
30
0
41
1
10
281.288867055384
20
27.9468454923355
30
0
41
1
10
277.260598506964
20
27.3186497382291
30
0
41
1
10
275.916910002711
20
27.0898353329891
30
0
41
1
10
273.229563878709
20
26.597427983294
30
0
41
1
10
271.886045352436
20
26.3339390209444
30
0
41
1
10
269.198499228631
20
25.7766179175386
30
0
41
1
10
267.854359231407
20
25.4819699602325
30
0
41
1
10
266.174364279994
20
25.1025014943298
30
0
41
1
10
265.838368213046
20
25.0260623642807
30
0
41
1
10
265.166380703497
20
24.8723131915882
30
0
41
1
10
264.83042474589
20
24.7951106123509
30
0
41
1
10
264.158181904415
20
24.6389839149086
30
0
41
1
10
263.821882075133
20
24.5600175534977
30
0
41
1
10
263.148425454162
20
24.3991649269123
30
0
41
1
10
262.811221646768
20
24.3171470083374
30
0
41
1
10
261.803430488848
20
24.0680125054135
30
0
41
1
10
261.131340858319
20
23.8971329993984
30
0
41
1
10
260.458529341251
20
23.7249412094202
30
0
0
SPLINE
5
30F
100
AcDbEntity
8
1
62
256
6
ByLayer
370
13
48
1
60
0
100
AcDbSpline
70
4
71
3
72
8
73
4
40
0
40
0
40
0
40
0
40
1
40
1
40
1
40
1
41
1
10
311.106194072205
20
4.81820390199266
30
0
41
1
10
311.170254627139
20
4.80018325882844
30
0
41
1
10
311.234279626126
20
4.78230333912771
30
0
41
1
10
311.298268544674
20
4.76456621871941
30
0
0
SPLINE
5
310
100
AcDbEntity
8
1
62
256
6
ByLayer
370
13
48
1
60
0
100
AcDbSpline
70
4
71
3
72
54
73
50
40
0
40
0
40
0
40
0
40
0.0411319462658143
40
0.0411319462658143
40
0.0822638925316285
40
0.0822638925316285
40
0.123395838797443
40
0.123395838797443
40
0.164527785063257
40
0.164527785063257
40
0.246791677594885
40
0.246791677594885
40
0.2879236238607
40
0.2879236238607
40
0.329055570126514
40
0.329055570126514
40
0.411319462658143
40
0.411319462658143
40
0.452451408923956
40
0.452451408923956
40
0.49358335518977
40
0.49358335518977
40
0.534715301455583
40
0.534715301455583
40
0.55528127458849
40
0.55528127458849
40
0.575847247721396
40
0.575847247721396
40
0.616979193987208
40
0.616979193987208
40
0.65811114025302
40
0.65811114025302
40
0.699243086518831
40
0.699243086518831
40
0.740375032784643
40
0.740375032784643
40
0.781506979050455
40
0.781506979050455
40
0.822638925316267
40
0.822638925316267
40
0.863770871582078
40
0.863770871582078
40
0.90490281784789
40
0.90490281784789
40
0.946034764113702
40
0.946034764113702
40
0.987166710379513
40
0.987166710379513
40
1
40
1
40
1
40
1
41
1
10
311.106194072205
20
4.81820390199272
30
0
41
1
10
309.585135981666
20
5.4932873169825
30
0
41
1
10
308.064114739905
20
6.16456293597403
30
0
41
1
10
305.024140019179
20
7.49531307225286
30
0
41
1
10
303.504725168397
20
8.15499043539921
30
0
41
1
10
300.465730937293
20
9.46014548048728
30
0
41
1
10
298.946148893658
20
10.1056174360577
30
0
41
1
10
295.90549640399
20
11.3795626603217
30
0
41
1
10
294.383926747887
20
12.0082658219969
30
0
41
1
10
289.82282429561
20
13.8621275960029
30
0
41
1
10
286.784903597674
20
15.0559128783758
30
0
41
1
10
282.22453027284
20
16.7685499236645
30
0
41
1
10
280.703188385694
20
17.3265970912094
30
0
41
1
10
277.661214545477
20
18.4133618036391
30
0
41
1
10
276.141091723104
20
18.941948136811
30
0
41
1
10
271.581729259392
20
20.4806554871759
30
0
41
1
10
268.543506136755
20
21.4437442443321
30
0
41
1
10
263.981593379
20
22.7830777498537
30
0
41
1
10
262.461911715454
20
23.2114695083211
30
0
41
1
10
259.423514830627
20
24.0292561301584
30
0
41
1
10
257.904738969849
20
24.4188087106513
30
0
41
1
10
254.865444990424
20
25.1562089515099
30
0
41
1
10
253.344490489582
20
25.5033379268843
30
0
41
1
10
251.052469477516
20
25.9838811432694
30
0
41
1
10
250.286452219516
20
26.1374415119954
30
0
41
1
10
248.750867099455
20
26.4300526797412
30
0
41
1
10
247.981163137242
20
26.5690242698857
30
0
41
1
10
245.665745497521
20
26.9648353024122
30
0
41
1
10
244.113856675544
20
27.2007332882908
30
0
41
1
10
240.992031998928
20
27.6230962028885
30
0
41
1
10
239.421783374585
20
27.8093111699921
30
0
41
1
10
236.263639055062
20
28.1402461713736
30
0
41
1
10
234.675297900424
20
28.2852362379715
30
0
41
1
10
231.489475796854
20
28.5419261337393
30
0
41
1
10
229.891718153385
20
28.6537447946209
30
0
41
1
10
226.687363425089
20
28.8498159368473
30
0
41
1
10
225.080734897371
20
28.9340364011398
30
0
41
1
10
221.859352839338
20
29.079332566608
30
0
41
1
10
220.244389864259
20
29.1403648123871
30
0
41
1
10
217.005111943239
20
29.2417631832287
30
0
41
1
10
215.381341566208
20
29.2821169705823
30
0
41
1
10
212.123288372763
20
29.3458055137375
30
0
41
1
10
210.488695784486
20
29.3691708606305
30
0
41
1
10
207.210590949755
20
29.4033334526222
30
0
41
1
10
205.56662413344
20
29.4141364285897
30
0
41
1
10
202.268253811049
20
29.4279226615387
30
0
41
1
10
200.615367361736
20
29.4309755023485
30
0
41
1
10
198.444286803849
20
29.432382739005
30
0
41
1
10
197.92777179882
20
29.4325216179641
30
0
41
1
10
197.411039268066
20
29.4325018244972
30
0
0
SPLINE
5
311
100
AcDbEntity
8
1
62
256
6
ByLayer
370
13
48
1
60
0
100
AcDbSpline
70
4
71
3
72
14
73
10
40
0
40
0
40
0
40
0
40
0.5
40
0.5
40
0.625
40
0.625
40
0.75
40
0.75
40
1
40
1
40
1
40
1
41
1
10
16.6200205420755
20
-30.5757523215397
30
0
41
1
10
18.6178560660174
20
-30.4643439030065
30
0
41
1
10
20.6137606027616
20
-30.3322911917214
30
0
41
1
10
23.1062095470333
20
-30.1412275761192
30
0
41
1
10
23.604577704332
20
-30.1017144831956
30
0
41
1
10
24.601070118911
20
-30.0200807485317
30
0
41
1
10
25.0991158148372
20
-29.9767294059951
30
0
41
1
10
26.5941097024737
20
-29.8588660237162
30
0
41
1
10
27.591466564911
20
-29.7927480041769
30
0
41
1
10
28.5895196979402
20
-29.7391234384869
30
0
0
SPLINE
5
312
100
AcDbEntity
8
1
62
256
6
ByLayer
370
13
48
1
60
0
100
AcDbSpline
70
4
71
3
72
14
73
10
40
0
40
0
40
0
40
0
40
0.25
40
0.25
40
0.5
40
0.5
40
0.75
40
0.75
40
1
40
1
40
1
40
1
41
1
10
159
20
-10.6856274841164
30
0
41
1
10
149.08332872093
20
-10.6998412837016
30
0
41
1
10
139.166658049584
20
-10.7008271899173
30
0
41
1
10
119.333329852176
20
-10.6986029904178
30
0
41
1
10
109.416668009238
20
-10.6951951944814
30
0
41
1
10
89.5833365587125
20
-10.6955962392568
30
0
41
1
10
79.6666686392695
20
-10.6978207439688
30
0
41
1
10
59.8333341212112
20
-10.7010076745122
30
0
41
1
10
49.9166672171563
20
-10.7021876920208
30
0
41
1
10
40
20
-10.7037082430722
30
0
0
SPLINE
5
313
100
AcDbEntity
8
1
62
256
6
ByLayer
370
13
48
1
60
0
100
AcDbSpline
70
4
71
3
72
8
73
4
40
0
40
0
40
0
40
0
40
1
40
1
40
1
40
1
41
1
10
317.51078362346
20
11.4676920250826
30
0
41
1
10
317.511394158819
20
11.4701798716438
30
0
41
1
10
317.512076410974
20
11.4726599874039
30
0
41
1
10
317.512829096952
20
11.4751325315245
30
0
0
SPLINE
5
314
100
AcDbEntity
8
1
62
256
6
ByLayer
370
13
48
1
60
0
100
AcDbSpline
70
4
71
3
72
28
73
24
40
0
40
0
40
0
40
0
40
0.0624999999999777
40
0.0624999999999777
40
0.124999999999955
40
0.124999999999955
40
0.249999999999952
40
0.249999999999952
40
0.312499999999942
40
0.312499999999942
40
0.374999999999932
40
0.374999999999932
40
0.437499999999921
40
0.437499999999921
40
0.499999999999911
40
0.499999999999911
40
0.5624999999999
40
0.5624999999999
40
0.62499999999989
40
0.62499999999989
40
0.749999999999926
40
0.749999999999926
40
1
40
1
40
1
40
1
41
1
10
321.285799840107
20
10.5138916114173
30
0
41
1
10
321.261481180167
20
10.4822460958575
30
0
41
1
10
321.237679839081
20
10.449689339419
30
0
41
1
10
321.192960802299
20
10.3841651036129
30
0
41
1
10
321.172001035114
20
10.3511788355483
30
0
41
1
10
321.114527226577
20
10.2509055521116
30
0
41
1
10
321.083169017032
20
10.1815703984884
30
0
41
1
10
321.058219687298
20
10.0787919388667
30
0
41
1
10
321.053518233576
20
10.0440800295761
30
0
41
1
10
321.052767830356
20
9.97724342344583
30
0
41
1
10
321.056572967592
20
9.94486709835334
30
0
41
1
10
321.072225756366
20
9.8818442438178
30
0
41
1
10
321.084101826021
20
9.8514156955255
30
0
41
1
10
321.113530444828
20
9.79439088112235
30
0
41
1
10
321.131159777351
20
9.76742441312499
30
0
41
1
10
321.170872632166
20
9.71593557432269
30
0
41
1
10
321.192954071596
20
9.69146512433622
30
0
41
1
10
321.239485717742
20
9.64550563107676
30
0
41
1
10
321.264063436179
20
9.62385509845984
30
0
41
1
10
321.34066836624
20
9.5621821637834
30
0
41
1
10
321.395502142323
20
9.52538168659203
30
0
41
1
10
321.566807585285
20
9.42582963317309
30
0
41
1
10
321.686826650245
20
9.37523226463421
30
0
41
1
10
321.80816315342
20
9.34157116116816
30
0
0
SPLINE
5
315
100
AcDbEntity
8
1
62
256
6
ByLayer
370
13
48
1
60
0
100
AcDbSpline
70
4
71
3
72
38
73
34
40
0
40
0
40
0
40
0
40
0.0091252372252309
40
0.0091252372252309
40
0.0321688363595279
40
0.0321688363595279
40
0.0552124354938249
40
0.0552124354938249
40
0.0782560346281219
40
0.0782560346281219
40
0.124343232896716
40
0.124343232896716
40
0.170430431165309
40
0.170430431165309
40
0.193474030299606
40
0.193474030299606
40
0.216517629433904
40
0.216517629433904
40
0.239561228568201
40
0.239561228568201
40
0.262604827702498
40
0.262604827702498
40
0.354779224239685
40
0.354779224239685
40
0.446953620776873
40
0.446953620776873
40
0.539128017314061
40
0.539128017314061
40
0.631302413851249
40
0.631302413851249
40
0.815651206925624
40
0.815651206925624
40
1
40
1
40
1
40
1
41
1
10
221.865612079966
20
-15.3815090367458
30
0
41
1
10
221.304060280577
20
-15.4203200167054
30
0
41
1
10
220.742276120294
20
-15.4583643920267
30
0
41
1
10
218.761028404466
20
-15.5900220730566
30
0
41
1
10
217.340266197754
20
-15.679613520735
30
0
41
1
10
214.495050578618
20
-15.8454814553398
30
0
41
1
10
213.070571012323
20
-15.9215432741382
30
0
41
1
10
210.217468634156
20
-16.0581997551466
30
0
41
1
10
208.788891231627
20
-16.1191801646953
30
0
41
1
10
204.497077357685
20
-16.2824348083118
30
0
41
1
10
201.634598181812
20
-16.364861969275
30
0
41
1
10
195.909151903664
20
-16.4880610802684
30
0
41
1
10
193.045829387788
20
-16.5280282355791
30
0
41
1
10
188.750007601562
20
-16.5680737562456
30
0
41
1
10
187.317929315437
20
-16.5782328705122
30
0
41
1
10
184.453508463806
20
-16.5939295732421
30
0
41
1
10
183.02116684777
20
-16.5991051216977
30
0
41
1
10
180.15617635151
20
-16.6047279547281
30
0
41
1
10
178.723509798937
20
-16.6059647623147
30
0
41
1
10
175.858139905515
20
-16.607161343236
30
0
41
1
10
174.425432083955
20
-16.6069894857232
30
0
41
1
10
167.261851347917
20
-16.6071537010168
30
0
41
1
10
161.530809824107
20
-16.6068061369158
30
0
41
1
10
150.06880703277
20
-16.6068338066075
30
0
41
1
10
144.337858448197
20
-16.6062752433437
30
0
41
1
10
132.875994571877
20
-16.6054215850411
30
0
41
1
10
127.145069858497
20
-16.605292947116
30
0
41
1
10
115.683195431456
20
-16.6057896289742
30
0
41
1
10
109.952252374507
20
-16.6062626735974
30
0
41
1
10
92.7594248294075
20
-16.6069363385017
30
0
41
1
10
81.297539891871
20
-16.6066258122226
30
0
41
1
10
58.3737699463474
20
-16.6063565500245
30
0
41
1
10
46.9118849726759
20
-16.6063745300996
30
0
41
1
10
35.4500000000087
20
-16.6063423228198
30
0
0
SPLINE
5
316
100
AcDbEntity
8
1
62
256
6
ByLayer
370
13
48
1
60
0
100
AcDbSpline
70
4
71
3
72
42
73
38
40
0
40
0
40
0
40
0
40
0.062499999999999
40
0.062499999999999
40
0.124999999999998
40
0.124999999999998
40
0.156249999999998
40
0.156249999999998
40
0.187499999999998
40
0.187499999999998
40
0.249999999999998
40
0.249999999999998
40
0.312499999999998
40
0.312499999999998
40
0.343749999999998
40
0.343749999999998
40
0.374999999999998
40
0.374999999999998
40
0.437499999999997
40
0.437499999999997
40
0.499999999999997
40
0.499999999999997
40
0.562499999999997
40
0.562499999999997
40
0.624999999999998
40
0.624999999999998
40
0.749999999999998
40
0.749999999999998
40
0.781249999999998
40
0.781249999999998
40
0.812499999999998
40
0.812499999999998
40
0.874999999999999
40
0.874999999999999
40
0.937499999999999
40
0.937499999999999
40
1
40
1
40
1
40
1
41
1
10
16.6200110770412
20
-12.0677303287382
30
0
41
1
10
16.2170138949223
20
-12.086905833432
30
0
41
1
10
15.818960203438
20
-12.1287314819914
30
0
41
1
10
15.0317085862099
20
-12.2528748442285
30
0
41
1
10
14.6425504282156
20
-12.3353754276486
30
0
41
1
10
14.0652029779532
20
-12.4882255920371
30
0
41
1
10
13.8738207380947
20
-12.5440338732124
30
0
41
1
10
13.4931880262205
20
-12.6653313970291
30
0
41
1
10
13.303445080261
20
-12.7310092341447
30
0
41
1
10
12.7411255726322
20
-12.9410854375699
30
0
41
1
10
12.3769882046739
20
-13.0977068401302
30
0
41
1
10
11.6688453133491
20
-13.4413656846997
30
0
41
1
10
11.3247452276639
20
-13.6282540231591
30
0
41
1
10
10.82352682
20
-13.9306216647235
30
0
41
1
10
10.658983966467
20
-14.0351477003129
30
0
41
1
10
10.3349223295152
20
-14.2515160634466
30
0
41
1
10
10.1749958667031
20
-14.3636879230316
30
0
41
1
10
9.70745200646776
20
-14.7078424052294
30
0
41
1
10
9.41119235623599
20
-14.9478893851565
30
0
41
1
10
8.84839015085069
20
-15.4474120501444
30
0
41
1
10
8.58202216910763
20
-15.7070285454199
30
0
41
1
10
8.07980644318089
20
-16.2453207385606
30
0
41
1
10
7.84389303230363
20
-16.5240674166508
30
0
41
1
10
7.40473686826853
20
-17.100617849388
30
0
41
1
10
7.20590912028575
20
-17.3926256745331
30
0
41
1
10
6.67084690959281
20
-18.2783425141457
30
0
41
1
10
6.39498060037704
20
-18.8815091725174
30
0
41
1
10
6.16285952469624
20
-19.650010217165
30
0
41
1
10
6.12227369049117
20
-19.8043234875425
30
0
41
1
10
6.05406778260124
20
-20.1093772407493
30
0
41
1
10
6.02619109227408
20
-20.2607433317646
30
0
41
1
10
5.96093960569465
20
-20.711345856503
30
0
41
1
10
5.94202894515377
20
-21.0070913655658
30
0
41
1
10
5.95446841230003
20
-21.5891618031063
30
0
41
1
10
5.98583156363641
20
-21.8758138600252
30
0
41
1
10
6.10165109700343
20
-22.4381606284721
30
0
41
1
10
6.18505297280534
20
-22.7092928785371
30
0
41
1
10
6.29355167076039
20
-22.9708754795404
30
0
0
SPLINE
5
317
100
AcDbEntity
8
1
62
256
6
ByLayer
370
13
48
1
60
0
100
AcDbSpline
70
4
71
3
72
48
73
44
40
0
40
0
40
0
40
0
40
0.0593614634049837
40
0.141538411904255
40
0.22956573793497
40
0.323540744564427
40
0.423498908258592
40
0.529408139944901
40
0.538326477278284
40
0.547506861184571
40
0.556949915323698
40
0.566656248133066
40
0.576626451169677
40
0.586861097291643
40
0.597360738688922
40
0.608125904771581
40
0.619157099922713
40
0.630454801122239
40
0.642019455447124
40
0.653851477453054
40
0.665951246442236
40
0.678319103621841
40
0.690955349157421
40
0.703860239125695
40
0.717033982371125
40
0.730476737270895
40
0.74418860841312
40
0.758169643193306
40
0.772419828334609
40
0.786939086337552
40
0.801727271865586
40
0.81678416807307
40
0.832109482883005
40
0.847702845222219
40
0.86356380122243
40
0.879691810396144
40
0.896086241797065
40
0.912746370175361
40
0.929671372138862
40
0.946860322332015
40
0.96431218964522
40
0.982025833467959
40
1
40
1
40
1
40
1
41
1
10
30.5802288474467
20
-10.7919918229366
30
0
41
1
10
30.6371196963161
20
-10.9085142015383
30
0
41
1
10
30.7782743468781
20
-11.188754873801
30
0
41
1
10
31.0276517412824
20
-11.6516003214484
30
0
41
1
10
31.3432538985382
20
-12.1918262271092
30
0
41
1
10
31.7116622146001
20
-12.7724588194316
30
0
41
1
10
32.1361427391763
20
-13.3891278646469
30
0
41
1
10
32.4620829982965
20
-13.8262940030464
30
0
41
1
10
32.6555997750254
20
-14.0757061295985
30
0
41
1
10
32.6987267669744
20
-14.1310338793622
30
0
41
1
10
32.7432641519881
20
-14.1878465442041
30
0
41
1
10
32.7892318152808
20
-14.2461302498297
30
0
41
1
10
32.836653673334
20
-14.3058649477443
30
0
41
1
10
32.8855518907976
20
-14.3670306580337
30
0
41
1
10
32.9359483685046
20
-14.4296056526241
30
0
41
1
10
32.9878641964003
20
-14.4935668886135
30
0
41
1
10
33.0413196691712
20
-14.5588898139676
30
0
41
1
10
33.0963341401279
20
-14.6255483482811
30
0
41
1
10
33.1529259151889
20
-14.6935148151784
30
0
41
1
10
33.2111121308129
20
-14.7627598887637
30
0
41
1
10
33.2709086315448
20
-14.8332525369885
30
0
41
1
10
33.3323298428954
20
-14.904959966937
30
0
41
1
10
33.3953886408355
20
-14.9778475708873
30
0
41
1
10
33.4600962176677
20
-15.0518788737209
30
0
41
1
10
33.5264619444827
20
-15.1270154817888
30
0
41
1
10
33.5944932303133
20
-15.2032170334801
30
0
41
1
10
33.6641953781524
20
-15.2804411517087
30
0
41
1
10
33.735571438017
20
-15.3586433985545
30
0
41
1
10
33.8086220572666
20
-15.437777232288
30
0
41
1
10
33.8833453284127
20
-15.5177939670548
30
0
41
1
10
33.9597366346752
20
-15.5986427353567
30
0
41
1
10
34.0377884936016
20
-15.6802704540079
30
0
41
1
10
34.1174903989723
20
-15.7626217922253
30
0
41
1
10
34.1988286617176
20
-15.845639148246
30
0
41
1
10
34.2817862487976
20
-15.929262611275
30
0
41
1
10
34.366342625945
20
-16.0134299988858
30
0
41
1
10
34.4524735837364
20
-16.0980766262824
30
0
41
1
10
34.5401511277491
20
-16.1831361230972
30
0
41
1
10
34.6293431264057
20
-16.2685372685087
30
0
41
1
10
34.7200138900434
20
-16.3542160666989
30
0
41
1
10
34.8121212009264
20
-16.4400696342603
30
0
41
1
10
34.9056269045372
20
-16.5261322787587
30
0
41
1
10
34.9683895780141
20
-16.5829002336035
30
0
41
1
10
35
20
-16.6114914154081
30
0
0
SPLINE
5
318
100
AcDbEntity
8
1
62
256
6
ByLayer
370
13
48
1
60
0
100
AcDbSpline
70
2053
71
3
72
95
73
91
40
0
40
0
40
0
40
0
40
0.0312499999999993
40
0.0312499999999993
40
0.046875000000005
40
0.046875000000005
40
0.0625000000000106
40
0.0625000000000106
40
0.0937500000000107
40
0.0937500000000107
40
0.109375000000006
40
0.109375000000006
40
0.125000000000001
40
0.125000000000001
40
0.156249999999999
40
0.156249999999999
40
0.187499999999998
40
0.187499999999998
40
0.203124999999999
40
0.203124999999999
40
0.218750000000001
40
0.218750000000001
40
0.250000000000004
40
0.250000000000004
40
0.265625000000005
40
0.265625000000005
40
0.281250000000006
40
0.281250000000006
40
0.312500000000011
40
0.312500000000011
40
0.328125000000011
40
0.328125000000011
40
0.343750000000012
40
0.343750000000012
40
0.375000000000012
40
0.375000000000012
40
0.406250000000011
40
0.406250000000011
40
0.421875000000006
40
0.421875000000006
40
0.437500000000001
40
0.437500000000001
40
0.468750000000002
40
0.468750000000002
40
0.484375000000002
40
0.484375000000002
40
0.500000000000002
40
0.500000000000002
40
0.531250000000003
40
0.531250000000003
40
0.546875000000003
40
0.546875000000003
40
0.562500000000004
40
0.578125000000004
40
0.578125000000004
40
0.593750000000004
40
0.593750000000004
40
0.625000000000005
40
0.625000000000005
40
0.640625000000009
40
0.640625000000009
40
0.656250000000014
40
0.656250000000014
40
0.687500000000016
40
0.687500000000016
40
0.718750000000019
40
0.718750000000019
40
0.73437500000002
40
0.73437500000002
40
0.750000000000021
40
0.750000000000021
40
0.781250000000023
40
0.781250000000023
40
0.796875000000024
40
0.796875000000024
40
0.812500000000024
40
0.812500000000024
40
0.84375000000002
40
0.84375000000002
40
0.875000000000016
40
0.875000000000016
40
0.906250000000012
40
0.906250000000012
40
0.92187500000001
40
0.92187500000001
40
0.937500000000008
40
0.937500000000008
40
0.968750000000004
40
0.968750000000004
40
1
40
1
40
1
40
1
41
1
10
333.798361855938
20
-3.99776751536103
30
0
41
1
10
333.9407635284
20
-3.99776751536103
30
0
41
1
10
334.080641274532
20
-4.0123860422807
30
0
41
1
10
334.286833880871
20
-4.05529122731016
30
0
41
1
10
334.354955937889
20
-4.07311679018363
30
0
41
1
10
334.489952220247
20
-4.11598511656391
30
0
41
1
10
334.556652153232
20
-4.14102536623085
30
0
41
1
10
334.750317015241
20
-4.22519773982364
30
0
41
1
10
334.872454898349
20
-4.29374911842837
30
0
41
1
10
335.04528031298
20
-4.41503734019147
30
0
41
1
10
335.101392292737
20
-4.45881214260851
30
0
41
1
10
335.207856299971
20
-4.55083499603592
30
0
41
1
10
335.258431438245
20
-4.59919722235236
30
0
41
1
10
335.402425003163
20
-4.75110703461266
30
0
41
1
10
335.488511509724
20
-4.86194559175851
30
0
41
1
10
335.63829714604
20
-5.0997847251557
30
0
41
1
10
335.70040569819
20
-5.22401852252904
30
0
41
1
10
335.775412353666
20
-5.41785203404223
30
0
41
1
10
335.797366412418
20
-5.48371975780023
30
0
41
1
10
335.835092225011
20
-5.61799527163257
30
0
41
1
10
335.85076444268
20
-5.686183750796
30
0
41
1
10
335.887707435521
20
-5.8904565737754
30
0
41
1
10
335.899370887849
20
-6.0275157666949
30
0
41
1
10
335.897755853575
20
-6.23437885434086
30
0
41
1
10
335.893972777917
20
-6.30386883464061
30
0
41
1
10
335.879970635241
20
-6.44164493961884
30
0
41
1
10
335.869809727971
20
-6.50971289036539
30
0
41
1
10
335.830122155
20
-6.71153376433969
30
0
41
1
10
335.791476428836
20
-6.84292436735024
30
0
41
1
10
335.714752651947
20
-7.03520310402601
30
0
41
1
10
335.685924570883
20
-7.09862101793601
30
0
41
1
10
335.623052419592
20
-7.22125287647782
30
0
41
1
10
335.5888979084
20
-7.28079022664761
30
0
41
1
10
335.47834573231
20
-7.45413341243952
30
0
41
1
10
335.393946096204
20
-7.56272538736502
30
0
41
1
10
335.202161245194
20
-7.76508360906777
30
0
41
1
10
335.09710143495
20
-7.85621292842455
30
0
41
1
10
334.927841024505
20
-7.97612943744352
30
0
41
1
10
334.869358644567
20
-8.01339523083863
30
0
41
1
10
334.748110547832
20
-8.08232512827382
30
0
41
1
10
334.684963752681
20
-8.11415084252047
30
0
41
1
10
334.49154770262
20
-8.19942220115101
30
0
41
1
10
334.358555556262
20
-8.24243619474299
30
0
41
1
10
334.152993174176
20
-8.28628053525836
30
0
41
1
10
334.083452861901
20
-8.29742431308054
30
0
41
1
10
333.942239553657
20
-8.312458504288
30
0
41
1
10
333.8711805015
20
-8.31624457822605
30
0
41
1
10
333.659903988512
20
-8.31649425134992
30
0
41
1
10
333.520249728344
20
-8.30211113509904
30
0
41
1
10
333.312575686031
20
-8.25853453491411
30
0
41
1
10
333.243693627245
20
-8.24026331551565
30
0
41
1
10
333.109807259112
20
-8.19725562566066
30
0
41
1
10
332.978940298262
20
-8.14762914149921
30
0
41
1
10
332.853935234853
20
-8.08512344515543
30
0
41
1
10
332.731860851746
20
-8.01616080748659
30
0
41
1
10
332.672155013128
20
-7.9783107596385
30
0
41
1
10
332.501141427332
20
-7.85755379974438
30
0
41
1
10
332.396571127955
20
-7.76687710276133
30
0
41
1
10
332.253259218322
20
-7.61614709783817
30
0
41
1
10
332.207555620842
20
-7.56314687195544
30
0
41
1
10
332.122111035047
20
-7.45382836868936
30
0
41
1
10
332.082310045336
20
-7.39750893699247
30
0
41
1
10
331.971345448109
20
-7.22372968103377
30
0
41
1
10
331.908541453631
20
-7.10149324521615
30
0
41
1
10
331.805551385506
20
-6.84398110323949
30
0
41
1
10
331.766693049147
20
-6.71185349497193
30
0
41
1
10
331.726999972911
20
-6.51022256815929
30
0
41
1
10
331.716858681441
20
-6.44235500535473
30
0
41
1
10
331.70286130475
20
-6.30527884196278
30
0
41
1
10
331.699009009091
20
-6.23571900371718
30
0
41
1
10
331.697294024527
20
-6.0277633209798
30
0
41
1
10
331.709032038503
20
-5.89067518355065
30
0
41
1
10
331.745719896868
20
-5.68735589600607
30
0
41
1
10
331.761150554256
20
-5.61997115592101
30
0
41
1
10
331.798641138585
20
-5.48601291230642
30
0
41
1
10
331.820814443063
20
-5.41923861446298
30
0
41
1
10
331.89606978518
20
-5.22445762552186
30
0
41
1
10
331.9580938007
20
-5.10059723632875
30
0
41
1
10
332.106073384791
20
-4.86506231830521
30
0
41
1
10
332.193187253458
20
-4.75241786814232
30
0
41
1
10
332.38542767775
20
-4.54933362113627
30
0
41
1
10
332.490851492324
20
-4.45788715974601
30
0
41
1
10
332.663333948766
20
-4.33635639630344
30
0
41
1
10
332.723605798141
20
-4.29828655606269
30
0
41
1
10
332.846675031238
20
-4.22907883030723
30
0
41
1
10
332.90958086821
20
-4.19780892842562
30
0
41
1
10
333.102335952904
20
-4.11382907398186
30
0
41
1
10
333.236322964463
20
-4.07081503066198
30
0
41
1
10
333.514987594585
20
-4.01240261817824
30
0
41
1
10
333.655960183477
20
-3.99776751536103
30
0
41
1
10
333.798361855938
20
-3.99776751536103
30
0
0
SPLINE
5
319
100
AcDbEntity
8
1
62
256
6
ByLayer
370
13
48
1
60
0
100
AcDbSpline
70
4
71
3
72
14
73
10
40
0
40
0
40
0
40
0
40
0.25
40
0.25
40
0.5
40
0.5
40
0.75
40
0.75
40
1
40
1
40
1
40
1
41
1
10
317.927476469371
20
13.4735633764161
30
0
41
1
10
317.934022041824
20
13.4994235072201
30
0
41
1
10
317.950696056849
20
13.5218097598726
30
0
41
1
10
317.991386804655
20
13.5564726809044
30
0
41
1
10
318.015641012181
20
13.569544153791
30
0
41
1
10
318.066260654473
20
13.5894429409297
30
0
41
1
10
318.093287726965
20
13.5964718272871
30
0
41
1
10
318.147933848735
20
13.6058380622862
30
0
41
1
10
318.175757875519
20
13.6082426884434
30
0
41
1
10
318.204007435653
20
13.6087201206584
30
0
0
SPLINE
5
31A
100
AcDbEntity
8
1
62
256
6
ByLayer
370
13
48
1
60
0
100
AcDbSpline
70
4
71
3
72
24
73
20
40
0
40
0
40
0
40
0
40
0.125
40
0.125
40
0.25
40
0.25
40
0.375
40
0.375
40
0.5
40
0.5
40
0.625
40
0.625
40
0.6875
40
0.6875
40
0.75
40
0.75
40
0.875
40
0.875
40
1
40
1
40
1
40
1
41
1
10
327.76854414633
20
9.965110763827
30
0
41
1
10
327.647874541019
20
9.86945714029218
30
0
41
1
10
327.52028991345
20
9.78263560689203
30
0
41
1
10
327.252114252459
20
9.62838389608214
30
0
41
1
10
327.113975934332
20
9.56229302351483
30
0
41
1
10
326.829133499699
20
9.45135941589081
30
0
41
1
10
326.682046219438
20
9.40643370346041
30
0
41
1
10
326.380048188981
20
9.33899602736543
30
0
41
1
10
326.228125409138
20
9.31709403303543
30
0
41
1
10
325.922389134893
20
9.2960157898427
30
0
41
1
10
325.768575680021
20
9.29684073406406
30
0
41
1
10
325.536484744181
20
9.31562014860742
30
0
41
1
10
325.458773169933
20
9.3248621567304
30
0
41
1
10
325.305544477615
20
9.34893641906447
30
0
41
1
10
325.229702311493
20
9.36378295701931
30
0
41
1
10
325.004479409823
20
9.41660012915239
30
0
41
1
10
324.857385677806
20
9.46279659928183
30
0
41
1
10
324.569629179865
20
9.57759829643123
30
0
41
1
10
324.428669404933
20
9.64661859636516
30
0
41
1
10
324.295745705764
20
9.72490230817448
30
0
0
SPLINE
5
31B
100
AcDbEntity
8
1
62
256
6
ByLayer
370
13
48
1
60
0
100
AcDbSpline
70
4
71
3
72
30
73
26
40
0
40
0
40
0
40
0
40
0.0899240132689546
40
0.0899240132689546
40
0.179848026537909
40
0.179848026537909
40
0.269772039806864
40
0.269772039806864
40
0.359696053075818
40
0.359696053075818
40
0.449620066344773
40
0.449620066344773
40
0.539544079613727
40
0.539544079613727
40
0.629468092882682
40
0.629468092882682
40
0.719392106151637
40
0.719392106151637
40
0.809316119420591
40
0.809316119420591
40
0.899240132689546
40
0.899240132689546
40
0.9891641459585
40
0.9891641459585
40
1
40
1
40
1
40
1
41
1
10
310.892108354783
20
29.1442687063261
30
0
41
1
10
309.37738606155
20
29.2395939251537
30
0
41
1
10
307.86316336281
20
29.3113689614297
30
0
41
1
10
304.834390941161
20
29.4075203818441
30
0
41
1
10
303.319542498078
20
29.4318923261608
30
0
41
1
10
300.290675583189
20
29.4330852125657
30
0
41
1
10
298.7764844209
20
29.4099292710435
30
0
41
1
10
295.74765652928
20
29.3160754733872
30
0
41
1
10
294.233698498583
20
29.2453680525271
30
0
41
1
10
291.207943729492
20
29.0566957679526
30
0
41
1
10
289.695691364817
20
28.9387282505632
30
0
41
1
10
286.670508053431
20
28.656331995426
30
0
41
1
10
285.157480606195
20
28.491970256003
30
0
41
1
10
282.129531410167
20
28.1176100958009
30
0
41
1
10
280.61443645621
20
27.9075173849439
30
0
41
1
10
277.587388861684
20
27.442531464458
30
0
41
1
10
276.074941397887
20
27.1874227138729
30
0
41
1
10
273.050201522314
20
26.6334699536068
30
0
41
1
10
271.537847611638
20
26.3346751348762
30
0
41
1
10
268.51091478655
20
25.6958001785912
30
0
41
1
10
266.995869147497
20
25.3552541979583
30
0
41
1
10
263.961872932244
20
24.6414497584001
30
0
41
1
10
262.442799666699
20
24.2682646592521
30
0
41
1
10
260.735176157372
20
23.8377413800232
30
0
41
1
10
260.551466648257
20
23.7912809188932
30
0
41
1
10
260.367687397376
20
23.7446627221758
30
0
0
SPLINE
5
31C
100
AcDbEntity
8
1
62
256
6
ByLayer
370
13
48
1
60
0
100
AcDbSpline
70
4
71
3
72
14
73
10
40
0
40
0
40
0
40
0
40
0.499999999999999
40
0.499999999999999
40
0.624999999999999
40
0.624999999999999
40
0.749999999999999
40
0.749999999999999
40
1
40
1
40
1
40
1
41
1
10
32.1414284367741
20
-28.9489731557581
30
0
41
1
10
31.517216683573
20
-28.948927142597
30
0
41
1
10
30.9077647052933
20
-29.0190593226982
30
0
41
1
10
30.1628437305438
20
-29.1870503163554
30
0
41
1
10
30.0147119213988
20
-29.2247013476042
30
0
41
1
10
29.7201431068934
20
-29.3080616811929
30
0
41
1
10
29.5733101044364
20
-29.3539246017797
30
0
41
1
10
29.1405211018907
20
-29.501729842678
30
0
41
1
10
28.860950968898
20
-29.6141281590442
30
0
41
1
10
28.5895196979402
20
-29.7391234384869
30
0
0
SPLINE
5
31D
100
AcDbEntity
8
1
62
256
6
ByLayer
370
13
48
1
60
0
100
AcDbSpline
70
4
71
3
72
8
73
4
40
0
40
0
40
0
40
0
40
1
40
1
40
1
40
1
41
1
10
35.45
20
-28.9354584573447
30
0
41
1
10
35.3033333332954
20
-28.9354484769132
30
0
41
1
10
35.1566666666269
20
-28.9354380972249
30
0
41
1
10
35.01
20
-28.9354273093701
30
0
0
SPLINE
5
31E
100
AcDbEntity
8
1
62
256
6
ByLayer
370
13
48
1
60
0
100
AcDbSpline
70
4
71
1
72
4
73
2
40
0
40
0
40
1
40
1
41
1
10
291.018367452564
20
13.3711023348951
30
0
41
1
10
290.992487387716
20
13.3814722849501
30
0
0
SPLINE
5
31F
100
AcDbEntity
8
1
62
256
6
ByLayer
370
13
48
1
60
0
100
AcDbSpline
70
4
71
3
72
12
73
8
40
0
40
0
40
0
40
0
40
0.279995197683806
40
0.560014148760184
40
0.706663462962989
40
0.853340261088528
40
1
40
1
40
1
40
1
41
1
10
5.15640000000015
20
-31.2500000000003
30
0
41
1
10
7.94651058845871
20
-31.2012784726211
30
0
41
1
10
13.5219819392133
20
-31.0136462837448
30
0
41
1
10
20.551625679654
20
-30.586729980941
30
0
41
1
10
26.2389710638274
20
-30.0533422976699
30
0
41
1
10
30.616397379842
20
-29.7933317478642
30
0
41
1
10
33.5380193259804
20
-29.7375214666306
30
0
41
1
10
35
20
-29.7374999999982
30
0
0
SPLINE
5
320
100
AcDbEntity
8
1
62
256
6
ByLayer
370
13
48
1
60
0
100
AcDbSpline
70
4
71
3
72
12
73
8
40
0
40
0
40
0
40
0
40
0.186659443605155
40
0.373310748856964
40
0.559978948727614
40
0.78000547385108
40
1
40
1
40
1
40
1
41
1
10
35.0000000000001
20
29.7374999999981
30
0
41
1
10
33.138724509372
20
29.7386863936974
30
0
41
1
10
29.4200131856581
20
29.8163374824932
30
0
41
1
10
23.8587311593494
20
30.2879289434517
30
0
41
1
10
17.9660737961532
20
30.7529460526505
30
0
41
1
10
11.7298855153103
20
31.0812388434157
30
0
41
1
10
7.34830400248801
20
31.211732564181
30
0
41
1
10
5.15640000000022
20
31.2500000000003
30
0
0
SPLINE
5
321
100
AcDbEntity
8
1
62
256
6
ByLayer
370
13
48
1
60
0
100
AcDbSpline
70
4
71
1
72
4
73
2
40
0
40
0
40
1
40
1
41
1
10
343.62897912382
20
10.8083764304117
30
0
41
1
10
343.773654116804
20
10.9379409432493
30
0
0
SPLINE
5
322
100
AcDbEntity
8
1
62
256
6
ByLayer
370
13
48
1
60
0
100
AcDbSpline
70
4
71
1
72
4
73
2
40
0
40
0
40
1
40
1
41
1
10
324.729221905496
20
9.93986454334828
30
0
41
1
10
324.886647533152
20
9.82613245315812
30
0
0
LINE
5
7F
100
AcDbEntity
8
SK1
62
256
6
ByLayer
370
13
48
1
60
0
100
AcDbLine
10
-2
20
-24.996
30
0
11
-2
21
24.996
31
0
39
0
210
0
220
0
230
1
0
LINE
5
81
100
AcDbEntity
8
SK1
62
256
6
ByLayer
370
13
48
1
60
0
100
AcDbLine
10
-6.5
20
-10.670483
30
0
11
-6.5
21
10.670483
31
0
39
0
210
0
220
0
230
1
0
LINE
5
82
100
AcDbEntity
8
SK1
62
256
6
ByLayer
370
13
48
1
60
0
100
AcDbLine
10
-1.375195
20
-24.746
30
0
11
-1.375195
21
24.746
31
0
39
0
210
0
220
0
230
1
0
LINE
5
83
100
AcDbEntity
8
1
62
256
6
ByLayer
370
18
48
1
60
0
100
AcDbLine
10
335.12595
20
19.07189
30
0
11
334.988729
21
19.064699
31
0
39
0
210
0
220
0
230
1
0
LINE
5
84
100
AcDbEntity
8
1
62
256
6
ByLayer
370
18
48
1
60
0
100
AcDbLine
10
332.57283
20
20.367916
30
0
11
332.505185
21
20.364371
31
0
39
0
210
0
220
0
230
1
0
LINE
5
85
100
AcDbEntity
8
1
62
256
6
ByLayer
370
18
48
1
60
0
100
AcDbLine
10
332.613293
20
19.595851
30
0
11
332.545058
21
19.592275
31
0
39
0
210
0
220
0
230
1
0
LINE
5
86
100
AcDbEntity
8
1
62
256
6
ByLayer
370
18
48
1
60
0
100
AcDbLine
10
333.728644
20
18.611128
30
0
11
333.591423
21
18.603937
31
0
39
0
210
0
220
0
230
1
0
LINE
5
87
100
AcDbEntity
8
1
62
256
6
ByLayer
370
18
48
1
60
0
100
AcDbLine
10
335.137474
20
19.05493
30
0
11
334.999211
21
19.047684
31
0
39
0
210
0
220
0
230
1
0
LINE
5
88
100
AcDbEntity
8
1
62
256
6
ByLayer
370
18
48
1
60
0
100
AcDbLine
10
334.879733
20
21.14446
30
0
11
334.88838
21
21.162477
31
0
39
0
210
0
220
0
230
1
0
LINE
5
89
100
AcDbEntity
8
1
62
256
6
ByLayer
370
18
48
1
60
0
100
AcDbLine
10
335.026642
20
21.169723
30
0
11
334.88838
21
21.162477
31
0
39
0
210
0
220
0
230
1
0
LINE
5
8A
100
AcDbEntity
8
1
62
256
6
ByLayer
370
18
48
1
60
0
100
AcDbLine
10
335.330057
20
19.737791
30
0
11
335.349918
21
19.739272
31
0
39
0
210
0
220
0
230
1
0
LINE
5
8B
100
AcDbEntity
8
1
62
256
6
ByLayer
370
18
48
1
60
0
100
AcDbLine
10
333.57914
20
21.463831
30
0
11
333.441919
21
21.456639
31
0
39
0
210
0
220
0
230
1
0
LINE
5
8C
100
AcDbEntity
8
1
62
256
6
ByLayer
370
18
48
1
60
0
100
AcDbLine
10
333.720261
20
18.593564
30
0
11
333.581998
21
18.586318
31
0
39
0
210
0
220
0
230
1
0
LINE
5
8D
100
AcDbEntity
8
1
62
256
6
ByLayer
370
18
48
1
60
0
100
AcDbLine
10
334.999211
20
19.047684
30
0
11
334.988729
21
19.064699
31
0
39
0
210
0
220
0
230
1
0
LINE
5
8E
100
AcDbEntity
8
1
62
256
6
ByLayer
370
18
48
1
60
0
100
AcDbLine
10
335.016954
20
21.151651
30
0
11
334.879733
21
21.14446
31
0
39
0
210
0
220
0
230
1
0
LINE
5
8F
100
AcDbEntity
8
1
62
256
6
ByLayer
370
18
48
1
60
0
100
AcDbLine
10
335.42677
20
20.517924
30
0
11
335.289549
21
20.510733
31
0
39
0
210
0
220
0
230
1
0
LINE
5
90
100
AcDbEntity
8
1
62
256
6
ByLayer
370
18
48
1
60
0
100
AcDbLine
10
335.467278
20
19.744983
30
0
11
335.330057
21
19.737791
31
0
39
0
210
0
220
0
230
1
0
LINE
5
91
100
AcDbEntity
8
1
62
256
6
ByLayer
370
18
48
1
60
0
100
AcDbLine
10
335.309456
20
20.511337
30
0
11
335.289549
21
20.510733
31
0
39
0
210
0
220
0
230
1
0
LINE
5
92
100
AcDbEntity
8
1
62
256
6
ByLayer
370
18
48
1
60
0
100
AcDbLine
10
333.581998
20
18.586318
30
0
11
333.591423
21
18.603937
31
0
39
0
210
0
220
0
230
1
0
LINE
5
93
100
AcDbEntity
8
1
62
256
6
ByLayer
370
18
48
1
60
0
100
AcDbLine
10
333.441919
20
21.456639
30
0
11
333.430704
21
21.473176
31
0
39
0
210
0
220
0
230
1
0
LINE
5
94
100
AcDbEntity
8
1
62
256
6
ByLayer
370
18
48
1
60
0
100
AcDbLine
10
333.568967
20
21.480422
30
0
11
333.430704
21
21.473176
31
0
39
0
210
0
220
0
230
1
0
LINE
5
95
100
AcDbEntity
8
1
62
256
6
ByLayer
370
18
48
1
60
0
100
AcDbLine
10
342.998201
20
-17.893987
30
0
11
342.924893
21
-17.905535
31
0
39
0
210
0
220
0
230
1
0
LINE
5
96
100
AcDbEntity
8
1
62
256
6
ByLayer
370
18
48
1
60
0
100
AcDbLine
10
343.200063
20
-18.766223
30
0
11
343.552045
21
-18.665839
31
0
39
0
210
0
220
0
230
1
0
LINE
5
97
100
AcDbEntity
8
1
62
256
6
ByLayer
370
18
48
1
60
0
100
AcDbLine
10
343.107139
20
-17.869089
30
0
11
343.093563
21
-17.872961
31
0
39
0
210
0
220
0
230
1
0
LINE
5
98
100
AcDbEntity
8
1
62
256
6
ByLayer
370
18
48
1
60
0
100
AcDbLine
10
343.061525
20
0.201107
30
0
11
343.065418
21
0.187604
31
0
39
0
210
0
220
0
230
1
0
LINE
5
99
100
AcDbEntity
8
1
62
256
6
ByLayer
370
18
48
1
60
0
100
AcDbLine
10
343.08656
20
0.092758
30
0
11
344.493919
21
-8.744899
31
0
39
0
210
0
220
0
230
1
0
LINE
5
9A
100
AcDbEntity
8
1
62
256
6
ByLayer
370
18
48
1
60
0
100
AcDbLine
10
344.496924
20
-8.973226
30
0
11
343.357672
21
-17.579904
31
0
39
0
210
0
220
0
230
1
0
LINE
5
9B
100
AcDbEntity
8
1
62
256
6
ByLayer
370
18
48
1
60
0
100
AcDbLine
10
342.686532
20
0.461314
30
0
11
342.770768
21
0.450284
31
0
39
0
210
0
220
0
230
1
0
LINE
5
9C
100
AcDbEntity
8
1
62
256
6
ByLayer
370
18
48
1
60
0
100
AcDbLine
10
343.545811
20
-0.121939
30
0
11
343.444881
21
0.228139
31
0
39
0
210
0
220
0
230
1
0
LINE
5
9D
100
AcDbEntity
8
1
62
256
6
ByLayer
370
13
48
1
60
0
100
AcDbLine
10
324.45064
20
27.377485
30
0
11
323.420103
21
19.501379
31
0
39
0
210
0
220
0
230
1
0
LINE
5
9E
100
AcDbEntity
8
1
62
256
6
ByLayer
370
13
48
1
60
0
100
AcDbLine
10
341.223503
20
29.030035
30
0
11
341.269033
21
28.741711
31
0
39
0
210
0
220
0
230
1
0
LINE
5
9F
100
AcDbEntity
8
1
62
256
6
ByLayer
370
13
48
1
60
0
100
AcDbLine
10
325.879736
20
9.886547
30
0
11
326.078519
21
9.895218
31
0
39
0
210
0
220
0
230
1
0
LINE
5
A0
100
AcDbEntity
8
1
62
256
6
ByLayer
370
13
48
1
60
0
100
AcDbLine
10
325.604395
20
19.551859
30
0
11
326.671582
21
27.708071
31
0
39
0
210
0
220
0
230
1
0
LINE
5
A1
100
AcDbEntity
8
1
62
256
6
ByLayer
370
13
48
1
60
0
100
AcDbLine
10
343.421579
20
29.791233
30
0
11
344.841837
21
20.797222
31
0
39
0
210
0
220
0
230
1
0
LINE
5
A2
100
AcDbEntity
8
1
62
256
6
ByLayer
370
13
48
1
60
0
100
AcDbLine
10
343.421579
20
29.791233
30
0
11
343.41688
21
29.790987
31
0
39
0
210
0
220
0
230
1
0
LINE
5
A3
100
AcDbEntity
8
1
62
256
6
ByLayer
370
13
48
1
60
0
100
AcDbLine
10
324.220617
20
27.39551
30
0
11
324.166768
21
28.001145
31
0
39
0
210
0
220
0
230
1
0
LINE
5
A4
100
AcDbEntity
8
1
62
256
6
ByLayer
370
13
48
1
60
0
100
AcDbLine
10
324.44882
20
29.520995
30
0
11
324.56401
21
29.50927
31
0
39
0
210
0
220
0
230
1
0
LINE
5
A5
100
AcDbEntity
8
1
62
256
6
ByLayer
370
13
48
1
60
0
100
AcDbLine
10
343.802917
20
12.442103
30
0
11
343.695374
21
11.37474
31
0
39
0
210
0
220
0
230
1
0
LINE
5
A6
100
AcDbEntity
8
1
62
256
6
ByLayer
370
13
48
1
60
0
100
AcDbLine
10
326.911835
20
11.088294
30
0
11
326.907136
21
11.088048
31
0
39
0
210
0
220
0
230
1
0
LINE
5
A7
100
AcDbEntity
8
1
62
256
6
ByLayer
370
13
48
1
60
0
100
AcDbLine
10
343.690584
20
12.591913
30
0
11
341.570745
21
12.236081
31
0
39
0
210
0
220
0
230
1
0
LINE
5
A8
100
AcDbEntity
8
1
62
256
6
ByLayer
370
13
48
1
60
0
100
AcDbLine
10
326.671582
20
27.708071
30
0
11
326.679756
21
27.770542
31
0
39
0
210
0
220
0
230
1
0
LINE
5
A9
100
AcDbEntity
8
1
62
256
6
ByLayer
370
13
48
1
60
0
100
AcDbLine
10
323.192127
20
19.535053
30
0
11
324.220617
21
27.39551
31
0
39
0
210
0
220
0
230
1
0
LINE
5
AA
100
AcDbEntity
8
1
62
256
6
ByLayer
370
13
48
1
60
0
100
AcDbLine
10
322.944309
20
20.208382
30
0
11
322.954454
21
20.998425
31
0
39
0
210
0
220
0
230
1
0
LINE
5
AB
100
AcDbEntity
8
1
62
256
6
ByLayer
370
13
48
1
60
0
100
AcDbLine
10
343.685885
20
12.591666
30
0
11
341.566046
21
12.235834
31
0
39
0
210
0
220
0
230
1
0
LINE
5
AC
100
AcDbEntity
8
1
62
256
6
ByLayer
370
13
48
1
60
0
100
AcDbLine
10
326.679756
20
27.770542
30
0
11
326.675057
21
27.770296
31
0
39
0
210
0
220
0
230
1
0
LINE
5
AD
100
AcDbEntity
8
1
62
256
6
ByLayer
370
13
48
1
60
0
100
AcDbLine
10
342.005735
20
30.441114
30
0
11
341.892401
21
30.417412
31
0
39
0
210
0
220
0
230
1
0
LINE
5
AE
100
AcDbEntity
8
1
62
256
6
ByLayer
370
13
48
1
60
0
100
AcDbLine
10
343.737305
20
10.927132
30
0
11
343.695374
21
11.37474
31
0
39
0
210
0
220
0
230
1
0
LINE
5
AF
100
AcDbEntity
8
1
62
256
6
ByLayer
370
13
48
1
60
0
100
AcDbLine
10
323.431691
20
15.757549
30
0
11
324.068417
21
13.096071
31
0
39
0
210
0
220
0
230
1
0
LINE
5
B0
100
AcDbEntity
8
1
62
256
6
ByLayer
370
13
48
1
60
0
100
AcDbLine
10
323.020842
20
18.748057
30
0
11
322.933998
21
19.298011
31
0
39
0
210
0
220
0
230
1
0
LINE
5
B1
100
AcDbEntity
8
1
62
256
6
ByLayer
370
13
48
1
60
0
100
AcDbLine
10
343.41688
20
29.790987
30
0
11
344.837138
21
20.796976
31
0
39
0
210
0
220
0
230
1
0
LINE
5
B2
100
AcDbEntity
8
1
62
256
6
ByLayer
370
13
48
1
60
0
100
AcDbLine
10
323.195172
20
19.305486
30
0
11
324.61543
21
10.311475
31
0
39
0
210
0
220
0
230
1
0
LINE
5
B3
100
AcDbEntity
8
1
62
256
6
ByLayer
370
13
48
1
60
0
100
AcDbLine
10
342.350417
20
20.737085
30
0
11
341.094064
21
28.693143
31
0
39
0
210
0
220
0
230
1
0
LINE
5
B4
100
AcDbEntity
8
1
62
256
6
ByLayer
370
13
48
1
60
0
100
AcDbLine
10
324.713758
20
10.327096
30
0
11
323.293501
21
19.321107
31
0
39
0
210
0
220
0
230
1
0
LINE
5
B5
100
AcDbEntity
8
1
62
256
6
ByLayer
370
13
48
1
60
0
100
AcDbLine
10
342.752479
20
30.381608
30
0
11
342.74778
21
30.381362
31
0
39
0
210
0
220
0
230
1
0
LINE
5
B6
100
AcDbEntity
8
1
62
256
6
ByLayer
370
13
48
1
60
0
100
AcDbLine
10
326.863413
20
11.39493
30
0
11
325.60706
21
19.350988
31
0
39
0
210
0
220
0
230
1
0
LINE
5
B7
100
AcDbEntity
8
1
62
256
6
ByLayer
370
13
48
1
60
0
100
AcDbLine
10
343.166921
20
11.286034
30
0
11
343.258691
21
11.493049
31
0
39
0
210
0
220
0
230
1
0
LINE
5
B8
100
AcDbEntity
8
1
62
256
6
ByLayer
370
13
48
1
60
0
100
AcDbLine
10
344.841837
20
20.797222
30
0
11
344.837138
21
20.796976
31
0
39
0
210
0
220
0
230
1
0
LINE
5
B9
100
AcDbEntity
8
1
62
256
6
ByLayer
370
13
48
1
60
0
100
AcDbLine
10
340.762885
20
12.148724
30
0
11
328.235996
21
11.492218
31
0
39
0
210
0
220
0
230
1
0
LINE
5
BA
100
AcDbEntity
8
1
62
256
6
ByLayer
370
13
48
1
60
0
100
AcDbLine
10
343.214142
20
11.293961
30
0
11
343.099152
21
10.780078
31
0
39
0
210
0
220
0
230
1
0
LINE
5
BB
100
AcDbEntity
8
1
62
256
6
ByLayer
370
13
48
1
60
0
100
AcDbLine
10
343.690584
20
12.591913
30
0
11
343.685885
21
12.591666
31
0
39
0
210
0
220
0
230
1
0
LINE
5
BC
100
AcDbEntity
8
1
62
256
6
ByLayer
370
13
48
1
60
0
100
AcDbLine
10
341.929315
20
30.419347
30
0
11
342.185987
21
30.47881
31
0
39
0
210
0
220
0
230
1
0
LINE
5
BD
100
AcDbEntity
8
1
62
256
6
ByLayer
370
13
48
1
60
0
100
AcDbLine
10
325.437536
20
19.570487
30
0
11
326.504132
21
27.72218
31
0
39
0
210
0
220
0
230
1
0
LINE
5
BE
100
AcDbEntity
8
1
62
256
6
ByLayer
370
13
48
1
60
0
100
AcDbLine
10
342.260223
20
30.381722
30
0
11
342.255524
21
30.381476
31
0
39
0
210
0
220
0
230
1
0
LINE
5
BF
100
AcDbEntity
8
1
62
256
6
ByLayer
370
13
48
1
60
0
100
AcDbLine
10
323.197857
20
21.548699
30
0
11
322.931178
21
19.510547
31
0
39
0
210
0
220
0
230
1
0
LINE
5
C0
100
AcDbEntity
8
1
62
256
6
ByLayer
370
13
48
1
60
0
100
AcDbLine
10
322.944309
20
20.208382
30
0
11
322.915427
21
19.652363
31
0
39
0
210
0
220
0
230
1
0
LINE
5
C1
100
AcDbEntity
8
1
62
256
6
ByLayer
370
13
48
1
60
0
100
AcDbLine
10
323.422197
20
19.343552
30
0
11
324.842455
21
10.349541
31
0
39
0
210
0
220
0
230
1
0
LINE
5
C2
100
AcDbEntity
8
1
62
256
6
ByLayer
370
13
48
1
60
0
100
AcDbLine
10
324.444754
20
27.526417
30
0
11
326.564593
21
27.882249
31
0
39
0
210
0
220
0
230
1
0
LINE
5
C3
100
AcDbEntity
8
1
62
256
6
ByLayer
370
13
48
1
60
0
100
AcDbLine
10
325.60706
20
19.350988
30
0
11
325.602361
21
19.350742
31
0
39
0
210
0
220
0
230
1
0
LINE
5
C4
100
AcDbEntity
8
1
62
256
6
ByLayer
370
13
48
1
60
0
100
AcDbLine
10
342.027436
20
30.371766
30
0
11
342.225558
21
30.380408
31
0
39
0
210
0
220
0
230
1
0
LINE
5
C5
100
AcDbEntity
8
1
62
256
6
ByLayer
370
13
48
1
60
0
100
AcDbLine
10
326.504132
20
27.72218
30
0
11
324.45064
21
27.377485
31
0
39
0
210
0
220
0
230
1
0
LINE
5
C6
100
AcDbEntity
8
1
62
256
6
ByLayer
370
13
48
1
60
0
100
AcDbLine
10
343.258691
20
11.493049
30
0
11
343.701699
21
12.492385
31
0
39
0
210
0
220
0
230
1
0
LINE
5
C7
100
AcDbEntity
8
1
62
256
6
ByLayer
370
13
48
1
60
0
100
AcDbLine
10
344.839803
20
20.596105
30
0
11
343.809266
21
12.72
31
0
39
0
210
0
220
0
230
1
0
LINE
5
C8
100
AcDbEntity
8
1
62
256
6
ByLayer
370
13
48
1
60
0
100
AcDbLine
10
341.570745
20
12.236081
30
0
11
341.566046
21
12.235834
31
0
39
0
210
0
220
0
230
1
0
LINE
5
C9
100
AcDbEntity
8
1
62
256
6
ByLayer
370
13
48
1
60
0
100
AcDbLine
10
344.100915
20
14.14587
30
0
11
343.878628
21
11.321748
31
0
39
0
210
0
220
0
230
1
0
LINE
5
CA
100
AcDbEntity
8
1
62
256
6
ByLayer
370
13
48
1
60
0
100
AcDbLine
10
326.799817
20
28.023126
30
0
11
324.433638
21
27.625944
31
0
39
0
210
0
220
0
230
1
0
LINE
5
CB
100
AcDbEntity
8
1
62
256
6
ByLayer
370
13
48
1
60
0
100
AcDbLine
10
343.214142
20
11.293961
30
0
11
343.695374
21
11.37474
31
0
39
0
210
0
220
0
230
1
0
LINE
5
CC
100
AcDbEntity
8
1
62
256
6
ByLayer
370
13
48
1
60
0
100
AcDbLine
10
323.290836
20
19.521977
30
0
11
324.321373
21
27.398083
31
0
39
0
210
0
220
0
230
1
0
LINE
5
CD
100
AcDbEntity
8
1
62
256
6
ByLayer
370
13
48
1
60
0
100
AcDbLine
10
344.675549
20
20.772807
30
0
11
343.255291
21
29.766818
31
0
39
0
210
0
220
0
230
1
0
LINE
5
CE
100
AcDbEntity
8
1
62
256
6
ByLayer
370
13
48
1
60
0
100
AcDbLine
10
342.031474
20
30.371983
30
0
11
342.026775
21
30.371737
31
0
39
0
210
0
220
0
230
1
0
LINE
5
CF
100
AcDbEntity
8
1
62
256
6
ByLayer
370
13
48
1
60
0
100
AcDbLine
10
325.822512
20
19.383214
30
0
11
327.078865
21
11.427156
31
0
39
0
210
0
220
0
230
1
0
LINE
5
D0
100
AcDbEntity
8
1
62
256
6
ByLayer
370
13
48
1
60
0
100
AcDbLine
10
323.020842
20
18.748057
30
0
11
324.584704
21
10.310596
31
0
39
0
210
0
220
0
230
1
0
LINE
5
D1
100
AcDbEntity
8
1
62
256
6
ByLayer
370
13
48
1
60
0
100
AcDbLine
10
343.166921
20
11.286034
30
0
11
343.214142
21
11.293961
31
0
39
0
210
0
220
0
230
1
0
LINE
5
D2
100
AcDbEntity
8
1
62
256
6
ByLayer
370
13
48
1
60
0
100
AcDbLine
10
326.206022
20
9.698982
30
0
11
325.94935
21
9.639519
31
0
39
0
210
0
220
0
230
1
0
LINE
5
D3
100
AcDbEntity
8
1
62
256
6
ByLayer
370
13
48
1
60
0
100
AcDbLine
10
341.892401
20
30.417412
30
0
11
341.929315
21
30.419347
31
0
39
0
210
0
220
0
230
1
0
LINE
5
D4
100
AcDbEntity
8
1
62
256
6
ByLayer
370
13
48
1
60
0
100
AcDbLine
10
324.329357
20
28.798803
30
0
11
324.433638
21
27.625944
31
0
39
0
210
0
220
0
230
1
0
LINE
5
D5
100
AcDbEntity
8
1
62
256
6
ByLayer
370
13
48
1
60
0
100
AcDbLine
10
341.356214
20
29.02706
30
0
11
342.656974
21
20.789786
31
0
39
0
210
0
220
0
230
1
0
LINE
5
D6
100
AcDbEntity
8
1
62
256
6
ByLayer
370
13
48
1
60
0
100
AcDbLine
10
324.329357
20
28.798803
30
0
11
324.189845
21
28.775385
31
0
39
0
210
0
220
0
230
1
0
LINE
5
D7
100
AcDbEntity
8
1
62
256
6
ByLayer
370
13
48
1
60
0
100
AcDbLine
10
342.660209
20
20.545872
30
0
11
341.593614
21
12.394179
31
0
39
0
210
0
220
0
230
1
0
LINE
5
D8
100
AcDbEntity
8
1
62
256
6
ByLayer
370
13
48
1
60
0
100
AcDbLine
10
326.887796
20
27.682906
30
0
11
325.820609
21
19.526693
31
0
39
0
210
0
220
0
230
1
0
LINE
5
D9
100
AcDbEntity
8
1
62
256
6
ByLayer
370
13
48
1
60
0
100
AcDbLine
10
326.103864
20
9.746346
30
0
11
325.905081
21
9.737675
31
0
39
0
210
0
220
0
230
1
0
LINE
5
DA
100
AcDbEntity
8
1
62
256
6
ByLayer
370
13
48
1
60
0
100
AcDbLine
10
342.230257
20
30.380654
30
0
11
342.225558
21
30.380408
31
0
39
0
210
0
220
0
230
1
0
LINE
5
DB
100
AcDbEntity
8
1
62
256
6
ByLayer
370
13
48
1
60
0
100
AcDbLine
10
343.647106
20
12.738874
30
0
11
344.677643
21
20.61498
31
0
39
0
210
0
220
0
230
1
0
LINE
5
DC
100
AcDbEntity
8
1
62
256
6
ByLayer
370
13
48
1
60
0
100
AcDbLine
10
343.473748
20
12.454122
30
0
11
343.701699
21
12.492385
31
0
39
0
210
0
220
0
230
1
0
LINE
5
DD
100
AcDbEntity
8
1
62
256
6
ByLayer
370
13
48
1
60
0
100
AcDbLine
10
343.473748
20
12.454122
30
0
11
343.258691
21
11.493049
31
0
39
0
210
0
220
0
230
1
0
LINE
5
DE
100
AcDbEntity
8
1
62
256
6
ByLayer
370
13
48
1
60
0
100
AcDbLine
10
342.21801
20
30.229812
30
0
11
342.019227
21
30.221141
31
0
39
0
210
0
220
0
230
1
0
LINE
5
DF
100
AcDbEntity
8
1
62
256
6
ByLayer
370
13
48
1
60
0
100
AcDbLine
10
341.33552
20
12.095203
30
0
11
343.473748
21
12.454122
31
0
39
0
210
0
220
0
230
1
0
LINE
5
E0
100
AcDbEntity
8
1
62
256
6
ByLayer
370
13
48
1
60
0
100
AcDbLine
10
344.94321
20
20.583276
30
0
11
343.914721
21
12.722819
31
0
39
0
210
0
220
0
230
1
0
LINE
5
E1
100
AcDbEntity
8
1
62
256
6
ByLayer
370
13
48
1
60
0
100
AcDbLine
10
341.593614
20
12.394179
30
0
11
343.647106
21
12.738874
31
0
39
0
210
0
220
0
230
1
0
LINE
5
E2
100
AcDbEntity
8
1
62
256
6
ByLayer
370
13
48
1
60
0
100
AcDbLine
10
324.956484
20
29.30143
30
0
11
324.638995
21
29.300533
31
0
39
0
210
0
220
0
230
1
0
LINE
5
E3
100
AcDbEntity
8
1
62
256
6
ByLayer
370
13
48
1
60
0
100
AcDbLine
10
341.285134
20
12.437394
30
0
11
342.352321
21
20.593606
31
0
39
0
210
0
220
0
230
1
0
LINE
5
E4
100
AcDbEntity
8
1
62
256
6
ByLayer
370
13
48
1
60
0
100
AcDbLine
10
342.031474
20
30.371983
30
0
11
342.230257
21
30.380654
31
0
39
0
210
0
220
0
230
1
0
LINE
5
E5
100
AcDbEntity
8
1
62
256
6
ByLayer
370
13
48
1
60
0
100
AcDbLine
10
326.882923
20
11.00096
30
0
11
326.878224
21
11.000713
31
0
39
0
210
0
220
0
230
1
0
LINE
5
E6
100
AcDbEntity
8
1
62
256
6
ByLayer
370
13
48
1
60
0
100
AcDbLine
10
325.604395
20
19.551859
30
0
11
325.599696
21
19.551613
31
0
39
0
210
0
220
0
230
1
0
LINE
5
E7
100
AcDbEntity
8
1
62
256
6
ByLayer
370
13
48
1
60
0
100
AcDbLine
10
326.741532
20
11.089299
30
0
11
325.440772
21
19.326573
31
0
39
0
210
0
220
0
230
1
0
LINE
5
E8
100
AcDbEntity
8
1
62
256
6
ByLayer
370
13
48
1
60
0
100
AcDbLine
10
326.675057
20
27.770296
30
0
11
325.599696
21
19.551613
31
0
39
0
210
0
220
0
230
1
0
LINE
5
E9
100
AcDbEntity
8
1
62
256
6
ByLayer
370
13
48
1
60
0
100
AcDbLine
10
326.911835
20
11.088294
30
0
11
326.863413
21
11.39493
31
0
39
0
210
0
220
0
230
1
0
LINE
5
EA
100
AcDbEntity
8
1
62
256
6
ByLayer
370
13
48
1
60
0
100
AcDbLine
10
344.940165
20
20.812843
30
0
11
343.519907
21
29.806854
31
0
39
0
210
0
220
0
230
1
0
LINE
5
EB
100
AcDbEntity
8
1
62
256
6
ByLayer
370
13
48
1
60
0
100
AcDbLine
10
325.602361
20
19.350742
30
0
11
326.907136
21
11.088048
31
0
39
0
210
0
220
0
230
1
0
LINE
5
EC
100
AcDbEntity
8
1
62
256
6
ByLayer
370
13
48
1
60
0
100
AcDbLine
10
344.844502
20
20.596352
30
0
11
344.839803
21
20.596105
31
0
39
0
210
0
220
0
230
1
0
LINE
5
ED
100
AcDbEntity
8
1
62
256
6
ByLayer
370
13
48
1
60
0
100
AcDbLine
10
341.461395
20
12.392219
30
0
11
341.455581
21
12.347787
31
0
39
0
210
0
220
0
230
1
0
LINE
5
EE
100
AcDbEntity
8
1
62
256
6
ByLayer
370
13
48
1
60
0
100
AcDbLine
10
344.844502
20
20.596352
30
0
11
343.813965
21
12.720246
31
0
39
0
210
0
220
0
230
1
0
LINE
5
EF
100
AcDbEntity
8
1
62
256
6
ByLayer
370
13
48
1
60
0
100
AcDbLine
10
343.813965
20
12.720246
30
0
11
343.809266
21
12.72
31
0
39
0
210
0
220
0
230
1
0
LINE
5
F0
100
AcDbEntity
8
1
62
256
6
ByLayer
370
13
48
1
60
0
100
AcDbLine
10
326.290396
20
9.906921
30
0
11
326.285697
21
9.906675
31
0
39
0
210
0
220
0
230
1
0
LINE
5
F1
100
AcDbEntity
8
1
62
256
6
ByLayer
370
13
48
1
60
0
100
AcDbLine
10
341.572462
20
30.221862
30
0
11
341.74731
21
30.231025
31
0
39
0
210
0
220
0
230
1
0
LINE
5
F2
100
AcDbEntity
8
1
62
256
6
ByLayer
370
13
48
1
60
0
100
AcDbLine
10
327.372452
20
27.969605
30
0
11
339.899342
21
28.626111
31
0
39
0
210
0
220
0
230
1
0
LINE
5
F3
100
AcDbEntity
8
1
62
256
6
ByLayer
370
13
48
1
60
0
100
AcDbLine
10
322.944309
20
20.208382
30
0
11
323.049055
21
21.247983
31
0
39
0
210
0
220
0
230
1
0
LINE
5
F4
100
AcDbEntity
8
SK1
62
256
6
ByLayer
370
13
48
1
60
0
100
AcDbLine
10
-1.544243
20
-24.783477
30
0
11
-1.544243
21
24.783477
31
0
39
0
210
0
220
0
230
1
0
LINE
5
F5
100
AcDbEntity
8
SK1
62
256
6
ByLayer
370
13
48
1
60
0
100
AcDbLine
10
-0.15
20
-24.746
30
0
11
-0.15
21
24.746
31
0
39
0
210
0
220
0
230
1
0
LINE
5
F6
100
AcDbEntity
8
SK1
62
256
6
ByLayer
370
13
48
1
60
0
100
AcDbLine
10
-76.600002
20
10.670483
30
0
11
-6.5
21
10.670483
31
0
39
0
210
0
220
0
230
1
0
LINE
5
F7
100
AcDbEntity
8
SK1
62
256
6
ByLayer
370
13
48
1
60
0
100
AcDbLine
10
-6.5
20
-10.670483
30
0
11
-76.600002
21
-10.670483
31
0
39
0
210
0
220
0
230
1
0
LINE
5
F8
100
AcDbEntity
8
1
62
256
6
ByLayer
370
13
48
1
60
0
100
AcDbLine
10
343.390559
20
10.527093
30
0
11
343.24633
21
10.519534
31
0
39
0
210
0
220
0
230
1
0
LINE
5
F9
100
AcDbEntity
8
1
62
256
6
ByLayer
370
13
48
1
60
0
100
AcDbLine
10
342.753747
20
-0.192729
30
0
11
343.992241
21
-7.969982
31
0
39
0
210
0
220
0
230
1
0
LINE
5
FA
100
AcDbEntity
8
1
62
256
6
ByLayer
370
13
48
1
60
0
100
AcDbLine
10
342.753747
20
-0.192729
30
0
11
340.482022
21
2.032622
31
0
39
0
210
0
220
0
230
1
0
LINE
5
FB
100
AcDbEntity
8
1
62
256
6
ByLayer
370
13
48
1
60
0
100
AcDbLine
10
340.497925
20
2.822018
30
0
11
342.683134
21
0.681416
31
0
39
0
210
0
220
0
230
1
0
LINE
5
FC
100
AcDbEntity
8
1
62
256
6
ByLayer
370
13
48
1
60
0
100
AcDbLine
10
344.014661
20
-9.673244
30
0
11
341.565551
21
-7.274129
31
0
39
0
210
0
220
0
230
1
0
LINE
5
FD
100
AcDbEntity
8
1
62
256
6
ByLayer
370
13
48
1
60
0
100
AcDbLine
10
329.102307
20
11.537619
30
0
11
332.085172
21
11.693944
31
0
39
0
210
0
220
0
230
1
0
LINE
5
FE
100
AcDbEntity
8
1
62
256
6
ByLayer
370
13
48
1
60
0
100
AcDbLine
10
319.544878
20
13.542714
30
0
11
319.544878
21
16.217187
31
0
39
0
210
0
220
0
230
1
0
LINE
5
FF
100
AcDbEntity
8
1
62
256
6
ByLayer
370
13
48
1
60
0
100
AcDbLine
10
341.289719
20
10.474001
30
0
11
342.733186
21
10.54965
31
0
39
0
210
0
220
0
230
1
0
LINE
5
100
100
AcDbEntity
8
1
62
256
6
ByLayer
370
13
48
1
60
0
100
AcDbLine
10
320.939109
20
14.075496
30
0
11
319.544878
21
16.217187
31
0
39
0
210
0
220
0
230
1
0
LINE
5
101
100
AcDbEntity
8
1
62
256
6
ByLayer
370
13
48
1
60
0
100
AcDbLine
10
318.539169
20
-29.281507
30
0
11
303.959491
21
-29.281507
31
0
39
0
210
0
220
0
230
1
0
LINE
5
102
100
AcDbEntity
8
1
62
256
6
ByLayer
370
13
48
1
60
0
100
AcDbLine
10
321.539169
20
29.7375
30
0
11
321.539169
21
29.575292
31
0
39
0
210
0
220
0
230
1
0
LINE
5
103
100
AcDbEntity
8
1
62
256
6
ByLayer
370
13
48
1
60
0
100
AcDbLine
10
341.289719
20
10.474001
30
0
11
340.497925
21
2.822018
31
0
39
0
210
0
220
0
230
1
0
LINE
5
104
100
AcDbEntity
8
1
62
256
6
ByLayer
370
13
48
1
60
0
100
AcDbLine
10
318.539169
20
-29.281507
30
0
11
318.539169
21
0.233095
31
0
39
0
210
0
220
0
230
1
0
LINE
5
105
100
AcDbEntity
8
1
62
256
6
ByLayer
370
13
48
1
60
0
100
AcDbLine
10
329.123176
20
9.334554
30
0
11
329.628399
21
9.361032
31
0
39
0
210
0
220
0
230
1
0
LINE
5
106
100
AcDbEntity
8
1
62
256
6
ByLayer
370
13
48
1
60
0
100
AcDbLine
10
332.058454
20
10.991584
30
0
11
341.407741
21
11.481559
31
0
39
0
210
0
220
0
230
1
0
LINE
5
107
100
AcDbEntity
8
1
62
256
6
ByLayer
370
13
48
1
60
0
100
AcDbLine
10
343.390559
20
10.527093
30
0
11
343.552238
21
10.218522
31
0
39
0
210
0
220
0
230
1
0
LINE
5
108
100
AcDbEntity
8
1
62
256
6
ByLayer
370
13
48
1
60
0
100
AcDbLine
10
0.1
20
5.567764
30
0
11
5.1564
21
5.567764
31
0
39
0
210
0
220
0
230
1
0
LINE
5
109
100
AcDbEntity
8
1
62
256
6
ByLayer
370
13
48
1
60
0
100
AcDbLine
10
343.270417
20
1.139987
30
0
11
343.248935
21
1.1428
31
0
39
0
210
0
220
0
230
1
0
LINE
5
10A
100
AcDbEntity
8
1
62
256
6
ByLayer
370
13
48
1
60
0
100
AcDbLine
10
341.483337
20
-5.512293
30
0
11
343.992241
21
-7.969982
31
0
39
0
210
0
220
0
230
1
0
LINE
5
10B
100
AcDbEntity
8
1
62
256
6
ByLayer
370
13
48
1
60
0
100
AcDbLine
10
10.2564
20
-4.741437
30
0
11
10.2564
21
4.741437
31
0
39
0
210
0
220
0
230
1
0
LINE
5
10C
100
AcDbEntity
8
1
62
256
6
ByLayer
370
13
48
1
60
0
100
AcDbLine
10
343.552238
20
10.218522
30
0
11
343.558059
21
0.818405
31
0
39
0
210
0
220
0
230
1
0
LINE
5
10D
100
AcDbEntity
8
1
62
256
6
ByLayer
370
13
48
1
60
0
100
AcDbLine
10
343.270417
20
1.139987
30
0
11
343.558059
21
0.818405
31
0
39
0
210
0
220
0
230
1
0
LINE
5
10E
100
AcDbEntity
8
1
62
256
6
ByLayer
370
13
48
1
60
0
100
AcDbLine
10
0.1
20
31.25
30
0
11
0.1
21
5.567764
31
0
39
0
210
0
220
0
230
1
0
LINE
5
10F
100
AcDbEntity
8
1
62
256
6
ByLayer
370
13
48
1
60
0
100
AcDbLine
10
337.393439
20
11.944323
30
0
11
337.166982
21
11.932455
31
0
39
0
210
0
220
0
230
1
0
LINE
5
110
100
AcDbEntity
8
1
62
256
6
ByLayer
370
13
48
1
60
0
100
AcDbLine
10
343.552238
20
10.218522
30
0
11
343.361216
21
9.498087
31
0
39
0
210
0
220
0
230
1
0
LINE
5
111
100
AcDbEntity
8
1
62
256
6
ByLayer
370
13
48
1
60
0
100
AcDbLine
10
5.1564
20
-5.567764
30
0
11
5.1564
21
-31.25
31
0
39
0
210
0
220
0
230
1
0
LINE
5
112
100
AcDbEntity
8
1
62
256
6
ByLayer
370
13
48
1
60
0
100
AcDbLine
10
320.475345
20
2.322507
30
0
11
320.920219
21
-0.390212
31
0
39
0
210
0
220
0
230
1
0
LINE
5
113
100
AcDbEntity
8
1
62
256
6
ByLayer
370
13
48
1
60
0
100
AcDbLine
10
159
20
-29.306115
30
0
11
159
21
-29.4325
31
0
39
0
210
0
220
0
230
1
0
LINE
5
114
100
AcDbEntity
8
1
62
256
6
ByLayer
370
13
48
1
60
0
100
AcDbLine
10
343.361216
20
9.498087
30
0
11
343.325296
21
9.496204
31
0
39
0
210
0
220
0
230
1
0
LINE
5
115
100
AcDbEntity
8
1
62
256
6
ByLayer
370
13
48
1
60
0
100
AcDbLine
10
343.338256
20
-18.99894
30
0
11
342.887952
21
-18.633633
31
0
39
0
210
0
220
0
230
1
0
LINE
5
116
100
AcDbEntity
8
1
62
256
6
ByLayer
370
13
48
1
60
0
100
AcDbLine
10
323.586961
20
14.774217
30
0
11
322.835123
21
19.535352
31
0
39
0
210
0
220
0
230
1
0
LINE
5
117
100
AcDbEntity
8
1
62
256
6
ByLayer
370
13
48
1
60
0
100
AcDbLine
10
338.513668
20
10.328515
30
0
11
341.289719
21
10.474001
31
0
39
0
210
0
220
0
230
1
0
LINE
5
118
100
AcDbEntity
8
1
62
256
6
ByLayer
370
13
48
1
60
0
100
AcDbLine
10
343.178477
20
0.624235
30
0
11
343.154956
21
0.627315
31
0
39
0
210
0
220
0
230
1
0
LINE
5
119
100
AcDbEntity
8
1
62
256
6
ByLayer
370
13
48
1
60
0
100
AcDbLine
10
0
20
31.15
30
0
11
0
21
4.975942
31
0
39
0
210
0
220
0
230
1
0
LINE
5
11A
100
AcDbEntity
8
1
62
256
6
ByLayer
370
13
48
1
60
0
100
AcDbLine
10
332.204769
20
9.997879
30
0
11
332.951309
21
10.037004
31
0
39
0
210
0
220
0
230
1
0
LINE
5
11B
100
AcDbEntity
8
1
62
256
6
ByLayer
370
13
48
1
60
0
100
AcDbLine
10
327.341632
20
11.214959
30
0
11
327.506227
21
11.223585
31
0
39
0
210
0
220
0
230
1
0
LINE
5
11C
100
AcDbEntity
8
1
62
256
6
ByLayer
370
13
48
1
60
0
100
AcDbLine
10
5.1564
20
-5.567764
30
0
11
0.1
21
-5.567764
31
0
39
0
210
0
220
0
230
1
0
LINE
5
11D
100
AcDbEntity
8
1
62
256
6
ByLayer
370
13
48
1
60
0
100
AcDbLine
10
324.212221
20
28.348538
30
0
11
324.14663
21
29.600084
31
0
39
0
210
0
220
0
230
1
0
LINE
5
11E
100
AcDbEntity
8
1
62
256
6
ByLayer
370
13
48
1
60
0
100
AcDbLine
10
323.355252
20
21.798959
30
0
11
324.212221
21
28.348538
31
0
39
0
210
0
220
0
230
1
0
LINE
5
11F
100
AcDbEntity
8
1
62
256
6
ByLayer
370
13
48
1
60
0
100
AcDbLine
10
324.210137
20
27.489228
30
0
11
323.498543
21
22.050712
31
0
39
0
210
0
220
0
230
1
0
LINE
5
120
100
AcDbEntity
8
1
62
256
6
ByLayer
370
13
48
1
60
0
100
AcDbLine
10
340.482022
20
2.032622
30
0
11
340.675061
21
-0.97576
31
0
39
0
210
0
220
0
230
1
0
LINE
5
121
100
AcDbEntity
8
1
62
256
6
ByLayer
370
13
48
1
60
0
100
AcDbLine
10
40
20
29.7375
30
0
11
40
21
-10.703708
31
0
39
0
210
0
220
0
230
1
0
LINE
5
122
100
AcDbEntity
8
1
62
256
6
ByLayer
370
13
48
1
60
0
100
AcDbLine
10
328.75296
20
11.319036
30
0
11
328.762358
21
11.319529
31
0
39
0
210
0
220
0
230
1
0
LINE
5
123
100
AcDbEntity
8
1
62
256
6
ByLayer
370
13
48
1
60
0
100
AcDbLine
10
341.937014
20
-29.584858
30
0
11
321.539169
21
-29.584858
31
0
39
0
210
0
220
0
230
1
0
LINE
5
124
100
AcDbEntity
8
1
62
256
6
ByLayer
370
13
48
1
60
0
100
AcDbLine
10
35.01
20
-16.606342
30
0
11
35.01
21
-28.935427
31
0
39
0
210
0
220
0
230
1
0
LINE
5
125
100
AcDbEntity
8
1
62
256
6
ByLayer
370
13
48
1
60
0
100
AcDbLine
10
5.1564
20
31.25
30
0
11
5.1564
21
5.567764
31
0
39
0
210
0
220
0
230
1
0
LINE
5
126
100
AcDbEntity
8
1
62
256
6
ByLayer
370
13
48
1
60
0
100
AcDbLine
10
321.539169
20
-29.584858
30
0
11
321.539169
21
-0.459555
31
0
39
0
210
0
220
0
230
1
0
LINE
5
127
100
AcDbEntity
8
1
62
256
6
ByLayer
370
13
48
1
60
0
100
AcDbLine
10
343.170669
20
0.632965
30
0
11
343.178477
21
0.624235
31
0
39
0
210
0
220
0
230
1
0
LINE
5
128
100
AcDbEntity
8
1
62
256
6
ByLayer
370
13
48
1
60
0
100
AcDbLine
10
343.558059
20
0.818405
30
0
11
343.18048
21
0.674885
31
0
39
0
210
0
220
0
230
1
0
LINE
5
129
100
AcDbEntity
8
1
62
256
6
ByLayer
370
13
48
1
60
0
100
AcDbLine
10
342.979706
20
0.59857
30
0
11
342.7871
21
0.525359
31
0
39
0
210
0
220
0
230
1
0
LINE
5
12A
100
AcDbEntity
8
1
62
256
6
ByLayer
370
13
48
1
60
0
100
AcDbLine
10
321.2858
20
10.513892
30
0
11
322.806542
21
10.046572
31
0
39
0
210
0
220
0
230
1
0
LINE
5
12B
100
AcDbEntity
8
1
62
256
6
ByLayer
370
13
48
1
60
0
100
AcDbLine
10
0
20
-31.15
30
0
11
0
21
-4.975942
31
0
39
0
210
0
220
0
230
1
0
LINE
5
12C
100
AcDbEntity
8
1
62
256
6
ByLayer
370
13
48
1
60
0
100
AcDbLine
10
328.394886
20
11.199726
30
0
11
327.86302
21
11.171852
31
0
39
0
210
0
220
0
230
1
0
LINE
5
12D
100
AcDbEntity
8
1
62
256
6
ByLayer
370
13
48
1
60
0
100
AcDbLine
10
0
20
-4.975942
30
0
11
0
21
4.975942
31
0
39
0
210
0
220
0
230
1
0
LINE
5
12E
100
AcDbEntity
8
1
62
256
6
ByLayer
370
13
48
1
60
0
100
AcDbLine
10
318.539169
20
29.4325
30
0
11
318.539169
21
29.237009
31
0
39
0
210
0
220
0
230
1
0
LINE
5
12F
100
AcDbEntity
8
1
62
256
6
ByLayer
370
13
48
1
60
0
100
AcDbLine
10
40
20
-29.619879
30
0
11
40
21
-29.7375
31
0
39
0
210
0
220
0
230
1
0
LINE
5
130
100
AcDbEntity
8
1
62
256
6
ByLayer
370
13
48
1
60
0
100
AcDbLine
10
337.552986
20
11.9805
30
0
11
340.535852
21
12.136826
31
0
39
0
210
0
220
0
230
1
0
LINE
5
131
100
AcDbEntity
8
1
62
256
6
ByLayer
370
13
48
1
60
0
100
AcDbLine
10
343.288153
20
9.793504
30
0
11
343.240131
21
10.627256
31
0
39
0
210
0
220
0
230
1
0
LINE
5
132
100
AcDbEntity
8
1
62
256
6
ByLayer
370
13
48
1
60
0
100
AcDbLine
10
327.33997
20
11.224481
30
0
11
327.341632
21
11.214959
31
0
39
0
210
0
220
0
230
1
0
LINE
5
133
100
AcDbEntity
8
1
62
256
6
ByLayer
370
13
48
1
60
0
100
AcDbLine
10
35
20
29.7375
30
0
11
35
21
-10.704031
31
0
39
0
210
0
220
0
230
1
0
LINE
5
134
100
AcDbEntity
8
1
62
256
6
ByLayer
370
13
48
1
60
0
100
AcDbLine
10
328.714645
20
11.229408
30
0
11
328.400657
21
11.212953
31
0
39
0
210
0
220
0
230
1
0
LINE
5
135
100
AcDbEntity
8
1
62
256
6
ByLayer
370
13
48
1
60
0
100
AcDbLine
10
35
20
-29.619902
30
0
11
35
21
-29.7375
31
0
39
0
210
0
220
0
230
1
0
LINE
5
136
100
AcDbEntity
8
1
62
256
6
ByLayer
370
13
48
1
60
0
100
AcDbLine
10
343.170669
20
0.632965
30
0
11
343.159937
21
0.63437
31
0
39
0
210
0
220
0
230
1
0
LINE
5
137
100
AcDbEntity
8
1
62
256
6
ByLayer
370
13
48
1
60
0
100
AcDbLine
10
319.997506
20
13.552248
30
0
11
320.939109
21
14.075496
31
0
39
0
210
0
220
0
230
1
0
LINE
5
138
100
AcDbEntity
8
1
62
256
6
ByLayer
370
13
48
1
60
0
100
AcDbLine
10
316.338547
20
2.542591
30
0
11
316.562254
21
1.17849
31
0
39
0
210
0
220
0
230
1
0
LINE
5
139
100
AcDbEntity
8
1
62
256
6
ByLayer
370
13
48
1
60
0
100
AcDbLine
10
340.990988
20
11.960404
30
0
11
328.762358
21
11.319529
31
0
39
0
210
0
220
0
230
1
0
LINE
5
13A
100
AcDbEntity
8
1
62
256
6
ByLayer
370
13
48
1
60
0
100
AcDbLine
10
341.937014
20
-29.584858
30
0
11
343.338256
21
-18.99894
31
0
39
0
210
0
220
0
230
1
0
LINE
5
13B
100
AcDbEntity
8
1
62
256
6
ByLayer
370
13
48
1
60
0
100
AcDbLine
10
0.1
20
-31.25
30
0
11
0.1
21
-5.567764
31
0
39
0
210
0
220
0
230
1
0
LINE
5
13C
100
AcDbEntity
8
1
62
256
6
ByLayer
370
13
48
1
60
0
100
AcDbLine
10
159
20
29.4325
30
0
11
159
21
-10.685627
31
0
39
0
210
0
220
0
230
1
0
LINE
5
13D
100
AcDbEntity
8
1
62
256
6
ByLayer
370
13
48
1
60
0
100
AcDbLine
10
344.014661
20
-9.673244
30
0
11
342.902411
21
-18.075928
31
0
39
0
210
0
220
0
230
1
0
LINE
5
13E
100
AcDbEntity
8
4
62
256
6
ByLayer
370
18
48
0.05
60
0
100
AcDbLine
10
345
20
0
30
0
11
0
21
0
31
0
39
0
210
0
220
0
230
1
0
LINE
5
140
100
AcDbEntity
8
SK4
62
256
6
ByLayer
370
13
48
0.05
60
0
100
AcDbLine
10
345
20
0
30
0
11
-80
21
0
31
0
39
0
210
0
220
0
230
1
0
LINE
5
142
100
AcDbEntity
8
SK1
62
256
6
ByLayer
370
13
48
1
60
0
100
AcDbLine
10
-0.15
20
24.746
30
0
11
-1.375195
21
24.746
31
0
39
0
210
0
220
0
230
1
0
LINE
5
143
100
AcDbEntity
8
SK1
62
256
6
ByLayer
370
13
48
1
60
0
100
AcDbLine
10
-1.375195
20
-24.746
30
0
11
-0.15
21
-24.746
31
0
39
0
210
0
220
0
230
1
0
LINE
5
144
100
AcDbEntity
8
SK1
62
256
6
ByLayer
370
13
48
1
60
0
100
AcDbLine
10
-2
20
24.996
30
0
11
-76.600002
21
24.996
31
0
39
0
210
0
220
0
230
1
0
LINE
5
145
100
AcDbEntity
8
SK1
62
256
6
ByLayer
370
13
48
1
60
0
100
AcDbLine
10
-76.600002
20
-24.996
30
0
11
-2
21
-24.996
31
0
39
0
210
0
220
0
230
1
0
LINE
5
146
100
AcDbEntity
8
SK1
62
256
6
ByLayer
370
13
48
1
60
0
100
AcDbLine
10
-1.544243
20
24.783477
30
0
11
-2
21
24.996
31
0
39
0
210
0
220
0
230
1
0
LINE
5
147
100
AcDbEntity
8
SK1
62
256
6
ByLayer
370
13
48
1
60
0
100
AcDbLine
10
-2
20
-24.996
30
0
11
-1.544243
21
-24.783477
31
0
39
0
210
0
220
0
230
1
0
LINE
5
148
100
AcDbEntity
8
1
62
256
6
ByLayer
370
13
48
1
60
0
100
AcDbLine
10
35
20
-29.7375
30
0
11
40
21
-29.7375
31
0
39
0
210
0
220
0
230
1
0
LINE
5
149
100
AcDbEntity
8
1
62
256
6
ByLayer
370
13
48
1
60
0
100
AcDbLine
10
40
20
-29.7375
30
0
11
159
21
-29.4325
31
0
39
0
210
0
220
0
230
1
0
LINE
5
14A
100
AcDbEntity
8
1
62
256
6
ByLayer
370
13
48
1
60
0
100
AcDbLine
10
323.869133
20
29.7375
30
0
11
321.539169
21
29.7375
31
0
39
0
210
0
220
0
230
1
0
LINE
5
14B
100
AcDbEntity
8
1
62
256
6
ByLayer
370
13
48
1
60
0
100
AcDbLine
10
321.539169
20
29.7375
30
0
11
318.539169
21
29.4325
31
0
39
0
210
0
220
0
230
1
0
LINE
5
14C
100
AcDbEntity
8
1
62
256
6
ByLayer
370
13
48
1
60
0
100
AcDbLine
10
159
20
-29.4325
30
0
11
207.938139
21
-29.4325
31
0
39
0
210
0
220
0
230
1
0
LINE
5
14D
100
AcDbEntity
8
1
62
256
6
ByLayer
370
13
48
1
60
0
100
AcDbLine
10
318.539169
20
29.4325
30
0
11
301.749319
21
29.4325
31
0
39
0
210
0
220
0
230
1
0
LINE
5
14E
100
AcDbEntity
8
1
62
256
6
ByLayer
370
13
48
1
60
0
100
AcDbLine
10
197.404647
20
29.4325
30
0
11
159
21
29.4325
31
0
39
0
210
0
220
0
230
1
0
LINE
5
14F
100
AcDbEntity
8
1
62
256
6
ByLayer
370
13
48
1
60
0
100
AcDbLine
10
159
20
29.4325
30
0
11
40
21
29.7375
31
0
39
0
210
0
220
0
230
1
0
LINE
5
150
100
AcDbEntity
8
1
62
256
6
ByLayer
370
13
48
1
60
0
100
AcDbLine
10
40
20
29.7375
30
0
11
35
21
29.7375
31
0
39
0
210
0
220
0
230
1
0
LINE
5
151
100
AcDbEntity
8
1
62
256
6
ByLayer
370
13
48
1
60
0
100
AcDbLine
10
0.1
20
-31.25
30
0
11
5.1564
21
-31.25
31
0
39
0
210
0
220
0
230
1
0
LINE
5
152
100
AcDbEntity
8
1
62
256
6
ByLayer
370
13
48
1
60
0
100
AcDbLine
10
0
20
-31.15
30
0
11
0.1
21
-31.25
31
0
39
0
210
0
220
0
230
1
0
LINE
5
153
100
AcDbEntity
8
1
62
256
6
ByLayer
370
13
48
1
60
0
100
AcDbLine
10
0.1
20
31.25
30
0
11
0
21
31.15
31
0
39
0
210
0
220
0
230
1
0
LINE
5
154
100
AcDbEntity
8
1
62
256
6
ByLayer
370
13
48
1
60
0
100
AcDbLine
10
5.1564
20
31.25
30
0
11
0.1
21
31.25
31
0
39
0
210
0
220
0
230
1
0
LINE
5
155
100
AcDbEntity
8
1
62
256
6
ByLayer
370
13
48
1
60
0
100
AcDbLine
10
343.358182
20
11.438865
30
0
11
343.89296
21
12.645215
31
0
39
0
210
0
220
0
230
1
0
LINE
5
156
100
AcDbEntity
8
1
62
256
6
ByLayer
370
13
48
1
60
0
100
AcDbLine
10
342.529174
20
20.767296
30
0
11
341.27282
21
28.723354
31
0
39
0
210
0
220
0
230
1
0
LINE
5
157
100
AcDbEntity
8
1
62
256
6
ByLayer
370
13
48
1
60
0
100
AcDbLine
10
341.464647
20
12.410461
30
0
11
342.531834
21
20.566674
31
0
39
0
210
0
220
0
230
1
0
LINE
5
158
100
AcDbEntity
8
1
62
256
6
ByLayer
370
18
48
1
60
0
100
AcDbLine
10
334.08684
20
18.768099
30
0
11
333.959772
21
18.761439
31
0
39
0
210
0
220
0
230
1
0
LINE
5
159
100
AcDbEntity
8
1
62
256
6
ByLayer
370
18
48
1
60
0
100
AcDbLine
10
333.824714
20
21.338503
30
0
11
333.951782
21
21.345162
31
0
39
0
210
0
220
0
230
1
0
LINE
5
15A
100
AcDbEntity
8
1
62
256
6
ByLayer
370
18
48
1
60
0
100
AcDbLine
10
334.114234
20
17.207694
30
0
11
334.181975
21
17.211244
31
0
39
0
210
0
220
0
230
1
0
LINE
5
15B
100
AcDbEntity
8
1
62
256
6
ByLayer
370
18
48
1
60
0
100
AcDbLine
10
333.88366
20
22.903432
30
0
11
333.815919
21
22.899882
31
0
39
0
210
0
220
0
230
1
0
LINE
5
15C
100
AcDbEntity
8
81
62
256
6
ByLayer
370
18
48
1
60
0
100
AcDbLine
10
345
20
0
30
0
11
352
21
0
31
0
39
0
210
0
220
0
230
1
0
LINE
5
15D
100
AcDbEntity
8
80
62
256
6
ByLayer
370
18
48
1
60
0
100
AcDbLine
10
0
20
0
30
0
11
-7
21
0
31
0
39
0
210
0
220
0
230
1
0
LINE
5
15E
100
AcDbEntity
8
SK2
62
256
6
ByLayer
370
13
48
1
60
0
100
AcDbLine
10
-100.725
20
25
30
0
11
-100.725
21
-25
31
0
39
0
210
0
220
0
230
1
0
LINE
5
160
100
AcDbEntity
8
SK2
62
256
6
ByLayer
370
13
48
1
60
0
100
AcDbLine
10
-81.5875
20
-25
30
0
11
-103.9
21
-25
31
0
39
0
210
0
220
0
230
1
0
LINE
5
161
100
AcDbEntity
8
SK2
62
256
6
ByLayer
370
13
48
1
60
0
100
AcDbLine
10
-81.5875
20
25
30
0
11
-103.9
21
25
31
0
39
0
210
0
220
0
230
1
0
LINE
5
162
100
AcDbEntity
8
1
62
256
6
ByLayer
370
18
48
1
60
1
100
AcDbLine
10
-100.725
20
-25
30
0
11
-101.650575
21
-20.825003
31
0
39
0
210
0
220
0
230
1
0
LINE
5
163
100
AcDbEntity
8
1
62
256
6
ByLayer
370
18
48
1
60
1
100
AcDbLine
10
-101.650575
20
-20.825003
30
0
11
-99.799425
21
-20.824997
31
0
39
0
210
0
220
0
230
1
0
LINE
5
164
100
AcDbEntity
8
1
62
256
6
ByLayer
370
18
48
1
60
1
100
AcDbLine
10
-99.799425
20
-20.824997
30
0
11
-100.725
21
-25
31
0
39
0
210
0
220
0
230
1
0
LINE
5
165
100
AcDbEntity
8
1
62
256
6
ByLayer
370
18
48
1
60
1
100
AcDbLine
10
-100.725
20
25
30
0
11
-99.799425
21
20.825003
31
0
39
0
210
0
220
0
230
1
0
LINE
5
166
100
AcDbEntity
8
1
62
256
6
ByLayer
370
18
48
1
60
1
100
AcDbLine
10
-99.799425
20
20.825003
30
0
11
-101.650575
21
20.824997
31
0
39
0
210
0
220
0
230
1
0
LINE
5
167
100
AcDbEntity
8
1
62
256
6
ByLayer
370
18
48
1
60
1
100
AcDbLine
10
-101.650575
20
20.824997
30
0
11
-100.725
21
25
31
0
39
0
210
0
220
0
230
1
0
LINE
5
168
100
AcDbEntity
8
SK2
62
256
6
ByLayer
370
13
48
1
60
0
100
AcDbLine
10
-110.725
20
-31.25
30
0
11
-110.725
21
31.25
31
0
39
0
210
0
220
0
230
1
0
LINE
5
169
100
AcDbEntity
8
SK2
62
256
6
ByLayer
370
13
48
1
60
0
100
AcDbLine
10
-1.5875
20
31.25
30
0
11
-113.9
21
31.25
31
0
39
0
210
0
220
0
230
1
0
LINE
5
16A
100
AcDbEntity
8
SK2
62
256
6
ByLayer
370
13
48
1
60
0
100
AcDbLine
10
-1.5875
20
-31.25
30
0
11
-113.9
21
-31.25
31
0
39
0
210
0
220
0
230
1
0
LINE
5
16B
100
AcDbEntity
8
1
62
256
6
ByLayer
370
18
48
1
60
1
100
AcDbLine
10
-110.725
20
31.25
30
0
11
-109.799425
21
27.075003
31
0
39
0
210
0
220
0
230
1
0
LINE
5
16C
100
AcDbEntity
8
1
62
256
6
ByLayer
370
18
48
1
60
1
100
AcDbLine
10
-109.799425
20
27.075003
30
0
11
-111.650575
21
27.074997
31
0
39
0
210
0
220
0
230
1
0
LINE
5
16D
100
AcDbEntity
8
1
62
256
6
ByLayer
370
18
48
1
60
1
100
AcDbLine
10
-111.650575
20
27.074997
30
0
11
-110.725
21
31.25
31
0
39
0
210
0
220
0
230
1
0
LINE
5
16E
100
AcDbEntity
8
1
62
256
6
ByLayer
370
18
48
1
60
1
100
AcDbLine
10
-110.725
20
-31.25
30
0
11
-111.650575
21
-27.075003
31
0
39
0
210
0
220
0
230
1
0
LINE
5
16F
100
AcDbEntity
8
1
62
256
6
ByLayer
370
18
48
1
60
1
100
AcDbLine
10
-111.650575
20
-27.075003
30
0
11
-109.799425
21
-27.074997
31
0
39
0
210
0
220
0
230
1
0
LINE
5
170
100
AcDbEntity
8
1
62
256
6
ByLayer
370
18
48
1
60
1
100
AcDbLine
10
-109.799425
20
-27.074997
30
0
11
-110.725
21
-31.25
31
0
39
0
210
0
220
0
230
1
0
LINE
5
171
100
AcDbEntity
8
2
62
256
6
ByLayer
370
13
48
1
60
0
100
AcDbLine
10
371.975
20
30.5
30
0
11
371.975
21
-30.5
31
0
39
0
210
0
220
0
230
1
0
LINE
5
173
100
AcDbEntity
8
2
62
256
6
ByLayer
370
13
48
1
60
0
100
AcDbLine
10
346.5875
20
-30.5
30
0
11
375.15
21
-30.5
31
0
39
0
210
0
220
0
230
1
0
LINE
5
174
100
AcDbEntity
8
2
62
256
6
ByLayer
370
13
48
1
60
0
100
AcDbLine
10
346.5875
20
30.5
30
0
11
375.15
21
30.5
31
0
39
0
210
0
220
0
230
1
0
LINE
5
175
100
AcDbEntity
8
1
62
256
6
ByLayer
370
18
48
1
60
1
100
AcDbLine
10
371.975
20
-30.5
30
0
11
371.049425
21
-26.325003
31
0
39
0
210
0
220
0
230
1
0
LINE
5
176
100
AcDbEntity
8
1
62
256
6
ByLayer
370
18
48
1
60
1
100
AcDbLine
10
371.049425
20
-26.325003
30
0
11
372.900575
21
-26.324997
31
0
39
0
210
0
220
0
230
1
0
LINE
5
177
100
AcDbEntity
8
1
62
256
6
ByLayer
370
18
48
1
60
1
100
AcDbLine
10
372.900575
20
-26.324997
30
0
11
371.975
21
-30.5
31
0
39
0
210
0
220
0
230
1
0
LINE
5
178
100
AcDbEntity
8
1
62
256
6
ByLayer
370
18
48
1
60
1
100
AcDbLine
10
371.975
20
30.5
30
0
11
372.900575
21
26.325003
31
0
39
0
210
0
220
0
230
1
0
LINE
5
179
100
AcDbEntity
8
1
62
256
6
ByLayer
370
18
48
1
60
1
100
AcDbLine
10
372.900575
20
26.325003
30
0
11
371.049425
21
26.324997
31
0
39
0
210
0
220
0
230
1
0
LINE
5
17A
100
AcDbEntity
8
1
62
256
6
ByLayer
370
18
48
1
60
1
100
AcDbLine
10
371.049425
20
26.324997
30
0
11
371.975
21
30.5
31
0
39
0
210
0
220
0
230
1
0
LINE
5
327
100
AcDbEntity
8
1
62
256
6
ByLayer
370
18
48
1
60
1
100
AcDbLine
10
-100.725
20
-25
30
0
11
-101.650575
21
-20.825003
31
0
39
0
210
0
220
0
230
1
0
LINE
5
328
100
AcDbEntity
8
1
62
256
6
ByLayer
370
18
48
1
60
1
100
AcDbLine
10
-101.650575
20
-20.825003
30
0
11
-99.799425
21
-20.824997
31
0
39
0
210
0
220
0
230
1
0
LINE
5
329
100
AcDbEntity
8
1
62
256
6
ByLayer
370
18
48
1
60
1
100
AcDbLine
10
-99.799425
20
-20.824997
30
0
11
-100.725
21
-25
31
0
39
0
210
0
220
0
230
1
0
LINE
5
32B
100
AcDbEntity
8
1
62
256
6
ByLayer
370
18
48
1
60
1
100
AcDbLine
10
-100.725
20
25
30
0
11
-99.799425
21
20.825003
31
0
39
0
210
0
220
0
230
1
0
LINE
5
32C
100
AcDbEntity
8
1
62
256
6
ByLayer
370
18
48
1
60
1
100
AcDbLine
10
-99.799425
20
20.825003
30
0
11
-101.650575
21
20.824997
31
0
39
0
210
0
220
0
230
1
0
LINE
5
32D
100
AcDbEntity
8
1
62
256
6
ByLayer
370
18
48
1
60
1
100
AcDbLine
10
-101.650575
20
20.824997
30
0
11
-100.725
21
25
31
0
39
0
210
0
220
0
230
1
0
LINE
5
331
100
AcDbEntity
8
1
62
256
6
ByLayer
370
18
48
1
60
1
100
AcDbLine
10
-110.725
20
31.25
30
0
11
-109.799425
21
27.075003
31
0
39
0
210
0
220
0
230
1
0
LINE
5
332
100
AcDbEntity
8
1
62
256
6
ByLayer
370
18
48
1
60
1
100
AcDbLine
10
-109.799425
20
27.075003
30
0
11
-111.650575
21
27.074997
31
0
39
0
210
0
220
0
230
1
0
LINE
5
333
100
AcDbEntity
8
1
62
256
6
ByLayer
370
18
48
1
60
1
100
AcDbLine
10
-111.650575
20
27.074997
30
0
11
-110.725
21
31.25
31
0
39
0
210
0
220
0
230
1
0
LINE
5
335
100
AcDbEntity
8
1
62
256
6
ByLayer
370
18
48
1
60
1
100
AcDbLine
10
-110.725
20
-31.25
30
0
11
-111.650575
21
-27.075003
31
0
39
0
210
0
220
0
230
1
0
LINE
5
336
100
AcDbEntity
8
1
62
256
6
ByLayer
370
18
48
1
60
1
100
AcDbLine
10
-111.650575
20
-27.075003
30
0
11
-109.799425
21
-27.074997
31
0
39
0
210
0
220
0
230
1
0
LINE
5
337
100
AcDbEntity
8
1
62
256
6
ByLayer
370
18
48
1
60
1
100
AcDbLine
10
-109.799425
20
-27.074997
30
0
11
-110.725
21
-31.25
31
0
39
0
210
0
220
0
230
1
0
LINE
5
33B
100
AcDbEntity
8
1
62
256
6
ByLayer
370
18
48
1
60
1
100
AcDbLine
10
371.975
20
-30.5
30
0
11
371.049425
21
-26.325003
31
0
39
0
210
0
220
0
230
1
0
LINE
5
33C
100
AcDbEntity
8
1
62
256
6
ByLayer
370
18
48
1
60
1
100
AcDbLine
10
371.049425
20
-26.325003
30
0
11
372.900575
21
-26.324997
31
0
39
0
210
0
220
0
230
1
0
LINE
5
33D
100
AcDbEntity
8
1
62
256
6
ByLayer
370
18
48
1
60
1
100
AcDbLine
10
372.900575
20
-26.324997
30
0
11
371.975
21
-30.5
31
0
39
0
210
0
220
0
230
1
0
LINE
5
33F
100
AcDbEntity
8
1
62
256
6
ByLayer
370
18
48
1
60
1
100
AcDbLine
10
371.975
20
30.5
30
0
11
372.900575
21
26.325003
31
0
39
0
210
0
220
0
230
1
0
LINE
5
340
100
AcDbEntity
8
1
62
256
6
ByLayer
370
18
48
1
60
1
100
AcDbLine
10
372.900575
20
26.325003
30
0
11
371.049425
21
26.324997
31
0
39
0
210
0
220
0
230
1
0
LINE
5
341
100
AcDbEntity
8
1
62
256
6
ByLayer
370
18
48
1
60
1
100
AcDbLine
10
371.049425
20
26.324997
30
0
11
371.975
21
30.5
31
0
39
0
210
0
220
0
230
1
0
MTEXT
5
323
100
AcDbEntity
8
SK2
62
256
6
ByLayer
370
18
48
1
60
0
100
AcDbMText
10
-102.736672
20
-6.949399
30
0
210
0
220
0
230
1
1
%%c
40
4.5
41
0
44
1.084337
50
90
71
7
72
5
7
iso_b_vert
0
MTEXT
5
326
100
AcDbEntity
8
SK2
62
256
6
ByLayer
370
18
48
1
60
0
100
AcDbMText
10
-102.736672
20
4.265444
30
0
210
0
220
0
230
1
1
\W0.6740;50
40
4.5
41
0
44
1.084337
50
90
71
7
72
5
7
iso_b_vert
0
MTEXT
5
32F
100
AcDbEntity
8
SK2
62
256
6
ByLayer
370
18
48
1
60
0
100
AcDbMText
10
-112.736672
20
-9.541655
30
0
210
0
220
0
230
1
1
%%c
40
4.5
41
0
44
1.084337
50
90
71
7
72
5
7
iso_b_vert
0
MTEXT
5
330
100
AcDbEntity
8
SK2
62
256
6
ByLayer
370
18
48
1
60
0
100
AcDbMText
10
-112.736672
20
1.673189
30
0
210
0
220
0
230
1
1
\W0.7346;62.5
40
4.5
41
0
44
1.084337
50
90
71
7
72
5
7
iso_b_vert
0
MTEXT
5
339
100
AcDbEntity
8
2
62
256
6
ByLayer
370
18
48
1
60
0
100
AcDbMText
10
369.963328
20
-6.386985
30
0
210
0
220
0
230
1
1
%%c
40
4.5
41
0
44
1.084337
50
90
71
7
72
5
7
iso_b_vert
0
MTEXT
5
33A
100
AcDbEntity
8
2
62
256
6
ByLayer
370
18
48
1
60
0
100
AcDbMText
10
369.963328
20
4.827859
30
0
210
0
220
0
230
1
1
\W0.6351;61
40
4.5
41
0
44
1.084337
50
90
71
7
72
5
7
iso_b_vert
0
MTEXT
5
343
100
AcDbEntity
8
SK6
62
256
6
ByLayer
370
18
48
1
60
0
100
AcDbMText
10
9.308916
20
-94.592562
30
0
210
0
220
0
230
1
1
\W0.7503;DS20-D6100L50-05
40
3.5
41
0
44
1.084337
50
0
71
7
72
5
7
iso_b_vert
0
HATCH
5
32A
100
AcDbEntity
8
SK2
62
256
6
ByLayer
370
13
48
1
60
0
100
AcDbHatch
10
0
20
0
30
0
210
0
220
0
230
1
2
ANSI31
70
0
71
0
91
1
92
5
93
3
72
1
10
-100.725
20
-24.9999999999999
11
-101.650575216528
21
-20.8250033998275
72
1
10
-101.650575216528
20
-20.8250033998275
11
-99.7994247834721
21
-20.8249966001723
72
1
10
-99.7994247834721
20
-20.8249966001723
11
-100.725
21
-24.9999999999999
97
0
75
0
76
1
52
0
41
0.0062
77
0
78
1
53
45
43
0
44
0
45
-0.0139193969876572
46
0.0139193969876572
79
0
47
0
98
1
10
0
20
0
0
HATCH
5
32E
100
AcDbEntity
8
SK2
62
256
6
ByLayer
370
13
48
1
60
0
100
AcDbHatch
10
0
20
0
30
0
210
0
220
0
230
1
2
ANSI31
70
0
71
0
91
1
92
5
93
3
72
1
10
-100.725
20
25.0000000000001
11
-99.7994247834721
21
20.8250033998277
72
1
10
-99.7994247834721
20
20.8250033998277
11
-101.650575216528
21
20.8249966001725
72
1
10
-101.650575216528
20
20.8249966001725
11
-100.725
21
25.0000000000001
97
0
75
0
76
1
52
0
41
0.0062
77
0
78
1
53
45
43
0
44
0
45
-0.0139193969876572
46
0.0139193969876572
79
0
47
0
98
1
10
0
20
0
0
HATCH
5
334
100
AcDbEntity
8
SK2
62
256
6
ByLayer
370
13
48
1
60
0
100
AcDbHatch
10
0
20
0
30
0
210
0
220
0
230
1
2
ANSI31
70
0
71
0
91
1
92
5
93
3
72
1
10
-110.725
20
31.25
11
-109.799424783472
21
27.0750033998276
72
1
10
-109.799424783472
20
27.0750033998276
11
-111.650575216528
21
27.0749966001724
72
1
10
-111.650575216528
20
27.0749966001724
11
-110.725
21
31.25
97
0
75
0
76
1
52
0
41
0.0062
77
0
78
1
53
45
43
0
44
0
45
-0.0139193969876572
46
0.0139193969876572
79
0
47
0
98
1
10
0
20
0
0
HATCH
5
338
100
AcDbEntity
8
SK2
62
256
6
ByLayer
370
13
48
1
60
0
100
AcDbHatch
10
0
20
0
30
0
210
0
220
0
230
1
2
ANSI31
70
0
71
0
91
1
92
5
93
3
72
1
10
-110.725
20
-31.25
11
-111.650575216528
21
-27.0750033998276
72
1
10
-111.650575216528
20
-27.0750033998276
11
-109.799424783472
21
-27.0749966001724
72
1
10
-109.799424783472
20
-27.0749966001724
11
-110.725
21
-31.25
97
0
75
0
76
1
52
0
41
0.0062
77
0
78
1
53
45
43
0
44
0
45
-0.0139193969876572
46
0.0139193969876572
79
0
47
0
98
1
10
0
20
0
0
HATCH
5
33E
100
AcDbEntity
8
2
62
256
6
ByLayer
370
13
48
1
60
0
100
AcDbHatch
10
0
20
0
30
0
210
0
220
0
230
1
2
ANSI31
70
0
71
0
91
1
92
5
93
3
72
1
10
371.975
20
-30.5000000000004
11
371.049424783472
21
-26.325003399828
72
1
10
371.049424783472
20
-26.325003399828
11
372.900575216528
21
-26.3249966001728
72
1
10
372.900575216528
20
-26.3249966001728
11
371.975
21
-30.5000000000004
97
0
75
0
76
1
52
0
41
0.0062
77
0
78
1
53
45
43
0
44
0
45
-0.0139193969876572
46
0.0139193969876572
79
0
47
0
98
1
10
0
20
0
0
HATCH
5
342
100
AcDbEntity
8
2
62
256
6
ByLayer
370
13
48
1
60
0
100
AcDbHatch
10
0
20
0
30
0
210
0
220
0
230
1
2
ANSI31
70
0
71
0
91
1
92
5
93
3
72
1
10
371.975
20
30.4999999999996
11
372.900575216528
21
26.3250033998272
72
1
10
372.900575216528
20
26.3250033998272
11
371.049424783472
21
26.324996600172
72
1
10
371.049424783472
20
26.324996600172
11
371.975
21
30.4999999999996
97
0
75
0
76
1
52
0
41
0.0062
77
0
78
1
53
45
43
0
44
0
45
-0.0139193969876572
46
0.0139193969876572
79
0
47
0
98
1
10
0
20
0
0
DIMENSION
5
346
100
AcDbEntity
8
2
62
256
6
ByLayer
370
18
48
1
60
0
100
AcDbDimension
2
_U0
10
345
20
-80.134314
30
0
11
172.5
21
-80.134314
31
0
70
32
71
1
72
1
41
1
210
0
220
0
230
1
3
Standard
100
AcDbAlignedDimension
13
0
23
-31.25
33
0
14
345
24
-30.5
34
0
50
0
100
AcDbRotatedDimension
1001
ACAD
1000
DSTYLE
1002
{
1070
   371
1070
    13
1070
   372
1070
    13
1070
   170
1070
     0
1070
   144
1040
1.0
1070
   277
1070
     2
1070
   284
1070
     8
1070
   278
1070
    46
1070
   146
1040
0.777778
1070
   345
1005
16
1070
   347
1005
16
1070
   346
1005
16
1070
   344
1005
0
1070
   343
1005
0
1070
   172
1070
     1
1070
    76
1070
     0
1070
    75
1070
     0
1070
   282
1070
     0
1070
   281
1070
     0
1070
    71
1070
     0
1070
    74
1070
     0
1070
   279
1070
     0
1070
   173
1070
     1
1070
   340
1005
324
1070
   271
1070
     1
1070
   272
1070
     2
1070
    77
1070
     1
1070
    73
1070
     1
1070
   171
1070
     3
1070
   274
1070
     4
1070
   177
1070
   150
1070
   176
1070
     9
1070
   178
1070
    43
1070
    78
1070
     8
1070
    48
1040
-0.1
1070
    41
1040
4.175
1070
   147
1040
2.25
1070
    42
1040
1.5875
1070
    44
1040
3.175
1070
   140
1040
4.5
1002
}
1001
ACAD_DSTYLE_DIM_LINETYPE
1070
   380
1005
16
1001
ACAD_DSTYLE_DIM_EXT1_LINETYPE
1070
   381
1005
16
1001
ACAD_DSTYLE_DIM_EXT2_LINETYPE
1070
   382
1005
16
0
DIMENSION
5
35F
100
AcDbEntity
8
SK2
62
256
6
ByLayer
370
18
48
1
60
0
100
AcDbDimension
2
_U1
10
0
20
-80.134314
30
0
11
-40
21
-80.134314
31
0
70
32
71
1
72
1
41
1
210
0
220
0
230
1
3
Standard
100
AcDbAlignedDimension
13
-80
23
-25
33
0
14
0
24
-31.25
34
0
50
0
100
AcDbRotatedDimension
1001
ACAD
1000
DSTYLE
1002
{
1070
   371
1070
    13
1070
   372
1070
    13
1070
   170
1070
     0
1070
   144
1040
1.0
1070
   277
1070
     2
1070
   284
1070
     8
1070
   278
1070
    46
1070
   146
1040
0.777778
1070
   345
1005
16
1070
   347
1005
16
1070
   346
1005
16
1070
   344
1005
0
1070
   343
1005
0
1070
   172
1070
     1
1070
    76
1070
     0
1070
    75
1070
     0
1070
   282
1070
     0
1070
   281
1070
     0
1070
    71
1070
     0
1070
    74
1070
     0
1070
   279
1070
     0
1070
   173
1070
     1
1070
   340
1005
324
1070
   271
1070
     1
1070
   272
1070
     2
1070
    77
1070
     1
1070
    73
1070
     1
1070
   171
1070
     3
1070
   274
1070
     4
1070
   177
1070
   150
1070
   176
1070
     9
1070
   178
1070
    43
1070
    78
1070
     8
1070
    48
1040
-0.1
1070
    41
1040
4.175
1070
   147
1040
2.25
1070
    42
1040
1.5875
1070
    44
1040
3.175
1070
   140
1040
4.5
1002
}
1001
ACAD_DSTYLE_DIM_LINETYPE
1070
   380
1005
16
1001
ACAD_DSTYLE_DIM_EXT1_LINETYPE
1070
   381
1005
16
1001
ACAD_DSTYLE_DIM_EXT2_LINETYPE
1070
   382
1005
16
0
DIMENSION
5
377
100
AcDbEntity
8
SK2
62
256
6
ByLayer
370
18
48
1
60
0
100
AcDbDimension
2
_U2
10
5.6564
20
-70.134314
30
0
11
175.3282
21
-70.134314
31
0
70
32
71
1
72
1
41
1
210
0
220
0
230
1
3
Standard
100
AcDbAlignedDimension
13
345
23
-30.5
33
0
14
5.6564
24
-31.25
34
0
50
0
100
AcDbRotatedDimension
1001
ACAD
1000
DSTYLE
1002
{
1070
   371
1070
    13
1070
   372
1070
    13
1070
   170
1070
     0
1070
   144
1040
1.0
1070
   277
1070
     2
1070
   284
1070
     8
1070
   278
1070
    46
1070
   146
1040
0.777778
1070
   345
1005
16
1070
   347
1005
16
1070
   346
1005
16
1070
   344
1005
0
1070
   343
1005
0
1070
   172
1070
     1
1070
    76
1070
     0
1070
    75
1070
     0
1070
   282
1070
     0
1070
   281
1070
     0
1070
    71
1070
     0
1070
    74
1070
     0
1070
   279
1070
     0
1070
   173
1070
     1
1070
   340
1005
324
1070
   271
1070
     1
1070
   272
1070
     2
1070
    77
1070
     1
1070
    73
1070
     1
1070
   171
1070
     3
1070
   274
1070
     4
1070
   177
1070
   150
1070
   176
1070
     9
1070
   178
1070
    43
1070
    78
1070
     8
1070
    48
1040
-0.1
1070
    41
1040
4.175
1070
   147
1040
2.25
1070
    42
1040
1.5875
1070
    44
1040
3.175
1070
   140
1040
4.5
1002
}
1001
ACAD_DSTYLE_DIM_LINETYPE
1070
   380
1005
16
1001
ACAD_DSTYLE_DIM_EXT1_LINETYPE
1070
   381
1005
16
1001
ACAD_DSTYLE_DIM_EXT2_LINETYPE
1070
   382
1005
16
0
DIMENSION
5
38F
100
AcDbEntity
8
SK2
62
256
6
ByLayer
370
18
48
1
60
0
100
AcDbDimension
2
_U3
10
345
20
-60.134314
30
0
11
190
21
-60.134314
31
0
70
32
71
1
72
1
41
1
210
0
220
0
230
1
3
Standard
100
AcDbAlignedDimension
13
35
23
-30.5
33
0
14
345
24
-30.5
34
0
50
0
100
AcDbRotatedDimension
1001
ACAD
1000
DSTYLE
1002
{
1070
   371
1070
    13
1070
   372
1070
    13
1070
   170
1070
     0
1070
   144
1040
1.0
1070
   277
1070
     2
1070
   284
1070
     8
1070
   278
1070
    46
1070
   146
1040
0.777778
1070
   345
1005
16
1070
   347
1005
16
1070
   346
1005
16
1070
   344
1005
0
1070
   343
1005
0
1070
   172
1070
     1
1070
    76
1070
     0
1070
    75
1070
     0
1070
   282
1070
     0
1070
   281
1070
     0
1070
    71
1070
     0
1070
    74
1070
     0
1070
   279
1070
     0
1070
   173
1070
     1
1070
   340
1005
324
1070
   271
1070
     1
1070
   272
1070
     2
1070
    77
1070
     1
1070
    73
1070
     1
1070
   171
1070
     3
1070
   274
1070
     4
1070
   177
1070
   150
1070
   176
1070
     9
1070
   178
1070
    43
1070
    78
1070
     8
1070
    48
1040
-0.1
1070
    41
1040
4.175
1070
   147
1040
2.25
1070
    42
1040
1.5875
1070
    44
1040
3.175
1070
   140
1040
4.5
1002
}
1001
ACAD_DSTYLE_DIM_LINETYPE
1070
   380
1005
16
1001
ACAD_DSTYLE_DIM_EXT1_LINETYPE
1070
   381
1005
16
1001
ACAD_DSTYLE_DIM_EXT2_LINETYPE
1070
   382
1005
16
0
DIMENSION
5
3A7
100
AcDbEntity
8
2
62
256
6
ByLayer
370
18
48
1
60
0
100
AcDbDimension
2
_U4
10
345
20
-50.134314
30
0
11
366.922321
21
-50.134314
31
0
70
32
71
1
72
1
41
1
210
0
220
0
230
1
3
Standard
100
AcDbAlignedDimension
13
343.4109
23
-15.25
33
0
14
345
24
0
34
0
50
0
100
AcDbRotatedDimension
1001
ACAD
1000
DSTYLE
1002
{
1070
   371
1070
    13
1070
   372
1070
    13
1070
   170
1070
     0
1070
   144
1040
1.0
1070
   277
1070
     2
1070
   284
1070
     8
1070
   278
1070
    46
1070
   146
1040
0.777778
1070
   345
1005
16
1070
   347
1005
16
1070
   346
1005
16
1070
   344
1005
0
1070
   343
1005
0
1070
   172
1070
     1
1070
    76
1070
     0
1070
    75
1070
     0
1070
   282
1070
     0
1070
   281
1070
     0
1070
    71
1070
     0
1070
    74
1070
     0
1070
   279
1070
     0
1070
   173
1070
     1
1070
   340
1005
324
1070
   271
1070
     2
1070
   272
1070
     2
1070
    77
1070
     1
1070
    73
1070
     1
1070
   171
1070
     3
1070
   274
1070
     4
1070
   177
1070
   150
1070
   176
1070
     9
1070
   178
1070
    43
1070
    78
1070
     8
1070
    48
1040
-0.1
1070
    41
1040
4.175
1070
   147
1040
2.25
1070
    42
1040
1.5875
1070
    44
1040
3.175
1070
   140
1040
4.5
1002
}
1001
ACAD_DSTYLE_DIM_LINETYPE
1070
   380
1005
16
1001
ACAD_DSTYLE_DIM_EXT1_LINETYPE
1070
   381
1005
16
1001
ACAD_DSTYLE_DIM_EXT2_LINETYPE
1070
   382
1005
16
0
ENDSEC
0
SECTION
2
OBJECTS
0
DICTIONARY
5
431
330
0
100
AcDbDictionary
280
0
281
1
3
ACAD_GROUP
350
432
3
ACAD_MLINESTYLE
350
433
0
DICTIONARY
5
432
330
0
100
AcDbDictionary
280
0
281
1
0
DICTIONARY
5
433
330
0
100
AcDbDictionary
280
0
281
1
3
Standard
350
18
0
MLINESTYLE
5
18
330
433
100
AcDbMlineStyle
2
Standard
70
0
3

62
256
51
90
52
90
71
2
49
-0.5
62
256
6
ByLayer
49
0.5
62
256
6
ByLayer
0
RASTERVARIABLES
5
41f
330

100
AcDbRasterVariables
90
0
70
1
71
1
72
1
0
ENDSEC
0
EOF
