0
SECTION
2
HEADER
9
$ACADVER
1
AC1015
9
$DWGCODEPAGE
3
ANSI_1252
9
$HANDSEED
5
45e
9
$ANGBASE
50
0
9
$ANGDIR
70
0
9
$ATTMODE
70
1
9
$AUNITS
70
0
9
$AUPREC
70
0
9
$CECOLOR
62
256
9
$CELTSCALE
40
1
9
$CELTYPE
6
ByLayer
9
$CELWEIGHT
370
18
9
$CLAYER
8
0
9
$CMLJUST
70
0
9
$CMLSCALE
40
1
9
$CMLSTYLE
2
Standard
9
$DIMSTYLE
2
Standard
9
$TEXTSIZE
40
0.2
9
$TEXTSTYLE
7
Standard
9
$LUNITS
70
2
9
$LUPREC
70
4
9
$EXTNAMES
290
1
9
$INSUNITS
70
4
9
$LTSCALE
40
1
9
$LWDISPLAY
290
1
9
$PDMODE
70
0
9
$PDSIZE
40
0
9
$PLINEGEN
70
0
0
ENDSEC
0
SECTION
2
CLASSES
0
CLASS
1
RASTERVARIABLES
2
AcDbRasterVariables
3
ISM
90
0
280
0
281
0
0
ENDSEC
0
SECTION
2
TABLES
0
TABLE
2
VPORT
5
454
100
AcDbSymbolTable
0
VPORT
5
1
100
AcDbSymbolTableRecord
100
AcDbViewportTableRecord
2
*Active
70
0
10
0
20
0
11
1
21
1
12
-1
22
1
13
0
23
0
14
0.5
24
0.5
15
10
25
10
16
0
26
0
36
1
17
0
27
0
37
0
0
ENDTAB
0
TABLE
2
LTYPE
5
455
100
AcDbSymbolTable
0
LTYPE
5
14
100
AcDbSymbolTableRecord
100
AcDbLinetypeTableRecord
70
0
2
ByBlock
3

72
65
73
0
40
0
0
LTYPE
5
15
100
AcDbSymbolTableRecord
100
AcDbLinetypeTableRecord
70
0
2
ByLayer
3

72
65
73
0
40
0
0
LTYPE
5
16
100
AcDbSymbolTableRecord
100
AcDbLinetypeTableRecord
70
0
2
Continuous
3
Solid line
72
65
73
0
40
0
0
LTYPE
5
6E
100
AcDbSymbolTableRecord
100
AcDbLinetypeTableRecord
70
0
2
CENTER
3
____ _ ____ _ ____ _ ____
72
65
73
4
40
47.5
49
22
74
0
49
-8.5
74
0
49
8.5
74
0
49
-8.5
74
0
0
LTYPE
5
6F
100
AcDbSymbolTableRecord
100
AcDbLinetypeTableRecord
70
0
2
DASHED
3
__ __ __ __ __ __ __ __ __
72
65
73
2
40
25.72
49
12.86
74
0
49
-12.86
74
0
0
ENDTAB
0
TABLE
2
LAYER
5
456
100
AcDbSymbolTable
0
LAYER
5
10
100
AcDbSymbolTableRecord
100
AcDbLayerTableRecord
2
0
70
0
62
7
6
Continuous
290
1
370
-3
390
0
0
LAYER
5
71
100
AcDbSymbolTableRecord
100
AcDbLayerTableRecord
2
1
70
0
62
4
6
Continuous
290
1
370
-3
390
0
0
LAYER
5
73
100
AcDbSymbolTableRecord
100
AcDbLayerTableRecord
2
80
70
0
62
-6
6
Continuous
290
1
370
-3
390
0
0
LAYER
5
75
100
AcDbSymbolTableRecord
100
AcDbLayerTableRecord
2
81
70
0
62
-3
6
Continuous
290
1
370
-3
390
0
0
LAYER
5
14E
100
AcDbSymbolTableRecord
100
AcDbLayerTableRecord
2
4
70
0
62
-2
6
CENTER
290
1
370
-3
390
0
0
LAYER
5
189
100
AcDbSymbolTableRecord
100
AcDbLayerTableRecord
2
2
70
0
62
7
6
Continuous
290
1
370
-3
390
0
0
LAYER
5
369
100
AcDbSymbolTableRecord
100
AcDbLayerTableRecord
2
Defpoints
70
0
62
7
6
Continuous
290
0
370
-3
390
0
0
LAYER
5
440
100
AcDbSymbolTableRecord
100
AcDbLayerTableRecord
2
SK1
70
0
62
4
6
Continuous
290
1
370
-3
390
0
0
LAYER
5
441
100
AcDbSymbolTableRecord
100
AcDbLayerTableRecord
2
SK4
70
0
62
2
6
CENTER
290
1
370
-3
390
0
0
LAYER
5
442
100
AcDbSymbolTableRecord
100
AcDbLayerTableRecord
2
SK2
70
0
62
7
6
Continuous
290
1
370
-3
390
0
0
LAYER
5
443
100
AcDbSymbolTableRecord
100
AcDbLayerTableRecord
2
SK6
70
0
62
5
6
Continuous
290
1
370
-3
390
0
0
ENDTAB
0
TABLE
2
STYLE
5
457
100
AcDbSymbolTable
0
STYLE
5
11
100
AcDbSymbolTableRecord
100
AcDbTextStyleTableRecord
2
Standard
3
txt
70
0
71
0
40
0
41
1
42
0
50
0
0
STYLE
5
344
100
AcDbSymbolTableRecord
100
AcDbTextStyleTableRecord
2
iso_b_vert
3
simplex.shx
70
0
71
0
40
0
41
1
42
0
50
0
0
STYLE
5
345
100
AcDbSymbolTableRecord
100
AcDbTextStyleTableRecord
2
DWGDirectTextStyle
3
simplex
70
0
71
0
40
0
41
1
42
0
50
0
0
ENDTAB
0
TABLE
2
DIMSTYLE
5
458
100
AcDbSymbolTable
100
AcDbDimStyleTable
0
DIMSTYLE
105
27
100
AcDbSymbolTableRecord
100
AcDbDimStyleTableRecord
2
Standard
70
0
3
<>
41
0.18
42
0.0625
44
0.18
140
0.18
147
0.09
73
0
74
0
77
1
271
2
275
0
278
52
280
0
340
11
0
ENDTAB
0
TABLE
2
VIEW
5
459
100
AcDbSymbolTable
0
ENDTAB
0
TABLE
2
UCS
5
45a
100
AcDbSymbolTable
0
ENDTAB
0
TABLE
2
APPID
5
45b
100
AcDbSymbolTable
0
APPID
5
12
100
AcDbSymbolTableRecord
100
AcDbRegAppTableRecord
2
ACAD
70
0
0
APPID
5
365
100
AcDbSymbolTableRecord
100
AcDbRegAppTableRecord
2
ACAD_DSTYLE_DIMBREAK
70
0
0
APPID
5
3FF
100
AcDbSymbolTableRecord
100
AcDbRegAppTableRecord
2
ACAD_DSTYLE_DIM_LINETYPE
70
0
0
APPID
5
400
100
AcDbSymbolTableRecord
100
AcDbRegAppTableRecord
2
ACAD_DSTYLE_DIM_EXT1_LINETYPE
70
0
0
APPID
5
401
100
AcDbSymbolTableRecord
100
AcDbRegAppTableRecord
2
ACAD_DSTYLE_DIM_EXT2_LINETYPE
70
0
0
APPID
5
43C
100
AcDbSymbolTableRecord
100
AcDbRegAppTableRecord
2
ACAD_MLEADERVER
70
0
0
ENDTAB
0
TABLE
2
BLOCK_RECORD
5
45c
100
AcDbSymbolTable
0
BLOCK_RECORD
5
1F
100
AcDbSymbolTableRecord
100
AcDbBlockTableRecord
2
*Model_Space
340
0
70
0
0
BLOCK_RECORD
5
1B
100
AcDbSymbolTableRecord
100
AcDbBlockTableRecord
2
*Paper_Space
340
0
70
0
0
BLOCK_RECORD
5
23
100
AcDbSymbolTableRecord
100
AcDbBlockTableRecord
2
*Paper_Space0
340
0
70
0
0
BLOCK_RECORD
5
36A
100
AcDbSymbolTableRecord
100
AcDbBlockTableRecord
2
*D1
340
0
70
0
0
BLOCK_RECORD
5
376
100
AcDbSymbolTableRecord
100
AcDbBlockTableRecord
2
_U0
340
0
70
0
0
BLOCK_RECORD
5
382
100
AcDbSymbolTableRecord
100
AcDbBlockTableRecord
2
*D3
340
0
70
0
0
BLOCK_RECORD
5
38E
100
AcDbSymbolTableRecord
100
AcDbBlockTableRecord
2
_U1
340
0
70
0
0
BLOCK_RECORD
5
39A
100
AcDbSymbolTableRecord
100
AcDbBlockTableRecord
2
*D5
340
0
70
0
0
BLOCK_RECORD
5
3A6
100
AcDbSymbolTableRecord
100
AcDbBlockTableRecord
2
_U2
340
0
70
0
0
BLOCK_RECORD
5
3B2
100
AcDbSymbolTableRecord
100
AcDbBlockTableRecord
2
*D7
340
0
70
0
0
BLOCK_RECORD
5
3BE
100
AcDbSymbolTableRecord
100
AcDbBlockTableRecord
2
_U3
340
0
70
0
0
BLOCK_RECORD
5
3CA
100
AcDbSymbolTableRecord
100
AcDbBlockTableRecord
2
*D9
340
0
70
0
0
BLOCK_RECORD
5
3D8
100
AcDbSymbolTableRecord
100
AcDbBlockTableRecord
2
_U4
340
0
70
0
0
ENDTAB
0
ENDSEC
0
SECTION
2
BLOCKS
0
BLOCK
5
20
100
AcDbEntity
8
0
100
AcDbBlockBegin
2
*Model_Space
70
0
10
0
20
0
30
0
3
*Model_Space
0
ENDBLK
5
21
100
AcDbEntity
8
0
100
AcDbBlockEnd
0
BLOCK
5
1C
100
AcDbEntity
8
0
100
AcDbBlockBegin
2
*Paper_Space
70
0
10
0
20
0
30
0
3
*Paper_Space
0
ENDBLK
5
1D
100
AcDbEntity
8
0
100
AcDbBlockEnd
0
BLOCK
5
24
100
AcDbEntity
8
0
100
AcDbBlockBegin
2
*Paper_Space0
70
0
10
0
20
0
30
0
3
*Paper_Space0
0
ENDBLK
5
25
100
AcDbEntity
8
0
100
AcDbBlockEnd
0
BLOCK
5
36B
100
AcDbEntity
8
0
100
AcDbBlockBegin
2
*D1
70
1
10
0
20
0
30
0
3
*D1
0
LINE
5
36D
100
AcDbEntity
8
0
62
256
6
ByLayer
370
-2
48
1
60
0
100
AcDbLine
10
0
20
-32.8375
30
0
11
0
21
-83.703968
31
0
39
0
210
0
220
0
230
1
0
LINE
5
36E
100
AcDbEntity
8
0
62
256
6
ByLayer
370
-2
48
1
60
0
100
AcDbLine
10
292
20
-33.0875
30
0
11
292
21
-83.703968
31
0
39
0
210
0
220
0
230
1
0
LINE
5
36F
100
AcDbEntity
8
0
62
256
6
ByLayer
370
-2
48
1
60
0
100
AcDbLine
10
4.175
20
-80.528968
30
0
11
287.825
21
-80.528968
31
0
39
0
210
0
220
0
230
1
0
SOLID
5
370
100
AcDbEntity
8
0
62
256
6
ByLayer
370
-1
48
1
60
0
100
AcDbTrace
10
4.175
20
-79.833135
30
0
11
4.175
21
-81.224801
31
0
12
0
22
-80.528968
32
0
13
0
23
-80.528968
33
0
39
0
210
0
220
0
230
1
0
SOLID
5
371
100
AcDbEntity
8
0
62
256
6
ByLayer
370
-1
48
1
60
0
100
AcDbTrace
10
287.825
20
-81.224801
30
0
11
287.825
21
-79.833135
31
0
12
292
22
-80.528968
32
0
13
292
23
-80.528968
33
0
39
0
210
0
220
0
230
1
0
MTEXT
5
372
100
AcDbEntity
8
0
62
256
6
ByLayer
370
18
48
1
60
0
100
AcDbMText
10
146
20
-71.135218
30
0
210
0
220
0
230
1
1
\A1;292
40
4.5
41
0
44
1
50
0
71
5
72
5
7
iso_b_vert
0
POINT
5
373
100
AcDbEntity
8
Defpoints
62
0
6
ByLayer
370
-1
48
1
60
0
100
AcDbPoint
10
0
20
-31.25
30
0
39
0
210
0
220
0
230
1
50
360
0
POINT
5
374
100
AcDbEntity
8
Defpoints
62
0
6
ByLayer
370
-1
48
1
60
0
100
AcDbPoint
10
292
20
-31.5
30
0
39
0
210
0
220
0
230
1
50
360
0
POINT
5
375
100
AcDbEntity
8
Defpoints
62
0
6
ByLayer
370
-1
48
1
60
0
100
AcDbPoint
10
292
20
-80.528968
30
0
39
0
210
0
220
0
230
1
50
360
0
ENDBLK
5
36C
100
AcDbEntity
8
0
100
AcDbBlockEnd
0
BLOCK
5
37D
100
AcDbEntity
8
0
100
AcDbBlockBegin
2
_U0
70
0
10
0
20
0
30
0
3
_U0
0
MTEXT
5
377
100
AcDbEntity
8
2
62
256
6
ByLayer
370
18
48
1
60
0
100
AcDbMText
10
141.869387
20
-79.201296
30
0
210
0
220
0
230
1
1
\W0.7138;292
40
4.5
41
0
44
1.084337
50
0
71
7
72
5
7
iso_b_vert
0
LINE
5
378
100
AcDbEntity
8
2
62
256
6
ByLayer
370
13
48
1
60
0
100
AcDbLine
10
0
20
-32.8375
30
0
11
0
21
-83.703968
31
0
39
0
210
0
220
0
230
1
0
LINE
5
379
100
AcDbEntity
8
2
62
256
6
ByLayer
370
13
48
1
60
0
100
AcDbLine
10
292
20
-33.0875
30
0
11
292
21
-83.703968
31
0
39
0
210
0
220
0
230
1
0
LINE
5
37A
100
AcDbEntity
8
2
62
256
6
ByLayer
370
13
48
1
60
0
100
AcDbLine
10
0
20
-80.528968
30
0
11
292
21
-80.528968
31
0
39
0
210
0
220
0
230
1
0
SOLID
5
37B
100
AcDbEntity
8
2
62
256
6
ByLayer
370
18
48
1
60
0
100
AcDbTrace
10
0
20
-80.528968
30
0
11
4.174997
21
-79.603393
31
0
12
4.175003
22
-81.454543
32
0
13
4.175003
23
-81.454543
33
0
39
0
210
0
220
0
230
1
0
SOLID
5
37C
100
AcDbEntity
8
2
62
256
6
ByLayer
370
18
48
1
60
0
100
AcDbTrace
10
292
20
-80.528968
30
0
11
287.825003
21
-81.454543
31
0
12
287.824997
22
-79.603393
32
0
13
287.824997
23
-79.603393
33
0
39
0
210
0
220
0
230
1
0
ENDBLK
5
37E
100
AcDbEntity
8
0
100
AcDbBlockEnd
0
BLOCK
5
383
100
AcDbEntity
8
0
100
AcDbBlockBegin
2
*D3
70
1
10
0
20
0
30
0
3
*D3
0
LINE
5
385
100
AcDbEntity
8
0
62
256
6
ByLayer
370
-2
48
1
60
0
100
AcDbLine
10
-80
20
-26.5875
30
0
11
-80
21
-83.703968
31
0
39
0
210
0
220
0
230
1
0
LINE
5
386
100
AcDbEntity
8
0
62
256
6
ByLayer
370
-2
48
1
60
0
100
AcDbLine
10
0
20
-32.8375
30
0
11
0
21
-83.703968
31
0
39
0
210
0
220
0
230
1
0
LINE
5
387
100
AcDbEntity
8
0
62
256
6
ByLayer
370
-2
48
1
60
0
100
AcDbLine
10
-75.825
20
-80.528968
30
0
11
-4.175
21
-80.528968
31
0
39
0
210
0
220
0
230
1
0
SOLID
5
388
100
AcDbEntity
8
0
62
256
6
ByLayer
370
-1
48
1
60
0
100
AcDbTrace
10
-75.825
20
-79.833135
30
0
11
-75.825
21
-81.224801
31
0
12
-80
22
-80.528968
32
0
13
-80
23
-80.528968
33
0
39
0
210
0
220
0
230
1
0
SOLID
5
389
100
AcDbEntity
8
0
62
256
6
ByLayer
370
-1
48
1
60
0
100
AcDbTrace
10
-4.175
20
-81.224801
30
0
11
-4.175
21
-79.833135
31
0
12
0
22
-80.528968
32
0
13
0
23
-80.528968
33
0
39
0
210
0
220
0
230
1
0
MTEXT
5
38A
100
AcDbEntity
8
0
62
256
6
ByLayer
370
18
48
1
60
0
100
AcDbMText
10
-40
20
-71.135218
30
0
210
0
220
0
230
1
1
\A1;80
40
4.5
41
0
44
1
50
0
71
5
72
5
7
iso_b_vert
0
POINT
5
38B
100
AcDbEntity
8
Defpoints
62
0
6
ByLayer
370
-1
48
1
60
0
100
AcDbPoint
10
-80
20
-25
30
0
39
0
210
0
220
0
230
1
50
360
0
POINT
5
38C
100
AcDbEntity
8
Defpoints
62
0
6
ByLayer
370
-1
48
1
60
0
100
AcDbPoint
10
0
20
-31.25
30
0
39
0
210
0
220
0
230
1
50
360
0
POINT
5
38D
100
AcDbEntity
8
Defpoints
62
0
6
ByLayer
370
-1
48
1
60
0
100
AcDbPoint
10
0
20
-80.528968
30
0
39
0
210
0
220
0
230
1
50
360
0
ENDBLK
5
384
100
AcDbEntity
8
0
100
AcDbBlockEnd
0
BLOCK
5
395
100
AcDbEntity
8
0
100
AcDbBlockBegin
2
_U1
70
0
10
0
20
0
30
0
3
_U1
0
MTEXT
5
38F
100
AcDbEntity
8
SK2
62
256
6
ByLayer
370
18
48
1
60
0
100
AcDbMText
10
-42.449242
20
-79.201296
30
0
210
0
220
0
230
1
1
\W0.6740;80
40
4.5
41
0
44
1.084337
50
0
71
7
72
5
7
iso_b_vert
0
LINE
5
390
100
AcDbEntity
8
SK2
62
256
6
ByLayer
370
13
48
1
60
0
100
AcDbLine
10
-80
20
-26.5875
30
0
11
-80
21
-83.703968
31
0
39
0
210
0
220
0
230
1
0
LINE
5
391
100
AcDbEntity
8
SK2
62
256
6
ByLayer
370
13
48
1
60
0
100
AcDbLine
10
0
20
-32.8375
30
0
11
0
21
-83.703968
31
0
39
0
210
0
220
0
230
1
0
LINE
5
392
100
AcDbEntity
8
SK2
62
256
6
ByLayer
370
13
48
1
60
0
100
AcDbLine
10
-80
20
-80.528968
30
0
11
0
21
-80.528968
31
0
39
0
210
0
220
0
230
1
0
SOLID
5
393
100
AcDbEntity
8
SK2
62
256
6
ByLayer
370
18
48
1
60
0
100
AcDbTrace
10
-80
20
-80.528968
30
0
11
-75.825003
21
-79.603393
31
0
12
-75.824997
22
-81.454543
32
0
13
-75.824997
23
-81.454543
33
0
39
0
210
0
220
0
230
1
0
SOLID
5
394
100
AcDbEntity
8
SK2
62
256
6
ByLayer
370
18
48
1
60
0
100
AcDbTrace
10
0
20
-80.528968
30
0
11
-4.174997
21
-81.454543
31
0
12
-4.175003
22
-79.603393
32
0
13
-4.175003
23
-79.603393
33
0
39
0
210
0
220
0
230
1
0
ENDBLK
5
396
100
AcDbEntity
8
0
100
AcDbBlockEnd
0
BLOCK
5
39B
100
AcDbEntity
8
0
100
AcDbBlockBegin
2
*D5
70
1
10
0
20
0
30
0
3
*D5
0
LINE
5
39D
100
AcDbEntity
8
0
62
256
6
ByLayer
370
-2
48
1
60
0
100
AcDbLine
10
292
20
-33.0875
30
0
11
292
21
-73.703968
31
0
39
0
210
0
220
0
230
1
0
LINE
5
39E
100
AcDbEntity
8
0
62
256
6
ByLayer
370
-2
48
1
60
0
100
AcDbLine
10
5.8124
20
-32.8375
30
0
11
5.8124
21
-73.703968
31
0
39
0
210
0
220
0
230
1
0
LINE
5
39F
100
AcDbEntity
8
0
62
256
6
ByLayer
370
-2
48
1
60
0
100
AcDbLine
10
287.825
20
-70.528968
30
0
11
9.9874
21
-70.528968
31
0
39
0
210
0
220
0
230
1
0
SOLID
5
3A0
100
AcDbEntity
8
0
62
256
6
ByLayer
370
-1
48
1
60
0
100
AcDbTrace
10
287.825
20
-71.224801
30
0
11
287.825
21
-69.833135
31
0
12
292
22
-70.528968
32
0
13
292
23
-70.528968
33
0
39
0
210
0
220
0
230
1
0
SOLID
5
3A1
100
AcDbEntity
8
0
62
256
6
ByLayer
370
-1
48
1
60
0
100
AcDbTrace
10
9.9874
20
-69.833135
30
0
11
9.9874
21
-71.224801
31
0
12
5.8124
22
-70.528968
32
0
13
5.8124
23
-70.528968
33
0
39
0
210
0
220
0
230
1
0
MTEXT
5
3A2
100
AcDbEntity
8
0
62
256
6
ByLayer
370
18
48
1
60
0
100
AcDbMText
10
148.9062
20
-61.135218
30
0
210
0
220
0
230
1
1
\A1;286.2
40
4.5
41
0
44
1
50
0
71
5
72
5
7
iso_b_vert
0
POINT
5
3A3
100
AcDbEntity
8
Defpoints
62
0
6
ByLayer
370
-1
48
1
60
0
100
AcDbPoint
10
292
20
-31.5
30
0
39
0
210
0
220
0
230
1
50
360
0
POINT
5
3A4
100
AcDbEntity
8
Defpoints
62
0
6
ByLayer
370
-1
48
1
60
0
100
AcDbPoint
10
5.8124
20
-31.25
30
0
39
0
210
0
220
0
230
1
50
360
0
POINT
5
3A5
100
AcDbEntity
8
Defpoints
62
0
6
ByLayer
370
-1
48
1
60
0
100
AcDbPoint
10
5.8124
20
-70.528968
30
0
39
0
210
0
220
0
230
1
50
360
0
ENDBLK
5
39C
100
AcDbEntity
8
0
100
AcDbBlockEnd
0
BLOCK
5
3AD
100
AcDbEntity
8
0
100
AcDbBlockBegin
2
_U2
70
0
10
0
20
0
30
0
3
_U2
0
MTEXT
5
3A7
100
AcDbEntity
8
SK2
62
256
6
ByLayer
370
18
48
1
60
0
100
AcDbMText
10
142.182644
20
-69.201296
30
0
210
0
220
0
230
1
1
\W0.7468;286.2
40
4.5
41
0
44
1.084337
50
0
71
7
72
5
7
iso_b_vert
0
LINE
5
3A8
100
AcDbEntity
8
SK2
62
256
6
ByLayer
370
13
48
1
60
0
100
AcDbLine
10
292
20
-33.0875
30
0
11
292
21
-73.703968
31
0
39
0
210
0
220
0
230
1
0
LINE
5
3A9
100
AcDbEntity
8
SK2
62
256
6
ByLayer
370
13
48
1
60
0
100
AcDbLine
10
5.8124
20
-32.8375
30
0
11
5.8124
21
-73.703968
31
0
39
0
210
0
220
0
230
1
0
LINE
5
3AA
100
AcDbEntity
8
SK2
62
256
6
ByLayer
370
13
48
1
60
0
100
AcDbLine
10
292
20
-70.528968
30
0
11
5.8124
21
-70.528968
31
0
39
0
210
0
220
0
230
1
0
SOLID
5
3AB
100
AcDbEntity
8
SK2
62
256
6
ByLayer
370
18
48
1
60
0
100
AcDbTrace
10
292
20
-70.528968
30
0
11
287.825003
21
-71.454543
31
0
12
287.824997
22
-69.603393
32
0
13
287.824997
23
-69.603393
33
0
39
0
210
0
220
0
230
1
0
SOLID
5
3AC
100
AcDbEntity
8
SK2
62
256
6
ByLayer
370
18
48
1
60
0
100
AcDbTrace
10
5.8124
20
-70.528968
30
0
11
9.987397
21
-69.603393
31
0
12
9.987403
22
-71.454543
32
0
13
9.987403
23
-71.454543
33
0
39
0
210
0
220
0
230
1
0
ENDBLK
5
3AE
100
AcDbEntity
8
0
100
AcDbBlockEnd
0
BLOCK
5
3B3
100
AcDbEntity
8
0
100
AcDbBlockBegin
2
*D7
70
1
10
0
20
0
30
0
3
*D7
0
LINE
5
3B5
100
AcDbEntity
8
0
62
256
6
ByLayer
370
-2
48
1
60
0
100
AcDbLine
10
35
20
-33.0875
30
0
11
35
21
-63.703968
31
0
39
0
210
0
220
0
230
1
0
LINE
5
3B6
100
AcDbEntity
8
0
62
256
6
ByLayer
370
-2
48
1
60
0
100
AcDbLine
10
292
20
-33.0875
30
0
11
292
21
-63.703968
31
0
39
0
210
0
220
0
230
1
0
LINE
5
3B7
100
AcDbEntity
8
0
62
256
6
ByLayer
370
-2
48
1
60
0
100
AcDbLine
10
39.175
20
-60.528968
30
0
11
287.825
21
-60.528968
31
0
39
0
210
0
220
0
230
1
0
SOLID
5
3B8
100
AcDbEntity
8
0
62
256
6
ByLayer
370
-1
48
1
60
0
100
AcDbTrace
10
39.175
20
-59.833135
30
0
11
39.175
21
-61.224801
31
0
12
35
22
-60.528968
32
0
13
35
23
-60.528968
33
0
39
0
210
0
220
0
230
1
0
SOLID
5
3B9
100
AcDbEntity
8
0
62
256
6
ByLayer
370
-1
48
1
60
0
100
AcDbTrace
10
287.825
20
-61.224801
30
0
11
287.825
21
-59.833135
31
0
12
292
22
-60.528968
32
0
13
292
23
-60.528968
33
0
39
0
210
0
220
0
230
1
0
MTEXT
5
3BA
100
AcDbEntity
8
0
62
256
6
ByLayer
370
18
48
1
60
0
100
AcDbMText
10
163.5
20
-51.135218
30
0
210
0
220
0
230
1
1
\A1;257
40
4.5
41
0
44
1
50
0
71
5
72
5
7
iso_b_vert
0
POINT
5
3BB
100
AcDbEntity
8
Defpoints
62
0
6
ByLayer
370
-1
48
1
60
0
100
AcDbPoint
10
35
20
-31.5
30
0
39
0
210
0
220
0
230
1
50
360
0
POINT
5
3BC
100
AcDbEntity
8
Defpoints
62
0
6
ByLayer
370
-1
48
1
60
0
100
AcDbPoint
10
292
20
-31.5
30
0
39
0
210
0
220
0
230
1
50
360
0
POINT
5
3BD
100
AcDbEntity
8
Defpoints
62
0
6
ByLayer
370
-1
48
1
60
0
100
AcDbPoint
10
292
20
-60.528968
30
0
39
0
210
0
220
0
230
1
50
360
0
ENDBLK
5
3B4
100
AcDbEntity
8
0
100
AcDbBlockEnd
0
BLOCK
5
3C5
100
AcDbEntity
8
0
100
AcDbBlockBegin
2
_U3
70
0
10
0
20
0
30
0
3
_U3
0
MTEXT
5
3BF
100
AcDbEntity
8
SK2
62
256
6
ByLayer
370
18
48
1
60
0
100
AcDbMText
10
159.369387
20
-59.201296
30
0
210
0
220
0
230
1
1
\W0.7138;257
40
4.5
41
0
44
1.084337
50
0
71
7
72
5
7
iso_b_vert
0
LINE
5
3C0
100
AcDbEntity
8
SK2
62
256
6
ByLayer
370
13
48
1
60
0
100
AcDbLine
10
35
20
-33.0875
30
0
11
35
21
-63.703968
31
0
39
0
210
0
220
0
230
1
0
LINE
5
3C1
100
AcDbEntity
8
SK2
62
256
6
ByLayer
370
13
48
1
60
0
100
AcDbLine
10
292
20
-33.0875
30
0
11
292
21
-63.703968
31
0
39
0
210
0
220
0
230
1
0
LINE
5
3C2
100
AcDbEntity
8
SK2
62
256
6
ByLayer
370
13
48
1
60
0
100
AcDbLine
10
35
20
-60.528968
30
0
11
292
21
-60.528968
31
0
39
0
210
0
220
0
230
1
0
SOLID
5
3C3
100
AcDbEntity
8
SK2
62
256
6
ByLayer
370
18
48
1
60
0
100
AcDbTrace
10
35
20
-60.528968
30
0
11
39.174997
21
-59.603393
31
0
12
39.175003
22
-61.454543
32
0
13
39.175003
23
-61.454543
33
0
39
0
210
0
220
0
230
1
0
SOLID
5
3C4
100
AcDbEntity
8
SK2
62
256
6
ByLayer
370
18
48
1
60
0
100
AcDbTrace
10
292
20
-60.528968
30
0
11
287.825003
21
-61.454543
31
0
12
287.824997
22
-59.603393
32
0
13
287.824997
23
-59.603393
33
0
39
0
210
0
220
0
230
1
0
ENDBLK
5
3C6
100
AcDbEntity
8
0
100
AcDbBlockEnd
0
BLOCK
5
3CB
100
AcDbEntity
8
0
100
AcDbBlockBegin
2
*D9
70
1
10
0
20
0
30
0
3
*D9
0
LINE
5
3CD
100
AcDbEntity
8
0
62
256
6
ByLayer
370
-2
48
1
60
0
100
AcDbLine
10
290.4109
20
-17.3375
30
0
11
290.4109
21
-53.703968
31
0
39
0
210
0
220
0
230
1
0
LINE
5
3CE
100
AcDbEntity
8
0
62
256
6
ByLayer
370
-2
48
1
60
0
100
AcDbLine
10
292
20
-1.5875
30
0
11
292
21
-53.703968
31
0
39
0
210
0
220
0
230
1
0
LINE
5
3CF
100
AcDbEntity
8
0
62
256
6
ByLayer
370
-2
48
1
60
0
100
AcDbLine
10
292
20
-50.528968
30
0
11
327.494643
21
-50.528968
31
0
39
0
210
0
220
0
230
1
0
LINE
5
3D0
100
AcDbEntity
8
0
62
256
6
ByLayer
370
-2
48
1
60
0
100
AcDbLine
10
286.2359
20
-50.528968
30
0
11
282.0609
21
-50.528968
31
0
39
0
210
0
220
0
230
1
0
LINE
5
3D1
100
AcDbEntity
8
0
62
256
6
ByLayer
370
-2
48
1
60
0
100
AcDbLine
10
296.175
20
-50.528968
30
0
11
300.35
21
-50.528968
31
0
39
0
210
0
220
0
230
1
0
SOLID
5
3D2
100
AcDbEntity
8
0
62
256
6
ByLayer
370
-1
48
1
60
0
100
AcDbTrace
10
286.2359
20
-51.224801
30
0
11
286.2359
21
-49.833135
31
0
12
290.4109
22
-50.528968
32
0
13
290.4109
23
-50.528968
33
0
39
0
210
0
220
0
230
1
0
SOLID
5
3D3
100
AcDbEntity
8
0
62
256
6
ByLayer
370
-1
48
1
60
0
100
AcDbTrace
10
296.175
20
-49.833135
30
0
11
296.175
21
-51.224801
31
0
12
292
22
-50.528968
32
0
13
292
23
-50.528968
33
0
39
0
210
0
220
0
230
1
0
MTEXT
5
3D4
100
AcDbEntity
8
0
62
256
6
ByLayer
370
18
48
1
60
0
100
AcDbMText
10
313.922321
20
-41.135218
30
0
210
0
220
0
230
1
1
\A1;1.59
40
4.5
41
0
44
1
50
0
71
5
72
5
7
iso_b_vert
0
POINT
5
3D5
100
AcDbEntity
8
Defpoints
62
0
6
ByLayer
370
-1
48
1
60
0
100
AcDbPoint
10
290.4109
20
-15.75
30
0
39
0
210
0
220
0
230
1
50
360
0
POINT
5
3D6
100
AcDbEntity
8
Defpoints
62
0
6
ByLayer
370
-1
48
1
60
0
100
AcDbPoint
10
292
20
0
30
0
39
0
210
0
220
0
230
1
50
360
0
POINT
5
3D7
100
AcDbEntity
8
Defpoints
62
0
6
ByLayer
370
-1
48
1
60
0
100
AcDbPoint
10
292
20
-50.528968
30
0
39
0
210
0
220
0
230
1
50
360
0
ENDBLK
5
3CC
100
AcDbEntity
8
0
100
AcDbBlockEnd
0
BLOCK
5
3DF
100
AcDbEntity
8
0
100
AcDbBlockBegin
2
_U4
70
0
10
0
20
0
30
0
3
_U4
0
MTEXT
5
3D9
100
AcDbEntity
8
2
62
256
6
ByLayer
370
18
48
1
60
0
100
AcDbMText
10
304.351
20
-49.201296
30
0
210
0
220
0
230
1
1
\W0.6662;1.59
40
4.5
41
0
44
1.084337
50
0
71
7
72
5
7
iso_b_vert
0
LINE
5
3DA
100
AcDbEntity
8
2
62
256
6
ByLayer
370
13
48
1
60
0
100
AcDbLine
10
290.4109
20
-17.3375
30
0
11
290.4109
21
-53.703968
31
0
39
0
210
0
220
0
230
1
0
LINE
5
3DB
100
AcDbEntity
8
2
62
256
6
ByLayer
370
13
48
1
60
0
100
AcDbLine
10
292
20
-1.5875
30
0
11
292
21
-53.703968
31
0
39
0
210
0
220
0
230
1
0
LINE
5
3DC
100
AcDbEntity
8
2
62
256
6
ByLayer
370
13
48
1
60
0
100
AcDbLine
10
313.549041
20
-50.528968
30
0
11
279.1609
21
-50.528968
31
0
39
0
210
0
220
0
230
1
0
SOLID
5
3DD
100
AcDbEntity
8
2
62
256
6
ByLayer
370
18
48
1
60
0
100
AcDbTrace
10
290.4109
20
-50.528968
30
0
11
286.235903
21
-51.454543
31
0
12
286.235897
22
-49.603393
32
0
13
286.235897
23
-49.603393
33
0
39
0
210
0
220
0
230
1
0
SOLID
5
3DE
100
AcDbEntity
8
2
62
256
6
ByLayer
370
18
48
1
60
0
100
AcDbTrace
10
292
20
-50.528968
30
0
11
296.174997
21
-49.603393
31
0
12
296.175003
22
-51.454543
32
0
13
296.175003
23
-51.454543
33
0
39
0
210
0
220
0
230
1
0
ENDBLK
5
3E0
100
AcDbEntity
8
0
100
AcDbBlockEnd
0
ENDSEC
0
SECTION
2
ENTITIES
0
ARC
5
192
100
AcDbEntity
8
SK1
62
256
6
ByLayer
370
13
48
1
60
0
100
AcDbCircle
39
0
10
-77.894505
20
-25.396
30
0
40
0.799999999999979
210
0
220
0
230
1
100
AcDbArc
50
70.982
51
141
0
ARC
5
193
100
AcDbEntity
8
SK1
62
256
6
ByLayer
370
13
48
1
60
0
100
AcDbCircle
39
0
10
-77.894505
20
25.396
30
0
40
0.799999999999979
210
0
220
0
230
1
100
AcDbArc
50
219
51
289.018
0
ARC
5
194
100
AcDbEntity
8
SK1
62
256
6
ByLayer
370
13
48
1
60
0
100
AcDbCircle
39
0
10
-0.15
20
25.146
30
0
40
0.399999999999999
210
0
220
0
230
1
100
AcDbArc
50
270
51
292.024313
0
ARC
5
195
100
AcDbEntity
8
SK1
62
256
6
ByLayer
370
13
48
1
60
0
100
AcDbCircle
39
0
10
-0.15
20
-25.146
30
0
40
0.399999999999999
210
0
220
0
230
1
100
AcDbArc
50
67.975687
51
90
0
ARC
5
196
100
AcDbEntity
8
SK1
62
256
6
ByLayer
370
13
48
1
60
0
100
AcDbCircle
39
0
10
-1.375195
20
25.146
30
0
40
0.400000000000004
210
0
220
0
230
1
100
AcDbArc
50
245
51
270
0
ARC
5
197
100
AcDbEntity
8
SK1
62
256
6
ByLayer
370
13
48
1
60
0
100
AcDbCircle
39
0
10
-1.375195
20
-25.146
30
0
40
0.400000000000004
210
0
220
0
230
1
100
AcDbArc
50
90
51
115
0
ARC
5
198
100
AcDbEntity
8
1
62
256
6
ByLayer
370
13
48
1
60
0
100
AcDbCircle
39
0
10
288.075268
20
29.691708
30
0
40
0.2
210
0
220
0
230
1
100
AcDbArc
50
8.973565
51
93
0
ARC
5
199
100
AcDbEntity
8
1
62
256
6
ByLayer
370
13
48
1
60
0
100
AcDbCircle
39
0
10
288.266338
20
13.435959
30
0
40
0.2
210
0
220
0
230
1
100
AcDbArc
50
273
51
352.54557
0
ARC
5
19A
100
AcDbEntity
8
1
62
256
6
ByLayer
370
13
48
1
60
0
100
AcDbCircle
39
0
10
273.869
20
28.68147
30
0
40
0.2
210
0
220
0
230
1
100
AcDbArc
50
79.98854
51
93
0
ARC
5
19B
100
AcDbEntity
8
1
62
256
6
ByLayer
370
13
48
1
60
0
100
AcDbCircle
39
0
10
274.060069
20
12.425721
30
0
40
0.2
210
0
220
0
230
1
100
AcDbArc
50
273
51
303.773583
0
ELLIPSE
5
19C
100
AcDbEntity
8
1
62
256
6
ByLayer
370
18
48
1
60
0
100
AcDbEllipse
10
281.696873
20
19.805265
30
0
11
-0.328745690776179
21
-0.214965491791407
31
0
210
0
220
0
230
1
40
0.490808
41
0.673312264881152
42
-2.94818767871642
0
ELLIPSE
5
19D
100
AcDbEntity
8
1
62
256
6
ByLayer
370
18
48
1
60
0
100
AcDbEllipse
10
280.965077
20
21.053338
30
0
11
-0.149157475292373
21
2.84609417405054
31
0
210
0
220
0
230
1
40
0.995562
41
0
42
3.1414943057158
0
ELLIPSE
5
19E
100
AcDbEntity
8
1
62
256
6
ByLayer
370
18
48
1
60
0
100
AcDbEllipse
10
281.562405
20
22.371068
30
0
11
-0.349414799997455
21
0.179424606472467
31
0
210
0
220
0
230
1
40
0.490808
41
2.94818767871615
42
-0.625002372329118
0
ELLIPSE
5
19F
100
AcDbEntity
8
1
62
256
6
ByLayer
370
18
48
1
60
0
100
AcDbEllipse
10
281.04026
20
21.057278
30
0
11
0.087735997045646
21
-1.67410255206257
31
0
210
0
220
0
230
1
40
0.995562
41
-1.5707963267949
42
-0.523598775598257
0
ELLIPSE
5
1A0
100
AcDbEntity
8
1
62
256
6
ByLayer
370
18
48
1
60
0
100
AcDbEllipse
10
280.222081
20
19.727974
30
0
11
-0.349414799997419
21
0.179424606472473
31
0
210
0
220
0
230
1
40
0.490808
41
2.51659138569073
42
-2.9432065453974
0
ELLIPSE
5
1A1
100
AcDbEntity
8
1
62
256
6
ByLayer
370
18
48
1
60
0
100
AcDbEllipse
10
281.04026
20
21.057278
30
0
11
0.087735997045646
21
-1.67410255206257
31
0
210
0
220
0
230
1
40
0.995562
41
2.61799387799143
42
-2.61799387799149
0
ELLIPSE
5
1A2
100
AcDbEntity
8
1
62
256
6
ByLayer
370
18
48
1
60
0
100
AcDbEllipse
10
281.04026
20
21.057278
30
0
11
-0.0942047212372888
21
1.79753316255823
31
0
210
0
220
0
230
1
40
0.995562
41
0
42
6.28318530717959
0
ELLIPSE
5
1A3
100
AcDbEntity
8
1
62
256
6
ByLayer
370
18
48
1
60
0
100
AcDbEllipse
10
282.367036
20
21.126811
30
0
11
-0.0206256003553318
21
0.393559899646798
31
0
210
0
220
0
230
1
40
0.48755
41
-2.94566518558253
42
-0.320418374792573
0
ELLIPSE
5
1A4
100
AcDbEntity
8
1
62
256
6
ByLayer
370
18
48
1
60
0
100
AcDbEllipse
10
281.04026
20
21.057278
30
0
11
0.087735997045646
21
-1.67410255206257
31
0
210
0
220
0
230
1
40
0.995562
41
-2.61799387799149
42
-1.5707963267949
0
ELLIPSE
5
1A5
100
AcDbEntity
8
1
62
256
6
ByLayer
370
18
48
1
60
0
100
AcDbEllipse
10
282.20818
20
20.375818
30
0
11
-0.177620434612607
21
-0.351315571660621
31
0
210
0
220
0
230
1
40
0.48863
41
-1.57326889139071
42
-0.29140546552127
0
ELLIPSE
5
1A6
100
AcDbEntity
8
1
62
256
6
ByLayer
370
18
48
1
60
0
100
AcDbEllipse
10
280.892243
20
21.049521
30
0
11
0.0675290843402512
21
-1.28853168869383
31
0
210
0
220
0
230
1
40
0.995562
41
-1.89285840703661
42
-1.23277995487282
0
ELLIPSE
5
1A7
100
AcDbEntity
8
1
62
256
6
ByLayer
370
18
48
1
60
0
100
AcDbEllipse
10
281.04026
20
21.057278
30
0
11
0.087735997045646
21
-1.67410255206257
31
0
210
0
220
0
230
1
40
0.995562
41
-0.523598775598257
42
0.523598775598321
0
ELLIPSE
5
1A8
100
AcDbEntity
8
1
62
256
6
ByLayer
370
18
48
1
60
0
100
AcDbEllipse
10
280.892243
20
21.049521
30
0
11
0.0675290843402512
21
-1.28853168869383
31
0
210
0
220
0
230
1
40
0.995562
41
2.09439510239319
42
3.14159265358975
0
ELLIPSE
5
1A9
100
AcDbEntity
8
1
62
256
6
ByLayer
370
18
48
1
60
0
100
AcDbEllipse
10
280.892243
20
21.049521
30
0
11
0.0675290843402512
21
-1.28853168869383
31
0
210
0
220
0
230
1
40
0.995562
41
1.0471975511966
42
2.0943951023932
0
ELLIPSE
5
1AA
100
AcDbEntity
8
1
62
256
6
ByLayer
370
18
48
1
60
0
100
AcDbEllipse
10
281.04026
20
21.057278
30
0
11
0.087735997045646
21
-1.67410255206257
31
0
210
0
220
0
230
1
40
0.995562
41
0.523598775598321
42
1.5707963267949
0
ELLIPSE
5
1AB
100
AcDbEntity
8
1
62
256
6
ByLayer
370
18
48
1
60
0
100
AcDbEllipse
10
280.892243
20
21.049521
30
0
11
0.0675290843402512
21
-1.28853168869383
31
0
210
0
220
0
230
1
40
0.995562
41
3.14159265358975
42
-2.35315137984992
0
ELLIPSE
5
1AC
100
AcDbEntity
8
1
62
256
6
ByLayer
370
18
48
1
60
0
100
AcDbEllipse
10
282.13055
20
21.857086
30
0
11
-0.213369888117893
21
0.330824637122031
31
0
210
0
220
0
230
1
40
0.48863
41
1.57326889136646
42
2.85513231723907
0
ELLIPSE
5
1AD
100
AcDbEntity
8
1
62
256
6
ByLayer
370
18
48
1
60
0
100
AcDbEllipse
10
280.814613
20
22.530788
30
0
11
-0.391813266880671
21
-0.0205340632104935
31
0
210
0
220
0
230
1
40
0.491907
41
0.288932900934421
42
1.5707963267949
0
ELLIPSE
5
1AE
100
AcDbEntity
8
1
62
256
6
ByLayer
370
18
48
1
60
0
100
AcDbEllipse
10
280.087613
20
22.293777
30
0
11
-0.328745690776183
21
-0.214965491791433
31
0
210
0
220
0
230
1
40
0.490808
41
2.94320654539751
42
-2.46828145615013
0
ELLIPSE
5
1AF
100
AcDbEntity
8
1
62
256
6
ByLayer
370
18
48
1
60
0
100
AcDbEllipse
10
282.13055
20
21.857086
30
0
11
-0.213369888115807
21
0.330824637125928
31
0
210
0
220
0
230
1
40
0.48863
41
0.291405465521136
42
1.57326889138767
0
ELLIPSE
5
1B0
100
AcDbEntity
8
1
62
256
6
ByLayer
370
18
48
1
60
0
100
AcDbEllipse
10
280.892243
20
21.049521
30
0
11
0.0675290843402512
21
-1.28853168869383
31
0
210
0
220
0
230
1
40
0.995562
41
-0.77140860887011
42
0
0
ELLIPSE
5
1B1
100
AcDbEntity
8
1
62
256
6
ByLayer
370
18
48
1
60
0
100
AcDbEllipse
10
281.032817
20
21.056888
30
0
11
-0.149157475292373
21
2.84609417405054
31
0
210
0
220
0
230
1
40
0.995562
41
0
42
6.28318530717959
0
ELLIPSE
5
1B2
100
AcDbEntity
8
1
62
256
6
ByLayer
370
18
48
1
60
0
100
AcDbEllipse
10
280.892243
20
21.049521
30
0
11
-0.0675290843402629
21
1.28853168869383
31
0
210
0
220
0
230
1
40
0.995562
41
-3.03775684415657
42
-2.0943951023932
0
ELLIPSE
5
1B3
100
AcDbEntity
8
1
62
256
6
ByLayer
370
18
48
1
60
0
100
AcDbEllipse
10
281.04026
20
21.057278
30
0
11
0.087735997045646
21
-1.67410255206257
31
0
210
0
220
0
230
1
40
0.995562
41
1.5707963267949
42
2.61799387799143
0
ELLIPSE
5
1B4
100
AcDbEntity
8
1
62
256
6
ByLayer
370
18
48
1
60
0
100
AcDbEllipse
10
282.20818
20
20.375818
30
0
11
-0.17762043461597
21
-0.351315571663401
31
0
210
0
220
0
230
1
40
0.48863
41
-2.8551323172415
42
-1.57326889138188
0
ELLIPSE
5
1B5
100
AcDbEntity
8
1
62
256
6
ByLayer
370
18
48
1
60
0
100
AcDbEllipse
10
280.969873
20
19.568254
30
0
11
-0.391813266883416
21
-0.0205340632098813
31
0
210
0
220
0
230
1
40
0.491907
41
-1.5707963267949
42
-0.288932900934181
0
ELLIPSE
5
1B6
100
AcDbEntity
8
1
62
256
6
ByLayer
370
18
48
1
60
0
100
AcDbEllipse
10
281.0001
20
-8.198642
30
0
11
2
21
0
31
0
210
0
220
0
230
1
40
0.995002
41
0.570493801898847
42
2.77589170063263
0
ELLIPSE
5
1B7
100
AcDbEntity
8
1
62
256
6
ByLayer
370
18
48
1
60
0
100
AcDbEllipse
10
281.0001
20
-8.148713
30
0
11
-1.5
21
1.51595858262354E-15
31
0
210
0
220
0
230
1
40
0.995002
41
-2.74035256374566
42
-0.188691983002585
0
ELLIPSE
5
1B8
100
AcDbEntity
8
1
62
256
6
ByLayer
370
13
48
1
60
0
100
AcDbEllipse
10
288.266338
20
13.435959
30
0
11
-0.19830967214623
21
0.0259475226804974
31
0
210
0
220
0
230
1
40
0.01715
41
-3.14146404086573
42
-1.66347501627706
0
ELLIPSE
5
1B9
100
AcDbEntity
8
1
62
256
6
ByLayer
370
13
48
1
60
0
100
AcDbEllipse
10
288.549591
20
13.334015
30
0
11
0.00523359562429121
21
-0.0998629534754255
31
0
210
0
220
0
230
1
40
0.995562
41
-4.94053825749262E-06
42
0.113446401381175
0
ELLIPSE
5
1BA
100
AcDbEntity
8
1
62
256
6
ByLayer
370
13
48
1
60
0
100
AcDbEllipse
10
290.26377
20
12.842318
30
0
11
-0.223427008114125
21
-1.09873080945681
31
0
210
0
220
0
230
1
40
0.060635
41
1.06536319396794
42
1.25922194762774
0
ELLIPSE
5
1BB
100
AcDbEntity
8
1
62
256
6
ByLayer
370
13
48
1
60
0
100
AcDbEllipse
10
288.607711
20
13.394468
30
0
11
-0.0420204304878399
21
-0.159048282716772
31
0
210
0
220
0
230
1
40
0.081731
41
-1.54456248498522
42
0.0262338416792809
0
ELLIPSE
5
1BC
100
AcDbEntity
8
1
62
256
6
ByLayer
370
13
48
1
60
0
100
AcDbEllipse
10
273.751095
20
30.939336
30
0
11
-1.9000144304787
21
1.34408422197248
31
0
210
0
220
0
230
1
40
0.758703
41
1.08025569956517
42
2.08597699581293
0
ELLIPSE
5
1BD
100
AcDbEntity
8
1
62
256
6
ByLayer
370
13
48
1
60
0
100
AcDbEllipse
10
273.518229
20
28.722469
30
0
11
-0.0420204304826655
21
-0.159048282703786
31
0
210
0
220
0
230
1
40
0.081731
41
-3.11535881189481
42
-1.54456248513372
0
ELLIPSE
5
1BE
100
AcDbEntity
8
1
62
256
6
ByLayer
370
13
48
1
60
0
100
AcDbEllipse
10
288.321831
20
30.045205
30
0
11
0.00523359562429347
21
-0.0998629534754686
31
0
210
0
220
0
230
1
40
0.995562
41
-2.4226314202579
42
-1.46607657167419
0
ELLIPSE
5
1BF
100
AcDbEntity
8
1
62
256
6
ByLayer
370
13
48
1
60
0
100
AcDbEllipse
10
287.867557
20
11.151015
30
0
11
-0.104671912485876
21
1.99725906950915
31
0
210
0
220
0
230
1
40
0.995562
41
-0.289833749671688
42
1.11338788321145E-12
0
ELLIPSE
5
1C0
100
AcDbEntity
8
1
62
256
6
ByLayer
370
13
48
1
60
0
100
AcDbEllipse
10
286.79467
20
31.62292
30
0
11
-0.104671912485876
21
1.99725906950915
31
0
210
0
220
0
230
1
40
0.995562
41
-3.14159265358862
42
-1.82037975281699
0
ELLIPSE
5
1C1
100
AcDbEntity
8
1
62
256
6
ByLayer
370
13
48
1
60
0
100
AcDbEllipse
10
288.821185
20
21.656563
30
0
11
0.0444855628064897
21
-0.848835104541391
31
0
210
0
220
0
230
1
40
0.995562
41
1.38753675533562
42
1.67551608191467
0
ELLIPSE
5
1C2
100
AcDbEntity
8
1
62
256
6
ByLayer
370
13
48
1
60
0
100
AcDbEllipse
10
290.269388
20
30.767106
30
0
11
0.148164061728345
21
0.0233968120084612
31
0
210
0
220
0
230
1
40
0.009837
41
0.0937345075298485
42
1.66453083432158
0
ELLIPSE
5
1C3
100
AcDbEntity
8
1
62
256
6
ByLayer
370
13
48
1
60
0
100
AcDbEllipse
10
270.981797
20
20.429999
30
0
11
0.0366351693700522
21
-0.699040674328241
31
0
210
0
220
0
230
1
40
0.995562
41
-1.75405589825563
42
-1.46607657167647
0
ELLIPSE
5
1C4
100
AcDbEntity
8
1
62
256
6
ByLayer
370
13
48
1
60
0
100
AcDbEllipse
10
288.075268
20
29.691708
30
0
11
-0.11118248343956
21
0.166248174053768
31
0
210
0
220
0
230
1
40
0.080951
41
-1.61896516661935
42
-0.0481688398275529
0
ELLIPSE
5
1C5
100
AcDbEntity
8
1
62
256
6
ByLayer
370
13
48
1
60
0
100
AcDbEllipse
10
288.983564
20
31.183105
30
0
11
0.0126644888425929
21
-0.241652842685793
31
0
210
0
220
0
230
1
40
0.995562
41
-2.96705972838855
42
-1.82037975281836
0
ELLIPSE
5
1C6
100
AcDbEntity
8
1
62
256
6
ByLayer
370
13
48
1
60
0
100
AcDbEllipse
10
289.671071
20
21.790075
30
0
11
0.148164061728345
21
0.0233968120084612
31
0
210
0
220
0
230
1
40
0.009837
41
1.66453083432196
42
2.8526900280098
0
ELLIPSE
5
1C7
100
AcDbEntity
8
1
62
256
6
ByLayer
370
13
48
1
60
0
100
AcDbEllipse
10
289.333525
20
21.592171
30
0
11
0.19830967214623
21
-0.0259475226804906
31
0
210
0
220
0
230
1
40
0.01715
41
0.000128612739083712
42
1.47811763731306
0
ELLIPSE
5
1C8
100
AcDbEntity
8
1
62
256
6
ByLayer
370
13
48
1
60
0
100
AcDbEllipse
10
290.661203
20
13.739163
30
0
11
0.148732254109673
21
-0.019460642010368
31
0
210
0
220
0
230
1
40
0.01715
41
-1.66347501627743
42
-0.0926786894795107
0
ELLIPSE
5
1C9
100
AcDbEntity
8
1
62
256
6
ByLayer
370
13
48
1
60
0
100
AcDbEllipse
10
272.866233
20
10.885852
30
0
11
0.00415024464891671
21
-0.149942573905326
31
0
210
0
220
0
230
1
40
0.09408
41
-1.56847321010752
42
-0.0396676110924706
0
ELLIPSE
5
1CA
100
AcDbEntity
8
1
62
256
6
ByLayer
370
13
48
1
60
0
100
AcDbEllipse
10
289.503715
20
22.484511
30
0
11
0.465790010562067
21
-8.88780285931572
31
0
210
0
220
0
230
1
40
0.995562
41
3.06145142476611
42
3.11701412729375
0
ELLIPSE
5
1CB
100
AcDbEntity
8
1
62
256
6
ByLayer
370
13
48
1
60
0
100
AcDbEllipse
10
280.981192
20
21.054182
30
0
11
0.15604350706115
21
-2.97748748746714
31
0
210
0
220
0
230
1
40
0.995562
41
0
42
6.28318530717959
0
ELLIPSE
5
1CC
100
AcDbEntity
8
1
62
256
6
ByLayer
370
13
48
1
60
0
100
AcDbEllipse
10
291.148842
20
21.687184
30
0
11
0.0366351693700522
21
-0.699040674328241
31
0
210
0
220
0
230
1
40
0.995562
41
1.38753675533532
42
1.67551608191447
0
ELLIPSE
5
1CD
100
AcDbEntity
8
1
62
256
6
ByLayer
370
13
48
1
60
0
100
AcDbEllipse
10
273.314152
20
20.460866
30
0
11
-0.0261679781214691
21
0.49931476737729
31
0
210
0
220
0
230
1
40
0.995562
41
1.3875367553356
42
1.67551608191459
0
ELLIPSE
5
1CE
100
AcDbEntity
8
1
62
256
6
ByLayer
370
13
48
1
60
0
100
AcDbEllipse
10
290.661203
20
13.739163
30
0
11
0.00785039343643922
21
-0.149794430213184
31
0
210
0
220
0
230
1
40
0.995562
41
0.113446401375407
42
1.38753675533548
0
ELLIPSE
5
1CF
100
AcDbEntity
8
1
62
256
6
ByLayer
370
13
48
1
60
0
100
AcDbEllipse
10
271.856552
20
11.34983
30
0
11
-0.148164061728344
21
-0.0233968120084652
31
0
210
0
220
0
230
1
40
0.009837
41
-1.47706181926708
42
-0.267604978109426
0
ELLIPSE
5
1D0
100
AcDbEntity
8
1
62
256
6
ByLayer
370
13
48
1
60
0
100
AcDbEllipse
10
290.132933
20
12.547175
30
0
11
-0.0433887818233169
21
-0.261709360242922
31
0
210
0
220
0
230
1
40
0.938419
41
0.505433140616263
42
1.30197962204023
0
ELLIPSE
5
1D1
100
AcDbEntity
8
1
62
256
6
ByLayer
370
13
48
1
60
0
100
AcDbEllipse
10
271.467627
20
28.363903
30
0
11
-0.0433887818376154
21
-0.261709360237991
31
0
210
0
220
0
230
1
40
0.938419
41
-2.83001826191988
42
-1.53436336028399
0
ELLIPSE
5
1D2
100
AcDbEntity
8
1
62
256
6
ByLayer
370
13
48
1
60
0
100
AcDbEllipse
10
289.040205
20
31.171724
30
0
11
0.0104671912485859
21
-0.199725906950917
31
0
210
0
220
0
230
1
40
0.995562
41
3.13286600733252
42
-1.82037975281754
0
ELLIPSE
5
1D3
100
AcDbEntity
8
1
62
256
6
ByLayer
370
13
48
1
60
0
100
AcDbEllipse
10
272.803334
20
12.634428
30
0
11
-0.0915879234251411
21
1.74760168582051
31
0
210
0
220
0
230
1
40
0.995562
41
3.11701412729394
42
3.13286600732982
0
ELLIPSE
5
1D4
100
AcDbEntity
8
1
62
256
6
ByLayer
370
13
48
1
60
0
100
AcDbEllipse
10
272.451633
20
20.570776
30
0
11
-0.148732254109672
21
0.0194606420103731
31
0
210
0
220
0
230
1
40
0.01715
41
1.47811763731237
42
3.04891396411238
0
ELLIPSE
5
1D5
100
AcDbEntity
8
1
62
256
6
ByLayer
370
13
48
1
60
0
100
AcDbEllipse
10
289.743666
20
31.230972
30
0
11
0.00422000339731947
21
0.149940626820507
31
0
210
0
220
0
230
1
40
0.093806
41
0.00756732553151094
42
1.57836365232731
0
ELLIPSE
5
1D6
100
AcDbEntity
8
1
62
256
6
ByLayer
370
13
48
1
60
0
100
AcDbEllipse
10
288.075268
20
29.691708
30
0
11
-0.197552082304459
21
-0.0311957493446203
31
0
210
0
220
0
230
1
40
0.009837
41
1.66453083432109
42
-3.14150916139266
0
ELLIPSE
5
1D7
100
AcDbEntity
8
1
62
256
6
ByLayer
370
13
48
1
60
0
100
AcDbEllipse
10
288.858777
20
21.658533
30
0
11
-0.0261679781214691
21
0.49931476737729
31
0
210
0
220
0
230
1
40
0.995562
41
-1.7540558982542
42
-1.46607657167509
0
ELLIPSE
5
1D8
100
AcDbEntity
8
1
62
256
6
ByLayer
370
13
48
1
60
0
100
AcDbEllipse
10
272.82213
20
12.635413
30
0
11
0.0994383168615647
21
-1.89739611603369
31
0
210
0
220
0
230
1
40
0.995562
41
-0.0245785262970776
42
-0.00872664626116438
0
ELLIPSE
5
1D9
100
AcDbEntity
8
1
62
256
6
ByLayer
370
13
48
1
60
0
100
AcDbEllipse
10
289.294412
20
29.481031
30
0
11
-0.0915879234251411
21
1.74760168582051
31
0
210
0
220
0
230
1
40
0.995562
41
-0.0245785262957921
42
-0.0087266462600049
0
ELLIPSE
5
1DA
100
AcDbEntity
8
1
62
256
6
ByLayer
370
13
48
1
60
0
100
AcDbEllipse
10
288.55429
20
13.334262
30
0
11
0.00523359562429121
21
-0.0998629534754255
31
0
210
0
220
0
230
1
40
0.995562
41
-1.75405589825264
42
0.113446401380076
0
ELLIPSE
5
1DB
100
AcDbEntity
8
1
62
256
6
ByLayer
370
13
48
1
60
0
100
AcDbEllipse
10
291.689646
20
21.773095
30
0
11
0.148164061728345
21
0.0233968120084612
31
0
210
0
220
0
230
1
40
0.009837
41
0.0937345075250187
42
1.66453083432158
0
ELLIPSE
5
1DC
100
AcDbEntity
8
1
62
256
6
ByLayer
370
13
48
1
60
0
100
AcDbEllipse
10
273.438451
20
30.922961
30
0
11
-2.48302757473432
21
1.51818928861874
31
0
210
0
220
0
230
1
40
0.473314
41
1.2162954234285
42
1.24195301094842
0
ELLIPSE
5
1DD
100
AcDbEntity
8
1
62
256
6
ByLayer
370
13
48
1
60
0
100
AcDbEllipse
10
273.869
20
28.68147
30
0
11
0.0104671912485858
21
-0.199725906950915
31
0
210
0
220
0
230
1
40
0.995562
41
-3.14157046250207
42
-1.75405589825547
0
ELLIPSE
5
1DE
100
AcDbEntity
8
1
62
256
6
ByLayer
370
13
48
1
60
0
100
AcDbEllipse
10
286.985034
20
31.632876
30
0
11
-2.31063204013068
21
-1.76938661607498
31
0
210
0
220
0
230
1
40
0.473303
41
1.89962406506788
42
1.92528243608443
0
ELLIPSE
5
1DF
100
AcDbEntity
8
1
62
256
6
ByLayer
370
13
48
1
60
0
100
AcDbEllipse
10
271.464737
20
28.377773
30
0
11
-0.148732254109672
21
0.0194606420103731
31
0
210
0
220
0
230
1
40
0.01715
41
0.265915951152867
42
1.47811763731463
0
ELLIPSE
5
1E0
100
AcDbEntity
8
1
62
256
6
ByLayer
370
13
48
1
60
0
100
AcDbEllipse
10
272.801813
20
20.525258
30
0
11
-0.19830967214623
21
0.0259475226804974
31
0
210
0
220
0
230
1
40
0.01715
41
-1.66347501627504
42
-0.0926786894815822
0
ELLIPSE
5
1E1
100
AcDbEntity
8
1
62
256
6
ByLayer
370
13
48
1
60
0
100
AcDbEllipse
10
290.667711
20
13.753526
30
0
11
-0.0433887818505491
21
-0.261709360233901
31
0
210
0
220
0
230
1
40
0.938419
41
0.311574391717351
42
1.60722929336053
0
ELLIPSE
5
1E2
100
AcDbEntity
8
1
62
256
6
ByLayer
370
13
48
1
60
0
100
AcDbEllipse
10
272.803716
20
20.381779
30
0
11
-0.197552082304459
21
-0.0311957493446203
31
0
210
0
220
0
230
1
40
0.009837
41
0.0937345075280506
42
1.66453083432166
0
ELLIPSE
5
1E3
100
AcDbEntity
8
1
62
256
6
ByLayer
370
13
48
1
60
0
100
AcDbEllipse
10
289.033324
20
31.22143
30
0
11
-0.00653707867981085
21
0.149857487641873
31
0
210
0
220
0
230
1
40
0.094105
41
0.00082490029438994
42
1.57162122708202
0
ELLIPSE
5
1E4
100
AcDbEntity
8
1
62
256
6
ByLayer
370
13
48
1
60
0
100
AcDbEllipse
10
286.155611
20
31.589429
30
0
11
0.104671912485858
21
-1.99725906950915
31
0
210
0
220
0
230
1
40
0.995562
41
0
42
0.289833749673985
0
ELLIPSE
5
1E5
100
AcDbEntity
8
1
62
256
6
ByLayer
370
13
48
1
60
0
100
AcDbEllipse
10
290.132933
20
12.547175
30
0
11
-0.0433887727305535
21
-0.26170936488454
31
0
210
0
220
0
230
1
40
0.938419
41
0.311574355503783
42
0.505433103270875
0
ELLIPSE
5
1E6
100
AcDbEntity
8
1
62
256
6
ByLayer
370
13
48
1
60
0
100
AcDbEllipse
10
288.266338
20
13.435959
30
0
11
0.0104671912485858
21
-0.199725906950915
31
0
210
0
220
0
230
1
40
0.995562
41
-0.226119054300921
42
1.75822154853103E-05
0
ELLIPSE
5
1E7
100
AcDbEntity
8
1
62
256
6
ByLayer
370
13
48
1
60
0
100
AcDbEllipse
10
273.576349
20
28.782921
30
0
11
0.00523359562429121
21
-0.0998629534754255
31
0
210
0
220
0
230
1
40
0.995562
41
1.38753675533657
42
3.14158945216387
0
ELLIPSE
5
1E8
100
AcDbEntity
8
1
62
256
6
ByLayer
370
13
48
1
60
0
100
AcDbEllipse
10
288.839981
20
21.657548
30
0
11
0.0366351693700503
21
-0.699040674328205
31
0
210
0
220
0
230
1
40
0.995562
41
1.38753675533564
42
1.67551608191464
0
ELLIPSE
5
1E9
100
AcDbEntity
8
1
62
256
6
ByLayer
370
13
48
1
60
0
100
AcDbEllipse
10
271.464737
20
28.377773
30
0
11
0.024831311406771
21
-0.147930409226163
31
0
210
0
220
0
230
1
40
0.093503
41
-3.04696247442337
42
-1.58149677265292
0
ELLIPSE
5
1EA
100
AcDbEntity
8
1
62
256
6
ByLayer
370
13
48
1
60
0
100
AcDbEllipse
10
272.383259
20
11.435003
30
0
11
-0.0287847759336168
21
0.549246244115033
31
0
210
0
220
0
230
1
40
0.995562
41
1.67551608191457
42
3.06145142476583
0
ELLIPSE
5
1EB
100
AcDbEntity
8
1
62
256
6
ByLayer
370
13
48
1
60
0
100
AcDbEllipse
10
275.340668
20
10.494509
30
0
11
-0.10990550811017
21
2.0971220229846
31
0
210
0
220
0
230
1
40
0.995562
41
0.718961233328345
42
1.32121290077048
0
ELLIPSE
5
1EC
100
AcDbEntity
8
1
62
256
6
ByLayer
370
13
48
1
60
0
100
AcDbEllipse
10
289.313207
20
29.482016
30
0
11
0.0994383168615647
21
-1.89739611603369
31
0
210
0
220
0
230
1
40
0.995562
41
3.11701412729506
42
3.13286600733091
0
ELLIPSE
5
1ED
100
AcDbEntity
8
1
62
256
6
ByLayer
370
13
48
1
60
0
100
AcDbEllipse
10
281.086465
20
21.0597
30
0
11
0.16459275201709
21
-3.14061679904835
31
0
210
0
220
0
230
1
40
0.995562
41
0
42
6.28318530717959
0
ELLIPSE
5
1EE
100
AcDbEntity
8
1
62
256
6
ByLayer
370
13
48
1
60
0
100
AcDbEllipse
10
273.808807
20
12.071978
30
0
11
0.00523359562429347
21
-0.0998629534754686
31
0
210
0
220
0
230
1
40
0.995562
41
0.718961233330851
42
1.67551608191503
0
ELLIPSE
5
1EF
100
AcDbEntity
8
1
62
256
6
ByLayer
370
13
48
1
60
0
100
AcDbEllipse
10
280.652645
20
28.977847
30
0
11
0.0104671912485858
21
-0.199725906950915
31
0
210
0
220
0
230
1
40
0.094108
41
1.5707963267949
42
3.14159265358677
0
ELLIPSE
5
1F0
100
AcDbEntity
8
1
62
256
6
ByLayer
370
13
48
1
60
0
100
AcDbEllipse
10
289.508414
20
22.484757
30
0
11
0.465790010562067
21
-8.88780285931572
31
0
210
0
220
0
230
1
40
0.995562
41
3.06145142476727
42
3.11701412729489
0
ELLIPSE
5
1F1
100
AcDbEntity
8
1
62
256
6
ByLayer
370
13
48
1
60
0
100
AcDbEllipse
10
272.626923
20
19.632671
30
0
11
0.465790010562067
21
-8.88780285931572
31
0
210
0
220
0
230
1
40
0.995562
41
-0.0801412288248462
42
-0.0245785262972343
0
ELLIPSE
5
1F2
100
AcDbEntity
8
1
62
256
6
ByLayer
370
13
48
1
60
0
100
AcDbEllipse
10
287.228498
20
11.117523
30
0
11
0.104671912485858
21
-1.99725906950915
31
0
210
0
220
0
230
1
40
0.995562
41
2.05328475513892
42
2.70662470115562
0
ELLIPSE
5
1F3
100
AcDbEntity
8
1
62
256
6
ByLayer
370
13
48
1
60
0
100
AcDbEllipse
10
273.295356
20
20.459881
30
0
11
0.0366351693700503
21
-0.699040674328205
31
0
210
0
220
0
230
1
40
0.995562
41
-1.75405589825423
42
-1.46607657167516
0
ELLIPSE
5
1F4
100
AcDbEntity
8
1
62
256
6
ByLayer
370
13
48
1
60
0
100
AcDbEllipse
10
272.382273
20
10.885964
30
0
11
-0.00422000339732056
21
-0.149940626820507
31
0
210
0
220
0
230
1
40
0.093806
41
-1.56322900126248
42
-0.0736942388982845
0
ELLIPSE
5
1F5
100
AcDbEntity
8
1
62
256
6
ByLayer
370
13
48
1
60
0
100
AcDbEllipse
10
271.716819
20
30.278193
30
0
11
-0.30042284331222
21
0.183688194600069
31
0
210
0
220
0
230
1
40
0.473311
41
-1.92529218179426
42
-0.778612206224102
0
ELLIPSE
5
1F6
100
AcDbEntity
8
1
62
256
6
ByLayer
370
13
48
1
60
0
100
AcDbEllipse
10
288.266338
20
13.435959
30
0
11
0.0347690313671212
21
0.19695459999145
31
0
210
0
220
0
230
1
40
0.091713
41
-3.1204029628404
42
-1.54960663601607
0
ELLIPSE
5
1F7
100
AcDbEntity
8
1
62
256
6
ByLayer
370
13
48
1
60
0
100
AcDbEllipse
10
289.489618
20
22.483772
30
0
11
-0.457939617125707
21
8.73800842910253
31
0
210
0
220
0
230
1
40
0.995562
41
-0.0801412288236845
42
-0.0245785262960596
0
ELLIPSE
5
1F8
100
AcDbEntity
8
1
62
256
6
ByLayer
370
13
48
1
60
0
100
AcDbEllipse
10
273.581048
20
28.783167
30
0
11
0.00523359562429121
21
-0.0998629534754255
31
0
210
0
220
0
230
1
40
0.995562
41
1.38753675533427
42
-3.02814625221155
0
ELLIPSE
5
1F9
100
AcDbEntity
8
1
62
256
6
ByLayer
370
13
48
1
60
0
100
AcDbEllipse
10
289.728584
20
30.681195
30
0
11
0.0366351693700511
21
-0.699040674328219
31
0
210
0
220
0
230
1
40
0.995562
41
1.67551608191455
42
3.06145142476595
0
ELLIPSE
5
1FA
100
AcDbEntity
8
1
62
256
6
ByLayer
370
13
48
1
60
0
100
AcDbEllipse
10
273.276561
20
20.458896
30
0
11
0.0444855628064897
21
-0.848835104541391
31
0
210
0
220
0
230
1
40
0.995562
41
-1.75405589825425
42
-1.46607657167519
0
ELLIPSE
5
1FB
100
AcDbEntity
8
1
62
256
6
ByLayer
370
13
48
1
60
0
100
AcDbEllipse
10
291.134745
20
21.686445
30
0
11
-0.028784775933618
21
0.549246244115055
31
0
210
0
220
0
230
1
40
0.995562
41
-1.75405589825451
42
-1.46607657167533
0
ELLIPSE
5
1FC
100
AcDbEntity
8
1
62
256
6
ByLayer
370
13
48
1
60
0
100
AcDbEllipse
10
274.060069
20
12.425721
30
0
11
0.19755208230446
21
0.031195749344615
31
0
210
0
220
0
230
1
40
0.009837
41
-3.04785814606447
42
-1.47706181926607
0
ELLIPSE
5
1FD
100
AcDbEntity
8
1
62
256
6
ByLayer
370
13
48
1
60
0
100
AcDbEllipse
10
270.963001
20
20.429014
30
0
11
-0.028784775933618
21
0.549246244115055
31
0
210
0
220
0
230
1
40
0.995562
41
1.38753675533528
42
1.67551608191446
0
ELLIPSE
5
1FE
100
AcDbEntity
8
1
62
256
6
ByLayer
370
13
48
1
60
0
100
AcDbEllipse
10
275.335969
20
10.494262
30
0
11
-0.10990550811017
21
2.0971220229846
31
0
210
0
220
0
230
1
40
0.995562
41
0.718961233329496
42
1.32121290077166
0
ELLIPSE
5
1FF
100
AcDbEntity
8
1
62
256
6
ByLayer
370
13
48
1
60
0
100
AcDbEllipse
10
288.764536
20
31.171626
30
0
11
-0.279576450841731
21
-0.214084669595039
31
0
210
0
220
0
230
1
40
0.473311
41
-2.36298044737096
42
-1.21630047180762
0
ELLIPSE
5
200
100
AcDbEntity
8
1
62
256
6
ByLayer
370
13
48
1
60
0
100
AcDbEllipse
10
273.813506
20
12.072224
30
0
11
0.00523359562429347
21
-0.0998629534754686
31
0
210
0
220
0
230
1
40
0.995562
41
0.718961233330006
42
1.67551608191332
0
ELLIPSE
5
201
100
AcDbEntity
8
1
62
256
6
ByLayer
370
13
48
1
60
0
100
AcDbEllipse
10
288.607711
20
13.394468
30
0
11
-0.157457627820849
21
-0.0472734989247247
31
0
210
0
220
0
230
1
40
0.020424
41
-1.48728150119247
42
0.0835148255492639
0
ELLIPSE
5
202
100
AcDbEntity
8
1
62
256
6
ByLayer
370
13
48
1
60
0
100
AcDbEllipse
10
273.518229
20
28.722469
30
0
11
-0.157457627796439
21
-0.0472734989172474
31
0
210
0
220
0
230
1
40
0.020424
41
-3.05807782805353
42
-1.48728150114198
0
ELLIPSE
5
203
100
AcDbEntity
8
1
62
256
6
ByLayer
370
13
48
1
60
0
100
AcDbEllipse
10
287.350872
20
11.123937
30
0
11
-1.52607791220557
21
-1.67412290956269
31
0
210
0
220
0
230
1
40
0.751206
41
2.58320417178379
42
-2.78125477170225
0
ELLIPSE
5
204
100
AcDbEntity
8
1
62
256
6
ByLayer
370
13
48
1
60
0
100
AcDbEllipse
10
290.661203
20
13.739163
30
0
11
-0.0248313114067918
21
0.147930409226159
31
0
210
0
220
0
230
1
40
0.093503
41
1.56009588092854
42
3.13089220773175
0
ELLIPSE
5
205
100
AcDbEntity
8
1
62
256
6
ByLayer
370
13
48
1
60
0
100
AcDbEllipse
10
291.153541
20
21.68743
30
0
11
0.0366351693700522
21
-0.699040674328241
31
0
210
0
220
0
230
1
40
0.995562
41
1.38753675533648
42
1.67551608191561
0
ELLIPSE
5
206
100
AcDbEntity
8
1
62
256
6
ByLayer
370
13
48
1
60
0
100
AcDbEllipse
10
273.092616
20
10.895507
30
0
11
0.00653707867981016
21
-0.149857487641873
31
0
210
0
220
0
230
1
40
0.094105
41
-1.56997142650778
42
-0.0234595020658742
0
ELLIPSE
5
207
100
AcDbEntity
8
1
62
256
6
ByLayer
370
13
48
1
60
0
100
AcDbEllipse
10
273.869
20
28.68147
30
0
11
-0.0347690313670902
21
-0.196954599991456
31
0
210
0
220
0
230
1
40
0.091713
41
1.59198601757372
42
-3.12040296277841
0
ELLIPSE
5
208
100
AcDbEntity
8
1
62
256
6
ByLayer
370
13
48
1
60
0
100
AcDbEllipse
10
271.363346
20
29.536762
30
0
11
-0.0433887818156438
21
-0.261709360245251
31
0
210
0
220
0
230
1
40
0.938419
41
-2.83001826199929
42
-2.21164798411391
0
ELLIPSE
5
209
100
AcDbEntity
8
1
62
256
6
ByLayer
370
13
48
1
60
0
100
AcDbEllipse
10
275.340668
20
10.494509
30
0
11
-0.104671912485876
21
1.99725906950915
31
0
210
0
220
0
230
1
40
0.995562
41
0
42
1.32121290077045
0
ELLIPSE
5
20A
100
AcDbEntity
8
1
62
256
6
ByLayer
370
13
48
1
60
0
100
AcDbEllipse
10
273.869
20
28.68147
30
0
11
0.19830967214623
21
-0.0259475226804906
31
0
210
0
220
0
230
1
40
0.01715
41
1.47811763731447
42
3.04891396411863
0
ELLIPSE
5
20B
100
AcDbEntity
8
1
62
256
6
ByLayer
370
13
48
1
60
0
100
AcDbEllipse
10
272.402055
20
11.435988
30
0
11
0.0366351693700511
21
-0.699040674328219
31
0
210
0
220
0
230
1
40
0.995562
41
-1.46607657167638
42
-0.0801412288249129
0
ELLIPSE
5
20C
100
AcDbEntity
8
1
62
256
6
ByLayer
370
13
48
1
60
0
100
AcDbEllipse
10
270.436294
20
20.343841
30
0
11
-0.148164061728344
21
-0.0233968120084652
31
0
210
0
220
0
230
1
40
0.009837
41
-1.4770618192667
42
-0.267630172925502
0
ELLIPSE
5
20D
100
AcDbEntity
8
1
62
256
6
ByLayer
370
13
48
1
60
0
100
AcDbEllipse
10
288.986691
20
31.181286
30
0
11
0.147123305935846
21
-0.0292358145175992
31
0
210
0
220
0
230
1
40
0.023245
41
3.05024863021027
42
-1.66214035017012
0
ELLIPSE
5
20E
100
AcDbEntity
8
1
62
256
6
ByLayer
370
13
48
1
60
0
100
AcDbEllipse
10
281.006755
20
21.055522
30
0
11
0.161488764830022
21
-3.08138919525492
31
0
210
0
220
0
230
1
40
0.995562
41
-0.832617303636146
42
0
0
ELLIPSE
5
20F
100
AcDbEntity
8
1
62
256
6
ByLayer
370
13
48
1
60
0
100
AcDbEllipse
10
281.006755
20
21.055522
30
0
11
0.161488764830022
21
-3.08138919525492
31
0
210
0
220
0
230
1
40
0.995562
41
0
42
-2.30896949140972
0
ELLIPSE
5
210
100
AcDbEntity
8
1
62
256
6
ByLayer
370
13
48
1
60
0
100
AcDbEllipse
10
273.139249
20
10.93565
30
0
11
-0.147123305935845
21
0.0292358145176015
31
0
210
0
220
0
230
1
40
0.023245
41
1.47945230342048
42
3.05024863021846
0
ELLIPSE
5
211
100
AcDbEntity
8
1
62
256
6
ByLayer
370
13
48
1
60
0
100
AcDbEllipse
10
273.090433
20
10.945459
30
0
11
0.0104671912485859
21
-0.199725906950917
31
0
210
0
220
0
230
1
40
0.995562
41
0.011598351479928
42
1.32121290077136
0
ELLIPSE
5
212
100
AcDbEntity
8
1
62
256
6
ByLayer
370
13
48
1
60
0
100
AcDbEllipse
10
289.331622
20
21.73565
30
0
11
0.19755208230446
21
0.031195749344615
31
0
210
0
220
0
230
1
40
0.009837
41
-1.47706181926813
42
8.34922621432699E-05
0
ELLIPSE
5
213
100
AcDbEntity
8
1
62
256
6
ByLayer
370
13
48
1
60
0
100
AcDbEllipse
10
289.714487
20
30.680456
30
0
11
-0.0287847759336168
21
0.549246244115033
31
0
210
0
220
0
230
1
40
0.995562
41
-1.46607657167522
42
-0.0801412288237532
0
ELLIPSE
5
214
100
AcDbEntity
8
1
62
256
6
ByLayer
370
13
48
1
60
0
100
AcDbEllipse
10
281.482693
20
13.139582
30
0
11
0.0104671912485858
21
-0.199725906950915
31
0
210
0
220
0
230
1
40
0.094108
41
0
42
1.5707963267949
0
ELLIPSE
5
215
100
AcDbEntity
8
1
62
256
6
ByLayer
370
13
48
1
60
0
100
AcDbEllipse
10
275.321872
20
10.493523
30
0
11
0.11775590154659
21
-2.24691645319779
31
0
210
0
220
0
230
1
40
0.995562
41
-2.41106345636169
42
-1.82037975281816
0
ELLIPSE
5
216
100
AcDbEntity
8
1
62
256
6
ByLayer
370
13
48
1
60
0
100
AcDbEllipse
10
274.060069
20
12.425721
30
0
11
0.111182483439553
21
-0.166248174053773
31
0
210
0
220
0
230
1
40
0.080951
41
-1.97154943795387E-05
42
1.52262748697016
0
ELLIPSE
5
217
100
AcDbEntity
8
1
62
256
6
ByLayer
370
13
48
1
60
0
100
AcDbEllipse
10
289.308508
20
29.48177
30
0
11
0.0994383168615647
21
-1.89739611603369
31
0
210
0
220
0
230
1
40
0.995562
41
3.11701412729398
42
3.1328660073298
0
ELLIPSE
5
218
100
AcDbEntity
8
1
62
256
6
ByLayer
370
13
48
1
60
0
100
AcDbEllipse
10
289.02141
20
31.170739
30
0
11
-0.00261679781214698
21
0.0499314767377304
31
0
210
0
220
0
230
1
40
0.995562
41
-0.00872664625867807
42
1.32121290077049
0
ELLIPSE
5
219
100
AcDbEntity
8
1
62
256
6
ByLayer
370
13
48
1
60
0
100
AcDbEllipse
10
286.79467
20
31.62292
30
0
11
-0.10990550811017
21
2.0971220229846
31
0
210
0
220
0
230
1
40
0.995562
41
-2.42263142025915
42
-1.82037975281696
0
ELLIPSE
5
21A
100
AcDbEntity
8
1
62
256
6
ByLayer
370
13
48
1
60
0
100
AcDbEllipse
10
272.608127
20
19.631686
30
0
11
-0.457939617125707
21
8.73800842910253
31
0
210
0
220
0
230
1
40
0.995562
41
3.0614514247661
42
3.11701412729371
0
ELLIPSE
5
21B
100
AcDbEntity
8
1
62
256
6
ByLayer
370
13
48
1
60
0
100
AcDbEllipse
10
274.060069
20
12.425721
30
0
11
0.0104671912485858
21
-0.199725906950915
31
0
210
0
220
0
230
1
40
0.995562
41
-1.46607657167646
42
-2.46857417347013E-05
0
ELLIPSE
5
21C
100
AcDbEntity
8
1
62
256
6
ByLayer
370
13
48
1
60
0
100
AcDbEllipse
10
289.232107
20
31.230101
30
0
11
-0.00653707867981085
21
0.149857487641873
31
0
210
0
220
0
230
1
40
0.094105
41
0.000824900286336043
42
1.5716212270824
0
ELLIPSE
5
21D
100
AcDbEntity
8
1
62
256
6
ByLayer
370
13
48
1
60
0
100
AcDbEllipse
10
272.893833
20
10.886835
30
0
11
0.00653707867981016
21
-0.149857487641873
31
0
210
0
220
0
230
1
40
0.094105
41
-1.56997142650778
42
0.000824900286336043
0
ELLIPSE
5
21E
100
AcDbEntity
8
1
62
256
6
ByLayer
370
13
48
1
60
0
100
AcDbEllipse
10
270.4342
20
20.501668
30
0
11
-0.148732254109672
21
0.0194606420103731
31
0
210
0
220
0
230
1
40
0.01715
41
-0.092678689477413
42
1.47811763731425
0
ELLIPSE
5
21F
100
AcDbEntity
8
1
62
256
6
ByLayer
370
13
48
1
60
0
100
AcDbEllipse
10
291.69174
20
21.615269
30
0
11
0.148732254109673
21
-0.019460642010368
31
0
210
0
220
0
230
1
40
0.01715
41
-1.66347501627667
42
-0.0926786894787881
0
ELLIPSE
5
220
100
AcDbEntity
8
1
62
256
6
ByLayer
370
13
48
1
60
0
100
AcDbEllipse
10
286.672296
20
31.616507
30
0
11
-1.74911089440177
21
-1.5353267765768
31
0
210
0
220
0
230
1
40
0.758703
41
1.05561565777656
42
2.06133695402375
0
ELLIPSE
5
221
100
AcDbEntity
8
1
62
256
6
ByLayer
370
13
48
1
60
0
100
AcDbEllipse
10
273.151774
20
10.934324
30
0
11
0.0126644888425929
21
-0.241652842685793
31
0
210
0
220
0
230
1
40
0.995562
41
0.174532925198926
42
1.32121290076901
0
ELLIPSE
5
222
100
AcDbEntity
8
1
62
256
6
ByLayer
370
13
48
1
60
0
100
AcDbEllipse
10
273.076336
20
10.94472
30
0
11
-0.00261679781214698
21
0.0499314767377304
31
0
210
0
220
0
230
1
40
0.995562
41
3.13286600733222
42
-1.82037975281813
0
ELLIPSE
5
223
100
AcDbEntity
8
1
62
256
6
ByLayer
370
13
48
1
60
0
100
AcDbEllipse
10
272.454869
20
20.326861
30
0
11
-0.148164061728344
21
-0.0233968120084652
31
0
210
0
220
0
230
1
40
0.009837
41
-3.04785814605994
42
-1.47706181926821
0
ELLIPSE
5
224
100
AcDbEntity
8
1
62
256
6
ByLayer
370
13
48
1
60
0
100
AcDbEllipse
10
274.267781
20
30.966414
30
0
11
-0.104671912485876
21
1.99725906950915
31
0
210
0
220
0
230
1
40
0.995562
41
2.85175890391577
42
3.14159265358854
0
ELLIPSE
5
225
100
AcDbEntity
8
1
62
256
6
ByLayer
370
13
48
1
60
0
100
AcDbEllipse
10
289.733283
20
30.681441
30
0
11
0.0366351693700511
21
-0.699040674328219
31
0
210
0
220
0
230
1
40
0.995562
41
1.67551608191569
42
3.06145142476717
0
ELLIPSE
5
226
100
AcDbEntity
8
1
62
256
6
ByLayer
370
13
48
1
60
0
100
AcDbEllipse
10
286.775874
20
31.621935
30
0
11
0.11775590154659
21
-2.24691645319779
31
0
210
0
220
0
230
1
40
0.995562
41
0.730529197228139
42
1.32121290077163
0
ELLIPSE
5
227
100
AcDbEntity
8
1
62
256
6
ByLayer
370
13
48
1
60
0
100
AcDbEllipse
10
289.674306
20
21.546161
30
0
11
0.148732254109673
21
-0.019460642010368
31
0
210
0
220
0
230
1
40
0.01715
41
-2.85472889772736
42
-1.66347501627478
0
ELLIPSE
5
228
100
AcDbEntity
8
1
62
256
6
ByLayer
370
13
48
1
60
0
100
AcDbEllipse
10
289.259707
20
31.231085
30
0
11
-0.00415024464891743
21
0.149942573905326
31
0
210
0
220
0
230
1
40
0.09408
41
0.00232311668043769
42
1.57311944348265
0
ELLIPSE
5
229
100
AcDbEntity
8
1
62
256
6
ByLayer
370
13
48
1
60
0
100
AcDbEllipse
10
273.095132
20
10.945705
30
0
11
0.0104671912485859
21
-0.199725906950917
31
0
210
0
220
0
230
1
40
0.995562
41
-0.00872664625955482
42
1.32121290077019
0
ELLIPSE
5
22A
100
AcDbEntity
8
1
62
256
6
ByLayer
370
13
48
1
60
0
100
AcDbEllipse
10
288.075268
20
29.691708
30
0
11
0.0104671912485858
21
-0.199725906950915
31
0
210
0
220
0
230
1
40
0.995562
41
3.14156912557345
42
-2.60644555906574
0
ELLIPSE
5
22B
100
AcDbEntity
8
1
62
256
6
ByLayer
370
13
48
1
60
0
100
AcDbEllipse
10
273.290657
20
20.459634
30
0
11
-0.0366351693700568
21
0.699040674328205
31
0
210
0
220
0
230
1
40
0.995562
41
1.38753675533556
42
1.67551608191464
0
ELLIPSE
5
22C
100
AcDbEntity
8
1
62
256
6
ByLayer
370
13
48
1
60
0
100
AcDbEllipse
10
271.469436
20
28.37802
30
0
11
0.00785039343643922
21
-0.149794430213184
31
0
210
0
220
0
230
1
40
0.995562
41
-3.02814625221478
42
-1.75405589825548
0
ELLIPSE
5
22D
100
AcDbEntity
8
1
62
256
6
ByLayer
370
13
48
1
60
0
100
AcDbEllipse
10
290.665902
20
13.739409
30
0
11
0.00785039343643922
21
-0.149794430213184
31
0
210
0
220
0
230
1
40
0.995562
41
0.113446401377341
42
1.38753675533663
0
ELLIPSE
5
22E
100
AcDbEntity
8
1
62
256
6
ByLayer
370
13
48
1
60
0
100
AcDbEllipse
10
293.457458
20
2.841868
30
0
11
-5.81956820892493
21
-2.03659705741129
31
0
210
0
220
0
230
1
40
0.866246
41
-0.378905400578494
42
-0.231353330795961
0
ELLIPSE
5
22F
100
AcDbEntity
8
1
62
256
6
ByLayer
370
13
48
1
60
0
100
AcDbEllipse
10
290.24949
20
-2.53658
30
0
11
-2.63407469658836
21
4.11527749571253
31
0
210
0
220
0
230
1
40
0.397183
41
-0.983367724896283
42
-0.847021088910757
0
ELLIPSE
5
230
100
AcDbEntity
8
1
62
256
6
ByLayer
370
13
48
1
60
0
100
AcDbEllipse
10
272.855876
20
13.398444
30
0
11
0.162241464353079
21
-3.09575155773918
31
0
210
0
220
0
230
1
40
0.995562
41
0.615809199294476
42
1.13183444118514
0
ELLIPSE
5
231
100
AcDbEntity
8
1
62
256
6
ByLayer
370
13
48
1
60
0
100
AcDbEllipse
10
272.226214
20
13.365445
30
0
11
0.162241464353079
21
-3.09575155773918
31
0
210
0
220
0
230
1
40
0.995562
41
0.0839997461782263
42
1.07850402440023
0
ELLIPSE
5
232
100
AcDbEntity
8
1
62
256
6
ByLayer
370
13
48
1
60
0
100
AcDbEllipse
10
292.840047
20
0
30
0
11
-3.75197594812558
21
-30.7094216022366
31
0
210
0
220
0
230
1
40
0.115895
41
-1.31717082849561
42
-0.082283580134283
0
ELLIPSE
5
233
100
AcDbEntity
8
1
62
256
6
ByLayer
370
13
48
1
60
0
100
AcDbEllipse
10
274.516814
20
11.639523
30
0
11
1.499753738579
21
0.0271794707661998
31
0
210
0
220
0
230
1
40
0.340502
41
-1.53279213818741
42
-1.51222596037033
0
ELLIPSE
5
234
100
AcDbEntity
8
1
62
256
6
ByLayer
370
13
48
1
60
0
100
AcDbEllipse
10
280.798362
20
-7.96061
30
0
11
2
21
0
31
0
210
0
220
0
230
1
40
0.995002
41
0.405265322608394
42
2.73995933589026
0
ELLIPSE
5
235
100
AcDbEntity
8
1
62
256
6
ByLayer
370
13
48
1
60
0
100
AcDbEllipse
10
264
20
2.166586
30
0
11
-0.604654501806931
21
16.6739605556031
31
0
210
0
220
0
230
1
40
0.358011
41
-0.538966108212832
42
-0.360122129296749
0
ELLIPSE
5
236
100
AcDbEntity
8
1
62
256
6
ByLayer
370
13
48
1
60
0
100
AcDbEllipse
10
280.798362
20
-8.44991
30
0
11
2
21
0
31
0
210
0
220
0
230
1
40
0.995002
41
2.38662869513465
42
2.58994849830892
0
ELLIPSE
5
237
100
AcDbEntity
8
1
62
256
6
ByLayer
370
13
48
1
60
0
100
AcDbEllipse
10
275.85448
20
12.023495
30
0
11
-0.318066032189416
21
-0.395588740252877
31
0
210
0
220
0
230
1
40
0.965978
41
-2.0696285588388
42
-1.29736636200306
0
ELLIPSE
5
238
100
AcDbEntity
8
1
62
256
6
ByLayer
370
13
48
1
60
0
100
AcDbEllipse
10
272.855876
20
13.398444
30
0
11
0.162241464353079
21
-3.09575155773918
31
0
210
0
220
0
230
1
40
0.995562
41
-2.31498441521961
42
-0.582560016270533
0
ELLIPSE
5
239
100
AcDbEntity
8
1
62
256
6
ByLayer
370
13
48
1
60
0
100
AcDbEllipse
10
272.518224
20
19.657075
30
0
11
0.523359562429289
21
-9.98629534754575
31
0
210
0
220
0
230
1
40
0.995562
41
-5.96902217115591E-07
42
0.317924582301093
0
ELLIPSE
5
23A
100
AcDbEntity
8
1
62
256
6
ByLayer
370
13
48
1
60
0
100
AcDbEllipse
10
264
20
8.853423
30
0
11
-4
21
4.04255622032945E-15
31
0
210
0
220
0
230
1
40
0.761268
41
-3.10400908439544
42
-1.70042538475559
0
ELLIPSE
5
23B
100
AcDbEntity
8
1
62
256
6
ByLayer
370
13
48
1
60
0
100
AcDbEllipse
10
290.1577
20
14.725771
30
0
11
-0.0945522972732847
21
3.09909421186832
31
0
210
0
220
0
230
1
40
0.525405
41
2.84404983556865
42
3.12127863172747
0
ELLIPSE
5
23C
100
AcDbEntity
8
1
62
256
6
ByLayer
370
13
48
1
60
0
100
AcDbEllipse
10
272.477154
20
0
30
0
11
-1.62406536573867
21
30.7121174091573
31
0
210
0
220
0
230
1
40
0.094396
41
-0.0990828350293572
42
-0.00499254984432915
0
ELLIPSE
5
23D
100
AcDbEntity
8
1
62
256
6
ByLayer
370
13
48
1
60
0
100
AcDbEllipse
10
295.713316
20
0.718134
30
0
11
-6.03298565108933
21
-0.0275327004853039
31
0
210
0
220
0
230
1
40
0.989551
41
0.0308108496247685
42
0.151714933160918
0
ELLIPSE
5
23E
100
AcDbEntity
8
1
62
256
6
ByLayer
370
13
48
1
60
0
100
AcDbEllipse
10
279.152433
20
11.996059
30
0
11
0.0523359562429289
21
-0.998629534754575
31
0
210
0
220
0
230
1
40
0.094108
41
-1.5707963267949
42
0
0
ELLIPSE
5
23F
100
AcDbEntity
8
1
62
256
6
ByLayer
370
13
48
1
60
0
100
AcDbEllipse
10
272.586953
20
13.384351
30
0
11
-1.9720093949411
21
-2.45265019115048
31
0
210
0
220
0
230
1
40
0.965978
41
1.55736417402675
42
1.84422629021629
0
ELLIPSE
5
240
100
AcDbEntity
8
1
62
256
6
ByLayer
370
13
48
1
60
0
100
AcDbEllipse
10
290.313043
20
10.965603
30
0
11
-0.00924155728683673
21
0.500198664296164
31
0
210
0
220
0
230
1
40
0.105125
41
1.92342580240102
42
-2.78896317798637
0
ELLIPSE
5
241
100
AcDbEntity
8
1
62
256
6
ByLayer
370
13
48
1
60
0
100
AcDbEllipse
10
303.317733
20
-4E-06
30
0
11
-322.017230206613
21
0.151733355952599
31
0
210
0
220
0
230
1
40
0.094396
41
-1.45316259254052
42
-1.42788870088023
0
ELLIPSE
5
242
100
AcDbEntity
8
1
62
256
6
ByLayer
370
13
48
1
60
0
100
AcDbEllipse
10
285.032672
20
-8.921281
30
0
11
-6.0329856457693
21
-0.0275326909057686
31
0
210
0
220
0
230
1
40
0.989551
41
3.00688424393534
42
-2.98987771879405
0
ELLIPSE
5
243
100
AcDbEntity
8
1
62
256
6
ByLayer
370
13
48
1
60
0
100
AcDbEllipse
10
272.424245
20
19.65215
30
0
11
-0.471023606186443
21
8.98766581279117
31
0
210
0
220
0
230
1
40
0.995562
41
2.79252680319575
42
2.96271820098502
0
ELLIPSE
5
244
100
AcDbEntity
8
1
62
256
6
ByLayer
370
13
48
1
60
0
100
AcDbEllipse
10
1068.661556
20
0
30
0
11
-1215.63531908159
21
22.6593086046478
31
0
210
0
220
0
230
1
40
0.017054
41
0.85269853895057
42
0.873370228818803
0
ELLIPSE
5
245
100
AcDbEntity
8
1
62
256
6
ByLayer
370
13
48
1
60
0
100
AcDbEllipse
10
276.175737
20
12.040331
30
0
11
-0.0261679781214689
21
0.499314767377287
31
0
210
0
220
0
230
1
40
0.995562
41
0.927295216956233
42
1.13183444118531
0
ELLIPSE
5
246
100
AcDbEntity
8
1
62
256
6
ByLayer
370
13
48
1
60
0
100
AcDbEllipse
10
271.847889
20
13.345618
30
0
11
-2.74310165100043
21
2.20554168948751
31
0
210
0
220
0
230
1
40
0.772244
41
3.13694524744394
42
-2.7754804797678
0
ELLIPSE
5
247
100
AcDbEntity
8
1
62
256
6
ByLayer
370
13
48
1
60
0
100
AcDbEllipse
10
280.798362
20
-7.96061
30
0
11
-2.10000000000001
21
2.12234201567297E-15
31
0
210
0
220
0
230
1
40
0.995002
41
-2.71021261217629
42
-0.440411686474051
0
ELLIPSE
5
248
100
AcDbEntity
8
1
62
256
6
ByLayer
370
13
48
1
60
0
100
AcDbEllipse
10
290.175075
20
0.13137
30
0
11
-0.0104005677184759
21
0.505573019844163
31
0
210
0
220
0
230
1
40
0.102387
41
-0.114732930596145
42
0.293389312284043
0
ELLIPSE
5
249
100
AcDbEntity
8
1
62
256
6
ByLayer
370
13
48
1
60
0
100
AcDbEllipse
10
303.317577
20
0.000138
30
0
11
-325.353432894657
21
0.153290644314325
31
0
210
0
220
0
230
1
40
0.094396
41
-1.47171373221693
42
-1.46365298836857
0
ELLIPSE
5
24A
100
AcDbEntity
8
1
62
256
6
ByLayer
370
13
48
1
60
0
100
AcDbEllipse
10
287.60901
20
12.639524
30
0
11
-0.0261679781214691
21
0.499314767377289
31
0
210
0
220
0
230
1
40
0.995562
41
-0.998377754701857
42
-0.9272952180013
0
ELLIPSE
5
24B
100
AcDbEntity
8
1
62
256
6
ByLayer
370
13
48
1
60
0
100
AcDbEllipse
10
280.541145
20
12.269112
30
0
11
-4.04277876461181
21
-0.708917706824555
31
0
210
0
220
0
230
1
40
0.014774
41
-3.02036303297196
42
-2.68601592162631
0
ELLIPSE
5
24C
100
AcDbEntity
8
1
62
256
6
ByLayer
370
13
48
1
60
0
100
AcDbEllipse
10
279.728129
20
1.011134
30
0
11
-0.523359562429378
21
9.98629534754574
31
0
210
0
220
0
230
1
40
0.995562
41
0
42
0.317924582301106
0
ELLIPSE
5
24D
100
AcDbEntity
8
1
62
256
6
ByLayer
370
13
48
1
60
0
100
AcDbEllipse
10
290.130223
20
0
30
0
11
-5.20226855179127
21
30.7092077618175
31
0
210
0
220
0
230
1
40
0.086442
41
1.59973653482079
42
1.73707451876404
0
ELLIPSE
5
24E
100
AcDbEntity
8
1
62
256
6
ByLayer
370
13
48
1
60
0
100
AcDbEllipse
10
264
20
7.408946
30
0
11
-5.78174367860973
21
2.05345033185124
31
0
210
0
220
0
230
1
40
0.780915
41
1.43000227167226
42
1.75259137690862
0
ELLIPSE
5
24F
100
AcDbEntity
8
1
62
256
6
ByLayer
370
13
48
1
60
0
100
AcDbEllipse
10
272.424245
20
19.65215
30
0
11
-0.471023606186443
21
8.98766581279117
31
0
210
0
220
0
230
1
40
0.995562
41
-2.9294690179611
42
-2.82366807128871
0
ELLIPSE
5
250
100
AcDbEntity
8
1
62
256
6
ByLayer
370
13
48
1
60
0
100
AcDbEllipse
10
306.959216
20
17.098974
30
0
11
-25.3790635056888
21
-4.45240932245622
31
0
210
0
220
0
230
1
40
0.014711
41
0.448738178668492
42
0.452855144656612
0
ELLIPSE
5
251
100
AcDbEntity
8
1
62
256
6
ByLayer
370
13
48
1
60
0
100
AcDbEllipse
10
272.883294
20
21.019133
30
0
11
0.162241464353079
21
-3.09575155773918
31
0
210
0
220
0
230
1
40
0.995562
41
-2.23430559079021
42
-1.46607657167523
0
ELLIPSE
5
252
100
AcDbEntity
8
1
62
256
6
ByLayer
370
13
48
1
60
0
100
AcDbEllipse
10
279.634149
20
1.006209
30
0
11
0.575695518672216
21
-10.9849248823003
31
0
210
0
220
0
230
1
40
0.995562
41
3.14159265358979
42
-2.82366807128869
0
ELLIPSE
5
253
100
AcDbEntity
8
1
62
256
6
ByLayer
370
13
48
1
60
0
100
AcDbEllipse
10
304.539264
20
0
30
0
11
-61.1161202902819
21
25.440292117044
31
0
210
0
220
0
230
1
40
0.272224
41
0.831088243202391
42
0.957760494207121
0
ELLIPSE
5
254
100
AcDbEntity
8
1
62
256
6
ByLayer
370
13
48
1
60
0
100
AcDbEllipse
10
289.69297
20
12.548465
30
0
11
-0.0184831145925943
21
1.00039732896643
31
0
210
0
220
0
230
1
40
0.105125
41
-3.13802902838431
42
-2.49979748377881
0
ELLIPSE
5
255
100
AcDbEntity
8
1
62
256
6
ByLayer
370
13
48
1
60
0
100
AcDbEllipse
10
272.090465
20
11.826231
30
0
11
-4.04277875953171
21
-0.708917705911997
31
0
210
0
220
0
230
1
40
0.014774
41
-3.02036303277831
42
-2.66133983548929
0
ELLIPSE
5
256
100
AcDbEntity
8
1
62
256
6
ByLayer
370
13
48
1
60
0
100
AcDbEllipse
10
290.515532
20
14.744524
30
0
11
0.162241464353079
21
-3.09575155773918
31
0
210
0
220
0
230
1
40
0.995562
41
-0.998377754702095
42
-0.804393367027712
0
ELLIPSE
5
257
100
AcDbEntity
8
1
62
256
6
ByLayer
370
13
48
1
60
0
100
AcDbEllipse
10
269.900521
20
11.051047
30
0
11
-0.293740802135514
21
-0.955885108766104
31
0
210
0
220
0
230
1
40
0.088433
41
-1.53847716189229
42
-7.17550738991392E-06
0
ELLIPSE
5
258
100
AcDbEntity
8
1
62
256
6
ByLayer
370
13
48
1
60
0
100
AcDbEllipse
10
226.705146
20
0
30
0
11
-325.354173190651
21
0.153305242515276
31
0
210
0
220
0
230
1
40
0.094396
41
-1.75919204882577
42
-1.70993834512583
0
ELLIPSE
5
259
100
AcDbEntity
8
1
62
256
6
ByLayer
370
13
48
1
60
0
100
AcDbEllipse
10
283.067166
20
15.806162
30
0
11
-1.97200940140941
21
-2.45265018753682
31
0
210
0
220
0
230
1
40
0.965978
41
0.712391851282181
42
1.04314259908132
0
ELLIPSE
5
25A
100
AcDbEntity
8
1
62
256
6
ByLayer
370
13
48
1
60
0
100
AcDbEllipse
10
270.095321
20
15.695665
30
0
11
-0.0261679781214691
21
0.499314767377288
31
0
210
0
220
0
230
1
40
0.995562
41
-2.31498441521977
42
-1.46607657167532
0
ELLIPSE
5
25B
100
AcDbEntity
8
1
62
256
6
ByLayer
370
13
48
1
60
0
100
AcDbEllipse
10
288.894724
20
-19.48423
30
0
11
-0.29687377566893
21
-2.49743379168489
31
0
210
0
220
0
230
1
40
0.116188
41
0
42
6.28318530717959
0
ELLIPSE
5
25C
100
AcDbEntity
8
1
62
256
6
ByLayer
370
13
48
1
60
0
100
AcDbEllipse
10
272.179224
20
13.362982
30
0
11
-0.136073486231638
21
2.59643679036189
31
0
210
0
220
0
230
1
40
0.995562
41
2.40144888609819
42
2.97998013990122
0
ELLIPSE
5
25D
100
AcDbEntity
8
1
62
256
6
ByLayer
370
13
48
1
60
0
100
AcDbEllipse
10
272.179224
20
13.362982
30
0
11
-0.136073486231638
21
2.59643679036189
31
0
210
0
220
0
230
1
40
0.995562
41
-2.68543658663365
42
-2.07675099364106
0
ELLIPSE
5
25E
100
AcDbEntity
8
1
62
256
6
ByLayer
370
13
48
1
60
0
100
AcDbEllipse
10
290.279229
20
0.140283
30
0
11
-0.0208011354535568
21
1.0111460404014
31
0
210
0
220
0
230
1
40
0.102387
41
-0.114732930556056
42
1.06840315591324
0
ELLIPSE
5
25F
100
AcDbEntity
8
1
62
256
6
ByLayer
370
13
48
1
60
0
100
AcDbEllipse
10
290.440778
20
11.999766
30
0
11
-0.0190934195945816
21
-0.501606840107718
31
0
210
0
220
0
230
1
40
0.197189
41
-0.688891549972867
42
-0.33119194413186
0
ELLIPSE
5
260
100
AcDbEntity
8
1
62
256
6
ByLayer
370
13
48
1
60
0
100
AcDbEllipse
10
275.762681
20
11.266401
30
0
11
0.363113722374463
21
-0.931744828063651
31
0
210
0
220
0
230
1
40
0.089392
41
-1.60033673645357
42
-0.0295404096585972
0
ELLIPSE
5
261
100
AcDbEntity
8
1
62
256
6
ByLayer
370
13
48
1
60
0
100
AcDbEllipse
10
289.956018
20
-18.143404
30
0
11
-0.0643567076292553
21
-0.516047975156726
31
0
210
0
220
0
230
1
40
0.112409
41
-1.63723849534605
42
-0.0664421685524179
0
POINT
5
70
100
AcDbEntity
8
1
62
256
6
ByLayer
370
18
48
1
60
0
100
AcDbPoint
10
0
20
0
30
0
39
0
210
0
220
0
230
1
50
360
0
POINT
5
72
100
AcDbEntity
8
80
62
256
6
ByLayer
370
18
48
1
60
0
100
AcDbPoint
10
0
20
0
30
0
39
0
210
0
220
0
230
1
50
360
0
POINT
5
74
100
AcDbEntity
8
81
62
256
6
ByLayer
370
18
48
1
60
0
100
AcDbPoint
10
292
20
0
30
0
39
0
210
0
220
0
230
1
50
360
0
POINT
5
76
100
AcDbEntity
8
1
62
256
6
ByLayer
370
18
48
1
60
1
100
AcDbPoint
10
0
20
-31.25
30
0
39
0
210
0
220
0
230
1
50
360
0
POINT
5
77
100
AcDbEntity
8
1
62
256
6
ByLayer
370
18
48
1
60
1
100
AcDbPoint
10
292
20
-31.5
30
0
39
0
210
0
220
0
230
1
50
360
0
POINT
5
78
100
AcDbEntity
8
1
62
256
6
ByLayer
370
18
48
1
60
1
100
AcDbPoint
10
-80
20
-25
30
0
39
0
210
0
220
0
230
1
50
360
0
POINT
5
79
100
AcDbEntity
8
1
62
256
6
ByLayer
370
18
48
1
60
1
100
AcDbPoint
10
0
20
-31.25
30
0
39
0
210
0
220
0
230
1
50
360
0
POINT
5
7A
100
AcDbEntity
8
1
62
256
6
ByLayer
370
18
48
1
60
1
100
AcDbPoint
10
292
20
-31.5
30
0
39
0
210
0
220
0
230
1
50
360
0
POINT
5
7B
100
AcDbEntity
8
1
62
256
6
ByLayer
370
18
48
1
60
1
100
AcDbPoint
10
5.8124
20
-31.25
30
0
39
0
210
0
220
0
230
1
50
360
0
POINT
5
7C
100
AcDbEntity
8
1
62
256
6
ByLayer
370
18
48
1
60
1
100
AcDbPoint
10
35
20
-31.5
30
0
39
0
210
0
220
0
230
1
50
360
0
POINT
5
7D
100
AcDbEntity
8
1
62
256
6
ByLayer
370
18
48
1
60
1
100
AcDbPoint
10
292
20
-31.5
30
0
39
0
210
0
220
0
230
1
50
360
0
POINT
5
7E
100
AcDbEntity
8
1
62
256
6
ByLayer
370
18
48
1
60
1
100
AcDbPoint
10
290.4109
20
-15.75
30
0
39
0
210
0
220
0
230
1
50
360
0
SPLINE
5
262
100
AcDbEntity
8
SK1
62
256
6
ByLayer
370
13
48
1
60
0
100
AcDbSpline
70
4
71
3
72
8
73
4
40
0
40
0
40
0
40
0
40
1
40
1
40
1
40
1
41
1
10
-79
20
-10.6704826507519
30
0
41
1
10
-79.3663118043068
20
-9.81238370995035
30
0
41
1
10
-79.7021882940637
20
-8.9413126460914
30
0
41
1
10
-80
20
-8.05401763097143
30
0
0
SPLINE
5
263
100
AcDbEntity
8
1
62
256
6
ByLayer
370
18
48
1
60
0
100
AcDbSpline
70
4
71
3
72
16
73
12
40
0
40
0
40
0
40
0
40
0.249999999999931
40
0.249999999999931
40
0.499999999999862
40
0.499999999999862
40
0.749999999999794
40
0.749999999999794
40
0.874999999999897
40
0.874999999999897
40
1
40
1
40
1
40
1
41
1
10
280.130942374233
20
22.4634200844413
30
0
41
1
10
280.167888083678
20
22.4875143149401
30
0
41
1
10
280.206723307933
20
22.5086372553845
30
0
41
1
10
280.287376517488
20
22.5433582832614
30
0
41
1
10
280.329159266428
20
22.5570444316581
30
0
41
1
10
280.414240543032
20
22.5720010242378
30
0
41
1
10
280.457745823116
20
22.5736677362811
30
0
41
1
10
280.515756862153
20
22.5548954923812
30
0
41
1
10
280.533217353179
20
22.544754155814
30
0
41
1
10
280.558615282611
20
22.5167638068975
30
0
41
1
10
280.566344607205
20
22.4990486885684
30
0
41
1
10
280.5689669195
20
22.4799719364595
30
0
0
SPLINE
5
264
100
AcDbEntity
8
1
62
256
6
ByLayer
370
18
48
1
60
0
100
AcDbSpline
70
4
71
3
72
18
73
14
40
0
40
0
40
0
40
0
40
0.125
40
0.125
40
0.25
40
0.25
40
0.5
40
0.5
40
0.75
40
0.75
40
0.875
40
0.875
40
1
40
1
40
1
40
1
41
1
10
280.041973558792
20
19.9622235465613
30
0
41
1
10
280.054119530704
20
19.9909109423772
30
0
41
1
10
280.056595639897
20
20.0239454890786
30
0
41
1
10
280.051994819127
20
20.0912925276781
30
0
41
1
10
280.044726701382
20
20.1254893221818
30
0
41
1
10
280.013936404288
20
20.2267519880135
30
0
41
1
10
279.98151539874
20
20.2927938021831
30
0
41
1
10
279.902658290759
20
20.4147135364248
30
0
41
1
10
279.856416181565
20
20.4704003227951
30
0
41
1
10
279.778048431653
20
20.5378165720664
30
0
41
1
10
279.750402415977
20
20.5575231674069
30
0
41
1
10
279.692522889423
20
20.5869038808281
30
0
41
1
10
279.662302614252
20
20.5968280653985
30
0
41
1
10
279.632157802695
20
20.595950305234
30
0
0
SPLINE
5
265
100
AcDbEntity
8
1
62
256
6
ByLayer
370
18
48
1
60
0
100
AcDbSpline
70
4
71
3
72
18
73
14
40
0
40
0
40
0
40
0
40
0.124999999999996
40
0.124999999999996
40
0.249999999999992
40
0.249999999999992
40
0.499999999999991
40
0.499999999999991
40
0.74999999999999
40
0.74999999999999
40
0.874999999999995
40
0.874999999999995
40
1
40
1
40
1
40
1
41
1
10
282.426770109632
20
21.5174741738068
30
0
41
1
10
282.393280638529
20
21.5164215001548
30
0
41
1
10
282.360047969452
20
21.5262099110121
30
0
41
1
10
282.296897293633
20
21.5554636750916
30
0
41
1
10
282.267182824586
20
21.5750684374697
30
0
41
1
10
282.183816470686
20
21.6421889869257
30
0
41
1
10
282.135632487232
20
21.698055328068
30
0
41
1
10
282.056795670404
20
21.8201515083858
30
0
41
1
10
282.026369829482
20
21.8859468557392
30
0
41
1
10
282.000785310678
20
21.9869971325314
30
0
41
1
10
281.995609726893
20
22.0214883138226
30
0
41
1
10
281.996028779963
20
22.0886370637339
30
0
41
1
10
282.001385459357
20
22.1221570846864
30
0
41
1
10
282.016954353535
20
22.1512009324795
30
0
0
SPLINE
5
266
100
AcDbEntity
8
1
62
256
6
ByLayer
370
18
48
1
60
0
100
AcDbSpline
70
4
71
3
72
16
73
12
40
0
40
0
40
0
40
0
40
0.12500000000008
40
0.12500000000008
40
0.25000000000016
40
0.25000000000016
40
0.500000000000106
40
0.500000000000106
40
0.750000000000053
40
0.750000000000053
40
1
40
1
40
1
40
1
41
1
10
282.488180878845
20
20.7460675118016
30
0
41
1
10
282.507528113768
20
20.7397685300938
30
0
41
1
10
282.528320760924
20
20.7386408693728
30
0
41
1
10
282.568135799656
20
20.7487120888592
30
0
41
1
10
282.586979886049
20
20.7598765842057
30
0
41
1
10
282.634626218996
20
20.8027064214564
30
0
41
1
10
282.656108360969
20
20.842089376715
30
0
41
1
10
282.687322985055
20
20.9245095539885
30
0
41
1
10
282.69690951314
20
20.9680584557736
30
0
41
1
10
282.707909221677
20
21.0559155612892
30
0
41
1
10
282.709247753615
20
21.1004606508634
30
0
41
1
10
282.706933215018
20
21.1446246781925
30
0
0
SPLINE
5
267
100
AcDbEntity
8
1
62
256
6
ByLayer
370
18
48
1
60
0
100
AcDbSpline
70
4
71
3
72
8
73
4
40
0
40
0
40
0
40
0
40
1
40
1
40
1
40
1
41
1
10
279.932977913372
20
22.0419843551724
30
0
41
1
10
279.929830466663
20
22.0476748275353
30
0
41
1
10
279.926683633831
20
22.0533645551606
30
0
41
1
10
279.923537391602
20
22.0590535659796
30
0
0
SPLINE
5
268
100
AcDbEntity
8
1
62
256
6
ByLayer
370
18
48
1
60
0
100
AcDbSpline
70
4
71
3
72
16
73
12
40
0
40
0
40
0
40
0
40
0.124999999999997
40
0.124999999999997
40
0.249999999999994
40
0.249999999999994
40
0.499999999999996
40
0.499999999999996
40
0.749999999999998
40
0.749999999999998
40
1
40
1
40
1
40
1
41
1
10
281.340750460537
20
22.5204193979324
30
0
41
1
10
281.343460735676
20
22.5398473104225
30
0
41
1
10
281.351472391609
20
22.5584837900977
30
0
41
1
10
281.377872808966
20
22.5892989765922
30
0
41
1
10
281.396154161762
20
22.6013336662462
30
0
41
1
10
281.455607577007
20
22.6259053865677
30
0
41
1
10
281.500607292203
20
22.6289214739624
30
0
41
1
10
281.588913933
20
22.6230562738244
30
0
41
1
10
281.63261738297
20
22.6138477937852
30
0
41
1
10
281.717259513298
20
22.58782647328
30
0
41
1
10
281.758380503305
20
22.5708531662851
30
0
41
1
10
281.797615199911
20
22.5507667060265
30
0
0
SPLINE
5
269
100
AcDbEntity
8
1
62
256
6
ByLayer
370
18
48
1
60
0
100
AcDbSpline
70
4
71
3
72
8
73
4
40
0
40
0
40
0
40
0
40
1
40
1
40
1
40
1
41
1
10
280.728643845485
20
19.6106781895819
30
0
41
1
10
280.725848910192
20
19.604822769222
30
0
41
1
10
280.723054542004
20
19.5989681360569
30
0
41
1
10
280.720260719401
20
19.5931142605375
30
0
0
SPLINE
5
26A
100
AcDbEntity
8
1
62
256
6
ByLayer
370
18
48
1
60
0
100
AcDbSpline
70
4
71
3
72
8
73
4
40
0
40
0
40
0
40
0
40
1
40
1
40
1
40
1
41
1
10
279.572830301093
20
21.3674661466683
30
0
41
1
10
279.579102416251
20
21.3679412952014
30
0
41
1
10
279.585375521301
20
21.3684165143183
30
0
41
1
10
279.591649655083
20
21.368891806784
30
0
0
SPLINE
5
26B
100
AcDbEntity
8
1
62
256
6
ByLayer
370
18
48
1
60
0
100
AcDbSpline
70
4
71
3
72
8
73
4
40
0
40
0
40
0
40
0
40
1
40
1
40
1
40
1
41
1
10
282.026642208376
20
22.1692726190261
30
0
41
1
10
282.023413150011
20
22.1632494928608
30
0
41
1
10
282.020183867889
20
22.1572256072102
30
0
41
1
10
282.016954353535
20
22.1512009324796
30
0
0
SPLINE
5
26C
100
AcDbEntity
8
1
62
256
6
ByLayer
370
18
48
1
60
0
100
AcDbSpline
70
4
71
3
72
20
73
16
40
0
40
0
40
0
40
0
40
0.124999999999978
40
0.124999999999978
40
0.249999999999957
40
0.249999999999957
40
0.374999999999935
40
0.374999999999935
40
0.499999999999914
40
0.499999999999914
40
0.749999999999957
40
0.749999999999957
40
0.874999999999978
40
0.874999999999978
40
1
40
1
40
1
40
1
41
1
10
282.125949998954
20
20.0714401238683
30
0
41
1
10
282.107464932066
20
20.0986467726115
30
0
41
1
10
282.09860243763
20
20.1313288913947
30
0
41
1
10
282.091134339819
20
20.1985917918508
30
0
41
1
10
282.092697118066
20
20.2330538452385
30
0
41
1
10
282.102670361392
20
20.3020792204446
30
0
41
1
10
282.111226002272
20
20.3367371408263
30
0
41
1
10
282.133501051587
20
20.4040474152788
30
0
41
1
10
282.147296483195
20
20.4370718984626
30
0
41
1
10
282.196506972891
20
20.5343452388697
30
0
41
1
10
282.238581297132
20
20.5949959632887
30
0
41
1
10
282.314642702759
20
20.670629261751
30
0
41
1
10
282.342223428129
20
20.6932674654682
30
0
41
1
10
282.401848798
20
20.7288681761237
30
0
41
1
10
282.433841232014
20
20.7420774358721
30
0
41
1
10
282.467278257244
20
20.7445326722568
30
0
0
SPLINE
5
26D
100
AcDbEntity
8
1
62
256
6
ByLayer
370
18
48
1
60
0
100
AcDbSpline
70
4
71
3
72
8
73
4
40
0
40
0
40
0
40
0
40
1
40
1
40
1
40
1
41
1
10
281.330284066841
20
22.5027462894588
30
0
41
1
10
281.333773128153
20
22.508638087422
30
0
41
1
10
281.337261922796
20
22.5145291139354
30
0
41
1
10
281.340750460537
20
22.5204193979324
30
0
0
SPLINE
5
26E
100
AcDbEntity
8
1
62
256
6
ByLayer
370
18
48
1
60
0
100
AcDbSpline
70
4
71
3
72
8
73
4
40
0
40
0
40
0
40
0
40
1
40
1
40
1
40
1
41
1
10
281.492044260438
20
19.6335617220105
30
0
41
1
10
281.487959130938
20
19.6390550869264
30
0
41
1
10
281.483873668328
20
19.6445491634375
30
0
41
1
10
281.479787859872
20
19.6500439792977
30
0
0
SPLINE
5
26F
100
AcDbEntity
8
1
62
256
6
ByLayer
370
18
48
1
60
0
100
AcDbSpline
70
4
71
3
72
8
73
4
40
0
40
0
40
0
40
0
40
1
40
1
40
1
40
1
41
1
10
282.125949998954
20
20.0714401238683
30
0
41
1
10
282.129791571682
20
20.0657860291087
30
0
41
1
10
282.133632830969
20
20.0601326948317
30
0
41
1
10
282.137473788336
20
20.0544800924904
30
0
0
SPLINE
5
270
100
AcDbEntity
8
1
62
256
6
ByLayer
370
18
48
1
60
0
100
AcDbSpline
70
4
71
3
72
8
73
4
40
0
40
0
40
0
40
0
40
1
40
1
40
1
40
1
41
1
10
282.447718658904
20
21.5181326611878
30
0
41
1
10
282.440736521365
20
21.517913183771
30
0
41
1
10
282.433753680662
20
21.5176936882087
30
0
41
1
10
282.426770109632
20
21.5174741738068
30
0
0
SPLINE
5
271
100
AcDbEntity
8
1
62
256
6
ByLayer
370
18
48
1
60
0
100
AcDbSpline
70
4
71
3
72
16
73
12
40
0
40
0
40
0
40
0
40
0.250000000000003
40
0.250000000000003
40
0.500000000000006
40
0.500000000000006
40
0.750000000000009
40
0.750000000000009
40
0.875000000000005
40
0.875000000000005
40
1
40
1
40
1
40
1
41
1
10
279.373587563661
20
20.9699314350222
30
0
41
1
10
279.371271423236
20
21.0141260270715
30
0
41
1
10
279.372407501276
20
21.0585603375268
30
0
41
1
10
279.382520446237
20
21.1464704825523
30
0
41
1
10
279.391407291943
20
21.189954305657
30
0
41
1
10
279.420383506409
20
21.2724290827232
30
0
41
1
10
279.44024721615
20
21.3117785203476
30
0
41
1
10
279.484290198764
20
21.3545857539365
30
0
41
1
10
279.501300020746
20
21.3654064013429
30
0
41
1
10
279.537082904702
20
21.3750997402766
30
0
41
1
10
279.555641302417
20
21.3738510524229
30
0
41
1
10
279.572830301093
20
21.3674661466683
30
0
0
SPLINE
5
272
100
AcDbEntity
8
1
62
256
6
ByLayer
370
18
48
1
60
0
100
AcDbSpline
70
4
71
3
72
8
73
4
40
0
40
0
40
0
40
0
40
1
40
1
40
1
40
1
41
1
10
280.034368971562
20
19.9442610394438
30
0
41
1
10
280.036903314789
20
19.9502477571315
30
0
41
1
10
280.039438170456
20
19.9562352494338
30
0
41
1
10
280.041973558792
20
19.9622235465613
30
0
0
SPLINE
5
273
100
AcDbEntity
8
1
62
256
6
ByLayer
370
18
48
1
60
0
100
AcDbSpline
70
4
71
3
72
8
73
4
40
0
40
0
40
0
40
0
40
1
40
1
40
1
40
1
41
1
10
282.467278257244
20
20.7445326722568
30
0
41
1
10
282.474246517044
20
20.7450443423257
30
0
41
1
10
282.481214048549
20
20.745555954791
30
0
41
1
10
282.488180878845
20
20.7460675118016
30
0
0
SPLINE
5
274
100
AcDbEntity
8
1
62
256
6
ByLayer
370
18
48
1
60
0
100
AcDbSpline
70
4
71
3
72
8
73
4
40
0
40
0
40
0
40
0
40
1
40
1
40
1
40
1
41
1
10
280.5689669195
20
22.4799719364595
30
0
41
1
10
280.572357333862
20
22.474442163066
30
0
41
1
10
280.575748370017
20
22.4689116932065
30
0
41
1
10
280.579140052454
20
22.4633804997431
30
0
0
SPLINE
5
275
100
AcDbEntity
8
1
62
256
6
ByLayer
370
18
48
1
60
0
100
AcDbSpline
70
4
71
3
72
16
73
12
40
0
40
0
40
0
40
0
40
0.12500000000001
40
0.12500000000001
40
0.250000000000019
40
0.250000000000019
40
0.500000000000013
40
0.500000000000013
40
0.750000000000006
40
0.750000000000006
40
1
40
1
40
1
40
1
41
1
10
282.137473788336
20
20.0544800924904
30
0
41
1
10
282.154393389677
20
20.0433938655597
30
0
41
1
10
282.168006368874
20
20.0281080421733
30
0
41
1
10
282.184169888393
20
19.9915389353636
30
0
41
1
10
282.186640306172
20
19.9704148812956
30
0
41
1
10
282.181086510712
20
19.9083351216012
30
0
41
1
10
282.162365948466
20
19.8684391423506
30
0
41
1
10
282.114877928212
20
19.7956592676007
30
0
41
1
10
282.085604704618
20
19.7625775106216
30
0
41
1
10
282.021533503406
20
19.7023962726213
30
0
41
1
10
281.986498562457
20
19.675213595844
30
0
41
1
10
281.949578404447
20
19.6511360287734
30
0
0
SPLINE
5
276
100
AcDbEntity
8
1
62
256
6
ByLayer
370
18
48
1
60
0
100
AcDbSpline
70
4
71
3
72
16
73
12
40
0
40
0
40
0
40
0
40
0.125000000000017
40
0.125000000000017
40
0.250000000000034
40
0.250000000000034
40
0.500000000000023
40
0.500000000000023
40
0.750000000000011
40
0.750000000000011
40
1
40
1
40
1
40
1
41
1
10
279.923537391602
20
22.0590535659796
30
0
41
1
10
279.908711891487
20
22.0702495401051
30
0
41
1
10
279.897226442117
20
22.085646862605
30
0
41
1
10
279.884891482587
20
22.1224166157416
30
0
41
1
10
279.884108877842
20
22.1436291243426
30
0
41
1
10
279.893737396034
20
22.2059224312066
30
0
41
1
10
279.914054063493
20
22.245902058787
30
0
41
1
10
279.963861561669
20
22.3188034922238
30
0
41
1
10
279.993823014291
20
22.3519213177579
30
0
41
1
10
280.058790035318
20
22.4121495036854
30
0
41
1
10
280.094022216223
20
22.4393425173707
30
0
41
1
10
280.130942374233
20
22.4634200844413
30
0
0
SPLINE
5
277
100
AcDbEntity
8
1
62
256
6
ByLayer
370
18
48
1
60
0
100
AcDbSpline
70
4
71
3
72
18
73
14
40
0
40
0
40
0
40
0
40
0.125
40
0.125
40
0.25
40
0.25
40
0.5
40
0.5
40
0.75
40
0.75
40
0.875
40
0.875
40
1
40
1
40
1
40
1
41
1
10
279.591649655083
20
21.368891806784
30
0
41
1
10
279.621706373273
20
21.371168731726
30
0
41
1
10
279.650759011504
20
21.3841997650796
30
0
41
1
10
279.705368342991
20
21.4195701731609
30
0
41
1
10
279.730735245917
20
21.4420291657986
30
0
41
1
10
279.801477950946
20
21.5171181342588
30
0
41
1
10
279.84180102841
20
21.5775357680741
30
0
41
1
10
279.907460822347
20
21.7070426234877
30
0
41
1
10
279.932727396396
20
21.7758628329452
30
0
41
1
10
279.952799747394
20
21.8800031963325
30
0
41
1
10
279.956439009856
20
21.9148479734388
30
0
41
1
10
279.953961033485
20
21.9821474644214
30
0
41
1
10
279.948063376041
20
22.0147103720564
30
0
41
1
10
279.932977913372
20
22.0419843551724
30
0
0
SPLINE
5
278
100
AcDbEntity
8
1
62
256
6
ByLayer
370
18
48
1
60
0
100
AcDbSpline
70
4
71
3
72
18
73
14
40
0
40
0
40
0
40
0
40
0.124999999999978
40
0.124999999999978
40
0.249999999999956
40
0.249999999999956
40
0.499999999999911
40
0.499999999999911
40
0.749999999999867
40
0.749999999999867
40
0.874999999999934
40
0.874999999999934
40
1
40
1
40
1
40
1
41
1
10
280.579140052454
20
22.4633804997431
30
0
41
1
10
280.595388166816
20
22.4368828940227
30
0
41
1
10
280.620492680186
20
22.4168022356026
30
0
41
1
10
280.67716058001
20
22.3846923712801
30
0
41
1
10
280.708737764999
20
22.3728991305952
30
0
41
1
10
280.807720811087
20
22.3465917956906
30
0
41
1
10
280.879596034659
20
22.3409220803426
30
0
41
1
10
281.024114107686
20
22.3485092628897
30
0
41
1
10
281.096487493506
20
22.3616880031186
30
0
41
1
10
281.197483174777
20
22.3985460495262
30
0
41
1
10
281.229829859739
20
22.4137398572665
30
0
41
1
10
281.287768651469
20
22.4517916060228
30
0
41
1
10
281.313561272449
20
22.4745073686935
30
0
41
1
10
281.330284066841
20
22.5027462894588
30
0
0
SPLINE
5
279
100
AcDbEntity
8
1
62
256
6
ByLayer
370
18
48
1
60
0
100
AcDbSpline
70
4
71
3
72
16
73
12
40
0
40
0
40
0
40
0
40
0.124999999999997
40
0.124999999999997
40
0.249999999999995
40
0.249999999999995
40
0.499999999999996
40
0.499999999999996
40
0.749999999999998
40
0.749999999999998
40
1
40
1
40
1
40
1
41
1
10
280.720260719401
20
19.5931142605375
30
0
41
1
10
280.719644545488
20
19.5737960952424
30
0
41
1
10
280.713760419381
20
19.5552711146807
30
0
41
1
10
280.691188562014
20
19.5246565745131
30
0
41
1
10
280.674595022252
20
19.512710339392
30
0
41
1
10
280.61921632974
20
19.4883521662401
30
0
41
1
10
280.575812719756
20
19.4854197271751
30
0
41
1
10
280.489825556882
20
19.4914064860002
30
0
41
1
10
280.446810335939
20
19.5006510345943
30
0
41
1
10
280.363064025426
20
19.5267193030267
30
0
41
1
10
280.322140275375
20
19.5437029469297
30
0
41
1
10
280.282905578769
20
19.5637894071882
30
0
0
SPLINE
5
27A
100
AcDbEntity
8
1
62
256
6
ByLayer
370
18
48
1
60
0
100
AcDbSpline
70
4
71
3
72
16
73
12
40
0
40
0
40
0
40
0
40
0.25
40
0.25
40
0.5
40
0.5
40
0.75
40
0.75
40
0.875
40
0.875
40
1
40
1
40
1
40
1
41
1
10
281.797615199911
20
22.5507667060265
30
0
41
1
10
281.836877049782
20
22.530666344476
30
0
41
1
10
281.874477892118
20
22.507349822577
30
0
41
1
10
281.944569817439
20
22.4541372089628
30
0
41
1
10
281.977122117244
20
22.4243215267622
30
0
41
1
10
282.032064130495
20
22.3567423894662
30
0
41
1
10
282.054909553839
20
22.3190179395891
30
0
41
1
10
282.066816231699
20
22.2573304298275
30
0
41
1
10
282.066428752105
20
22.2363245203449
30
0
41
1
10
282.054139032063
20
22.198541007964
30
0
41
1
10
282.042252053172
20
22.1820191349964
30
0
41
1
10
282.026642208376
20
22.1692726190261
30
0
0
SPLINE
5
27B
100
AcDbEntity
8
1
62
256
6
ByLayer
370
18
48
1
60
0
100
AcDbSpline
70
4
71
3
72
18
73
14
40
0
40
0
40
0
40
0
40
0.125000000000001
40
0.125000000000001
40
0.250000000000002
40
0.250000000000002
40
0.500000000000002
40
0.500000000000002
40
0.750000000000001
40
0.750000000000001
40
0.875
40
0.875
40
1
40
1
40
1
40
1
41
1
10
281.479787859872
20
19.6500439792977
30
0
41
1
10
281.460214481679
20
19.6763673153251
30
0
41
1
10
281.432165936971
20
19.6962936836007
30
0
41
1
10
281.370413532282
20
19.7281370803144
30
0
41
1
10
281.336720675928
20
19.7398194433615
30
0
41
1
10
281.232637717771
20
19.7658595032
30
0
41
1
10
281.159024775319
20
19.7714381485605
30
0
41
1
10
281.014509044511
20
19.7638510887638
30
0
41
1
10
280.943865063843
20
19.7507629828184
30
0
41
1
10
280.847980543296
20
19.7141728009939
30
0
41
1
10
280.81775667198
20
19.6990902452026
30
0
41
1
10
280.764892363344
20
19.6613044388363
30
0
41
1
10
280.742039748872
20
19.6387427553778
30
0
41
1
10
280.728643845485
20
19.6106781895819
30
0
0
SPLINE
5
27C
100
AcDbEntity
8
1
62
256
6
ByLayer
370
18
48
1
60
0
100
AcDbSpline
70
4
71
3
72
16
73
12
40
0
40
0
40
0
40
0
40
0.250000000000064
40
0.250000000000064
40
0.500000000000128
40
0.500000000000128
40
0.750000000000191
40
0.750000000000191
40
0.875000000000096
40
0.875000000000096
40
1
40
1
40
1
40
1
41
1
10
282.706933215018
20
21.1446246781925
30
0
41
1
10
282.704617074593
20
21.1888192702419
30
0
41
1
10
282.69864596216
20
21.2328811086277
30
0
41
1
10
282.678502626059
20
21.3192055891533
30
0
41
1
10
282.664431959361
20
21.3614862600151
30
0
41
1
10
282.624667420151
20
21.4403584868349
30
0
41
1
10
282.599207095646
20
21.4773325924762
30
0
41
1
10
282.54680805363
20
21.5150855137247
30
0
41
1
10
282.52708405031
20
21.5239810229225
30
0
41
1
10
282.486674427879
20
21.5296812817983
30
0
41
1
10
282.46623240689
20
21.5263886686093
30
0
41
1
10
282.447718658904
20
21.5181326611878
30
0
0
SPLINE
5
27D
100
AcDbEntity
8
1
62
256
6
ByLayer
370
18
48
1
60
0
100
AcDbSpline
70
4
71
3
72
16
73
12
40
0
40
0
40
0
40
0
40
0.249999999999926
40
0.249999999999926
40
0.499999999999853
40
0.499999999999853
40
0.749999999999779
40
0.749999999999779
40
0.874999999999889
40
0.874999999999889
40
1
40
1
40
1
40
1
41
1
10
281.949578404447
20
19.6511360287734
30
0
41
1
10
281.912632695002
20
19.6270417982746
30
0
41
1
10
281.873600862987
20
19.6059085540542
30
0
41
1
10
281.792050974888
20
19.571140533246
30
0
41
1
10
281.749581019091
20
19.557418369864
30
0
41
1
10
281.662173644713
20
19.5423398716656
30
0
41
1
10
281.617076070631
20
19.5405897110298
30
0
41
1
10
281.554942274469
20
19.5591458903843
30
0
41
1
10
281.535805486165
20
19.5691993759337
30
0
41
1
10
281.506598025698
20
19.5969900757886
30
0
41
1
10
281.496752889563
20
19.6145943091336
30
0
41
1
10
281.492044260438
20
19.6335617220105
30
0
0
SPLINE
5
27E
100
AcDbEntity
8
1
62
256
6
ByLayer
370
18
48
1
60
0
100
AcDbSpline
70
4
71
3
72
16
73
12
40
0
40
0
40
0
40
0
40
0.25
40
0.25
40
0.5
40
0.5
40
0.75
40
0.75
40
0.875
40
0.875
40
1
40
1
40
1
40
1
41
1
10
280.282905578769
20
19.5637894071882
30
0
41
1
10
280.243643728898
20
19.5838897687387
30
0
41
1
10
280.205846278802
20
19.6071959868617
30
0
41
1
10
280.134857674937
20
19.6603616075446
30
0
41
1
10
280.101618168275
20
19.69014127476
30
0
41
1
10
280.044350057249
20
19.7575985064372
30
0
41
1
10
280.019912339907
20
19.7952395077219
30
0
41
1
10
280.003882904923
20
19.856710952938
30
0
41
1
10
280.002594087239
20
19.8776290114028
30
0
41
1
10
280.011074276246
20
19.9152128747221
30
0
41
1
10
280.020845443596
20
19.9316238627055
30
0
41
1
10
280.034368971562
20
19.9442610394438
30
0
0
SPLINE
5
27F
100
AcDbEntity
8
1
62
256
6
ByLayer
370
18
48
1
60
0
100
AcDbSpline
70
4
71
3
72
16
73
12
40
0
40
0
40
0
40
0
40
0.124999999999996
40
0.124999999999996
40
0.249999999999992
40
0.249999999999992
40
0.499999999999994
40
0.499999999999994
40
0.749999999999997
40
0.749999999999997
40
1
40
1
40
1
40
1
41
1
10
279.613292521034
20
20.5954009972821
30
0
41
1
10
279.596803796393
20
20.5872239325151
30
0
41
1
10
279.578370456003
20
20.5840405248966
30
0
41
1
10
279.541549359111
20
20.5900954147021
30
0
41
1
10
279.523329308087
20
20.5993174609155
30
0
41
1
10
279.475541772401
20
20.6371458210428
30
0
41
1
10
279.45165677727
20
20.6741511853933
30
0
41
1
10
279.41431737361
20
20.7529785983118
30
0
41
1
10
279.400919490776
20
20.7953229381625
30
0
41
1
10
279.381692291382
20
20.8815959185588
30
0
41
1
10
279.375902102258
20
20.925767407693
30
0
41
1
10
279.373587563661
20
20.9699314350222
30
0
0
SPLINE
5
280
100
AcDbEntity
8
1
62
256
6
ByLayer
370
18
48
1
60
0
100
AcDbSpline
70
4
71
3
72
8
73
4
40
0
40
0
40
0
40
0
40
1
40
1
40
1
40
1
41
1
10
279.632157802695
20
20.595950305234
30
0
41
1
10
279.625868357683
20
20.5957671684352
30
0
41
1
10
279.619579943435
20
20.5955840662214
30
0
41
1
10
279.613292521034
20
20.5954009972821
30
0
0
SPLINE
5
281
100
AcDbEntity
8
1
62
256
6
ByLayer
370
18
48
1
60
0
100
AcDbSpline
70
4
71
1
72
4
73
2
40
0
40
0
40
1
40
1
41
1
10
291.915156809551
20
-8.68685578802916
30
0
41
1
10
291.824553116164
20
-8.11766580960614
30
0
0
SPLINE
5
282
100
AcDbEntity
8
1
62
256
6
ByLayer
370
18
48
1
60
0
100
AcDbSpline
70
4
71
3
72
8
73
4
40
0
40
0
40
0
40
0
40
1
40
1
40
1
40
1
41
1
10
290.200063329275
20
-18.7742658124461
30
0
41
1
10
290.16870691115
20
-18.7832121801238
30
0
41
1
10
290.136919473609
20
-18.7902240623823
30
0
41
1
10
290.104701016652
20
-18.7953014592215
30
0
0
SPLINE
5
283
100
AcDbEntity
8
1
62
256
6
ByLayer
370
18
48
1
60
0
100
AcDbSpline
70
4
71
1
72
4
73
2
40
0
40
0
40
1
40
1
41
1
10
290.104701016652
20
-18.7953014592215
30
0
41
1
10
289.998200600041
20
-17.9178814727734
30
0
0
SPLINE
5
284
100
AcDbEntity
8
1
62
256
6
ByLayer
370
18
48
1
60
0
100
AcDbSpline
70
4
71
3
72
8
73
4
40
0
40
0
40
0
40
0
40
1
40
1
40
1
40
1
41
1
10
291.999933060269
20
-9.27208365799513
30
0
41
1
10
292.000436224146
20
-9.31032823607219
30
0
41
1
10
291.998063746243
20
-9.34845096858822
30
0
41
1
10
291.994132053529
20
-9.38650193224242
30
0
0
SPLINE
5
285
100
AcDbEntity
8
1
62
256
6
ByLayer
370
18
48
1
60
0
100
AcDbSpline
70
4
71
1
72
4
73
2
40
0
40
0
40
1
40
1
41
1
10
289.770768049473
20
0.433963332766155
30
0
41
1
10
290.154124004997
20
0.477217320862508
30
0
0
SPLINE
5
286
100
AcDbEntity
8
1
62
256
6
ByLayer
370
18
48
1
60
0
100
AcDbSpline
70
4
71
1
72
4
73
2
40
0
40
0
40
1
40
1
41
1
10
291.971827802825
20
-9.54759423488809
30
0
41
1
10
291.993155758106
20
-9.38640205205112
30
0
0
SPLINE
5
287
100
AcDbEntity
8
1
62
256
6
ByLayer
370
18
48
1
60
0
100
AcDbSpline
70
4
71
2
72
12
73
9
40
0
40
0
40
0
40
0.25
40
0.5
40
0.5
40
0.75
40
0.75
40
0.875
40
1
40
1
40
1
41
1
10
290.10713895113
20
-17.8929724170182
30
0
41
1
10
290.155623071281
20
-17.879139307528
30
0
41
1
10
290.241353049905
20
-17.8249992929513
30
0
41
1
10
290.275618576769
20
-17.7857614575458
30
0
41
1
10
290.308388915877
20
-17.7482357782476
30
0
41
1
10
290.329955610037
20
-17.7008627467403
30
0
41
1
10
290.339971554238
20
-17.6788618950275
30
0
41
1
10
290.354254536065
20
-17.6294935426101
30
0
41
1
10
290.357671578103
20
-17.6036682603859
30
0
0
SPLINE
5
288
100
AcDbEntity
8
1
62
256
6
ByLayer
370
18
48
1
60
0
100
AcDbSpline
70
4
71
2
72
6
73
3
40
0
40
0
40
0
40
1
40
1
40
1
41
1
10
289.998200600041
20
-17.9178814727734
30
0
41
1
10
290.04652828551
20
-17.9102653775041
30
0
41
1
10
290.093562912663
20
-17.8968458260019
30
0
0
SPLINE
5
289
100
AcDbEntity
8
1
62
256
6
ByLayer
370
18
48
1
60
0
100
AcDbSpline
70
4
71
3
72
12
73
8
40
0
40
0
40
0
40
0
40
0.25032094011304
40
0.25032094011304
40
0.500642180987424
40
0.500642180987424
40
1
40
1
40
1
40
1
41
1
10
290.104701016652
20
-18.7953413797713
30
0
41
1
10
290.112756568448
20
-18.7940715991332
30
0
41
1
10
290.120793615907
20
-18.7926795300486
30
0
41
1
10
290.136819285064
20
-18.7896517336781
30
0
41
1
10
290.144809777552
20
-18.7880156520875
30
0
41
1
10
290.168650849052
20
-18.7827540299036
30
0
41
1
10
290.184428971337
20
-18.7787645898541
30
0
41
1
10
290.200063329275
20
-18.7743037714984
30
0
0
SPLINE
5
28A
100
AcDbEntity
8
1
62
256
6
ByLayer
370
18
48
1
60
0
100
AcDbSpline
70
4
71
1
72
4
73
2
40
0
40
0
40
1
40
1
41
1
10
291.854591960286
20
-10.4336379796962
30
0
41
1
10
291.930382905204
20
-9.86082602046019
30
0
0
SPLINE
5
28B
100
AcDbEntity
8
1
62
256
6
ByLayer
370
18
48
1
60
0
100
AcDbSpline
70
4
71
1
72
4
73
2
40
0
40
0
40
1
40
1
41
1
10
291.824553116164
20
-8.11766580960614
30
0
41
1
10
290.566951992613
20
-0.217171584473476
30
0
0
SPLINE
5
28C
100
AcDbEntity
8
1
62
256
6
ByLayer
370
18
48
1
60
0
100
AcDbSpline
70
4
71
1
72
4
73
2
40
0
40
0
40
1
40
1
41
1
10
290.444881431263
20
0.227936911159077
30
0
41
1
10
290.061525475783
20
0.184682923075712
30
0
0
SPLINE
5
28D
100
AcDbEntity
8
1
62
256
6
ByLayer
370
18
48
1
60
0
100
AcDbSpline
70
4
71
3
72
12
73
8
40
0
40
0
40
0
40
0
40
0.5
40
0.5
40
0.75
40
0.75
40
1
40
1
40
1
40
1
41
1
10
290.154124004997
20
0.477179000983085
30
0
41
1
10
290.221249363849
20
0.468323655400212
30
0
41
1
10
290.285500246447
20
0.439432712948047
30
0
41
1
10
290.362472602443
20
0.373583201002106
30
0
41
1
10
290.384884886233
20
0.347838270658997
30
0
41
1
10
290.421266502871
20
0.29111072326171
30
0
41
1
10
290.434727425356
20
0.260041486186395
30
0
41
1
10
290.444881431263
20
0.227897772531804
30
0
0
SPLINE
5
28E
100
AcDbEntity
8
1
62
256
6
ByLayer
370
18
48
1
60
0
100
AcDbSpline
70
4
71
1
72
4
73
2
40
0
40
0
40
1
40
1
41
1
10
291.964700645021
20
-8.99809977365595
30
0
41
1
10
291.915156809551
20
-8.68685578802916
30
0
0
SPLINE
5
28F
100
AcDbEntity
8
1
62
256
6
ByLayer
370
18
48
1
60
0
100
AcDbSpline
70
4
71
3
72
12
73
8
40
0
40
0
40
0
40
0
40
0.500000000000134
40
0.500000000000134
40
0.750000000000067
40
0.750000000000067
40
1
40
1
40
1
40
1
41
1
10
290.802578065258
20
-18.3845751966372
30
0
41
1
10
290.793678275184
20
-18.4513650867736
30
0
41
1
10
290.764643287869
20
-18.515295907706
30
0
41
1
10
290.698462159034
20
-18.5918827098859
30
0
41
1
10
290.672588001874
20
-18.6141830700663
30
0
41
1
10
290.615575764913
20
-18.6503831135304
30
0
41
1
10
290.584350536985
20
-18.6637768350792
30
0
41
1
10
290.552045438333
20
-18.6738801720321
30
0
0
SPLINE
5
290
100
AcDbEntity
8
1
62
256
6
ByLayer
370
18
48
1
60
0
100
AcDbSpline
70
4
71
1
72
4
73
2
40
0
40
0
40
1
40
1
41
1
10
291.930382905204
20
-9.86082602046019
30
0
41
1
10
291.971827802825
20
-9.54759423488809
30
0
0
SPLINE
5
291
100
AcDbEntity
8
1
62
256
6
ByLayer
370
18
48
1
60
0
100
AcDbSpline
70
4
71
1
72
4
73
2
40
0
40
0
40
1
40
1
41
1
10
290.552045438333
20
-18.6738410334042
30
0
41
1
10
290.10713895113
20
-17.8929724170187
30
0
0
SPLINE
5
292
100
AcDbEntity
8
1
62
256
6
ByLayer
370
18
48
1
60
0
100
AcDbSpline
70
4
71
1
72
4
73
2
40
0
40
0
40
1
40
1
41
1
10
290.065418342192
20
0.17117474056414
30
0
41
1
10
290.545810676878
20
-0.122285913694043
30
0
0
SPLINE
5
293
100
AcDbEntity
8
1
62
256
6
ByLayer
370
18
48
1
60
0
100
AcDbSpline
70
4
71
1
72
4
73
2
40
0
40
0
40
1
40
1
41
1
10
290.802578065258
20
-18.3845368767578
30
0
41
1
10
291.854591960286
20
-10.4336379796962
30
0
0
SPLINE
5
294
100
AcDbEntity
8
1
62
256
6
ByLayer
370
18
48
1
60
0
100
AcDbSpline
70
4
71
3
72
9
73
5
40
0
40
0
40
0
40
0
40
0.79031401508474
40
1
40
1
40
1
40
1
41
1
10
291.071090780058
20
-8.82423275119069
30
0
41
1
10
291.071384387128
20
-8.83964897172939
30
0
41
1
10
291.070831445477
20
-8.8594895816054
30
0
41
1
10
291.069026175105
20
-8.88066450303569
30
0
41
1
10
291.068603918913
20
-8.88515140014707
30
0
0
SPLINE
5
295
100
AcDbEntity
8
1
62
256
6
ByLayer
370
18
48
1
60
0
100
AcDbSpline
70
4
71
2
72
7
73
4
40
0
40
0
40
0
40
0.5
40
1
40
1
40
1
41
1
10
291.496924283921
20
-8.99343685091699
30
0
41
1
10
291.50441642362
20
-8.93681284089274
30
0
41
1
10
291.502990374572
20
-8.82200347128315
30
0
41
1
10
291.493919067297
20
-8.76501575916208
30
0
0
SPLINE
5
296
100
AcDbEntity
8
1
62
256
6
ByLayer
370
18
48
1
60
0
100
AcDbSpline
70
4
71
3
72
8
73
4
40
0
40
0
40
0
40
0
40
1
40
1
40
1
40
1
41
1
10
291.991114580224
20
-9.15785676703405
30
0
41
1
10
291.996050494162
20
-9.1957918680209
30
0
41
1
10
291.999429899271
20
-9.23383929872287
30
0
41
1
10
291.999933060269
20
-9.27208365799513
30
0
0
SPLINE
5
297
100
AcDbEntity
8
1
62
256
6
ByLayer
370
18
48
1
60
0
100
AcDbSpline
70
4
71
2
72
6
73
3
40
0
40
0
40
0
40
1
40
1
40
1
41
1
10
290.086559657911
20
0.0762890697872081
30
0
41
1
10
290.078905304496
20
0.124375202878497
30
0
41
1
10
290.065418342192
20
0.171174740564083
30
0
0
SPLINE
5
298
100
AcDbEntity
8
1
62
256
6
ByLayer
370
18
48
1
60
0
100
AcDbSpline
70
4
71
3
72
29
73
25
40
0
40
0
40
0
40
0
40
0.0028990999965088
40
0.0106094381380136
40
0.0260301144210232
40
0.0568714669870425
40
0.118554172119081
40
0.241919582383158
40
0.365284992647236
40
0.426967697779274
40
0.484795233840561
40
0.488650402911313
40
0.496360741052818
40
0.504071079194323
40
0.519491755477332
40
0.550333108043352
40
0.61201581317539
40
0.735381223439467
40
0.858746633703545
40
0.97825687489687
40
0.982112043967622
40
0.989822382109127
40
0.997532720250632
40
1
40
1
40
1
40
1
41
1
10
289.949110457353
20
-17.7223897963431
30
0
41
1
10
289.969948919847
20
-17.7132692955916
30
0
41
1
10
290.045826913751
20
-17.6742685743915
30
0
41
1
10
290.203912298447
20
-17.5231776248483
30
0
41
1
10
290.221436994442
20
-17.1386404286864
30
0
41
1
10
290.32330005276
20
-16.5115713979978
30
0
41
1
10
290.482926719393
20
-15.2091941799997
30
0
41
1
10
290.734168104087
20
-13.3699315558266
30
0
41
1
10
290.972399151132
20
-11.5235349807559
30
0
41
1
10
291.173213606245
20
-10.0717292132552
30
0
41
1
10
291.269990981304
20
-9.33299247053051
30
0
41
1
10
291.32373862791
20
-8.90685420782083
30
0
41
1
10
291.316425230236
20
-8.77129627249434
30
0
41
1
10
291.272451801723
20
-8.5829106072519
30
0
41
1
10
291.23045152125
20
-8.26503230095733
30
0
41
1
10
291.122295761839
20
-7.62033511590636
30
0
41
1
10
290.921268209845
20
-6.3343242553855
30
0
41
1
10
290.626933134519
20
-4.49626673307426
30
0
41
1
10
290.279492452627
20
-2.31386754262229
30
0
41
1
10
290.045802387033
20
-0.843761142673941
30
0
41
1
10
289.922305911505
20
-0.0519491573643052
30
0
41
1
10
289.869790043812
20
0.0946039365296656
30
0
41
1
10
289.765438530008
20
0.202697440118072
30
0
41
1
10
289.700124220166
20
0.238585102858906
30
0
41
1
10
289.684025093545
20
0.24603359382985
30
0
0
SPLINE
5
299
100
AcDbEntity
8
1
62
256
6
ByLayer
370
18
48
1
60
0
100
AcDbSpline
70
4
71
2
72
12
73
9
40
0
40
0
40
0
40
0.25
40
0.5
40
0.5
40
0.75
40
0.75
40
0.875
40
1
40
1
40
1
41
1
10
290.061525475783
20
0.184682923075712
30
0
41
1
10
290.047622878046
20
0.232924708911156
30
0
41
1
10
289.993210900419
20
0.318226190213608
30
0
41
1
10
289.953775960491
20
0.352320450427897
30
0
41
1
10
289.916061777402
20
0.384926996154945
30
0
41
1
10
289.868450775612
20
0.406385895226435
30
0
41
1
10
289.846339406409
20
0.416351777527495
30
0
41
1
10
289.796723060561
20
0.430563369860209
30
0
41
1
10
289.770768049474
20
0.433963332766098
30
0
0
SPLINE
5
29A
100
AcDbEntity
8
1
62
256
6
ByLayer
370
18
48
1
60
0
100
AcDbSpline
70
4
71
1
72
4
73
2
40
0
40
0
40
1
40
1
41
1
10
291.990150541474
20
-9.15798096029934
30
0
41
1
10
291.964700645021
20
-8.99809977365595
30
0
0
SPLINE
5
29B
100
AcDbEntity
8
1
62
256
6
ByLayer
370
18
48
1
60
0
100
AcDbSpline
70
4
71
1
72
4
73
2
40
0
40
0
40
1
40
1
41
1
10
290.093562912663
20
-17.8968458260019
30
0
41
1
10
290.200063329275
20
-18.7742658124461
30
0
0
SPLINE
5
29C
100
AcDbEntity
8
1
62
256
6
ByLayer
370
18
48
1
60
0
100
AcDbSpline
70
4
71
1
72
4
73
2
40
0
40
0
40
1
40
1
41
1
10
291.993155758105
20
-9.3864020520511
30
0
41
1
10
291.496924283921
20
-8.99343685091699
30
0
0
SPLINE
5
29D
100
AcDbEntity
8
1
62
256
6
ByLayer
370
18
48
1
60
0
100
AcDbSpline
70
4
71
1
72
4
73
2
40
0
40
0
40
1
40
1
41
1
10
290.154124004997
20
0.477217320862536
30
0
41
1
10
289.676795952998
20
0.539744655767066
30
0
0
SPLINE
5
29E
100
AcDbEntity
8
1
62
256
6
ByLayer
370
18
48
1
60
0
100
AcDbSpline
70
4
71
3
72
26
73
22
40
0
40
0
40
0
40
0
40
0.0032085371770405
40
0.0189367538122054
40
0.0503931870825353
40
0.113306053623195
40
0.239131786704515
40
0.364957519785834
40
0.427870386326494
40
0.486851198708363
40
0.490783252867154
40
0.498647361184737
40
0.506511469502319
40
0.522239686137484
40
0.553696119407814
40
0.616608985948474
40
0.742434719029793
40
0.868260452111113
40
0.990154131033641
40
0.994086185192433
40
1
40
1
40
1
40
1
41
1
10
289.99097213535
20
-17.5116690277292
30
0
41
1
10
290.002550728643
20
-17.4992771674383
30
0
41
1
10
290.063086658112
20
-17.4196509790121
30
0
41
1
10
290.077074434113
20
-17.1127229635177
30
0
41
1
10
290.179817856304
20
-16.4802344124525
30
0
41
1
10
290.339223859718
20
-15.1796575624911
30
0
41
1
10
290.590526984395
20
-13.3399429584703
30
0
41
1
10
290.828773542474
20
-11.4934261659877
30
0
41
1
10
291.029607127547
20
-10.0414820967565
30
0
41
1
10
291.126272831569
20
-9.30359777949269
30
0
41
1
10
291.17836315398
20
-8.89059961309326
30
0
41
1
10
291.172424334617
20
-8.78052025913692
30
0
41
1
10
291.129720348696
20
-8.59757298692801
30
0
41
1
10
291.087126261435
20
-8.27520046549913
30
0
41
1
10
290.979251845866
20
-7.63218032089463
30
0
41
1
10
290.778141974522
20
-6.34564284809062
30
0
41
1
10
290.483838807017
20
-4.50778458306763
30
0
41
1
10
290.136385227825
20
-2.32530438006467
30
0
41
1
10
289.902659614217
20
-0.854974353310638
30
0
41
1
10
289.783003033529
20
-0.087782299406939
30
0
41
1
10
289.765860774776
20
-0.0345905973331639
30
0
41
1
10
289.751730713164
20
-0.0053939757576984
30
0
0
SPLINE
5
29F
100
AcDbEntity
8
1
62
256
6
ByLayer
370
18
48
1
60
0
100
AcDbSpline
70
4
71
3
72
10
73
6
40
0
40
0
40
0
40
0
40
0.509356385031141
40
0.509356385031141
40
1
40
1
40
1
40
1
41
1
10
290.200063329275
20
-18.7743037714984
30
0
41
1
10
290.260193239616
20
-18.75714741569
30
0
41
1
10
290.320323150372
20
-18.7399926206363
30
0
41
1
10
290.438373914571
20
-18.7063119157358
30
0
41
1
10
290.49629476859
20
-18.689785992058
30
0
41
1
10
290.554215622117
20
-18.6732610110503
30
0
0
SPLINE
5
2A0
100
AcDbEntity
8
1
62
256
6
ByLayer
370
18
48
1
60
0
100
AcDbSpline
70
4
71
1
72
4
73
2
40
0
40
0
40
1
40
1
41
1
10
291.493919067297
20
-8.76501575916208
30
0
41
1
10
291.990150541474
20
-9.1579809602994
30
0
0
SPLINE
5
2A1
100
AcDbEntity
8
1
62
256
6
ByLayer
370
18
48
1
60
0
100
AcDbSpline
70
4
71
1
72
4
73
2
40
0
40
0
40
1
40
1
41
1
10
290.357671578102
20
-17.6036682603853
30
0
41
1
10
290.802578065258
20
-18.3845368767579
30
0
0
SPLINE
5
2A2
100
AcDbEntity
8
1
62
256
6
ByLayer
370
18
48
1
60
0
100
AcDbSpline
70
4
71
1
72
4
73
2
40
0
40
0
40
1
40
1
41
1
10
290.566951992613
20
-0.217171584473448
30
0
41
1
10
290.086559657911
20
0.0762890697871796
30
0
0
SPLINE
5
2A3
100
AcDbEntity
8
1
62
256
6
ByLayer
370
18
48
1
60
0
100
AcDbSpline
70
4
71
3
72
8
73
4
40
0
40
0
40
0
40
0
40
1
40
1
40
1
40
1
41
1
10
290.545810676878
20
-0.122285913693986
30
0
41
1
10
290.554801985092
20
-0.153485605574161
30
0
41
1
10
290.561849090337
20
-0.185114162500668
30
0
41
1
10
290.566951992613
20
-0.217171584473476
30
0
0
SPLINE
5
2A4
100
AcDbEntity
8
1
62
256
6
ByLayer
370
13
48
1
60
0
100
AcDbSpline
70
4
71
3
72
24
73
20
40
0
40
0
40
0
40
0
40
0.124999999999996
40
0.124999999999996
40
0.249999999999992
40
0.249999999999992
40
0.374999999999988
40
0.374999999999988
40
0.499999999999989
40
0.499999999999989
40
0.624999999999991
40
0.624999999999991
40
0.749999999999992
40
0.749999999999992
40
0.812499999999994
40
0.812499999999994
40
0.874999999999996
40
0.874999999999996
40
1
40
1
40
1
40
1
41
1
10
290.519907282623
20
30.8064036000153
30
0
41
1
10
290.511721551862
20
30.8621270752077
30
0
41
1
10
290.497654013588
20
30.9157971458203
30
0
41
1
10
290.458423222152
20
31.0192636492718
30
0
41
1
10
290.433179888667
20
31.0695732605725
30
0
41
1
10
290.372216245986
20
31.1636834051644
30
0
41
1
10
290.336632512934
20
31.2076942247916
30
0
41
1
10
290.258178011299
20
31.2862296097376
30
0
41
1
10
290.21513211396
20
31.3210403797105
30
0
41
1
10
290.121563263668
20
31.3819350953235
30
0
41
1
10
290.071591174826
20
31.4073472324184
30
0
41
1
10
289.968456472267
20
31.4471399214292
30
0
41
1
10
289.914301168599
20
31.461827997718
30
0
41
1
10
289.831909322851
20
31.4754099803458
30
0
41
1
10
289.804407767006
20
31.4784399635699
30
0
41
1
10
289.749337181482
20
31.4818134392316
30
0
41
1
10
289.721765925026
20
31.4820682718652
30
0
41
1
10
289.639074223898
20
31.483711423387
30
0
41
1
10
289.583937737629
20
31.4844610412553
30
0
41
1
10
289.528786202938
20
31.484611501763
30
0
0
SPLINE
5
2A5
100
AcDbEntity
8
1
62
256
6
ByLayer
370
13
48
1
60
0
100
AcDbSpline
70
4
71
3
72
9
73
5
40
0
40
0
40
0
40
0
40
0.806009473593899
40
1
40
1
40
1
40
1
41
1
10
289.257434069999
20
31.481233223337
30
0
41
1
10
289.23823009862
20
31.4807016786437
30
0
41
1
10
289.214418890826
20
31.479612130181
30
0
41
1
10
289.190606729467
20
31.4785628520266
30
0
41
1
10
289.185987370756
20
31.4783603575777
30
0
0
SPLINE
5
2A6
100
AcDbEntity
8
1
62
256
6
ByLayer
370
13
48
1
60
0
100
AcDbSpline
70
4
71
2
72
6
73
3
40
0
40
0
40
0
40
1
40
1
40
1
41
0.998850556413357
10
269.927420910473
20
20.4748788179916
30
0
41
0.99827016311196
10
269.92078906694
20
20.5098913485407
30
0
41
1
10
269.91753433748
20
20.5453801226719
30
0
0
SPLINE
5
2A7
100
AcDbEntity
8
1
62
256
6
ByLayer
370
13
48
1
60
0
100
AcDbSpline
70
4
71
3
72
18
73
14
40
0
40
0
40
0
40
0
40
0.499999999999988
40
0.499999999999988
40
0.74999999999997
40
0.74999999999997
40
0.874999999999961
40
0.874999999999961
40
0.90624999999997
40
0.90624999999997
40
0.93749999999998
40
0.93749999999998
40
1
40
1
40
1
40
1
41
1
10
281.501488826214
20
13.1405673109626
30
0
41
1
10
282.631701020454
20
13.1997992221814
30
0
41
1
10
283.761913443815
20
13.259026100531
30
0
41
1
10
285.457231781616
20
13.3478740246977
30
0
41
1
10
286.022337390054
20
13.3775025456668
30
0
41
1
10
286.869996628216
20
13.4219247841633
30
0
41
1
10
287.152550680094
20
13.4367079962574
30
0
41
1
10
287.505741377347
20
13.4552334870338
30
0
41
1
10
287.576379002363
20
13.4589513870836
30
0
41
1
10
287.717656118226
20
13.4663407553214
30
0
41
1
10
287.788254549761
20
13.471033997752
30
0
41
1
10
288.000523485942
20
13.4733270019605
30
0
41
1
10
288.142548097759
20
13.4621146928518
30
0
41
1
10
288.285133633641
20
13.4369436078949
30
0
0
SPLINE
5
2A8
100
AcDbEntity
8
1
62
256
6
ByLayer
370
13
48
1
60
0
100
AcDbSpline
70
4
71
3
72
9
73
5
40
0
40
0
40
0
40
0
40
0.806009473593914
40
1
40
1
40
1
40
1
41
1
10
271.194258582616
20
30.5345823092433
30
0
41
1
10
271.21341291418
20
30.5360610380243
30
0
41
1
10
271.237207570513
20
30.5374664071813
30
0
41
1
10
271.260998965793
20
30.5389119257163
30
0
41
1
10
271.265614185607
20
30.5391933950205
30
0
0
SPLINE
5
2A9
100
AcDbEntity
8
1
62
256
6
ByLayer
370
13
48
1
60
0
100
AcDbSpline
70
4
71
3
72
14
73
10
40
0
40
0
40
0
40
0
40
0.0784970668824632
40
0.0784970668824632
40
0.501437920028231
40
0.501437920028231
40
0.924378773174
40
0.924378773174
40
1
40
1
40
1
40
1
41
1
10
290.629849285372
20
11.8087925251604
30
0
41
1
10
290.621288260396
20
11.7998311616618
30
0
41
1
10
290.612519004893
20
11.7910739859197
30
0
41
1
10
290.555208317608
20
11.7364683846635
30
0
41
1
10
290.500248778503
20
11.6959267621058
30
0
41
1
10
290.38392920263
20
11.6308401380419
30
0
41
1
10
290.321276416204
20
11.6054292480818
30
0
41
1
10
290.244978592245
20
11.5848806409533
30
0
41
1
10
290.23336227911
20
11.5820974956911
30
0
41
1
10
290.221711031917
20
11.5795819113504
30
0
0
SPLINE
5
2AA
100
AcDbEntity
8
1
62
256
6
ByLayer
370
13
48
1
60
0
100
AcDbSpline
70
4
71
3
72
8
73
4
40
0
40
0
40
0
40
0
40
1
40
1
40
1
40
1
41
1
10
271.163226817675
20
30.2922993961022
30
0
41
1
10
271.243709352997
20
30.2964502444127
30
0
41
1
10
271.323177855135
20
30.2983916226535
30
0
41
1
10
271.4015222825
20
30.2990698003544
30
0
0
SPLINE
5
2AB
100
AcDbEntity
8
1
62
256
6
ByLayer
370
13
48
1
60
0
100
AcDbSpline
70
4
71
2
72
6
73
3
40
0
40
0
40
0
40
1
40
1
40
1
41
0.998850556413367
10
269.927420910473
20
20.474878817991
30
0
41
0.998270163111946
10
269.924485202886
20
20.4393648733342
30
0
41
1
10
269.924957890198
20
20.4037302985519
30
0
0
SPLINE
5
2AC
100
AcDbEntity
8
1
62
256
6
ByLayer
370
13
48
1
60
0
100
AcDbSpline
70
4
71
3
72
9
73
5
40
0
40
0
40
0
40
0
40
0.806009473593163
40
1
40
1
40
1
40
1
41
1
10
272.877903579957
20
10.6361957203686
30
0
41
1
10
272.897107551336
20
10.6367272650618
30
0
41
1
10
272.92091875913
20
10.6378168135246
30
0
41
1
10
272.944730920489
20
10.638866091679
30
0
41
1
10
272.9493502792
20
10.6390685861279
30
0
0
SPLINE
5
2AD
100
AcDbEntity
8
1
62
256
6
ByLayer
370
13
48
1
60
0
100
AcDbSpline
70
4
71
2
72
6
73
3
40
0
40
0
40
0
40
1
40
1
40
1
41
1
10
270.185408335083
20
20.4197130864468
30
0
41
0.997409491337352
10
270.186173585833
20
20.362022972049
30
0
41
1
10
270.195172435203
20
20.3050363162134
30
0
0
SPLINE
5
2AE
100
AcDbEntity
8
1
62
256
6
ByLayer
370
13
48
1
60
0
100
AcDbSpline
70
4
71
3
72
10
73
6
40
0
40
0
40
0
40
0
40
0.5
40
0.5
40
1
40
1
40
1
40
1
41
1
10
273.878223886348
20
12.0002632710585
30
0
41
1
10
273.87447634121
20
12.00006687054
30
0
41
1
10
273.857399510896
20
12.0098579020425
30
0
41
1
10
273.806916880651
20
12.0428299088705
30
0
41
1
10
273.773471540531
20
12.0659768915845
30
0
41
1
10
273.741532311568
20
12.0888493564863
30
0
0
SPLINE
5
2AF
100
AcDbEntity
8
1
62
256
6
ByLayer
370
13
48
1
60
0
100
AcDbSpline
70
4
71
3
72
10
73
6
40
0
40
0
40
0
40
0
40
0.5
40
0.5
40
1
40
1
40
1
40
1
41
1
10
273.907135535841
20
12.0875979523761
30
0
41
1
10
273.903386919158
20
12.0874014957004
30
0
41
1
10
273.883000894353
20
12.0874530975273
30
0
41
1
10
273.821690327672
20
12.087945955757
30
0
41
1
10
273.780756841819
20
12.0883796524813
30
0
41
1
10
273.741532311568
20
12.0888493564862
30
0
0
SPLINE
5
2B0
100
AcDbEntity
8
1
62
256
6
ByLayer
370
13
48
1
60
0
100
AcDbSpline
70
4
71
3
72
18
73
14
40
0
40
0
40
0
40
0
40
0.500000000000025
40
0.500000000000025
40
0.750000000000049
40
0.750000000000049
40
0.875000000000049
40
0.875000000000049
40
0.906250000000037
40
0.906250000000037
40
0.937500000000024
40
0.937500000000024
40
1
40
1
40
1
40
1
41
1
10
280.6714405602
20
28.9788317321701
30
0
41
1
10
279.54122836596
20
28.9195998209513
30
0
41
1
10
278.411015942599
20
28.8603729426017
30
0
41
1
10
276.715697604798
20
28.7715250184351
30
0
41
1
10
276.15059199636
20
28.7418964974659
30
0
41
1
10
275.302932758198
20
28.6974742589694
30
0
41
1
10
275.020378706321
20
28.6826910468753
30
0
41
1
10
274.667188009067
20
28.664165556099
30
0
41
1
10
274.596550384052
20
28.6604476560491
30
0
41
1
10
274.455273268188
20
28.6530582878114
30
0
41
1
10
274.384674836654
20
28.6483650453807
30
0
41
1
10
274.172405900472
20
28.6460720411722
30
0
41
1
10
274.030381288655
20
28.6572843502809
30
0
41
1
10
273.887795752773
20
28.6824554352379
30
0
0
SPLINE
5
2B1
100
AcDbEntity
8
1
62
256
6
ByLayer
370
13
48
1
60
0
100
AcDbSpline
70
4
71
3
72
8
73
4
40
0
40
0
40
0
40
0
40
1
40
1
40
1
40
1
41
1
10
290.099151700739
20
11.7796279075104
30
0
41
1
10
290.007159633022
20
11.7737037822863
30
0
41
1
10
289.918638184617
20
11.7715139559274
30
0
41
1
10
289.832443851762
20
11.7711202639047
30
0
0
SPLINE
5
2B2
100
AcDbEntity
8
1
62
256
6
ByLayer
370
13
48
1
60
0
100
AcDbSpline
70
4
71
3
72
10
73
6
40
0
40
0
40
0
40
0
40
0.381050048120419
40
0.381050048120419
40
1
40
1
40
1
40
1
41
1
10
288.221680114194
20
30.0290147835544
30
0
41
1
10
288.226925883219
20
30.0287948578641
30
0
41
1
10
288.237901481099
20
30.0285071038135
30
0
41
1
10
288.279055682206
20
30.0276701169103
30
0
41
1
10
288.316989071679
20
30.0270791917971
30
0
41
1
10
288.356213601929
20
30.0266094877921
30
0
0
SPLINE
5
2B3
100
AcDbEntity
8
1
62
256
6
ByLayer
370
13
48
1
60
0
100
AcDbSpline
70
4
71
1
72
4
73
2
40
0
40
0
40
1
40
1
41
1
10
269.837431349627
20
20.6491053984077
30
0
41
1
10
269.915426832951
20
20.6519130125095
30
0
0
SPLINE
5
2B4
100
AcDbEntity
8
1
62
256
6
ByLayer
370
13
48
1
60
0
100
AcDbSpline
70
4
71
1
72
4
73
2
40
0
40
0
40
1
40
1
41
1
10
269.924957890198
20
20.4037302985519
30
0
41
1
10
270.185408335083
20
20.4197130864468
30
0
0
SPLINE
5
2B5
100
AcDbEntity
8
1
62
256
6
ByLayer
370
13
48
1
60
0
100
AcDbSpline
70
4
71
3
72
8
73
4
40
0
40
0
40
0
40
0
40
1
40
1
40
1
40
1
41
1
10
289.005734699259
20
31.4406642359705
30
0
41
1
10
289.065827711855
20
31.4532317569038
30
0
41
1
10
289.125855029528
20
31.4657832490586
30
0
41
1
10
289.185987370756
20
31.4783603575777
30
0
0
SPLINE
5
2B6
100
AcDbEntity
8
1
62
256
6
ByLayer
370
13
48
1
60
0
100
AcDbSpline
70
4
71
1
72
4
73
2
40
0
40
0
40
1
40
1
41
1
10
270.195172435203
20
20.3050363162134
30
0
41
1
10
269.933997650062
20
20.2975607128218
30
0
0
SPLINE
5
2B7
100
AcDbEntity
8
1
62
256
6
ByLayer
370
13
48
1
60
0
100
AcDbSpline
70
4
71
2
72
6
73
3
40
0
40
0
40
0
40
1
40
1
40
1
41
1
10
269.931178388186
20
20.5100969828786
30
0
41
0.999139328225407
10
269.928880286603
20
20.492533234038
30
0
41
0.998850556413367
10
269.927420910473
20
20.474878817991
30
0
0
SPLINE
5
2B8
100
AcDbEntity
8
1
62
256
6
ByLayer
370
13
48
1
60
0
100
AcDbSpline
70
4
71
3
72
28
73
24
40
0
40
0
40
0
40
0
40
0.125
40
0.125
40
0.25
40
0.25
40
0.375000000000001
40
0.375000000000001
40
0.500000000000001
40
0.500000000000001
40
0.625000000000001
40
0.625000000000001
40
0.68750000000011
40
0.68750000000011
40
0.750000000000219
40
0.750000000000219
40
0.781250000000273
40
0.781250000000273
40
0.812500000000327
40
0.812500000000327
40
0.875000000000218
40
0.875000000000218
40
1
40
1
40
1
40
1
41
1
10
290.737304815315
20
11.9266821065898
30
0
41
1
10
290.718607248924
20
11.9159343889021
30
0
41
1
10
290.698778985872
20
11.9053259671484
30
0
41
1
10
290.656248346213
20
11.8844631994479
30
0
41
1
10
290.633349298501
20
11.8741443110957
30
0
41
1
10
290.584848893956
20
11.8545839702469
30
0
41
1
10
290.55921778561
20
11.8452851281159
30
0
41
1
10
290.504192918092
20
11.8279989525361
30
0
41
1
10
290.475164664661
20
11.8202064176032
30
0
41
1
10
290.415790725442
20
11.8074829229421
30
0
41
1
10
290.385541022072
20
11.802581696426
30
0
41
1
10
290.342051050464
20
11.7979805737205
30
0
41
1
10
290.327691665573
20
11.7968681290404
30
0
41
1
10
290.299502478505
20
11.7950881822241
30
0
41
1
10
290.285546434425
20
11.7943362346449
30
0
41
1
10
290.265021582168
20
11.7936159805819
30
0
41
1
10
290.258147997225
20
11.7933440491866
30
0
41
1
10
290.243814828189
20
11.7922164019331
30
0
41
1
10
290.236398516223
20
11.7914020706716
30
0
41
1
10
290.213887857707
20
11.7886889859522
30
0
41
1
10
290.199078594614
20
11.7870813782368
30
0
41
1
10
290.155939174761
20
11.7835682375372
30
0
41
1
10
290.127396658904
20
11.7814468324815
30
0
41
1
10
290.099151700739
20
11.7796279075104
30
0
0
SPLINE
5
2B9
100
AcDbEntity
8
1
62
256
6
ByLayer
370
13
48
1
60
0
100
AcDbSpline
70
4
71
2
72
6
73
3
40
0
40
0
40
0
40
1
40
1
40
1
41
1
10
269.933997650062
20
20.2975607128218
30
0
41
0.997409491337352
10
269.925666371567
20
20.3503198691022
30
0
41
1
10
269.924957890198
20
20.4037302985519
30
0
0
SPLINE
5
2BA
100
AcDbEntity
8
1
62
256
6
ByLayer
370
13
48
1
60
0
100
AcDbSpline
70
4
71
1
72
4
73
2
40
0
40
0
40
1
40
1
41
1
10
271.638995237127
20
30.3000825391395
30
0
41
1
10
271.448819731773
20
30.5205453114632
30
0
0
SPLINE
5
2BB
100
AcDbEntity
8
1
62
256
6
ByLayer
370
13
48
1
60
0
100
AcDbSpline
70
4
71
3
72
22
73
18
40
0
40
0
40
0
40
0
40
0.0624999999999414
40
0.0624999999999414
40
0.0937499999999221
40
0.0937499999999221
40
0.124999999999903
40
0.124999999999903
40
0.156249999999884
40
0.156249999999884
40
0.171874999999874
40
0.171874999999874
40
0.187499999999864
40
0.187499999999864
40
0.24999999999987
40
0.499999999999913
40
1
40
1
40
1
40
1
41
1
10
288.094064212913
20
29.6926932471071
30
0
41
1
10
287.961005900456
20
29.6037072855746
30
0
41
1
10
287.82083932488
20
29.5298153513868
30
0
41
1
10
287.600228061628
20
29.4409793443179
30
0
41
1
10
287.524581694803
20
29.4149469597237
30
0
41
1
10
287.371448563972
20
29.3710100331207
30
0
41
1
10
287.294557569088
20
29.3532547223195
30
0
41
1
10
287.140156351691
20
29.3257856034146
30
0
41
1
10
287.062653232396
20
29.3159795504615
30
0
41
1
10
286.945925729184
20
29.3074107294059
30
0
41
1
10
286.906934890419
20
29.3056150637278
30
0
41
1
10
286.828990531512
20
29.3015390999325
30
0
41
1
10
286.790018989498
20
29.2994928400188
30
0
41
1
10
286.595159803852
20
29.2892807028261
30
0
41
1
10
285.815723061266
20
29.2484321540556
30
0
41
1
10
283.789187530543
20
29.1422259272523
30
0
41
1
10
281.918539348338
20
29.044189410203
30
0
41
1
10
280.671440560201
20
28.9788317321702
30
0
0
SPLINE
5
2BC
100
AcDbEntity
8
1
62
256
6
ByLayer
370
13
48
1
60
0
100
AcDbSpline
70
4
71
3
72
10
73
6
40
0
40
0
40
0
40
0
40
0.5
40
0.5
40
1
40
1
40
1
40
1
41
1
10
288.247715829493
20
30.1166731477903
30
0
41
1
10
288.243968284355
20
30.1164767472719
30
0
41
1
10
288.253714624294
20
30.1063015410478
30
0
41
1
10
288.293829011785
20
30.072786157642
30
0
41
1
10
288.324274372967
20
30.049481952694
30
0
41
1
10
288.356213601929
20
30.0266094877921
30
0
0
SPLINE
5
2BD
100
AcDbEntity
8
1
62
256
6
ByLayer
370
13
48
1
60
0
100
AcDbSpline
70
4
71
2
72
6
73
3
40
0
40
0
40
0
40
1
40
1
40
1
41
1
10
291.949929314873
20
21.6977158572587
30
0
41
0.997409491337352
10
291.950694565624
20
21.6400257428619
30
0
41
1
10
291.943210379186
20
21.58282619526
30
0
0
SPLINE
5
2BE
100
AcDbEntity
8
1
62
256
6
ByLayer
370
13
48
1
60
0
100
AcDbSpline
70
4
71
2
72
6
73
3
40
0
40
0
40
0
40
1
40
1
40
1
41
1
10
269.915426832951
20
20.6519130125095
30
0
41
0.997409491337352
10
269.912656027601
20
20.5985720206694
30
0
41
1
10
269.91753433748
20
20.5453801226719
30
0
0
SPLINE
5
2BF
100
AcDbEntity
8
1
62
256
6
ByLayer
370
13
48
1
60
0
100
AcDbSpline
70
4
71
3
72
20
73
16
40
0
40
0
40
0
40
0
40
0.0624999999999806
40
0.0624999999999806
40
0.124999999999961
40
0.124999999999961
40
0.140624999999962
40
0.140624999999962
40
0.156249999999963
40
0.156249999999963
40
0.187499999999964
40
0.187499999999964
40
0.249999999999967
40
0.499999999999978
40
1
40
1
40
1
40
1
41
1
10
287.964862827604
20
29.8581969111038
30
0
41
1
10
287.834463352085
20
29.7709891110191
30
0
41
1
10
287.696866120489
20
29.6998027182524
30
0
41
1
10
287.40782541486
20
29.5882501338338
30
0
41
1
10
287.254697804304
20
29.5479387744931
30
0
41
1
10
287.063624159439
20
29.5197659750735
30
0
41
1
10
287.025339894899
20
29.5151831862327
30
0
41
1
10
286.948628921136
20
29.5081721777042
30
0
41
1
10
286.910183931458
20
29.5060204619011
30
0
41
1
10
286.794816340345
20
29.5000587448092
30
0
41
1
10
286.717910958401
20
29.4959882874401
30
0
41
1
10
286.487186903045
20
29.4838965520717
30
0
41
1
10
285.718106718525
20
29.4435907675104
30
0
41
1
10
283.718498238758
20
29.3387957276503
30
0
41
1
10
281.872705795955
20
29.2420618447056
30
0
41
1
10
280.642177500723
20
29.1775725894075
30
0
0
SPLINE
5
2C0
100
AcDbEntity
8
1
62
256
6
ByLayer
370
13
48
1
60
0
100
AcDbSpline
70
4
71
3
72
12
73
8
40
0
40
0
40
0
40
0
40
0.450008278126732
40
0.450008278126732
40
0.900016556253465
40
0.900016556253465
40
1
40
1
40
1
40
1
41
1
10
289.832443851762
20
11.7711202639047
30
0
41
1
10
289.813777200487
20
11.7706641142158
30
0
41
1
10
289.795938379866
20
11.7708301914247
30
0
41
1
10
289.759962082444
20
11.7709378692052
30
0
41
1
10
289.741923558346
20
11.7709548272056
30
0
41
1
10
289.719898230012
20
11.7709909416185
30
0
41
1
10
289.71589466878
20
11.7709978298537
30
0
41
1
10
289.711891474532
20
11.7710049867474
30
0
0
SPLINE
5
2C1
100
AcDbEntity
8
1
62
256
6
ByLayer
370
13
48
1
60
0
100
AcDbSpline
70
4
71
1
72
4
73
2
40
0
40
0
40
1
40
1
41
1
10
271.615430367333
20
11.3110253436903
30
0
41
1
10
271.584703922022
20
11.3101458609377
30
0
0
SPLINE
5
2C2
100
AcDbEntity
8
1
62
256
6
ByLayer
370
13
48
1
60
0
100
AcDbSpline
70
4
71
3
72
24
73
20
40
0
40
0
40
0
40
0
40
0.0612470953005466
40
0.0612470953005466
40
0.122494190601093
40
0.122494190601093
40
0.18374128590164
40
0.18374128590164
40
0.244988381202186
40
0.244988381202186
40
0.367482571803285
40
0.367482571803285
40
0.489976762404383
40
0.489976762404383
40
0.734965143606581
40
0.734965143606581
40
0.979953524808778
40
0.979953524808778
40
1
40
1
40
1
40
1
41
1
10
290.878628430143
20
12.3212975980631
30
0
41
1
10
290.877378751968
20
12.3039779973469
30
0
41
1
10
290.87565363583
20
12.2849742270029
30
0
41
1
10
290.871632945899
20
12.2475756809225
30
0
41
1
10
290.869404039446
20
12.2300649946837
30
0
41
1
10
290.86504622666
20
12.1997427429476
30
0
41
1
10
290.862882897152
20
12.186480259094
30
0
41
1
10
290.858729906827
20
12.1628378871586
30
0
41
1
10
290.856709599938
20
12.1522902105238
30
0
41
1
10
290.850850702832
20
12.1234222741575
30
0
41
1
10
290.847178314922
20
12.1076915333045
30
0
41
1
10
290.84008906334
20
12.079902550057
30
0
41
1
10
290.836700838002
20
12.0680138301624
30
0
41
1
10
290.82682589246
20
12.0360633450553
30
0
41
1
10
290.820656014937
20
12.019750894169
30
0
41
1
10
290.808771195501
20
11.9922749349204
30
0
41
1
10
290.803074131046
20
11.9812711973697
30
0
41
1
10
290.79708981266
20
11.971360981779
30
0
41
1
10
290.796638316678
20
11.9706235782229
30
0
41
1
10
290.796187941811
20
11.9698981376972
30
0
0
SPLINE
5
2C3
100
AcDbEntity
8
1
62
256
6
ByLayer
370
13
48
1
60
0
100
AcDbSpline
70
4
71
3
72
10
73
6
40
0
40
0
40
0
40
0
40
0.121795174128875
40
0.121795174128875
40
1
40
1
40
1
40
1
41
1
10
290.770289539042
20
11.9389660765893
30
0
41
1
10
290.768888621855
20
11.937842102554
30
0
41
1
10
290.76749608097
20
11.9368063628808
30
0
41
1
10
290.756125135292
20
11.9289585378161
30
0
41
1
10
290.746570804232
20
11.9263798161009
30
0
41
1
10
290.737304815315
20
11.9266821065899
30
0
0
SPLINE
5
2C4
100
AcDbEntity
8
1
62
256
6
ByLayer
370
13
48
1
60
0
100
AcDbSpline
70
4
71
3
72
12
73
8
40
0
40
0
40
0
40
0
40
0.25
40
0.25
40
0.5
40
0.5
40
1
40
1
40
1
40
1
41
1
10
271.4015222825
20
30.2990698003544
30
0
41
1
10
271.421721186659
20
30.2996062520142
30
0
41
1
10
271.441368851602
20
30.2995349723193
30
0
41
1
10
271.480863054127
20
30.299611660133
30
0
41
1
10
271.500644262184
20
30.2996860323288
30
0
41
1
10
271.559952954153
20
30.299872248719
30
0
41
1
10
271.599467877658
20
30.2999708280311
30
0
41
1
10
271.638995237127
20
30.3000825391395
30
0
0
SPLINE
5
2C5
100
AcDbEntity
8
1
62
256
6
ByLayer
370
13
48
1
60
0
100
AcDbSpline
70
4
71
1
72
4
73
2
40
0
40
0
40
1
40
1
41
1
10
271.194258582616
20
30.5345823092433
30
0
41
1
10
271.4015222825
20
30.2990698003544
30
0
0
SPLINE
5
2C6
100
AcDbEntity
8
1
62
256
6
ByLayer
370
13
48
1
60
0
100
AcDbSpline
70
4
71
1
72
4
73
2
40
0
40
0
40
1
40
1
41
1
10
270.19212727077
20
20.5346027484455
30
0
41
1
10
269.931178388186
20
20.5100969828786
30
0
0
SPLINE
5
2C7
100
AcDbEntity
8
1
62
256
6
ByLayer
370
13
48
1
60
0
100
AcDbSpline
70
4
71
1
72
4
73
2
40
0
40
0
40
1
40
1
41
1
10
269.91753433748
20
20.5453801226719
30
0
41
1
10
269.861536318056
20
20.5421000835569
30
0
0
SPLINE
5
2C8
100
AcDbEntity
8
1
62
256
6
ByLayer
370
13
48
1
60
0
100
AcDbSpline
70
4
71
3
72
20
73
16
40
0
40
0
40
0
40
0
40
0.0625000000000525
40
0.0625000000000525
40
0.125000000000105
40
0.125000000000105
40
0.140625000000107
40
0.140625000000107
40
0.156250000000109
40
0.156250000000109
40
0.187500000000113
40
0.187500000000113
40
0.2500000000001
40
0.500000000000066
40
1
40
1
40
1
40
1
41
1
10
274.17047482234
20
12.2592320325942
30
0
41
1
10
274.300874297857
20
12.3464398326794
30
0
41
1
10
274.438471529454
20
12.4176262254467
30
0
41
1
10
274.72751223508
20
12.5291788098668
30
0
41
1
10
274.880639845635
20
12.5694901692085
30
0
41
1
10
275.071713490498
20
12.5976629686297
30
0
41
1
10
275.109997755038
20
12.6022457574708
30
0
41
1
10
275.186708728801
20
12.609256766
30
0
41
1
10
275.225153718479
20
12.6114084818035
30
0
41
1
10
275.340521309591
20
12.6173701988953
30
0
41
1
10
275.417426691534
20
12.6214406562644
30
0
41
1
10
275.648150746889
20
12.6335323916327
30
0
41
1
10
276.417230931405
20
12.6738381761938
30
0
41
1
10
278.416839411135
20
12.778633216052
30
0
41
1
10
280.262631854007
20
12.8753670990003
30
0
41
1
10
281.493160149233
20
12.9398563542981
30
0
0
SPLINE
5
2C9
100
AcDbEntity
8
1
62
256
6
ByLayer
370
13
48
1
60
0
100
AcDbSpline
70
4
71
3
72
20
73
16
40
0
40
0
40
0
40
0
40
0.500000000000025
40
0.500000000000025
40
0.750000000000025
40
0.750000000000025
40
0.875000000000025
40
0.875000000000025
40
0.906250000000037
40
0.906250000000037
40
0.921875000000031
40
0.921875000000031
40
0.937500000000025
40
0.937500000000025
40
1
40
1
40
1
40
1
41
1
10
281.493160149233
20
12.9398563542981
30
0
41
1
10
282.615603445395
20
12.9986811148211
30
0
41
1
10
283.738047025903
20
13.0575010403154
30
0
41
1
10
285.421711932074
20
13.1457379434836
30
0
41
1
10
285.982932668476
20
13.1751619335227
30
0
41
1
10
286.824765120281
20
13.2192804017511
30
0
41
1
10
287.105377615095
20
13.2339647457557
30
0
41
1
10
287.456140410855
20
13.2523568783204
30
0
41
1
10
287.526292381027
20
13.2560429629582
30
0
41
1
10
287.631521118735
20
13.2615619162233
30
0
41
1
10
287.66659835519
20
13.2633886877793
30
0
41
1
10
287.736751727644
20
13.2670565394303
30
0
41
1
10
287.771807599231
20
13.2691611049175
30
0
41
1
10
287.947519358176
20
13.274061694377
30
0
41
1
10
288.089149408239
20
13.2641912944074
30
0
41
1
10
288.23195926514
20
13.2389806093368
30
0
0
SPLINE
5
2CA
100
AcDbEntity
8
1
62
256
6
ByLayer
370
13
48
1
60
0
100
AcDbSpline
70
4
71
2
72
6
73
3
40
0
40
0
40
0
40
1
40
1
40
1
41
1
10
291.949929314873
20
21.6977158572587
30
0
41
0.997409491337352
10
291.949164064123
20
21.7554059716566
30
0
41
1
10
291.940165214753
20
21.8123926274922
30
0
0
SPLINE
5
2CB
100
AcDbEntity
8
1
62
256
6
ByLayer
370
13
48
1
60
0
100
AcDbSpline
70
4
71
3
72
8
73
4
40
0
40
0
40
0
40
0
40
1
40
1
40
1
40
1
41
1
10
289.528786202938
20
31.484611501763
30
0
41
1
10
289.438369970163
20
31.4848581689205
30
0
41
1
10
289.347918919547
20
31.4837185534065
30
0
41
1
10
289.257434069999
20
31.481233223337
30
0
0
SPLINE
5
2CC
100
AcDbEntity
8
1
62
256
6
ByLayer
370
13
48
1
60
0
100
AcDbSpline
70
4
71
2
72
6
73
3
40
0
40
0
40
0
40
1
40
1
40
1
41
1
10
270.185408335083
20
20.4197130864468
30
0
41
0.997409491337352
10
270.184643084332
20
20.4774032008437
30
0
41
1
10
270.19212727077
20
20.5346027484455
30
0
0
SPLINE
5
2CD
100
AcDbEntity
8
1
62
256
6
ByLayer
370
13
48
1
60
0
100
AcDbSpline
70
4
71
3
72
8
73
4
40
0
40
0
40
0
40
0
40
1
40
1
40
1
40
1
41
1
10
271.448819731773
20
30.5205453114632
30
0
41
1
10
271.387742251337
20
30.526762555942
30
0
41
1
10
271.326731781404
20
30.5329707264392
30
0
41
1
10
271.265614185607
20
30.5391933950205
30
0
0
SPLINE
5
2CE
100
AcDbEntity
8
1
62
256
6
ByLayer
370
13
48
1
60
0
100
AcDbSpline
70
4
71
3
72
24
73
20
40
0
40
0
40
0
40
0
40
0.0436863032245604
40
0.0436863032245604
40
0.0873726064491209
40
0.0873726064491209
40
0.131058909673682
40
0.131058909673682
40
0.174745212898242
40
0.174745212898242
40
0.262117819347381
40
0.262117819347381
40
0.349490425796521
40
0.349490425796521
40
0.5242356386948
40
0.5242356386948
40
0.698980851593078
40
0.698980851593078
40
1
40
1
40
1
40
1
41
1
10
271.584703922022
20
11.3101458609377
30
0
41
1
10
271.587757145576
20
11.2930517657457
30
0
41
1
10
271.591459246258
20
11.2743324237834
30
0
41
1
10
271.599367122979
20
11.2375590273906
30
0
41
1
10
271.603414184373
20
11.2203772506898
30
0
41
1
10
271.610917662981
20
11.1906766228952
30
0
41
1
10
271.6144554486
20
11.1777129218244
30
0
41
1
10
271.621056989216
20
11.1546341709729
30
0
41
1
10
271.624168761082
20
11.1443554551888
30
0
41
1
10
271.633013083563
20
11.1162580819094
30
0
41
1
10
271.638309663915
20
11.1009973847655
30
0
41
1
10
271.64826481955
20
11.0741016610492
30
0
41
1
10
271.652877193455
20
11.062632234794
30
0
41
1
10
271.666037778121
20
11.0318889906696
30
0
41
1
10
271.673878971834
20
11.0163108289124
30
0
41
1
10
271.688570704782
20
10.9902276877551
30
0
41
1
10
271.695386763898
20
10.9798797352226
30
0
41
1
10
271.712971947651
20
10.9566497256147
30
0
41
1
10
271.723031338218
20
10.9472661610457
30
0
41
1
10
271.732413692027
20
10.9412333894632
30
0
0
SPLINE
5
2CF
100
AcDbEntity
8
1
62
256
6
ByLayer
370
13
48
1
60
0
100
AcDbSpline
70
4
71
3
72
20
73
16
40
0
40
0
40
0
40
0
40
0.125
40
0.125
40
0.25
40
0.25
40
0.375
40
0.375
40
0.5
40
0.5
40
0.625
40
0.625
40
0.75
40
0.75
40
1
40
1
40
1
40
1
41
1
10
271.615430367333
20
11.3110253436903
30
0
41
1
10
271.625293573938
20
11.2438826334479
30
0
41
1
10
271.643746437041
20
11.1797386680547
30
0
41
1
10
271.696318786876
20
11.0569201302474
30
0
41
1
10
271.731061374139
20
10.9980237908534
30
0
41
1
10
271.814026867586
20
10.8912321869325
30
0
41
1
10
271.861706500042
20
10.8438316339629
30
0
41
1
10
271.967483604291
20
10.762327010514
30
0
41
1
10
272.026379822795
20
10.7277523153712
30
0
41
1
10
272.148865592654
20
10.6751809491579
30
0
41
1
10
272.213831321838
20
10.6564582621963
30
0
41
1
10
272.346216568474
20
10.6353168296234
30
0
41
1
10
272.412673453014
20
10.6352677524391
30
0
41
1
10
272.61195872592
20
10.6317210624546
30
0
41
1
10
272.744895589319
20
10.6325424153097
30
0
41
1
10
272.877903579957
20
10.6361957203686
30
0
0
SPLINE
5
2D0
100
AcDbEntity
8
1
62
256
6
ByLayer
370
13
48
1
60
0
100
AcDbSpline
70
4
71
1
72
4
73
2
40
0
40
0
40
1
40
1
41
1
10
269.851138158451
20
20.4334551653049
30
0
41
1
10
269.92565030073
20
20.439500800253
30
0
0
SPLINE
5
2D1
100
AcDbEntity
8
1
62
256
6
ByLayer
370
13
48
1
60
0
100
AcDbSpline
70
4
71
3
72
20
73
16
40
0
40
0
40
0
40
0
40
0.499999999999976
40
0.499999999999976
40
0.749999999999976
40
0.749999999999976
40
0.874999999999976
40
0.874999999999976
40
0.906249999999963
40
0.906249999999963
40
0.921874999999969
40
0.921874999999969
40
0.937499999999976
40
0.937499999999976
40
1
40
1
40
1
40
1
41
1
10
280.642177500723
20
29.1775725894074
30
0
41
1
10
279.519734204561
20
29.1187478288845
30
0
41
1
10
278.397290624053
20
29.0599279033902
30
0
41
1
10
276.713625717881
20
28.971691000222
30
0
41
1
10
276.152404981479
20
28.9422670101828
30
0
41
1
10
275.310572529674
20
28.8981485419544
30
0
41
1
10
275.029960034859
20
28.8834641979498
30
0
41
1
10
274.679197239101
20
28.8650720653851
30
0
41
1
10
274.609045268928
20
28.8613859807473
30
0
41
1
10
274.50381653122
20
28.8558670274822
30
0
41
1
10
274.468739294765
20
28.8540402559262
30
0
41
1
10
274.39858592231
20
28.8503724042753
30
0
41
1
10
274.363530050724
20
28.848267838788
30
0
41
1
10
274.187818291779
20
28.8433672493285
30
0
41
1
10
274.046188241718
20
28.8532376492983
30
0
41
1
10
273.903378384816
20
28.8784483343688
30
0
0
SPLINE
5
2D2
100
AcDbEntity
8
1
62
256
6
ByLayer
370
13
48
1
60
0
100
AcDbSpline
70
4
71
3
72
22
73
18
40
0
40
0
40
0
40
0
40
0.0625000000000078
40
0.0625000000000078
40
0.0937500000000017
40
0.0937500000000017
40
0.124999999999996
40
0.124999999999996
40
0.156249999999989
40
0.156249999999989
40
0.171874999999997
40
0.171874999999997
40
0.187500000000005
40
0.187500000000005
40
0.249999999999993
40
0.499999999999988
40
1
40
1
40
1
40
1
41
1
10
274.078865173501
20
12.4267057960257
30
0
41
1
10
274.211923485958
20
12.515691757558
30
0
41
1
10
274.352090061535
20
12.589583691746
30
0
41
1
10
274.572701324787
20
12.6784196988148
30
0
41
1
10
274.648347691612
20
12.7044520834091
30
0
41
1
10
274.801480822443
20
12.748389010012
30
0
41
1
10
274.878371817326
20
12.7661443208133
30
0
41
1
10
275.032773034724
20
12.7936134397181
30
0
41
1
10
275.110276154018
20
12.8034194926712
30
0
41
1
10
275.227003657231
20
12.8119883137269
30
0
41
1
10
275.265994495995
20
12.813783979405
30
0
41
1
10
275.343938854902
20
12.8178599432003
30
0
41
1
10
275.382910396916
20
12.819906203114
30
0
41
1
10
275.577769582562
20
12.8301183403066
30
0
41
1
10
276.357206325148
20
12.8709668890772
30
0
41
1
10
278.383741855871
20
12.9771731158805
30
0
41
1
10
280.254390038076
20
13.0752096329297
30
0
41
1
10
281.501488826213
20
13.1405673109626
30
0
0
SPLINE
5
2D3
100
AcDbEntity
8
SK1
62
256
6
ByLayer
370
13
48
1
60
0
100
AcDbSpline
70
4
71
3
72
8
73
4
40
0
40
0
40
0
40
0
40
1
40
1
40
1
40
1
41
1
10
-78.5162221138915
20
-10.4258292340309
30
0
41
1
10
-78.5439104435588
20
-10.5074660802026
30
0
41
1
10
-78.5718376779285
20
-10.5890166857158
30
0
41
1
10
-78.5999993841625
20
-10.6704826507519
30
0
0
SPLINE
5
2D4
100
AcDbEntity
8
SK1
62
256
6
ByLayer
370
13
48
1
60
0
100
AcDbSpline
70
4
71
3
72
8
73
4
40
0
40
0
40
0
40
0
40
1
40
1
40
1
40
1
41
1
10
-76.6000022063887
20
-10.6704826507519
30
0
41
1
10
-76.9486457469478
20
-10.3889796865166
30
0
41
1
10
-77.2935001928291
20
-10.1014670365259
30
0
41
1
10
-77.6338131992803
20
-9.80675144594593
30
0
0
SPLINE
5
2D5
100
AcDbEntity
8
SK1
62
256
6
ByLayer
370
13
48
1
60
0
100
AcDbSpline
70
4
71
3
72
22
73
18
40
0
40
0
40
0
40
0
40
0.250000000000013
40
0.250000000000013
40
0.375000000000011
40
0.375000000000011
40
0.500000000000009
40
0.500000000000009
40
0.625000000000006
40
0.625000000000006
40
0.687500000000005
40
0.687500000000005
40
0.750000000000004
40
0.750000000000004
40
0.875000000000002
40
0.875000000000002
40
1
40
1
40
1
40
1
41
1
10
-78.5162221138982
20
10.4258292340508
30
0
41
1
10
-78.4816010925007
20
10.3237518956136
30
0
41
1
10
-78.4411780188043
20
10.2239013321123
30
0
41
1
10
-78.3666785250411
20
10.0794467030181
30
0
41
1
10
-78.3393689035363
20
10.0320610579929
30
0
41
1
10
-78.2793566754053
20
9.94200016242738
30
0
41
1
10
-78.2466129799402
20
9.89906478118272
30
0
41
1
10
-78.1725895963645
20
9.81972659981167
30
0
41
1
10
-78.1310790894698
20
9.78319125007499
30
0
41
1
10
-78.0614135112523
20
9.74017151629326
30
0
41
1
10
-78.0367084860757
20
9.72773410304424
30
0
41
1
10
-77.9859900462305
20
9.70877612675764
30
0
41
1
10
-77.9597650984162
20
9.70209114959093
30
0
41
1
10
-77.8779326920127
20
9.69222679373803
30
0
41
1
10
-77.8229289559465
20
9.7004005561752
30
0
41
1
10
-77.720518632779
20
9.74066343125068
30
0
41
1
10
-77.6749703009745
20
9.77110884838677
30
0
41
1
10
-77.6338131992791
20
9.80675144594503
30
0
0
SPLINE
5
2D6
100
AcDbEntity
8
SK1
62
256
6
ByLayer
370
13
48
1
60
0
100
AcDbSpline
70
4
71
3
72
8
73
4
40
0
40
0
40
0
40
0
40
1
40
1
40
1
40
1
41
1
10
-78.5999993841624
20
10.6704826507521
30
0
41
1
10
-78.571842816211
20
10.5890315497
30
0
41
1
10
-78.5439155289718
20
10.5074810741399
30
0
41
1
10
-78.5162221138982
20
10.4258292340508
30
0
0
SPLINE
5
2D7
100
AcDbEntity
8
SK1
62
256
6
ByLayer
370
13
48
1
60
0
100
AcDbSpline
70
4
71
3
72
8
73
4
40
0
40
0
40
0
40
0
40
1
40
1
40
1
40
1
41
1
10
-77.6338131992799
20
9.80675144594619
30
0
41
1
10
-77.2939543866941
20
10.101073698597
30
0
41
1
10
-76.9490850005699
20
10.3886250228495
30
0
41
1
10
-76.6000022063887
20
10.6704826507521
30
0
0
SPLINE
5
2D8
100
AcDbEntity
8
SK1
62
256
6
ByLayer
370
13
48
1
60
0
100
AcDbSpline
70
4
71
3
72
74
73
70
40
0
40
0
40
0
40
0
40
0.0156249999999999
40
0.0156249999999999
40
0.0234374999999999
40
0.0234374999999999
40
0.0312499999999998
40
0.0312499999999998
40
0.0468749999999997
40
0.0468749999999997
40
0.0624999999999996
40
0.0624999999999996
40
0.0781249999999995
40
0.0781249999999995
40
0.0937499999999994
40
0.0937499999999994
40
0.124999999999999
40
0.124999999999999
40
0.140624999999999
40
0.140624999999999
40
0.156249999999999
40
0.156249999999999
40
0.187499999999999
40
0.187499999999999
40
0.249999999999999
40
0.249999999999999
40
0.281249999999999
40
0.281249999999999
40
0.312499999999999
40
0.312499999999999
40
0.374999999999999
40
0.374999999999999
40
0.437499999999999
40
0.437499999999999
40
0.499999999999999
40
0.499999999999999
40
0.562499999999999
40
0.562499999999999
40
0.593749999999999
40
0.593749999999999
40
0.624999999999999
40
0.624999999999999
40
0.687499999999999
40
0.687499999999999
40
0.749999999999999
40
0.749999999999999
40
0.781249999999999
40
0.781249999999999
40
0.812499999999999
40
0.812499999999999
40
0.84375
40
0.84375
40
0.875
40
0.875
40
0.90625
40
0.90625
40
0.9375
40
0.9375
40
0.9453125
40
0.9453125
40
0.953125
40
0.953125
40
0.96875
40
0.96875
40
0.984375
40
0.984375
40
0.9921875
40
0.9921875
40
1
40
1
40
1
40
1
41
1
10
-6.50000000009537
20
10.670482650752
30
0
41
1
10
-6.37048388891068
20
10.6704826507608
30
0
41
1
10
-6.24446776465052
20
10.6528697557375
30
0
41
1
10
-6.06010517952292
20
10.6029156441243
30
0
41
1
10
-5.99927461449792
20
10.5821925812253
30
0
41
1
10
-5.88223506583904
20
10.5345394314587
30
0
41
1
10
-5.82559748012396
20
10.5075199899682
30
0
41
1
10
-5.66065779452136
20
10.417975973631
30
0
41
1
10
-5.55712762892128
20
10.3466184036529
30
0
41
1
10
-5.36736536971405
20
10.1913586531549
30
0
41
1
10
-5.27997153671004
20
10.1068512703449
30
0
41
1
10
-5.11666218977227
20
9.92704332772249
30
0
41
1
10
-5.04055810401205
20
9.83130794393438
30
0
41
1
10
-4.90046448763793
20
9.63491798753748
30
0
41
1
10
-4.83603834410378
20
9.5338271584321
30
0
41
1
10
-4.65598112089407
20
9.22347109153861
30
0
41
1
10
-4.55339976152399
20
9.00719880738419
30
0
41
1
10
-4.41750582616754
20
8.67228763084432
30
0
41
1
10
-4.37530268897782
20
8.55891791867154
30
0
41
1
10
-4.29686000058592
20
8.33134323345735
30
0
41
1
10
-4.26049265592715
20
8.21682554312125
30
0
41
1
10
-4.1585724311424
20
7.87130398108656
30
0
41
1
10
-4.10013853486055
20
7.63834185023578
30
0
41
1
10
-3.94578977994675
20
6.93282891322849
30
0
41
1
10
-3.87048459563749
20
6.45370790232082
30
0
41
1
10
-3.78175631324949
20
5.72457369042988
30
0
41
1
10
-3.75634074966133
20
5.47976683985843
30
0
41
1
10
-3.7120067271199
20
4.98691048522593
30
0
41
1
10
-3.69308648223611
20
4.73862820397792
30
0
41
1
10
-3.64424139462162
20
3.99444565639502
30
0
41
1
10
-3.62191393829291
20
3.49753056604814
30
0
41
1
10
-3.58913059568964
20
2.50225576491911
30
0
41
1
10
-3.57872244966512
20
2.00389538867495
30
0
41
1
10
-3.56529013292472
20
1.00580199142325
30
0
41
1
10
-3.56228022077386
20
0.506068785393097
30
0
41
1
10
-3.56223334097642
20
-0.494754197166372
30
0
41
1
10
-3.56519357916225
20
-0.995843898846687
30
0
41
1
10
-3.57526735092097
20
-1.74852495498422
30
0
41
1
10
-3.57958751937886
20
-1.99959349362723
30
0
41
1
10
-3.59064705878916
20
-2.50209075145548
30
0
41
1
10
-3.59739709579894
20
-2.75385038007658
30
0
41
1
10
-3.62227132036486
20
-3.50710000839359
30
0
41
1
10
-3.64484459181701
20
-4.00580366741292
30
0
41
1
10
-3.71010606722081
20
-4.99571816607531
30
0
41
1
10
-3.75268745857275
20
-5.48693664959626
30
0
41
1
10
-3.84180186701059
20
-6.21737273914593
30
0
41
1
10
-3.87576317934641
20
-6.45978205407951
30
0
41
1
10
-3.95487127334194
20
-6.94225537606115
30
0
41
1
10
-3.99994180570394
20
-7.18182085753699
30
0
41
1
10
-4.10416683371689
20
-7.65518824089065
30
0
41
1
10
-4.16332953330694
20
-7.88926779084468
30
0
41
1
10
-4.30073575990994
20
-8.35126379883343
30
0
41
1
10
-4.37869000461005
20
-8.57819056735369
30
0
41
1
10
-4.55882768232694
20
-9.01890405609001
30
0
41
1
10
-4.66096064418579
20
-9.23316248710555
30
0
41
1
10
-4.9012460930548
20
-9.6450662502447
30
0
41
1
10
-5.04044720826909
20
-9.84412891865716
30
0
41
1
10
-5.24436673816899
20
-10.0673788314332
30
0
41
1
10
-5.28672193295479
20
-10.1108128419076
30
0
41
1
10
-5.37506018490618
20
-10.1949099292502
30
0
41
1
10
-5.42113974977889
20
-10.2356293471388
30
0
41
1
10
-5.56352602684599
20
-10.3512474104623
30
0
41
1
10
-5.66447995477702
20
-10.4202823836625
30
0
41
1
10
-5.88197798496884
20
-10.5378913469096
30
0
41
1
10
-6.00024980803649
20
-10.5867345345007
30
0
41
1
10
-6.18283559041274
20
-10.6361515407661
30
0
41
1
10
-6.24478714200797
20
-10.6488401790656
30
0
41
1
10
-6.37105473569075
20
-10.6660269221224
30
0
41
1
10
-6.43557318110055
20
-10.6704826507564
30
0
41
1
10
-6.50000000009538
20
-10.6704826507521
30
0
0
SPLINE
5
2D9
100
AcDbEntity
8
SK1
62
256
6
ByLayer
370
13
48
1
60
0
100
AcDbSpline
70
4
71
3
72
18
73
14
40
0
40
0
40
0
40
0
40
0.124999999999994
40
0.124999999999994
40
0.249999999999988
40
0.249999999999988
40
0.374999999999981
40
0.374999999999981
40
0.499999999999975
40
0.499999999999975
40
0.749999999999988
40
0.749999999999988
40
1
40
1
40
1
40
1
41
1
10
-77.6338131992802
20
-9.80675144594582
30
0
41
1
10
-77.6747633651724
20
-9.77128805754603
30
0
41
1
10
-77.7208435774768
20
-9.74055738411698
30
0
41
1
10
-77.8223424340443
20
-9.70060949890774
30
0
41
1
10
-77.877225313581
20
-9.69229190808377
30
0
41
1
10
-77.9860246497556
20
-9.70510854686367
30
0
41
1
10
-78.0378757025226
20
-9.72573581195073
30
0
41
1
10
-78.1301404068999
20
-9.78251362708679
30
0
41
1
10
-78.1717204994047
20
-9.81892837813635
30
0
41
1
10
-78.2826414870913
20
-9.93741839107241
30
0
41
1
10
-78.3411195831128
20
-10.0300646017818
30
0
41
1
10
-78.4407354299096
20
-10.2228684878255
30
0
41
1
10
-78.4816839215995
20
-10.3239961106508
30
0
41
1
10
-78.5162221138915
20
-10.4258292340309
30
0
0
SPLINE
5
2DA
100
AcDbEntity
8
SK1
62
256
6
ByLayer
370
13
48
1
60
0
100
AcDbSpline
70
4
71
3
72
10
73
6
40
0
40
0
40
0
40
0
40
0.5
40
0.5
40
1
40
1
40
1
40
1
41
1
10
-80
20
8.0540176309716
30
0
41
1
10
-79.85176739512
20
8.49565927489135
30
0
41
1
10
-79.6935189817436
20
8.93491944720282
30
0
41
1
10
-79.3587118244384
20
9.80908612108971
30
0
41
1
10
-79.1828143207057
20
10.2422333475178
30
0
41
1
10
-79
20
10.6704826507521
30
0
0
SPLINE
5
2DB
100
AcDbEntity
8
1
62
256
6
ByLayer
370
13
48
1
60
0
100
AcDbSpline
70
4
71
3
72
18
73
14
40
0
40
0
40
0
40
0
40
0.120706145206664
40
0.120706145206664
40
0.296564916165331
40
0.296564916165331
40
0.472423687123998
40
0.472423687123998
40
0.648282458082665
40
0.648282458082665
40
0.824141229041333
40
0.824141229041333
40
1
40
1
40
1
40
1
41
1
10
35.4499785437325
20
-11.0379120367535
30
0
41
1
10
35.4499507172388
20
-11.2585667679112
30
0
41
1
10
35.4499245827247
20
-11.4868153072289
30
0
41
1
10
35.4498650517149
20
-12.0618974757788
30
0
41
1
10
35.4498337945971
20
-12.4152497303883
30
0
41
1
10
35.4497804126898
20
-13.134820127988
30
0
41
1
10
35.4497582889021
20
-13.5010247659358
30
0
41
1
10
35.4497239149429
20
-14.2340358952178
30
0
41
1
10
35.4497116654165
20
-14.6008286292512
30
0
41
1
10
35.4496974505983
20
-15.3227317594861
30
0
41
1
10
35.4496954855731
20
-15.6778286068639
30
0
41
1
10
35.4497019059536
20
-16.3644470170594
30
0
41
1
10
35.4497102912387
20
-16.6959556932843
30
0
41
1
10
35.4497237115183
20
-17.0101250250284
30
0
0
SPLINE
5
2DC
100
AcDbEntity
8
1
62
256
6
ByLayer
370
13
48
1
60
0
100
AcDbSpline
70
4
71
3
72
34
73
30
40
0
40
0
40
0
40
0
40
0.0396413463082245
40
0.0396413463082245
40
0.0929946048466569
40
0.0929946048466569
40
0.146347863385089
40
0.146347863385089
40
0.199701121923522
40
0.199701121923522
40
0.253054380461954
40
0.253054380461954
40
0.359760897538817
40
0.359760897538817
40
0.413114156077249
40
0.413114156077249
40
0.466467414615681
40
0.466467414615681
40
0.573173931692544
40
0.573173931692544
40
0.679880448769408
40
0.679880448769408
40
0.786586965846272
40
0.786586965846272
40
0.839940224384703
40
0.839940224384703
40
0.893293482923135
40
0.893293482923135
40
1
40
1
40
1
40
1
41
1
10
205.522480053115
20
-25.3948454505385
30
0
41
1
10
204.666033504944
20
-25.6024496784378
30
0
41
1
10
203.80991112109
20
-25.8044100163916
30
0
41
1
10
201.801534364085
20
-26.2639499148626
30
0
41
1
10
200.649241690591
20
-26.5165528107798
30
0
41
1
10
198.342621998521
20
-26.9976974734415
30
0
41
1
10
197.188438272336
20
-27.2263517878741
30
0
41
1
10
194.873746866129
20
-27.6560521176621
30
0
41
1
10
193.713234712286
20
-27.8570445870989
30
0
41
1
10
191.384493718655
20
-28.2283728277892
30
0
41
1
10
190.215737730896
20
-28.3987530227538
30
0
41
1
10
186.696222620219
20
-28.8687099873361
30
0
41
1
10
184.332249381041
20
-29.1272431289012
30
0
41
1
10
180.759787451392
20
-29.4494931265384
30
0
41
1
10
179.564116279631
20
-29.5459826776783
30
0
41
1
10
177.166532659357
20
-29.7193338880473
30
0
41
1
10
175.964603497615
20
-29.796215575425
30
0
41
1
10
172.349526157696
20
-30.0012498280527
30
0
41
1
10
169.927084252655
20
-30.1038966517638
30
0
41
1
10
165.058317512512
20
-30.2585185727355
30
0
41
1
10
162.611479516508
20
-30.3105044611761
30
0
41
1
10
157.700689085008
20
-30.3776167297681
30
0
41
1
10
155.235750220187
20
-30.3927156516304
30
0
41
1
10
151.521392555621
20
-30.3984041867534
30
0
41
1
10
150.280168162346
20
-30.3974787988708
30
0
41
1
10
147.794378902191
20
-30.3917644573498
30
0
41
1
10
146.54957791235
20
-30.3869793243024
30
0
41
1
10
142.809481908372
20
-30.3691921858422
30
0
41
1
10
140.308493763028
20
-30.35287135094
30
0
41
1
10
137.8
20
-30.3369686268626
30
0
0
SPLINE
5
2DD
100
AcDbEntity
8
1
62
256
6
ByLayer
370
13
48
1
60
0
100
AcDbSpline
70
4
71
3
72
10
73
6
40
0
40
0
40
0
40
0
40
0.496611907490612
40
0.496611907490612
40
1
40
1
40
1
40
1
41
1
10
35.45
20
-29.9004831436845
30
0
41
1
10
35.45
20
-27.7666480233275
30
0
41
1
10
35.45
20
-25.6328129075432
30
0
41
1
10
35.45
20
-21.3360268679238
30
0
41
1
10
35.45
20
-19.1730759442143
30
0
41
1
10
35.45
20
-17.0101250251971
30
0
0
SPLINE
5
2DE
100
AcDbEntity
8
1
62
256
6
ByLayer
370
13
48
1
60
0
100
AcDbSpline
70
4
71
3
72
8
73
4
40
0
40
0
40
0
40
0
40
1
40
1
40
1
40
1
41
1
10
35.45
20
-29.9004830695361
30
0
41
1
10
35.3033333324526
20
-29.9005347964068
30
0
41
1
10
35.1566666657489
20
-29.9005883133017
30
0
41
1
10
35.01
20
-29.9006436601505
30
0
0
SPLINE
5
2DF
100
AcDbEntity
8
1
62
256
6
ByLayer
370
13
48
1
60
0
100
AcDbSpline
70
4
71
3
72
16
73
12
40
0
40
0
40
0
40
0
40
0.362383743272161
40
0.362383743272161
40
0.543575614908241
40
0.543575614908241
40
0.634171550726281
40
0.634171550726281
40
0.724767486544321
40
0.724767486544321
40
1
40
1
40
1
40
1
41
1
10
6.53189405669526
20
-22.841725082056
30
0
41
1
10
6.80401501016178
20
-21.6783503266105
30
0
41
1
10
7.165028752483
20
-20.5313543199543
30
0
41
1
10
7.84939038378766
20
-18.8356608348538
30
0
41
1
10
8.10149535350583
20
-18.2746006955764
30
0
41
1
10
8.51842754310387
20
-17.4396136416382
30
0
41
1
10
8.66417751346836
20
-17.1618585467921
30
0
41
1
10
8.96753663660701
20
-16.6116738631924
30
0
41
1
10
9.12505582208181
20
-16.3393728161086
30
0
41
1
10
9.78397821811491
20
-15.2506604184247
30
0
41
1
10
10.3314136412568
20
-14.4560561687689
30
0
41
1
10
10.9291433010379
20
-13.6848287178858
30
0
0
SPLINE
5
2E0
100
AcDbEntity
8
1
62
256
6
ByLayer
370
13
48
1
60
0
100
AcDbSpline
70
4
71
3
72
8
73
4
40
0
40
0
40
0
40
0
40
1
40
1
40
1
40
1
41
1
10
270.49854280623
20
23.050261764957
30
0
41
1
10
270.486759801547
20
23.029637662349
30
0
41
1
10
270.474199875524
20
23.010836997088
30
0
41
1
10
270.461358086286
20
22.9937724167352
30
0
0
SPLINE
5
2E1
100
AcDbEntity
8
1
62
256
6
ByLayer
370
13
48
1
60
0
100
AcDbSpline
70
4
71
3
72
8
73
4
40
0
40
0
40
0
40
0
40
1
40
1
40
1
40
1
41
1
10
269.140709183595
20
10.2389306012551
30
0
41
1
10
269.226523231447
20
10.2159384155345
30
0
41
1
10
269.307791544964
20
10.1945034649596
30
0
41
1
10
269.383828100296
20
10.1748358832585
30
0
0
SPLINE
5
2E2
100
AcDbEntity
8
1
62
256
6
ByLayer
370
13
48
1
60
0
100
AcDbSpline
70
4
71
3
72
14
73
10
40
0
40
0
40
0
40
0
40
0.0145581563121443
40
0.0145581563121443
40
0.343038770874763
40
0.343038770874763
40
0.671519385437382
40
0.671519385437382
40
1
40
1
40
1
40
1
41
1
10
271.191890710356
20
29.1965465675038
30
0
41
1
10
271.191899997023
20
29.193373538151
30
0
41
1
10
271.19191178338
20
29.190191701388
30
0
41
1
10
271.192240074466
20
29.1150724724843
30
0
41
1
10
271.193704453329
20
29.0383936860466
30
0
41
1
10
271.197343052513
20
28.8838104278971
30
0
41
1
10
271.199589420293
20
28.8054021627861
30
0
41
1
10
271.204543214699
20
28.647695143629
30
0
41
1
10
271.207258979334
20
28.5683898811874
30
0
41
1
10
271.210137023227
20
28.4887777116072
30
0
0
SPLINE
5
2E3
100
AcDbEntity
8
1
62
256
6
ByLayer
370
13
48
1
60
0
100
AcDbSpline
70
4
71
3
72
12
73
8
40
0
40
0
40
0
40
0
40
0.500000000000001
40
0.500000000000001
40
0.75
40
0.75
40
1
40
1
40
1
40
1
41
1
10
263.468166910226
20
2.59704396134416
30
0
41
1
10
263.949127272248
20
2.50020534413778
30
0
41
1
10
264.432915115512
20
2.46318356504906
30
0
41
1
10
265.156891761956
20
2.49790194257159
30
0
41
1
10
265.397920249311
20
2.52461131141197
30
0
41
1
10
265.878078226025
20
2.60957174338154
30
0
41
1
10
266.11357392408
20
2.66723784131256
30
0
41
1
10
266.342746072432
20
2.73919859813375
30
0
0
SPLINE
5
2E4
100
AcDbEntity
8
1
62
256
6
ByLayer
370
13
48
1
60
0
100
AcDbSpline
70
4
71
3
72
16
73
12
40
0
40
0
40
0
40
0
40
0.499999999999993
40
0.499999999999993
40
0.62499999999999
40
0.62499999999999
40
0.687499999999991
40
0.687499999999991
40
0.749999999999993
40
0.749999999999993
40
1
40
1
40
1
40
1
41
1
10
257.413464938806
20
30.0238554504836
30
0
41
1
10
258.390195111281
20
27.7643091680423
30
0
41
1
10
259.522837897933
20
25.5956946686183
30
0
41
1
10
261.20089724942
20
23.0378801319979
30
0
41
1
10
261.549642562146
20
22.533976947035
30
0
41
1
10
262.093739033056
20
21.7903573090348
30
0
41
1
10
262.278600678054
20
21.5445231333103
30
0
41
1
10
262.655524493127
20
21.0570542918718
30
0
41
1
10
262.847776756645
20
20.8151924496504
30
0
41
1
10
263.824485966294
20
19.6203713644944
30
0
41
1
10
264.655861759146
20
18.710160499298
30
0
41
1
10
265.538359325908
20
17.8466118642209
30
0
0
SPLINE
5
2E5
100
AcDbEntity
8
1
62
256
6
ByLayer
370
13
48
1
60
0
100
AcDbSpline
70
4
71
3
72
8
73
4
40
0
40
0
40
0
40
0
40
1
40
1
40
1
40
1
41
1
10
32.1414286378654
20
-29.9152706181469
30
0
41
1
10
32.1414286399326
20
-30.1451958209408
30
0
41
1
10
32.1414286420228
20
-30.3751210237171
30
0
41
1
10
32.141428644136
20
-30.6050462264758
30
0
0
SPLINE
5
2E6
100
AcDbEntity
8
1
62
256
6
ByLayer
370
13
48
1
60
0
100
AcDbSpline
70
4
71
3
72
8
73
4
40
0
40
0
40
0
40
0
40
1
40
1
40
1
40
1
41
1
10
279.085172465964
20
12.6934943857575
30
0
41
1
10
279.141760801968
20
12.6964600547806
30
0
41
1
10
279.198283604011
20
12.6896305498353
30
0
41
1
10
279.252115878551
20
12.674427620777
30
0
0
SPLINE
5
2E7
100
AcDbEntity
8
1
62
256
6
ByLayer
370
13
48
1
60
0
100
AcDbSpline
70
4
71
3
72
8
73
4
40
0
40
0
40
0
40
0
40
1
40
1
40
1
40
1
41
1
10
268.539169144042
20
-30.5697804468542
30
0
41
1
10
267.539169143317
20
-30.4653045898017
30
0
41
1
10
266.53916914331
20
-30.3608287259519
30
0
41
1
10
265.539169144042
20
-30.2563528550913
30
0
0
SPLINE
5
2E8
100
AcDbEntity
8
1
62
256
6
ByLayer
370
13
48
1
60
0
100
AcDbSpline
70
4
71
3
72
8
73
4
40
0
40
0
40
0
40
0
40
1
40
1
40
1
40
1
41
1
10
0.0999999999999659
20
-5.56776436282993
30
0
41
1
10
0.0648944344305846
20
-5.37072855948901
30
0
41
1
10
0.03155109950454
20
-5.17345582387856
30
0
41
1
10
0
20
-4.97594212184998
30
0
0
SPLINE
5
2E9
100
AcDbEntity
8
1
62
256
6
ByLayer
370
13
48
1
60
0
100
AcDbSpline
70
4
71
3
72
8
73
4
40
0
40
0
40
0
40
0
40
1
40
1
40
1
40
1
41
1
10
269.914102829353
20
10.0399414793013
30
0
41
1
10
269.836247677721
20
10.058401627313
30
0
41
1
10
269.757602645161
20
10.077863228848
30
0
41
1
10
269.678137889222
20
10.0984101606324
30
0
0
SPLINE
5
2EA
100
AcDbEntity
8
1
62
256
6
ByLayer
370
13
48
1
60
0
100
AcDbSpline
70
4
71
3
72
8
73
4
40
0
40
0
40
0
40
0
40
1
40
1
40
1
40
1
41
1
10
5.31239999999997
20
-5.56776436283008
30
0
41
1
10
7.01379056974075
20
-5.5677643628301
30
0
41
1
10
8.71382453216818
20
-5.52033118437765
30
0
41
1
10
10.4124
20
-5.42190238343156
30
0
0
SPLINE
5
2EB
100
AcDbEntity
8
1
62
256
6
ByLayer
370
13
48
1
60
0
100
AcDbSpline
70
4
71
3
72
22
73
18
40
0
40
0
40
0
40
0
40
0.125
40
0.125
40
0.25
40
0.25
40
0.375
40
0.375
40
0.5
40
0.5
40
0.625
40
0.625
40
0.75
40
0.75
40
0.875
40
0.875
40
1
40
1
40
1
40
1
41
1
10
269.486036065332
20
9.3909365982544
30
0
41
1
10
269.446096193279
20
9.32447704167322
30
0
41
1
10
269.402112509391
20
9.26071093330836
30
0
41
1
10
269.306081737901
20
9.14116707018607
30
0
41
1
10
269.253904448814
20
9.08510465615572
30
0
41
1
10
269.139195112417
20
8.98228295750712
30
0
41
1
10
269.078123799377
20
8.93690655730256
30
0
41
1
10
268.948360722242
20
8.86091836545879
30
0
41
1
10
268.878595885359
20
8.83010258175574
30
0
41
1
10
268.737934369606
20
8.78862895239632
30
0
41
1
10
268.666323159823
20
8.7773809073494
30
0
41
1
10
268.520962664799
20
8.77428904689003
30
0
41
1
10
268.450295720433
20
8.78245951523758
30
0
41
1
10
268.312168247835
20
8.81445452885134
30
0
41
1
10
268.245037791014
20
8.83834952225527
30
0
41
1
10
268.117543232204
20
8.89612286893581
30
0
41
1
10
268.05645933824
20
8.93017342907606
30
0
41
1
10
267.997175283175
20
8.967840593527
30
0
0
SPLINE
5
2EC
100
AcDbEntity
8
1
62
256
6
ByLayer
370
13
48
1
60
0
100
AcDbSpline
70
4
71
3
72
8
73
4
40
0
40
0
40
0
40
0
40
1
40
1
40
1
40
1
41
1
10
269.486036065385
20
9.39093659829288
30
0
41
1
10
269.480606098143
20
9.65307446762742
30
0
41
1
10
269.446160249022
20
9.91413176438408
30
0
41
1
10
269.383828100297
20
10.1748358832614
30
0
0
SPLINE
5
2ED
100
AcDbEntity
8
1
62
256
6
ByLayer
370
13
48
1
60
0
100
AcDbSpline
70
4
71
3
72
10
73
6
40
0
40
0
40
0
40
0
40
0.5
40
0.5
40
1
40
1
40
1
40
1
41
1
10
266.997505572177
20
13.9580055956542
30
0
41
1
10
267.202328998284
20
13.9380806774805
30
0
41
1
10
267.401574811747
20
13.9255393063398
30
0
41
1
10
267.792576098452
20
13.911469598283
30
0
41
1
10
267.984312021396
20
13.9099123341565
30
0
41
1
10
268.173379692867
20
13.9124338599611
30
0
0
SPLINE
5
2EE
100
AcDbEntity
8
1
62
256
6
ByLayer
370
13
48
1
60
0
100
AcDbSpline
70
4
71
3
72
34
73
30
40
0
40
0
40
0
40
0
40
0.0370468627581074
40
0.0370468627581074
40
0.0905442592715452
40
0.0905442592715452
40
0.144041655784983
40
0.144041655784983
40
0.197539052298421
40
0.197539052298421
40
0.251036448811859
40
0.251036448811859
40
0.304533845325296
40
0.304533845325296
40
0.331282543582016
40
0.331282543582016
40
0.358031241838735
40
0.358031241838735
40
0.411528638352174
40
0.411528638352174
40
0.465026034865612
40
0.465026034865612
40
0.57202082789249
40
0.57202082789249
40
0.679015620919367
40
0.679015620919367
40
0.786010413946245
40
0.786010413946245
40
1
40
1
40
1
40
1
41
1
10
165.190117657732
20
-15.77164533703
30
0
41
1
10
163.602660884444
20
-15.8806199498493
30
0
41
1
10
162.013402150501
20
-15.9832768748274
30
0
41
1
10
158.124259985494
20
-16.2165708607914
30
0
41
1
10
155.822128754334
20
-16.3390303113908
30
0
41
1
10
151.207783087082
20
-16.548610854957
30
0
41
1
10
148.894065514541
20
-16.635050835831
30
0
41
1
10
144.267983188903
20
-16.7735140283539
30
0
41
1
10
141.954596498614
20
-16.8261485618503
30
0
41
1
10
137.327162027958
20
-16.908037138312
30
0
41
1
10
135.013115540383
20
-16.937373575541
30
0
41
1
10
130.384388207909
20
-16.9802837933459
30
0
41
1
10
128.069705101136
20
-16.9937870120039
30
0
41
1
10
124.597179162496
20
-17.0054897571274
30
0
41
1
10
123.439583332818
20
-17.0080287065393
30
0
41
1
10
121.124239103557
20
-17.010369888092
30
0
41
1
10
119.966503931723
20
-17.0101030680024
30
0
41
1
10
116.493294496139
20
-17.0097310502705
30
0
41
1
10
114.1777838057
20
-17.01010760663
30
0
41
1
10
109.546721154789
20
-17.0101239736135
30
0
41
1
10
107.231174041953
20
-17.0101706010726
30
0
41
1
10
100.284563393974
20
-17.0103186014707
30
0
41
1
10
95.6535159131583
20
-17.010175664523
30
0
41
1
10
86.3914414503829
20
-17.0099527026366
30
0
41
1
10
81.7604142344695
20
-17.0098509211425
30
0
41
1
10
72.4983446364957
20
-17.0099060063495
30
0
41
1
10
67.8673028959237
20
-17.0100671223013
30
0
41
1
10
53.9741673949095
20
-17.0102827861724
30
0
41
1
10
44.7120639544144
20
-17.010130680935
30
0
41
1
10
35.4499999999999
20
-17.0101250251971
30
0
0
SPLINE
5
2EF
100
AcDbEntity
8
1
62
256
6
ByLayer
370
13
48
1
60
0
100
AcDbSpline
70
4
71
3
72
20
73
16
40
0
40
0
40
0
40
0
40
0.176110599327116
40
0.176110599327116
40
0.352221198654232
40
0.352221198654232
40
0.528331797981349
40
0.528331797981349
40
0.616387097644907
40
0.616387097644907
40
0.704442397308465
40
0.704442397308465
40
0.88055299663558
40
0.88055299663558
40
1
40
1
40
1
40
1
41
1
10
35.01
20
-17.0101250251971
30
0
41
1
10
35.01
20
-16.6931529191312
30
0
41
1
10
35.01
20
-16.3636727737015
30
0
41
1
10
35.01
20
-15.6807392526956
30
0
41
1
10
35.01
20
-15.3245127441622
30
0
41
1
10
35.01
20
-14.5994611800952
30
0
41
1
10
35.01
20
-14.2357485344332
30
0
41
1
10
35.01
20
-13.6884458633745
30
0
41
1
10
35.01
20
-13.5057208691954
30
0
41
1
10
35.01
20
-13.1396749147295
30
0
41
1
10
35.01
20
-12.9561732789766
30
0
41
1
10
35.01
20
-12.4160912782312
30
0
41
1
10
35.01
20
-12.0660294726752
30
0
41
1
10
35.01
20
-11.4951320043607
30
0
41
1
10
35.01
20
-11.2677896853439
30
0
41
1
10
35.01
20
-11.0485740252112
30
0
0
SPLINE
5
2F0
100
AcDbEntity
8
1
62
256
6
ByLayer
370
13
48
1
60
0
100
AcDbSpline
70
4
71
3
72
46
73
42
40
0
40
0
40
0
40
0
40
0.0625000000000005
40
0.0625000000000005
40
0.125000000000001
40
0.125000000000001
40
0.156250000000001
40
0.156250000000001
40
0.187500000000001
40
0.187500000000001
40
0.250000000000001
40
0.250000000000001
40
0.312500000000001
40
0.312500000000001
40
0.375000000000001
40
0.375000000000001
40
0.437500000000001
40
0.437500000000001
40
0.500000000000001
40
0.500000000000001
40
0.531250000000002
40
0.531250000000002
40
0.562500000000002
40
0.562500000000002
40
0.625000000000001
40
0.625000000000001
40
0.687500000000001
40
0.687500000000001
40
0.718750000000001
40
0.718750000000001
40
0.750000000000001
40
0.750000000000001
40
0.812500000000001
40
0.812500000000001
40
0.875
40
0.875
40
0.90625
40
0.90625
40
0.9375
40
0.9375
40
1
40
1
40
1
40
1
41
1
10
16.7952602106196
20
-11.8839917709993
30
0
41
1
10
16.3880094281328
20
-11.8914128549126
30
0
41
1
10
15.9848645757808
20
-11.9232532997247
30
0
41
1
10
15.1859921748632
20
-12.0309219442049
30
0
41
1
10
14.7902987132798
20
-12.1069531925702
30
0
41
1
10
14.2021628834369
20
-12.2528346385831
30
0
41
1
10
14.0065128074715
20
-12.3069567681452
30
0
41
1
10
13.6207735499359
20
-12.4246349814298
30
0
41
1
10
13.4304261642583
20
-12.4882224232947
30
0
41
1
10
12.8666325034723
20
-12.6925079820266
30
0
41
1
10
12.5003932829916
20
-12.8466540166883
30
0
41
1
10
11.7862425334101
20
-13.188406821792
30
0
41
1
10
11.4382435920228
20
-13.3758494088802
30
0
41
1
10
10.7608418922823
20
-13.7838622405339
30
0
41
1
10
10.4362103686994
20
-14.0016749096796
30
0
41
1
10
9.81644280483907
20
-14.4605500454349
30
0
41
1
10
9.52083549937925
20
-14.701934962236
30
0
41
1
10
8.95796464757331
20
-15.2073683297225
30
0
41
1
10
8.69080708339742
20
-15.4715196965102
30
0
41
1
10
8.31238813736698
20
-15.8848302227477
30
0
41
1
10
8.19025828523606
20
-16.0252017325947
30
0
41
1
10
7.95657394026452
20
-16.3080178219119
30
0
41
1
10
7.84463717211317
20
-16.4508724611126
30
0
41
1
10
7.52345382165184
20
-16.8835518420454
30
0
41
1
10
7.32878100750447
20
-17.1774732233875
30
0
41
1
10
6.97915222674828
20
-17.7755460618322
30
0
41
1
10
6.8241140557727
20
-18.0796664084115
30
0
41
1
10
6.62352383654138
20
-18.5435360910608
30
0
41
1
10
6.56183021527092
20
-18.7000422687295
30
0
41
1
10
6.45112427759604
20
-19.0113820386633
30
0
41
1
10
6.40191731754305
20
-19.1664717715576
30
0
41
1
10
6.27267616781606
20
-19.6299306436979
30
0
41
1
10
6.21110884334135
20
-19.936500016616
30
0
41
1
10
6.13671256995499
20
-20.5443930120148
30
0
41
1
10
6.12422411142411
20
-20.8457503248779
30
0
41
1
10
6.14473004119016
20
-21.2937317051247
30
0
41
1
10
6.15822150949647
20
-21.442591336885
30
0
41
1
10
6.19821263237228
20
-21.7345977826972
30
0
41
1
10
6.22471214938243
20
-21.878286089084
30
0
41
1
10
6.32338108189805
20
-22.3026065577865
30
0
41
1
10
6.41484755781653
20
-22.5764794339003
30
0
41
1
10
6.53189405669526
20
-22.8417250820559
30
0
0
SPLINE
5
2F1
100
AcDbEntity
8
1
62
256
6
ByLayer
370
13
48
1
60
0
100
AcDbSpline
70
4
71
3
72
26
73
22
40
0
40
0
40
0
40
0
40
0.022533179217018
40
0.022533179217018
40
0.0739788013634911
40
0.0739788013634911
40
0.176870045656437
40
0.176870045656437
40
0.382652534242327
40
0.382652534242327
40
0.485543778535273
40
0.485543778535273
40
0.536989400681746
40
0.536989400681746
40
0.588435022828218
40
0.588435022828218
40
0.691326267121164
40
0.691326267121164
40
0.794217511414109
40
0.794217511414109
40
1
40
1
40
1
40
1
41
1
10
17.0028485921884
20
-11.8790776534101
30
0
41
1
10
16.8782453767528
20
-11.96374897972
30
0
41
1
10
16.7543383154045
20
-12.0493579370078
30
0
41
1
10
16.349836296361
20
-12.3335109960542
30
0
41
1
10
16.0739890103963
20
-12.5347559015742
30
0
41
1
10
15.2625559118891
20
-13.1491333324968
30
0
41
1
10
14.7430116560022
20
-13.5728976623299
30
0
41
1
10
13.2479216843765
20
-14.8858793794549
30
0
41
1
10
12.3363925527028
20
-15.8180098290596
30
0
41
1
10
11.0915547887452
20
-17.2987545244027
30
0
41
1
10
10.6971161038904
20
-17.806049536187
30
0
41
1
10
10.1368811317582
20
-18.5878155052867
30
0
41
1
10
9.95532317566253
20
-18.8519786906642
30
0
41
1
10
9.60320723737959
20
-19.3870080055276
30
0
41
1
10
9.43361183401414
20
-19.6564037416908
30
0
41
1
10
8.94412115044767
20
-20.4701463270141
30
0
41
1
10
8.64372156397458
20
-21.0198682681439
30
0
41
1
10
8.0936686537359
20
-22.135362825978
30
0
41
1
10
7.84366213665248
20
-22.7009418096864
30
0
41
1
10
7.16391172295155
20
-24.4194178919708
30
0
41
1
10
6.80375272289081
20
-25.593873045315
30
0
41
1
10
6.53178875949997
20
-26.7946735361159
30
0
0
SPLINE
5
2F2
100
AcDbEntity
8
1
62
256
6
ByLayer
370
13
48
1
60
0
100
AcDbSpline
70
4
71
3
72
8
73
4
40
0
40
0
40
0
40
0
40
1
40
1
40
1
40
1
41
1
10
40
20
-11.0490045998693
30
0
41
1
10
38.3333332843028
20
-11.0487757099581
30
0
41
1
10
36.6666665769682
20
-11.048355461811
30
0
41
1
10
35
20
-11.0476809346335
30
0
0
SPLINE
5
2F3
100
AcDbEntity
8
1
62
256
6
ByLayer
370
13
48
1
60
0
100
AcDbSpline
70
4
71
3
72
8
73
4
40
0
40
0
40
0
40
0
40
1
40
1
40
1
40
1
41
1
10
258.226977888447
20
4.8592038834669
30
0
41
1
10
258.283670578554
20
4.84328220171642
30
0
41
1
10
258.34034206384
20
4.82745984372542
30
0
41
1
10
258.39699210428
20
4.81173793378514
30
0
0
SPLINE
5
2F4
100
AcDbEntity
8
1
62
256
6
ByLayer
370
13
48
1
60
0
100
AcDbSpline
70
4
71
3
72
10
73
6
40
0
40
0
40
0
40
0
40
0.5
40
0.5
40
1
40
1
40
1
40
1
41
1
10
265.539169144041
20
0.0968733164187086
30
0
41
1
10
265.945226195193
20
-0.090773378662675
30
0
41
1
10
266.359510217005
20
-0.247415626033757
30
0
41
1
10
267.204918916066
20
-0.496043716857002
30
0
41
1
10
267.636026662659
20
-0.58809483367196
30
0
41
1
10
268.076336194489
20
-0.644429273448509
30
0
0
SPLINE
5
2F5
100
AcDbEntity
8
1
62
256
6
ByLayer
370
13
48
1
60
0
100
AcDbSpline
70
4
71
3
72
10
73
6
40
0
40
0
40
0
40
0
40
0.5
40
0.5
40
1
40
1
40
1
40
1
41
1
10
274.929458131622
20
11.4466612157276
30
0
41
1
10
274.893998060843
20
11.4037116818992
30
0
41
1
10
274.857776562228
20
11.3627882238653
30
0
41
1
10
274.786685914892
20
11.287235080642
30
0
41
1
10
274.751589834791
20
11.2523176291366
30
0
41
1
10
274.717701577099
20
11.2205882498973
30
0
0
SPLINE
5
2F6
100
AcDbEntity
8
1
62
256
6
ByLayer
370
13
48
1
60
0
100
AcDbSpline
70
4
71
3
72
8
73
4
40
0
40
0
40
0
40
0
40
1
40
1
40
1
40
1
41
1
10
261.600901351303
20
3.22675251462019
30
0
41
1
10
260.530131973758
20
3.74598053435216
30
0
41
1
10
259.462194953452
20
4.27441539510042
30
0
41
1
10
258.396992104279
20
4.81173793378522
30
0
0
SPLINE
5
2F7
100
AcDbEntity
8
1
62
256
6
ByLayer
370
13
48
1
60
0
100
AcDbSpline
70
4
71
3
72
60
73
56
40
0
40
0
40
0
40
0
40
0.0624999999999947
40
0.0624999999999947
40
0.0937499999999925
40
0.0937499999999925
40
0.12499999999999
40
0.12499999999999
40
0.13281249999999
40
0.13281249999999
40
0.14062499999999
40
0.14062499999999
40
0.15624999999999
40
0.15624999999999
40
0.17187499999999
40
0.17187499999999
40
0.17968749999999
40
0.17968749999999
40
0.18749999999999
40
0.18749999999999
40
0.19531249999999
40
0.19531249999999
40
0.20312499999999
40
0.20312499999999
40
0.21874999999999
40
0.21874999999999
40
0.249999999999991
40
0.249999999999991
40
0.312499999999991
40
0.312499999999991
40
0.374999999999992
40
0.374999999999992
40
0.437499999999993
40
0.437499999999993
40
0.499999999999994
40
0.499999999999994
40
0.531249999999994
40
0.531249999999994
40
0.562499999999995
40
0.562499999999995
40
0.624999999999996
40
0.624999999999996
40
0.656249999999996
40
0.656249999999996
40
0.687499999999996
40
0.687499999999996
40
0.749999999999997
40
0.749999999999997
40
0.812499999999998
40
0.812499999999998
40
0.874999999999999
40
0.874999999999999
40
0.937499999999999
40
0.937499999999999
40
1
40
1
40
1
40
1
41
1
10
252.12340903859
20
-30.2563528550912
30
0
41
1
10
249.646153525531
20
-30.2254834532984
30
0
41
1
10
247.15852681464
20
-30.200258071265
30
0
41
1
10
243.430813285923
20
-30.1552524744263
30
0
41
1
10
242.188999751737
20
-30.1387881023541
30
0
41
1
10
239.714080253411
20
-30.0959969857041
30
0
41
1
10
238.480853139041
20
-30.0697647209066
30
0
41
1
10
236.94871414224
20
-30.0241978597382
30
0
41
1
10
236.64276085326
20
-30.0144279321268
30
0
41
1
10
236.03192674869
20
-29.9933225376245
30
0
41
1
10
235.726821687158
20
-29.9819774614956
30
0
41
1
10
234.815836018618
20
-29.9452615177997
30
0
41
1
10
234.213817669464
20
-29.9172442597893
30
0
41
1
10
233.022706227933
20
-29.8513908835574
30
0
41
1
10
232.433735877819
20
-29.8135032935973
30
0
41
1
10
231.562188006408
20
-29.7463125269634
30
0
41
1
10
231.273663171678
20
-29.7221706836005
30
0
41
1
10
230.699805750385
20
-29.670521404637
30
0
41
1
10
230.414575779668
20
-29.6429347582484
30
0
41
1
10
229.84397633476
20
-29.5862857323194
30
0
41
1
10
229.558450054494
20
-29.5573483378581
30
0
41
1
10
228.9876286165
20
-29.4978052491719
30
0
41
1
10
228.702407900606
20
-29.4671624732751
30
0
41
1
10
227.847117991388
20
-29.3728326395241
30
0
41
1
10
227.277163774269
20
-29.3068314755969
30
0
41
1
10
225.566239380688
20
-29.100619643687
30
0
41
1
10
224.425012002948
20
-28.9517873413108
30
0
41
1
10
221.002884443965
20
-28.4691518444097
30
0
41
1
10
218.722737211395
20
-28.0995732330553
30
0
41
1
10
214.160782935256
20
-27.2668819527498
30
0
41
1
10
211.881334151237
20
-26.8044378453822
30
0
41
1
10
207.314434296418
20
-25.8037111697197
30
0
41
1
10
205.025872963943
20
-25.2655906205827
30
0
41
1
10
200.42396514091
20
-24.145262047037
30
0
41
1
10
198.113896115537
20
-23.56362050698
30
0
41
1
10
194.628270147145
20
-22.6795347688284
30
0
41
1
10
193.463061161347
20
-22.3827974480133
30
0
41
1
10
191.125563033906
20
-21.7876459077788
30
0
41
1
10
189.952959073956
20
-21.4891517745866
30
0
41
1
10
186.426728571326
20
-20.5955313596842
30
0
41
1
10
184.064666952515
20
-20.0022648282197
30
0
41
1
10
180.502095379116
20
-19.130801414013
30
0
41
1
10
179.31133285542
20
-18.8433704879186
30
0
41
1
10
176.922949302472
20
-18.2769638221755
30
0
41
1
10
175.725146784752
20
-17.9979494166712
30
0
41
1
10
172.124402039358
20
-17.1779528541128
30
0
41
1
10
169.713028599629
20
-16.6539277270149
30
0
41
1
10
164.865932336641
20
-15.6690436703366
30
0
41
1
10
162.429482385694
20
-15.2071323685468
30
0
41
1
10
157.54127143789
20
-14.3479465515874
30
0
41
1
10
155.089209156276
20
-13.9504925364408
30
0
41
1
10
150.169906118338
20
-13.2215976474546
30
0
41
1
10
147.702730964819
20
-12.8904791323172
30
0
41
1
10
142.759405584029
20
-12.3012059358174
30
0
41
1
10
140.282476863676
20
-12.0426491026012
30
0
41
1
10
137.8
20
-11.8237089146145
30
0
0
SPLINE
5
2F8
100
AcDbEntity
8
1
62
256
6
ByLayer
370
13
48
1
60
0
100
AcDbSpline
70
4
71
3
72
16
73
12
40
0
40
0
40
0
40
0
40
0.249999999999995
40
0.249999999999995
40
0.49999999999999
40
0.49999999999999
40
0.624999999999997
40
0.624999999999997
40
0.750000000000004
40
0.750000000000004
40
1
40
1
40
1
40
1
41
1
10
269.914102829354
20
10.0399414793014
30
0
41
1
10
270.478028106255
20
9.88989002592555
30
0
41
1
10
271.041851098482
20
9.78808693170123
30
0
41
1
10
272.170054345128
20
9.67132650337473
30
0
41
1
10
272.734427367812
20
9.65647083179311
30
0
41
1
10
273.581401796822
20
9.69825465618754
30
0
41
1
10
273.863808271318
20
9.72291543875215
30
0
41
1
10
274.428614408235
20
9.79409860975059
30
0
41
1
10
274.708262277309
20
9.84027349121664
30
0
41
1
10
275.538944368144
20
10.0098399011807
30
0
41
1
10
276.081785163172
20
10.1641213674052
30
0
41
1
10
276.612858801702
20
10.3597674971403
30
0
0
SPLINE
5
2F9
100
AcDbEntity
8
1
62
256
6
ByLayer
370
13
48
1
60
0
100
AcDbSpline
70
4
71
3
72
12
73
8
40
0
40
0
40
0
40
0
40
0.5
40
0.5
40
0.75
40
0.75
40
1
40
1
40
1
40
1
41
1
10
28.8277429170335
20
-11.6049818139957
30
0
41
1
10
29.3528234036348
20
-11.4229042338851
30
0
41
1
10
29.89398230797
20
-11.2834509482001
30
0
41
1
10
30.7307511212721
20
-11.1417544440914
30
0
41
1
10
31.0119023184141
20
-11.1062121694104
30
0
41
1
10
31.5751366248327
20
-11.0588758522438
30
0
41
1
10
31.8577695965395
20
-11.0469857618502
30
0
41
1
10
32.1414287964796
20
-11.0470051341361
30
0
0
SPLINE
5
2FA
100
AcDbEntity
8
1
62
256
6
ByLayer
370
13
48
1
60
0
100
AcDbSpline
70
4
71
3
72
10
73
6
40
0
40
0
40
0
40
0
40
0.5
40
0.5
40
1
40
1
40
1
40
1
41
1
10
267.997175283175
20
8.96784059352746
30
0
41
1
10
267.415800863927
20
9.3372270302896
30
0
41
1
10
266.809416196534
20
9.67358627749235
30
0
41
1
10
265.560070343688
20
10.2980037879038
30
0
41
1
10
264.916953913509
20
10.585857043269
30
0
41
1
10
264.258888840528
20
10.8539699243456
30
0
0
SPLINE
5
2FB
100
AcDbEntity
8
1
62
256
6
ByLayer
370
13
48
1
60
0
100
AcDbSpline
70
4
71
3
72
8
73
4
40
0
40
0
40
0
40
0
40
1
40
1
40
1
40
1
41
1
10
264.258888840528
20
10.8539699243456
30
0
41
1
10
264.351331925836
20
11.1926284772438
30
0
41
1
10
264.436281178087
20
11.5324614906976
30
0
41
1
10
264.517065286874
20
11.8729472804637
30
0
0
SPLINE
5
2FC
100
AcDbEntity
8
1
62
256
6
ByLayer
370
13
48
1
60
0
100
AcDbSpline
70
4
71
3
72
16
73
12
40
0
40
0
40
0
40
0
40
0.249999999999956
40
0.249999999999956
40
0.499999999999911
40
0.499999999999911
40
0.624999999999933
40
0.624999999999933
40
0.749999999999956
40
0.749999999999956
40
1
40
1
40
1
40
1
41
1
10
274.717701577094
20
11.2205882498922
30
0
41
1
10
274.690107789464
20
11.1947523464855
30
0
41
1
10
274.664394051735
20
11.1720994389787
30
0
41
1
10
274.618609168727
20
11.1340744974085
30
0
41
1
10
274.599216294079
20
11.1192806532547
30
0
41
1
10
274.578650480834
20
11.1055609837174
30
0
41
1
10
274.573297702035
20
11.1024529886901
30
0
41
1
10
274.565916922274
20
11.0993947238707
30
0
41
1
10
274.56395140094
20
11.0994999804767
30
0
41
1
10
274.563502567875
20
11.1047088924633
30
0
41
1
10
274.570602023584
20
11.1149685112715
30
0
41
1
10
274.583045292631
20
11.1302552921008
30
0
0
SPLINE
5
2FD
100
AcDbEntity
8
1
62
256
6
ByLayer
370
13
48
1
60
0
100
AcDbSpline
70
4
71
3
72
20
73
16
40
0
40
0
40
0
40
0
40
0.249999999999998
40
0.249999999999998
40
0.312499999999998
40
0.312499999999998
40
0.374999999999998
40
0.374999999999998
40
0.499999999999999
40
0.499999999999999
40
0.625
40
0.625
40
0.75
40
0.75
40
1
40
1
40
1
40
1
41
1
10
6.53189405669526
20
-22.8417250820559
30
0
41
1
10
6.34024619757599
20
-23.2006368754856
30
0
41
1
10
6.19307244374802
20
-23.5593222127847
30
0
41
1
10
6.06873814577577
20
-24.0062121129384
30
0
41
1
10
6.04690914476677
20
-24.0953896903045
30
0
41
1
10
6.00969335988435
20
-24.2718125498325
30
0
41
1
10
5.99424443788942
20
-24.359270950396
30
0
41
1
10
5.95725906701598
20
-24.6193931508237
30
0
41
1
10
5.9450793483397
20
-24.7898046362317
30
0
41
1
10
5.94509276410611
20
-25.1246368106537
30
0
41
1
10
5.95757435025355
20
-25.2890568277296
30
0
41
1
10
6.00700345311137
20
-25.6118988414046
30
0
41
1
10
6.04405134097533
20
-25.7706407877853
30
0
41
1
10
6.19286886171597
20
-26.2357763955342
30
0
41
1
10
6.33983953968591
20
-26.5246481566491
30
0
41
1
10
6.53178875949997
20
-26.7946735361159
30
0
0
SPLINE
5
2FE
100
AcDbEntity
8
1
62
256
6
ByLayer
370
13
48
1
60
0
100
AcDbSpline
70
4
71
3
72
10
73
6
40
0
40
0
40
0
40
0
40
0.5
40
0.5
40
1
40
1
40
1
40
1
41
1
10
266.54487789496
20
13.9485272061243
30
0
41
1
10
266.619085010993
20
13.9568000207124
30
0
41
1
10
266.693713213088
20
13.9627830279524
30
0
41
1
10
266.84432057202
20
13.967402738753
30
0
41
1
10
266.920264890827
20
13.9662288866634
30
0
41
1
10
266.997505572177
20
13.9580055956544
30
0
0
SPLINE
5
2FF
100
AcDbEntity
8
1
62
256
6
ByLayer
370
13
48
1
60
0
100
AcDbSpline
70
4
71
3
72
12
73
8
40
0
40
0
40
0
40
0
40
0.474237638752789
40
0.474237638752789
40
0.737118819376395
40
0.737118819376395
40
1
40
1
40
1
40
1
41
1
10
237.979661489466
20
13.4801816981646
30
0
41
1
10
242.237909330279
20
13.717832372266
30
0
41
1
10
246.495253959008
20
13.8750622376189
30
0
41
1
10
253.115951959363
20
13.9889495442077
30
0
41
1
10
255.478104371073
20
14.0037587716778
30
0
41
1
10
260.201276355337
20
13.9809069281857
30
0
41
1
10
262.562678221259
20
13.9432573955186
30
0
41
1
10
264.924437518859
20
13.8791869238344
30
0
0
SPLINE
5
300
100
AcDbEntity
8
1
62
256
6
ByLayer
370
13
48
1
60
0
100
AcDbSpline
70
4
71
3
72
8
73
4
40
0
40
0
40
0
40
0
40
1
40
1
40
1
40
1
41
1
10
35.0099999999995
20
-29.914185986669
30
0
41
1
10
34.0538095456702
20
-29.9145469769857
30
0
41
1
10
33.0976190919025
20
-29.9149090596172
30
0
41
1
10
32.1414286378654
20
-29.9152706181469
30
0
0
SPLINE
5
301
100
AcDbEntity
8
1
62
256
6
ByLayer
370
13
48
1
60
0
100
AcDbSpline
70
4
71
1
72
4
73
2
40
0
40
0
40
1
40
1
41
1
10
35.45
20
-17.0101250254245
30
0
41
1
10
35.01
20
-17.0101250254245
30
0
0
SPLINE
5
302
100
AcDbEntity
8
1
62
256
6
ByLayer
370
13
48
1
60
0
100
AcDbSpline
70
4
71
3
72
8
73
4
40
0
40
0
40
0
40
0
40
1
40
1
40
1
40
1
41
1
10
269.678137889221
20
10.0984101606321
30
0
41
1
10
269.581519478138
20
10.1233924547096
30
0
41
1
10
269.483418951715
20
10.1488667870941
30
0
41
1
10
269.383828100296
20
10.1748358832586
30
0
0
SPLINE
5
303
100
AcDbEntity
8
1
62
256
6
ByLayer
370
13
48
1
60
0
100
AcDbSpline
70
4
71
3
72
8
73
4
40
0
40
0
40
0
40
0
40
1
40
1
40
1
40
1
41
1
10
268.583443861866
20
11.9143210672077
30
0
41
1
10
268.582981411202
20
11.7533998761633
30
0
41
1
10
268.563768227822
20
11.5953837955039
30
0
41
1
10
268.521971298095
20
11.4408666861671
30
0
0
SPLINE
5
304
100
AcDbEntity
8
1
62
256
6
ByLayer
370
13
48
1
60
0
100
AcDbSpline
70
4
71
3
72
18
73
14
40
0
40
0
40
0
40
0
40
0.24999999999998
40
0.24999999999998
40
0.374999999999949
40
0.374999999999949
40
0.499999999999917
40
0.499999999999917
40
0.749999999999852
40
0.749999999999852
40
0.874999999999926
40
0.874999999999926
40
1
40
1
40
1
40
1
41
1
10
275.752959616462
20
12.3185860410169
30
0
41
1
10
275.747539013916
20
12.3183019592801
30
0
41
1
10
275.748703062169
20
12.3285550004233
30
0
41
1
10
275.763828497668
20
12.3569656618193
30
0
41
1
10
275.771142838905
20
12.3684676816567
30
0
41
1
10
275.791002901153
20
12.3939614590732
30
0
41
1
10
275.803815423083
20
12.4082040857579
30
0
41
1
10
275.849796732575
20
12.450665445178
30
0
41
1
10
275.891932277451
20
12.4793554245076
30
0
41
1
10
275.965166391332
20
12.5105381321443
30
0
41
1
10
275.991663651497
20
12.5192154967099
30
0
41
1
10
276.045785704962
20
12.5316962599218
30
0
41
1
10
276.073642941822
20
12.5356509123637
30
0
41
1
10
276.102306336337
20
12.5371689582298
30
0
0
SPLINE
5
305
100
AcDbEntity
8
1
62
256
6
ByLayer
370
13
48
1
60
0
100
AcDbSpline
70
4
71
3
72
26
73
22
40
0
40
0
40
0
40
0
40
0.0625000000000006
40
0.0625000000000006
40
0.0937500000000005
40
0.0937500000000005
40
0.125
40
0.125
40
0.1875
40
0.1875
40
0.25
40
0.25
40
0.3125
40
0.3125
40
0.374999999999999
40
0.374999999999999
40
0.499999999999999
40
0.499999999999999
40
0.75
40
0.75
40
1
40
1
40
1
40
1
41
1
10
137.8
20
-30.3369686268626
30
0
41
1
10
135.771019367407
20
-30.3307736083987
30
0
41
1
10
133.739384677343
20
-30.3248491934046
30
0
41
1
10
130.687788404911
20
-30.3191642620663
30
0
41
1
10
129.669710961956
20
-30.3177980984841
30
0
41
1
10
127.633223443541
20
-30.3164398011679
30
0
41
1
10
126.614836027679
20
-30.3164318811595
30
0
41
1
10
123.559312219038
20
-30.3183248486379
30
0
41
1
10
121.521806258381
20
-30.3222171465706
30
0
41
1
10
117.446243773651
20
-30.3332806568724
30
0
41
1
10
115.40820625247
20
-30.3403078999829
30
0
41
1
10
111.332102507527
20
-30.3545293235413
30
0
41
1
10
109.294050575974
20
-30.3618688141189
30
0
41
1
10
105.217943110516
20
-30.3761153848461
30
0
41
1
10
103.179885847999
20
-30.3830426376245
30
0
41
1
10
97.0657081584532
20
-30.4034997717657
30
0
41
1
10
92.9895827451796
20
-30.4167552887643
30
0
41
1
10
80.7612136477508
20
-30.4569130409437
30
0
41
1
10
72.6089698474755
20
-30.4838058647583
30
0
41
1
10
56.3044851602207
20
-30.5378501439869
30
0
41
1
10
48.1522444698435
20
-30.564997797901
30
0
41
1
10
39.9999999999999
20
-30.5918471880942
30
0
0
SPLINE
5
306
100
AcDbEntity
8
1
62
256
6
ByLayer
370
13
48
1
60
0
100
AcDbSpline
70
4
71
3
72
12
73
8
40
0
40
0
40
0
40
0
40
0.500000000000002
40
0.500000000000002
40
0.750000000000001
40
0.750000000000001
40
1
40
1
40
1
40
1
41
1
10
32.1414286378654
20
-29.9152706181469
30
0
41
1
10
31.5652194446434
20
-29.9154884966541
30
0
41
1
10
31.0017638498133
20
-29.9755791874444
30
0
41
1
10
30.1741277134827
20
-30.1480922537956
30
0
41
1
10
29.9011926760616
20
-30.2194159311869
30
0
41
1
10
29.3611503398174
20
-30.3894220821611
30
0
41
1
10
29.097884042438
20
-30.4869088444251
30
0
41
1
10
28.8415216142009
20
-30.595668440874
30
0
0
SPLINE
5
307
100
AcDbEntity
8
1
62
256
6
ByLayer
370
13
48
1
60
0
100
AcDbSpline
70
4
71
3
72
12
73
8
40
0
40
0
40
0
40
0
40
0.499999999999995
40
0.499999999999995
40
0.749999999999998
40
0.749999999999998
40
1
40
1
40
1
40
1
41
1
10
275.018925842043
20
12.044587783151
30
0
41
1
10
275.024244869616
20
12.0687855140243
30
0
41
1
10
275.014461052575
20
12.0932593695014
30
0
41
1
10
274.97468065867
20
12.1264174772935
30
0
41
1
10
274.957238452054
20
12.1368759158642
30
0
41
1
10
274.915436284573
20
12.1556506698386
30
0
41
1
10
274.890447553605
20
12.1642118577045
30
0
41
1
10
274.863019877619
20
12.1714015288312
30
0
0
SPLINE
5
308
100
AcDbEntity
8
1
62
256
6
ByLayer
370
13
48
1
60
0
100
AcDbSpline
70
4
71
3
72
32
73
28
40
0
40
0
40
0
40
0
40
0.113217566679576
40
0.113217566679576
40
0.226435133359152
40
0.226435133359152
40
0.339652700038728
40
0.339652700038728
40
0.396261483378516
40
0.396261483378516
40
0.452870266718303
40
0.452870266718303
40
0.566087833397888
40
0.566087833397888
40
0.679305400077474
40
0.679305400077474
40
0.735914183417266
40
0.735914183417266
40
0.792522966757059
40
0.792522966757059
40
0.905740533436635
40
0.905740533436635
40
0.962349316776423
40
0.962349316776423
40
0.990653708446317
40
0.990653708446317
40
1
40
1
40
1
40
1
41
1
10
264.258888840529
20
10.8539699243461
30
0
41
1
10
263.631788985779
20
11.000993833002
30
0
41
1
10
262.998416117591
20
11.1214666529047
30
0
41
1
10
261.720358345839
20
11.3179622736886
30
0
41
1
10
261.075655893808
20
11.3939017773141
30
0
41
1
10
259.774849826634
20
11.5052585410098
30
0
41
1
10
259.118741352686
20
11.5406405861515
30
0
41
1
10
258.125253671282
20
11.5641999550973
30
0
41
1
10
257.792529917422
20
11.5671153191565
30
0
41
1
10
257.123744819464
20
11.5630155296807
30
0
41
1
10
256.786916819266
20
11.5559642566618
30
0
41
1
10
255.778308517314
20
11.5199450480239
30
0
41
1
10
255.107980560561
20
11.4762698707488
30
0
41
1
10
253.771375816103
20
11.3500676711547
30
0
41
1
10
253.105097315501
20
11.2675585122565
30
0
41
1
10
252.108780208796
20
11.1136339806819
30
0
41
1
10
251.777192855599
20
11.0572834312681
30
0
41
1
10
251.115091510988
20
10.9340666676844
30
0
41
1
10
250.783520921958
20
10.8669542009685
30
0
41
1
10
249.801480446167
20
10.6513224667197
30
0
41
1
10
249.162143527716
20
10.4885604440777
30
0
41
1
10
248.229598997756
20
10.2136436612007
30
0
41
1
10
247.923183821264
20
10.1168421189232
30
0
41
1
10
247.470973349444
20
9.96313185505809
30
0
41
1
10
247.32147491547
20
9.91047282068109
30
0
41
1
10
247.12437411425
20
9.83840463715472
30
0
41
1
10
247.075633616284
20
9.82036363187993
30
0
41
1
10
247.02711681938
20
9.80218210967982
30
0
0
SPLINE
5
309
100
AcDbEntity
8
1
62
256
6
ByLayer
370
13
48
1
60
0
100
AcDbSpline
70
4
71
3
72
10
73
6
40
0
40
0
40
0
40
0
40
0.5
40
0.5
40
1
40
1
40
1
40
1
41
1
10
288.373313098487
20
-5.52626612074838
30
0
41
1
10
288.427348807058
20
-5.8193575887413
30
0
41
1
10
288.460505789453
20
-6.11245954302618
30
0
41
1
10
288.486986331234
20
-6.69856944997289
30
0
41
1
10
288.480307042309
20
-6.99157764976502
30
0
41
1
10
288.453413923717
20
-7.28453425878393
30
0
0
SPLINE
5
30A
100
AcDbEntity
8
1
62
256
6
ByLayer
370
13
48
1
60
0
100
AcDbSpline
70
4
71
3
72
8
73
4
40
0
40
0
40
0
40
0
40
1
40
1
40
1
40
1
41
1
10
266.544877894958
20
13.9485272061299
30
0
41
1
10
266.498895912194
20
13.9428518852107
30
0
41
1
10
266.452107688513
20
13.9403346897528
30
0
41
1
10
266.404595189593
20
13.9403569229327
30
0
0
SPLINE
5
30B
100
AcDbEntity
8
1
62
256
6
ByLayer
370
13
48
1
60
0
100
AcDbSpline
70
4
71
3
72
14
73
10
40
0
40
0
40
0
40
0
40
0.25
40
0.25
40
0.5
40
0.5
40
0.75
40
0.75
40
1
40
1
40
1
40
1
41
1
10
274.863019877619
20
12.1714015288309
30
0
41
1
10
274.838189913335
20
12.177910256635
30
0
41
1
10
274.811463401323
20
12.1852261735945
30
0
41
1
10
274.755744850538
20
12.1991257640052
30
0
41
1
10
274.726563757483
20
12.2057600692984
30
0
41
1
10
274.66508514717
20
12.2165682102238
30
0
41
1
10
274.63378216318
20
12.2205273920148
30
0
41
1
10
274.570407159337
20
12.2246537280558
30
0
41
1
10
274.537888888429
20
12.2247945431339
30
0
41
1
10
274.506226946961
20
12.223135211094
30
0
0
SPLINE
5
30C
100
AcDbEntity
8
1
62
256
6
ByLayer
370
13
48
1
60
0
100
AcDbSpline
70
4
71
3
72
10
73
6
40
0
40
0
40
0
40
0
40
0.628239321496889
40
0.628239321496889
40
1
40
1
40
1
40
1
41
1
10
264.519126126072
20
11.8806481926578
30
0
41
1
10
259.789453184262
20
12.0296964514986
30
0
41
1
10
255.063695023707
20
12.0878656215841
30
0
41
1
10
247.542571876349
20
12.0382835312644
30
0
41
1
10
244.746756603351
20
11.9886233471172
30
0
41
1
10
241.950535391452
20
11.9083716737074
30
0
0
SPLINE
5
30D
100
AcDbEntity
8
1
62
256
6
ByLayer
370
13
48
1
60
0
100
AcDbSpline
70
4
71
3
72
14
73
10
40
0
40
0
40
0
40
0
40
0.125000000000017
40
0.125000000000017
40
0.250000000000034
40
0.250000000000034
40
0.500000000000067
40
0.500000000000067
40
1
40
1
40
1
40
1
41
1
10
283.424967649591
20
12.7206589446747
30
0
41
1
10
283.465658114966
20
12.722791441603
30
0
41
1
10
283.507114571247
20
12.7258598368996
30
0
41
1
10
283.588916168714
20
12.7337156741304
30
0
41
1
10
283.629667993413
20
12.7385226032308
30
0
41
1
10
283.75154932817
20
12.7555698622427
30
0
41
1
10
283.832304212869
20
12.7704286753391
30
0
41
1
10
284.073641151445
20
12.825682582352
30
0
41
1
10
284.233219567449
20
12.8765547960935
30
0
41
1
10
284.393438565166
20
12.9438729253599
30
0
0
SPLINE
5
30E
100
AcDbEntity
8
1
62
256
6
ByLayer
370
13
48
1
60
0
100
AcDbSpline
70
4
71
3
72
18
73
14
40
0
40
0
40
0
40
0
40
0.125000000000005
40
0.125000000000005
40
0.250000000000009
40
0.250000000000009
40
0.50000000000002
40
0.50000000000002
40
0.75000000000003
40
0.75000000000003
40
0.875000000000015
40
0.875000000000015
40
1
40
1
40
1
40
1
41
1
10
268.583443861896
20
11.9143210672389
30
0
41
1
10
268.518177244965
20
12.0119622216432
30
0
41
1
10
268.449466562436
20
12.1092165293606
30
0
41
1
10
268.304569382513
20
12.3026305380883
30
0
41
1
10
268.228866628916
20
12.39811383519
30
0
41
1
10
267.993379775421
20
12.6784527737106
30
0
41
1
10
267.824606479136
20
12.8580997652425
30
0
41
1
10
267.462022492063
20
13.2006348243352
30
0
41
1
10
267.268196941944
20
13.3634882006306
30
0
41
1
10
266.956921381408
20
13.5930553226055
30
0
41
1
10
266.849205585562
20
13.667454903348
30
0
41
1
10
266.629802903931
20
13.8091142313897
30
0
41
1
10
266.51814130109
20
13.8764217369163
30
0
41
1
10
266.404595189593
20
13.9403569229314
30
0
0
SPLINE
5
30F
100
AcDbEntity
8
1
62
256
6
ByLayer
370
13
48
1
60
0
100
AcDbSpline
70
4
71
3
72
24
73
20
40
0
40
0
40
0
40
0
40
0.124999999999977
40
0.124999999999977
40
0.249999999999955
40
0.249999999999955
40
0.312499999999947
40
0.312499999999947
40
0.374999999999939
40
0.374999999999939
40
0.499999999999951
40
0.499999999999951
40
0.624999999999963
40
0.624999999999963
40
0.749999999999976
40
0.749999999999976
40
0.874999999999988
40
0.874999999999988
40
1
40
1
40
1
40
1
41
1
10
268.521971298097
20
11.4408666861665
30
0
41
1
10
268.502090831578
20
11.3673715218455
30
0
41
1
10
268.48702330727
20
11.2929120260491
30
0
41
1
10
268.470393763903
20
11.1441192269714
30
0
41
1
10
268.46911705886
20
11.0723880792904
30
0
41
1
10
268.478854102695
20
10.9681485318428
30
0
41
1
10
268.484106084366
20
10.9338120713129
30
0
41
1
10
268.498269057302
20
10.8679667625953
30
0
41
1
10
268.507179778462
20
10.8362459067091
30
0
41
1
10
268.539060336358
20
10.7443212273845
30
0
41
1
10
268.56751718063
20
10.6869850129196
30
0
41
1
10
268.633577051772
20
10.5836756792212
30
0
41
1
10
268.671284667398
20
10.5370741801235
30
0
41
1
10
268.753802978229
20
10.4523502930907
30
0
41
1
10
268.798758847061
20
10.4142449855519
30
0
41
1
10
268.891540139563
20
10.3480324473613
30
0
41
1
10
268.939683153593
20
10.3195762380956
30
0
41
1
10
269.038458492972
20
10.2719432581351
30
0
41
1
10
269.089279992279
20
10.2527100411928
30
0
41
1
10
269.140709183595
20
10.2389306012551
30
0
0
SPLINE
5
310
100
AcDbEntity
8
1
62
256
6
ByLayer
370
13
48
1
60
0
100
AcDbSpline
70
4
71
3
72
8
73
4
40
0
40
0
40
0
40
0
40
1
40
1
40
1
40
1
41
1
10
265.539169144042
20
30.2048584519811
30
0
41
1
10
266.539104467698
20
30.3212641648634
30
0
41
1
10
267.539105503761
20
30.4371039278185
30
0
41
1
10
268.539169144042
20
30.5523966076585
30
0
0
SPLINE
5
311
100
AcDbEntity
8
1
62
256
6
ByLayer
370
13
48
1
60
0
100
AcDbSpline
70
4
71
3
72
14
73
10
40
0
40
0
40
0
40
0
40
0.0690458023536305
40
0.0690458023536305
40
0.379363868235753
40
0.379363868235753
40
0.689681934117877
40
0.689681934117877
40
1
40
1
40
1
40
1
41
1
10
237.168535966605
20
13.8249482607727
30
0
41
1
10
237.656854706028
20
13.6300509107621
30
0
41
1
10
238.145212836963
20
13.4340571551923
30
0
41
1
10
240.828760125574
20
12.3513639063928
30
0
41
1
10
243.025869201736
20
11.4439740710658
30
0
41
1
10
247.417615654496
20
9.59677853953363
30
0
41
1
10
249.613300611648
20
8.65657438684121
30
0
41
1
10
254.006408356897
20
6.75039766218188
30
0
41
1
10
256.201627488122
20
5.78539667444181
30
0
41
1
10
258.396992104279
20
4.81173793378514
30
0
0
SPLINE
5
312
100
AcDbEntity
8
1
62
256
6
ByLayer
370
13
48
1
60
0
100
AcDbSpline
70
4
71
3
72
56
73
52
40
0
40
0
40
0
40
0
40
0.125000000000013
40
0.125000000000013
40
0.187500000000017
40
0.187500000000017
40
0.218750000000019
40
0.218750000000019
40
0.25000000000002
40
0.25000000000002
40
0.312500000000019
40
0.312500000000019
40
0.375000000000017
40
0.375000000000017
40
0.406250000000019
40
0.406250000000019
40
0.43750000000002
40
0.43750000000002
40
0.500000000000024
40
0.500000000000024
40
0.531250000000026
40
0.531250000000026
40
0.546875000000027
40
0.546875000000027
40
0.562500000000027
40
0.562500000000027
40
0.625000000000026
40
0.625000000000026
40
0.656250000000026
40
0.656250000000026
40
0.687500000000025
40
0.687500000000025
40
0.750000000000022
40
0.750000000000022
40
0.76562500000002
40
0.76562500000002
40
0.781250000000019
40
0.781250000000019
40
0.812500000000017
40
0.812500000000017
40
0.875000000000011
40
0.875000000000011
40
0.89062500000001
40
0.89062500000001
40
0.906250000000009
40
0.906250000000009
40
0.937500000000006
40
0.937500000000006
40
0.968750000000003
40
0.968750000000003
40
1
40
1
40
1
40
1
41
1
10
267.600344019785
20
2.42155365716502
30
0
41
1
10
268.80226525051
20
2.18861702615786
30
0
41
1
10
270.013074149365
20
1.9922955150968
30
0
41
1
10
271.849288769717
20
1.78021382480006
30
0
41
1
10
272.46470236775
20
1.72328842722359
30
0
41
1
10
273.393852954336
20
1.66274330541438
30
0
41
1
10
273.704576695161
20
1.64670970327563
30
0
41
1
10
274.328238343139
20
1.62376434789391
30
0
41
1
10
274.641915609762
20
1.61685275706938
30
0
41
1
10
275.580505744665
20
1.61122710223358
30
0
41
1
10
276.202012306435
20
1.62748211260111
30
0
41
1
10
277.435474642498
20
1.70526676626486
30
0
41
1
10
278.047439762801
20
1.7667521056606
30
0
41
1
10
278.957097450835
20
1.898278064246
30
0
41
1
10
279.259385590292
20
1.94877658758639
30
0
41
1
10
279.858987335071
20
2.06375633007443
30
0
41
1
10
280.154109902358
20
2.12779947930437
30
0
41
1
10
281.024921834648
20
2.34031836337647
30
0
41
1
10
281.586138559814
20
2.50906708810615
30
0
41
1
10
282.395707098827
20
2.8073745156949
30
0
41
1
10
282.660169123809
20
2.91436635093032
30
0
41
1
10
283.048135658642
20
3.08707801743941
30
0
41
1
10
283.176277007002
20
3.14683073605155
30
0
41
1
10
283.427418382215
20
3.26954886215415
30
0
41
1
10
283.550574633884
20
3.3325710013315
30
0
41
1
10
284.154217618285
20
3.65604260391674
30
0
41
1
10
284.598516256642
20
3.94141861636189
30
0
41
1
10
285.203229772585
20
4.41200564190018
30
0
41
1
10
285.394641239037
20
4.57614957563817
30
0
41
1
10
285.754799422776
20
4.9188888125872
30
0
41
1
10
285.920840837369
20
5.09488155636615
30
0
41
1
10
286.377726064594
20
5.63644131812308
30
0
41
1
10
286.627606625901
20
6.01549904685169
30
0
41
1
10
286.870320445171
20
6.51225520365304
30
0
41
1
10
286.915359401338
20
6.61276036822207
30
0
41
1
10
286.998306932685
20
6.81611899502454
30
0
41
1
10
287.036193014717
20
6.91899423274123
30
0
41
1
10
287.137902465618
20
7.22762275453232
30
0
41
1
10
287.190307280197
20
7.43454527068491
30
0
41
1
10
287.303205353969
20
8.05867987157293
30
0
41
1
10
287.319642331997
20
8.47923924781009
30
0
41
1
10
287.268444329444
20
9.01038942376115
30
0
41
1
10
287.254593478098
20
9.1167342929198
30
0
41
1
10
287.220076967617
20
9.32800067993921
30
0
41
1
10
287.199391326832
20
9.43315867281282
30
0
41
1
10
287.127382065755
20
9.74725277816552
30
0
41
1
10
287.066121541339
20
9.95481115735495
30
0
41
1
10
286.918424772514
20
10.3664373489446
30
0
41
1
10
286.831984723236
20
10.5705046338067
30
0
41
1
10
286.634802349284
20
10.9752697382116
30
0
41
1
10
286.523778224706
20
11.1763916367122
30
0
41
1
10
286.40167460135
20
11.3746030265845
30
0
0
SPLINE
5
313
100
AcDbEntity
8
1
62
256
6
ByLayer
370
13
48
1
60
0
100
AcDbSpline
70
4
71
3
72
14
73
10
40
0
40
0
40
0
40
0
40
0.25
40
0.25
40
0.5
40
0.5
40
0.75
40
0.75
40
1
40
1
40
1
40
1
41
1
10
264.924437518853
20
13.879186923829
30
0
41
1
10
264.930761387411
20
13.9050233095616
30
0
41
1
10
264.94728097619
20
13.9274859151107
30
0
41
1
10
264.987750283024
20
13.9622161661417
30
0
41
1
10
265.011930404713
20
13.9753118335432
30
0
41
1
10
265.062399554073
20
13.9952396633054
30
0
41
1
10
265.089359612339
20
14.0022795169032
30
0
41
1
10
265.143887485572
20
14.0116677767655
30
0
41
1
10
265.171651989419
20
14.0140819893647
30
0
41
1
10
265.199840857177
20
14.014571287419
30
0
0
SPLINE
5
314
100
AcDbEntity
8
1
62
256
6
ByLayer
370
13
48
1
60
0
100
AcDbSpline
70
4
71
3
72
16
73
12
40
0
40
0
40
0
40
0
40
0.249999999999991
40
0.249999999999991
40
0.374999999999994
40
0.374999999999994
40
0.499999999999997
40
0.499999999999997
40
0.749999999999998
40
0.749999999999998
40
1
40
1
40
1
40
1
41
1
10
289.683134311811
20
0.663265790989129
30
0
41
1
10
289.684392364112
20
0.711758950576893
30
0
41
1
10
289.686504100027
20
0.75757439784698
30
0
41
1
10
289.690744785378
20
0.817505852474113
30
0
41
1
10
289.692333014808
20
0.836070744586152
30
0
41
1
10
289.695863078379
20
0.870341489937658
30
0
41
1
10
289.697821793447
20
0.886127311629224
30
0
41
1
10
289.704052774507
20
0.92754384263722
30
0
41
1
10
289.708774357296
20
0.94804891356651
30
0
41
1
10
289.718988949433
20
0.972803118373065
30
0
41
1
10
289.724332829287
20
0.976939376844655
30
0
41
1
10
289.729920957203
20
0.972567824223432
30
0
0
SPLINE
5
315
100
AcDbEntity
8
1
62
256
6
ByLayer
370
13
48
1
60
0
100
AcDbSpline
70
4
71
3
72
10
73
6
40
0
40
0
40
0
40
0
40
0.831982487582085
40
0.831982487582085
40
1
40
1
40
1
40
1
41
1
10
270.461358086286
20
22.9937724167352
30
0
41
1
10
270.425887053883
20
22.9466373741502
30
0
41
1
10
270.395054038124
20
22.9014610748699
30
0
41
1
10
270.367673478873
20
22.8563645878335
30
0
41
1
10
270.36343401906
20
22.8491474361587
30
0
41
1
10
270.359650573211
20
22.8424473819299
30
0
0
SPLINE
5
316
100
AcDbEntity
8
1
62
256
6
ByLayer
370
13
48
1
60
0
100
AcDbSpline
70
4
71
3
72
19
73
15
40
0
40
0
40
0
40
0
40
0.25
40
0.25
40
0.375
40
0.375
40
0.5
40
0.5
40
0.625
40
0.625
40
0.75
40
0.875
40
0.875
40
1
40
1
40
1
40
1
41
1
10
35.0050000340319
20
-17.0143014721176
30
0
41
1
10
32.9587058487918
20
-17.412851119455
30
0
41
1
10
30.9269469729958
20
-18.0306107960776
30
0
41
1
10
28.0430426296897
20
-19.2804962491469
30
0
41
1
10
27.1092002208962
20
-19.7516937774469
30
0
41
1
10
25.3186218045119
20
-20.7955738864988
30
0
41
1
10
24.4617281943613
20
-21.3675542276545
30
0
41
1
10
22.8456926063213
20
-22.5984712788438
30
0
41
1
10
22.0865695171663
20
-23.2574199751784
30
0
41
1
10
20.6869575787218
20
-24.6491001454936
30
0
41
1
10
19.4053519901353
20
-26.1141646505089
30
0
41
1
10
18.3768094224432
20
-27.6839671941376
30
0
41
1
10
17.4833235259328
20
-29.2851234421043
30
0
41
1
10
17.105110437333
20
-30.1012869194497
30
0
41
1
10
16.7952679427915
20
-30.9229320709587
30
0
0
SPLINE
5
317
100
AcDbEntity
8
1
62
256
6
ByLayer
370
13
48
1
60
0
100
AcDbSpline
70
4
71
3
72
18
73
14
40
0
40
0
40
0
40
0
40
0.250000000000168
40
0.250000000000168
40
0.375000000000139
40
0.375000000000139
40
0.50000000000011
40
0.50000000000011
40
0.750000000000054
40
0.750000000000054
40
0.875000000000027
40
0.875000000000027
40
1
40
1
40
1
40
1
41
1
10
287.535851908977
20
13.1363757287984
30
0
41
1
10
287.593218874437
20
13.1393822040625
30
0
41
1
10
287.650978754446
20
13.1322077846092
30
0
41
1
10
287.732306124869
20
13.1088331503028
30
0
41
1
10
287.75820243134
20
13.0990626681814
30
0
41
1
10
287.806386965567
20
13.0771201910274
30
0
41
1
10
287.829065104019
20
13.0647301600715
30
0
41
1
10
287.889137596937
20
13.0278103767239
30
0
41
1
10
287.920033886236
20
13.0029464060117
30
0
41
1
10
287.952375108359
20
12.9773135497885
30
0
41
1
10
287.961094706919
20
12.97049047772
30
0
41
1
10
287.974273120033
20
12.9615590153895
30
0
41
1
10
287.978879126339
20
12.9593193322227
30
0
41
1
10
287.981589869297
20
12.9594613962414
30
0
0
SPLINE
5
318
100
AcDbEntity
8
1
62
256
6
ByLayer
370
13
48
1
60
0
100
AcDbSpline
70
4
71
3
72
49
73
45
40
0
40
0
40
0
40
0
40
0.0058819300818274
40
0.0778693632475004
40
0.158483439545449
40
0.244804519820549
40
0.336928756243594
40
0.434891708349268
40
0.538662685492289
40
0.547407801881155
40
0.556409671329249
40
0.56566890698155
40
0.575186107041267
40
0.584961853134452
40
0.594996708517607
40
0.605291216137866
40
0.615845896553848
40
0.626661245724117
40
0.63773773266934
40
0.649075797013498
40
0.660675846409095
40
0.672538253850887
40
0.684663354882533
40
0.697051444700392
40
0.709702775158716
40
0.722617551680573
40
0.735795930078941
40
0.749238013292682
40
0.762943848042284
40
0.776913421410715
40
0.79114665735493
40
0.80564341315417
40
0.820403475801493
40
0.835426558345585
40
0.850712296190365
40
0.866260243360533
40
0.882069868741739
40
0.898140552304773
40
0.914471581323792
40
0.931062146599315
40
0.947911338697481
40
0.96501814421777
40
0.982381442102226
40
1
40
1
40
1
40
1
41
1
10
30.4890237742187
20
-11.0938706958514
30
0
41
1
10
30.4946713702457
20
-11.1055704209148
30
0
41
1
10
30.5697559869686
20
-11.2605990686974
30
0
41
1
10
30.7311079538604
20
-11.5798254885639
30
0
41
1
10
30.9983215830388
20
-12.0705822242962
30
0
41
1
10
31.3167875181501
20
-12.6100770132098
30
0
41
1
10
31.6882373752638
20
-13.1895095499833
30
0
41
1
10
32.1159219816508
20
-13.8044977257931
30
0
41
1
10
32.4441782983483
20
-14.240267281983
30
0
41
1
10
32.6390436786197
20
-14.4888327246519
30
0
41
1
10
32.6824992748848
20
-14.5440070102582
30
0
41
1
10
32.7273746846221
20
-14.6006593457128
30
0
41
1
10
32.7736898446746
20
-14.6587757609577
30
0
41
1
10
32.8214686925885
20
-14.718336098772
30
0
41
1
10
32.8707334212623
20
-14.7793202795601
30
0
41
1
10
32.921505956225
20
-14.8417064793131
30
0
41
1
10
32.9738074114257
20
-14.9054715652247
30
0
41
1
10
33.0276581039137
20
-14.9705909016004
30
0
41
1
10
33.083077407838
20
-15.0370383314306
30
0
41
1
10
33.1400836482493
20
-15.1047861094633
30
0
41
1
10
33.1986939789323
20
-15.1738048493881
30
0
41
1
10
33.25892425983
20
-15.244063467947
30
0
41
1
10
33.3207889298062
20
-15.3155291309822
30
0
41
1
10
33.3843008760203
20
-15.3881672002777
30
0
41
1
10
33.4494712996802
20
-15.4619411817663
30
0
41
1
10
33.5163095783783
20
-15.5368126752089
30
0
41
1
10
33.5848231251245
20
-15.6127413255919
30
0
41
1
10
33.6550172442417
20
-15.6896847764558
30
0
41
1
10
33.7268949843061
20
-15.7675986253931
30
0
41
1
10
33.8004569883399
20
-15.8464363819396
30
0
41
1
10
33.8757013414929
20
-15.9261494281368
30
0
41
1
10
33.9526234164684
20
-16.0066869819001
30
0
41
1
10
34.0312157170089
20
-16.0879960638682
30
0
41
1
10
34.1114677196641
20
-16.1700214663948
30
0
41
1
10
34.1933657145652
20
-16.2527057310645
30
0
41
1
10
34.2768926441636
20
-16.3359891115643
30
0
41
1
10
34.3620279457998
20
-16.4198096119175
30
0
41
1
10
34.4487473777003
20
-16.5041027569219
30
0
41
1
10
34.5370229086439
20
-16.5888024087893
30
0
41
1
10
34.6268223668751
20
-16.673837607221
30
0
41
1
10
34.7181100142318
20
-16.7591446300829
30
0
41
1
10
34.8108435941602
20
-16.8446209419314
30
0
41
1
10
34.9049848532339
20
-16.9303010417497
30
0
41
1
10
34.9681745874729
20
-16.9868131001258
30
0
41
1
10
35
20
-17.0152753114681
30
0
0
SPLINE
5
319
100
AcDbEntity
8
1
62
256
6
ByLayer
370
13
48
1
60
0
100
AcDbSpline
70
4
71
3
72
14
73
10
40
0
40
0
40
0
40
0
40
0.499999999999928
40
0.499999999999928
40
0.749999999999891
40
0.749999999999891
40
0.874999999999946
40
0.874999999999946
40
1
40
1
40
1
40
1
41
1
10
279.252115878551
20
12.674427620777
30
0
41
1
10
279.428094872949
20
12.6247288816768
30
0
41
1
10
279.60345890345
20
12.5914102577442
30
0
41
1
10
279.867370356775
20
12.5626352969372
30
0
41
1
10
279.955473112969
20
12.556625937815
30
0
41
1
10
280.087996003558
20
12.5529114392936
30
0
41
1
10
280.132231659223
20
12.552558515306
30
0
41
1
10
280.220854336184
20
12.5536342358339
30
0
41
1
10
280.265679991544
20
12.5550876944003
30
0
41
1
10
280.309581836172
20
12.5573884925836
30
0
0
SPLINE
5
31A
100
AcDbEntity
8
1
62
256
6
ByLayer
370
13
48
1
60
0
100
AcDbSpline
70
4
71
3
72
14
73
10
40
0
40
0
40
0
40
0
40
0.25
40
0.25
40
0.374999999999999
40
0.374999999999999
40
0.499999999999999
40
0.499999999999999
40
1
40
1
40
1
40
1
41
1
10
28.827742917033
20
-11.6049818139943
30
0
41
1
10
27.8247964531574
20
-11.6209113630123
30
0
41
1
10
26.8219049815207
20
-11.6407213769823
30
0
41
1
10
25.3178662490136
20
-11.6762436489295
30
0
41
1
10
24.8165620069536
20
-11.6890523531872
30
0
41
1
10
23.8140374413588
20
-11.7166036807744
30
0
41
1
10
23.3128288863983
20
-11.7316175132361
30
0
41
1
10
20.8065528452043
20
-11.8013110052391
30
0
41
1
10
18.8011145629013
20
-11.8474455957488
30
0
41
1
10
16.7952602106196
20
-11.8839917709994
30
0
0
SPLINE
5
31B
100
AcDbEntity
8
1
62
256
6
ByLayer
370
13
48
1
60
0
100
AcDbSpline
70
4
71
3
72
8
73
4
40
0
40
0
40
0
40
0
40
1
40
1
40
1
40
1
41
1
10
268.076336194489
20
-0.644429273449134
30
0
41
1
10
268.230609996184
20
-0.66416749749925
30
0
41
1
10
268.384887661952
20
-0.683889671829377
30
0
41
1
10
268.539169144042
20
-0.703595948029459
30
0
0
SPLINE
5
31C
100
AcDbEntity
8
1
62
256
6
ByLayer
370
13
48
1
60
0
100
AcDbSpline
70
4
71
3
72
62
73
58
40
0
40
0
40
0
40
0
40
0.0319371479028313
40
0.0319371479028313
40
0.0638742958056626
40
0.0638742958056626
40
0.127748591611325
40
0.127748591611325
40
0.159685739514156
40
0.159685739514156
40
0.191622887416987
40
0.191622887416987
40
0.255497183222649
40
0.255497183222649
40
0.287434331125481
40
0.287434331125481
40
0.319371479028312
40
0.319371479028312
40
0.351308626931143
40
0.351308626931143
40
0.383245774833974
40
0.383245774833974
40
0.447120070639637
40
0.447120070639637
40
0.479057218542468
40
0.479057218542468
40
0.510994366445299
40
0.510994366445299
40
0.54293151434813
40
0.54293151434813
40
0.558900088299546
40
0.558900088299546
40
0.574868662250962
40
0.574868662250962
40
0.606805810153793
40
0.606805810153793
40
0.638742958056624
40
0.638742958056624
40
0.670680105959454
40
0.670680105959454
40
0.702617253862286
40
0.702617253862286
40
0.734554401765116
40
0.734554401765116
40
0.766491549667947
40
0.766491549667947
40
0.798428697570778
40
0.798428697570778
40
0.830365845473609
40
0.830365845473609
40
0.894240141279271
40
0.894240141279271
40
0.926177289182103
40
0.926177289182103
40
0.958114437084934
40
0.958114437084934
40
1
40
1
40
1
40
1
41
1
10
258.226977888447
20
4.85920388346688
30
0
41
1
10
257.005239934294
20
5.40241835255972
30
0
41
1
10
255.783079813998
20
5.94313998025783
30
0
41
1
10
253.340087969473
20
7.01728529269948
30
0
41
1
10
252.118964567463
20
7.55083902849375
30
0
41
1
10
248.455895447581
20
9.13921000560211
30
0
41
1
10
246.014257455951
20
10.1817488239959
30
0
41
1
10
242.348997520699
20
11.7137597114924
30
0
41
1
10
241.126463260035
20
12.2192512378614
30
0
41
1
10
238.682947620124
20
13.2171521360196
30
0
41
1
10
237.461661322876
20
13.7096913441777
30
0
41
1
10
233.798341009852
20
15.1663514976589
30
0
41
1
10
231.356850799873
20
16.1095214064506
30
0
41
1
10
227.69223325833
20
17.4756246067507
30
0
41
1
10
226.469999857461
20
17.9229817238421
30
0
41
1
10
224.026212432624
20
18.7995460370074
30
0
41
1
10
222.804536892499
20
19.2288022552017
30
0
41
1
10
220.360988655261
20
20.0681558364117
30
0
41
1
10
219.138808449476
20
20.4783507210183
30
0
41
1
10
216.695615004558
20
21.2779099133768
30
0
41
1
10
215.474545830421
20
21.6672987784754
30
0
41
1
10
211.811980351756
20
22.802856034781
30
0
41
1
10
209.371125439931
20
23.5163945527042
30
0
41
1
10
205.707246909098
20
24.5158342873233
30
0
41
1
10
204.485228047631
20
24.8372573785727
30
0
41
1
10
202.041385291204
20
25.4553142862507
30
0
41
1
10
200.820057503176
20
25.7523507528533
30
0
41
1
10
198.375166913482
20
26.3185340332726
30
0
41
1
10
197.150901127923
20
26.5871514135673
30
0
41
1
10
195.307237209788
20
26.9630515678812
30
0
41
1
10
194.691499006281
20
27.0838297699138
30
0
41
1
10
193.456826347575
20
27.3159083498899
30
0
41
1
10
192.837960512522
20
27.4272907743077
30
0
41
1
10
190.976771852644
20
27.7482251282204
30
0
41
1
10
189.729572550165
20
27.9446145886
30
0
41
1
10
187.224307755115
20
28.3057698437034
30
0
41
1
10
185.966605491677
20
28.4704925720752
30
0
41
1
10
183.441000043643
20
28.7718446599835
30
0
41
1
10
182.172905195171
20
28.9084906762659
30
0
41
1
10
179.627311213142
20
29.1569025923243
30
0
41
1
10
178.350184127022
20
29.2686381759732
30
0
41
1
10
175.78853745029
20
29.4713273492002
30
0
41
1
10
174.503948867309
20
29.5622930518794
30
0
41
1
10
171.929086677142
20
29.7267800743286
30
0
41
1
10
170.639036737927
20
29.8002254921299
30
0
41
1
10
168.054010673149
20
29.9317199166269
30
0
41
1
10
166.759055411319
20
29.9898044742692
30
0
41
1
10
164.164429387247
20
30.092319317859
30
0
41
1
10
162.864914047133
20
30.136638122342
30
0
41
1
10
158.957659532042
20
30.2506425219889
30
0
41
1
10
156.340122745431
20
30.3011635243116
30
0
41
1
10
152.395755372617
20
30.3507146480601
30
0
41
1
10
151.077708662247
20
30.3628981409241
30
0
41
1
10
148.435023911478
20
30.3810321588028
30
0
41
1
10
147.110174361524
20
30.386996312939
30
0
41
1
10
144.04372422095
20
30.3960150066425
30
0
41
1
10
142.30034725435
20
30.3976728904585
30
0
41
1
10
140.553639840929
20
30.3975343269132
30
0
0
SPLINE
5
31D
100
AcDbEntity
8
1
62
256
6
ByLayer
370
13
48
1
60
0
100
AcDbSpline
70
4
71
3
72
14
73
10
40
0
40
0
40
0
40
0
40
0.5
40
0.5
40
0.75
40
0.75
40
0.875
40
0.875
40
1
40
1
40
1
40
1
41
1
10
32.141428644136
20
-30.6050462264758
30
0
41
1
10
31.5749420515556
20
-30.6103366874732
30
0
41
1
10
31.0168353322526
20
-30.6127709671095
30
0
41
1
10
30.1917359108333
20
-30.611192152108
30
0
41
1
10
29.9187251176234
20
-30.6097667684138
30
0
41
1
10
29.5122849878542
20
-30.6059074928706
30
0
41
1
10
29.3773183418075
20
-30.6043323841826
30
0
41
1
10
29.1084279087046
20
-30.6005192658164
30
0
41
1
10
28.9741714398471
20
-30.5982739815687
30
0
41
1
10
28.8415216142008
20
-30.5956684408736
30
0
0
SPLINE
5
31E
100
AcDbEntity
8
1
62
256
6
ByLayer
370
13
48
1
60
0
100
AcDbSpline
70
4
71
3
72
22
73
18
40
0
40
0
40
0
40
0
40
0.125
40
0.125
40
0.25
40
0.25
40
0.375
40
0.375
40
0.5
40
0.5
40
0.625
40
0.625
40
0.75
40
0.75
40
0.875
40
0.875
40
1
40
1
40
1
40
1
41
1
10
264.519126126072
20
11.8806481926578
30
0
41
1
10
264.539304172972
20
11.9483677145585
30
0
41
1
10
264.558770034091
20
12.0198627509719
30
0
41
1
10
264.596379593911
20
12.1684627511535
30
0
41
1
10
264.614591811478
20
12.2458207361394
30
0
41
1
10
264.650212082516
20
12.4066517993119
30
0
41
1
10
264.667736876686
20
12.4907685270404
30
0
41
1
10
264.701447579343
20
12.660926635836
30
0
41
1
10
264.717692806325
20
12.7471799798037
30
0
41
1
10
264.749417140962
20
12.9219234117612
30
0
41
1
10
264.764888853759
20
13.0104145557731
30
0
41
1
10
264.795641112512
20
13.1896164075412
30
0
41
1
10
264.81063368582
20
13.2786914940933
30
0
41
1
10
264.840653060684
20
13.4545133875304
30
0
41
1
10
264.855675544041
20
13.5414567192056
30
0
41
1
10
264.887658391345
20
13.7130242102592
30
0
41
1
10
264.904593036996
20
13.798111600546
30
0
41
1
10
264.924437518859
20
13.8791869238477
30
0
0
SPLINE
5
31F
100
AcDbEntity
8
1
62
256
6
ByLayer
370
13
48
1
60
0
100
AcDbSpline
70
4
71
3
72
10
73
6
40
0
40
0
40
0
40
0
40
0.5
40
0.5
40
1
40
1
40
1
40
1
41
1
10
279.92935870565
20
11.0354033236841
30
0
41
1
10
281.110639546636
20
11.0973116292698
30
0
41
1
10
282.245030777355
20
11.1567625545099
30
0
41
1
10
284.407925692721
20
11.2701150738468
30
0
41
1
10
285.436544687525
20
11.3240227110928
30
0
41
1
10
286.401674601351
20
11.374603026596
30
0
0
SPLINE
5
320
100
AcDbEntity
8
1
62
256
6
ByLayer
370
13
48
1
60
0
100
AcDbSpline
70
4
71
3
72
8
73
4
40
0
40
0
40
0
40
0
40
1
40
1
40
1
40
1
41
1
10
289.6479267038
20
0.575124024521415
30
0
41
1
10
289.816682705955
20
0.603408878071406
30
0
41
1
10
289.983548040069
20
0.615961139215329
30
0
41
1
10
290.150148748269
20
0.615031113686314
30
0
0
SPLINE
5
321
100
AcDbEntity
8
1
62
256
6
ByLayer
370
13
48
1
60
0
100
AcDbSpline
70
4
71
3
72
10
73
6
40
0
40
0
40
0
40
0
40
0.5
40
0.5
40
1
40
1
40
1
40
1
41
1
10
268.173379692867
20
13.9124338599603
30
0
41
1
10
268.146121437458
20
14.0107106906206
30
0
41
1
10
268.111965521157
20
14.1067747889235
30
0
41
1
10
268.028633861489
20
14.2940847061339
30
0
41
1
10
267.979251399179
20
14.3854520313702
30
0
41
1
10
267.923103409293
20
14.4721990528529
30
0
0
SPLINE
5
322
100
AcDbEntity
8
1
62
256
6
ByLayer
370
13
48
1
60
0
100
AcDbSpline
70
4
71
3
72
8
73
4
40
0
40
0
40
0
40
0
40
1
40
1
40
1
40
1
41
1
10
265.199840330363
20
14.0145654343083
30
0
41
1
10
265.314912534131
20
15.2930617360489
30
0
41
1
10
265.427907583496
20
16.5704518432177
30
0
41
1
10
265.53838193705
20
17.846873113079
30
0
0
SPLINE
5
323
100
AcDbEntity
8
1
62
256
6
ByLayer
370
13
48
1
60
0
100
AcDbSpline
70
4
71
3
72
12
73
8
40
0
40
0
40
0
40
0
40
0.500000000000044
40
0.500000000000044
40
0.750000000000022
40
0.750000000000022
40
1
40
1
40
1
40
1
41
1
10
289.770731263492
20
11.7482873334938
30
0
41
1
10
289.523760671125
20
11.8104430126702
30
0
41
1
10
289.285683166381
20
11.8997391236042
30
0
41
1
10
288.937011850431
20
12.0839264719281
30
0
41
1
10
288.824591584821
20
12.1527208451567
30
0
41
1
10
288.609285245189
20
12.3050471787778
30
0
41
1
10
288.506093659458
20
12.3886991656249
30
0
41
1
10
288.407741221223
20
12.4811088692352
30
0
0
SPLINE
5
324
100
AcDbEntity
8
1
62
256
6
ByLayer
370
13
48
1
60
0
100
AcDbSpline
70
4
71
3
72
24
73
20
40
0
40
0
40
0
40
0
40
0.124999999999989
40
0.124999999999989
40
0.249999999999978
40
0.249999999999978
40
0.374999999999967
40
0.374999999999967
40
0.499999999999956
40
0.499999999999956
40
0.624999999999945
40
0.624999999999945
40
0.68749999999994
40
0.68749999999994
40
0.749999999999935
40
0.749999999999935
40
0.874999999999967
40
0.874999999999967
40
1
40
1
40
1
40
1
41
1
10
274.76854414633
20
10.9646606625314
30
0
41
1
10
274.647874541019
20
10.8690070389966
30
0
41
1
10
274.520289913449
20
10.7821855055964
30
0
41
1
10
274.252114252458
20
10.6279337947865
30
0
41
1
10
274.113975934332
20
10.5618429222192
30
0
41
1
10
273.829133499698
20
10.4509093145952
30
0
41
1
10
273.682046219438
20
10.4059836021648
30
0
41
1
10
273.38004818898
20
10.3385459260698
30
0
41
1
10
273.228125409138
20
10.3166439317399
30
0
41
1
10
272.922389134893
20
10.2955656885471
30
0
41
1
10
272.76857568002
20
10.2963906327685
30
0
41
1
10
272.53648474418
20
10.3151700473119
30
0
41
1
10
272.458773169932
20
10.3244120554349
30
0
41
1
10
272.305544477614
20
10.348486317769
30
0
41
1
10
272.229702311493
20
10.3633328557238
30
0
41
1
10
272.004479409822
20
10.4161500278569
30
0
41
1
10
271.857385677806
20
10.4623464979864
30
0
41
1
10
271.569629179865
20
10.5771481951358
30
0
41
1
10
271.428669404932
20
10.6461684950698
30
0
41
1
10
271.295745705764
20
10.7244522068791
30
0
0
SPLINE
5
325
100
AcDbEntity
8
1
62
256
6
ByLayer
370
13
48
1
60
0
100
AcDbSpline
70
4
71
3
72
42
73
38
40
0
40
0
40
0
40
0
40
0.125000000000001
40
0.125000000000001
40
0.156250000000001
40
0.156250000000001
40
0.187500000000001
40
0.187500000000001
40
0.250000000000002
40
0.250000000000002
40
0.281250000000002
40
0.281250000000002
40
0.312500000000002
40
0.312500000000002
40
0.375000000000002
40
0.375000000000002
40
0.437500000000001
40
0.437500000000001
40
0.468750000000001
40
0.468750000000001
40
0.500000000000001
40
0.500000000000001
40
0.562500000000001
40
0.562500000000001
40
0.625000000000001
40
0.625000000000001
40
0.750000000000001
40
0.750000000000001
40
0.8125
40
0.8125
40
0.84375
40
0.84375
40
0.875000000000001
40
0.875000000000001
40
0.9375
40
0.9375
40
1
40
1
40
1
40
1
41
1
10
6.53178875949996
20
-26.7946735361159
30
0
41
1
10
6.2980761579756
20
-27.1948597563136
30
0
41
1
10
6.1662733269546
20
-27.5787267066239
30
0
41
1
10
6.13114741683393
20
-28.0340207052099
30
0
41
1
10
6.13069270390164
20
-28.1232705529723
30
0
41
1
10
6.14263702698479
20
-28.2970544187955
30
0
41
1
10
6.15507788195073
20
-28.381775509638
30
0
41
1
10
6.21095252620144
20
-28.6296106388183
30
0
41
1
10
6.27275036987672
20
-28.7864093895435
30
0
41
1
10
6.4024937194467
20
-29.009422541101
30
0
41
1
10
6.45189242171645
20
-29.0817298173367
30
0
41
1
10
6.56301242515843
20
-29.2223496579913
30
0
41
1
10
6.62452801886913
20
-29.2903102613722
30
0
41
1
10
6.82501082716615
20
-29.4860276818892
30
0
41
1
10
6.98030011912604
20
-29.606312956147
30
0
41
1
10
7.33177864657944
20
-29.8287646519556
30
0
41
1
10
7.52806263900446
20
-29.9309105873454
30
0
41
1
10
7.8532192975874
20
-30.0717818022702
30
0
41
1
10
7.96674619490778
20
-30.1166490639686
30
0
41
1
10
8.20133800169998
20
-30.2015180747321
30
0
41
1
10
8.32271298967811
20
-30.2416612559292
30
0
41
1
10
8.69877872400056
20
-30.3557573957252
30
0
41
1
10
8.9653678974142
20
-30.4233950354522
30
0
41
1
10
9.5298203538885
20
-30.5441707870969
30
0
41
1
10
9.82765841495251
20
-30.5973338091756
30
0
41
1
10
10.7692484938562
20
-30.737679660797
30
0
41
1
10
11.4397197159243
20
-30.8030449621674
30
0
41
1
10
12.5087822892624
20
-30.8722314288032
30
0
41
1
10
12.8758992884153
20
-30.8903691007628
30
0
41
1
10
13.4438674879717
20
-30.911146584394
30
0
41
1
10
13.635581069499
20
-30.9169718721427
30
0
41
1
10
14.0201123068662
20
-30.9264976220807
30
0
41
1
10
14.2134593742064
20
-30.9302184644226
30
0
41
1
10
14.7967714719773
20
-30.938507308028
30
0
41
1
10
15.1900004780166
20
-30.9402239294277
30
0
41
1
10
15.985575181946
20
-30.9367779741877
30
0
41
1
10
16.3879003802772
20
-30.9316311627848
30
0
41
1
10
16.7952679427915
20
-30.9229320709586
30
0
0
SPLINE
5
326
100
AcDbEntity
8
1
62
256
6
ByLayer
370
13
48
1
60
0
100
AcDbSpline
70
4
71
3
72
8
73
4
40
0
40
0
40
0
40
0
40
1
40
1
40
1
40
1
41
1
10
266.342746072432
20
2.73919859813373
30
0
41
1
10
266.553047372051
20
2.67375130630117
30
0
41
1
10
266.765053359397
20
2.61291575178825
30
0
41
1
10
266.978857556932
20
2.55692149703421
30
0
0
SPLINE
5
327
100
AcDbEntity
8
1
62
256
6
ByLayer
370
13
48
1
60
0
100
AcDbSpline
70
2053
71
3
72
95
73
91
40
0
40
0
40
0
40
0
40
0.0312499999999755
40
0.0312499999999755
40
0.0468749999999632
40
0.0468749999999632
40
0.062499999999951
40
0.062499999999951
40
0.0937499999999376
40
0.0937499999999376
40
0.109374999999936
40
0.109374999999936
40
0.124999999999934
40
0.124999999999934
40
0.156249999999931
40
0.156249999999931
40
0.187499999999927
40
0.187499999999927
40
0.203124999999926
40
0.203124999999926
40
0.218749999999924
40
0.218749999999924
40
0.249999999999919
40
0.249999999999919
40
0.265624999999916
40
0.265624999999916
40
0.281249999999913
40
0.281249999999913
40
0.31249999999991
40
0.31249999999991
40
0.32812499999991
40
0.32812499999991
40
0.343749999999911
40
0.343749999999911
40
0.374999999999918
40
0.374999999999918
40
0.406249999999925
40
0.406249999999925
40
0.421874999999928
40
0.421874999999928
40
0.437499999999932
40
0.437499999999932
40
0.468749999999939
40
0.468749999999939
40
0.484374999999943
40
0.484374999999943
40
0.499999999999946
40
0.499999999999946
40
0.531249999999954
40
0.531249999999954
40
0.546874999999951
40
0.546874999999951
40
0.562499999999949
40
0.578124999999947
40
0.578124999999947
40
0.593749999999944
40
0.593749999999944
40
0.624999999999949
40
0.624999999999949
40
0.640624999999948
40
0.640624999999948
40
0.656249999999946
40
0.656249999999946
40
0.687499999999949
40
0.687499999999949
40
0.718749999999953
40
0.718749999999953
40
0.734374999999954
40
0.734374999999954
40
0.749999999999956
40
0.749999999999956
40
0.781249999999959
40
0.781249999999959
40
0.796874999999962
40
0.796874999999962
40
0.812499999999965
40
0.812499999999965
40
0.843749999999971
40
0.843749999999971
40
0.874999999999977
40
0.874999999999977
40
0.906249999999982
40
0.906249999999982
40
0.921874999999985
40
0.921874999999985
40
0.937499999999988
40
0.937499999999988
40
0.968749999999994
40
0.968749999999994
40
1
40
1
40
1
40
1
41
1
10
280.798361855951
20
-4.01313850891647
30
0
41
1
10
280.940514192695
20
-4.01313850891648
30
0
41
1
10
281.080156815138
20
-4.02768660386894
30
0
41
1
10
281.286016680959
20
-4.07038856627673
30
0
41
1
10
281.354031196896
20
-4.08812988637197
30
0
41
1
10
281.488819478993
20
-4.13079528692731
30
0
41
1
10
281.555448885379
20
-4.15572736289442
30
0
41
1
10
281.748916407727
20
-4.23954218539609
30
0
41
1
10
281.870952482156
20
-4.30781061878008
30
0
41
1
10
282.043670686691
20
-4.42860973194979
30
0
41
1
10
282.099769150943
20
-4.47221916649488
30
0
41
1
10
282.206269347143
20
-4.56394818153819
30
0
41
1
10
282.256867881554
20
-4.61215966419351
30
0
41
1
10
282.400947649895
20
-4.76360677251941
30
0
41
1
10
282.487057583797
20
-4.87402967692887
30
0
41
1
10
282.637186773739
20
-5.11143596018783
30
0
41
1
10
282.699456517928
20
-5.23545455933865
30
0
41
1
10
282.774694989164
20
-5.42896899554617
30
0
41
1
10
282.796724554541
20
-5.49473100562599
30
0
41
1
10
282.834597766177
20
-5.62879695878462
30
0
41
1
10
282.850362211319
20
-5.69696842739432
30
0
41
1
10
282.887529612583
20
-5.90113072199415
30
0
41
1
10
282.899303133322
20
-6.03810791400733
30
0
41
1
10
282.897804006036
20
-6.24483644379711
30
0
41
1
10
282.894054307343
20
-6.31426216436034
30
0
41
1
10
282.880081848941
20
-6.45205534547745
30
0
41
1
10
282.86992279079
20
-6.5201222326169
30
0
41
1
10
282.830209013563
20
-6.7219132258258
30
0
41
1
10
282.791503705346
20
-6.85324865366729
30
0
41
1
10
282.714646927772
20
-7.04539295722819
30
0
41
1
10
282.685757281564
20
-7.10877941805546
30
0
41
1
10
282.622745381253
20
-7.23133359007517
30
0
41
1
10
282.588516371744
20
-7.29081858244342
30
0
41
1
10
282.477735028995
20
-7.46396835136966
30
0
41
1
10
282.393174543911
20
-7.57238305966925
30
0
41
1
10
282.201099032599
20
-7.77430478517843
30
0
41
1
10
282.095942251131
20
-7.86515603385402
30
0
41
1
10
281.926574124725
20
-7.98466525304264
30
0
41
1
10
281.868065264151
20
-8.02179312597858
30
0
41
1
10
281.746788704574
20
-8.09044779648144
30
0
41
1
10
281.683630289282
20
-8.12213835315691
30
0
41
1
10
281.490381722125
20
-8.20696021140859
30
0
41
1
10
281.35752669625
20
-8.24973381479961
30
0
41
1
10
281.152213173229
20
-8.29331736799861
30
0
41
1
10
281.082763065995
20
-8.30439102194413
30
0
41
1
10
280.941746351287
20
-8.31932299847782
30
0
41
1
10
280.870856560219
20
-8.32307463741418
30
0
41
1
10
280.659979031618
20
-8.32330335033103
30
0
41
1
10
280.520561297878
20
-8.30899918404367
30
0
41
1
10
280.313199559996
20
-8.26565865469343
30
0
41
1
10
280.244410091855
20
-8.2474854794028
30
0
41
1
10
280.110675450609
20
-8.20469790729851
30
0
41
1
10
279.979932090459
20
-8.15531853230692
30
0
41
1
10
279.855002529296
20
-8.09310031225988
30
0
41
1
10
279.732982174739
20
-8.02444096254325
30
0
41
1
10
279.673261142579
20
-7.98673240750799
30
0
41
1
10
279.502148905344
20
-7.86636939493019
30
0
41
1
10
279.397495280604
20
-7.7759579241827
30
0
41
1
10
279.254048013149
20
-7.62562172986605
30
0
41
1
10
279.208294033511
20
-7.57275264587565
30
0
41
1
10
279.122668008496
20
-7.46357180773111
30
0
41
1
10
279.082786557238
20
-7.40732003741698
30
0
41
1
10
278.971608363953
20
-7.23374306736884
30
0
41
1
10
278.908698859227
20
-7.11164055542625
30
0
41
1
10
278.805561885469
20
-6.85440776834807
30
0
41
1
10
278.766591860751
20
-6.72217112793803
30
0
41
1
10
278.726883536119
20
-6.52060878885348
30
0
41
1
10
278.716749747993
20
-6.45277157686294
30
0
41
1
10
278.70278787951
20
-6.31577263748559
30
0
41
1
10
278.698962616496
20
-6.24627015143335
30
0
41
1
10
278.697357875895
20
-6.03832936590129
30
0
41
1
10
278.709217506177
20
-5.90130533261899
30
0
41
1
10
278.746117960761
20
-5.69815603299227
30
0
41
1
10
278.761624692326
20
-5.63084034304629
30
0
41
1
10
278.799272011048
20
-5.49704460850575
30
0
41
1
10
278.821528515821
20
-5.43035661019681
30
0
41
1
10
278.897034192784
20
-5.23585414628323
30
0
41
1
10
278.959221116678
20
-5.11222126444304
30
0
41
1
10
279.107482369577
20
-4.87720185044375
30
0
41
1
10
279.194703257826
20
-4.7648676047603
30
0
41
1
10
279.38704523553
20
-4.56242543128533
30
0
41
1
10
279.492484859202
20
-4.47129304436427
30
0
41
1
10
279.664929087735
20
-4.35020922453543
30
0
41
1
10
279.725169298621
20
-4.31229129046417
30
0
41
1
10
279.848114853315
20
-4.24338594860993
30
0
41
1
10
279.91095175707
20
-4.21225368440105
30
0
41
1
10
280.103479552883
20
-4.12864692297902
30
0
41
1
10
280.237322931873
20
-4.08582225158799
30
0
41
1
10
280.515498495091
20
-4.02770115079704
30
0
41
1
10
280.656209519207
20
-4.01313850891646
30
0
41
1
10
280.798361855951
20
-4.01313850891647
30
0
0
SPLINE
5
328
100
AcDbEntity
8
1
62
256
6
ByLayer
370
13
48
1
60
0
100
AcDbSpline
70
4
71
3
72
8
73
4
40
0
40
0
40
0
40
0
40
1
40
1
40
1
40
1
41
1
10
35
20
-30.5917407192874
30
0
41
1
10
34.0471100991939
20
-30.5917122475646
30
0
41
1
10
33.094252983048
20
-30.5961477281381
30
0
41
1
10
32.141428644136
20
-30.6050462264758
30
0
0
SPLINE
5
329
100
AcDbEntity
8
1
62
256
6
ByLayer
370
13
48
1
60
0
100
AcDbSpline
70
4
71
3
72
10
73
6
40
0
40
0
40
0
40
0
40
0.5
40
0.5
40
1
40
1
40
1
40
1
41
1
10
276.612858801702
20
10.3597674971403
30
0
41
1
10
277.175509448476
20
10.5670465135489
30
0
41
1
10
277.732787860989
20
10.720313416325
30
0
41
1
10
278.83847959471
20
10.9404563520499
30
0
41
1
10
279.386833151033
20
11.0069707641618
30
0
41
1
10
279.92935870565
20
11.0354033236842
30
0
0
SPLINE
5
32A
100
AcDbEntity
8
1
62
256
6
ByLayer
370
13
48
1
60
0
100
AcDbSpline
70
4
71
3
72
8
73
4
40
0
40
0
40
0
40
0
40
1
40
1
40
1
40
1
41
1
10
269.486036065332
20
9.39093659825443
30
0
41
1
10
269.631108574546
20
9.60740138458218
30
0
41
1
10
269.773549380749
20
9.82391465614776
30
0
41
1
10
269.914102829354
20
10.0399414793014
30
0
0
SPLINE
5
32B
100
AcDbEntity
8
1
62
256
6
ByLayer
370
13
48
1
60
0
100
AcDbSpline
70
4
71
3
72
26
73
22
40
0
40
0
40
0
40
0
40
0.139791762099241
40
0.139791762099241
40
0.279583524198483
40
0.279583524198483
40
0.419375286297726
40
0.419375286297726
40
0.559167048396968
40
0.559167048396968
40
0.62906292944659
40
0.62906292944659
40
0.698958810496212
40
0.698958810496212
40
0.768854691545834
40
0.768854691545834
40
0.838750572595456
40
0.838750572595456
40
0.978542334694701
40
0.978542334694701
40
1
40
1
40
1
40
1
41
1
10
257.46966879565
20
30.1088653095441
30
0
41
1
10
255.048735627886
20
30.2589096417967
30
0
41
1
10
252.630181091399
20
30.3506250332644
30
0
41
1
10
247.792934112671
20
30.4165903103897
30
0
41
1
10
245.373816982462
20
30.3908392771705
30
0
41
1
10
240.532628602288
20
30.221612501265
30
0
41
1
10
238.114678972332
20
30.0782512154525
30
0
41
1
10
233.2789628323
20
29.6755089915343
30
0
41
1
10
230.861021576824
20
29.4161459398583
30
0
41
1
10
227.229463452224
20
28.9426679920128
30
0
41
1
10
226.019358600951
20
28.7709523480224
30
0
41
1
10
223.599343333835
20
28.4003807044689
30
0
41
1
10
222.389505061601
20
28.2014891441376
30
0
41
1
10
219.970576982638
20
27.7761100040642
30
0
41
1
10
218.761602037928
20
27.5495080574043
30
0
41
1
10
216.344215062941
20
27.0684990397735
30
0
41
1
10
215.135525695266
20
26.814311816067
30
0
41
1
10
211.504735144989
20
26.0158482412563
30
0
41
1
10
209.081675373546
20
25.4365350743956
30
0
41
1
10
206.273609942382
20
24.7343458636601
30
0
41
1
10
205.899647572209
20
24.6402394381136
30
0
41
1
10
205.525386363071
20
24.5455070237899
30
0
0
SPLINE
5
32C
100
AcDbEntity
8
1
62
256
6
ByLayer
370
13
48
1
60
0
100
AcDbSpline
70
4
71
1
72
4
73
2
40
0
40
0
40
1
40
1
41
1
10
35.0099999989228
20
-29.9006436601505
30
0
41
1
10
35.0100000010772
20
-29.9141859866415
30
0
0
SPLINE
5
32D
100
AcDbEntity
8
1
62
256
6
ByLayer
370
13
48
1
60
0
100
AcDbSpline
70
4
71
3
72
28
73
24
40
0
40
0
40
0
40
0
40
0.0624999999999996
40
0.0624999999999996
40
0.124999999999999
40
0.124999999999999
40
0.187499999999999
40
0.187499999999999
40
0.218749999999999
40
0.218749999999999
40
0.249999999999999
40
0.249999999999999
40
0.312499999999999
40
0.312499999999999
40
0.374999999999999
40
0.374999999999999
40
0.499999999999999
40
0.499999999999999
40
0.624999999999999
40
0.624999999999999
40
0.75
40
0.75
40
1
40
1
40
1
40
1
41
1
10
137.8
20
-11.8237089146145
30
0
41
1
10
135.76988337833
20
-11.6450906365155
30
0
41
1
10
133.737490796307
20
-11.4937957147124
30
0
41
1
10
129.667116428927
20
-11.2600980475316
30
0
41
1
10
127.629161102458
20
-11.1777396098689
30
0
41
1
10
123.554344877991
20
-11.0687155345996
30
0
41
1
10
121.516667439365
20
-11.0433419841028
30
0
41
1
10
118.459961097664
20
-11.0260103903808
30
0
41
1
10
117.441028276584
20
-11.0235736614815
30
0
41
1
10
115.403138423686
20
-11.0213363826997
30
0
41
1
10
114.384180167814
20
-11.0216687789931
30
0
41
1
10
111.327284517599
20
-11.0249398307253
30
0
41
1
10
109.289330200758
20
-11.0297208830758
30
0
41
1
10
105.213447992295
20
-11.0364057682055
30
0
41
1
10
103.175512601333
20
-11.0391261852656
30
0
41
1
10
97.0617245996169
20
-11.045309233192
30
0
41
1
10
92.9858921746331
20
-11.0464098172686
30
0
41
1
10
84.834218789472
20
-11.0450190845383
30
0
41
1
10
80.7583838036265
20
-11.0431367415011
30
0
41
1
10
72.6067099997788
20
-11.0419821526881
30
0
41
1
10
68.5308718552245
20
-11.0422291476366
30
0
41
1
10
56.3033556832005
20
-11.0448374485032
30
0
41
1
10
48.1516754121128
20
-11.0491565239715
30
0
41
1
10
40
20
-11.0490045998693
30
0
0
SPLINE
5
32E
100
AcDbEntity
8
1
62
256
6
ByLayer
370
13
48
1
60
0
100
AcDbSpline
70
4
71
3
72
8
73
4
40
0
40
0
40
0
40
0
40
1
40
1
40
1
40
1
41
1
10
265.199818218644
20
14.0145708944314
30
0
41
1
10
265.61563175104
20
14.0217896787257
30
0
41
1
10
266.017159172179
20
13.997306848097
30
0
41
1
10
266.404595189593
20
13.9403569229321
30
0
0
SPLINE
5
32F
100
AcDbEntity
8
1
62
256
6
ByLayer
370
13
48
1
60
0
100
AcDbSpline
70
4
71
3
72
48
73
44
40
0
40
0
40
0
40
0
40
0.0156249999999998
40
0.0156249999999998
40
0.0312499999999995
40
0.0312499999999995
40
0.0468749999999993
40
0.0468749999999993
40
0.062499999999999
40
0.062499999999999
40
0.0937499999999989
40
0.0937499999999989
40
0.124999999999999
40
0.124999999999999
40
0.187499999999999
40
0.187499999999999
40
0.249999999999999
40
0.249999999999999
40
0.374999999999999
40
0.374999999999999
40
0.499999999999999
40
0.499999999999999
40
0.562499999999999
40
0.562499999999999
40
0.624999999999999
40
0.624999999999999
40
0.749999999999999
40
0.749999999999999
40
0.812499999999999
40
0.812499999999999
40
0.874999999999999
40
0.874999999999999
40
0.906249999999999
40
0.906249999999999
40
0.937499999999999
40
0.937499999999999
40
0.968749999999999
40
0.968749999999999
40
0.976562499999999
40
0.976562499999999
40
0.984374999999999
40
0.984374999999999
40
1
40
1
40
1
40
1
41
1
10
10.4124
20
5.42190238343159
30
0
41
1
10
10.4760748861545
20
5.4182125605104
30
0
41
1
10
10.536962828275
20
5.40323107049764
30
0
41
1
10
10.6542576417731
20
5.35510188611755
30
0
41
1
10
10.7082426548827
20
5.32298884101732
30
0
41
1
10
10.8088188283522
20
5.24860040411085
30
0
41
1
10
10.8557075025189
20
5.20593282020363
30
0
41
1
10
10.9417468798511
20
5.11586920581868
30
0
41
1
10
10.9813710423845
20
5.06810854743389
30
0
41
1
10
11.0929585770718
20
4.91894474829269
30
0
41
1
10
11.1578671680756
20
4.8113360040866
30
0
41
1
10
11.2729682919896
20
4.59257250800761
30
0
41
1
10
11.3236684985481
20
4.48046600615558
30
0
41
1
10
11.4621255239251
20
4.1386153506181
30
0
41
1
10
11.5364671018861
20
3.90342740572828
30
0
41
1
10
11.6641454811271
20
3.42416058536259
30
0
41
1
10
11.7164717874241
20
3.18255443218177
30
0
41
1
10
11.8496759973583
20
2.45633763378831
30
0
41
1
10
11.9076057060906
20
1.96887207986188
30
0
41
1
10
11.9840785275375
20
0.989287416664041
30
0
41
1
10
12.0020825957195
20
0.497120252942892
30
0
41
1
10
12.0021858364479
20
-0.244401792736966
30
0
41
1
10
11.9976337469149
20
-0.492438009289287
30
0
41
1
10
11.9789785588883
20
-0.988129770047181
30
0
41
1
10
11.9649044141852
20
-1.23549834072534
30
0
41
1
10
11.9069496978279
20
-1.97606608007681
30
0
41
1
10
11.8480494851534
20
-2.46859951538647
30
0
41
1
10
11.7134592098136
20
-3.19720798748591
30
0
41
1
10
11.6606736043706
20
-3.43882864844858
30
0
41
1
10
11.5329279900517
20
-3.91498403190866
30
0
41
1
10
11.4579416904618
20
-4.15071041411704
30
0
41
1
10
11.3187720494313
20
-4.49160446702013
30
0
41
1
10
11.2678830625697
20
-4.60314749466974
30
0
41
1
10
11.1527175744837
20
-4.82012879409396
30
0
41
1
10
11.0881591910659
20
-4.92622416360379
30
0
41
1
10
10.9395551448843
20
-5.12308516713881
30
0
41
1
10
10.8547335876881
20
-5.21522863000735
30
0
41
1
10
10.7308893676754
20
-5.30608104517842
30
0
41
1
10
10.7051553109395
20
-5.32304674858429
30
0
41
1
10
10.6512919982944
20
-5.35399181731736
30
0
41
1
10
10.6230022542031
20
-5.36800528502704
30
0
41
1
10
10.5365510626379
20
-5.40323709662545
30
0
41
1
10
10.4753718570263
20
-5.41825329953872
30
0
41
1
10
10.4124
20
-5.42190238343156
30
0
0
SPLINE
5
330
100
AcDbEntity
8
1
62
256
6
ByLayer
370
13
48
1
60
0
100
AcDbSpline
70
4
71
3
72
8
73
4
40
0
40
0
40
0
40
0
40
1
40
1
40
1
40
1
41
1
10
266.979687607527
20
2.55670413764051
30
0
41
1
10
267.185754684787
20
2.50682403194139
30
0
41
1
10
267.392658668456
20
2.46180382066282
30
0
41
1
10
267.600344019798
20
2.42155365716283
30
0
0
SPLINE
5
331
100
AcDbEntity
8
1
62
256
6
ByLayer
370
13
48
1
60
0
100
AcDbSpline
70
4
71
3
72
8
73
4
40
0
40
0
40
0
40
0
40
1
40
1
40
1
40
1
41
1
10
264.517065286874
20
11.8729472804637
30
0
41
1
10
264.51767645709
20
11.8755232174494
30
0
41
1
10
264.5183639102
20
11.8780901207738
30
0
41
1
10
264.519126126072
20
11.8806481926578
30
0
0
SPLINE
5
332
100
AcDbEntity
8
1
62
256
6
ByLayer
370
13
48
1
60
0
100
AcDbSpline
70
4
71
3
72
66
73
62
40
0
40
0
40
0
40
0
40
0.0088191705696786
40
0.0088191705696786
40
0.0290473507621339
40
0.0290473507621339
40
0.0391614408583616
40
0.0391614408583616
40
0.0492755309545891
40
0.0492755309545891
40
0.0593896210508168
40
0.0593896210508168
40
0.0695037111470443
40
0.0695037111470443
40
0.0897318913395
40
0.0897318913395
40
0.109960071531956
40
0.109960071531956
40
0.150416431916867
40
0.150416431916867
40
0.170644612109322
40
0.170644612109322
40
0.190872792301778
40
0.190872792301778
40
0.231329152686688
40
0.231329152686688
40
0.271785513071598
40
0.271785513071598
40
0.292013693264054
40
0.292013693264054
40
0.312241873456509
40
0.312241873456509
40
0.332470053648965
40
0.332470053648965
40
0.35269823384142
40
0.35269823384142
40
0.393154594226331
40
0.393154594226331
40
0.433610954611242
40
0.433610954611242
40
0.453839134803697
40
0.453839134803697
40
0.474067314996153
40
0.474067314996153
40
0.494295495188609
40
0.494295495188609
40
0.514523675381064
40
0.514523675381064
40
0.53475185557352
40
0.53475185557352
40
0.554980035765976
40
0.554980035765976
40
0.595436396150887
40
0.595436396150887
40
0.67634911692071
40
0.67634911692071
40
0.757261837690532
40
0.757261837690532
40
0.838174558460355
40
0.838174558460355
40
1
40
1
40
1
40
1
41
1
10
205.043690318485
20
-25.2602077646306
30
0
41
1
10
204.578178997265
20
-25.3699826633944
30
0
41
1
10
204.112744772242
20
-25.4781905711994
30
0
41
1
10
202.580113592788
20
-25.8290566605903
30
0
41
1
10
201.513158189699
20
-26.0643756134334
30
0
41
1
10
199.912487158063
20
-26.400574526491
30
0
41
1
10
199.378889216252
20
-26.5098490477529
30
0
41
1
10
198.311450469835
20
-26.7222095491626
30
0
41
1
10
197.777642052812
20
-26.82503470955
30
0
41
1
10
196.709188765927
20
-27.0244660224105
30
0
41
1
10
196.1745145769
20
-27.1212188240336
30
0
41
1
10
195.10345649199
20
-27.3107450820912
30
0
41
1
10
194.56709213392
20
-27.4034460854394
30
0
41
1
10
192.955091009858
20
-27.6734932209952
30
0
41
1
10
191.876124176257
20
-27.8419483213963
30
0
41
1
10
189.709962591246
20
-28.1523197263456
30
0
41
1
10
188.62357946392
20
-28.2950675409363
30
0
41
1
10
185.354414516896
20
-28.6898810822792
30
0
41
1
10
183.161621906031
20
-28.9085016284239
30
0
41
1
10
179.851942779639
20
-29.1849229599376
30
0
41
1
10
178.74528887653
20
-29.2685459025047
30
0
41
1
10
176.525234335928
20
-29.4198477151073
30
0
41
1
10
175.411545077048
20
-29.4875695651203
30
0
41
1
10
172.063990502195
20
-29.6688729716433
30
0
41
1
10
169.822997670663
20
-29.7606533025472
30
0
41
1
10
165.323020092509
20
-29.8980165004909
30
0
41
1
10
163.064311815256
20
-29.9432525264399
30
0
41
1
10
159.66135854334
20
-29.9897731296598
30
0
41
1
10
158.524617649437
20
-30.0017467208602
30
0
41
1
10
156.248015724165
20
-30.0200046918685
30
0
41
1
10
155.107891852011
20
-30.0262048388245
30
0
41
1
10
152.823764563926
20
-30.0333724456029
30
0
41
1
10
151.679760622573
20
-30.0343346894268
30
0
41
1
10
149.387625536292
20
-30.0316281346455
30
0
41
1
10
148.239498543184
20
-30.0280261437555
30
0
41
1
10
144.788843306424
20
-30.0143642985242
30
0
41
1
10
142.4789819463
20
-30.002364633608
30
0
41
1
10
137.853678821579
20
-29.9760172163323
30
0
41
1
10
135.537128625176
20
-29.9619452632227
30
0
41
1
10
132.056488908983
20
-29.9388331427478
30
0
41
1
10
130.895301139259
20
-29.9306371003956
30
0
41
1
10
128.570898656946
20
-29.9145751790205
30
0
41
1
10
127.407388918098
20
-29.9064168022447
30
0
41
1
10
125.080116566684
20
-29.8962709190769
30
0
41
1
10
123.916372606688
20
-29.8946197270725
30
0
41
1
10
121.588698255852
20
-29.9029864186403
30
0
41
1
10
120.424773080032
20
-29.9106857789295
30
0
41
1
10
118.096852670344
20
-29.9152978716069
30
0
41
1
10
116.932853058959
20
-29.913916586052
30
0
41
1
10
114.60481873154
20
-29.9095080609827
30
0
41
1
10
113.440786111965
20
-29.906853068216
30
0
41
1
10
109.948673558014
20
-29.9001489148942
30
0
41
1
10
107.620587162102
20
-29.8973574500617
30
0
41
1
10
100.636339908404
20
-29.8959545113929
30
0
41
1
10
95.980172300928
20
-29.8999817798046
30
0
41
1
10
86.667837779934
20
-29.9014546080936
30
0
41
1
10
82.0116705870297
20
-29.9000093788745
30
0
41
1
10
72.6993364382222
20
-29.8993340479385
30
0
41
1
10
68.043169389448
20
-29.9000568963819
30
0
41
1
10
54.0746682452182
20
-29.901175579189
30
0
41
1
10
44.7623341547917
20
-29.9007908179324
30
0
41
1
10
35.4500000000001
20
-29.9004831436845
30
0
0
SPLINE
5
333
100
AcDbEntity
8
1
62
256
6
ByLayer
370
13
48
1
60
0
100
AcDbSpline
70
4
71
3
72
32
73
28
40
0
40
0
40
0
40
0
40
0.12635835215646
40
0.12635835215646
40
0.252716704312919
40
0.252716704312919
40
0.379075056469379
40
0.379075056469379
40
0.442254232547609
40
0.442254232547609
40
0.505433408625839
40
0.505433408625839
40
0.631791760782299
40
0.631791760782299
40
0.758150112938759
40
0.758150112938759
40
0.884508465095218
40
0.884508465095218
40
0.916098053134333
40
0.916098053134333
40
0.931892847153891
40
0.931892847153891
40
0.947687641173448
40
0.947687641173448
40
0.979277229212562
40
0.979277229212562
40
1
40
1
40
1
40
1
41
1
10
257.413464938785
20
30.0238554504849
30
0
41
1
10
255.231502942751
20
30.1588750666644
30
0
41
1
10
253.049997343649
20
30.2469919396315
30
0
41
1
10
248.686566408615
20
30.328473159478
30
0
41
1
10
246.506824155795
20
30.3218144558752
30
0
41
1
10
242.147760447844
20
30.2128663765256
30
0
41
1
10
239.96845037989
20
30.1104874079133
30
0
41
1
10
236.697076531695
20
29.8843790657813
30
0
41
1
10
235.606089991999
20
29.7970049914082
30
0
41
1
10
233.425419095097
20
29.5991870454184
30
0
41
1
10
232.335420227837
20
29.4887256368805
30
0
41
1
10
229.065747447634
20
29.123789639808
30
0
41
1
10
226.886378323509
20
28.8359631242534
30
0
41
1
10
222.525258950954
20
28.1754834718219
30
0
41
1
10
220.342619234377
20
27.8008259887744
30
0
41
1
10
215.982214062675
20
26.9457927926268
30
0
41
1
10
213.802686046419
20
26.4689731351914
30
0
41
1
10
211.076628718692
20
25.8499014786409
30
0
41
1
10
210.53135838925
20
25.7248796419477
30
0
41
1
10
209.713383803773
20
25.5360280088351
30
0
41
1
10
209.440787187114
20
25.4730571106327
30
0
41
1
10
208.895061885745
20
25.3453292692169
30
0
41
1
10
208.621795141962
20
25.2801967804206
30
0
41
1
10
207.800627519682
20
25.0810131885338
30
0
41
1
10
207.251731913952
20
24.9442944495962
30
0
41
1
10
206.341672137447
20
24.7156773387505
30
0
41
1
10
205.980925642914
20
24.6243724808799
30
0
41
1
10
205.619944228561
20
24.5325185562135
30
0
0
SPLINE
5
334
100
AcDbEntity
8
1
62
256
6
ByLayer
370
13
48
1
60
0
100
AcDbSpline
70
4
71
3
72
10
73
6
40
0
40
0
40
0
40
0
40
0.5
40
0.5
40
1
40
1
40
1
40
1
41
1
10
284.393438565164
20
12.9438729253599
30
0
41
1
10
284.417895995686
20
12.9541490380112
30
0
41
1
10
284.443960152776
20
12.9625418785537
30
0
41
1
10
284.497295542552
20
12.9746935671991
30
0
41
1
10
284.524744011784
20
12.9785545852445
30
0
41
1
10
284.552985779327
20
12.9800503012696
30
0
0
SPLINE
5
335
100
AcDbEntity
8
1
62
256
6
ByLayer
370
13
48
1
60
0
100
AcDbSpline
70
4
71
3
72
13
73
9
40
0
40
0
40
0
40
0
40
0.5
40
0.5
40
0.625
40
0.625
40
0.75
40
1
40
1
40
1
40
1
41
1
10
16.7952679427915
20
-30.9229320709587
30
0
41
1
10
18.8034544227964
20
-30.8800490866949
30
0
41
1
10
20.8112406801256
20
-30.8259017064883
30
0
41
1
10
23.3204715371061
20
-30.7440895238219
30
0
41
1
10
23.8222827260655
20
-30.7264698387841
30
0
41
1
10
24.8259805464652
20
-30.6941677975361
30
0
41
1
10
26.3316105167631
20
-30.6491239637352
30
0
41
1
10
27.8374904258687
20
-30.6143168128499
30
0
41
1
10
28.8415216142008
20
-30.5956684408736
30
0
0
SPLINE
5
336
100
AcDbEntity
8
1
62
256
6
ByLayer
370
13
48
1
60
0
100
AcDbSpline
70
4
71
3
72
8
73
4
40
0
40
0
40
0
40
0
40
1
40
1
40
1
40
1
41
1
10
289.684032732118
20
0.506704529876799
30
0
41
1
10
289.682117996
20
0.560316362542039
30
0
41
1
10
289.681852178673
20
0.613844406137588
30
0
41
1
10
289.683134311811
20
0.663265790989129
30
0
0
SPLINE
5
337
100
AcDbEntity
8
1
62
256
6
ByLayer
370
13
48
1
60
0
100
AcDbSpline
70
4
71
3
72
8
73
4
40
0
40
0
40
0
40
0
40
1
40
1
40
1
40
1
41
1
10
10.4124
20
5.4219023834315
30
0
41
1
10
8.71382453216819
20
5.52033118437762
30
0
41
1
10
7.01379056974076
20
5.56776436283008
30
0
41
1
10
5.31239999999998
20
5.56776436283008
30
0
0
SPLINE
5
338
100
AcDbEntity
8
1
62
256
6
ByLayer
370
13
48
1
60
0
100
AcDbSpline
70
4
71
3
72
8
73
4
40
0
40
0
40
0
40
0
40
1
40
1
40
1
40
1
41
1
10
35
20
-11.0476809346335
30
0
41
1
10
34.047108709677
20
-11.0472952839693
30
0
41
1
10
33.0942516445596
20
-11.0470702064363
30
0
41
1
10
32.1414287964796
20
-11.0470051341361
30
0
0
SPLINE
5
339
100
AcDbEntity
8
1
62
256
6
ByLayer
370
13
48
1
60
0
100
AcDbSpline
70
4
71
3
72
8
73
4
40
0
40
0
40
0
40
0
40
1
40
1
40
1
40
1
41
1
10
1.42E-14
20
4.97594212184995
30
0
41
1
10
0.031571657597965
20
5.1735845200318
30
0
41
1
10
0.0649171506606621
20
5.37085605809409
30
0
41
1
10
0.0999999999999801
20
5.56776436282993
30
0
0
SPLINE
5
33A
100
AcDbEntity
8
1
62
256
6
ByLayer
370
13
48
1
60
0
100
AcDbSpline
70
4
71
3
72
8
73
4
40
0
40
0
40
0
40
0
40
1
40
1
40
1
40
1
41
1
10
263.711539042733
20
1.02942406398486
30
0
41
1
10
264.285789093561
20
0.650189981541416
30
0
41
1
10
264.893459153583
20
0.336282891572978
30
0
41
1
10
265.53916914404
20
0.0968733164189928
30
0
0
SPLINE
5
33B
100
AcDbEntity
8
1
62
256
6
ByLayer
370
13
48
1
60
0
100
AcDbSpline
70
4
71
3
72
8
73
4
40
0
40
0
40
0
40
0
40
1
40
1
40
1
40
1
41
1
10
257.4134649388
20
30.0238554504751
30
0
41
1
10
257.432223678315
20
30.0521758560335
30
0
41
1
10
257.450958261344
20
30.0805124998735
30
0
41
1
10
257.469668795655
20
30.1088653095531
30
0
0
SPLINE
5
33C
100
AcDbEntity
8
1
62
256
6
ByLayer
370
13
48
1
60
0
100
AcDbSpline
70
4
71
3
72
8
73
4
40
0
40
0
40
0
40
0
40
1
40
1
40
1
40
1
41
1
10
40
20
-30.5918471880944
30
0
41
1
10
38.3333333042921
20
-30.5918248303416
30
0
41
1
10
36.6666666200381
20
-30.5917905181885
30
0
41
1
10
35
20
-30.5917407192873
30
0
0
SPLINE
5
33D
100
AcDbEntity
8
1
62
256
6
ByLayer
370
13
48
1
60
0
100
AcDbSpline
70
4
71
3
72
14
73
10
40
0
40
0
40
0
40
0
40
0.500000000000002
40
0.500000000000002
40
0.625000000000002
40
0.625000000000002
40
0.750000000000002
40
0.750000000000002
40
1
40
1
40
1
40
1
41
1
10
268.583443861866
20
11.9143210672076
30
0
41
1
10
268.595119877364
20
12.2589867502764
30
0
41
1
10
268.574128899508
20
12.6010786969227
30
0
41
1
10
268.492654806346
20
13.0243417976576
30
0
41
1
10
268.473470208268
20
13.1090722615205
30
0
41
1
10
268.429333370104
20
13.2764775289483
30
0
41
1
10
268.404448837984
20
13.358986256382
30
0
41
1
10
268.321000546322
20
13.6027838802748
30
0
41
1
10
268.253679225288
20
13.760359961403
30
0
41
1
10
268.173379692867
20
13.9124338599603
30
0
0
SPLINE
5
33E
100
AcDbEntity
8
1
62
256
6
ByLayer
370
13
48
1
60
0
100
AcDbSpline
70
4
71
1
72
4
73
2
40
0
40
0
40
1
40
1
41
1
10
237.17151398417
20
13.8237630908099
30
0
41
1
10
237.149909629651
20
13.8324161056489
30
0
0
SPLINE
5
33F
100
AcDbEntity
8
1
62
256
6
ByLayer
370
13
48
1
60
0
100
AcDbSpline
70
4
71
3
72
11
73
7
40
0
40
0
40
0
40
0
40
0.279999616363322
40
0.560003136478956
40
0.780000430013853
40
1
40
1
40
1
40
1
41
1
10
5.31239999999994
20
-31.25
30
0
41
1
10
8.0840889162057
20
-31.2499969421214
30
0
41
1
10
13.62672790327
20
-31.2062183034503
30
0
41
1
10
21.3448933418369
20
-31.0092520358195
30
0
41
1
10
28.4671301418958
20
-30.7501001719761
30
0
41
1
10
32.8221495501514
20
-30.7137825229994
30
0
41
1
10
34.9999999999999
20
-30.7125
30
0
0
SPLINE
5
340
100
AcDbEntity
8
1
62
256
6
ByLayer
370
13
48
1
60
0
100
AcDbSpline
70
4
71
3
72
10
73
6
40
0
40
0
40
0
40
0
40
0.279999734889464
40
0.559999739153584
40
1
40
1
40
1
40
1
41
1
10
35
20
30.7124999999999
30
0
41
1
10
32.2283090090209
20
30.7245347276154
30
0
41
1
10
26.6856539335935
20
30.7813977162277
30
0
41
1
10
16.7946123331871
20
31.1788916585216
30
0
41
1
10
9.66814804937761
20
31.2424102467231
30
0
41
1
10
5.31240000000001
20
31.25
30
0
0
SPLINE
5
341
100
AcDbEntity
8
1
62
256
6
ByLayer
370
13
48
1
60
0
100
AcDbSpline
70
4
71
1
72
4
73
2
40
0
40
0
40
1
40
1
41
1
10
290.628979123819
20
11.8079263291149
30
0
41
1
10
290.773654116804
20
11.9374908419536
30
0
0
SPLINE
5
342
100
AcDbEntity
8
1
62
256
6
ByLayer
370
13
48
1
60
0
100
AcDbSpline
70
4
71
1
72
4
73
2
40
0
40
0
40
1
40
1
41
1
10
271.729221905496
20
10.9394144420525
30
0
41
1
10
271.886647533154
20
10.8256823518619
30
0
0
LINE
5
7F
100
AcDbEntity
8
SK1
62
256
6
ByLayer
370
13
48
1
60
0
100
AcDbLine
10
-6.5
20
-10.670483
30
0
11
-6.5
21
10.670483
31
0
39
0
210
0
220
0
230
1
0
LINE
5
81
100
AcDbEntity
8
SK1
62
256
6
ByLayer
370
13
48
1
60
0
100
AcDbLine
10
-80
20
8.054018
30
0
11
-80
21
-8.054018
31
0
39
0
210
0
220
0
230
1
0
LINE
5
82
100
AcDbEntity
8
1
62
256
6
ByLayer
370
18
48
1
60
0
100
AcDbLine
10
279.613293
20
20.595401
30
0
11
279.545058
21
20.591825
31
0
39
0
210
0
220
0
230
1
0
LINE
5
83
100
AcDbEntity
8
1
62
256
6
ByLayer
370
18
48
1
60
0
100
AcDbLine
10
282.016954
20
22.151201
30
0
11
281.879733
21
22.144009
31
0
39
0
210
0
220
0
230
1
0
LINE
5
84
100
AcDbEntity
8
1
62
256
6
ByLayer
370
18
48
1
60
0
100
AcDbLine
10
280.568967
20
22.479972
30
0
11
280.430704
21
22.472726
31
0
39
0
210
0
220
0
230
1
0
LINE
5
85
100
AcDbEntity
8
1
62
256
6
ByLayer
370
18
48
1
60
0
100
AcDbLine
10
282.309456
20
21.510887
30
0
11
282.289549
21
21.510283
31
0
39
0
210
0
220
0
230
1
0
LINE
5
86
100
AcDbEntity
8
1
62
256
6
ByLayer
370
18
48
1
60
0
100
AcDbLine
10
282.026642
20
22.169273
30
0
11
281.88838
21
22.162027
31
0
39
0
210
0
220
0
230
1
0
LINE
5
87
100
AcDbEntity
8
1
62
256
6
ByLayer
370
18
48
1
60
0
100
AcDbLine
10
282.330057
20
20.737341
30
0
11
282.349918
21
20.738821
31
0
39
0
210
0
220
0
230
1
0
LINE
5
88
100
AcDbEntity
8
1
62
256
6
ByLayer
370
18
48
1
60
0
100
AcDbLine
10
282.467278
20
20.744533
30
0
11
282.330057
21
20.737341
31
0
39
0
210
0
220
0
230
1
0
LINE
5
89
100
AcDbEntity
8
1
62
256
6
ByLayer
370
18
48
1
60
0
100
AcDbLine
10
282.137474
20
20.05448
30
0
11
281.999211
21
20.047234
31
0
39
0
210
0
220
0
230
1
0
LINE
5
8A
100
AcDbEntity
8
1
62
256
6
ByLayer
370
18
48
1
60
0
100
AcDbLine
10
280.57914
20
22.46338
30
0
11
280.441919
21
22.456189
31
0
39
0
210
0
220
0
230
1
0
LINE
5
8B
100
AcDbEntity
8
1
62
256
6
ByLayer
370
18
48
1
60
0
100
AcDbLine
10
281.879733
20
22.144009
30
0
11
281.88838
21
22.162027
31
0
39
0
210
0
220
0
230
1
0
LINE
5
8C
100
AcDbEntity
8
1
62
256
6
ByLayer
370
18
48
1
60
0
100
AcDbLine
10
282.42677
20
21.517474
30
0
11
282.289549
21
21.510283
31
0
39
0
210
0
220
0
230
1
0
LINE
5
8D
100
AcDbEntity
8
1
62
256
6
ByLayer
370
18
48
1
60
0
100
AcDbLine
10
280.581998
20
19.585868
30
0
11
280.591423
21
19.603487
31
0
39
0
210
0
220
0
230
1
0
LINE
5
8E
100
AcDbEntity
8
1
62
256
6
ByLayer
370
18
48
1
60
0
100
AcDbLine
10
280.728644
20
19.610678
30
0
11
280.591423
21
19.603487
31
0
39
0
210
0
220
0
230
1
0
LINE
5
8F
100
AcDbEntity
8
1
62
256
6
ByLayer
370
18
48
1
60
0
100
AcDbLine
10
280.720261
20
19.593114
30
0
11
280.581998
21
19.585868
31
0
39
0
210
0
220
0
230
1
0
LINE
5
90
100
AcDbEntity
8
1
62
256
6
ByLayer
370
18
48
1
60
0
100
AcDbLine
10
279.57283
20
21.367466
30
0
11
279.505185
21
21.363921
31
0
39
0
210
0
220
0
230
1
0
LINE
5
91
100
AcDbEntity
8
1
62
256
6
ByLayer
370
18
48
1
60
0
100
AcDbLine
10
280.441919
20
22.456189
30
0
11
280.430704
21
22.472726
31
0
39
0
210
0
220
0
230
1
0
LINE
5
92
100
AcDbEntity
8
1
62
256
6
ByLayer
370
18
48
1
60
0
100
AcDbLine
10
282.12595
20
20.07144
30
0
11
281.988729
21
20.064249
31
0
39
0
210
0
220
0
230
1
0
LINE
5
93
100
AcDbEntity
8
1
62
256
6
ByLayer
370
18
48
1
60
0
100
AcDbLine
10
281.999211
20
20.047234
30
0
11
281.988729
21
20.064249
31
0
39
0
210
0
220
0
230
1
0
LINE
5
94
100
AcDbEntity
8
1
62
256
6
ByLayer
370
18
48
1
60
0
100
AcDbLine
10
289.998201
20
-17.917881
30
0
11
289.925171
21
-17.92939
31
0
39
0
210
0
220
0
230
1
0
LINE
5
95
100
AcDbEntity
8
1
62
256
6
ByLayer
370
18
48
1
60
0
100
AcDbLine
10
290.08656
20
0.076289
30
0
11
291.493919
21
-8.765016
31
0
39
0
210
0
220
0
230
1
0
LINE
5
96
100
AcDbEntity
8
1
62
256
6
ByLayer
370
18
48
1
60
0
100
AcDbLine
10
291.496924
20
-8.993437
30
0
11
290.357672
21
-17.603668
31
0
39
0
210
0
220
0
230
1
0
LINE
5
97
100
AcDbEntity
8
1
62
256
6
ByLayer
370
18
48
1
60
0
100
AcDbLine
10
289.686532
20
0.444998
30
0
11
289.770768
21
0.433963
31
0
39
0
210
0
220
0
230
1
0
LINE
5
98
100
AcDbEntity
8
1
62
256
6
ByLayer
370
18
48
1
60
0
100
AcDbLine
10
290.061525
20
0.184683
30
0
11
290.065418
21
0.171175
31
0
39
0
210
0
220
0
230
1
0
LINE
5
99
100
AcDbEntity
8
1
62
256
6
ByLayer
370
18
48
1
60
0
100
AcDbLine
10
290.545811
20
-0.122286
30
0
11
290.444881
21
0.227937
31
0
39
0
210
0
220
0
230
1
0
LINE
5
9A
100
AcDbEntity
8
1
62
256
6
ByLayer
370
18
48
1
60
0
100
AcDbLine
10
290.200063
20
-18.774266
30
0
11
290.552045
21
-18.673841
31
0
39
0
210
0
220
0
230
1
0
LINE
5
9B
100
AcDbEntity
8
1
62
256
6
ByLayer
370
18
48
1
60
0
100
AcDbLine
10
290.107139
20
-17.892972
30
0
11
290.093563
21
-17.896846
31
0
39
0
210
0
220
0
230
1
0
LINE
5
9C
100
AcDbEntity
8
1
62
256
6
ByLayer
370
13
48
1
60
0
100
AcDbLine
10
269.944309
20
21.207932
30
0
11
270.049055
21
22.247533
31
0
39
0
210
0
220
0
230
1
0
LINE
5
9D
100
AcDbEntity
8
1
62
256
6
ByLayer
370
13
48
1
60
0
100
AcDbLine
10
270.192127
20
20.534603
30
0
11
271.220617
21
28.39506
31
0
39
0
210
0
220
0
230
1
0
LINE
5
9E
100
AcDbEntity
8
1
62
256
6
ByLayer
370
13
48
1
60
0
100
AcDbLine
10
273.290396
20
10.906471
30
0
11
273.285697
21
10.906225
31
0
39
0
210
0
220
0
230
1
0
LINE
5
9F
100
AcDbEntity
8
1
62
256
6
ByLayer
370
13
48
1
60
0
100
AcDbLine
10
288.356214
20
30.026609
30
0
11
289.656974
21
21.789336
31
0
39
0
210
0
220
0
230
1
0
LINE
5
A0
100
AcDbEntity
8
1
62
256
6
ByLayer
370
13
48
1
60
0
100
AcDbLine
10
273.679756
20
28.770092
30
0
11
273.675057
21
28.769846
31
0
39
0
210
0
220
0
230
1
0
LINE
5
A1
100
AcDbEntity
8
1
62
256
6
ByLayer
370
13
48
1
60
0
100
AcDbLine
10
271.329357
20
29.798353
30
0
11
271.189845
21
29.774935
31
0
39
0
210
0
220
0
230
1
0
LINE
5
A2
100
AcDbEntity
8
1
62
256
6
ByLayer
370
13
48
1
60
0
100
AcDbLine
10
272.602361
20
20.350292
30
0
11
273.907136
21
12.087598
31
0
39
0
210
0
220
0
230
1
0
LINE
5
A3
100
AcDbEntity
8
1
62
256
6
ByLayer
370
13
48
1
60
0
100
AcDbLine
10
291.844502
20
21.595902
30
0
11
291.839803
21
21.595655
31
0
39
0
210
0
220
0
230
1
0
LINE
5
A4
100
AcDbEntity
8
1
62
256
6
ByLayer
370
13
48
1
60
0
100
AcDbLine
10
288.461395
20
13.391769
30
0
11
288.455581
21
13.347337
31
0
39
0
210
0
220
0
230
1
0
LINE
5
A5
100
AcDbEntity
8
1
62
256
6
ByLayer
370
13
48
1
60
0
100
AcDbLine
10
291.675549
20
21.772357
30
0
11
290.255291
21
30.766368
31
0
39
0
210
0
220
0
230
1
0
LINE
5
A6
100
AcDbEntity
8
1
62
256
6
ByLayer
370
13
48
1
60
0
100
AcDbLine
10
271.329357
20
29.798353
30
0
11
271.433638
21
28.625494
31
0
39
0
210
0
220
0
230
1
0
LINE
5
A7
100
AcDbEntity
8
1
62
256
6
ByLayer
370
13
48
1
60
0
100
AcDbLine
10
289.21801
20
31.229362
30
0
11
289.019227
21
31.220691
31
0
39
0
210
0
220
0
230
1
0
LINE
5
A8
100
AcDbEntity
8
1
62
256
6
ByLayer
370
13
48
1
60
0
100
AcDbLine
10
270.290836
20
20.521527
30
0
11
271.321373
21
28.397633
31
0
39
0
210
0
220
0
230
1
0
LINE
5
A9
100
AcDbEntity
8
1
62
256
6
ByLayer
370
13
48
1
60
0
100
AcDbLine
10
273.911835
20
12.087844
30
0
11
273.907136
21
12.087598
31
0
39
0
210
0
220
0
230
1
0
LINE
5
AA
100
AcDbEntity
8
1
62
256
6
ByLayer
370
13
48
1
60
0
100
AcDbLine
10
288.570745
20
13.23563
30
0
11
288.566046
21
13.235384
31
0
39
0
210
0
220
0
230
1
0
LINE
5
AB
100
AcDbEntity
8
1
62
256
6
ByLayer
370
13
48
1
60
0
100
AcDbLine
10
289.350417
20
21.736635
30
0
11
288.094064
21
29.692693
31
0
39
0
210
0
220
0
230
1
0
LINE
5
AC
100
AcDbEntity
8
1
62
256
6
ByLayer
370
13
48
1
60
0
100
AcDbLine
10
273.206022
20
10.698532
30
0
11
272.94935
21
10.639069
31
0
39
0
210
0
220
0
230
1
0
LINE
5
AD
100
AcDbEntity
8
1
62
256
6
ByLayer
370
13
48
1
60
0
100
AcDbLine
10
290.421579
20
30.790783
30
0
11
291.841837
21
21.796772
31
0
39
0
210
0
220
0
230
1
0
LINE
5
AE
100
AcDbEntity
8
1
62
256
6
ByLayer
370
13
48
1
60
0
100
AcDbLine
10
290.214142
20
12.293511
30
0
11
290.099152
21
11.779628
31
0
39
0
210
0
220
0
230
1
0
LINE
5
AF
100
AcDbEntity
8
1
62
256
6
ByLayer
370
13
48
1
60
0
100
AcDbLine
10
291.844502
20
21.595902
30
0
11
290.813965
21
13.719796
31
0
39
0
210
0
220
0
230
1
0
LINE
5
B0
100
AcDbEntity
8
1
62
256
6
ByLayer
370
13
48
1
60
0
100
AcDbLine
10
288.572462
20
31.221412
30
0
11
288.74731
21
31.230575
31
0
39
0
210
0
220
0
230
1
0
LINE
5
B1
100
AcDbEntity
8
1
62
256
6
ByLayer
370
13
48
1
60
0
100
AcDbLine
10
271.713758
20
11.326646
30
0
11
270.293501
21
20.320657
31
0
39
0
210
0
220
0
230
1
0
LINE
5
B2
100
AcDbEntity
8
1
62
256
6
ByLayer
370
13
48
1
60
0
100
AcDbLine
10
290.421579
20
30.790783
30
0
11
290.41688
21
30.790537
31
0
39
0
210
0
220
0
230
1
0
LINE
5
B3
100
AcDbEntity
8
1
62
256
6
ByLayer
370
13
48
1
60
0
100
AcDbLine
10
270.422197
20
20.343102
30
0
11
271.842455
21
11.349091
31
0
39
0
210
0
220
0
230
1
0
LINE
5
B4
100
AcDbEntity
8
1
62
256
6
ByLayer
370
13
48
1
60
0
100
AcDbLine
10
288.223503
20
30.029585
30
0
11
288.269033
21
29.741261
31
0
39
0
210
0
220
0
230
1
0
LINE
5
B5
100
AcDbEntity
8
1
62
256
6
ByLayer
370
13
48
1
60
0
100
AcDbLine
10
290.473748
20
13.453672
30
0
11
290.701699
21
13.491935
31
0
39
0
210
0
220
0
230
1
0
LINE
5
B6
100
AcDbEntity
8
1
62
256
6
ByLayer
370
13
48
1
60
0
100
AcDbLine
10
273.799817
20
29.022676
30
0
11
271.433638
21
28.625494
31
0
39
0
210
0
220
0
230
1
0
LINE
5
B7
100
AcDbEntity
8
1
62
256
6
ByLayer
370
13
48
1
60
0
100
AcDbLine
10
270.431691
20
16.757099
30
0
11
271.068417
21
14.095621
31
0
39
0
210
0
220
0
230
1
0
LINE
5
B8
100
AcDbEntity
8
1
62
256
6
ByLayer
370
13
48
1
60
0
100
AcDbLine
10
288.33552
20
13.094753
30
0
11
290.473748
21
13.453672
31
0
39
0
210
0
220
0
230
1
0
LINE
5
B9
100
AcDbEntity
8
1
62
256
6
ByLayer
370
13
48
1
60
0
100
AcDbLine
10
290.690584
20
13.591462
30
0
11
290.685885
21
13.591216
31
0
39
0
210
0
220
0
230
1
0
LINE
5
BA
100
AcDbEntity
8
1
62
256
6
ByLayer
370
13
48
1
60
0
100
AcDbLine
10
289.031474
20
31.371533
30
0
11
289.026775
21
31.371287
31
0
39
0
210
0
220
0
230
1
0
LINE
5
BB
100
AcDbEntity
8
1
62
256
6
ByLayer
370
13
48
1
60
0
100
AcDbLine
10
290.166921
20
12.285584
30
0
11
290.258691
21
12.492599
31
0
39
0
210
0
220
0
230
1
0
LINE
5
BC
100
AcDbEntity
8
1
62
256
6
ByLayer
370
13
48
1
60
0
100
AcDbLine
10
290.737305
20
11.926682
30
0
11
290.695374
21
12.374289
31
0
39
0
210
0
220
0
230
1
0
LINE
5
BD
100
AcDbEntity
8
1
62
256
6
ByLayer
370
13
48
1
60
0
100
AcDbLine
10
270.195172
20
20.305036
30
0
11
271.61543
21
11.311025
31
0
39
0
210
0
220
0
230
1
0
LINE
5
BE
100
AcDbEntity
8
1
62
256
6
ByLayer
370
13
48
1
60
0
100
AcDbLine
10
273.887796
20
28.682455
30
0
11
272.820609
21
20.526243
31
0
39
0
210
0
220
0
230
1
0
LINE
5
BF
100
AcDbEntity
8
1
62
256
6
ByLayer
370
13
48
1
60
0
100
AcDbLine
10
271.44882
20
30.520545
30
0
11
271.56401
21
30.50882
31
0
39
0
210
0
220
0
230
1
0
LINE
5
C0
100
AcDbEntity
8
1
62
256
6
ByLayer
370
13
48
1
60
0
100
AcDbLine
10
272.604395
20
20.551409
30
0
11
272.599696
21
20.551163
31
0
39
0
210
0
220
0
230
1
0
LINE
5
C1
100
AcDbEntity
8
1
62
256
6
ByLayer
370
13
48
1
60
0
100
AcDbLine
10
291.841837
20
21.796772
30
0
11
291.837138
21
21.796526
31
0
39
0
210
0
220
0
230
1
0
LINE
5
C2
100
AcDbEntity
8
1
62
256
6
ByLayer
370
13
48
1
60
0
100
AcDbLine
10
271.956484
20
30.30098
30
0
11
271.638995
21
30.300083
31
0
39
0
210
0
220
0
230
1
0
LINE
5
C3
100
AcDbEntity
8
1
62
256
6
ByLayer
370
13
48
1
60
0
100
AcDbLine
10
291.94321
20
21.582826
30
0
11
290.914721
21
13.722369
31
0
39
0
210
0
220
0
230
1
0
LINE
5
C4
100
AcDbEntity
8
1
62
256
6
ByLayer
370
13
48
1
60
0
100
AcDbLine
10
290.813965
20
13.719796
30
0
11
290.809266
21
13.71955
31
0
39
0
210
0
220
0
230
1
0
LINE
5
C5
100
AcDbEntity
8
1
62
256
6
ByLayer
370
13
48
1
60
0
100
AcDbLine
10
272.604395
20
20.551409
30
0
11
273.671582
21
28.707621
31
0
39
0
210
0
220
0
230
1
0
LINE
5
C6
100
AcDbEntity
8
1
62
256
6
ByLayer
370
13
48
1
60
0
100
AcDbLine
10
273.882923
20
12.00051
30
0
11
273.878224
21
12.000263
31
0
39
0
210
0
220
0
230
1
0
LINE
5
C7
100
AcDbEntity
8
1
62
256
6
ByLayer
370
13
48
1
60
0
100
AcDbLine
10
270.197857
20
22.548249
30
0
11
269.931178
21
20.510097
31
0
39
0
210
0
220
0
230
1
0
LINE
5
C8
100
AcDbEntity
8
1
62
256
6
ByLayer
370
13
48
1
60
0
100
AcDbLine
10
290.690584
20
13.591462
30
0
11
288.570745
21
13.23563
31
0
39
0
210
0
220
0
230
1
0
LINE
5
C9
100
AcDbEntity
8
1
62
256
6
ByLayer
370
13
48
1
60
0
100
AcDbLine
10
273.675057
20
28.769846
30
0
11
272.599696
21
20.551163
31
0
39
0
210
0
220
0
230
1
0
LINE
5
CA
100
AcDbEntity
8
1
62
256
6
ByLayer
370
13
48
1
60
0
100
AcDbLine
10
289.260223
20
31.381272
30
0
11
289.255524
21
31.381026
31
0
39
0
210
0
220
0
230
1
0
LINE
5
CB
100
AcDbEntity
8
1
62
256
6
ByLayer
370
13
48
1
60
0
100
AcDbLine
10
269.944309
20
21.207932
30
0
11
269.915427
21
20.651913
31
0
39
0
210
0
220
0
230
1
0
LINE
5
CC
100
AcDbEntity
8
1
62
256
6
ByLayer
370
13
48
1
60
0
100
AcDbLine
10
273.671582
20
28.707621
30
0
11
273.679756
21
28.770092
31
0
39
0
210
0
220
0
230
1
0
LINE
5
CD
100
AcDbEntity
8
1
62
256
6
ByLayer
370
13
48
1
60
0
100
AcDbLine
10
289.031474
20
31.371533
30
0
11
289.230257
21
31.380204
31
0
39
0
210
0
220
0
230
1
0
LINE
5
CE
100
AcDbEntity
8
1
62
256
6
ByLayer
370
13
48
1
60
0
100
AcDbLine
10
270.020842
20
19.747606
30
0
11
271.584704
21
11.310146
31
0
39
0
210
0
220
0
230
1
0
LINE
5
CF
100
AcDbEntity
8
1
62
256
6
ByLayer
370
13
48
1
60
0
100
AcDbLine
10
287.762885
20
13.148274
30
0
11
275.235996
21
12.491768
31
0
39
0
210
0
220
0
230
1
0
LINE
5
D0
100
AcDbEntity
8
1
62
256
6
ByLayer
370
13
48
1
60
0
100
AcDbLine
10
291.100915
20
15.14542
30
0
11
290.878628
21
12.321298
31
0
39
0
210
0
220
0
230
1
0
LINE
5
D1
100
AcDbEntity
8
1
62
256
6
ByLayer
370
13
48
1
60
0
100
AcDbLine
10
273.103864
20
10.745896
30
0
11
272.905081
21
10.737225
31
0
39
0
210
0
220
0
230
1
0
LINE
5
D2
100
AcDbEntity
8
1
62
256
6
ByLayer
370
13
48
1
60
0
100
AcDbLine
10
290.802917
20
13.441653
30
0
11
290.695374
21
12.374289
31
0
39
0
210
0
220
0
230
1
0
LINE
5
D3
100
AcDbEntity
8
1
62
256
6
ByLayer
370
13
48
1
60
0
100
AcDbLine
10
273.863413
20
12.39448
30
0
11
272.60706
21
20.350538
31
0
39
0
210
0
220
0
230
1
0
LINE
5
D4
100
AcDbEntity
8
1
62
256
6
ByLayer
370
13
48
1
60
0
100
AcDbLine
10
291.839803
20
21.595655
30
0
11
290.809266
21
13.71955
31
0
39
0
210
0
220
0
230
1
0
LINE
5
D5
100
AcDbEntity
8
1
62
256
6
ByLayer
370
13
48
1
60
0
100
AcDbLine
10
272.879736
20
10.886097
30
0
11
273.078519
21
10.894768
31
0
39
0
210
0
220
0
230
1
0
LINE
5
D6
100
AcDbEntity
8
1
62
256
6
ByLayer
370
13
48
1
60
0
100
AcDbLine
10
290.214142
20
12.293511
30
0
11
290.695374
21
12.374289
31
0
39
0
210
0
220
0
230
1
0
LINE
5
D7
100
AcDbEntity
8
1
62
256
6
ByLayer
370
13
48
1
60
0
100
AcDbLine
10
288.929315
20
31.418897
30
0
11
289.185987
21
31.47836
31
0
39
0
210
0
220
0
230
1
0
LINE
5
D8
100
AcDbEntity
8
1
62
256
6
ByLayer
370
13
48
1
60
0
100
AcDbLine
10
272.60706
20
20.350538
30
0
11
272.602361
21
20.350292
31
0
39
0
210
0
220
0
230
1
0
LINE
5
D9
100
AcDbEntity
8
1
62
256
6
ByLayer
370
13
48
1
60
0
100
AcDbLine
10
269.944309
20
21.207932
30
0
11
269.954454
21
21.997974
31
0
39
0
210
0
220
0
230
1
0
LINE
5
DA
100
AcDbEntity
8
1
62
256
6
ByLayer
370
13
48
1
60
0
100
AcDbLine
10
289.660209
20
21.545422
30
0
11
288.593614
21
13.393729
31
0
39
0
210
0
220
0
230
1
0
LINE
5
DB
100
AcDbEntity
8
1
62
256
6
ByLayer
370
13
48
1
60
0
100
AcDbLine
10
272.437536
20
20.570037
30
0
11
273.504132
21
28.72173
31
0
39
0
210
0
220
0
230
1
0
LINE
5
DC
100
AcDbEntity
8
1
62
256
6
ByLayer
370
13
48
1
60
0
100
AcDbLine
10
270.020842
20
19.747606
30
0
11
269.933998
21
20.297561
31
0
39
0
210
0
220
0
230
1
0
LINE
5
DD
100
AcDbEntity
8
1
62
256
6
ByLayer
370
13
48
1
60
0
100
AcDbLine
10
289.027436
20
31.371315
30
0
11
289.225558
21
31.379958
31
0
39
0
210
0
220
0
230
1
0
LINE
5
DE
100
AcDbEntity
8
1
62
256
6
ByLayer
370
13
48
1
60
0
100
AcDbLine
10
290.41688
20
30.790537
30
0
11
291.837138
21
21.796526
31
0
39
0
210
0
220
0
230
1
0
LINE
5
DF
100
AcDbEntity
8
1
62
256
6
ByLayer
370
13
48
1
60
0
100
AcDbLine
10
273.911835
20
12.087844
30
0
11
273.863413
21
12.39448
31
0
39
0
210
0
220
0
230
1
0
LINE
5
E0
100
AcDbEntity
8
1
62
256
6
ByLayer
370
13
48
1
60
0
100
AcDbLine
10
289.005735
20
31.440664
30
0
11
288.892401
21
31.416962
31
0
39
0
210
0
220
0
230
1
0
LINE
5
E1
100
AcDbEntity
8
1
62
256
6
ByLayer
370
13
48
1
60
0
100
AcDbLine
10
290.647106
20
13.738424
30
0
11
291.677643
21
21.61453
31
0
39
0
210
0
220
0
230
1
0
LINE
5
E2
100
AcDbEntity
8
1
62
256
6
ByLayer
370
13
48
1
60
0
100
AcDbLine
10
288.892401
20
31.416962
30
0
11
288.929315
21
31.418897
31
0
39
0
210
0
220
0
230
1
0
LINE
5
E3
100
AcDbEntity
8
1
62
256
6
ByLayer
370
13
48
1
60
0
100
AcDbLine
10
289.230257
20
31.380204
30
0
11
289.225558
21
31.379958
31
0
39
0
210
0
220
0
230
1
0
LINE
5
E4
100
AcDbEntity
8
1
62
256
6
ByLayer
370
13
48
1
60
0
100
AcDbLine
10
290.258691
20
12.492599
30
0
11
290.701699
21
13.491935
31
0
39
0
210
0
220
0
230
1
0
LINE
5
E5
100
AcDbEntity
8
1
62
256
6
ByLayer
370
13
48
1
60
0
100
AcDbLine
10
271.444754
20
28.525966
30
0
11
273.564593
21
28.881799
31
0
39
0
210
0
220
0
230
1
0
LINE
5
E6
100
AcDbEntity
8
1
62
256
6
ByLayer
370
13
48
1
60
0
100
AcDbLine
10
288.593614
20
13.393729
30
0
11
290.647106
21
13.738424
31
0
39
0
210
0
220
0
230
1
0
LINE
5
E7
100
AcDbEntity
8
1
62
256
6
ByLayer
370
13
48
1
60
0
100
AcDbLine
10
273.504132
20
28.72173
30
0
11
271.45064
21
28.377035
31
0
39
0
210
0
220
0
230
1
0
LINE
5
E8
100
AcDbEntity
8
1
62
256
6
ByLayer
370
13
48
1
60
0
100
AcDbLine
10
274.372452
20
28.969155
30
0
11
286.899342
21
29.625661
31
0
39
0
210
0
220
0
230
1
0
LINE
5
E9
100
AcDbEntity
8
1
62
256
6
ByLayer
370
13
48
1
60
0
100
AcDbLine
10
273.741532
20
12.088849
30
0
11
272.440772
21
20.326123
31
0
39
0
210
0
220
0
230
1
0
LINE
5
EA
100
AcDbEntity
8
1
62
256
6
ByLayer
370
13
48
1
60
0
100
AcDbLine
10
288.285134
20
13.436944
30
0
11
289.352321
21
21.593156
31
0
39
0
210
0
220
0
230
1
0
LINE
5
EB
100
AcDbEntity
8
1
62
256
6
ByLayer
370
13
48
1
60
0
100
AcDbLine
10
289.752479
20
31.381158
30
0
11
289.74778
21
31.380911
31
0
39
0
210
0
220
0
230
1
0
LINE
5
EC
100
AcDbEntity
8
1
62
256
6
ByLayer
370
13
48
1
60
0
100
AcDbLine
10
271.45064
20
28.377035
30
0
11
270.420103
21
20.500929
31
0
39
0
210
0
220
0
230
1
0
LINE
5
ED
100
AcDbEntity
8
1
62
256
6
ByLayer
370
13
48
1
60
0
100
AcDbLine
10
272.822512
20
20.382764
30
0
11
274.078865
21
12.426706
31
0
39
0
210
0
220
0
230
1
0
LINE
5
EE
100
AcDbEntity
8
1
62
256
6
ByLayer
370
13
48
1
60
0
100
AcDbLine
10
290.685885
20
13.591216
30
0
11
288.566046
21
13.235384
31
0
39
0
210
0
220
0
230
1
0
LINE
5
EF
100
AcDbEntity
8
1
62
256
6
ByLayer
370
13
48
1
60
0
100
AcDbLine
10
271.220617
20
28.39506
30
0
11
271.166768
21
29.000695
31
0
39
0
210
0
220
0
230
1
0
LINE
5
F0
100
AcDbEntity
8
1
62
256
6
ByLayer
370
13
48
1
60
0
100
AcDbLine
10
291.940165
20
21.812393
30
0
11
290.519907
21
30.806404
31
0
39
0
210
0
220
0
230
1
0
LINE
5
F1
100
AcDbEntity
8
1
62
256
6
ByLayer
370
13
48
1
60
0
100
AcDbLine
10
290.166921
20
12.285584
30
0
11
290.214142
21
12.293511
31
0
39
0
210
0
220
0
230
1
0
LINE
5
F2
100
AcDbEntity
8
1
62
256
6
ByLayer
370
13
48
1
60
0
100
AcDbLine
10
290.473748
20
13.453672
30
0
11
290.258691
21
12.492599
31
0
39
0
210
0
220
0
230
1
0
LINE
5
F3
100
AcDbEntity
8
SK1
62
256
6
ByLayer
370
13
48
1
60
0
100
AcDbLine
10
-78.599999
20
-10.670483
30
0
11
-79
21
-10.670483
31
0
39
0
210
0
220
0
230
1
0
LINE
5
F4
100
AcDbEntity
8
SK1
62
256
6
ByLayer
370
13
48
1
60
0
100
AcDbLine
10
-1.375195
20
-24.746
30
0
11
-1.375195
21
24.746
31
0
39
0
210
0
220
0
230
1
0
LINE
5
F5
100
AcDbEntity
8
SK1
62
256
6
ByLayer
370
13
48
1
60
0
100
AcDbLine
10
-78.516222
20
24.892544
30
0
11
-78.516222
21
10.425829
31
0
39
0
210
0
220
0
230
1
0
LINE
5
F6
100
AcDbEntity
8
SK1
62
256
6
ByLayer
370
13
48
1
60
0
100
AcDbLine
10
-78.516222
20
-10.425829
30
0
11
-78.516222
21
-24.892544
31
0
39
0
210
0
220
0
230
1
0
LINE
5
F7
100
AcDbEntity
8
SK1
62
256
6
ByLayer
370
13
48
1
60
0
100
AcDbLine
10
-0.15
20
-24.746
30
0
11
-0.15
21
24.746
31
0
39
0
210
0
220
0
230
1
0
LINE
5
F8
100
AcDbEntity
8
SK1
62
256
6
ByLayer
370
13
48
1
60
0
100
AcDbLine
10
-76.600002
20
24.996
30
0
11
-76.600002
21
10.670483
31
0
39
0
210
0
220
0
230
1
0
LINE
5
F9
100
AcDbEntity
8
SK1
62
256
6
ByLayer
370
13
48
1
60
0
100
AcDbLine
10
-76.600002
20
-10.670483
30
0
11
-76.600002
21
-24.996
31
0
39
0
210
0
220
0
230
1
0
LINE
5
FA
100
AcDbEntity
8
SK1
62
256
6
ByLayer
370
13
48
1
60
0
100
AcDbLine
10
-6.5
20
-10.670483
30
0
11
-76.600002
21
-10.670483
31
0
39
0
210
0
220
0
230
1
0
LINE
5
FB
100
AcDbEntity
8
SK1
62
256
6
ByLayer
370
13
48
1
60
0
100
AcDbLine
10
-79
20
-24.996
30
0
11
-79
21
-10.670483
31
0
39
0
210
0
220
0
230
1
0
LINE
5
FC
100
AcDbEntity
8
SK1
62
256
6
ByLayer
370
13
48
1
60
0
100
AcDbLine
10
-79
20
10.670483
30
0
11
-79
21
24.996
31
0
39
0
210
0
220
0
230
1
0
LINE
5
FD
100
AcDbEntity
8
SK1
62
256
6
ByLayer
370
13
48
1
60
0
100
AcDbLine
10
-2
20
-24.996
30
0
11
-2
21
24.996
31
0
39
0
210
0
220
0
230
1
0
LINE
5
FE
100
AcDbEntity
8
SK1
62
256
6
ByLayer
370
13
48
1
60
0
100
AcDbLine
10
-1.544243
20
-24.783477
30
0
11
-1.544243
21
24.783477
31
0
39
0
210
0
220
0
230
1
0
LINE
5
FF
100
AcDbEntity
8
SK1
62
256
6
ByLayer
370
13
48
1
60
0
100
AcDbLine
10
-76.600002
20
10.670483
30
0
11
-6.5
21
10.670483
31
0
39
0
210
0
220
0
230
1
0
LINE
5
100
100
AcDbEntity
8
SK1
62
256
6
ByLayer
370
13
48
1
60
0
100
AcDbLine
10
-78.599999
20
-24.996
30
0
11
-78.599999
21
-10.670483
31
0
39
0
210
0
220
0
230
1
0
LINE
5
101
100
AcDbEntity
8
SK1
62
256
6
ByLayer
370
13
48
1
60
0
100
AcDbLine
10
-78.599999
20
10.670483
30
0
11
-78.599999
21
24.996
31
0
39
0
210
0
220
0
230
1
0
LINE
5
102
100
AcDbEntity
8
SK1
62
256
6
ByLayer
370
13
48
1
60
0
100
AcDbLine
10
-77.633813
20
24.639667
30
0
11
-77.633813
21
9.806751
31
0
39
0
210
0
220
0
230
1
0
LINE
5
103
100
AcDbEntity
8
SK1
62
256
6
ByLayer
370
13
48
1
60
0
100
AcDbLine
10
-77.633813
20
-9.806751
30
0
11
-77.633813
21
-24.639667
31
0
39
0
210
0
220
0
230
1
0
LINE
5
104
100
AcDbEntity
8
SK1
62
256
6
ByLayer
370
13
48
1
60
0
100
AcDbLine
10
-79
20
10.670483
30
0
11
-78.599999
21
10.670483
31
0
39
0
210
0
220
0
230
1
0
LINE
5
105
100
AcDbEntity
8
SK1
62
256
6
ByLayer
370
13
48
1
60
0
100
AcDbLine
10
-80
20
-23.996
30
0
11
-80
21
-8.054018
31
0
39
0
210
0
220
0
230
1
0
LINE
5
106
100
AcDbEntity
8
SK1
62
256
6
ByLayer
370
13
48
1
60
0
100
AcDbLine
10
-80
20
8.054018
30
0
11
-80
21
23.996
31
0
39
0
210
0
220
0
230
1
0
LINE
5
107
100
AcDbEntity
8
1
62
256
6
ByLayer
370
13
48
1
60
0
100
AcDbLine
10
290.270417
20
1.145025
30
0
11
290.542051
21
0.851676
31
0
39
0
210
0
220
0
230
1
0
LINE
5
108
100
AcDbEntity
8
1
62
256
6
ByLayer
370
13
48
1
60
0
100
AcDbLine
10
265.539169
20
-30.256353
30
0
11
252.123409
21
-30.256353
31
0
39
0
210
0
220
0
230
1
0
LINE
5
109
100
AcDbEntity
8
1
62
256
6
ByLayer
370
13
48
1
60
0
100
AcDbLine
10
0.1
20
31.25
30
0
11
0.1
21
5.567764
31
0
39
0
210
0
220
0
230
1
0
LINE
5
10A
100
AcDbEntity
8
1
62
256
6
ByLayer
370
13
48
1
60
0
100
AcDbLine
10
290.338256
20
-19.006268
30
0
11
289.887952
21
-18.657833
31
0
39
0
210
0
220
0
230
1
0
LINE
5
10B
100
AcDbEntity
8
1
62
256
6
ByLayer
370
13
48
1
60
0
100
AcDbLine
10
274.33997
20
12.224031
30
0
11
274.341632
21
12.214509
31
0
39
0
210
0
220
0
230
1
0
LINE
5
10C
100
AcDbEntity
8
1
62
256
6
ByLayer
370
13
48
1
60
0
100
AcDbLine
10
267.600344
20
2.421554
30
0
11
268.076336
21
-0.644429
31
0
39
0
210
0
220
0
230
1
0
LINE
5
10D
100
AcDbEntity
8
1
62
256
6
ByLayer
370
13
48
1
60
0
100
AcDbLine
10
0.1
20
5.567764
30
0
11
5.3124
21
5.567764
31
0
39
0
210
0
220
0
230
1
0
LINE
5
10E
100
AcDbEntity
8
1
62
256
6
ByLayer
370
13
48
1
60
0
100
AcDbLine
10
5.3124
20
31.25
30
0
11
5.3124
21
5.567764
31
0
39
0
210
0
220
0
230
1
0
LINE
5
10F
100
AcDbEntity
8
1
62
256
6
ByLayer
370
13
48
1
60
0
100
AcDbLine
10
290.538578
20
11.244143
30
0
11
290.542051
21
0.851676
31
0
39
0
210
0
220
0
230
1
0
LINE
5
110
100
AcDbEntity
8
1
62
256
6
ByLayer
370
13
48
1
60
0
100
AcDbLine
10
290.170669
20
0.633741
30
0
11
290.160311
21
0.635097
31
0
39
0
210
0
220
0
230
1
0
LINE
5
111
100
AcDbEntity
8
1
62
256
6
ByLayer
370
13
48
1
60
0
100
AcDbLine
10
40
20
30.7125
30
0
11
40
21
-11.049005
31
0
39
0
210
0
220
0
230
1
0
LINE
5
112
100
AcDbEntity
8
1
62
256
6
ByLayer
370
13
48
1
60
0
100
AcDbLine
10
290.266887
20
10.791939
30
0
11
290.219158
21
11.626307
31
0
39
0
210
0
220
0
230
1
0
LINE
5
113
100
AcDbEntity
8
1
62
256
6
ByLayer
370
13
48
1
60
0
100
AcDbLine
10
137.8
20
-30.336969
30
0
11
137.8
21
-30.3975
31
0
39
0
210
0
220
0
230
1
0
LINE
5
114
100
AcDbEntity
8
1
62
256
6
ByLayer
370
13
48
1
60
0
100
AcDbLine
10
35
20
-30.591741
30
0
11
35
21
-30.7125
31
0
39
0
210
0
220
0
230
1
0
LINE
5
115
100
AcDbEntity
8
1
62
256
6
ByLayer
370
13
48
1
60
0
100
AcDbLine
10
275.714645
20
12.228958
30
0
11
275.400657
21
12.212503
31
0
39
0
210
0
220
0
230
1
0
LINE
5
116
100
AcDbEntity
8
1
62
256
6
ByLayer
370
13
48
1
60
0
100
AcDbLine
10
276.123176
20
10.334104
30
0
11
276.612859
21
10.359767
31
0
39
0
210
0
220
0
230
1
0
LINE
5
117
100
AcDbEntity
8
1
62
256
6
ByLayer
370
13
48
1
60
0
100
AcDbLine
10
290.390559
20
11.526643
30
0
11
290.538578
21
11.244143
31
0
39
0
210
0
220
0
230
1
0
LINE
5
118
100
AcDbEntity
8
1
62
256
6
ByLayer
370
13
48
1
60
0
100
AcDbLine
10
0
20
-4.975942
30
0
11
0
21
4.975942
31
0
39
0
210
0
220
0
230
1
0
LINE
5
119
100
AcDbEntity
8
1
62
256
6
ByLayer
370
13
48
1
60
0
100
AcDbLine
10
270.586961
20
15.773767
30
0
11
269.835123
21
20.534902
31
0
39
0
210
0
220
0
230
1
0
LINE
5
11A
100
AcDbEntity
8
1
62
256
6
ByLayer
370
13
48
1
60
0
100
AcDbLine
10
289.753747
20
-0.211342
30
0
11
290.992241
21
-7.991805
31
0
39
0
210
0
220
0
230
1
0
LINE
5
11B
100
AcDbEntity
8
1
62
256
6
ByLayer
370
13
48
1
60
0
100
AcDbLine
10
290.178477
20
0.625308
30
0
11
290.155374
21
0.628334
31
0
39
0
210
0
220
0
230
1
0
LINE
5
11C
100
AcDbEntity
8
1
62
256
6
ByLayer
370
13
48
1
60
0
100
AcDbLine
10
265.539169
20
30.3975
30
0
11
265.539169
21
30.204858
31
0
39
0
210
0
220
0
230
1
0
LINE
5
11D
100
AcDbEntity
8
1
62
256
6
ByLayer
370
13
48
1
60
0
100
AcDbLine
10
0
20
31.15
30
0
11
0
21
4.975942
31
0
39
0
210
0
220
0
230
1
0
LINE
5
11E
100
AcDbEntity
8
1
62
256
6
ByLayer
370
13
48
1
60
0
100
AcDbLine
10
5.3124
20
-5.567764
30
0
11
0.1
21
-5.567764
31
0
39
0
210
0
220
0
230
1
0
LINE
5
11F
100
AcDbEntity
8
1
62
256
6
ByLayer
370
13
48
1
60
0
100
AcDbLine
10
268.539169
20
-30.56978
30
0
11
268.539169
21
-0.703596
31
0
39
0
210
0
220
0
230
1
0
LINE
5
120
100
AcDbEntity
8
1
62
256
6
ByLayer
370
13
48
1
60
0
100
AcDbLine
10
40
20
-30.591847
30
0
11
40
21
-30.7125
31
0
39
0
210
0
220
0
230
1
0
LINE
5
121
100
AcDbEntity
8
1
62
256
6
ByLayer
370
13
48
1
60
0
100
AcDbLine
10
288.808243
20
-30.56978
30
0
11
290.338256
21
-19.006268
31
0
39
0
210
0
220
0
230
1
0
LINE
5
122
100
AcDbEntity
8
1
62
256
6
ByLayer
370
13
48
1
60
0
100
AcDbLine
10
265.539169
20
-30.256353
30
0
11
265.539169
21
0.096873
31
0
39
0
210
0
220
0
230
1
0
LINE
5
123
100
AcDbEntity
8
1
62
256
6
ByLayer
370
13
48
1
60
0
100
AcDbLine
10
268.521971
20
11.440867
30
0
11
269.806542
21
11.046122
31
0
39
0
210
0
220
0
230
1
0
LINE
5
124
100
AcDbEntity
8
1
62
256
6
ByLayer
370
13
48
1
60
0
100
AcDbLine
10
290.170669
20
0.633741
30
0
11
290.178477
21
0.625308
31
0
39
0
210
0
220
0
230
1
0
LINE
5
125
100
AcDbEntity
8
1
62
256
6
ByLayer
370
13
48
1
60
0
100
AcDbLine
10
287.990988
20
12.959954
30
0
11
275.762358
21
12.319079
31
0
39
0
210
0
220
0
230
1
0
LINE
5
126
100
AcDbEntity
8
1
62
256
6
ByLayer
370
13
48
1
60
0
100
AcDbLine
10
275.75296
20
12.318586
30
0
11
275.762358
21
12.319079
31
0
39
0
210
0
220
0
230
1
0
LINE
5
127
100
AcDbEntity
8
1
62
256
6
ByLayer
370
13
48
1
60
0
100
AcDbLine
10
0
20
-31.15
30
0
11
0
21
-4.975942
31
0
39
0
210
0
220
0
230
1
0
LINE
5
128
100
AcDbEntity
8
1
62
256
6
ByLayer
370
13
48
1
60
0
100
AcDbLine
10
266.997506
20
13.958006
30
0
11
267.923103
21
14.472199
31
0
39
0
210
0
220
0
230
1
0
LINE
5
129
100
AcDbEntity
8
1
62
256
6
ByLayer
370
13
48
1
60
0
100
AcDbLine
10
290.270417
20
1.145025
30
0
11
290.24971
21
1.147738
31
0
39
0
210
0
220
0
230
1
0
LINE
5
12A
100
AcDbEntity
8
1
62
256
6
ByLayer
370
13
48
1
60
0
100
AcDbLine
10
290.390559
20
11.526643
30
0
11
290.225353
21
11.517985
31
0
39
0
210
0
220
0
230
1
0
LINE
5
12B
100
AcDbEntity
8
1
62
256
6
ByLayer
370
13
48
1
60
0
100
AcDbLine
10
10.4124
20
-5.421902
30
0
11
10.4124
21
5.421902
31
0
39
0
210
0
220
0
230
1
0
LINE
5
12C
100
AcDbEntity
8
1
62
256
6
ByLayer
370
13
48
1
60
0
100
AcDbLine
10
266.544878
20
13.948527
30
0
11
266.544878
21
16.587947
31
0
39
0
210
0
220
0
230
1
0
LINE
5
12D
100
AcDbEntity
8
1
62
256
6
ByLayer
370
13
48
1
60
0
100
AcDbLine
10
290.538578
20
11.244143
30
0
11
290.339876
21
10.496518
31
0
39
0
210
0
220
0
230
1
0
LINE
5
12E
100
AcDbEntity
8
1
62
256
6
ByLayer
370
13
48
1
60
0
100
AcDbLine
10
284.393439
20
12.943873
30
0
11
284.166982
21
12.932005
31
0
39
0
210
0
220
0
230
1
0
LINE
5
12F
100
AcDbEntity
8
1
62
256
6
ByLayer
370
13
48
1
60
0
100
AcDbLine
10
287.388419
20
2.015449
30
0
11
287.627302
21
-1.338113
31
0
39
0
210
0
220
0
230
1
0
LINE
5
130
100
AcDbEntity
8
1
62
256
6
ByLayer
370
13
48
1
60
0
100
AcDbLine
10
267.923103
20
14.472199
30
0
11
266.544878
21
16.587947
31
0
39
0
210
0
220
0
230
1
0
LINE
5
131
100
AcDbEntity
8
1
62
256
6
ByLayer
370
13
48
1
60
0
100
AcDbLine
10
288.808243
20
-30.56978
30
0
11
268.539169
21
-30.56978
31
0
39
0
210
0
220
0
230
1
0
LINE
5
132
100
AcDbEntity
8
1
62
256
6
ByLayer
370
13
48
1
60
0
100
AcDbLine
10
263.468167
20
2.597044
30
0
11
263.711539
21
1.029424
31
0
39
0
210
0
220
0
230
1
0
LINE
5
133
100
AcDbEntity
8
1
62
256
6
ByLayer
370
13
48
1
60
0
100
AcDbLine
10
137.8
20
30.3975
30
0
11
137.8
21
-11.823709
31
0
39
0
210
0
220
0
230
1
0
LINE
5
134
100
AcDbEntity
8
1
62
256
6
ByLayer
370
13
48
1
60
0
100
AcDbLine
10
35
20
30.7125
30
0
11
35
21
-11.047681
31
0
39
0
210
0
220
0
230
1
0
LINE
5
135
100
AcDbEntity
8
1
62
256
6
ByLayer
370
13
48
1
60
0
100
AcDbLine
10
279.204769
20
10.997429
30
0
11
279.929359
21
11.035403
31
0
39
0
210
0
220
0
230
1
0
LINE
5
136
100
AcDbEntity
8
1
62
256
6
ByLayer
370
13
48
1
60
0
100
AcDbLine
10
279.058454
20
11.991133
30
0
11
288.407741
21
12.481109
31
0
39
0
210
0
220
0
230
1
0
LINE
5
137
100
AcDbEntity
8
1
62
256
6
ByLayer
370
13
48
1
60
0
100
AcDbLine
10
5.3124
20
-5.567764
30
0
11
5.3124
21
-31.25
31
0
39
0
210
0
220
0
230
1
0
LINE
5
138
100
AcDbEntity
8
1
62
256
6
ByLayer
370
13
48
1
60
0
100
AcDbLine
10
289.753747
20
-0.211342
30
0
11
287.388419
21
2.015449
31
0
39
0
210
0
220
0
230
1
0
LINE
5
139
100
AcDbEntity
8
1
62
256
6
ByLayer
370
13
48
1
60
0
100
AcDbLine
10
271.210137
20
28.488778
30
0
11
270.498543
21
23.050262
31
0
39
0
210
0
220
0
230
1
0
LINE
5
13A
100
AcDbEntity
8
1
62
256
6
ByLayer
370
13
48
1
60
0
100
AcDbLine
10
271.212221
20
29.348088
30
0
11
271.147835
21
30.576649
31
0
39
0
210
0
220
0
230
1
0
LINE
5
13B
100
AcDbEntity
8
1
62
256
6
ByLayer
370
13
48
1
60
0
100
AcDbLine
10
290.542051
20
0.851676
30
0
11
290.182665
21
0.722108
31
0
39
0
210
0
220
0
230
1
0
LINE
5
13C
100
AcDbEntity
8
1
62
256
6
ByLayer
370
13
48
1
60
0
100
AcDbLine
10
289.78668
20
0.579345
30
0
11
289.683265
21
0.542061
31
0
39
0
210
0
220
0
230
1
0
LINE
5
13D
100
AcDbEntity
8
1
62
256
6
ByLayer
370
13
48
1
60
0
100
AcDbLine
10
276.102307
20
12.537169
30
0
11
279.085172
21
12.693494
31
0
39
0
210
0
220
0
230
1
0
LINE
5
13E
100
AcDbEntity
8
1
62
256
6
ByLayer
370
13
48
1
60
0
100
AcDbLine
10
0.1
20
-31.25
30
0
11
0.1
21
-5.567764
31
0
39
0
210
0
220
0
230
1
0
LINE
5
13F
100
AcDbEntity
8
1
62
256
6
ByLayer
370
13
48
1
60
0
100
AcDbLine
10
286.401675
20
11.374603
30
0
11
288.21573
21
11.469674
31
0
39
0
210
0
220
0
230
1
0
LINE
5
140
100
AcDbEntity
8
1
62
256
6
ByLayer
370
13
48
1
60
0
100
AcDbLine
10
275.394886
20
12.199275
30
0
11
274.86302
21
12.171402
31
0
39
0
210
0
220
0
230
1
0
LINE
5
141
100
AcDbEntity
8
1
62
256
6
ByLayer
370
13
48
1
60
0
100
AcDbLine
10
268.539169
20
30.7125
30
0
11
268.539169
21
30.552397
31
0
39
0
210
0
220
0
230
1
0
LINE
5
142
100
AcDbEntity
8
1
62
256
6
ByLayer
370
13
48
1
60
0
100
AcDbLine
10
288.373313
20
-5.526266
30
0
11
290.992241
21
-7.991805
31
0
39
0
210
0
220
0
230
1
0
LINE
5
143
100
AcDbEntity
8
1
62
256
6
ByLayer
370
13
48
1
60
0
100
AcDbLine
10
290.339876
20
10.496518
30
0
11
290.303929
21
10.494634
31
0
39
0
210
0
220
0
230
1
0
LINE
5
144
100
AcDbEntity
8
1
62
256
6
ByLayer
370
13
48
1
60
0
100
AcDbLine
10
270.355252
20
22.798508
30
0
11
271.212221
21
29.348088
31
0
39
0
210
0
220
0
230
1
0
LINE
5
145
100
AcDbEntity
8
1
62
256
6
ByLayer
370
13
48
1
60
0
100
AcDbLine
10
291.014661
20
-9.695771
30
0
11
288.453414
21
-7.284534
31
0
39
0
210
0
220
0
230
1
0
LINE
5
146
100
AcDbEntity
8
1
62
256
6
ByLayer
370
13
48
1
60
0
100
AcDbLine
10
288.21573
20
11.469674
30
0
11
287.398089
21
2.814478
31
0
39
0
210
0
220
0
230
1
0
LINE
5
147
100
AcDbEntity
8
1
62
256
6
ByLayer
370
13
48
1
60
0
100
AcDbLine
10
274.341632
20
12.214509
30
0
11
274.506227
21
12.223135
31
0
39
0
210
0
220
0
230
1
0
LINE
5
148
100
AcDbEntity
8
1
62
256
6
ByLayer
370
13
48
1
60
0
100
AcDbLine
10
284.552986
20
12.98005
30
0
11
287.535852
21
13.136376
31
0
39
0
210
0
220
0
230
1
0
LINE
5
149
100
AcDbEntity
8
1
62
256
6
ByLayer
370
13
48
1
60
0
100
AcDbLine
10
288.21573
20
11.469674
30
0
11
289.711827
21
11.548081
31
0
39
0
210
0
220
0
230
1
0
LINE
5
14A
100
AcDbEntity
8
1
62
256
6
ByLayer
370
13
48
1
60
0
100
AcDbLine
10
35.01
20
-17.010125
30
0
11
35.01
21
-29.900644
31
0
39
0
210
0
220
0
230
1
0
LINE
5
14B
100
AcDbEntity
8
1
62
256
6
ByLayer
370
13
48
1
60
0
100
AcDbLine
10
291.014661
20
-9.695771
30
0
11
289.902411
21
-18.101923
31
0
39
0
210
0
220
0
230
1
0
LINE
5
14C
100
AcDbEntity
8
1
62
256
6
ByLayer
370
13
48
1
60
0
100
AcDbLine
10
287.398089
20
2.814478
30
0
11
289.683134
21
0.663266
31
0
39
0
210
0
220
0
230
1
0
LINE
5
14D
100
AcDbEntity
8
4
62
256
6
ByLayer
370
18
48
0.05
60
0
100
AcDbLine
10
292
20
0
30
0
11
0
21
0
31
0
39
0
210
0
220
0
230
1
0
LINE
5
14F
100
AcDbEntity
8
SK4
62
256
6
ByLayer
370
13
48
0.05
60
0
100
AcDbLine
10
292
20
0
30
0
11
-80
21
0
31
0
39
0
210
0
220
0
230
1
0
LINE
5
151
100
AcDbEntity
8
SK1
62
256
6
ByLayer
370
13
48
1
60
0
100
AcDbLine
10
-77.633813
20
-24.639667
30
0
11
-76.600002
21
-24.996
31
0
39
0
210
0
220
0
230
1
0
LINE
5
152
100
AcDbEntity
8
SK1
62
256
6
ByLayer
370
13
48
1
60
0
100
AcDbLine
10
-76.600002
20
24.996
30
0
11
-77.633813
21
24.639667
31
0
39
0
210
0
220
0
230
1
0
LINE
5
153
100
AcDbEntity
8
SK1
62
256
6
ByLayer
370
13
48
1
60
0
100
AcDbLine
10
-78.516222
20
24.892544
30
0
11
-78.599999
21
24.996
31
0
39
0
210
0
220
0
230
1
0
LINE
5
154
100
AcDbEntity
8
SK1
62
256
6
ByLayer
370
13
48
1
60
0
100
AcDbLine
10
-78.599999
20
-24.996
30
0
11
-78.516222
21
-24.892544
31
0
39
0
210
0
220
0
230
1
0
LINE
5
155
100
AcDbEntity
8
SK1
62
256
6
ByLayer
370
13
48
1
60
0
100
AcDbLine
10
-80
20
-23.996
30
0
11
-79
21
-24.996
31
0
39
0
210
0
220
0
230
1
0
LINE
5
156
100
AcDbEntity
8
SK1
62
256
6
ByLayer
370
13
48
1
60
0
100
AcDbLine
10
-79
20
24.996
30
0
11
-80
21
23.996
31
0
39
0
210
0
220
0
230
1
0
LINE
5
157
100
AcDbEntity
8
SK1
62
256
6
ByLayer
370
13
48
1
60
0
100
AcDbLine
10
-78.599999
20
24.996
30
0
11
-79
21
24.996
31
0
39
0
210
0
220
0
230
1
0
LINE
5
158
100
AcDbEntity
8
SK1
62
256
6
ByLayer
370
13
48
1
60
0
100
AcDbLine
10
-79
20
-24.996
30
0
11
-78.599999
21
-24.996
31
0
39
0
210
0
220
0
230
1
0
LINE
5
159
100
AcDbEntity
8
SK1
62
256
6
ByLayer
370
13
48
1
60
0
100
AcDbLine
10
-0.15
20
24.746
30
0
11
-1.375195
21
24.746
31
0
39
0
210
0
220
0
230
1
0
LINE
5
15A
100
AcDbEntity
8
SK1
62
256
6
ByLayer
370
13
48
1
60
0
100
AcDbLine
10
-1.375195
20
-24.746
30
0
11
-0.15
21
-24.746
31
0
39
0
210
0
220
0
230
1
0
LINE
5
15B
100
AcDbEntity
8
SK1
62
256
6
ByLayer
370
13
48
1
60
0
100
AcDbLine
10
-2
20
24.996
30
0
11
-76.600002
21
24.996
31
0
39
0
210
0
220
0
230
1
0
LINE
5
15C
100
AcDbEntity
8
SK1
62
256
6
ByLayer
370
13
48
1
60
0
100
AcDbLine
10
-76.600002
20
-24.996
30
0
11
-2
21
-24.996
31
0
39
0
210
0
220
0
230
1
0
LINE
5
15D
100
AcDbEntity
8
SK1
62
256
6
ByLayer
370
13
48
1
60
0
100
AcDbLine
10
-1.544243
20
24.783477
30
0
11
-2
21
24.996
31
0
39
0
210
0
220
0
230
1
0
LINE
5
15E
100
AcDbEntity
8
SK1
62
256
6
ByLayer
370
13
48
1
60
0
100
AcDbLine
10
-2
20
-24.996
30
0
11
-1.544243
21
-24.783477
31
0
39
0
210
0
220
0
230
1
0
LINE
5
15F
100
AcDbEntity
8
1
62
256
6
ByLayer
370
13
48
1
60
0
100
AcDbLine
10
35
20
-30.7125
30
0
11
40
21
-30.7125
31
0
39
0
210
0
220
0
230
1
0
LINE
5
160
100
AcDbEntity
8
1
62
256
6
ByLayer
370
13
48
1
60
0
100
AcDbLine
10
270.86758
20
30.7125
30
0
11
268.539169
21
30.7125
31
0
39
0
210
0
220
0
230
1
0
LINE
5
161
100
AcDbEntity
8
1
62
256
6
ByLayer
370
13
48
1
60
0
100
AcDbLine
10
40
20
-30.7125
30
0
11
137.8
21
-30.3975
31
0
39
0
210
0
220
0
230
1
0
LINE
5
162
100
AcDbEntity
8
1
62
256
6
ByLayer
370
13
48
1
60
0
100
AcDbLine
10
268.539169
20
30.7125
30
0
11
265.539169
21
30.3975
31
0
39
0
210
0
220
0
230
1
0
LINE
5
163
100
AcDbEntity
8
1
62
256
6
ByLayer
370
13
48
1
60
0
100
AcDbLine
10
137.8
20
-30.3975
30
0
11
151.391452
21
-30.3975
31
0
39
0
210
0
220
0
230
1
0
LINE
5
164
100
AcDbEntity
8
1
62
256
6
ByLayer
370
13
48
1
60
0
100
AcDbLine
10
265.539169
20
30.3975
30
0
11
248.175384
21
30.3975
31
0
39
0
210
0
220
0
230
1
0
LINE
5
165
100
AcDbEntity
8
1
62
256
6
ByLayer
370
13
48
1
60
0
100
AcDbLine
10
140.549148
20
30.3975
30
0
11
137.8
21
30.3975
31
0
39
0
210
0
220
0
230
1
0
LINE
5
166
100
AcDbEntity
8
1
62
256
6
ByLayer
370
13
48
1
60
0
100
AcDbLine
10
137.8
20
30.3975
30
0
11
40
21
30.7125
31
0
39
0
210
0
220
0
230
1
0
LINE
5
167
100
AcDbEntity
8
1
62
256
6
ByLayer
370
13
48
1
60
0
100
AcDbLine
10
40
20
30.7125
30
0
11
35
21
30.7125
31
0
39
0
210
0
220
0
230
1
0
LINE
5
168
100
AcDbEntity
8
1
62
256
6
ByLayer
370
13
48
1
60
0
100
AcDbLine
10
0.1
20
31.25
30
0
11
0
21
31.15
31
0
39
0
210
0
220
0
230
1
0
LINE
5
169
100
AcDbEntity
8
1
62
256
6
ByLayer
370
13
48
1
60
0
100
AcDbLine
10
0.1
20
-31.25
30
0
11
5.3124
21
-31.25
31
0
39
0
210
0
220
0
230
1
0
LINE
5
16A
100
AcDbEntity
8
1
62
256
6
ByLayer
370
13
48
1
60
0
100
AcDbLine
10
0
20
-31.15
30
0
11
0.1
21
-31.25
31
0
39
0
210
0
220
0
230
1
0
LINE
5
16B
100
AcDbEntity
8
1
62
256
6
ByLayer
370
13
48
1
60
0
100
AcDbLine
10
5.3124
20
31.25
30
0
11
0.1
21
31.25
31
0
39
0
210
0
220
0
230
1
0
LINE
5
16C
100
AcDbEntity
8
1
62
256
6
ByLayer
370
13
48
1
60
0
100
AcDbLine
10
290.358182
20
12.438415
30
0
11
290.89296
21
13.644765
31
0
39
0
210
0
220
0
230
1
0
LINE
5
16D
100
AcDbEntity
8
1
62
256
6
ByLayer
370
13
48
1
60
0
100
AcDbLine
10
289.529174
20
21.766846
30
0
11
288.27282
21
29.722904
31
0
39
0
210
0
220
0
230
1
0
LINE
5
16E
100
AcDbEntity
8
1
62
256
6
ByLayer
370
13
48
1
60
0
100
AcDbLine
10
288.464647
20
13.410011
30
0
11
289.531834
21
21.566224
31
0
39
0
210
0
220
0
230
1
0
LINE
5
16F
100
AcDbEntity
8
1
62
256
6
ByLayer
370
18
48
1
60
0
100
AcDbLine
10
281.08684
20
19.767648
30
0
11
280.959772
21
19.760989
31
0
39
0
210
0
220
0
230
1
0
LINE
5
170
100
AcDbEntity
8
1
62
256
6
ByLayer
370
18
48
1
60
0
100
AcDbLine
10
280.824714
20
22.338052
30
0
11
280.951782
21
22.344712
31
0
39
0
210
0
220
0
230
1
0
LINE
5
171
100
AcDbEntity
8
1
62
256
6
ByLayer
370
18
48
1
60
0
100
AcDbLine
10
281.114234
20
18.207244
30
0
11
281.181975
21
18.210794
31
0
39
0
210
0
220
0
230
1
0
LINE
5
172
100
AcDbEntity
8
1
62
256
6
ByLayer
370
18
48
1
60
0
100
AcDbLine
10
280.88366
20
23.902982
30
0
11
280.815919
21
23.899432
31
0
39
0
210
0
220
0
230
1
0
LINE
5
173
100
AcDbEntity
8
81
62
256
6
ByLayer
370
18
48
1
60
0
100
AcDbLine
10
292
20
0
30
0
11
299
21
0
31
0
39
0
210
0
220
0
230
1
0
LINE
5
174
100
AcDbEntity
8
80
62
256
6
ByLayer
370
18
48
1
60
0
100
AcDbLine
10
0
20
0
30
0
11
-7
21
0
31
0
39
0
210
0
220
0
230
1
0
LINE
5
175
100
AcDbEntity
8
SK2
62
256
6
ByLayer
370
13
48
1
60
0
100
AcDbLine
10
-100.725
20
25
30
0
11
-100.725
21
-25
31
0
39
0
210
0
220
0
230
1
0
LINE
5
177
100
AcDbEntity
8
SK2
62
256
6
ByLayer
370
13
48
1
60
0
100
AcDbLine
10
-81.5875
20
-25
30
0
11
-103.9
21
-25
31
0
39
0
210
0
220
0
230
1
0
LINE
5
178
100
AcDbEntity
8
SK2
62
256
6
ByLayer
370
13
48
1
60
0
100
AcDbLine
10
-81.5875
20
25
30
0
11
-103.9
21
25
31
0
39
0
210
0
220
0
230
1
0
LINE
5
179
100
AcDbEntity
8
1
62
256
6
ByLayer
370
18
48
1
60
1
100
AcDbLine
10
-100.725
20
-25
30
0
11
-101.650575
21
-20.825003
31
0
39
0
210
0
220
0
230
1
0
LINE
5
17A
100
AcDbEntity
8
1
62
256
6
ByLayer
370
18
48
1
60
1
100
AcDbLine
10
-101.650575
20
-20.825003
30
0
11
-99.799425
21
-20.824997
31
0
39
0
210
0
220
0
230
1
0
LINE
5
17B
100
AcDbEntity
8
1
62
256
6
ByLayer
370
18
48
1
60
1
100
AcDbLine
10
-99.799425
20
-20.824997
30
0
11
-100.725
21
-25
31
0
39
0
210
0
220
0
230
1
0
LINE
5
17C
100
AcDbEntity
8
1
62
256
6
ByLayer
370
18
48
1
60
1
100
AcDbLine
10
-100.725
20
25
30
0
11
-99.799425
21
20.825003
31
0
39
0
210
0
220
0
230
1
0
LINE
5
17D
100
AcDbEntity
8
1
62
256
6
ByLayer
370
18
48
1
60
1
100
AcDbLine
10
-99.799425
20
20.825003
30
0
11
-101.650575
21
20.824997
31
0
39
0
210
0
220
0
230
1
0
LINE
5
17E
100
AcDbEntity
8
1
62
256
6
ByLayer
370
18
48
1
60
1
100
AcDbLine
10
-101.650575
20
20.824997
30
0
11
-100.725
21
25
31
0
39
0
210
0
220
0
230
1
0
LINE
5
17F
100
AcDbEntity
8
SK2
62
256
6
ByLayer
370
13
48
1
60
0
100
AcDbLine
10
-110.725
20
-31.25
30
0
11
-110.725
21
31.25
31
0
39
0
210
0
220
0
230
1
0
LINE
5
180
100
AcDbEntity
8
SK2
62
256
6
ByLayer
370
13
48
1
60
0
100
AcDbLine
10
-1.5875
20
31.25
30
0
11
-113.9
21
31.25
31
0
39
0
210
0
220
0
230
1
0
LINE
5
181
100
AcDbEntity
8
SK2
62
256
6
ByLayer
370
13
48
1
60
0
100
AcDbLine
10
-1.5875
20
-31.25
30
0
11
-113.9
21
-31.25
31
0
39
0
210
0
220
0
230
1
0
LINE
5
182
100
AcDbEntity
8
1
62
256
6
ByLayer
370
18
48
1
60
1
100
AcDbLine
10
-110.725
20
31.25
30
0
11
-109.799425
21
27.075003
31
0
39
0
210
0
220
0
230
1
0
LINE
5
183
100
AcDbEntity
8
1
62
256
6
ByLayer
370
18
48
1
60
1
100
AcDbLine
10
-109.799425
20
27.075003
30
0
11
-111.650575
21
27.074997
31
0
39
0
210
0
220
0
230
1
0
LINE
5
184
100
AcDbEntity
8
1
62
256
6
ByLayer
370
18
48
1
60
1
100
AcDbLine
10
-111.650575
20
27.074997
30
0
11
-110.725
21
31.25
31
0
39
0
210
0
220
0
230
1
0
LINE
5
185
100
AcDbEntity
8
1
62
256
6
ByLayer
370
18
48
1
60
1
100
AcDbLine
10
-110.725
20
-31.25
30
0
11
-111.650575
21
-27.075003
31
0
39
0
210
0
220
0
230
1
0
LINE
5
186
100
AcDbEntity
8
1
62
256
6
ByLayer
370
18
48
1
60
1
100
AcDbLine
10
-111.650575
20
-27.075003
30
0
11
-109.799425
21
-27.074997
31
0
39
0
210
0
220
0
230
1
0
LINE
5
187
100
AcDbEntity
8
1
62
256
6
ByLayer
370
18
48
1
60
1
100
AcDbLine
10
-109.799425
20
-27.074997
30
0
11
-110.725
21
-31.25
31
0
39
0
210
0
220
0
230
1
0
LINE
5
188
100
AcDbEntity
8
2
62
256
6
ByLayer
370
13
48
1
60
0
100
AcDbLine
10
318.975
20
31.5
30
0
11
318.975
21
-31.5
31
0
39
0
210
0
220
0
230
1
0
LINE
5
18A
100
AcDbEntity
8
2
62
256
6
ByLayer
370
13
48
1
60
0
100
AcDbLine
10
293.5875
20
-31.5
30
0
11
322.15
21
-31.5
31
0
39
0
210
0
220
0
230
1
0
LINE
5
18B
100
AcDbEntity
8
2
62
256
6
ByLayer
370
13
48
1
60
0
100
AcDbLine
10
293.5875
20
31.5
30
0
11
322.15
21
31.5
31
0
39
0
210
0
220
0
230
1
0
LINE
5
18C
100
AcDbEntity
8
1
62
256
6
ByLayer
370
18
48
1
60
1
100
AcDbLine
10
318.975
20
-31.5
30
0
11
318.049425
21
-27.325003
31
0
39
0
210
0
220
0
230
1
0
LINE
5
18D
100
AcDbEntity
8
1
62
256
6
ByLayer
370
18
48
1
60
1
100
AcDbLine
10
318.049425
20
-27.325003
30
0
11
319.900575
21
-27.324997
31
0
39
0
210
0
220
0
230
1
0
LINE
5
18E
100
AcDbEntity
8
1
62
256
6
ByLayer
370
18
48
1
60
1
100
AcDbLine
10
319.900575
20
-27.324997
30
0
11
318.975
21
-31.5
31
0
39
0
210
0
220
0
230
1
0
LINE
5
18F
100
AcDbEntity
8
1
62
256
6
ByLayer
370
18
48
1
60
1
100
AcDbLine
10
318.975
20
31.5
30
0
11
319.900575
21
27.325003
31
0
39
0
210
0
220
0
230
1
0
LINE
5
190
100
AcDbEntity
8
1
62
256
6
ByLayer
370
18
48
1
60
1
100
AcDbLine
10
319.900575
20
27.325003
30
0
11
318.049425
21
27.324997
31
0
39
0
210
0
220
0
230
1
0
LINE
5
191
100
AcDbEntity
8
1
62
256
6
ByLayer
370
18
48
1
60
1
100
AcDbLine
10
318.049425
20
27.324997
30
0
11
318.975
21
31.5
31
0
39
0
210
0
220
0
230
1
0
LINE
5
347
100
AcDbEntity
8
1
62
256
6
ByLayer
370
18
48
1
60
1
100
AcDbLine
10
-100.725
20
-25
30
0
11
-101.650575
21
-20.825003
31
0
39
0
210
0
220
0
230
1
0
LINE
5
348
100
AcDbEntity
8
1
62
256
6
ByLayer
370
18
48
1
60
1
100
AcDbLine
10
-101.650575
20
-20.825003
30
0
11
-99.799425
21
-20.824997
31
0
39
0
210
0
220
0
230
1
0
LINE
5
349
100
AcDbEntity
8
1
62
256
6
ByLayer
370
18
48
1
60
1
100
AcDbLine
10
-99.799425
20
-20.824997
30
0
11
-100.725
21
-25
31
0
39
0
210
0
220
0
230
1
0
LINE
5
34B
100
AcDbEntity
8
1
62
256
6
ByLayer
370
18
48
1
60
1
100
AcDbLine
10
-100.725
20
25
30
0
11
-99.799425
21
20.825003
31
0
39
0
210
0
220
0
230
1
0
LINE
5
34C
100
AcDbEntity
8
1
62
256
6
ByLayer
370
18
48
1
60
1
100
AcDbLine
10
-99.799425
20
20.825003
30
0
11
-101.650575
21
20.824997
31
0
39
0
210
0
220
0
230
1
0
LINE
5
34D
100
AcDbEntity
8
1
62
256
6
ByLayer
370
18
48
1
60
1
100
AcDbLine
10
-101.650575
20
20.824997
30
0
11
-100.725
21
25
31
0
39
0
210
0
220
0
230
1
0
LINE
5
351
100
AcDbEntity
8
1
62
256
6
ByLayer
370
18
48
1
60
1
100
AcDbLine
10
-110.725
20
31.25
30
0
11
-109.799425
21
27.075003
31
0
39
0
210
0
220
0
230
1
0
LINE
5
352
100
AcDbEntity
8
1
62
256
6
ByLayer
370
18
48
1
60
1
100
AcDbLine
10
-109.799425
20
27.075003
30
0
11
-111.650575
21
27.074997
31
0
39
0
210
0
220
0
230
1
0
LINE
5
353
100
AcDbEntity
8
1
62
256
6
ByLayer
370
18
48
1
60
1
100
AcDbLine
10
-111.650575
20
27.074997
30
0
11
-110.725
21
31.25
31
0
39
0
210
0
220
0
230
1
0
LINE
5
355
100
AcDbEntity
8
1
62
256
6
ByLayer
370
18
48
1
60
1
100
AcDbLine
10
-110.725
20
-31.25
30
0
11
-111.650575
21
-27.075003
31
0
39
0
210
0
220
0
230
1
0
LINE
5
356
100
AcDbEntity
8
1
62
256
6
ByLayer
370
18
48
1
60
1
100
AcDbLine
10
-111.650575
20
-27.075003
30
0
11
-109.799425
21
-27.074997
31
0
39
0
210
0
220
0
230
1
0
LINE
5
357
100
AcDbEntity
8
1
62
256
6
ByLayer
370
18
48
1
60
1
100
AcDbLine
10
-109.799425
20
-27.074997
30
0
11
-110.725
21
-31.25
31
0
39
0
210
0
220
0
230
1
0
LINE
5
35B
100
AcDbEntity
8
1
62
256
6
ByLayer
370
18
48
1
60
1
100
AcDbLine
10
318.975
20
-31.5
30
0
11
318.049425
21
-27.325003
31
0
39
0
210
0
220
0
230
1
0
LINE
5
35C
100
AcDbEntity
8
1
62
256
6
ByLayer
370
18
48
1
60
1
100
AcDbLine
10
318.049425
20
-27.325003
30
0
11
319.900575
21
-27.324997
31
0
39
0
210
0
220
0
230
1
0
LINE
5
35D
100
AcDbEntity
8
1
62
256
6
ByLayer
370
18
48
1
60
1
100
AcDbLine
10
319.900575
20
-27.324997
30
0
11
318.975
21
-31.5
31
0
39
0
210
0
220
0
230
1
0
LINE
5
35F
100
AcDbEntity
8
1
62
256
6
ByLayer
370
18
48
1
60
1
100
AcDbLine
10
318.975
20
31.5
30
0
11
319.900575
21
27.325003
31
0
39
0
210
0
220
0
230
1
0
LINE
5
360
100
AcDbEntity
8
1
62
256
6
ByLayer
370
18
48
1
60
1
100
AcDbLine
10
319.900575
20
27.325003
30
0
11
318.049425
21
27.324997
31
0
39
0
210
0
220
0
230
1
0
LINE
5
361
100
AcDbEntity
8
1
62
256
6
ByLayer
370
18
48
1
60
1
100
AcDbLine
10
318.049425
20
27.324997
30
0
11
318.975
21
31.5
31
0
39
0
210
0
220
0
230
1
0
MTEXT
5
343
100
AcDbEntity
8
SK2
62
256
6
ByLayer
370
18
48
1
60
0
100
AcDbMText
10
-102.736672
20
-6.949399
30
0
210
0
220
0
230
1
1
%%c
40
4.5
41
0
44
1.084337
50
90
71
7
72
5
7
iso_b_vert
0
MTEXT
5
346
100
AcDbEntity
8
SK2
62
256
6
ByLayer
370
18
48
1
60
0
100
AcDbMText
10
-102.736672
20
4.265444
30
0
210
0
220
0
230
1
1
\W0.6740;50
40
4.5
41
0
44
1.084337
50
90
71
7
72
5
7
iso_b_vert
0
MTEXT
5
34F
100
AcDbEntity
8
SK2
62
256
6
ByLayer
370
18
48
1
60
0
100
AcDbMText
10
-112.736672
20
-9.541655
30
0
210
0
220
0
230
1
1
%%c
40
4.5
41
0
44
1.084337
50
90
71
7
72
5
7
iso_b_vert
0
MTEXT
5
350
100
AcDbEntity
8
SK2
62
256
6
ByLayer
370
18
48
1
60
0
100
AcDbMText
10
-112.736672
20
1.673189
30
0
210
0
220
0
230
1
1
\W0.7346;62.5
40
4.5
41
0
44
1.084337
50
90
71
7
72
5
7
iso_b_vert
0
MTEXT
5
359
100
AcDbEntity
8
2
62
256
6
ByLayer
370
18
48
1
60
0
100
AcDbMText
10
316.963328
20
-6.949399
30
0
210
0
220
0
230
1
1
%%c
40
4.5
41
0
44
1.084337
50
90
71
7
72
5
7
iso_b_vert
0
MTEXT
5
35A
100
AcDbEntity
8
2
62
256
6
ByLayer
370
18
48
1
60
0
100
AcDbMText
10
316.963328
20
4.265444
30
0
210
0
220
0
230
1
1
\W0.6740;63
40
4.5
41
0
44
1.084337
50
90
71
7
72
5
7
iso_b_vert
0
MTEXT
5
363
100
AcDbEntity
8
SK6
62
256
6
ByLayer
370
18
48
1
60
0
100
AcDbMText
10
9.308916
20
-94.592562
30
0
210
0
220
0
230
1
1
\W0.7699;DS20-D6300L50-04
40
3.5
41
0
44
1.084337
50
0
71
7
72
5
7
iso_b_vert
0
HATCH
5
34A
100
AcDbEntity
8
SK2
62
256
6
ByLayer
370
13
48
1
60
0
100
AcDbHatch
10
0
20
0
30
0
210
0
220
0
230
1
2
ANSI31
70
0
71
0
91
1
92
5
93
3
72
1
10
-100.725
20
-24.9999999999999
11
-101.650575216528
21
-20.8250033998275
72
1
10
-101.650575216528
20
-20.8250033998275
11
-99.7994247834721
21
-20.8249966001723
72
1
10
-99.7994247834721
20
-20.8249966001723
11
-100.725
21
-24.9999999999999
97
0
75
0
76
1
52
0
41
0.0062
77
0
78
1
53
45
43
0
44
0
45
-0.0139193969876572
46
0.0139193969876572
79
0
47
0
98
1
10
0
20
0
0
HATCH
5
34E
100
AcDbEntity
8
SK2
62
256
6
ByLayer
370
13
48
1
60
0
100
AcDbHatch
10
0
20
0
30
0
210
0
220
0
230
1
2
ANSI31
70
0
71
0
91
1
92
5
93
3
72
1
10
-100.725
20
25.0000000000001
11
-99.7994247834721
21
20.8250033998277
72
1
10
-99.7994247834721
20
20.8250033998277
11
-101.650575216528
21
20.8249966001725
72
1
10
-101.650575216528
20
20.8249966001725
11
-100.725
21
25.0000000000001
97
0
75
0
76
1
52
0
41
0.0062
77
0
78
1
53
45
43
0
44
0
45
-0.0139193969876572
46
0.0139193969876572
79
0
47
0
98
1
10
0
20
0
0
HATCH
5
354
100
AcDbEntity
8
SK2
62
256
6
ByLayer
370
13
48
1
60
0
100
AcDbHatch
10
0
20
0
30
0
210
0
220
0
230
1
2
ANSI31
70
0
71
0
91
1
92
5
93
3
72
1
10
-110.725
20
31.25
11
-109.799424783472
21
27.0750033998276
72
1
10
-109.799424783472
20
27.0750033998276
11
-111.650575216528
21
27.0749966001724
72
1
10
-111.650575216528
20
27.0749966001724
11
-110.725
21
31.25
97
0
75
0
76
1
52
0
41
0.0062
77
0
78
1
53
45
43
0
44
0
45
-0.0139193969876572
46
0.0139193969876572
79
0
47
0
98
1
10
0
20
0
0
HATCH
5
358
100
AcDbEntity
8
SK2
62
256
6
ByLayer
370
13
48
1
60
0
100
AcDbHatch
10
0
20
0
30
0
210
0
220
0
230
1
2
ANSI31
70
0
71
0
91
1
92
5
93
3
72
1
10
-110.725
20
-31.25
11
-111.650575216528
21
-27.0750033998276
72
1
10
-111.650575216528
20
-27.0750033998276
11
-109.799424783472
21
-27.0749966001724
72
1
10
-109.799424783472
20
-27.0749966001724
11
-110.725
21
-31.25
97
0
75
0
76
1
52
0
41
0.0062
77
0
78
1
53
45
43
0
44
0
45
-0.0139193969876572
46
0.0139193969876572
79
0
47
0
98
1
10
0
20
0
0
HATCH
5
35E
100
AcDbEntity
8
2
62
256
6
ByLayer
370
13
48
1
60
0
100
AcDbHatch
10
0
20
0
30
0
210
0
220
0
230
1
2
ANSI31
70
0
71
0
91
1
92
5
93
3
72
1
10
318.975
20
-31.5000000000003
11
318.049424783472
21
-27.3250033998279
72
1
10
318.049424783472
20
-27.3250033998279
11
319.900575216528
21
-27.3249966001727
72
1
10
319.900575216528
20
-27.3249966001727
11
318.975
21
-31.5000000000003
97
0
75
0
76
1
52
0
41
0.0062
77
0
78
1
53
45
43
0
44
0
45
-0.0139193969876572
46
0.0139193969876572
79
0
47
0
98
1
10
0
20
0
0
HATCH
5
362
100
AcDbEntity
8
2
62
256
6
ByLayer
370
13
48
1
60
0
100
AcDbHatch
10
0
20
0
30
0
210
0
220
0
230
1
2
ANSI31
70
0
71
0
91
1
92
5
93
3
72
1
10
318.975
20
31.4999999999997
11
319.900575216528
21
27.3250033998273
72
1
10
319.900575216528
20
27.3250033998273
11
318.049424783472
21
27.324996600172
72
1
10
318.049424783472
20
27.324996600172
11
318.975
21
31.4999999999997
97
0
75
0
76
1
52
0
41
0.0062
77
0
78
1
53
45
43
0
44
0
45
-0.0139193969876572
46
0.0139193969876572
79
0
47
0
98
1
10
0
20
0
0
DIMENSION
5
366
100
AcDbEntity
8
2
62
256
6
ByLayer
370
18
48
1
60
0
100
AcDbDimension
2
_U0
10
292
20
-80.528968
30
0
11
146
21
-80.528968
31
0
70
32
71
1
72
1
41
1
210
0
220
0
230
1
3
Standard
100
AcDbAlignedDimension
13
0
23
-31.25
33
0
14
292
24
-31.5
34
0
50
0
100
AcDbRotatedDimension
1001
ACAD
1000
DSTYLE
1002
{
1070
   371
1070
    13
1070
   372
1070
    13
1070
   170
1070
     0
1070
   144
1040
1.0
1070
   277
1070
     2
1070
   284
1070
     8
1070
   278
1070
    46
1070
   146
1040
0.777778
1070
   345
1005
16
1070
   347
1005
16
1070
   346
1005
16
1070
   344
1005
0
1070
   343
1005
0
1070
   172
1070
     1
1070
    76
1070
     0
1070
    75
1070
     0
1070
   282
1070
     0
1070
   281
1070
     0
1070
    71
1070
     0
1070
    74
1070
     0
1070
   279
1070
     0
1070
   173
1070
     1
1070
   340
1005
344
1070
   271
1070
     1
1070
   272
1070
     2
1070
    77
1070
     1
1070
    73
1070
     1
1070
   171
1070
     3
1070
   274
1070
     4
1070
   177
1070
   150
1070
   176
1070
     9
1070
   178
1070
    43
1070
    78
1070
     8
1070
    48
1040
-0.1
1070
    41
1040
4.175
1070
   147
1040
2.25
1070
    42
1040
1.5875
1070
    44
1040
3.175
1070
   140
1040
4.5
1002
}
1001
ACAD_DSTYLE_DIM_LINETYPE
1070
   380
1005
16
1001
ACAD_DSTYLE_DIM_EXT1_LINETYPE
1070
   381
1005
16
1001
ACAD_DSTYLE_DIM_EXT2_LINETYPE
1070
   382
1005
16
0
DIMENSION
5
37F
100
AcDbEntity
8
SK2
62
256
6
ByLayer
370
18
48
1
60
0
100
AcDbDimension
2
_U1
10
0
20
-80.528968
30
0
11
-40
21
-80.528968
31
0
70
32
71
1
72
1
41
1
210
0
220
0
230
1
3
Standard
100
AcDbAlignedDimension
13
-80
23
-25
33
0
14
0
24
-31.25
34
0
50
0
100
AcDbRotatedDimension
1001
ACAD
1000
DSTYLE
1002
{
1070
   371
1070
    13
1070
   372
1070
    13
1070
   170
1070
     0
1070
   144
1040
1.0
1070
   277
1070
     2
1070
   284
1070
     8
1070
   278
1070
    46
1070
   146
1040
0.777778
1070
   345
1005
16
1070
   347
1005
16
1070
   346
1005
16
1070
   344
1005
0
1070
   343
1005
0
1070
   172
1070
     1
1070
    76
1070
     0
1070
    75
1070
     0
1070
   282
1070
     0
1070
   281
1070
     0
1070
    71
1070
     0
1070
    74
1070
     0
1070
   279
1070
     0
1070
   173
1070
     1
1070
   340
1005
344
1070
   271
1070
     1
1070
   272
1070
     2
1070
    77
1070
     1
1070
    73
1070
     1
1070
   171
1070
     3
1070
   274
1070
     4
1070
   177
1070
   150
1070
   176
1070
     9
1070
   178
1070
    43
1070
    78
1070
     8
1070
    48
1040
-0.1
1070
    41
1040
4.175
1070
   147
1040
2.25
1070
    42
1040
1.5875
1070
    44
1040
3.175
1070
   140
1040
4.5
1002
}
1001
ACAD_DSTYLE_DIM_LINETYPE
1070
   380
1005
16
1001
ACAD_DSTYLE_DIM_EXT1_LINETYPE
1070
   381
1005
16
1001
ACAD_DSTYLE_DIM_EXT2_LINETYPE
1070
   382
1005
16
0
DIMENSION
5
397
100
AcDbEntity
8
SK2
62
256
6
ByLayer
370
18
48
1
60
0
100
AcDbDimension
2
_U2
10
5.8124
20
-70.528968
30
0
11
148.9062
21
-70.528968
31
0
70
32
71
1
72
1
41
1
210
0
220
0
230
1
3
Standard
100
AcDbAlignedDimension
13
292
23
-31.5
33
0
14
5.8124
24
-31.25
34
0
50
0
100
AcDbRotatedDimension
1001
ACAD
1000
DSTYLE
1002
{
1070
   371
1070
    13
1070
   372
1070
    13
1070
   170
1070
     0
1070
   144
1040
1.0
1070
   277
1070
     2
1070
   284
1070
     8
1070
   278
1070
    46
1070
   146
1040
0.777778
1070
   345
1005
16
1070
   347
1005
16
1070
   346
1005
16
1070
   344
1005
0
1070
   343
1005
0
1070
   172
1070
     1
1070
    76
1070
     0
1070
    75
1070
     0
1070
   282
1070
     0
1070
   281
1070
     0
1070
    71
1070
     0
1070
    74
1070
     0
1070
   279
1070
     0
1070
   173
1070
     1
1070
   340
1005
344
1070
   271
1070
     1
1070
   272
1070
     2
1070
    77
1070
     1
1070
    73
1070
     1
1070
   171
1070
     3
1070
   274
1070
     4
1070
   177
1070
   150
1070
   176
1070
     9
1070
   178
1070
    43
1070
    78
1070
     8
1070
    48
1040
-0.1
1070
    41
1040
4.175
1070
   147
1040
2.25
1070
    42
1040
1.5875
1070
    44
1040
3.175
1070
   140
1040
4.5
1002
}
1001
ACAD_DSTYLE_DIM_LINETYPE
1070
   380
1005
16
1001
ACAD_DSTYLE_DIM_EXT1_LINETYPE
1070
   381
1005
16
1001
ACAD_DSTYLE_DIM_EXT2_LINETYPE
1070
   382
1005
16
0
DIMENSION
5
3AF
100
AcDbEntity
8
SK2
62
256
6
ByLayer
370
18
48
1
60
0
100
AcDbDimension
2
_U3
10
292
20
-60.528968
30
0
11
163.5
21
-60.528968
31
0
70
32
71
1
72
1
41
1
210
0
220
0
230
1
3
Standard
100
AcDbAlignedDimension
13
35
23
-31.5
33
0
14
292
24
-31.5
34
0
50
0
100
AcDbRotatedDimension
1001
ACAD
1000
DSTYLE
1002
{
1070
   371
1070
    13
1070
   372
1070
    13
1070
   170
1070
     0
1070
   144
1040
1.0
1070
   277
1070
     2
1070
   284
1070
     8
1070
   278
1070
    46
1070
   146
1040
0.777778
1070
   345
1005
16
1070
   347
1005
16
1070
   346
1005
16
1070
   344
1005
0
1070
   343
1005
0
1070
   172
1070
     1
1070
    76
1070
     0
1070
    75
1070
     0
1070
   282
1070
     0
1070
   281
1070
     0
1070
    71
1070
     0
1070
    74
1070
     0
1070
   279
1070
     0
1070
   173
1070
     1
1070
   340
1005
344
1070
   271
1070
     1
1070
   272
1070
     2
1070
    77
1070
     1
1070
    73
1070
     1
1070
   171
1070
     3
1070
   274
1070
     4
1070
   177
1070
   150
1070
   176
1070
     9
1070
   178
1070
    43
1070
    78
1070
     8
1070
    48
1040
-0.1
1070
    41
1040
4.175
1070
   147
1040
2.25
1070
    42
1040
1.5875
1070
    44
1040
3.175
1070
   140
1040
4.5
1002
}
1001
ACAD_DSTYLE_DIM_LINETYPE
1070
   380
1005
16
1001
ACAD_DSTYLE_DIM_EXT1_LINETYPE
1070
   381
1005
16
1001
ACAD_DSTYLE_DIM_EXT2_LINETYPE
1070
   382
1005
16
0
DIMENSION
5
3C7
100
AcDbEntity
8
2
62
256
6
ByLayer
370
18
48
1
60
0
100
AcDbDimension
2
_U4
10
292
20
-50.528968
30
0
11
313.922321
21
-50.528968
31
0
70
32
71
1
72
1
41
1
210
0
220
0
230
1
3
Standard
100
AcDbAlignedDimension
13
290.4109
23
-15.75
33
0
14
292
24
0
34
0
50
0
100
AcDbRotatedDimension
1001
ACAD
1000
DSTYLE
1002
{
1070
   371
1070
    13
1070
   372
1070
    13
1070
   170
1070
     0
1070
   144
1040
1.0
1070
   277
1070
     2
1070
   284
1070
     8
1070
   278
1070
    46
1070
   146
1040
0.777778
1070
   345
1005
16
1070
   347
1005
16
1070
   346
1005
16
1070
   344
1005
0
1070
   343
1005
0
1070
   172
1070
     1
1070
    76
1070
     0
1070
    75
1070
     0
1070
   282
1070
     0
1070
   281
1070
     0
1070
    71
1070
     0
1070
    74
1070
     0
1070
   279
1070
     0
1070
   173
1070
     1
1070
   340
1005
344
1070
   271
1070
     2
1070
   272
1070
     2
1070
    77
1070
     1
1070
    73
1070
     1
1070
   171
1070
     3
1070
   274
1070
     4
1070
   177
1070
   150
1070
   176
1070
     9
1070
   178
1070
    43
1070
    78
1070
     8
1070
    48
1040
-0.1
1070
    41
1040
4.175
1070
   147
1040
2.25
1070
    42
1040
1.5875
1070
    44
1040
3.175
1070
   140
1040
4.5
1002
}
1001
ACAD_DSTYLE_DIM_LINETYPE
1070
   380
1005
16
1001
ACAD_DSTYLE_DIM_EXT1_LINETYPE
1070
   381
1005
16
1001
ACAD_DSTYLE_DIM_EXT2_LINETYPE
1070
   382
1005
16
0
ENDSEC
0
SECTION
2
OBJECTS
0
DICTIONARY
5
451
330
0
100
AcDbDictionary
280
0
281
1
3
ACAD_GROUP
350
452
3
ACAD_MLINESTYLE
350
453
0
DICTIONARY
5
452
330
0
100
AcDbDictionary
280
0
281
1
0
DICTIONARY
5
453
330
0
100
AcDbDictionary
280
0
281
1
3
Standard
350
18
0
MLINESTYLE
5
18
330
453
100
AcDbMlineStyle
2
Standard
70
0
3

62
256
51
90
52
90
71
2
49
-0.5
62
256
6
ByLayer
49
0.5
62
256
6
ByLayer
0
RASTERVARIABLES
5
43f
330

100
AcDbRasterVariables
90
0
70
1
71
1
72
1
0
ENDSEC
0
EOF
