0
SECTION
2
HEADER
9
$ACADVER
1
AC1015
9
$DWGCODEPAGE
3
ANSI_1252
9
$HANDSEED
5
453
9
$ANGBASE
50
0
9
$ANGDIR
70
0
9
$ATTMODE
70
1
9
$AUNITS
70
0
9
$AUPREC
70
0
9
$CECOLOR
62
256
9
$CELTSCALE
40
1
9
$CELTYPE
6
ByLayer
9
$CELWEIGHT
370
18
9
$CLAYER
8
0
9
$CMLJUST
70
0
9
$CMLSCALE
40
1
9
$CMLSTYLE
2
Standard
9
$DIMSTYLE
2
Standard
9
$TEXTSIZE
40
0.2
9
$TEXTSTYLE
7
Standard
9
$LUNITS
70
2
9
$LUPREC
70
4
9
$EXTNAMES
290
1
9
$INSUNITS
70
4
9
$LTSCALE
40
1
9
$LWDISPLAY
290
1
9
$PDMODE
70
0
9
$PDSIZE
40
0
9
$PLINEGEN
70
0
0
ENDSEC
0
SECTION
2
CLASSES
0
CLASS
1
RASTERVARIABLES
2
AcDbRasterVariables
3
ISM
90
0
280
0
281
0
0
ENDSEC
0
SECTION
2
TABLES
0
TABLE
2
VPORT
5
449
100
AcDbSymbolTable
0
VPORT
5
1
100
AcDbSymbolTableRecord
100
AcDbViewportTableRecord
2
*Active
70
0
10
0
20
0
11
1
21
1
12
-1
22
1
13
0
23
0
14
0.5
24
0.5
15
10
25
10
16
0
26
0
36
1
17
0
27
0
37
0
0
ENDTAB
0
TABLE
2
LTYPE
5
44a
100
AcDbSymbolTable
0
LTYPE
5
14
100
AcDbSymbolTableRecord
100
AcDbLinetypeTableRecord
70
0
2
ByBlock
3

72
65
73
0
40
0
0
LTYPE
5
15
100
AcDbSymbolTableRecord
100
AcDbLinetypeTableRecord
70
0
2
ByLayer
3

72
65
73
0
40
0
0
LTYPE
5
16
100
AcDbSymbolTableRecord
100
AcDbLinetypeTableRecord
70
0
2
Continuous
3
Solid line
72
65
73
0
40
0
0
LTYPE
5
6E
100
AcDbSymbolTableRecord
100
AcDbLinetypeTableRecord
70
0
2
CENTER
3
____ _ ____ _ ____ _ ____
72
65
73
4
40
47.5
49
22
74
0
49
-8.5
74
0
49
8.5
74
0
49
-8.5
74
0
0
LTYPE
5
6F
100
AcDbSymbolTableRecord
100
AcDbLinetypeTableRecord
70
0
2
DASHED
3
__ __ __ __ __ __ __ __ __
72
65
73
2
40
25.72
49
12.86
74
0
49
-12.86
74
0
0
ENDTAB
0
TABLE
2
LAYER
5
44b
100
AcDbSymbolTable
0
LAYER
5
10
100
AcDbSymbolTableRecord
100
AcDbLayerTableRecord
2
0
70
0
62
7
6
Continuous
290
1
370
-3
390
0
0
LAYER
5
71
100
AcDbSymbolTableRecord
100
AcDbLayerTableRecord
2
1
70
0
62
4
6
Continuous
290
1
370
-3
390
0
0
LAYER
5
73
100
AcDbSymbolTableRecord
100
AcDbLayerTableRecord
2
80
70
0
62
-6
6
Continuous
290
1
370
-3
390
0
0
LAYER
5
75
100
AcDbSymbolTableRecord
100
AcDbLayerTableRecord
2
81
70
0
62
-3
6
Continuous
290
1
370
-3
390
0
0
LAYER
5
14C
100
AcDbSymbolTableRecord
100
AcDbLayerTableRecord
2
4
70
0
62
-2
6
CENTER
290
1
370
-3
390
0
0
LAYER
5
186
100
AcDbSymbolTableRecord
100
AcDbLayerTableRecord
2
2
70
0
62
7
6
Continuous
290
1
370
-3
390
0
0
LAYER
5
35E
100
AcDbSymbolTableRecord
100
AcDbLayerTableRecord
2
Defpoints
70
0
62
7
6
Continuous
290
0
370
-3
390
0
0
LAYER
5
435
100
AcDbSymbolTableRecord
100
AcDbLayerTableRecord
2
SK1
70
0
62
4
6
Continuous
290
1
370
-3
390
0
0
LAYER
5
436
100
AcDbSymbolTableRecord
100
AcDbLayerTableRecord
2
SK4
70
0
62
2
6
CENTER
290
1
370
-3
390
0
0
LAYER
5
437
100
AcDbSymbolTableRecord
100
AcDbLayerTableRecord
2
SK2
70
0
62
7
6
Continuous
290
1
370
-3
390
0
0
LAYER
5
438
100
AcDbSymbolTableRecord
100
AcDbLayerTableRecord
2
SK6
70
0
62
5
6
Continuous
290
1
370
-3
390
0
0
ENDTAB
0
TABLE
2
STYLE
5
44c
100
AcDbSymbolTable
0
STYLE
5
11
100
AcDbSymbolTableRecord
100
AcDbTextStyleTableRecord
2
Standard
3
txt
70
0
71
0
40
0
41
1
42
0
50
0
0
STYLE
5
339
100
AcDbSymbolTableRecord
100
AcDbTextStyleTableRecord
2
iso_b_vert
3
simplex.shx
70
0
71
0
40
0
41
1
42
0
50
0
0
STYLE
5
33A
100
AcDbSymbolTableRecord
100
AcDbTextStyleTableRecord
2
DWGDirectTextStyle
3
simplex
70
0
71
0
40
0
41
1
42
0
50
0
0
ENDTAB
0
TABLE
2
DIMSTYLE
5
44d
100
AcDbSymbolTable
100
AcDbDimStyleTable
0
DIMSTYLE
105
27
100
AcDbSymbolTableRecord
100
AcDbDimStyleTableRecord
2
Standard
70
0
3
<>
41
0.18
42
0.0625
44
0.18
140
0.18
147
0.09
73
0
74
0
77
1
271
2
275
0
278
52
280
0
340
11
0
ENDTAB
0
TABLE
2
VIEW
5
44e
100
AcDbSymbolTable
0
ENDTAB
0
TABLE
2
UCS
5
44f
100
AcDbSymbolTable
0
ENDTAB
0
TABLE
2
APPID
5
450
100
AcDbSymbolTable
0
APPID
5
12
100
AcDbSymbolTableRecord
100
AcDbRegAppTableRecord
2
ACAD
70
0
0
APPID
5
35A
100
AcDbSymbolTableRecord
100
AcDbRegAppTableRecord
2
ACAD_DSTYLE_DIMBREAK
70
0
0
APPID
5
3F4
100
AcDbSymbolTableRecord
100
AcDbRegAppTableRecord
2
ACAD_DSTYLE_DIM_LINETYPE
70
0
0
APPID
5
3F5
100
AcDbSymbolTableRecord
100
AcDbRegAppTableRecord
2
ACAD_DSTYLE_DIM_EXT1_LINETYPE
70
0
0
APPID
5
3F6
100
AcDbSymbolTableRecord
100
AcDbRegAppTableRecord
2
ACAD_DSTYLE_DIM_EXT2_LINETYPE
70
0
0
APPID
5
431
100
AcDbSymbolTableRecord
100
AcDbRegAppTableRecord
2
ACAD_MLEADERVER
70
0
0
ENDTAB
0
TABLE
2
BLOCK_RECORD
5
451
100
AcDbSymbolTable
0
BLOCK_RECORD
5
1F
100
AcDbSymbolTableRecord
100
AcDbBlockTableRecord
2
*Model_Space
340
0
70
0
0
BLOCK_RECORD
5
1B
100
AcDbSymbolTableRecord
100
AcDbBlockTableRecord
2
*Paper_Space
340
0
70
0
0
BLOCK_RECORD
5
23
100
AcDbSymbolTableRecord
100
AcDbBlockTableRecord
2
*Paper_Space0
340
0
70
0
0
BLOCK_RECORD
5
35F
100
AcDbSymbolTableRecord
100
AcDbBlockTableRecord
2
*D1
340
0
70
0
0
BLOCK_RECORD
5
36B
100
AcDbSymbolTableRecord
100
AcDbBlockTableRecord
2
_U0
340
0
70
0
0
BLOCK_RECORD
5
377
100
AcDbSymbolTableRecord
100
AcDbBlockTableRecord
2
*D3
340
0
70
0
0
BLOCK_RECORD
5
383
100
AcDbSymbolTableRecord
100
AcDbBlockTableRecord
2
_U1
340
0
70
0
0
BLOCK_RECORD
5
38F
100
AcDbSymbolTableRecord
100
AcDbBlockTableRecord
2
*D5
340
0
70
0
0
BLOCK_RECORD
5
39B
100
AcDbSymbolTableRecord
100
AcDbBlockTableRecord
2
_U2
340
0
70
0
0
BLOCK_RECORD
5
3A7
100
AcDbSymbolTableRecord
100
AcDbBlockTableRecord
2
*D7
340
0
70
0
0
BLOCK_RECORD
5
3B3
100
AcDbSymbolTableRecord
100
AcDbBlockTableRecord
2
_U3
340
0
70
0
0
BLOCK_RECORD
5
3BF
100
AcDbSymbolTableRecord
100
AcDbBlockTableRecord
2
*D9
340
0
70
0
0
BLOCK_RECORD
5
3CD
100
AcDbSymbolTableRecord
100
AcDbBlockTableRecord
2
_U4
340
0
70
0
0
ENDTAB
0
ENDSEC
0
SECTION
2
BLOCKS
0
BLOCK
5
20
100
AcDbEntity
8
0
100
AcDbBlockBegin
2
*Model_Space
70
0
10
0
20
0
30
0
3
*Model_Space
0
ENDBLK
5
21
100
AcDbEntity
8
0
100
AcDbBlockEnd
0
BLOCK
5
1C
100
AcDbEntity
8
0
100
AcDbBlockBegin
2
*Paper_Space
70
0
10
0
20
0
30
0
3
*Paper_Space
0
ENDBLK
5
1D
100
AcDbEntity
8
0
100
AcDbBlockEnd
0
BLOCK
5
24
100
AcDbEntity
8
0
100
AcDbBlockBegin
2
*Paper_Space0
70
0
10
0
20
0
30
0
3
*Paper_Space0
0
ENDBLK
5
25
100
AcDbEntity
8
0
100
AcDbBlockEnd
0
BLOCK
5
360
100
AcDbEntity
8
0
100
AcDbBlockBegin
2
*D1
70
1
10
0
20
0
30
0
3
*D1
0
LINE
5
362
100
AcDbEntity
8
0
62
256
6
ByLayer
370
-2
48
1
60
0
100
AcDbLine
10
0
20
-32.8375
30
0
11
0
21
-83.275
31
0
39
0
210
0
220
0
230
1
0
LINE
5
363
100
AcDbEntity
8
0
62
256
6
ByLayer
370
-2
48
1
60
0
100
AcDbLine
10
261
20
-29.0875
30
0
11
261
21
-83.275
31
0
39
0
210
0
220
0
230
1
0
LINE
5
364
100
AcDbEntity
8
0
62
256
6
ByLayer
370
-2
48
1
60
0
100
AcDbLine
10
4.175
20
-80.1
30
0
11
256.825
21
-80.1
31
0
39
0
210
0
220
0
230
1
0
SOLID
5
365
100
AcDbEntity
8
0
62
256
6
ByLayer
370
-1
48
1
60
0
100
AcDbTrace
10
4.175
20
-79.404167
30
0
11
4.175
21
-80.795833
31
0
12
0
22
-80.1
32
0
13
0
23
-80.1
33
0
39
0
210
0
220
0
230
1
0
SOLID
5
366
100
AcDbEntity
8
0
62
256
6
ByLayer
370
-1
48
1
60
0
100
AcDbTrace
10
256.825
20
-80.795833
30
0
11
256.825
21
-79.404167
31
0
12
261
22
-80.1
32
0
13
261
23
-80.1
33
0
39
0
210
0
220
0
230
1
0
MTEXT
5
367
100
AcDbEntity
8
0
62
256
6
ByLayer
370
18
48
1
60
0
100
AcDbMText
10
130.5
20
-70.70625
30
0
210
0
220
0
230
1
1
\A1;261
40
4.5
41
0
44
1
50
0
71
5
72
5
7
iso_b_vert
0
POINT
5
368
100
AcDbEntity
8
Defpoints
62
0
6
ByLayer
370
-1
48
1
60
0
100
AcDbPoint
10
0
20
-31.25
30
0
39
0
210
0
220
0
230
1
50
360
0
POINT
5
369
100
AcDbEntity
8
Defpoints
62
0
6
ByLayer
370
-1
48
1
60
0
100
AcDbPoint
10
261
20
-27.5
30
0
39
0
210
0
220
0
230
1
50
360
0
POINT
5
36A
100
AcDbEntity
8
Defpoints
62
0
6
ByLayer
370
-1
48
1
60
0
100
AcDbPoint
10
261
20
-80.1
30
0
39
0
210
0
220
0
230
1
50
360
0
ENDBLK
5
361
100
AcDbEntity
8
0
100
AcDbBlockEnd
0
BLOCK
5
372
100
AcDbEntity
8
0
100
AcDbBlockBegin
2
_U0
70
0
10
0
20
0
30
0
3
_U0
0
MTEXT
5
36C
100
AcDbEntity
8
2
62
256
6
ByLayer
370
18
48
1
60
0
100
AcDbMText
10
126.931801
20
-78.772328
30
0
210
0
220
0
230
1
1
\W0.6949;261
40
4.5
41
0
44
1.084337
50
0
71
7
72
5
7
iso_b_vert
0
LINE
5
36D
100
AcDbEntity
8
2
62
256
6
ByLayer
370
13
48
1
60
0
100
AcDbLine
10
0
20
-32.8375
30
0
11
0
21
-83.275
31
0
39
0
210
0
220
0
230
1
0
LINE
5
36E
100
AcDbEntity
8
2
62
256
6
ByLayer
370
13
48
1
60
0
100
AcDbLine
10
261
20
-29.0875
30
0
11
261
21
-83.275
31
0
39
0
210
0
220
0
230
1
0
LINE
5
36F
100
AcDbEntity
8
2
62
256
6
ByLayer
370
13
48
1
60
0
100
AcDbLine
10
0
20
-80.1
30
0
11
261
21
-80.1
31
0
39
0
210
0
220
0
230
1
0
SOLID
5
370
100
AcDbEntity
8
2
62
256
6
ByLayer
370
18
48
1
60
0
100
AcDbTrace
10
0
20
-80.1
30
0
11
4.174997
21
-79.174425
31
0
12
4.175003
22
-81.025575
32
0
13
4.175003
23
-81.025575
33
0
39
0
210
0
220
0
230
1
0
SOLID
5
371
100
AcDbEntity
8
2
62
256
6
ByLayer
370
18
48
1
60
0
100
AcDbTrace
10
261
20
-80.1
30
0
11
256.825003
21
-81.025575
31
0
12
256.824997
22
-79.174425
32
0
13
256.824997
23
-79.174425
33
0
39
0
210
0
220
0
230
1
0
ENDBLK
5
373
100
AcDbEntity
8
0
100
AcDbBlockEnd
0
BLOCK
5
378
100
AcDbEntity
8
0
100
AcDbBlockBegin
2
*D3
70
1
10
0
20
0
30
0
3
*D3
0
LINE
5
37A
100
AcDbEntity
8
0
62
256
6
ByLayer
370
-2
48
1
60
0
100
AcDbLine
10
-80
20
-26.5875
30
0
11
-80
21
-83.275
31
0
39
0
210
0
220
0
230
1
0
LINE
5
37B
100
AcDbEntity
8
0
62
256
6
ByLayer
370
-2
48
1
60
0
100
AcDbLine
10
0
20
-32.8375
30
0
11
0
21
-83.275
31
0
39
0
210
0
220
0
230
1
0
LINE
5
37C
100
AcDbEntity
8
0
62
256
6
ByLayer
370
-2
48
1
60
0
100
AcDbLine
10
-75.825
20
-80.1
30
0
11
-4.175
21
-80.1
31
0
39
0
210
0
220
0
230
1
0
SOLID
5
37D
100
AcDbEntity
8
0
62
256
6
ByLayer
370
-1
48
1
60
0
100
AcDbTrace
10
-75.825
20
-79.404167
30
0
11
-75.825
21
-80.795833
31
0
12
-80
22
-80.1
32
0
13
-80
23
-80.1
33
0
39
0
210
0
220
0
230
1
0
SOLID
5
37E
100
AcDbEntity
8
0
62
256
6
ByLayer
370
-1
48
1
60
0
100
AcDbTrace
10
-4.175
20
-80.795833
30
0
11
-4.175
21
-79.404167
31
0
12
0
22
-80.1
32
0
13
0
23
-80.1
33
0
39
0
210
0
220
0
230
1
0
MTEXT
5
37F
100
AcDbEntity
8
0
62
256
6
ByLayer
370
18
48
1
60
0
100
AcDbMText
10
-40
20
-70.70625
30
0
210
0
220
0
230
1
1
\A1;80
40
4.5
41
0
44
1
50
0
71
5
72
5
7
iso_b_vert
0
POINT
5
380
100
AcDbEntity
8
Defpoints
62
0
6
ByLayer
370
-1
48
1
60
0
100
AcDbPoint
10
-80
20
-25
30
0
39
0
210
0
220
0
230
1
50
360
0
POINT
5
381
100
AcDbEntity
8
Defpoints
62
0
6
ByLayer
370
-1
48
1
60
0
100
AcDbPoint
10
0
20
-31.25
30
0
39
0
210
0
220
0
230
1
50
360
0
POINT
5
382
100
AcDbEntity
8
Defpoints
62
0
6
ByLayer
370
-1
48
1
60
0
100
AcDbPoint
10
0
20
-80.1
30
0
39
0
210
0
220
0
230
1
50
360
0
ENDBLK
5
379
100
AcDbEntity
8
0
100
AcDbBlockEnd
0
BLOCK
5
38A
100
AcDbEntity
8
0
100
AcDbBlockBegin
2
_U1
70
0
10
0
20
0
30
0
3
_U1
0
MTEXT
5
384
100
AcDbEntity
8
SK2
62
256
6
ByLayer
370
18
48
1
60
0
100
AcDbMText
10
-42.449242
20
-78.772328
30
0
210
0
220
0
230
1
1
\W0.6740;80
40
4.5
41
0
44
1.084337
50
0
71
7
72
5
7
iso_b_vert
0
LINE
5
385
100
AcDbEntity
8
SK2
62
256
6
ByLayer
370
13
48
1
60
0
100
AcDbLine
10
-80
20
-26.5875
30
0
11
-80
21
-83.275
31
0
39
0
210
0
220
0
230
1
0
LINE
5
386
100
AcDbEntity
8
SK2
62
256
6
ByLayer
370
13
48
1
60
0
100
AcDbLine
10
0
20
-32.8375
30
0
11
0
21
-83.275
31
0
39
0
210
0
220
0
230
1
0
LINE
5
387
100
AcDbEntity
8
SK2
62
256
6
ByLayer
370
13
48
1
60
0
100
AcDbLine
10
-80
20
-80.1
30
0
11
0
21
-80.1
31
0
39
0
210
0
220
0
230
1
0
SOLID
5
388
100
AcDbEntity
8
SK2
62
256
6
ByLayer
370
18
48
1
60
0
100
AcDbTrace
10
-80
20
-80.1
30
0
11
-75.825003
21
-79.174425
31
0
12
-75.824997
22
-81.025575
32
0
13
-75.824997
23
-81.025575
33
0
39
0
210
0
220
0
230
1
0
SOLID
5
389
100
AcDbEntity
8
SK2
62
256
6
ByLayer
370
18
48
1
60
0
100
AcDbTrace
10
0
20
-80.1
30
0
11
-4.174997
21
-81.025575
31
0
12
-4.175003
22
-79.174425
32
0
13
-4.175003
23
-79.174425
33
0
39
0
210
0
220
0
230
1
0
ENDBLK
5
38B
100
AcDbEntity
8
0
100
AcDbBlockEnd
0
BLOCK
5
390
100
AcDbEntity
8
0
100
AcDbBlockBegin
2
*D5
70
1
10
0
20
0
30
0
3
*D5
0
LINE
5
392
100
AcDbEntity
8
0
62
256
6
ByLayer
370
-2
48
1
60
0
100
AcDbLine
10
261
20
-29.0875
30
0
11
261
21
-73.275
31
0
39
0
210
0
220
0
230
1
0
LINE
5
393
100
AcDbEntity
8
0
62
256
6
ByLayer
370
-2
48
1
60
0
100
AcDbLine
10
6.1882
20
-32.8375
30
0
11
6.1882
21
-73.275
31
0
39
0
210
0
220
0
230
1
0
LINE
5
394
100
AcDbEntity
8
0
62
256
6
ByLayer
370
-2
48
1
60
0
100
AcDbLine
10
256.825
20
-70.1
30
0
11
10.3632
21
-70.1
31
0
39
0
210
0
220
0
230
1
0
SOLID
5
395
100
AcDbEntity
8
0
62
256
6
ByLayer
370
-1
48
1
60
0
100
AcDbTrace
10
256.825
20
-70.795833
30
0
11
256.825
21
-69.404167
31
0
12
261
22
-70.1
32
0
13
261
23
-70.1
33
0
39
0
210
0
220
0
230
1
0
SOLID
5
396
100
AcDbEntity
8
0
62
256
6
ByLayer
370
-1
48
1
60
0
100
AcDbTrace
10
10.3632
20
-69.404167
30
0
11
10.3632
21
-70.795833
31
0
12
6.1882
22
-70.1
32
0
13
6.1882
23
-70.1
33
0
39
0
210
0
220
0
230
1
0
MTEXT
5
397
100
AcDbEntity
8
0
62
256
6
ByLayer
370
18
48
1
60
0
100
AcDbMText
10
133.5941
20
-60.70625
30
0
210
0
220
0
230
1
1
\A1;254.8
40
4.5
41
0
44
1
50
0
71
5
72
5
7
iso_b_vert
0
POINT
5
398
100
AcDbEntity
8
Defpoints
62
0
6
ByLayer
370
-1
48
1
60
0
100
AcDbPoint
10
261
20
-27.5
30
0
39
0
210
0
220
0
230
1
50
360
0
POINT
5
399
100
AcDbEntity
8
Defpoints
62
0
6
ByLayer
370
-1
48
1
60
0
100
AcDbPoint
10
6.1882
20
-31.25
30
0
39
0
210
0
220
0
230
1
50
360
0
POINT
5
39A
100
AcDbEntity
8
Defpoints
62
0
6
ByLayer
370
-1
48
1
60
0
100
AcDbPoint
10
6.1882
20
-70.1
30
0
39
0
210
0
220
0
230
1
50
360
0
ENDBLK
5
391
100
AcDbEntity
8
0
100
AcDbBlockEnd
0
BLOCK
5
3A2
100
AcDbEntity
8
0
100
AcDbBlockBegin
2
_U2
70
0
10
0
20
0
30
0
3
_U2
0
MTEXT
5
39C
100
AcDbEntity
8
SK2
62
256
6
ByLayer
370
18
48
1
60
0
100
AcDbMText
10
126.63363
20
-68.772328
30
0
210
0
220
0
230
1
1
\W0.7694;254.8
40
4.5
41
0
44
1.084337
50
0
71
7
72
5
7
iso_b_vert
0
LINE
5
39D
100
AcDbEntity
8
SK2
62
256
6
ByLayer
370
13
48
1
60
0
100
AcDbLine
10
261
20
-29.0875
30
0
11
261
21
-73.275
31
0
39
0
210
0
220
0
230
1
0
LINE
5
39E
100
AcDbEntity
8
SK2
62
256
6
ByLayer
370
13
48
1
60
0
100
AcDbLine
10
6.1882
20
-32.8375
30
0
11
6.1882
21
-73.275
31
0
39
0
210
0
220
0
230
1
0
LINE
5
39F
100
AcDbEntity
8
SK2
62
256
6
ByLayer
370
13
48
1
60
0
100
AcDbLine
10
261
20
-70.1
30
0
11
6.1882
21
-70.1
31
0
39
0
210
0
220
0
230
1
0
SOLID
5
3A0
100
AcDbEntity
8
SK2
62
256
6
ByLayer
370
18
48
1
60
0
100
AcDbTrace
10
261
20
-70.1
30
0
11
256.825003
21
-71.025575
31
0
12
256.824997
22
-69.174425
32
0
13
256.824997
23
-69.174425
33
0
39
0
210
0
220
0
230
1
0
SOLID
5
3A1
100
AcDbEntity
8
SK2
62
256
6
ByLayer
370
18
48
1
60
0
100
AcDbTrace
10
6.1882
20
-70.1
30
0
11
10.363197
21
-69.174425
31
0
12
10.363203
22
-71.025575
32
0
13
10.363203
23
-71.025575
33
0
39
0
210
0
220
0
230
1
0
ENDBLK
5
3A3
100
AcDbEntity
8
0
100
AcDbBlockEnd
0
BLOCK
5
3A8
100
AcDbEntity
8
0
100
AcDbBlockBegin
2
*D7
70
1
10
0
20
0
30
0
3
*D7
0
LINE
5
3AA
100
AcDbEntity
8
0
62
256
6
ByLayer
370
-2
48
1
60
0
100
AcDbLine
10
36
20
-29.0875
30
0
11
36
21
-63.275
31
0
39
0
210
0
220
0
230
1
0
LINE
5
3AB
100
AcDbEntity
8
0
62
256
6
ByLayer
370
-2
48
1
60
0
100
AcDbLine
10
261
20
-29.0875
30
0
11
261
21
-63.275
31
0
39
0
210
0
220
0
230
1
0
LINE
5
3AC
100
AcDbEntity
8
0
62
256
6
ByLayer
370
-2
48
1
60
0
100
AcDbLine
10
40.175
20
-60.1
30
0
11
256.825
21
-60.1
31
0
39
0
210
0
220
0
230
1
0
SOLID
5
3AD
100
AcDbEntity
8
0
62
256
6
ByLayer
370
-1
48
1
60
0
100
AcDbTrace
10
40.175
20
-59.404167
30
0
11
40.175
21
-60.795833
31
0
12
36
22
-60.1
32
0
13
36
23
-60.1
33
0
39
0
210
0
220
0
230
1
0
SOLID
5
3AE
100
AcDbEntity
8
0
62
256
6
ByLayer
370
-1
48
1
60
0
100
AcDbTrace
10
256.825
20
-60.795833
30
0
11
256.825
21
-59.404167
31
0
12
261
22
-60.1
32
0
13
261
23
-60.1
33
0
39
0
210
0
220
0
230
1
0
MTEXT
5
3AF
100
AcDbEntity
8
0
62
256
6
ByLayer
370
18
48
1
60
0
100
AcDbMText
10
148.5
20
-50.70625
30
0
210
0
220
0
230
1
1
\A1;225
40
4.5
41
0
44
1
50
0
71
5
72
5
7
iso_b_vert
0
POINT
5
3B0
100
AcDbEntity
8
Defpoints
62
0
6
ByLayer
370
-1
48
1
60
0
100
AcDbPoint
10
36
20
-27.5
30
0
39
0
210
0
220
0
230
1
50
360
0
POINT
5
3B1
100
AcDbEntity
8
Defpoints
62
0
6
ByLayer
370
-1
48
1
60
0
100
AcDbPoint
10
261
20
-27.5
30
0
39
0
210
0
220
0
230
1
50
360
0
POINT
5
3B2
100
AcDbEntity
8
Defpoints
62
0
6
ByLayer
370
-1
48
1
60
0
100
AcDbPoint
10
261
20
-60.1
30
0
39
0
210
0
220
0
230
1
50
360
0
ENDBLK
5
3A9
100
AcDbEntity
8
0
100
AcDbBlockEnd
0
BLOCK
5
3BA
100
AcDbEntity
8
0
100
AcDbBlockBegin
2
_U3
70
0
10
0
20
0
30
0
3
_U3
0
MTEXT
5
3B4
100
AcDbEntity
8
SK2
62
256
6
ByLayer
370
18
48
1
60
0
100
AcDbMText
10
144.369387
20
-58.772328
30
0
210
0
220
0
230
1
1
\W0.7138;225
40
4.5
41
0
44
1.084337
50
0
71
7
72
5
7
iso_b_vert
0
LINE
5
3B5
100
AcDbEntity
8
SK2
62
256
6
ByLayer
370
13
48
1
60
0
100
AcDbLine
10
36
20
-29.0875
30
0
11
36
21
-63.275
31
0
39
0
210
0
220
0
230
1
0
LINE
5
3B6
100
AcDbEntity
8
SK2
62
256
6
ByLayer
370
13
48
1
60
0
100
AcDbLine
10
261
20
-29.0875
30
0
11
261
21
-63.275
31
0
39
0
210
0
220
0
230
1
0
LINE
5
3B7
100
AcDbEntity
8
SK2
62
256
6
ByLayer
370
13
48
1
60
0
100
AcDbLine
10
36
20
-60.1
30
0
11
261
21
-60.1
31
0
39
0
210
0
220
0
230
1
0
SOLID
5
3B8
100
AcDbEntity
8
SK2
62
256
6
ByLayer
370
18
48
1
60
0
100
AcDbTrace
10
36
20
-60.1
30
0
11
40.174997
21
-59.174425
31
0
12
40.175003
22
-61.025575
32
0
13
40.175003
23
-61.025575
33
0
39
0
210
0
220
0
230
1
0
SOLID
5
3B9
100
AcDbEntity
8
SK2
62
256
6
ByLayer
370
18
48
1
60
0
100
AcDbTrace
10
261
20
-60.1
30
0
11
256.825003
21
-61.025575
31
0
12
256.824997
22
-59.174425
32
0
13
256.824997
23
-59.174425
33
0
39
0
210
0
220
0
230
1
0
ENDBLK
5
3BB
100
AcDbEntity
8
0
100
AcDbBlockEnd
0
BLOCK
5
3C0
100
AcDbEntity
8
0
100
AcDbBlockBegin
2
*D9
70
1
10
0
20
0
30
0
3
*D9
0
LINE
5
3C2
100
AcDbEntity
8
0
62
256
6
ByLayer
370
-2
48
1
60
0
100
AcDbLine
10
259.4109
20
-15.3375
30
0
11
259.4109
21
-53.275
31
0
39
0
210
0
220
0
230
1
0
LINE
5
3C3
100
AcDbEntity
8
0
62
256
6
ByLayer
370
-2
48
1
60
0
100
AcDbLine
10
261
20
-1.5875
30
0
11
261
21
-53.275
31
0
39
0
210
0
220
0
230
1
0
LINE
5
3C4
100
AcDbEntity
8
0
62
256
6
ByLayer
370
-2
48
1
60
0
100
AcDbLine
10
261
20
-50.1
30
0
11
296.494643
21
-50.1
31
0
39
0
210
0
220
0
230
1
0
LINE
5
3C5
100
AcDbEntity
8
0
62
256
6
ByLayer
370
-2
48
1
60
0
100
AcDbLine
10
255.2359
20
-50.1
30
0
11
251.0609
21
-50.1
31
0
39
0
210
0
220
0
230
1
0
LINE
5
3C6
100
AcDbEntity
8
0
62
256
6
ByLayer
370
-2
48
1
60
0
100
AcDbLine
10
265.175
20
-50.1
30
0
11
269.35
21
-50.1
31
0
39
0
210
0
220
0
230
1
0
SOLID
5
3C7
100
AcDbEntity
8
0
62
256
6
ByLayer
370
-1
48
1
60
0
100
AcDbTrace
10
255.2359
20
-50.795833
30
0
11
255.2359
21
-49.404167
31
0
12
259.4109
22
-50.1
32
0
13
259.4109
23
-50.1
33
0
39
0
210
0
220
0
230
1
0
SOLID
5
3C8
100
AcDbEntity
8
0
62
256
6
ByLayer
370
-1
48
1
60
0
100
AcDbTrace
10
265.175
20
-49.404167
30
0
11
265.175
21
-50.795833
31
0
12
261
22
-50.1
32
0
13
261
23
-50.1
33
0
39
0
210
0
220
0
230
1
0
MTEXT
5
3C9
100
AcDbEntity
8
0
62
256
6
ByLayer
370
18
48
1
60
0
100
AcDbMText
10
282.922321
20
-40.70625
30
0
210
0
220
0
230
1
1
\A1;1.59
40
4.5
41
0
44
1
50
0
71
5
72
5
7
iso_b_vert
0
POINT
5
3CA
100
AcDbEntity
8
Defpoints
62
0
6
ByLayer
370
-1
48
1
60
0
100
AcDbPoint
10
259.4109
20
-13.75
30
0
39
0
210
0
220
0
230
1
50
360
0
POINT
5
3CB
100
AcDbEntity
8
Defpoints
62
0
6
ByLayer
370
-1
48
1
60
0
100
AcDbPoint
10
261
20
0
30
0
39
0
210
0
220
0
230
1
50
360
0
POINT
5
3CC
100
AcDbEntity
8
Defpoints
62
0
6
ByLayer
370
-1
48
1
60
0
100
AcDbPoint
10
261
20
-50.1
30
0
39
0
210
0
220
0
230
1
50
360
0
ENDBLK
5
3C1
100
AcDbEntity
8
0
100
AcDbBlockEnd
0
BLOCK
5
3D4
100
AcDbEntity
8
0
100
AcDbBlockBegin
2
_U4
70
0
10
0
20
0
30
0
3
_U4
0
MTEXT
5
3CE
100
AcDbEntity
8
2
62
256
6
ByLayer
370
18
48
1
60
0
100
AcDbMText
10
273.351
20
-48.772328
30
0
210
0
220
0
230
1
1
\W0.6662;1.59
40
4.5
41
0
44
1.084337
50
0
71
7
72
5
7
iso_b_vert
0
LINE
5
3CF
100
AcDbEntity
8
2
62
256
6
ByLayer
370
13
48
1
60
0
100
AcDbLine
10
259.4109
20
-15.3375
30
0
11
259.4109
21
-53.275
31
0
39
0
210
0
220
0
230
1
0
LINE
5
3D0
100
AcDbEntity
8
2
62
256
6
ByLayer
370
13
48
1
60
0
100
AcDbLine
10
261
20
-1.5875
30
0
11
261
21
-53.275
31
0
39
0
210
0
220
0
230
1
0
LINE
5
3D1
100
AcDbEntity
8
2
62
256
6
ByLayer
370
13
48
1
60
0
100
AcDbLine
10
282.549041
20
-50.1
30
0
11
248.1609
21
-50.1
31
0
39
0
210
0
220
0
230
1
0
SOLID
5
3D2
100
AcDbEntity
8
2
62
256
6
ByLayer
370
18
48
1
60
0
100
AcDbTrace
10
259.4109
20
-50.1
30
0
11
255.235903
21
-51.025575
31
0
12
255.235897
22
-49.174425
32
0
13
255.235897
23
-49.174425
33
0
39
0
210
0
220
0
230
1
0
SOLID
5
3D3
100
AcDbEntity
8
2
62
256
6
ByLayer
370
18
48
1
60
0
100
AcDbTrace
10
261
20
-50.1
30
0
11
265.174997
21
-49.174425
31
0
12
265.175003
22
-51.025575
32
0
13
265.175003
23
-51.025575
33
0
39
0
210
0
220
0
230
1
0
ENDBLK
5
3D5
100
AcDbEntity
8
0
100
AcDbBlockEnd
0
ENDSEC
0
SECTION
2
ENTITIES
0
ARC
5
18F
100
AcDbEntity
8
SK1
62
256
6
ByLayer
370
13
48
1
60
0
100
AcDbCircle
39
0
10
-77.894505
20
-25.396
30
0
40
0.799999999999979
210
0
220
0
230
1
100
AcDbArc
50
70.982
51
141
0
ARC
5
190
100
AcDbEntity
8
SK1
62
256
6
ByLayer
370
13
48
1
60
0
100
AcDbCircle
39
0
10
-77.894505
20
25.396
30
0
40
0.799999999999979
210
0
220
0
230
1
100
AcDbArc
50
219
51
289.018
0
ARC
5
191
100
AcDbEntity
8
SK1
62
256
6
ByLayer
370
13
48
1
60
0
100
AcDbCircle
39
0
10
-0.15
20
25.146
30
0
40
0.399999999999999
210
0
220
0
230
1
100
AcDbArc
50
270
51
292.024313
0
ARC
5
192
100
AcDbEntity
8
SK1
62
256
6
ByLayer
370
13
48
1
60
0
100
AcDbCircle
39
0
10
-0.15
20
-25.146
30
0
40
0.399999999999999
210
0
220
0
230
1
100
AcDbArc
50
67.975687
51
90
0
ARC
5
193
100
AcDbEntity
8
SK1
62
256
6
ByLayer
370
13
48
1
60
0
100
AcDbCircle
39
0
10
-1.375195
20
25.146
30
0
40
0.400000000000004
210
0
220
0
230
1
100
AcDbArc
50
245
51
270
0
ARC
5
194
100
AcDbEntity
8
SK1
62
256
6
ByLayer
370
13
48
1
60
0
100
AcDbCircle
39
0
10
-1.375195
20
-25.146
30
0
40
0.400000000000004
210
0
220
0
230
1
100
AcDbArc
50
90
51
115
0
ARC
5
195
100
AcDbEntity
8
1
62
256
6
ByLayer
370
13
48
1
60
0
100
AcDbCircle
39
0
10
257.075268
20
25.693509
30
0
40
0.2
210
0
220
0
230
1
100
AcDbArc
50
8.973565
51
93
0
ARC
5
196
100
AcDbEntity
8
1
62
256
6
ByLayer
370
13
48
1
60
0
100
AcDbCircle
39
0
10
257.266338
20
9.437759
30
0
40
0.2
210
0
220
0
230
1
100
AcDbArc
50
273
51
352.54557
0
ARC
5
197
100
AcDbEntity
8
1
62
256
6
ByLayer
370
13
48
1
60
0
100
AcDbCircle
39
0
10
242.869
20
24.683271
30
0
40
0.2
210
0
220
0
230
1
100
AcDbArc
50
79.98854
51
93
0
ARC
5
198
100
AcDbEntity
8
1
62
256
6
ByLayer
370
13
48
1
60
0
100
AcDbCircle
39
0
10
243.060069
20
8.427521
30
0
40
0.2
210
0
220
0
230
1
100
AcDbArc
50
273
51
303.773583
0
ELLIPSE
5
199
100
AcDbEntity
8
1
62
256
6
ByLayer
370
13
48
1
60
0
100
AcDbEllipse
10
260.148842
20
17.688984
30
0
11
0.0366351693700628
21
-0.699040674328241
31
0
210
0
220
0
230
1
40
0.995562
41
1.38753675533532
42
1.67551608191463
0
ELLIPSE
5
19A
100
AcDbEntity
8
1
62
256
6
ByLayer
370
13
48
1
60
0
100
AcDbEllipse
10
241.82213
20
8.637213
30
0
11
0.0994383168615935
21
-1.89739611603369
31
0
210
0
220
0
230
1
40
0.995562
41
-0.0245785262974103
42
-0.00872664626128378
0
ELLIPSE
5
19B
100
AcDbEntity
8
1
62
256
6
ByLayer
370
13
48
1
60
0
100
AcDbEllipse
10
259.661203
20
9.740963
30
0
11
0.148732254109667
21
-0.0194606420104133
31
0
210
0
220
0
230
1
40
0.01715
41
-1.66347501627856
42
-0.0926786894795107
0
ELLIPSE
5
19C
100
AcDbEntity
8
1
62
256
6
ByLayer
370
13
48
1
60
0
100
AcDbEllipse
10
241.454869
20
16.328662
30
0
11
-0.14816406172834
21
-0.0233968120084906
31
0
210
0
220
0
230
1
40
0.009837
41
-3.04785814605994
42
-1.47706181927104
0
ELLIPSE
5
19D
100
AcDbEntity
8
1
62
256
6
ByLayer
370
13
48
1
60
0
100
AcDbEllipse
10
257.986691
20
27.183086
30
0
11
0.147123305935861
21
-0.029235814517526
31
0
210
0
220
0
230
1
40
0.023245
41
3.05024863021846
42
-1.66214035016936
0
ELLIPSE
5
19E
100
AcDbEntity
8
1
62
256
6
ByLayer
370
13
48
1
60
0
100
AcDbEllipse
10
242.869
20
24.683271
30
0
11
0.198309672146223
21
-0.0259475226805511
31
0
210
0
220
0
230
1
40
0.01715
41
1.47811763731419
42
3.04891396411654
0
ELLIPSE
5
19F
100
AcDbEntity
8
1
62
256
6
ByLayer
370
13
48
1
60
0
100
AcDbEllipse
10
258.728584
20
26.682995
30
0
11
0.0366351693700617
21
-0.699040674328219
31
0
210
0
220
0
230
1
40
0.995562
41
1.67551608191472
42
3.06145142476619
0
ELLIPSE
5
1A0
100
AcDbEntity
8
1
62
256
6
ByLayer
370
13
48
1
60
0
100
AcDbEllipse
10
243.060069
20
8.427521
30
0
11
0.197552082304459
21
0.0311957493446173
31
0
210
0
220
0
230
1
40
0.009837
41
-3.04785814606266
42
-1.47706181926734
0
ELLIPSE
5
1A1
100
AcDbEntity
8
1
62
256
6
ByLayer
370
13
48
1
60
0
100
AcDbEllipse
10
255.79467
20
27.624721
30
0
11
-0.109905508107399
21
2.09712202298476
31
0
210
0
220
0
230
1
40
0.995562
41
-2.42263142025916
42
-1.82037975281686
0
ELLIPSE
5
1A2
100
AcDbEntity
8
1
62
256
6
ByLayer
370
13
48
1
60
0
100
AcDbEllipse
10
257.607711
20
9.396268
30
0
11
-0.0420204304824571
21
-0.159048282700815
31
0
210
0
220
0
230
1
40
0.081731
41
-1.5445624850852
42
0.0262338416887086
0
ELLIPSE
5
1A3
100
AcDbEntity
8
1
62
256
6
ByLayer
370
13
48
1
60
0
100
AcDbEllipse
10
249.652645
20
24.979647
30
0
11
0.0104671912485888
21
-0.199725906950915
31
0
210
0
220
0
230
1
40
0.094108
41
1.5707963267949
42
3.14159265358677
0
ELLIPSE
5
1A4
100
AcDbEntity
8
1
62
256
6
ByLayer
370
13
48
1
60
0
100
AcDbEllipse
10
257.075268
20
25.693509
30
0
11
-0.111182483439557
21
0.16624817405377
31
0
210
0
220
0
230
1
40
0.080951
41
-1.61896516661963
42
-0.0481688398244706
0
ELLIPSE
5
1A5
100
AcDbEntity
8
1
62
256
6
ByLayer
370
13
48
1
60
0
100
AcDbEllipse
10
241.803334
20
8.636228
30
0
11
-0.0915879234228321
21
1.74760168582062
31
0
210
0
220
0
230
1
40
0.995562
41
3.11701412729367
42
3.13286600732981
0
ELLIPSE
5
1A6
100
AcDbEntity
8
1
62
256
6
ByLayer
370
13
48
1
60
0
100
AcDbEllipse
10
255.155611
20
27.591229
30
0
11
0.104671912485888
21
-1.99725906950915
31
0
210
0
220
0
230
1
40
0.995562
41
0
42
0.289833749674018
0
ELLIPSE
5
1A7
100
AcDbEntity
8
1
62
256
6
ByLayer
370
13
48
1
60
0
100
AcDbEllipse
10
258.294412
20
25.482832
30
0
11
-0.0915879234228321
21
1.74760168582062
31
0
210
0
220
0
230
1
40
0.995562
41
-0.0245785262960212
42
-0.00872664625993993
0
ELLIPSE
5
1A8
100
AcDbEntity
8
1
62
256
6
ByLayer
370
13
48
1
60
0
100
AcDbEllipse
10
240.467627
20
24.365704
30
0
11
-0.0433887818419997
21
-0.261709360236741
31
0
210
0
220
0
230
1
40
0.938419
41
-2.83001826190331
42
-1.53436336026569
0
ELLIPSE
5
1A9
100
AcDbEntity
8
1
62
256
6
ByLayer
370
13
48
1
60
0
100
AcDbEllipse
10
258.308508
20
25.483571
30
0
11
0.0994383168615935
21
-1.89739611603369
31
0
210
0
220
0
230
1
40
0.995562
41
3.11701412729377
42
3.13286600732986
0
ELLIPSE
5
1AA
100
AcDbEntity
8
1
62
256
6
ByLayer
370
13
48
1
60
0
100
AcDbEllipse
10
256.867557
20
7.152815
30
0
11
-0.104671912483237
21
1.99725906950929
31
0
210
0
220
0
230
1
40
0.995562
41
-0.289833749671392
42
1.3417751413061E-12
0
ELLIPSE
5
1AB
100
AcDbEntity
8
1
62
256
6
ByLayer
370
13
48
1
60
0
100
AcDbEllipse
10
242.139249
20
6.937451
30
0
11
-0.147123305935861
21
0.0292358145175225
31
0
210
0
220
0
230
1
40
0.023245
41
1.47945230342085
42
3.05024863021438
0
ELLIPSE
5
1AC
100
AcDbEntity
8
1
62
256
6
ByLayer
370
13
48
1
60
0
100
AcDbEllipse
10
260.134745
20
17.688245
30
0
11
-0.0287847759328921
21
0.549246244115093
31
0
210
0
220
0
230
1
40
0.995562
41
-1.75405589825441
42
-1.46607657167522
0
ELLIPSE
5
1AD
100
AcDbEntity
8
1
62
256
6
ByLayer
370
13
48
1
60
0
100
AcDbEllipse
10
259.132933
20
8.548975
30
0
11
-0.0433887735479229
21
-0.261709364575741
31
0
210
0
220
0
230
1
40
0.938419
41
0.311574358612045
42
0.505433106452764
0
ELLIPSE
5
1AE
100
AcDbEntity
8
1
62
256
6
ByLayer
370
13
48
1
60
0
100
AcDbEllipse
10
258.033324
20
27.22323
30
0
11
-0.00653707867981097
21
0.149857487641872
31
0
210
0
220
0
230
1
40
0.094105
41
0.000824900282309094
42
1.57162122708202
0
ELLIPSE
5
1AF
100
AcDbEntity
8
1
62
256
6
ByLayer
370
13
48
1
60
0
100
AcDbEllipse
10
242.813506
20
8.074024
30
0
11
0.00523359562429434
21
-0.0998629534754564
31
0
210
0
220
0
230
1
40
0.995562
41
0.718961233329108
42
1.67551608191305
0
ELLIPSE
5
1B0
100
AcDbEntity
8
1
62
256
6
ByLayer
370
13
48
1
60
0
100
AcDbEllipse
10
249.981192
20
17.055983
30
0
11
0.156043507061194
21
-2.97748748746712
31
0
210
0
220
0
230
1
40
0.995562
41
0
42
6.28318530717959
0
ELLIPSE
5
1B1
100
AcDbEntity
8
1
62
256
6
ByLayer
370
13
48
1
60
0
100
AcDbEllipse
10
255.775874
20
27.623736
30
0
11
0.117755901546624
21
-2.2469164531978
31
0
210
0
220
0
230
1
40
0.995562
41
0.730529197227908
42
1.32121290077163
0
ELLIPSE
5
1B2
100
AcDbEntity
8
1
62
256
6
ByLayer
370
13
48
1
60
0
100
AcDbEllipse
10
244.321872
20
6.495324
30
0
11
0.117755901546624
21
-2.2469164531978
31
0
210
0
220
0
230
1
40
0.995562
41
-2.41106345636195
42
-1.82037975281821
0
ELLIPSE
5
1B3
100
AcDbEntity
8
1
62
256
6
ByLayer
370
13
48
1
60
0
100
AcDbEllipse
10
244.340668
20
6.496309
30
0
11
-0.109905508107399
21
2.09712202298476
31
0
210
0
220
0
230
1
40
0.995562
41
0.718961233328001
42
1.32121290077025
0
ELLIPSE
5
1B4
100
AcDbEntity
8
1
62
256
6
ByLayer
370
13
48
1
60
0
100
AcDbEllipse
10
241.608127
20
15.633487
30
0
11
-0.45793961711416
21
8.73800842910313
31
0
210
0
220
0
230
1
40
0.995562
41
3.06145142476614
42
3.11701412729371
0
ELLIPSE
5
1B5
100
AcDbEntity
8
1
62
256
6
ByLayer
370
13
48
1
60
0
100
AcDbEllipse
10
240.716819
20
26.279993
30
0
11
-0.300422843310513
21
0.183688194599001
31
0
210
0
220
0
230
1
40
0.473311
41
-1.92529218179776
42
-0.778612206220137
0
ELLIPSE
5
1B6
100
AcDbEntity
8
1
62
256
6
ByLayer
370
13
48
1
60
0
100
AcDbEllipse
10
242.290657
20
16.461435
30
0
11
-0.0366351693691329
21
0.699040674328253
31
0
210
0
220
0
230
1
40
0.995562
41
1.38753675533552
42
1.67551608191468
0
ELLIPSE
5
1B7
100
AcDbEntity
8
1
62
256
6
ByLayer
370
13
48
1
60
0
100
AcDbEllipse
10
257.266338
20
9.437759
30
0
11
0.0347690313662881
21
0.196954599991597
31
0
210
0
220
0
230
1
40
0.091713
41
-3.1204029628404
42
-1.54960663601664
0
ELLIPSE
5
1B8
100
AcDbEntity
8
1
62
256
6
ByLayer
370
13
48
1
60
0
100
AcDbEllipse
10
259.665902
20
9.74121
30
0
11
0.00785039343644143
21
-0.149794430213183
31
0
210
0
220
0
230
1
40
0.995562
41
0.113446401376986
42
1.38753675533663
0
ELLIPSE
5
1B9
100
AcDbEntity
8
1
62
256
6
ByLayer
370
13
48
1
60
0
100
AcDbEllipse
10
259.667711
20
9.755326
30
0
11
-0.0433887818411022
21
-0.261709360236944
31
0
210
0
220
0
230
1
40
0.938419
41
0.311574391684041
42
1.60722929332088
0
ELLIPSE
5
1BA
100
AcDbEntity
8
1
62
256
6
ByLayer
370
13
48
1
60
0
100
AcDbEllipse
10
242.076336
20
6.946521
30
0
11
-0.002616797812081
21
0.0499314767377339
31
0
210
0
220
0
230
1
40
0.995562
41
3.13286600733167
42
-1.82037975281813
0
ELLIPSE
5
1BB
100
AcDbEntity
8
1
62
256
6
ByLayer
370
13
48
1
60
0
100
AcDbEllipse
10
242.295356
20
16.461681
30
0
11
0.0366351693700609
21
-0.699040674328205
31
0
210
0
220
0
230
1
40
0.995562
41
-1.75405589825427
42
-1.46607657167512
0
ELLIPSE
5
1BC
100
AcDbEntity
8
1
62
256
6
ByLayer
370
13
48
1
60
0
100
AcDbEllipse
10
257.983564
20
27.184905
30
0
11
0.0126644888425802
21
-0.241652842685486
31
0
210
0
220
0
230
1
40
0.995562
41
-2.96705972838924
42
-1.82037975281674
0
ELLIPSE
5
1BD
100
AcDbEntity
8
1
62
256
6
ByLayer
370
13
48
1
60
0
100
AcDbEllipse
10
242.438446
20
26.92476
30
0
11
-2.483021491261
21
1.51818794575547
31
0
210
0
220
0
230
1
40
0.473314
41
1.21629629512321
42
1.24195392941919
0
ELLIPSE
5
1BE
100
AcDbEntity
8
1
62
256
6
ByLayer
370
13
48
1
60
0
100
AcDbEllipse
10
257.321831
20
26.047005
30
0
11
0.00523359562429434
21
-0.0998629534754564
31
0
210
0
220
0
230
1
40
0.995562
41
-2.42263142025806
42
-1.46607657167418
0
ELLIPSE
5
1BF
100
AcDbEntity
8
1
62
256
6
ByLayer
370
13
48
1
60
0
100
AcDbEllipse
10
250.086465
20
17.0615
30
0
11
0.164592752017135
21
-3.14061679904835
31
0
210
0
220
0
230
1
40
0.995562
41
0
42
6.28318530717959
0
ELLIPSE
5
1C0
100
AcDbEntity
8
1
62
256
6
ByLayer
370
13
48
1
60
0
100
AcDbEllipse
10
241.626923
20
15.634472
30
0
11
0.465790010562201
21
-8.88780285931571
31
0
210
0
220
0
230
1
40
0.995562
41
-0.0801412288249674
42
-0.0245785262973968
0
ELLIPSE
5
1C1
100
AcDbEntity
8
1
62
256
6
ByLayer
370
13
48
1
60
0
100
AcDbEllipse
10
241.803716
20
16.383579
30
0
11
-0.197552082304453
21
-0.0311957493446541
31
0
210
0
220
0
230
1
40
0.009837
41
0.0937345075280373
42
1.6645308343235
0
ELLIPSE
5
1C2
100
AcDbEntity
8
1
62
256
6
ByLayer
370
13
48
1
60
0
100
AcDbEllipse
10
255.672296
20
27.618307
30
0
11
-1.74911089440321
21
-1.53532677657525
31
0
210
0
220
0
230
1
40
0.758703
41
1.05561565777765
42
2.06133695402502
0
ELLIPSE
5
1C3
100
AcDbEntity
8
1
62
256
6
ByLayer
370
13
48
1
60
0
100
AcDbEllipse
10
258.232107
20
27.231901
30
0
11
-0.00653707867981097
21
0.149857487641872
31
0
210
0
220
0
230
1
40
0.094105
41
0.000824900282309094
42
1.57162122708202
0
ELLIPSE
5
1C4
100
AcDbEntity
8
1
62
256
6
ByLayer
370
13
48
1
60
0
100
AcDbEllipse
10
242.518229
20
24.724269
30
0
11
-0.0420204304821679
21
-0.159048282701631
31
0
210
0
220
0
230
1
40
0.081731
41
-3.11535881188812
42
-1.54456248511989
0
ELLIPSE
5
1C5
100
AcDbEntity
8
1
62
256
6
ByLayer
370
13
48
1
60
0
100
AcDbEllipse
10
250.482693
20
9.141383
30
0
11
0.0104671912485888
21
-0.199725906950915
31
0
210
0
220
0
230
1
40
0.094108
41
0
42
1.5707963267949
0
ELLIPSE
5
1C6
100
AcDbEntity
8
1
62
256
6
ByLayer
370
13
48
1
60
0
100
AcDbEllipse
10
241.402055
20
7.437789
30
0
11
0.0366351693700617
21
-0.699040674328219
31
0
210
0
220
0
230
1
40
0.995562
41
-1.46607657167647
42
-0.0801412288249955
0
ELLIPSE
5
1C7
100
AcDbEntity
8
1
62
256
6
ByLayer
370
13
48
1
60
0
100
AcDbEllipse
10
258.508414
20
18.486558
30
0
11
0.465790010562201
21
-8.88780285931571
31
0
210
0
220
0
230
1
40
0.995562
41
3.06145142476752
42
3.11701412729508
0
ELLIPSE
5
1C8
100
AcDbEntity
8
1
62
256
6
ByLayer
370
13
48
1
60
0
100
AcDbEllipse
10
259.661203
20
9.740963
30
0
11
0.00785039343644143
21
-0.149794430213183
31
0
210
0
220
0
230
1
40
0.995562
41
0.113446401375029
42
1.38753675533509
0
ELLIPSE
5
1C9
100
AcDbEntity
8
1
62
256
6
ByLayer
370
13
48
1
60
0
100
AcDbEllipse
10
242.518229
20
24.724269
30
0
11
-0.157457627827294
21
-0.0472734989270061
31
0
210
0
220
0
230
1
40
0.020424
41
-3.05807782802116
42
-1.48728150135293
0
ELLIPSE
5
1CA
100
AcDbEntity
8
1
62
256
6
ByLayer
370
13
48
1
60
0
100
AcDbEllipse
10
258.489618
20
18.485573
30
0
11
-0.45793961711416
21
8.73800842910313
31
0
210
0
220
0
230
1
40
0.995562
41
-0.0801412288235909
42
-0.0245785262960205
0
ELLIPSE
5
1CB
100
AcDbEntity
8
1
62
256
6
ByLayer
370
13
48
1
60
0
100
AcDbEllipse
10
258.743666
20
27.232773
30
0
11
0.00422000339726409
21
0.149940626820509
31
0
210
0
220
0
230
1
40
0.093806
41
0.00756732553151094
42
1.57836365232731
0
ELLIPSE
5
1CC
100
AcDbEntity
8
1
62
256
6
ByLayer
370
13
48
1
60
0
100
AcDbEllipse
10
242.581048
20
24.784968
30
0
11
0.00523359562429421
21
-0.0998629534754539
31
0
210
0
220
0
230
1
40
0.995562
41
1.38753675533518
42
-3.02814625221272
0
ELLIPSE
5
1CD
100
AcDbEntity
8
1
62
256
6
ByLayer
370
13
48
1
60
0
100
AcDbEllipse
10
259.661203
20
9.740963
30
0
11
-0.0248313114067363
21
0.147930409226169
31
0
210
0
220
0
230
1
40
0.093503
41
1.56009588092513
42
3.1308922077277
0
ELLIPSE
5
1CE
100
AcDbEntity
8
1
62
256
6
ByLayer
370
13
48
1
60
0
100
AcDbEllipse
10
258.733283
20
26.683241
30
0
11
0.0366351693700617
21
-0.699040674328219
31
0
210
0
220
0
230
1
40
0.995562
41
1.67551608191602
42
3.06145142476767
0
ELLIPSE
5
1CF
100
AcDbEntity
8
1
62
256
6
ByLayer
370
13
48
1
60
0
100
AcDbEllipse
10
257.821185
20
17.658364
30
0
11
0.0444855628065025
21
-0.848835104541391
31
0
210
0
220
0
230
1
40
0.995562
41
1.38753675533562
42
1.67551608191474
0
ELLIPSE
5
1D0
100
AcDbEntity
8
1
62
256
6
ByLayer
370
13
48
1
60
0
100
AcDbEllipse
10
255.984952
20
27.6347
30
0
11
-2.3107178015139
21
-1.76941503114586
31
0
210
0
220
0
230
1
40
0.473313
41
1.89963755540638
42
1.92529524988622
0
ELLIPSE
5
1D1
100
AcDbEntity
8
1
62
256
6
ByLayer
370
13
48
1
60
0
100
AcDbEllipse
10
257.55429
20
9.336062
30
0
11
0.00523359562429421
21
-0.0998629534754539
31
0
210
0
220
0
230
1
40
0.995562
41
-1.75405589825201
42
0.113446401379976
0
ELLIPSE
5
1D2
100
AcDbEntity
8
1
62
256
6
ByLayer
370
13
48
1
60
0
100
AcDbEllipse
10
257.764536
20
27.173426
30
0
11
-0.27957645084116
21
-0.21408466959376
31
0
210
0
220
0
230
1
40
0.473311
41
-2.36298044736825
42
-1.21630047180099
0
ELLIPSE
5
1D3
100
AcDbEntity
8
1
62
256
6
ByLayer
370
13
48
1
60
0
100
AcDbEllipse
10
257.858777
20
17.660334
30
0
11
-0.0261679781208093
21
0.499314767377325
31
0
210
0
220
0
230
1
40
0.995562
41
-1.7540558982542
42
-1.46607657167509
0
ELLIPSE
5
1D4
100
AcDbEntity
8
1
62
256
6
ByLayer
370
13
48
1
60
0
100
AcDbEllipse
10
244.340668
20
6.496309
30
0
11
-0.104671912483237
21
1.99725906950929
31
0
210
0
220
0
230
1
40
0.995562
41
0
42
1.32121290077023
0
ELLIPSE
5
1D5
100
AcDbEntity
8
1
62
256
6
ByLayer
370
13
48
1
60
0
100
AcDbEllipse
10
258.313207
20
25.483817
30
0
11
0.0994383168615935
21
-1.89739611603369
31
0
210
0
220
0
230
1
40
0.995562
41
3.117014127295
42
3.13286600733118
0
ELLIPSE
5
1D6
100
AcDbEntity
8
1
62
256
6
ByLayer
370
13
48
1
60
0
100
AcDbEllipse
10
241.893833
20
6.888636
30
0
11
0.0065370786798103
21
-0.149857487641873
31
0
210
0
220
0
230
1
40
0.094105
41
-1.56997142650759
42
0.000824900288349361
0
ELLIPSE
5
1D7
100
AcDbEntity
8
1
62
256
6
ByLayer
370
13
48
1
60
0
100
AcDbEllipse
10
260.69174
20
17.617069
30
0
11
0.148732254109667
21
-0.0194606420104133
31
0
210
0
220
0
230
1
40
0.01715
41
-1.66347501627592
42
-0.0926786894829485
0
ELLIPSE
5
1D8
100
AcDbEntity
8
1
62
256
6
ByLayer
370
13
48
1
60
0
100
AcDbEllipse
10
241.383259
20
7.436803
30
0
11
-0.028784775932891
21
0.549246244115071
31
0
210
0
220
0
230
1
40
0.995562
41
1.67551608191463
42
3.06145142476604
0
ELLIPSE
5
1D9
100
AcDbEntity
8
1
62
256
6
ByLayer
370
13
48
1
60
0
100
AcDbEllipse
10
239.963001
20
16.430814
30
0
11
-0.0287847759328921
21
0.549246244115093
31
0
210
0
220
0
230
1
40
0.995562
41
1.38753675533533
42
1.67551608191457
0
ELLIPSE
5
1DA
100
AcDbEntity
8
1
62
256
6
ByLayer
370
13
48
1
60
0
100
AcDbEllipse
10
242.751095
20
26.941136
30
0
11
-1.90001443048586
21
1.34408422197753
31
0
210
0
220
0
230
1
40
0.758703
41
1.08025569956704
42
2.08597699581076
0
ELLIPSE
5
1DB
100
AcDbEntity
8
1
62
256
6
ByLayer
370
13
48
1
60
0
100
AcDbEllipse
10
241.801813
20
16.527058
30
0
11
-0.19830967214623
21
0.0259475226804902
31
0
210
0
220
0
230
1
40
0.01715
41
-1.66347501627419
42
-0.0926786894794932
0
ELLIPSE
5
1DC
100
AcDbEntity
8
1
62
256
6
ByLayer
370
13
48
1
60
0
100
AcDbEllipse
10
242.869
20
24.683271
30
0
11
-0.0347690313662689
21
-0.196954599991601
31
0
210
0
220
0
230
1
40
0.091713
41
1.59198601757315
42
-3.12040296278306
0
ELLIPSE
5
1DD
100
AcDbEntity
8
1
62
256
6
ByLayer
370
13
48
1
60
0
100
AcDbEllipse
10
242.314152
20
16.462666
30
0
11
-0.0261679781208093
21
0.499314767377325
31
0
210
0
220
0
230
1
40
0.995562
41
1.38753675533554
42
1.6755160819147
0
ELLIPSE
5
1DE
100
AcDbEntity
8
1
62
256
6
ByLayer
370
13
48
1
60
0
100
AcDbEllipse
10
240.469436
20
24.37982
30
0
11
0.00785039343644143
21
-0.149794430213183
31
0
210
0
220
0
230
1
40
0.995562
41
-3.02814625221532
42
-1.75405589825586
0
ELLIPSE
5
1DF
100
AcDbEntity
8
1
62
256
6
ByLayer
370
13
48
1
60
0
100
AcDbEllipse
10
239.981797
20
16.431799
30
0
11
0.0366351693700628
21
-0.699040674328241
31
0
210
0
220
0
230
1
40
0.995562
41
-1.75405589825579
42
-1.46607657167655
0
ELLIPSE
5
1E0
100
AcDbEntity
8
1
62
256
6
ByLayer
370
13
48
1
60
0
100
AcDbEllipse
10
260.689646
20
17.774896
30
0
11
0.148164061728344
21
0.023396812008463
31
0
210
0
220
0
230
1
40
0.009837
41
0.0937345075177563
42
1.66453083432234
0
ELLIPSE
5
1E1
100
AcDbEntity
8
1
62
256
6
ByLayer
370
13
48
1
60
0
100
AcDbEllipse
10
258.259707
20
27.232885
30
0
11
-0.0041502446489173
21
0.149942573905326
31
0
210
0
220
0
230
1
40
0.09408
41
0.0023231166844657
42
1.57311944348265
0
ELLIPSE
5
1E2
100
AcDbEntity
8
1
62
256
6
ByLayer
370
13
48
1
60
0
100
AcDbEllipse
10
259.26377
20
8.844119
30
0
11
-0.223427027451385
21
-1.09873092809996
31
0
210
0
220
0
230
1
40
0.060635
41
1.06536316711089
42
1.2592219029275
0
ELLIPSE
5
1E3
100
AcDbEntity
8
1
62
256
6
ByLayer
370
13
48
1
60
0
100
AcDbEllipse
10
242.808807
20
8.073778
30
0
11
0.00523359562429434
21
-0.0998629534754564
31
0
210
0
220
0
230
1
40
0.995562
41
0.718961233329966
42
1.6755160819139
0
ELLIPSE
5
1E4
100
AcDbEntity
8
1
62
256
6
ByLayer
370
13
48
1
60
0
100
AcDbEllipse
10
258.503715
20
18.486312
30
0
11
0.465790010562201
21
-8.88780285931571
31
0
210
0
220
0
230
1
40
0.995562
41
3.0614514247662
42
3.11701412729377
0
ELLIPSE
5
1E5
100
AcDbEntity
8
1
62
256
6
ByLayer
370
13
48
1
60
0
100
AcDbEllipse
10
259.269388
20
26.768907
30
0
11
0.148164061728344
21
0.023396812008463
31
0
210
0
220
0
230
1
40
0.009837
41
0.0937345075322811
42
1.66453083432196
0
ELLIPSE
5
1E6
100
AcDbEntity
8
1
62
256
6
ByLayer
370
13
48
1
60
0
100
AcDbEllipse
10
255.79467
20
27.624721
30
0
11
-0.104671912483237
21
1.99725906950929
31
0
210
0
220
0
230
1
40
0.995562
41
-3.14159265358857
42
-1.82037975281688
0
ELLIPSE
5
1E7
100
AcDbEntity
8
1
62
256
6
ByLayer
370
13
48
1
60
0
100
AcDbEllipse
10
242.276561
20
16.460696
30
0
11
0.0444855628065025
21
-0.848835104541391
31
0
210
0
220
0
230
1
40
0.995562
41
-1.75405589825428
42
-1.46607657167512
0
ELLIPSE
5
1E8
100
AcDbEntity
8
1
62
256
6
ByLayer
370
13
48
1
60
0
100
AcDbEllipse
10
243.267781
20
26.968214
30
0
11
-0.104671912483237
21
1.99725906950929
31
0
210
0
220
0
230
1
40
0.995562
41
2.85175890391568
42
3.14159265358845
0
ELLIPSE
5
1E9
100
AcDbEntity
8
1
62
256
6
ByLayer
370
13
48
1
60
0
100
AcDbEllipse
10
244.335969
20
6.496063
30
0
11
-0.109905508107399
21
2.09712202298476
31
0
210
0
220
0
230
1
40
0.995562
41
0.718961233329277
42
1.32121290077156
0
ELLIPSE
5
1EA
100
AcDbEntity
8
1
62
256
6
ByLayer
370
13
48
1
60
0
100
AcDbEllipse
10
258.040205
20
27.173524
30
0
11
0.0104671912485889
21
-0.199725906950916
31
0
210
0
220
0
230
1
40
0.995562
41
3.13286600733367
42
-1.82037975281667
0
ELLIPSE
5
1EB
100
AcDbEntity
8
1
62
256
6
ByLayer
370
13
48
1
60
0
100
AcDbEllipse
10
242.151774
20
6.936125
30
0
11
0.0126644888425802
21
-0.241652842685486
31
0
210
0
220
0
230
1
40
0.995562
41
0.174532925197947
42
1.32121290077038
0
ELLIPSE
5
1EC
100
AcDbEntity
8
1
62
256
6
ByLayer
370
13
48
1
60
0
100
AcDbEllipse
10
258.714487
20
26.682256
30
0
11
-0.028784775932891
21
0.549246244115071
31
0
210
0
220
0
230
1
40
0.995562
41
-1.46607657167512
42
-0.0801412288235379
0
ELLIPSE
5
1ED
100
AcDbEntity
8
1
62
256
6
ByLayer
370
13
48
1
60
0
100
AcDbEllipse
10
258.02141
20
27.172539
30
0
11
-0.002616797812081
21
0.0499314767377339
31
0
210
0
220
0
230
1
40
0.995562
41
-0.00872664625639429
42
1.32121290077166
0
ELLIPSE
5
1EE
100
AcDbEntity
8
1
62
256
6
ByLayer
370
13
48
1
60
0
100
AcDbEllipse
10
260.153541
20
17.68923
30
0
11
0.0366351693700628
21
-0.699040674328241
31
0
210
0
220
0
230
1
40
0.995562
41
1.38753675533673
42
1.67551608191594
0
ELLIPSE
5
1EF
100
AcDbEntity
8
1
62
256
6
ByLayer
370
13
48
1
60
0
100
AcDbEllipse
10
257.839981
20
17.659349
30
0
11
0.0366351693700609
21
-0.699040674328205
31
0
210
0
220
0
230
1
40
0.995562
41
1.38753675533556
42
1.67551608191472
0
ELLIPSE
5
1F0
100
AcDbEntity
8
1
62
256
6
ByLayer
370
13
48
1
60
0
100
AcDbEllipse
10
241.451633
20
16.572576
30
0
11
-0.148732254109673
21
0.0194606420103677
31
0
210
0
220
0
230
1
40
0.01715
41
1.47811763731086
42
3.0489139641096
0
ELLIPSE
5
1F1
100
AcDbEntity
8
1
62
256
6
ByLayer
370
13
48
1
60
0
100
AcDbEllipse
10
242.095132
20
6.947506
30
0
11
0.0104671912485889
21
-0.199725906950916
31
0
210
0
220
0
230
1
40
0.995562
41
-0.0087266462592681
42
1.32121290077048
0
ELLIPSE
5
1F2
100
AcDbEntity
8
1
62
256
6
ByLayer
370
13
48
1
60
0
100
AcDbEllipse
10
259.515532
20
10.746324
30
0
11
0.162241464353126
21
-3.09575155773918
31
0
210
0
220
0
230
1
40
0.995562
41
-0.998377754702052
42
-0.804393367027789
0
ELLIPSE
5
1F3
100
AcDbEntity
8
1
62
256
6
ByLayer
370
13
48
1
60
0
100
AcDbEllipse
10
248.728129
20
-2.987066
30
0
11
-0.523359562416183
21
9.98629534754643
31
0
210
0
220
0
230
1
40
0.995562
41
0
42
0.317924582301163
0
ELLIPSE
5
1F4
100
AcDbEntity
8
1
62
256
6
ByLayer
370
13
48
1
60
0
100
AcDbEllipse
10
241.855876
20
9.400245
30
0
11
0.162241464353126
21
-3.09575155773918
31
0
210
0
220
0
230
1
40
0.995562
41
-2.31498441521961
42
-0.582560016270257
0
ELLIPSE
5
1F5
100
AcDbEntity
8
1
62
256
6
ByLayer
370
13
48
1
60
0
100
AcDbEllipse
10
244.762681
20
7.268202
30
0
11
0.363113722374517
21
-0.931744828063629
31
0
210
0
220
0
230
1
40
0.089392
41
-1.60033673645362
42
-0.029540409658915
0
ELLIPSE
5
1F6
100
AcDbEntity
8
1
62
256
6
ByLayer
370
13
48
1
60
0
100
AcDbEllipse
10
259.24949
20
-2.553067
30
0
11
-2.6835432379852
21
4.48529061457214
31
0
210
0
220
0
230
1
40
0.346012
41
-1.01508156708726
42
-0.878716653617179
0
ELLIPSE
5
1F7
100
AcDbEntity
8
1
62
256
6
ByLayer
370
13
48
1
60
0
100
AcDbEllipse
10
270.836987
20
-4E-06
30
0
11
-281.126157853474
21
0.132465785073169
31
0
210
0
220
0
230
1
40
0.094396
41
-1.44127462180244
42
-1.41835440510645
0
ELLIPSE
5
1F8
100
AcDbEntity
8
1
62
256
6
ByLayer
370
13
48
1
60
0
100
AcDbEllipse
10
241.090465
20
7.828032
30
0
11
-4.04277875602417
21
-0.708917705281924
31
0
210
0
220
0
230
1
40
0.014774
41
-3.02036303245615
42
-2.66133983527683
0
ELLIPSE
5
1F9
100
AcDbEntity
8
1
62
256
6
ByLayer
370
13
48
1
60
0
100
AcDbEllipse
10
245.175737
20
8.042132
30
0
11
-0.0261679781208092
21
0.499314767377322
31
0
210
0
220
0
230
1
40
0.995562
41
0.927295216956022
42
1.13183444118525
0
ELLIPSE
5
1FA
100
AcDbEntity
8
1
62
256
6
ByLayer
370
13
48
1
60
0
100
AcDbEllipse
10
259.391937
20
6.971538
30
0
11
-0.0100950835575614
21
0.500154263280666
31
0
210
0
220
0
230
1
40
0.104797
41
1.9232355508898
42
-2.78915342950659
0
ELLIPSE
5
1FB
100
AcDbEntity
8
1
62
256
6
ByLayer
370
13
48
1
60
0
100
AcDbEllipse
10
259.177064
20
0.1157
30
0
11
-0.0112316024354583
21
0.505663724975875
31
0
210
0
220
0
230
1
40
0.102025
41
-0.1308138303824
42
0.275617292123768
0
ELLIPSE
5
1FC
100
AcDbEntity
8
1
62
256
6
ByLayer
370
13
48
1
60
0
100
AcDbEllipse
10
259.192136
20
10.729376
30
0
11
-0.0979254112735892
21
3.09893788489072
31
0
210
0
220
0
230
1
40
0.52462
41
2.86799953925181
42
-3.13715011054284
0
ELLIPSE
5
1FD
100
AcDbEntity
8
1
62
256
6
ByLayer
370
13
48
1
60
0
100
AcDbEllipse
10
241.855876
20
9.400245
30
0
11
0.162241464353126
21
-3.09575155773918
31
0
210
0
220
0
230
1
40
0.995562
41
0.6158091992941
42
1.13183444118516
0
ELLIPSE
5
1FE
100
AcDbEntity
8
1
62
256
6
ByLayer
370
13
48
1
60
0
100
AcDbEllipse
10
275.621067
20
13.038967
30
0
11
-25.0389722069243
21
-4.39051157987597
31
0
210
0
220
0
230
1
40
0.014779
41
0.451658930074553
42
0.45580674624733
0
ELLIPSE
5
1FF
100
AcDbEntity
8
1
62
256
6
ByLayer
370
13
48
1
60
0
100
AcDbEllipse
10
241.586953
20
9.386151
30
0
11
-1.97200940007582
21
-2.45265018888258
31
0
210
0
220
0
230
1
40
0.965978
41
1.55736417581726
42
1.84422629187599
0
ELLIPSE
5
200
100
AcDbEntity
8
1
62
256
6
ByLayer
370
13
48
1
60
0
100
AcDbEllipse
10
240.847889
20
9.347418
30
0
11
-2.74310165107353
21
2.2055416895274
31
0
210
0
220
0
230
1
40
0.772244
41
3.13694524744523
42
-2.77548047977532
0
ELLIPSE
5
201
100
AcDbEntity
8
1
62
256
6
ByLayer
370
13
48
1
60
0
100
AcDbEllipse
10
233
20
6.566123
30
0
11
-5.85102977604383
21
1.84333691456076
31
0
210
0
220
0
230
1
40
0.720814
41
1.39276126873622
42
1.60934801637728
0
ELLIPSE
5
202
100
AcDbEntity
8
1
62
256
6
ByLayer
370
13
48
1
60
0
100
AcDbEllipse
10
244.85448
20
8.025295
30
0
11
-0.31806603226409
21
-0.395588740145122
31
0
210
0
220
0
230
1
40
0.965978
41
-2.06962855861996
42
-1.29736636172635
0
ELLIPSE
5
203
100
AcDbEntity
8
1
62
256
6
ByLayer
370
13
48
1
60
0
100
AcDbEllipse
10
258.771049
20
8.554357
30
0
11
-0.0201901671332085
21
1.00030852690003
31
0
210
0
220
0
230
1
40
0.104797
41
-3.13821927990308
42
-2.53832337426928
0
ELLIPSE
5
204
100
AcDbEntity
8
1
62
256
6
ByLayer
370
13
48
1
60
0
100
AcDbEllipse
10
5650.664178
20
-2.46973
30
0
11
-5540.33328725851
21
2.54694776520555
31
0
210
0
220
0
230
1
40
0.022556
41
-0.214693180867322
42
-0.212136705444561
0
ELLIPSE
5
205
100
AcDbEntity
8
1
62
256
6
ByLayer
370
13
48
1
60
0
100
AcDbEllipse
10
262.901903
20
2.761651
30
0
11
-5.89278982488149
21
-1.88842248185375
31
0
210
0
220
0
230
1
40
0.810151
41
-0.369618390998723
42
-0.222066320392895
0
ELLIPSE
5
206
100
AcDbEntity
8
1
62
256
6
ByLayer
370
13
48
1
60
0
100
AcDbEllipse
10
241.424245
20
15.65395
30
0
11
-0.471023606174565
21
8.98766581279179
31
0
210
0
220
0
230
1
40
0.995562
41
2.79252680319575
42
2.96271820098507
0
ELLIPSE
5
207
100
AcDbEntity
8
1
62
256
6
ByLayer
370
13
48
1
60
0
100
AcDbEllipse
10
261.841822
20
0
30
0
11
-3.22506739854011
21
-26.8098061508891
31
0
210
0
220
0
230
1
40
0.117848
41
-1.28129674801926
42
-0.0978690086464926
0
ELLIPSE
5
208
100
AcDbEntity
8
1
62
256
6
ByLayer
370
13
48
1
60
0
100
AcDbEllipse
10
259.281218
20
0.108394
30
0
11
-0.0224632048932707
21
1.01132745086729
31
0
210
0
220
0
230
1
40
0.102025
41
-0.130813830323642
42
1.05232225614113
0
ELLIPSE
5
209
100
AcDbEntity
8
1
62
256
6
ByLayer
370
13
48
1
60
0
100
AcDbEllipse
10
248.634149
20
-2.991991
30
0
11
0.575695518672383
21
-10.9849248823003
31
0
210
0
220
0
230
1
40
0.995562
41
-3.14159265358975
42
-2.82366807128863
0
ELLIPSE
5
20A
100
AcDbEntity
8
1
62
256
6
ByLayer
370
13
48
1
60
0
100
AcDbEllipse
10
258.176003
20
-18.11536
30
0
11
-0.291708494112546
21
-2.49545095173542
31
0
210
0
220
0
230
1
40
0.118453
41
0
42
6.28318530717959
0
ELLIPSE
5
20B
100
AcDbEntity
8
1
62
256
6
ByLayer
370
13
48
1
60
0
100
AcDbEllipse
10
241.883294
20
17.020933
30
0
11
0.162241464353126
21
-3.09575155773918
31
0
210
0
220
0
230
1
40
0.995562
41
-2.23430559079017
42
-1.46607657167525
0
ELLIPSE
5
20C
100
AcDbEntity
8
1
62
256
6
ByLayer
370
13
48
1
60
0
100
AcDbEllipse
10
262.359516
20
0
30
0
11
-55.8952190474822
21
23.9672089143592
31
0
210
0
220
0
230
1
40
0.203837
41
0.895494934575776
42
1.08941250617408
0
ELLIPSE
5
20D
100
AcDbEntity
8
1
62
256
6
ByLayer
370
13
48
1
60
0
100
AcDbEllipse
10
239.095321
20
11.697466
30
0
11
-0.0261679781208092
21
0.499314767377322
31
0
210
0
220
0
230
1
40
0.995562
41
-2.31498441521948
42
-1.46607657167532
0
ELLIPSE
5
20E
100
AcDbEntity
8
1
62
256
6
ByLayer
370
13
48
1
60
0
100
AcDbEllipse
10
252.067166
20
11.807962
30
0
11
-1.97200940099058
21
-2.45265018794575
31
0
210
0
220
0
230
1
40
0.965978
41
0.712391851099459
42
1.04314259889422
0
ELLIPSE
5
20F
100
AcDbEntity
8
1
62
256
6
ByLayer
370
13
48
1
60
0
100
AcDbEllipse
10
233
20
7.232777
30
0
11
-4
21
4.04255622032945E-15
31
0
210
0
220
0
230
1
40
0.760569
41
-2.6087287895573
42
-1.6924655499654
0
ELLIPSE
5
210
100
AcDbEntity
8
1
62
256
6
ByLayer
370
13
48
1
60
0
100
AcDbEllipse
10
258.956018
20
-18.058815
30
0
11
-0.0634437105525705
21
-0.51585986273988
31
0
210
0
220
0
230
1
40
0.114383
41
-1.65284310532514
42
-0.0820467785316193
0
ELLIPSE
5
211
100
AcDbEntity
8
1
62
256
6
ByLayer
370
13
48
1
60
0
100
AcDbEllipse
10
249.541145
20
8.270913
30
0
11
-4.0427787576635
21
-0.708917705576375
31
0
210
0
220
0
230
1
40
0.014774
41
-3.02036303287876
42
-2.68601592122948
0
ELLIPSE
5
212
100
AcDbEntity
8
1
62
256
6
ByLayer
370
13
48
1
60
0
100
AcDbEllipse
10
270.837017
20
-3.1E-05
30
0
11
-284.03952844034
21
0.133841408937317
31
0
210
0
220
0
230
1
40
0.094396
41
-1.46247815636883
42
-1.45325203418405
0
ELLIPSE
5
213
100
AcDbEntity
8
1
62
256
6
ByLayer
370
13
48
1
60
0
100
AcDbEllipse
10
254.033575
20
-8.837899
30
0
11
-6.03300212201551
21
-0.0236013779832583
31
0
210
0
220
0
230
1
40
0.987822
41
3.00753583739312
42
-2.98922612543839
0
ELLIPSE
5
214
100
AcDbEntity
8
1
62
256
6
ByLayer
370
13
48
1
60
0
100
AcDbEllipse
10
2004.258575
20
-8E-06
30
0
11
-3287.12456593804
21
22.4117117175583
31
0
210
0
220
0
230
1
40
0.004477
41
1.00339692783225
42
1.01037087749599
0
ELLIPSE
5
215
100
AcDbEntity
8
1
62
256
6
ByLayer
370
13
48
1
60
0
100
AcDbEllipse
10
259.130076
20
0
30
0
11
-4.57766777872329
21
26.8097584120523
31
0
210
0
220
0
230
1
40
0.083758
41
1.57714158791945
42
1.76365197378972
0
ELLIPSE
5
216
100
AcDbEntity
8
1
62
256
6
ByLayer
370
13
48
1
60
0
100
AcDbEllipse
10
256.60901
20
8.641324
30
0
11
-0.0261679781208092
21
0.499314767377323
31
0
210
0
220
0
230
1
40
0.995562
41
-0.998377754701855
42
-0.927295218001445
0
ELLIPSE
5
217
100
AcDbEntity
8
1
62
256
6
ByLayer
370
13
48
1
60
0
100
AcDbEllipse
10
264.715302
20
0.777872
30
0
11
-6.03300205081004
21
-0.0236011194169897
31
0
210
0
220
0
230
1
40
0.987822
41
0.0313922493975305
42
0.152366571355238
0
ELLIPSE
5
218
100
AcDbEntity
8
1
62
256
6
ByLayer
370
13
48
1
60
0
100
AcDbEllipse
10
248.152433
20
7.997859
30
0
11
0.0523359562429439
21
-0.998629534754574
31
0
210
0
220
0
230
1
40
0.094108
41
-1.5707963267949
42
0
0
ELLIPSE
5
219
100
AcDbEntity
8
1
62
256
6
ByLayer
370
13
48
1
60
0
100
AcDbEllipse
10
233
20
0.645216
30
0
11
-0.604406654184741
21
16.7205293757371
31
0
210
0
220
0
230
1
40
0.357015
41
-0.538924589150652
42
-0.372548072156958
0
ELLIPSE
5
21A
100
AcDbEntity
8
1
62
256
6
ByLayer
370
13
48
1
60
0
100
AcDbEllipse
10
241.424245
20
15.65395
30
0
11
-0.471023606174565
21
8.98766581279179
31
0
210
0
220
0
230
1
40
0.995562
41
-2.92946901796122
42
-2.82366807128864
0
ELLIPSE
5
21B
100
AcDbEntity
8
1
62
256
6
ByLayer
370
18
48
1
60
0
100
AcDbEllipse
10
250.04026
20
17.059078
30
0
11
0.0877359970456714
21
-1.67410255206257
31
0
210
0
220
0
230
1
40
0.995562
41
-0.523598775598307
42
0.523598775598316
0
ELLIPSE
5
21C
100
AcDbEntity
8
1
62
256
6
ByLayer
370
18
48
1
60
0
100
AcDbEllipse
10
251.13055
20
17.858886
30
0
11
-0.2133698881187
21
0.330824637127532
31
0
210
0
220
0
230
1
40
0.48863
41
0.291405465519831
42
1.57326889137863
0
ELLIPSE
5
21D
100
AcDbEntity
8
1
62
256
6
ByLayer
370
18
48
1
60
0
100
AcDbEllipse
10
249.892243
20
17.051321
30
0
11
0.0675290843402707
21
-1.28853168869383
31
0
210
0
220
0
230
1
40
0.995562
41
1.04719755119657
42
2.09439510239322
0
ELLIPSE
5
21E
100
AcDbEntity
8
1
62
256
6
ByLayer
370
18
48
1
60
0
100
AcDbEllipse
10
251.20818
20
16.377619
30
0
11
-0.177620434612586
21
-0.35131557166063
31
0
210
0
220
0
230
1
40
0.48863
41
-1.57326889139093
42
-0.291405465521485
0
ELLIPSE
5
21F
100
AcDbEntity
8
1
62
256
6
ByLayer
370
18
48
1
60
0
100
AcDbEllipse
10
249.892243
20
17.051321
30
0
11
0.0675290843402707
21
-1.28853168869383
31
0
210
0
220
0
230
1
40
0.995562
41
2.09439510239322
42
3.14159265358979
0
ELLIPSE
5
220
100
AcDbEntity
8
1
62
256
6
ByLayer
370
18
48
1
60
0
100
AcDbEllipse
10
249.814613
20
18.532588
30
0
11
-0.391813266880977
21
-0.020534063210681
31
0
210
0
220
0
230
1
40
0.491907
41
0.288932900934103
42
1.5707963267949
0
ELLIPSE
5
221
100
AcDbEntity
8
1
62
256
6
ByLayer
370
18
48
1
60
0
100
AcDbEllipse
10
250.04026
20
17.059078
30
0
11
0.0877359970456714
21
-1.67410255206257
31
0
210
0
220
0
230
1
40
0.995562
41
0.523598775598316
42
1.5707963267949
0
ELLIPSE
5
222
100
AcDbEntity
8
1
62
256
6
ByLayer
370
18
48
1
60
0
100
AcDbEllipse
10
250.04026
20
17.059078
30
0
11
0.0877359970456714
21
-1.67410255206257
31
0
210
0
220
0
230
1
40
0.995562
41
2.61799387799149
42
-2.61799387799148
0
ELLIPSE
5
223
100
AcDbEntity
8
1
62
256
6
ByLayer
370
18
48
1
60
0
100
AcDbEllipse
10
250.04026
20
17.059078
30
0
11
0.0877359970456714
21
-1.67410255206257
31
0
210
0
220
0
230
1
40
0.995562
41
1.5707963267949
42
2.61799387799149
0
ELLIPSE
5
224
100
AcDbEntity
8
1
62
256
6
ByLayer
370
18
48
1
60
0
100
AcDbEllipse
10
250.04026
20
17.059078
30
0
11
0.0877359970456714
21
-1.67410255206257
31
0
210
0
220
0
230
1
40
0.995562
41
-2.61799387799148
42
-1.5707963267949
0
ELLIPSE
5
225
100
AcDbEntity
8
1
62
256
6
ByLayer
370
18
48
1
60
0
100
AcDbEllipse
10
251.20818
20
16.377619
30
0
11
-0.177620434615925
21
-0.351315571660106
31
0
210
0
220
0
230
1
40
0.48863
41
-2.85513231723916
42
-1.57326889137272
0
ELLIPSE
5
226
100
AcDbEntity
8
1
62
256
6
ByLayer
370
18
48
1
60
0
100
AcDbEllipse
10
250.04026
20
17.059078
30
0
11
0.0877359970456714
21
-1.67410255206257
31
0
210
0
220
0
230
1
40
0.995562
41
-1.5707963267949
42
-0.523598775598307
0
ELLIPSE
5
227
100
AcDbEntity
8
1
62
256
6
ByLayer
370
18
48
1
60
0
100
AcDbEllipse
10
249.969873
20
15.570054
30
0
11
-0.391813266881987
21
-0.0205340632105506
31
0
210
0
220
0
230
1
40
0.491907
41
-1.5707963267949
42
-0.288932900933733
0
ELLIPSE
5
228
100
AcDbEntity
8
1
62
256
6
ByLayer
370
18
48
1
60
0
100
AcDbEllipse
10
251.13055
20
17.858886
30
0
11
-0.213369888118037
21
0.330824637125087
31
0
210
0
220
0
230
1
40
0.48863
41
1.57326889137438
42
2.85513231723913
0
ELLIPSE
5
229
100
AcDbEntity
8
1
62
256
6
ByLayer
370
18
48
1
60
0
100
AcDbEllipse
10
250.032817
20
17.058688
30
0
11
-0.149157475288612
21
2.84609417405073
31
0
210
0
220
0
230
1
40
0.995562
41
0
42
6.28318530717959
0
ELLIPSE
5
22A
100
AcDbEntity
8
1
62
256
6
ByLayer
370
18
48
1
60
0
100
AcDbEllipse
10
250.04026
20
17.059078
30
0
11
-0.094204721234913
21
1.79753316255836
31
0
210
0
220
0
230
1
40
0.995562
41
0
42
6.28318530717959
0
ELLIPSE
5
22B
100
AcDbEntity
8
1
62
256
6
ByLayer
370
18
48
1
60
0
100
AcDbEllipse
10
249.892243
20
17.051321
30
0
11
-0.0675290843385603
21
1.28853168869392
31
0
210
0
220
0
230
1
40
0.995562
41
-3.03775684415656
42
-2.09439510239322
0
ELLIPSE
5
22C
100
AcDbEntity
8
1
62
256
6
ByLayer
370
18
48
1
60
0
100
AcDbEllipse
10
249.892243
20
17.051321
30
0
11
0.0675290843402707
21
-1.28853168869383
31
0
210
0
220
0
230
1
40
0.995562
41
-1.89285840703663
42
-1.23277995487285
0
ELLIPSE
5
22D
100
AcDbEntity
8
1
62
256
6
ByLayer
370
18
48
1
60
0
100
AcDbEllipse
10
250.696873
20
15.807065
30
0
11
-0.328745690776191
21
-0.214965491791429
31
0
210
0
220
0
230
1
40
0.490808
41
0.673312264881224
42
-2.94818767871617
0
ELLIPSE
5
22E
100
AcDbEntity
8
1
62
256
6
ByLayer
370
18
48
1
60
0
100
AcDbEllipse
10
250.562405
20
18.372868
30
0
11
-0.349414799997433
21
0.179424606472477
31
0
210
0
220
0
230
1
40
0.490808
41
2.94818767871622
42
-0.625002372329014
0
ELLIPSE
5
22F
100
AcDbEntity
8
1
62
256
6
ByLayer
370
18
48
1
60
0
100
AcDbEllipse
10
249.222081
20
15.729774
30
0
11
-0.349414799997461
21
0.179424606472481
31
0
210
0
220
0
230
1
40
0.490808
41
2.51659138569071
42
-2.94320654539716
0
ELLIPSE
5
230
100
AcDbEntity
8
1
62
256
6
ByLayer
370
18
48
1
60
0
100
AcDbEllipse
10
249.087613
20
18.295577
30
0
11
-0.328745690776218
21
-0.214965491791422
31
0
210
0
220
0
230
1
40
0.490808
41
2.94320654539732
42
-2.46828145615018
0
ELLIPSE
5
231
100
AcDbEntity
8
1
62
256
6
ByLayer
370
18
48
1
60
0
100
AcDbEllipse
10
249.965077
20
17.055138
30
0
11
-0.149157475288612
21
2.84609417405073
31
0
210
0
220
0
230
1
40
0.995562
41
0
42
3.1414943057158
0
ELLIPSE
5
232
100
AcDbEntity
8
1
62
256
6
ByLayer
370
18
48
1
60
0
100
AcDbEllipse
10
251.367036
20
17.128612
30
0
11
-0.0206256003553273
21
0.39355989964679
31
0
210
0
220
0
230
1
40
0.48755
41
-2.94566518558185
42
-0.32041837479189
0
ELLIPSE
5
233
100
AcDbEntity
8
1
62
256
6
ByLayer
370
13
48
1
60
0
100
AcDbEllipse
10
259.132933
20
8.548975
30
0
11
-0.0433887818442506
21
-0.261709360235746
31
0
210
0
220
0
230
1
40
0.938419
41
0.505433140691132
42
1.30197962212489
0
ELLIPSE
5
234
100
AcDbEntity
8
1
62
256
6
ByLayer
370
13
48
1
60
0
100
AcDbEllipse
10
258.671071
20
17.791875
30
0
11
0.148164061728344
21
0.023396812008463
31
0
210
0
220
0
230
1
40
0.009837
41
1.66453083432536
42
2.85269002802231
0
ELLIPSE
5
235
100
AcDbEntity
8
1
62
256
6
ByLayer
370
13
48
1
60
0
100
AcDbEllipse
10
258.674306
20
17.547961
30
0
11
0.148732254109667
21
-0.0194606420104133
31
0
210
0
220
0
230
1
40
0.01715
41
-2.85472889772163
42
-1.6634750162729
0
ELLIPSE
5
236
100
AcDbEntity
8
1
62
256
6
ByLayer
370
13
48
1
60
0
100
AcDbEllipse
10
257.607711
20
9.396268
30
0
11
-0.157457627751866
21
-0.0472734989050059
31
0
210
0
220
0
230
1
40
0.020424
41
-1.48728150159587
42
-0.2750779630052
0
ELLIPSE
5
237
100
AcDbEntity
8
1
62
256
6
ByLayer
370
13
48
1
60
0
100
AcDbEllipse
10
257.549591
20
9.335816
30
0
11
0.00523359562429421
21
-0.0998629534754539
31
0
210
0
220
0
230
1
40
0.995562
41
-4.94053652674543E-06
42
0.113446401382895
0
ELLIPSE
5
238
100
AcDbEntity
8
1
62
256
6
ByLayer
370
13
48
1
60
0
100
AcDbEllipse
10
256.350872
20
7.125737
30
0
11
-1.52607791221199
21
-1.67412290956622
31
0
210
0
220
0
230
1
40
0.751206
41
2.58042275928924
42
-2.78125477170184
0
ELLIPSE
5
239
100
AcDbEntity
8
1
62
256
6
ByLayer
370
13
48
1
60
0
100
AcDbEllipse
10
256.228498
20
7.119324
30
0
11
0.104671912485888
21
-1.99725906950915
31
0
210
0
220
0
230
1
40
0.995562
41
2.05761992417462
42
2.70662470115594
0
ELLIPSE
5
23A
100
AcDbEntity
8
1
62
256
6
ByLayer
370
13
48
1
60
0
100
AcDbEllipse
10
258.331622
20
17.73745
30
0
11
0.197552082304459
21
0.0311957493446173
31
0
210
0
220
0
230
1
40
0.009837
41
-1.47706181926955
42
8.34921249031364E-05
0
ELLIPSE
5
23B
100
AcDbEntity
8
1
62
256
6
ByLayer
370
13
48
1
60
0
100
AcDbEllipse
10
257.075268
20
25.693509
30
0
11
-0.197552082304453
21
-0.0311957493446541
31
0
210
0
220
0
230
1
40
0.009837
41
1.66453083432081
42
-3.14150916141433
0
ELLIPSE
5
23C
100
AcDbEntity
8
1
62
256
6
ByLayer
370
13
48
1
60
0
100
AcDbEllipse
10
258.333525
20
17.593971
30
0
11
0.198309672146223
21
-0.0259475226805511
31
0
210
0
220
0
230
1
40
0.01715
41
0.000128612677972894
42
1.47811763731193
0
ELLIPSE
5
23D
100
AcDbEntity
8
1
62
256
6
ByLayer
370
13
48
1
60
0
100
AcDbEllipse
10
257.266338
20
9.437759
30
0
11
-0.19830967214623
21
0.0259475226804902
31
0
210
0
220
0
230
1
40
0.01715
41
-3.14146404083932
42
-1.6634750162765
0
ELLIPSE
5
23E
100
AcDbEntity
8
1
62
256
6
ByLayer
370
13
48
1
60
0
100
AcDbEllipse
10
250.006755
20
17.057323
30
0
11
0.161488764830067
21
-3.0813891952549
31
0
210
0
220
0
230
1
40
0.995562
41
-0.832617303636143
42
0
0
ELLIPSE
5
23F
100
AcDbEntity
8
1
62
256
6
ByLayer
370
13
48
1
60
0
100
AcDbEllipse
10
250.006755
20
17.057323
30
0
11
0.161488764830067
21
-3.0813891952549
31
0
210
0
220
0
230
1
40
0.995562
41
0
42
-2.3089694914097
0
ELLIPSE
5
240
100
AcDbEntity
8
1
62
256
6
ByLayer
370
13
48
1
60
0
100
AcDbEllipse
10
242.576349
20
24.784721
30
0
11
0.00523359562429421
21
-0.0998629534754539
31
0
210
0
220
0
230
1
40
0.995562
41
1.38753675533605
42
3.14158945216291
0
ELLIPSE
5
241
100
AcDbEntity
8
1
62
256
6
ByLayer
370
13
48
1
60
0
100
AcDbEllipse
10
242.092616
20
6.897307
30
0
11
0.0065370786798103
21
-0.149857487641873
31
0
210
0
220
0
230
1
40
0.094105
41
-1.56997142650759
42
-0.0234595020671323
0
ELLIPSE
5
242
100
AcDbEntity
8
1
62
256
6
ByLayer
370
13
48
1
60
0
100
AcDbEllipse
10
242.090433
20
6.947259
30
0
11
0.0104671912485889
21
-0.199725906950916
31
0
210
0
220
0
230
1
40
0.995562
41
0.0115983514805508
42
1.32121290077195
0
ELLIPSE
5
243
100
AcDbEntity
8
1
62
256
6
ByLayer
370
13
48
1
60
0
100
AcDbEllipse
10
241.866233
20
6.887652
30
0
11
0.00415024464891698
21
-0.149942573905326
31
0
210
0
220
0
230
1
40
0.09408
41
-1.56847321010733
42
-0.0396676110908984
0
ELLIPSE
5
244
100
AcDbEntity
8
1
62
256
6
ByLayer
370
13
48
1
60
0
100
AcDbEllipse
10
240.464737
20
24.379574
30
0
11
0.0248313114067139
21
-0.147930409226172
31
0
210
0
220
0
230
1
40
0.093503
41
-3.04696247439768
42
-1.58149677264951
0
ELLIPSE
5
245
100
AcDbEntity
8
1
62
256
6
ByLayer
370
13
48
1
60
0
100
AcDbEllipse
10
241.382273
20
6.887765
30
0
11
-0.00422000339726424
21
-0.149940626820509
31
0
210
0
220
0
230
1
40
0.093806
41
-1.56322900126248
42
-0.0736942388980957
0
ELLIPSE
5
246
100
AcDbEntity
8
1
62
256
6
ByLayer
370
13
48
1
60
0
100
AcDbEllipse
10
240.363346
20
25.538563
30
0
11
-0.0433887818339627
21
-0.261709360239262
31
0
210
0
220
0
230
1
40
0.938419
41
-2.8300182619319
42
-2.21164798404163
0
ELLIPSE
5
247
100
AcDbEntity
8
1
62
256
6
ByLayer
370
13
48
1
60
0
100
AcDbEllipse
10
240.464737
20
24.379574
30
0
11
-0.148732254109673
21
0.0194606420103677
31
0
210
0
220
0
230
1
40
0.01715
41
0.265915951157114
42
1.47811763731557
0
ELLIPSE
5
248
100
AcDbEntity
8
1
62
256
6
ByLayer
370
13
48
1
60
0
100
AcDbEllipse
10
240.856552
20
7.35163
30
0
11
-0.14816406172834
21
-0.0233968120084906
31
0
210
0
220
0
230
1
40
0.009837
41
-1.47706181926826
42
0.093734507517774
0
ELLIPSE
5
249
100
AcDbEntity
8
1
62
256
6
ByLayer
370
13
48
1
60
0
100
AcDbEllipse
10
239.4342
20
16.503468
30
0
11
-0.148732254109673
21
0.0194606420103677
31
0
210
0
220
0
230
1
40
0.01715
41
-0.0926786894788056
42
1.4781176373135
0
ELLIPSE
5
24A
100
AcDbEntity
8
1
62
256
6
ByLayer
370
13
48
1
60
0
100
AcDbEllipse
10
239.436294
20
16.345641
30
0
11
-0.14816406172834
21
-0.0233968120084906
31
0
210
0
220
0
230
1
40
0.009837
41
-1.47706181926783
42
0.0937345075250187
0
ELLIPSE
5
24B
100
AcDbEntity
8
1
62
256
6
ByLayer
370
13
48
1
60
0
100
AcDbEllipse
10
257.075268
20
25.693509
30
0
11
0.0104671912485888
21
-0.199725906950915
31
0
210
0
220
0
230
1
40
0.995562
41
3.14156912557355
42
-2.60644555906566
0
ELLIPSE
5
24C
100
AcDbEntity
8
1
62
256
6
ByLayer
370
13
48
1
60
0
100
AcDbEllipse
10
257.266338
20
9.437759
30
0
11
0.0104671912485888
21
-0.199725906950915
31
0
210
0
220
0
230
1
40
0.995562
41
-0.226119054296582
42
1.75822198835493E-05
0
ELLIPSE
5
24D
100
AcDbEntity
8
1
62
256
6
ByLayer
370
13
48
1
60
0
100
AcDbEllipse
10
243.060069
20
8.427521
30
0
11
0.0104671912485888
21
-0.199725906950915
31
0
210
0
220
0
230
1
40
0.995562
41
-1.46607657167661
42
-2.46857419755785E-05
0
ELLIPSE
5
24E
100
AcDbEntity
8
1
62
256
6
ByLayer
370
13
48
1
60
0
100
AcDbEllipse
10
242.869
20
24.683271
30
0
11
0.0104671912485888
21
-0.199725906950915
31
0
210
0
220
0
230
1
40
0.995562
41
-3.14157046250216
42
-1.75405589825561
0
ELLIPSE
5
24F
100
AcDbEntity
8
1
62
256
6
ByLayer
370
13
48
1
60
0
100
AcDbEllipse
10
243.060069
20
8.427521
30
0
11
0.111182483439583
21
-0.166248174053753
31
0
210
0
220
0
230
1
40
0.080951
41
-1.97154890033524E-05
42
1.5226274869703
0
ELLIPSE
5
250
100
AcDbEntity
8
1
62
256
6
ByLayer
370
13
48
1
60
0
100
AcDbEllipse
10
259.440778
20
8.001566
30
0
11
-0.0190934195946069
21
-0.501606840107845
31
0
210
0
220
0
230
1
40
0.197189
41
-0.688891549972827
42
-0.331191944131956
0
ELLIPSE
5
251
100
AcDbEntity
8
1
62
256
6
ByLayer
370
13
48
1
60
0
100
AcDbEllipse
10
241.179224
20
9.364783
30
0
11
-0.136073486228207
21
2.59643679036207
31
0
210
0
220
0
230
1
40
0.995562
41
2.40144888609817
42
2.97998013990119
0
ELLIPSE
5
252
100
AcDbEntity
8
1
62
256
6
ByLayer
370
13
48
1
60
0
100
AcDbEllipse
10
241.179224
20
9.364783
30
0
11
-0.136073486228207
21
2.59643679036207
31
0
210
0
220
0
230
1
40
0.995562
41
-2.68543658663368
42
-2.07675099364109
0
ELLIPSE
5
253
100
AcDbEntity
8
1
62
256
6
ByLayer
370
13
48
1
60
0
100
AcDbEllipse
10
243.516814
20
7.641324
30
0
11
1.49975373857391
21
0.0271794707661343
31
0
210
0
220
0
230
1
40
0.340502
41
-1.53279213817644
42
-1.51222596035927
0
ELLIPSE
5
254
100
AcDbEntity
8
1
62
256
6
ByLayer
370
13
48
1
60
0
100
AcDbEllipse
10
241.278976
20
0
30
0
11
-1.41783484075828
21
26.8121659445213
31
0
210
0
220
0
230
1
40
0.094396
41
-0.108318104891027
42
-0.00499274452269485
0
ELLIPSE
5
255
100
AcDbEntity
8
1
62
256
6
ByLayer
370
13
48
1
60
0
100
AcDbEllipse
10
194.224399
20
0
30
0
11
-284.039358179528
21
0.133837894480238
31
0
210
0
220
0
230
1
40
0.094396
41
-1.79228096415103
42
-1.73545390773463
0
ELLIPSE
5
256
100
AcDbEntity
8
1
62
256
6
ByLayer
370
13
48
1
60
0
100
AcDbEllipse
10
241.226214
20
9.367246
30
0
11
0.162241464353126
21
-3.09575155773918
31
0
210
0
220
0
230
1
40
0.995562
41
0.083999746178206
42
1.07850402440022
0
ELLIPSE
5
257
100
AcDbEntity
8
1
62
256
6
ByLayer
370
13
48
1
60
0
100
AcDbEllipse
10
238.900521
20
7.052847
30
0
11
-0.293740802135514
21
-0.955885108766104
31
0
210
0
220
0
230
1
40
0.088433
41
-1.53847716189229
42
-7.17550727943523E-06
0
ELLIPSE
5
258
100
AcDbEntity
8
1
62
256
6
ByLayer
370
13
48
1
60
0
100
AcDbEllipse
10
241.518224
20
15.658875
30
0
11
0.523359562429439
21
-9.98629534754574
31
0
210
0
220
0
230
1
40
0.995562
41
-5.96902149313125E-07
42
0.31792458230116
0
ELLIPSE
5
259
100
AcDbEntity
8
1
62
256
6
ByLayer
370
13
48
1
60
0
100
AcDbEllipse
10
249.798362
20
-7.777155
30
0
11
2
21
0
31
0
210
0
220
0
230
1
40
0.993263
41
0.338702707100183
42
2.81035089796724
0
ELLIPSE
5
25A
100
AcDbEntity
8
1
62
256
6
ByLayer
370
13
48
1
60
0
100
AcDbEllipse
10
249.798362
20
-7.777155
30
0
11
-2.1
21
2.12234201567296E-15
31
0
210
0
220
0
230
1
40
0.993263
41
-2.76872471297942
42
-0.385826768836315
0
ELLIPSE
5
25B
100
AcDbEntity
8
1
62
256
6
ByLayer
370
18
48
1
60
0
100
AcDbEllipse
10
250.0001
20
-8.021388
30
0
11
2
21
0
31
0
210
0
220
0
230
1
40
0.993263
41
0.51394494532717
42
2.84215951690182
0
ELLIPSE
5
25C
100
AcDbEntity
8
1
62
256
6
ByLayer
370
18
48
1
60
0
100
AcDbEllipse
10
249.892243
20
17.051321
30
0
11
0.0675290843402707
21
-1.28853168869383
31
0
210
0
220
0
230
1
40
0.995562
41
-0.771408608870134
42
0
0
ELLIPSE
5
25D
100
AcDbEntity
8
1
62
256
6
ByLayer
370
18
48
1
60
0
100
AcDbEllipse
10
249.892243
20
17.051321
30
0
11
0.0675290843402707
21
-1.28853168869383
31
0
210
0
220
0
230
1
40
0.995562
41
3.14159265358977
42
-2.3531513798499
0
ELLIPSE
5
25E
100
AcDbEntity
8
1
62
256
6
ByLayer
370
18
48
1
60
0
100
AcDbEllipse
10
250.0001
20
-7.963445
30
0
11
-1.5
21
1.51595858262354E-15
31
0
210
0
220
0
230
1
40
0.993263
41
-2.83764386550676
42
-0.0644026438416833
0
POINT
5
70
100
AcDbEntity
8
1
62
256
6
ByLayer
370
18
48
1
60
0
100
AcDbPoint
10
0
20
0
30
0
39
0
210
0
220
0
230
1
50
360
0
POINT
5
72
100
AcDbEntity
8
80
62
256
6
ByLayer
370
18
48
1
60
0
100
AcDbPoint
10
0
20
0
30
0
39
0
210
0
220
0
230
1
50
360
0
POINT
5
74
100
AcDbEntity
8
81
62
256
6
ByLayer
370
18
48
1
60
0
100
AcDbPoint
10
261
20
0
30
0
39
0
210
0
220
0
230
1
50
360
0
POINT
5
76
100
AcDbEntity
8
1
62
256
6
ByLayer
370
18
48
1
60
1
100
AcDbPoint
10
0
20
-31.25
30
0
39
0
210
0
220
0
230
1
50
360
0
POINT
5
77
100
AcDbEntity
8
1
62
256
6
ByLayer
370
18
48
1
60
1
100
AcDbPoint
10
261
20
-27.5
30
0
39
0
210
0
220
0
230
1
50
360
0
POINT
5
78
100
AcDbEntity
8
1
62
256
6
ByLayer
370
18
48
1
60
1
100
AcDbPoint
10
-80
20
-25
30
0
39
0
210
0
220
0
230
1
50
360
0
POINT
5
79
100
AcDbEntity
8
1
62
256
6
ByLayer
370
18
48
1
60
1
100
AcDbPoint
10
0
20
-31.25
30
0
39
0
210
0
220
0
230
1
50
360
0
POINT
5
7A
100
AcDbEntity
8
1
62
256
6
ByLayer
370
18
48
1
60
1
100
AcDbPoint
10
261
20
-27.5
30
0
39
0
210
0
220
0
230
1
50
360
0
POINT
5
7B
100
AcDbEntity
8
1
62
256
6
ByLayer
370
18
48
1
60
1
100
AcDbPoint
10
6.1882
20
-31.25
30
0
39
0
210
0
220
0
230
1
50
360
0
POINT
5
7C
100
AcDbEntity
8
1
62
256
6
ByLayer
370
18
48
1
60
1
100
AcDbPoint
10
36
20
-27.5
30
0
39
0
210
0
220
0
230
1
50
360
0
POINT
5
7D
100
AcDbEntity
8
1
62
256
6
ByLayer
370
18
48
1
60
1
100
AcDbPoint
10
261
20
-27.5
30
0
39
0
210
0
220
0
230
1
50
360
0
POINT
5
7E
100
AcDbEntity
8
1
62
256
6
ByLayer
370
18
48
1
60
1
100
AcDbPoint
10
259.4109
20
-13.75
30
0
39
0
210
0
220
0
230
1
50
360
0
SPLINE
5
25F
100
AcDbEntity
8
SK1
62
256
6
ByLayer
370
13
48
1
60
0
100
AcDbSpline
70
4
71
3
72
8
73
4
40
0
40
0
40
0
40
0
40
1
40
1
40
1
40
1
41
1
10
-79
20
-10.6704826507519
30
0
41
1
10
-79.3663118043068
20
-9.81238370995035
30
0
41
1
10
-79.7021882940637
20
-8.9413126460914
30
0
41
1
10
-80
20
-8.05401763097143
30
0
0
SPLINE
5
260
100
AcDbEntity
8
SK1
62
256
6
ByLayer
370
13
48
1
60
0
100
AcDbSpline
70
4
71
3
72
74
73
70
40
0
40
0
40
0
40
0
40
0.0156249999999999
40
0.0156249999999999
40
0.0234374999999999
40
0.0234374999999999
40
0.0312499999999998
40
0.0312499999999998
40
0.0468749999999997
40
0.0468749999999997
40
0.0624999999999996
40
0.0624999999999996
40
0.0781249999999995
40
0.0781249999999995
40
0.0937499999999994
40
0.0937499999999994
40
0.124999999999999
40
0.124999999999999
40
0.140624999999999
40
0.140624999999999
40
0.156249999999999
40
0.156249999999999
40
0.187499999999999
40
0.187499999999999
40
0.249999999999999
40
0.249999999999999
40
0.281249999999999
40
0.281249999999999
40
0.312499999999999
40
0.312499999999999
40
0.374999999999999
40
0.374999999999999
40
0.437499999999999
40
0.437499999999999
40
0.499999999999999
40
0.499999999999999
40
0.562499999999999
40
0.562499999999999
40
0.593749999999999
40
0.593749999999999
40
0.624999999999999
40
0.624999999999999
40
0.687499999999999
40
0.687499999999999
40
0.749999999999999
40
0.749999999999999
40
0.781249999999999
40
0.781249999999999
40
0.812499999999999
40
0.812499999999999
40
0.84375
40
0.84375
40
0.875
40
0.875
40
0.90625
40
0.90625
40
0.9375
40
0.9375
40
0.9453125
40
0.9453125
40
0.953125
40
0.953125
40
0.96875
40
0.96875
40
0.984375
40
0.984375
40
0.9921875
40
0.9921875
40
1
40
1
40
1
40
1
41
1
10
-6.50000000009537
20
10.670482650752
30
0
41
1
10
-6.37048388891068
20
10.6704826507608
30
0
41
1
10
-6.24446776465052
20
10.6528697557375
30
0
41
1
10
-6.06010517952292
20
10.6029156441243
30
0
41
1
10
-5.99927461449792
20
10.5821925812253
30
0
41
1
10
-5.88223506583904
20
10.5345394314587
30
0
41
1
10
-5.82559748012396
20
10.5075199899682
30
0
41
1
10
-5.66065779452136
20
10.417975973631
30
0
41
1
10
-5.55712762892128
20
10.3466184036529
30
0
41
1
10
-5.36736536971405
20
10.1913586531549
30
0
41
1
10
-5.27997153671004
20
10.1068512703449
30
0
41
1
10
-5.11666218977227
20
9.92704332772249
30
0
41
1
10
-5.04055810401205
20
9.83130794393438
30
0
41
1
10
-4.90046448763793
20
9.63491798753748
30
0
41
1
10
-4.83603834410378
20
9.53382715843213
30
0
41
1
10
-4.65598112089407
20
9.22347109153861
30
0
41
1
10
-4.55339976152399
20
9.00719880738419
30
0
41
1
10
-4.41750582616754
20
8.67228763084432
30
0
41
1
10
-4.37530268897782
20
8.55891791867154
30
0
41
1
10
-4.29686000058592
20
8.33134323345735
30
0
41
1
10
-4.26049265592715
20
8.21682554312125
30
0
41
1
10
-4.1585724311424
20
7.87130398108656
30
0
41
1
10
-4.10013853486055
20
7.63834185023578
30
0
41
1
10
-3.94578977994675
20
6.93282891322849
30
0
41
1
10
-3.87048459563749
20
6.45370790232082
30
0
41
1
10
-3.78175631324949
20
5.72457369042985
30
0
41
1
10
-3.75634074966133
20
5.47976683985843
30
0
41
1
10
-3.7120067271199
20
4.98691048522593
30
0
41
1
10
-3.69308648223611
20
4.73862820397792
30
0
41
1
10
-3.64424139462162
20
3.99444565639502
30
0
41
1
10
-3.62191393829291
20
3.49753056604814
30
0
41
1
10
-3.58913059568964
20
2.50225576491911
30
0
41
1
10
-3.57872244966512
20
2.00389538867495
30
0
41
1
10
-3.56529013292472
20
1.00580199142325
30
0
41
1
10
-3.56228022077386
20
0.506068785393097
30
0
41
1
10
-3.56223334097642
20
-0.494754197166372
30
0
41
1
10
-3.56519357916225
20
-0.995843898846687
30
0
41
1
10
-3.57526735092097
20
-1.74852495498422
30
0
41
1
10
-3.57958751937886
20
-1.99959349362723
30
0
41
1
10
-3.59064705878916
20
-2.50209075145548
30
0
41
1
10
-3.59739709579894
20
-2.75385038007658
30
0
41
1
10
-3.62227132036486
20
-3.50710000839359
30
0
41
1
10
-3.64484459181701
20
-4.00580366741292
30
0
41
1
10
-3.71010606722081
20
-4.99571816607528
30
0
41
1
10
-3.75268745857275
20
-5.48693664959626
30
0
41
1
10
-3.84180186701059
20
-6.21737273914593
30
0
41
1
10
-3.87576317934641
20
-6.45978205407948
30
0
41
1
10
-3.95487127334194
20
-6.94225537606115
30
0
41
1
10
-3.99994180570394
20
-7.18182085753699
30
0
41
1
10
-4.10416683371689
20
-7.65518824089065
30
0
41
1
10
-4.16332953330694
20
-7.88926779084468
30
0
41
1
10
-4.30073575990994
20
-8.35126379883343
30
0
41
1
10
-4.37869000461005
20
-8.57819056735369
30
0
41
1
10
-4.55882768232694
20
-9.01890405609001
30
0
41
1
10
-4.66096064418579
20
-9.23316248710555
30
0
41
1
10
-4.9012460930548
20
-9.6450662502447
30
0
41
1
10
-5.04044720826909
20
-9.84412891865716
30
0
41
1
10
-5.24436673816899
20
-10.0673788314332
30
0
41
1
10
-5.28672193295479
20
-10.1108128419076
30
0
41
1
10
-5.37506018490618
20
-10.1949099292502
30
0
41
1
10
-5.42113974977889
20
-10.2356293471388
30
0
41
1
10
-5.56352602684599
20
-10.3512474104622
30
0
41
1
10
-5.66447995477702
20
-10.4202823836625
30
0
41
1
10
-5.88197798496884
20
-10.5378913469096
30
0
41
1
10
-6.00024980803649
20
-10.5867345345007
30
0
41
1
10
-6.18283559041274
20
-10.6361515407661
30
0
41
1
10
-6.24478714200797
20
-10.6488401790656
30
0
41
1
10
-6.37105473569075
20
-10.6660269221224
30
0
41
1
10
-6.43557318110055
20
-10.6704826507564
30
0
41
1
10
-6.50000000009538
20
-10.6704826507521
30
0
0
SPLINE
5
261
100
AcDbEntity
8
SK1
62
256
6
ByLayer
370
13
48
1
60
0
100
AcDbSpline
70
4
71
3
72
18
73
14
40
0
40
0
40
0
40
0
40
0.124999999999994
40
0.124999999999994
40
0.249999999999988
40
0.249999999999988
40
0.374999999999981
40
0.374999999999981
40
0.499999999999975
40
0.499999999999975
40
0.749999999999988
40
0.749999999999988
40
1
40
1
40
1
40
1
41
1
10
-77.6338131992802
20
-9.80675144594582
30
0
41
1
10
-77.6747633651724
20
-9.77128805754603
30
0
41
1
10
-77.7208435774768
20
-9.74055738411698
30
0
41
1
10
-77.8223424340443
20
-9.70060949890774
30
0
41
1
10
-77.877225313581
20
-9.69229190808377
30
0
41
1
10
-77.9860246497556
20
-9.7051085468637
30
0
41
1
10
-78.0378757025226
20
-9.72573581195073
30
0
41
1
10
-78.1301404068999
20
-9.78251362708681
30
0
41
1
10
-78.1717204994047
20
-9.81892837813635
30
0
41
1
10
-78.2826414870913
20
-9.93741839107241
30
0
41
1
10
-78.3411195831128
20
-10.0300646017818
30
0
41
1
10
-78.4407354299096
20
-10.2228684878255
30
0
41
1
10
-78.4816839215995
20
-10.3239961106508
30
0
41
1
10
-78.5162221138915
20
-10.4258292340309
30
0
0
SPLINE
5
262
100
AcDbEntity
8
SK1
62
256
6
ByLayer
370
13
48
1
60
0
100
AcDbSpline
70
4
71
3
72
8
73
4
40
0
40
0
40
0
40
0
40
1
40
1
40
1
40
1
41
1
10
-78.5162221138915
20
-10.4258292340309
30
0
41
1
10
-78.5439104435588
20
-10.5074660802026
30
0
41
1
10
-78.5718376779285
20
-10.5890166857158
30
0
41
1
10
-78.5999993841625
20
-10.6704826507519
30
0
0
SPLINE
5
263
100
AcDbEntity
8
SK1
62
256
6
ByLayer
370
13
48
1
60
0
100
AcDbSpline
70
4
71
3
72
10
73
6
40
0
40
0
40
0
40
0
40
0.5
40
0.5
40
1
40
1
40
1
40
1
41
1
10
-80
20
8.0540176309716
30
0
41
1
10
-79.85176739512
20
8.49565927489135
30
0
41
1
10
-79.6935189817436
20
8.93491944720282
30
0
41
1
10
-79.3587118244384
20
9.80908612108971
30
0
41
1
10
-79.1828143207057
20
10.2422333475178
30
0
41
1
10
-79
20
10.6704826507521
30
0
0
SPLINE
5
264
100
AcDbEntity
8
SK1
62
256
6
ByLayer
370
13
48
1
60
0
100
AcDbSpline
70
4
71
3
72
8
73
4
40
0
40
0
40
0
40
0
40
1
40
1
40
1
40
1
41
1
10
-77.6338131992799
20
9.80675144594619
30
0
41
1
10
-77.2939543866941
20
10.101073698597
30
0
41
1
10
-76.9490850005699
20
10.3886250228495
30
0
41
1
10
-76.6000022063887
20
10.6704826507521
30
0
0
SPLINE
5
265
100
AcDbEntity
8
1
62
256
6
ByLayer
370
18
48
1
60
0
100
AcDbSpline
70
4
71
2
72
7
73
4
40
0
40
0
40
0
40
0.5
40
1
40
1
40
1
41
1
10
260.496924283907
20
-8.92484199348164
30
0
41
1
10
260.504416423619
20
-8.86831696240188
30
0
41
1
10
260.502990374566
20
-8.75370827994738
30
0
41
1
10
260.493919067283
20
-8.69682018254659
30
0
0
SPLINE
5
266
100
AcDbEntity
8
1
62
256
6
ByLayer
370
18
48
1
60
0
100
AcDbSpline
70
4
71
2
72
12
73
9
40
0
40
0
40
0
40
0.25
40
0.5
40
0.5
40
0.75
40
0.75
40
0.875
40
1
40
1
40
1
41
1
10
259.061525475769
20
0.23723439719879
30
0
41
1
10
259.04762287803
20
0.285391856236458
30
0
41
1
10
258.993210900397
20
0.370544230274731
30
0
41
1
10
258.953775960471
20
0.404578893605816
30
0
41
1
10
258.916061777376
20
0.437128442987841
30
0
41
1
10
258.868450775592
20
0.458549831831107
30
0
41
1
10
258.846339406384
20
0.468498293739515
30
0
41
1
10
258.796723060537
20
0.482685044161883
30
0
41
1
10
258.770768049453
20
0.486079063921551
30
0
0
SPLINE
5
267
100
AcDbEntity
8
1
62
256
6
ByLayer
370
18
48
1
60
0
100
AcDbSpline
70
4
71
3
72
8
73
4
40
0
40
0
40
0
40
0
40
1
40
1
40
1
40
1
41
1
10
259.200063329258
20
-18.7533877289154
30
0
41
1
10
259.168706911138
20
-18.7623184583094
30
0
41
1
10
259.136919473598
20
-18.7693180837746
30
0
41
1
10
259.104701016636
20
-18.774386605311
30
0
0
SPLINE
5
268
100
AcDbEntity
8
1
62
256
6
ByLayer
370
18
48
1
60
0
100
AcDbSpline
70
4
71
3
72
12
73
8
40
0
40
0
40
0
40
0
40
0.500000000000155
40
0.500000000000155
40
0.750000000000078
40
0.750000000000078
40
1
40
1
40
1
40
1
41
1
10
259.154124004918
20
0.464399286240109
30
0
41
1
10
259.221249435503
20
0.455559409670343
30
0
41
1
10
259.285500339717
20
0.426718749865074
30
0
41
1
10
259.362472678836
20
0.360984454395037
30
0
41
1
10
259.384884950972
20
0.335284508798026
30
0
41
1
10
259.421266529613
20
0.2786560938344
30
0
41
1
10
259.434727430487
20
0.24764117307862
30
0
41
1
10
259.444881431241
20
0.215553665625464
30
0
0
SPLINE
5
269
100
AcDbEntity
8
1
62
256
6
ByLayer
370
18
48
1
60
0
100
AcDbSpline
70
4
71
1
72
4
73
2
40
0
40
0
40
1
40
1
41
1
10
260.971827802707
20
-9.54284440415967
30
0
41
1
10
260.993155758091
20
-9.38193398499584
30
0
0
SPLINE
5
26A
100
AcDbEntity
8
1
62
256
6
ByLayer
370
18
48
1
60
0
100
AcDbSpline
70
4
71
1
72
4
73
2
40
0
40
0
40
1
40
1
41
1
10
259.56695199262
20
-0.228731362325249
30
0
41
1
10
259.08655965789
20
0.129030016756218
30
0
0
SPLINE
5
26B
100
AcDbEntity
8
1
62
256
6
ByLayer
370
18
48
1
60
0
100
AcDbSpline
70
4
71
1
72
4
73
2
40
0
40
0
40
1
40
1
41
1
10
259.552045438284
20
-18.6531384927244
30
0
41
1
10
259.107138951162
20
-17.8088211423715
30
0
0
SPLINE
5
26C
100
AcDbEntity
8
1
62
256
6
ByLayer
370
18
48
1
60
0
100
AcDbSpline
70
4
71
3
72
8
73
4
40
0
40
0
40
0
40
0
40
1
40
1
40
1
40
1
41
1
10
260.991114580223
20
-9.15378819788165
30
0
41
1
10
260.996050494162
20
-9.19165698818989
30
0
41
1
10
260.999429899271
20
-9.22963791186032
30
0
41
1
10
260.999933060269
20
-9.2678154198685
30
0
0
SPLINE
5
26D
100
AcDbEntity
8
1
62
256
6
ByLayer
370
18
48
1
60
0
100
AcDbSpline
70
4
71
2
72
6
73
3
40
0
40
0
40
0
40
1
40
1
40
1
41
1
10
259.08655965789
20
0.129030016756218
30
0
41
1
10
259.07890530448
20
0.177032095072064
30
0
41
1
10
259.065418342167
20
0.223749827073817
30
0
0
SPLINE
5
26E
100
AcDbEntity
8
1
62
256
6
ByLayer
370
18
48
1
60
0
100
AcDbSpline
70
4
71
3
72
8
73
4
40
0
40
0
40
0
40
0
40
1
40
1
40
1
40
1
41
1
10
259.545810676902
20
-0.134011552009213
30
0
41
1
10
259.554801985072
20
-0.165156706634235
30
0
41
1
10
259.561849090312
20
-0.196729976739562
30
0
41
1
10
259.56695199262
20
-0.228731362325192
30
0
0
SPLINE
5
26F
100
AcDbEntity
8
1
62
256
6
ByLayer
370
18
48
1
60
0
100
AcDbSpline
70
4
71
1
72
4
73
2
40
0
40
0
40
1
40
1
41
1
10
259.444881431241
20
0.215599082364548
30
0
41
1
10
259.061525475769
20
0.23723439719879
30
0
0
SPLINE
5
270
100
AcDbEntity
8
1
62
256
6
ByLayer
370
18
48
1
60
0
100
AcDbSpline
70
4
71
1
72
4
73
2
40
0
40
0
40
1
40
1
41
1
10
259.093562912646
20
-17.812687780638
30
0
41
1
10
259.200063329258
20
-18.7533877289154
30
0
0
SPLINE
5
271
100
AcDbEntity
8
1
62
256
6
ByLayer
370
18
48
1
60
0
100
AcDbSpline
70
4
71
1
72
4
73
2
40
0
40
0
40
1
40
1
41
1
10
259.065418342166
20
0.223749827073817
30
0
41
1
10
259.545810676902
20
-0.134011552009184
30
0
0
SPLINE
5
272
100
AcDbEntity
8
1
62
256
6
ByLayer
370
18
48
1
60
0
100
AcDbSpline
70
4
71
1
72
4
73
2
40
0
40
0
40
1
40
1
41
1
10
259.357671578091
20
-17.5200226903407
30
0
41
1
10
259.802578065241
20
-18.3643400406957
30
0
0
SPLINE
5
273
100
AcDbEntity
8
1
62
256
6
ByLayer
370
18
48
1
60
0
100
AcDbSpline
70
4
71
1
72
4
73
2
40
0
40
0
40
1
40
1
41
1
10
260.493919067283
20
-8.69682018254659
30
0
41
1
10
260.99015054146
20
-9.15391217406088
30
0
0
SPLINE
5
274
100
AcDbEntity
8
1
62
256
6
ByLayer
370
18
48
1
60
0
100
AcDbSpline
70
4
71
1
72
4
73
2
40
0
40
0
40
1
40
1
41
1
10
259.104701016636
20
-18.774386605311
30
0
41
1
10
258.998200600022
20
-17.8336866570303
30
0
0
SPLINE
5
275
100
AcDbEntity
8
1
62
256
6
ByLayer
370
18
48
1
60
0
100
AcDbSpline
70
4
71
2
72
12
73
9
40
0
40
0
40
0
40
0.25
40
0.5
40
0.5
40
0.75
40
0.75
40
0.875
40
1
40
1
40
1
41
1
10
259.107138951162
20
-17.8088211423718
30
0
41
1
10
259.1556230713
20
-17.7950122132001
30
0
41
1
10
259.241353049912
20
-17.7409668355425
30
0
41
1
10
259.275618576776
20
-17.7017975879927
30
0
41
1
10
259.308388915873
20
-17.664337503708
30
0
41
1
10
259.329955610033
20
-17.617047280411
30
0
41
1
10
259.339971554229
20
-17.5950848862653
30
0
41
1
10
259.354254536053
20
-17.5458028298877
30
0
41
1
10
259.357671578091
20
-17.520022690341
30
0
0
SPLINE
5
276
100
AcDbEntity
8
1
62
256
6
ByLayer
370
18
48
1
60
0
100
AcDbSpline
70
4
71
1
72
4
73
2
40
0
40
0
40
1
40
1
41
1
10
259.802578065241
20
-18.3643400406959
30
0
41
1
10
260.854591959192
20
-10.4273393489734
30
0
0
SPLINE
5
277
100
AcDbEntity
8
1
62
256
6
ByLayer
370
18
48
1
60
0
100
AcDbSpline
70
4
71
1
72
4
73
2
40
0
40
0
40
1
40
1
41
1
10
260.964700644882
20
-8.99431045947131
30
0
41
1
10
260.915156809946
20
-8.68361053269535
30
0
0
SPLINE
5
278
100
AcDbEntity
8
1
62
256
6
ByLayer
370
18
48
1
60
0
100
AcDbSpline
70
4
71
1
72
4
73
2
40
0
40
0
40
1
40
1
41
1
10
260.99015054146
20
-9.15391217406079
30
0
41
1
10
260.964700644882
20
-8.99431045947131
30
0
0
SPLINE
5
279
100
AcDbEntity
8
1
62
256
6
ByLayer
370
18
48
1
60
0
100
AcDbSpline
70
4
71
3
72
12
73
8
40
0
40
0
40
0
40
0
40
0.499999999999866
40
0.499999999999866
40
0.749999999999933
40
0.749999999999933
40
1
40
1
40
1
40
1
41
1
10
259.802578065241
20
-18.3643845035374
30
0
41
1
10
259.793678272099
20
-18.4310577230997
30
0
41
1
10
259.764643241045
20
-18.4948769895918
30
0
41
1
10
259.69846208971
20
-18.5713297673596
30
0
41
1
10
259.672587931255
20
-18.5935911510487
30
0
41
1
10
259.615575711368
20
-18.6297279234318
30
0
41
1
10
259.584350504029
20
-18.643098224498
30
0
41
1
10
259.552045438285
20
-18.6531839094635
30
0
0
SPLINE
5
27A
100
AcDbEntity
8
1
62
256
6
ByLayer
370
18
48
1
60
0
100
AcDbSpline
70
4
71
1
72
4
73
2
40
0
40
0
40
1
40
1
41
1
10
258.770768049453
20
0.486079063921608
30
0
41
1
10
259.154124004918
20
0.464443749081596
30
0
0
SPLINE
5
27B
100
AcDbEntity
8
1
62
256
6
ByLayer
370
18
48
1
60
0
100
AcDbSpline
70
4
71
1
72
4
73
2
40
0
40
0
40
1
40
1
41
1
10
260.993155758091
20
-9.38193398499578
30
0
41
1
10
260.496924283907
20
-8.92484199348164
30
0
0
SPLINE
5
27C
100
AcDbEntity
8
1
62
256
6
ByLayer
370
18
48
1
60
0
100
AcDbSpline
70
4
71
3
72
12
73
8
40
0
40
0
40
0
40
0
40
0.250320940062534
40
0.250320940062534
40
0.500642180888319
40
0.500642180888319
40
1
40
1
40
1
40
1
41
1
10
259.104701016636
20
-18.7744329338069
30
0
41
1
10
259.11275656843
20
-18.773165326665
30
0
41
1
10
259.120793615888
20
-18.7717756502494
30
0
41
1
10
259.136819285041
20
-18.7687530756929
30
0
41
1
10
259.144809777527
20
-18.7671198238641
30
0
41
1
10
259.168650849028
20
-18.7618673228663
30
0
41
1
10
259.184428971316
20
-18.757884824902
30
0
41
1
10
259.200063329258
20
-18.7534317802812
30
0
0
SPLINE
5
27D
100
AcDbEntity
8
1
62
256
6
ByLayer
370
18
48
1
60
0
100
AcDbSpline
70
4
71
1
72
4
73
2
40
0
40
0
40
1
40
1
41
1
10
260.915156809946
20
-8.68361053269535
30
0
41
1
10
260.824553114856
20
-8.11541548953488
30
0
0
SPLINE
5
27E
100
AcDbEntity
8
1
62
256
6
ByLayer
370
18
48
1
60
0
100
AcDbSpline
70
4
71
3
72
10
73
6
40
0
40
0
40
0
40
0
40
0.50565449741882
40
0.50565449741882
40
1
40
1
40
1
40
1
41
1
10
259.200063329258
20
-18.7534317802812
30
0
41
1
10
259.259757825805
20
-18.7364293387586
30
0
41
1
10
259.319452322766
20
-18.7194286903758
30
0
41
1
10
259.437506244982
20
-18.6858060652406
30
0
41
1
10
259.495865670819
20
-18.6691840494118
30
0
41
1
10
259.554225096159
20
-18.6525631355638
30
0
0
SPLINE
5
27F
100
AcDbEntity
8
1
62
256
6
ByLayer
370
18
48
1
60
0
100
AcDbSpline
70
4
71
1
72
4
73
2
40
0
40
0
40
1
40
1
41
1
10
260.824553114856
20
-8.11541548953488
30
0
41
1
10
259.56695199262
20
-0.228731362325192
30
0
0
SPLINE
5
280
100
AcDbEntity
8
1
62
256
6
ByLayer
370
18
48
1
60
0
100
AcDbSpline
70
4
71
1
72
4
73
2
40
0
40
0
40
1
40
1
41
1
10
260.930382905538
20
-9.85552865613499
30
0
41
1
10
260.971827802707
20
-9.54284440415967
30
0
0
SPLINE
5
281
100
AcDbEntity
8
1
62
256
6
ByLayer
370
18
48
1
60
0
100
AcDbSpline
70
4
71
3
72
8
73
4
40
0
40
0
40
0
40
0
40
1
40
1
40
1
40
1
41
1
10
260.999933060269
20
-9.2678154198685
30
0
41
1
10
261.000436224146
20
-9.30599314629768
30
0
41
1
10
260.998063746243
20
-9.34404924015138
30
0
41
1
10
260.994132053529
20
-9.38203369059511
30
0
0
SPLINE
5
282
100
AcDbEntity
8
1
62
256
6
ByLayer
370
18
48
1
60
0
100
AcDbSpline
70
4
71
1
72
4
73
2
40
0
40
0
40
1
40
1
41
1
10
260.854591959192
20
-10.4273393489734
30
0
41
1
10
260.930382905538
20
-9.85552865613499
30
0
0
SPLINE
5
283
100
AcDbEntity
8
1
62
256
6
ByLayer
370
18
48
1
60
0
100
AcDbSpline
70
4
71
2
72
6
73
3
40
0
40
0
40
0
40
1
40
1
40
1
41
1
10
258.998200600022
20
-17.8336866570302
30
0
41
1
10
259.046528285464
20
-17.8260838747231
30
0
41
1
10
259.093562912646
20
-17.8126877806381
30
0
0
SPLINE
5
284
100
AcDbEntity
8
1
62
256
6
ByLayer
370
13
48
1
60
0
100
AcDbSpline
70
4
71
3
72
20
73
16
40
0
40
0
40
0
40
0
40
0.0625000000000005
40
0.0625000000000005
40
0.125000000000001
40
0.125000000000001
40
0.14062499999999
40
0.14062499999999
40
0.156249999999979
40
0.156249999999979
40
0.18749999999998
40
0.18749999999998
40
0.249999999999982
40
0.499999999999988
40
1
40
1
40
1
40
1
41
1
10
256.964862827606
20
25.859997316287
30
0
41
1
10
256.834463352081
20
25.7727895161982
30
0
41
1
10
256.696866120491
20
25.7016031234378
30
0
41
1
10
256.40782541491
20
25.5900505390335
30
0
41
1
10
256.254697804375
20
25.5497391796908
30
0
41
1
10
256.063624159503
20
25.5215663802641
30
0
41
1
10
256.025339894962
20
25.516983591422
30
0
41
1
10
255.948628921198
20
25.509972582891
30
0
41
1
10
255.910183931519
20
25.5078208670867
30
0
41
1
10
255.794816340405
20
25.5018591499946
30
0
41
1
10
255.717910958461
20
25.4977886926256
30
0
41
1
10
255.487186903103
20
25.4856969572571
30
0
41
1
10
254.718106718576
20
25.4453911726954
30
0
41
1
10
252.718498238795
20
25.3405961328346
30
0
41
1
10
250.872705795965
20
25.2438622498885
30
0
41
1
10
249.642177500723
20
25.1793729945899
30
0
0
SPLINE
5
285
100
AcDbEntity
8
1
62
256
6
ByLayer
370
13
48
1
60
0
100
AcDbSpline
70
4
71
3
72
12
73
8
40
0
40
0
40
0
40
0
40
0.250000000000077
40
0.250000000000077
40
0.500000000000154
40
0.500000000000154
40
1
40
1
40
1
40
1
41
1
10
240.4015222825
20
26.3008702055368
30
0
41
1
10
240.421721186659
20
26.3014066571967
30
0
41
1
10
240.441368851602
20
26.3013353775017
30
0
41
1
10
240.480863054127
20
26.3014120653155
30
0
41
1
10
240.500644262184
20
26.3014864375113
30
0
41
1
10
240.559952954153
20
26.3016726539014
30
0
41
1
10
240.599467877658
20
26.3017712332136
30
0
41
1
10
240.638995237127
20
26.301882944322
30
0
0
SPLINE
5
286
100
AcDbEntity
8
1
62
256
6
ByLayer
370
13
48
1
60
0
100
AcDbSpline
70
4
71
3
72
18
73
14
40
0
40
0
40
0
40
0
40
0.500000000000037
40
0.500000000000037
40
0.750000000000043
40
0.750000000000043
40
0.875000000000046
40
0.875000000000046
40
0.906250000000034
40
0.906250000000034
40
0.937500000000023
40
0.937500000000023
40
1
40
1
40
1
40
1
41
1
10
250.501488826214
20
9.14236771614486
30
0
41
1
10
251.631701020454
20
9.20159962736358
30
0
41
1
10
252.761913443815
20
9.26082650571323
30
0
41
1
10
254.457231781616
20
9.34967442987985
30
0
41
1
10
255.022337390054
20
9.379302950849
30
0
41
1
10
255.869996628216
20
9.42372518934553
30
0
41
1
10
256.152550680093
20
9.43850840143961
30
0
41
1
10
256.505741377347
20
9.45703389221595
30
0
41
1
10
256.576379002362
20
9.46075179226582
30
0
41
1
10
256.717656118226
20
9.46814116050354
30
0
41
1
10
256.788254549761
20
9.47283440293427
30
0
41
1
10
257.000523485942
20
9.47512740714274
30
0
41
1
10
257.142548097759
20
9.46391509803408
30
0
41
1
10
257.285133633641
20
9.43874401307704
30
0
0
SPLINE
5
287
100
AcDbEntity
8
1
62
256
6
ByLayer
370
13
48
1
60
0
100
AcDbSpline
70
4
71
2
72
6
73
3
40
0
40
0
40
0
40
1
40
1
40
1
41
0.998850556413351
10
238.927420910473
20
16.4766792231739
30
0
41
0.99827016311197
10
238.92078906694
20
16.5116917537231
30
0
41
1
10
238.91753433748
20
16.5471805278543
30
0
0
SPLINE
5
288
100
AcDbEntity
8
1
62
256
6
ByLayer
370
13
48
1
60
0
100
AcDbSpline
70
4
71
3
72
9
73
5
40
0
40
0
40
0
40
0
40
0.806009473593772
40
1
40
1
40
1
40
1
41
1
10
258.257434069999
20
27.4830336285194
30
0
41
1
10
258.238230098619
20
27.4825020838262
30
0
41
1
10
258.214418890825
20
27.4814125353634
30
0
41
1
10
258.190606729467
20
27.480363257209
30
0
41
1
10
258.185987370756
20
27.4801607627601
30
0
0
SPLINE
5
289
100
AcDbEntity
8
1
62
256
6
ByLayer
370
13
48
1
60
0
100
AcDbSpline
70
4
71
3
72
10
73
6
40
0
40
0
40
0
40
0
40
0.5
40
0.5
40
1
40
1
40
1
40
1
41
1
10
257.247715829493
20
26.1184735529725
30
0
41
1
10
257.243968284355
20
26.1182771524541
30
0
41
1
10
257.253714624294
20
26.1081019462298
30
0
41
1
10
257.293829011785
20
26.074586562824
30
0
41
1
10
257.324274372969
20
26.051282357879
30
0
41
1
10
257.356213601929
20
26.0284098929741
30
0
0
SPLINE
5
28A
100
AcDbEntity
8
1
62
256
6
ByLayer
370
13
48
1
60
0
100
AcDbSpline
70
4
71
3
72
18
73
14
40
0
40
0
40
0
40
0
40
0.5
40
0.5
40
0.75
40
0.75
40
0.875000000000006
40
0.875000000000006
40
0.906250000000005
40
0.906250000000005
40
0.937500000000003
40
0.937500000000003
40
1
40
1
40
1
40
1
41
1
10
249.6714405602
20
24.9806321373527
30
0
41
1
10
248.541228365961
20
24.9214002261339
30
0
41
1
10
247.411015942599
20
24.8621733477843
30
0
41
1
10
245.715697604798
20
24.7733254236176
30
0
41
1
10
245.15059199636
20
24.7436969026485
30
0
41
1
10
244.302932758198
20
24.699274664152
30
0
41
1
10
244.020378706321
20
24.6844914520579
30
0
41
1
10
243.667188009067
20
24.6659659612816
30
0
41
1
10
243.596550384052
20
24.6622480612317
30
0
41
1
10
243.455273268188
20
24.654858692994
30
0
41
1
10
243.384674836653
20
24.6501654505633
30
0
41
1
10
243.172405900472
20
24.6478724463548
30
0
41
1
10
243.030381288655
20
24.6590847554634
30
0
41
1
10
242.887795752773
20
24.6842558404205
30
0
0
SPLINE
5
28B
100
AcDbEntity
8
1
62
256
6
ByLayer
370
13
48
1
60
0
100
AcDbSpline
70
4
71
1
72
4
73
2
40
0
40
0
40
1
40
1
41
1
10
240.638995237127
20
26.301882944322
30
0
41
1
10
240.448819731773
20
26.5223457166457
30
0
0
SPLINE
5
28C
100
AcDbEntity
8
1
62
256
6
ByLayer
370
13
48
1
60
0
100
AcDbSpline
70
4
71
3
72
20
73
16
40
0
40
0
40
0
40
0
40
0.499999999999963
40
0.499999999999963
40
0.749999999999957
40
0.749999999999957
40
0.874999999999954
40
0.874999999999954
40
0.906249999999972
40
0.906249999999972
40
0.921874999999981
40
0.921874999999981
40
0.937499999999989
40
0.937499999999989
40
1
40
1
40
1
40
1
41
1
10
250.493160149233
20
8.94165675948034
30
0
41
1
10
251.615587050899
20
9.00048066080421
30
0
41
1
10
252.738014206017
20
9.05929972588757
30
0
41
1
10
254.421654570862
20
9.14753534229871
30
0
41
1
10
254.982867148549
20
9.17695890280405
30
0
41
1
10
255.824687364785
20
9.22107673302699
30
0
41
1
10
256.105295820442
20
9.23576087158338
30
0
41
1
10
256.45605350189
20
9.25415272408091
30
0
41
1
10
256.526204436127
20
9.25783874066991
30
0
41
1
10
256.631431635104
20
9.26335763572806
30
0
41
1
10
256.666508378566
20
9.26518443440182
30
0
41
1
10
256.736660754402
20
9.26885214262919
30
0
41
1
10
256.771715573102
20
9.27095738686018
30
0
41
1
10
256.947432005676
20
9.27586587977717
30
0
41
1
10
257.089091026863
20
9.26600200584244
30
0
41
1
10
257.231959265141
20
9.24078101451883
30
0
0
SPLINE
5
28D
100
AcDbEntity
8
1
62
256
6
ByLayer
370
13
48
1
60
0
100
AcDbSpline
70
4
71
2
72
6
73
3
40
0
40
0
40
0
40
1
40
1
40
1
41
1
10
238.933997650062
20
16.2993611180038
30
0
41
0.997409491337352
10
238.925666371567
20
16.3521202742842
30
0
41
1
10
238.924957890198
20
16.4055307037343
30
0
0
SPLINE
5
28E
100
AcDbEntity
8
1
62
256
6
ByLayer
370
13
48
1
60
0
100
AcDbSpline
70
4
71
2
72
6
73
3
40
0
40
0
40
0
40
1
40
1
40
1
41
0.998850556413352
10
238.927420910473
20
16.4766792231729
30
0
41
0.998270163111968
10
238.924485202886
20
16.4411652785163
30
0
41
1
10
238.924957890198
20
16.4055307037343
30
0
0
SPLINE
5
28F
100
AcDbEntity
8
1
62
256
6
ByLayer
370
13
48
1
60
0
100
AcDbSpline
70
4
71
3
72
10
73
6
40
0
40
0
40
0
40
0
40
0.5
40
0.5
40
1
40
1
40
1
40
1
41
1
10
242.907135535841
20
8.08939835755874
30
0
41
1
10
242.903386919157
20
8.08920190088298
30
0
41
1
10
242.883000894353
20
8.08925350271011
30
0
41
1
10
242.821690327672
20
8.08974636093978
30
0
41
1
10
242.780756841819
20
8.09018005766364
30
0
41
1
10
242.741532311568
20
8.09064976166906
30
0
0
SPLINE
5
290
100
AcDbEntity
8
1
62
256
6
ByLayer
370
13
48
1
60
0
100
AcDbSpline
70
4
71
1
72
4
73
2
40
0
40
0
40
1
40
1
41
1
10
238.924957890198
20
16.4055307037343
30
0
41
1
10
239.185408335082
20
16.4215134916292
30
0
0
SPLINE
5
291
100
AcDbEntity
8
1
62
256
6
ByLayer
370
13
48
1
60
0
100
AcDbSpline
70
4
71
3
72
22
73
18
40
0
40
0
40
0
40
0
40
0.0624999999999639
40
0.0624999999999639
40
0.0937499999999461
40
0.0937499999999461
40
0.124999999999928
40
0.124999999999928
40
0.15624999999991
40
0.15624999999991
40
0.171874999999902
40
0.171874999999902
40
0.187499999999893
40
0.187499999999893
40
0.249999999999901
40
0.499999999999934
40
1
40
1
40
1
40
1
41
1
10
257.094064212913
20
25.6944936522893
30
0
41
1
10
256.961005900456
20
25.6055076907569
30
0
41
1
10
256.820839324879
20
25.5316157565689
30
0
41
1
10
256.600228061627
20
25.4427797495
30
0
41
1
10
256.524581694801
20
25.4167473649057
30
0
41
1
10
256.371448563971
20
25.3728104383029
30
0
41
1
10
256.294557569087
20
25.3550551275017
30
0
41
1
10
256.14015635169
20
25.3275860085969
30
0
41
1
10
256.062653232395
20
25.3177799556437
30
0
41
1
10
255.945925729183
20
25.3092111345882
30
0
41
1
10
255.906934890419
20
25.3074154689101
30
0
41
1
10
255.828990531511
20
25.3033395051148
30
0
41
1
10
255.790018989498
20
25.3012932452011
30
0
41
1
10
255.595159803851
20
25.2910811080085
30
0
41
1
10
254.815723061266
20
25.250232559238
30
0
41
1
10
252.789187530543
20
25.1440263324346
30
0
41
1
10
250.918539348338
20
25.0459898153854
30
0
41
1
10
249.6714405602
20
24.9806321373525
30
0
0
SPLINE
5
292
100
AcDbEntity
8
1
62
256
6
ByLayer
370
13
48
1
60
0
100
AcDbSpline
70
4
71
2
72
6
73
3
40
0
40
0
40
0
40
1
40
1
40
1
41
1
10
260.949929314873
20
17.6995162624411
30
0
41
0.997409491337352
10
260.949164064123
20
17.757206376839
30
0
41
1
10
260.940165214752
20
17.8141930326746
30
0
0
SPLINE
5
293
100
AcDbEntity
8
1
62
256
6
ByLayer
370
13
48
1
60
0
100
AcDbSpline
70
4
71
1
72
4
73
2
40
0
40
0
40
1
40
1
41
1
10
239.19212727077
20
16.5364031536279
30
0
41
1
10
238.931178388186
20
16.5118973880618
30
0
0
SPLINE
5
294
100
AcDbEntity
8
1
62
256
6
ByLayer
370
13
48
1
60
0
100
AcDbSpline
70
4
71
2
72
6
73
3
40
0
40
0
40
0
40
1
40
1
40
1
41
1
10
238.931178388186
20
16.5118973880618
30
0
41
0.999139328225384
10
238.928880286603
20
16.4943336392206
30
0
41
0.998850556413352
10
238.927420910473
20
16.4766792231729
30
0
0
SPLINE
5
295
100
AcDbEntity
8
1
62
256
6
ByLayer
370
13
48
1
60
0
100
AcDbSpline
70
4
71
3
72
8
73
4
40
0
40
0
40
0
40
0
40
1
40
1
40
1
40
1
41
1
10
259.09915170074
20
7.78142831269275
30
0
41
1
10
259.007159633023
20
7.7755041874687
30
0
41
1
10
258.918638184616
20
7.77331436110978
30
0
41
1
10
258.832443851762
20
7.772920669087
30
0
0
SPLINE
5
296
100
AcDbEntity
8
1
62
256
6
ByLayer
370
13
48
1
60
0
100
AcDbSpline
70
4
71
2
72
6
73
3
40
0
40
0
40
0
40
1
40
1
40
1
41
1
10
238.915426832952
20
16.6537134176923
30
0
41
0.997409491337352
10
238.912656027601
20
16.6003724258521
30
0
41
1
10
238.91753433748
20
16.5471805278543
30
0
0
SPLINE
5
297
100
AcDbEntity
8
1
62
256
6
ByLayer
370
13
48
1
60
0
100
AcDbSpline
70
4
71
1
72
4
73
2
40
0
40
0
40
1
40
1
41
1
10
239.195172435203
20
16.3068367213958
30
0
41
1
10
238.933997650062
20
16.2993611180038
30
0
0
SPLINE
5
298
100
AcDbEntity
8
1
62
256
6
ByLayer
370
13
48
1
60
0
100
AcDbSpline
70
4
71
2
72
6
73
3
40
0
40
0
40
0
40
1
40
1
40
1
41
1
10
239.185408335082
20
16.4215134916292
30
0
41
0.997409491337352
10
239.184643084332
20
16.4792036060257
30
0
41
1
10
239.19212727077
20
16.5364031536279
30
0
0
SPLINE
5
299
100
AcDbEntity
8
1
62
256
6
ByLayer
370
13
48
1
60
0
100
AcDbSpline
70
4
71
3
72
20
73
16
40
0
40
0
40
0
40
0
40
0.0624999999999883
40
0.0624999999999883
40
0.124999999999977
40
0.124999999999977
40
0.140624999999976
40
0.140624999999976
40
0.156249999999976
40
0.156249999999976
40
0.187499999999976
40
0.187499999999976
40
0.249999999999975
40
0.499999999999983
40
1
40
1
40
1
40
1
41
1
10
243.170474822354
20
8.26103243778607
30
0
41
1
10
243.300874297879
20
8.34824023787468
30
0
41
1
10
243.438471529469
20
8.4194266306348
30
0
41
1
10
243.727512235051
20
8.53097921503849
30
0
41
1
10
243.880639845587
20
8.5712905743809
30
0
41
1
10
244.071713490459
20
8.599463373807
30
0
41
1
10
244.109997755
20
8.60404616264901
30
0
41
1
10
244.186708728764
20
8.61105717117977
30
0
41
1
10
244.225153718443
20
8.61320888698404
30
0
41
1
10
244.340521309557
20
8.61917060407603
30
0
41
1
10
244.417426691502
20
8.62324106144513
30
0
41
1
10
244.64815074686
20
8.63533279681363
30
0
41
1
10
245.417230931387
20
8.6756385813753
30
0
41
1
10
247.416839411177
20
8.78043362123663
30
0
41
1
10
249.262631853989
20
8.87716750418178
30
0
41
1
10
250.493160149233
20
8.94165675948048
30
0
0
SPLINE
5
29A
100
AcDbEntity
8
1
62
256
6
ByLayer
370
13
48
1
60
0
100
AcDbSpline
70
4
71
3
72
8
73
4
40
0
40
0
40
0
40
0
40
1
40
1
40
1
40
1
41
1
10
258.528786202938
20
27.4864119069455
30
0
41
1
10
258.438369970163
20
27.486658574103
30
0
41
1
10
258.347918919547
20
27.4855189585889
30
0
41
1
10
258.257434069999
20
27.4830336285194
30
0
0
SPLINE
5
29B
100
AcDbEntity
8
1
62
256
6
ByLayer
370
13
48
1
60
0
100
AcDbSpline
70
4
71
3
72
10
73
6
40
0
40
0
40
0
40
0
40
0.5
40
0.5
40
1
40
1
40
1
40
1
41
1
10
242.878223886348
20
8.00206367624108
30
0
41
1
10
242.87447634121
20
8.00186727572265
30
0
41
1
10
242.857399510896
20
8.01165830722522
30
0
41
1
10
242.806916880651
20
8.04463031405317
30
0
41
1
10
242.773471540529
20
8.06777729676463
30
0
41
1
10
242.741532311568
20
8.09064976166906
30
0
0
SPLINE
5
29C
100
AcDbEntity
8
1
62
256
6
ByLayer
370
13
48
1
60
0
100
AcDbSpline
70
4
71
2
72
6
73
3
40
0
40
0
40
0
40
1
40
1
40
1
41
1
10
239.185408335082
20
16.4215134916292
30
0
41
0.997409491337352
10
239.186173585833
20
16.3638233772313
30
0
41
1
10
239.195172435203
20
16.3068367213958
30
0
0
SPLINE
5
29D
100
AcDbEntity
8
1
62
256
6
ByLayer
370
13
48
1
60
0
100
AcDbSpline
70
4
71
1
72
4
73
2
40
0
40
0
40
1
40
1
41
1
10
240.615430367333
20
7.31282574887265
30
0
41
1
10
240.584703922022
20
7.31194626612009
30
0
0
SPLINE
5
29E
100
AcDbEntity
8
1
62
256
6
ByLayer
370
13
48
1
60
0
100
AcDbSpline
70
4
71
3
72
22
73
18
40
0
40
0
40
0
40
0
40
0.0625000000000062
40
0.0625000000000062
40
0.0937500000000093
40
0.0937500000000093
40
0.125000000000012
40
0.125000000000012
40
0.156250000000015
40
0.156250000000015
40
0.171875000000017
40
0.171875000000017
40
0.187500000000019
40
0.187500000000019
40
0.250000000000025
40
0.500000000000017
40
1
40
1
40
1
40
1
41
1
10
243.078865173501
20
8.42850620120817
30
0
41
1
10
243.211923485958
20
8.51749216274064
30
0
41
1
10
243.352090061535
20
8.59138409692858
30
0
41
1
10
243.572701324787
20
8.6802201039975
30
0
41
1
10
243.648347691613
20
8.70625248859184
30
0
41
1
10
243.801480822443
20
8.75018941519465
30
0
41
1
10
243.878371817327
20
8.76794472599582
30
0
41
1
10
244.032773034724
20
8.79541384490062
30
0
41
1
10
244.110276154019
20
8.80521989785365
30
0
41
1
10
244.227003657231
20
8.81378871890931
30
0
41
1
10
244.265994495996
20
8.81558438458737
30
0
41
1
10
244.343938854903
20
8.81966034838277
30
0
41
1
10
244.382910396916
20
8.82170660829641
30
0
41
1
10
244.577769582562
20
8.83191874548902
30
0
41
1
10
245.357206325148
20
8.87276729425955
30
0
41
1
10
247.383741855871
20
8.9789735210629
30
0
41
1
10
249.254390038077
20
9.07701003811215
30
0
41
1
10
250.501488826213
20
9.14236771614497
30
0
0
SPLINE
5
29F
100
AcDbEntity
8
1
62
256
6
ByLayer
370
13
48
1
60
0
100
AcDbSpline
70
4
71
3
72
8
73
4
40
0
40
0
40
0
40
0
40
1
40
1
40
1
40
1
41
1
10
240.448819731773
20
26.5223457166457
30
0
41
1
10
240.387742251337
20
26.5285629611245
30
0
41
1
10
240.326731781405
20
26.5347711316217
30
0
41
1
10
240.265614185608
20
26.540993800203
30
0
0
SPLINE
5
2A0
100
AcDbEntity
8
1
62
256
6
ByLayer
370
13
48
1
60
0
100
AcDbSpline
70
4
71
3
72
20
73
16
40
0
40
0
40
0
40
0
40
0.500000000000037
40
0.500000000000037
40
0.750000000000049
40
0.750000000000049
40
0.875000000000049
40
0.875000000000049
40
0.906250000000043
40
0.906250000000043
40
0.92187500000004
40
0.92187500000004
40
0.937500000000037
40
0.937500000000037
40
1
40
1
40
1
40
1
41
1
10
249.642177500723
20
25.17937299459
30
0
41
1
10
248.519750599057
20
25.1205490932662
30
0
41
1
10
247.397323443939
20
25.0617300281828
30
0
41
1
10
245.713683079094
20
24.9734944117717
30
0
41
1
10
245.152470501406
20
24.9440708512663
30
0
41
1
10
244.310650285169
20
24.8999530210433
30
0
41
1
10
244.030041829513
20
24.8852688824869
30
0
41
1
10
243.679284148065
20
24.8668770299894
30
0
41
1
10
243.609133213828
20
24.8631910134004
30
0
41
1
10
243.50390601485
20
24.8576721183422
30
0
41
1
10
243.468829271388
20
24.8558453196685
30
0
41
1
10
243.398676895553
20
24.8521776114411
30
0
41
1
10
243.363622076852
20
24.8500723672101
30
0
41
1
10
243.187905644278
20
24.8451638742931
30
0
41
1
10
243.046246623093
20
24.8550277482279
30
0
41
1
10
242.903378384815
20
24.8802487395515
30
0
0
SPLINE
5
2A1
100
AcDbEntity
8
1
62
256
6
ByLayer
370
13
48
1
60
0
100
AcDbSpline
70
4
71
3
72
8
73
4
40
0
40
0
40
0
40
0
40
1
40
1
40
1
40
1
41
1
10
258.005734699259
20
27.4424646411529
30
0
41
1
10
258.065827711855
20
27.4550321620862
30
0
41
1
10
258.125855029528
20
27.4675836542411
30
0
41
1
10
258.185987370756
20
27.4801607627601
30
0
0
SPLINE
5
2A2
100
AcDbEntity
8
1
62
256
6
ByLayer
370
13
48
1
60
0
100
AcDbSpline
70
4
71
3
72
9
73
5
40
0
40
0
40
0
40
0
40
0.806009473594714
40
1
40
1
40
1
40
1
41
1
10
240.194258582616
20
26.5363827144257
30
0
41
1
10
240.213412914181
20
26.5378614432068
30
0
41
1
10
240.237207570514
20
26.5392668123638
30
0
41
1
10
240.260998965794
20
26.5407123308988
30
0
41
1
10
240.265614185608
20
26.540993800203
30
0
0
SPLINE
5
2A3
100
AcDbEntity
8
1
62
256
6
ByLayer
370
13
48
1
60
0
100
AcDbSpline
70
4
71
3
72
28
73
24
40
0
40
0
40
0
40
0
40
0.124999999999951
40
0.124999999999951
40
0.249999999999903
40
0.249999999999903
40
0.374999999999855
40
0.374999999999855
40
0.499999999999806
40
0.499999999999806
40
0.624999999999758
40
0.624999999999758
40
0.687499999999734
40
0.687499999999734
40
0.74999999999971
40
0.74999999999971
40
0.7812499999998
40
0.7812499999998
40
0.81249999999989
40
0.81249999999989
40
0.874999999999856
40
0.874999999999856
40
1
40
1
40
1
40
1
41
1
10
259.737304815314
20
7.92848251177207
30
0
41
1
10
259.718607248924
20
7.91773479408454
30
0
41
1
10
259.698778985873
20
7.90712637233105
30
0
41
1
10
259.656248346214
20
7.8862636046305
30
0
41
1
10
259.633349298502
20
7.87594471627841
30
0
41
1
10
259.584848893958
20
7.85638437543
30
0
41
1
10
259.559217785612
20
7.84708553329907
30
0
41
1
10
259.504192918095
20
7.82979935771917
30
0
41
1
10
259.475164664664
20
7.82200682278608
30
0
41
1
10
259.415790725444
20
7.80928332812482
30
0
41
1
10
259.385541022074
20
7.80438210160864
30
0
41
1
10
259.342051050466
20
7.79978097890299
30
0
41
1
10
259.327691665575
20
7.7986685342228
30
0
41
1
10
259.299502478507
20
7.79688858740644
30
0
41
1
10
259.285546434427
20
7.79613663982732
30
0
41
1
10
259.265021582169
20
7.79541638576421
30
0
41
1
10
259.258147997226
20
7.795144454369
30
0
41
1
10
259.24381482819
20
7.79401680711553
30
0
41
1
10
259.236398516224
20
7.79320247585412
30
0
41
1
10
259.213887857709
20
7.79048939113471
30
0
41
1
10
259.199078594616
20
7.7888817834193
30
0
41
1
10
259.155939174762
20
7.78536864271967
30
0
41
1
10
259.127396658905
20
7.78324723766386
30
0
41
1
10
259.09915170074
20
7.78142831269275
30
0
0
SPLINE
5
2A4
100
AcDbEntity
8
1
62
256
6
ByLayer
370
13
48
1
60
0
100
AcDbSpline
70
4
71
1
72
4
73
2
40
0
40
0
40
1
40
1
41
1
10
240.194258582616
20
26.5363827144257
30
0
41
1
10
240.4015222825
20
26.3008702055368
30
0
0
SPLINE
5
2A5
100
AcDbEntity
8
1
62
256
6
ByLayer
370
13
48
1
60
0
100
AcDbSpline
70
4
71
2
72
6
73
3
40
0
40
0
40
0
40
1
40
1
40
1
41
1
10
260.949929314873
20
17.6995162624411
30
0
41
0.997409491337352
10
260.950694565623
20
17.6418261480447
30
0
41
1
10
260.943210379186
20
17.5846266004424
30
0
0
SPLINE
5
2A6
100
AcDbEntity
8
1
62
256
6
ByLayer
370
13
48
1
60
0
100
AcDbSpline
70
4
71
3
72
9
73
5
40
0
40
0
40
0
40
0
40
0.806009473593845
40
1
40
1
40
1
40
1
41
1
10
241.877903579957
20
6.63799612555093
30
0
41
1
10
241.897107551336
20
6.6385276702442
30
0
41
1
10
241.920918759131
20
6.63961721870695
30
0
41
1
10
241.944730920489
20
6.64066649686134
30
0
41
1
10
241.9493502792
20
6.64086899131021
30
0
0
SPLINE
5
2A7
100
AcDbEntity
8
1
62
256
6
ByLayer
370
13
48
1
60
0
100
AcDbSpline
70
4
71
3
72
20
73
16
40
0
40
0
40
0
40
0
40
0.124999999999993
40
0.124999999999993
40
0.249999999999987
40
0.249999999999987
40
0.374999999999981
40
0.374999999999981
40
0.499999999999974
40
0.499999999999974
40
0.624999999999968
40
0.624999999999968
40
0.749999999999961
40
0.749999999999961
40
1
40
1
40
1
40
1
41
1
10
240.615430367333
20
7.31282574887265
30
0
41
1
10
240.625293573939
20
7.24568303862972
30
0
41
1
10
240.643746437041
20
7.1815390732354
30
0
41
1
10
240.696318786879
20
7.05872053542407
30
0
41
1
10
240.731061374142
20
6.99982419602981
30
0
41
1
10
240.814026867593
20
6.89303259210783
30
0
41
1
10
240.861706500047
20
6.84563203914084
30
0
41
1
10
240.967483604299
20
6.76412741569135
30
0
41
1
10
241.026379822803
20
6.72955272054929
30
0
41
1
10
241.148865592662
20
6.67698135433722
30
0
41
1
10
241.213831321851
20
6.6582586673756
30
0
41
1
10
241.346216568484
20
6.63711723480515
30
0
41
1
10
241.412673453022
20
6.63706815762126
30
0
41
1
10
241.611958725925
20
6.63352146763685
30
0
41
1
10
241.744895589321
20
6.63434282049209
30
0
41
1
10
241.877903579957
20
6.63799612555093
30
0
0
SPLINE
5
2A8
100
AcDbEntity
8
1
62
256
6
ByLayer
370
13
48
1
60
0
100
AcDbSpline
70
4
71
3
72
24
73
20
40
0
40
0
40
0
40
0
40
0.125000000000046
40
0.125000000000046
40
0.250000000000091
40
0.250000000000091
40
0.375000000000137
40
0.375000000000137
40
0.500000000000183
40
0.500000000000183
40
0.625000000000229
40
0.625000000000229
40
0.750000000000274
40
0.750000000000274
40
0.812500000000237
40
0.812500000000237
40
0.8750000000002
40
0.8750000000002
40
1
40
1
40
1
40
1
41
1
10
259.519907282623
20
26.8082040051977
30
0
41
1
10
259.511721551862
20
26.8639274803903
30
0
41
1
10
259.497654013588
20
26.9175975510038
30
0
41
1
10
259.45842322215
20
27.0210640544576
30
0
41
1
10
259.433179888664
20
27.0713736657606
30
0
41
1
10
259.372216245982
20
27.1654838103518
30
0
41
1
10
259.33663251293
20
27.2094946299784
30
0
41
1
10
259.258178011296
20
27.2880300149231
30
0
41
1
10
259.215132113955
20
27.3228407848963
30
0
41
1
10
259.12156326366
20
27.3837355005104
30
0
41
1
10
259.071591174821
20
27.4091476376033
30
0
41
1
10
258.96845647226
20
27.4489403266136
30
0
41
1
10
258.914301168589
20
27.4636284029025
30
0
41
1
10
258.831909322844
20
27.4772103855291
30
0
41
1
10
258.804407767
20
27.480240368753
30
0
41
1
10
258.749337181477
20
27.4836138444141
30
0
41
1
10
258.721765925021
20
27.4838686770477
30
0
41
1
10
258.639074223896
20
27.4855118285695
30
0
41
1
10
258.583937737627
20
27.4862614464377
30
0
41
1
10
258.528786202938
20
27.4864119069455
30
0
0
SPLINE
5
2A9
100
AcDbEntity
8
SK1
62
256
6
ByLayer
370
13
48
1
60
0
100
AcDbSpline
70
4
71
3
72
8
73
4
40
0
40
0
40
0
40
0
40
1
40
1
40
1
40
1
41
1
10
-78.5999993841624
20
10.6704826507521
30
0
41
1
10
-78.571842816211
20
10.5890315497
30
0
41
1
10
-78.5439155289718
20
10.5074810741399
30
0
41
1
10
-78.5162221138982
20
10.4258292340508
30
0
0
SPLINE
5
2AA
100
AcDbEntity
8
SK1
62
256
6
ByLayer
370
13
48
1
60
0
100
AcDbSpline
70
4
71
3
72
8
73
4
40
0
40
0
40
0
40
0
40
1
40
1
40
1
40
1
41
1
10
-76.6000022063887
20
-10.6704826507519
30
0
41
1
10
-76.9486457469478
20
-10.3889796865166
30
0
41
1
10
-77.2935001928291
20
-10.1014670365259
30
0
41
1
10
-77.6338131992803
20
-9.80675144594593
30
0
0
SPLINE
5
2AB
100
AcDbEntity
8
SK1
62
256
6
ByLayer
370
13
48
1
60
0
100
AcDbSpline
70
4
71
3
72
22
73
18
40
0
40
0
40
0
40
0
40
0.250000000000013
40
0.250000000000013
40
0.375000000000011
40
0.375000000000011
40
0.500000000000009
40
0.500000000000009
40
0.625000000000006
40
0.625000000000006
40
0.687500000000005
40
0.687500000000005
40
0.750000000000004
40
0.750000000000004
40
0.875000000000002
40
0.875000000000002
40
1
40
1
40
1
40
1
41
1
10
-78.5162221138982
20
10.4258292340508
30
0
41
1
10
-78.4816010925007
20
10.3237518956136
30
0
41
1
10
-78.4411780188043
20
10.2239013321123
30
0
41
1
10
-78.3666785250411
20
10.0794467030181
30
0
41
1
10
-78.3393689035363
20
10.0320610579929
30
0
41
1
10
-78.2793566754053
20
9.94200016242738
30
0
41
1
10
-78.2466129799402
20
9.89906478118272
30
0
41
1
10
-78.1725895963645
20
9.81972659981167
30
0
41
1
10
-78.1310790894698
20
9.78319125007499
30
0
41
1
10
-78.0614135112523
20
9.74017151629329
30
0
41
1
10
-78.0367084860757
20
9.72773410304424
30
0
41
1
10
-77.9859900462305
20
9.70877612675764
30
0
41
1
10
-77.9597650984162
20
9.7020911495909
30
0
41
1
10
-77.8779326920127
20
9.69222679373803
30
0
41
1
10
-77.8229289559465
20
9.7004005561752
30
0
41
1
10
-77.720518632779
20
9.74066343125068
30
0
41
1
10
-77.6749703009745
20
9.77110884838677
30
0
41
1
10
-77.6338131992791
20
9.806751445945
30
0
0
SPLINE
5
2AC
100
AcDbEntity
8
1
62
256
6
ByLayer
370
13
48
1
60
0
100
AcDbSpline
70
4
71
3
72
44
73
40
40
0
40
0
40
0
40
0
40
0.125
40
0.125
40
0.15625
40
0.15625
40
0.1875
40
0.1875
40
0.25
40
0.25
40
0.3125
40
0.3125
40
0.34375
40
0.34375
40
0.375
40
0.375
40
0.4375
40
0.4375
40
0.46875
40
0.46875
40
0.5
40
0.5
40
0.5625
40
0.5625
40
0.59375
40
0.59375
40
0.625
40
0.625
40
0.65625
40
0.65625
40
0.687500000000001
40
0.687500000000001
40
0.75
40
0.75
40
0.8125
40
0.8125
40
0.875
40
0.875
40
1
40
1
40
1
40
1
41
1
10
5.68819999999995
20
-5.56776436283025
30
0
41
1
10
6.1722846595472
20
-5.23415805286797
30
0
41
1
10
6.63787323888459
20
-4.87798248241393
30
0
41
1
10
7.18689331801674
20
-4.39253772719064
30
0
41
1
10
7.2950224699307
20
-4.29340507610252
30
0
41
1
10
7.50755216523811
20
-4.09059005657986
30
0
41
1
10
7.61211843323619
20
-3.98672797575668
30
0
41
1
10
7.91762181177383
20
-3.66950931523886
30
0
41
1
10
8.11079387824516
20
-3.45025431846187
30
0
41
1
10
8.47162398436707
20
-2.99284396796702
30
0
41
1
10
8.63932222009842
20
-2.75471839082181
30
0
41
1
10
8.86676029207881
20
-2.37967027950822
30
0
41
1
10
8.93853462047088
20
-2.2516626923493
30
0
41
1
10
9.07283063905592
20
-1.98879332108967
30
0
41
1
10
9.1350532209089
20
-1.85438478014257
30
0
41
1
10
9.30304112265576
20
-1.44705614400655
30
0
41
1
10
9.39126158855643
20
-1.16806589877271
30
0
41
1
10
9.48190716602215
20
-0.736537732328031
30
0
41
1
10
9.50522398069955
20
-0.589617002536897
30
0
41
1
10
9.53619285832282
20
-0.296084541374853
30
0
41
1
10
9.54393668482724
20
-0.149672430263337
30
0
41
1
10
9.54431323414704
20
0.288518330003569
30
0
41
1
10
9.51411462186998
20
0.579252485525927
30
0
41
1
10
9.42415990297573
20
1.01331074832245
30
0
41
1
10
9.3868032309619
20
1.15693676526595
30
0
41
1
10
9.29963740143843
20
1.43785134604488
30
0
41
1
10
9.24969466333074
20
1.57582632758673
30
0
41
1
10
9.13822189612834
20
1.84725364383391
30
0
41
1
10
9.07669034634229
20
1.98070538499667
30
0
41
1
10
8.9429839016581
20
2.24345465291998
30
0
41
1
10
8.87061427974589
20
2.37300739238225
30
0
41
1
10
8.64212861010026
20
2.75068511785278
30
0
41
1
10
8.47391385552621
20
2.98973866771686
30
0
41
1
10
8.11272379726901
20
3.44800800280601
30
0
41
1
10
7.9197024857188
20
3.66718692724766
30
0
41
1
10
7.51344293012035
20
4.08934728604902
30
0
41
1
10
7.29960833414171
20
4.29277142403885
30
0
41
1
10
6.63922777098649
20
4.87699000406485
30
0
41
1
10
6.1728328872487
20
5.23378024246455
30
0
41
1
10
5.68819999999995
20
5.56776436283022
30
0
0
SPLINE
5
2AD
100
AcDbEntity
8
1
62
256
6
ByLayer
370
13
48
1
60
0
100
AcDbSpline
70
4
71
3
72
24
73
20
40
0
40
0
40
0
40
0
40
0.124999999999995
40
0.124999999999995
40
0.249999999999989
40
0.249999999999989
40
0.374999999999984
40
0.374999999999984
40
0.499999999999978
40
0.499999999999978
40
0.624999999999972
40
0.624999999999972
40
0.68749999999997
40
0.68749999999997
40
0.749999999999967
40
0.749999999999967
40
0.874999999999983
40
0.874999999999983
40
1
40
1
40
1
40
1
41
1
10
243.768544146329
20
6.96646106771311
30
0
41
1
10
243.647874541018
20
6.87080744417838
30
0
41
1
10
243.520289913448
20
6.78398591077831
30
0
41
1
10
243.252114252457
20
6.62973419996857
30
0
41
1
10
243.113975934331
20
6.56364332740134
30
0
41
1
10
242.829133499697
20
6.45270971977743
30
0
41
1
10
242.682046219437
20
6.40778400734706
30
0
41
1
10
242.38004818898
20
6.34034633125216
30
0
41
1
10
242.228125409137
20
6.31844433692223
30
0
41
1
10
241.922389134892
20
6.29736609372952
30
0
41
1
10
241.76857568002
20
6.29819103795092
30
0
41
1
10
241.53648474418
20
6.31697045249427
30
0
41
1
10
241.458773169932
20
6.32621246061726
30
0
41
1
10
241.305544477614
20
6.35028672295132
30
0
41
1
10
241.229702311493
20
6.36513326090613
30
0
41
1
10
241.004479409822
20
6.41795043303918
30
0
41
1
10
240.857385677806
20
6.46414690316863
30
0
41
1
10
240.569629179865
20
6.57894860031794
30
0
41
1
10
240.428669404933
20
6.64796890025187
30
0
41
1
10
240.295745705764
20
6.72625261206113
30
0
0
SPLINE
5
2AE
100
AcDbEntity
8
1
62
256
6
ByLayer
370
13
48
1
60
0
100
AcDbSpline
70
4
71
3
72
20
73
16
40
0
40
0
40
0
40
0
40
0.124999999999999
40
0.124999999999999
40
0.249999999999998
40
0.249999999999998
40
0.499999999999994
40
0.499999999999994
40
0.624999999999995
40
0.624999999999995
40
0.749999999999997
40
0.749999999999997
40
0.874999999999998
40
0.874999999999998
40
1
40
1
40
1
40
1
41
1
10
233.487465033209
20
10.2591131456436
30
0
41
1
10
233.509580532397
20
10.3260919197297
30
0
41
1
10
233.530735743729
20
10.3967134604858
30
0
41
1
10
233.571908897225
20
10.5450831773013
30
0
41
1
10
233.591984424254
20
10.6231148079686
30
0
41
1
10
233.650801094636
20
10.8664512341331
30
0
41
1
10
233.686936044316
20
11.0357736872201
30
0
41
1
10
233.739611621394
20
11.2997006079902
30
0
41
1
10
233.756945908334
20
11.3895864955549
30
0
41
1
10
233.790839326826
20
11.5676537418907
30
0
41
1
10
233.807507308735
20
11.6564444332356
30
0
41
1
10
233.841417114034
20
11.8333172154146
30
0
41
1
10
233.858716753131
20
11.921841841789
30
0
41
1
10
233.895172462175
20
12.0932887278083
30
0
41
1
10
233.914238794721
20
12.176719249428
30
0
41
1
10
233.937032120106
20
12.2571167358492
30
0
0
SPLINE
5
2AF
100
AcDbEntity
8
1
62
256
6
ByLayer
370
13
48
1
60
0
100
AcDbSpline
70
4
71
3
72
8
73
4
40
0
40
0
40
0
40
0
40
1
40
1
40
1
40
1
41
1
10
233.485477035683
20
10.252564033961
30
0
41
1
10
233.48608350969
20
10.2547541625697
30
0
41
1
10
233.486746547566
20
10.2569371473968
30
0
41
1
10
233.487465033208
20
10.2591131456438
30
0
0
SPLINE
5
2B0
100
AcDbEntity
8
1
62
256
6
ByLayer
370
13
48
1
60
0
100
AcDbSpline
70
4
71
3
72
14
73
10
40
0
40
0
40
0
40
0
40
0.125
40
0.125
40
0.25
40
0.25
40
0.5
40
0.5
40
1
40
1
40
1
40
1
41
1
10
252.424967649591
20
8.72245934985727
30
0
41
1
10
252.465658114981
20
8.72459184678632
30
0
41
1
10
252.507114571248
20
8.72766024208215
30
0
41
1
10
252.588916168714
20
8.73551607931296
30
0
41
1
10
252.629667993413
20
8.74032300841336
30
0
41
1
10
252.75154932817
20
8.7573702674253
30
0
41
1
10
252.832304212869
20
8.77222908052164
30
0
41
1
10
253.073641151445
20
8.82748298753455
30
0
41
1
10
253.233219567449
20
8.87835520127592
30
0
41
1
10
253.393438565166
20
8.94567333054235
30
0
0
SPLINE
5
2B1
100
AcDbEntity
8
1
62
256
6
ByLayer
370
13
48
1
60
0
100
AcDbSpline
70
4
71
3
72
10
73
6
40
0
40
0
40
0
40
0
40
0.5
40
0.5
40
1
40
1
40
1
40
1
41
1
10
232.149487636423
20
0.998280930996742
30
0
41
1
10
232.526179903799
20
0.787003949763772
30
0
41
1
10
232.913489579988
20
0.602695204956063
30
0
41
1
10
233.709744342082
20
0.289101800913528
30
0
41
1
10
234.118676429189
20
0.159783977482618
30
0
41
1
10
234.539169144042
20
0.0598944566751527
30
0
0
SPLINE
5
2B2
100
AcDbEntity
8
1
62
256
6
ByLayer
370
13
48
1
60
0
100
AcDbSpline
70
4
71
3
72
8
73
4
40
0
40
0
40
0
40
0
40
1
40
1
40
1
40
1
41
1
10
41
20
-26.7134985637175
30
0
41
1
10
39.3333331710219
20
-26.7134672412764
30
0
41
1
10
37.6666663374131
20
-26.7134013724748
30
0
41
1
10
36
20
-26.7132869747004
30
0
0
SPLINE
5
2B3
100
AcDbEntity
8
1
62
256
6
ByLayer
370
13
48
1
60
0
100
AcDbSpline
70
4
71
3
72
18
73
14
40
0
40
0
40
0
40
0
40
0.125000000000002
40
0.125000000000002
40
0.250000000000005
40
0.250000000000005
40
0.50000000000001
40
0.50000000000001
40
0.750000000000015
40
0.750000000000015
40
0.875000000000008
40
0.875000000000008
40
1
40
1
40
1
40
1
41
1
10
237.631821169215
20
10.2187192740152
30
0
41
1
10
237.566275085201
20
10.3195391704879
30
0
41
1
10
237.497137180616
20
10.4199917366446
30
0
41
1
10
237.351055585719
20
10.6198141269759
30
0
41
1
10
237.274086882064
20
10.7191492453635
30
0
41
1
10
237.034657377586
20
11.0101968643947
30
0
41
1
10
236.862557080775
20
11.1966292554133
30
0
41
1
10
236.491860858754
20
11.5518755510545
30
0
41
1
10
236.293250593578
20
11.7206553702378
30
0
41
1
10
235.97355885148
20
11.958260806119
30
0
41
1
10
235.862805815836
20
12.0352156385817
30
0
41
1
10
235.636790124257
20
12.181714475873
30
0
41
1
10
235.521694771046
20
12.2512161885785
30
0
41
1
10
235.404595162984
20
12.3171345303866
30
0
0
SPLINE
5
2B4
100
AcDbEntity
8
1
62
256
6
ByLayer
370
13
48
1
60
0
100
AcDbSpline
70
4
71
3
72
12
73
8
40
0
40
0
40
0
40
0
40
0.500000000000001
40
0.500000000000001
40
0.75
40
0.75
40
1
40
1
40
1
40
1
41
1
10
231.897795892657
20
2.28070764446073
30
0
41
1
10
232.333809306853
20
2.15655352305896
30
0
41
1
10
232.771563111652
20
2.08136970274214
30
0
41
1
10
233.428363028237
20
2.03857669127501
30
0
41
1
10
233.647309316325
20
2.03605877549495
30
0
41
1
10
234.084605432001
20
2.05481511215376
30
0
41
1
10
234.30341755363
20
2.07629230174436
30
0
41
1
10
234.517092839
20
2.10913668270336
30
0
0
SPLINE
5
2B5
100
AcDbEntity
8
1
62
256
6
ByLayer
370
13
48
1
60
0
100
AcDbSpline
70
4
71
3
72
12
73
8
40
0
40
0
40
0
40
0
40
0.0770727781688541
40
0.0770727781688541
40
0.508082158199644
40
0.508082158199644
40
1
40
1
40
1
40
1
41
1
10
36.45
20
-26.0526184883292
30
0
41
1
10
36.45
20
-25.7604406581458
30
0
41
1
10
36.45
20
-25.4682628283908
30
0
41
1
10
36.45
20
-23.5421568071819
30
0
41
1
10
36.45
20
-21.9082286286985
30
0
41
1
10
36.45
20
-18.4094723325798
30
0
41
1
10
36.45
20
-16.5446442190005
30
0
41
1
10
36.45
20
-14.6798161228872
30
0
0
SPLINE
5
2B6
100
AcDbEntity
8
1
62
256
6
ByLayer
370
13
48
1
60
0
100
AcDbSpline
70
4
71
3
72
8
73
4
40
0
40
0
40
0
40
0
40
1
40
1
40
1
40
1
41
1
10
233.268715612523
20
9.5128004629033
30
0
41
1
10
233.345398852691
20
9.75857276371798
30
0
41
1
10
233.417001153496
20
10.0052805775293
30
0
41
1
10
233.485477035683
20
10.252564033961
30
0
0
SPLINE
5
2B7
100
AcDbEntity
8
1
62
256
6
ByLayer
370
13
48
1
60
0
100
AcDbSpline
70
4
71
3
72
40
73
36
40
0
40
0
40
0
40
0
40
0.125
40
0.125
40
0.1875
40
0.1875
40
0.21875
40
0.21875
40
0.25
40
0.25
40
0.374999999999999
40
0.374999999999999
40
0.406249999999999
40
0.406249999999999
40
0.437499999999999
40
0.437499999999999
40
0.499999999999999
40
0.499999999999999
40
0.562499999999999
40
0.562499999999999
40
0.593749999999999
40
0.593749999999999
40
0.624999999999999
40
0.624999999999999
40
0.687499999999999
40
0.687499999999999
40
0.749999999999999
40
0.749999999999999
40
0.874999999999999
40
0.874999999999999
40
0.90625
40
0.90625
40
0.9375
40
0.9375
40
1
40
1
40
1
40
1
41
1
10
15.8468697798587
20
-12.4627657536302
30
0
41
1
10
15.1371351075425
20
-12.5521242063833
30
0
41
1
10
14.4456312804845
20
-12.7111894571409
30
0
41
1
10
13.4319339133667
20
-13.0404557668071
30
0
41
1
10
13.0980109126644
20
-13.1655182501163
30
0
41
1
10
12.6030145518887
20
-13.3759091041849
30
0
41
1
10
12.4390833311547
20
-13.4498358545792
30
0
41
1
10
12.1167898544535
20
-13.6035958806087
30
0
41
1
10
11.9579662456779
20
-13.6836208874453
30
0
41
1
10
11.1750740626446
20
-14.0988278774553
30
0
41
1
10
10.5842528535317
20
-14.4787118899923
30
0
41
1
10
9.89193951864547
20
-15.0137515240763
30
0
41
1
10
9.75538985690908
20
-15.1241618726628
30
0
41
1
10
9.48951669785967
20
-15.3491201186238
30
0
41
1
10
9.36022203480549
20
-15.4635755071429
30
0
41
1
10
8.98330586998341
20
-15.8127802156511
30
0
41
1
10
8.74661434491954
20
-16.0533480988759
30
0
41
1
10
8.30307480167865
20
-16.5497322680138
30
0
41
1
10
8.09621523908743
20
-16.8055444319608
30
0
41
1
10
7.80995974644382
20
-17.2010907949431
30
0
41
1
10
7.71855987674438
20
-17.3349175568296
30
0
41
1
10
7.54426181562501
20
-17.606685625713
30
0
41
1
10
7.46146096946893
20
-17.7445680464917
30
0
41
1
10
7.2302111584988
20
-18.15783949544
30
0
41
1
10
7.09736645215322
20
-18.4349854271838
30
0
41
1
10
6.87658851753217
20
-18.9922985942663
30
0
41
1
10
6.78850235851404
20
-19.2724375398292
30
0
41
1
10
6.59789767722624
20
-20.117333321923
30
0
41
1
10
6.57386404116971
20
-20.6567811958218
30
0
41
1
10
6.67800902279235
20
-21.2996800070127
30
0
41
1
10
6.70571850456422
20
-21.4272088536008
30
0
41
1
10
6.77435036049411
20
-21.6765266852378
30
0
41
1
10
6.81510511241149
20
-21.7979621540837
30
0
41
1
10
6.95624822113106
20
-22.1529623205684
30
0
41
1
10
7.07537503601748
20
-22.3772697405925
30
0
41
1
10
7.21994497836711
20
-22.5896051329037
30
0
0
SPLINE
5
2B8
100
AcDbEntity
8
1
62
256
6
ByLayer
370
13
48
1
60
0
100
AcDbSpline
70
4
71
3
72
8
73
4
40
0
40
0
40
0
40
0
40
1
40
1
40
1
40
1
41
1
10
36
20
-26.7132869747004
30
0
41
1
10
35.4144793017409
20
-26.7132467853337
30
0
41
1
10
34.8294794128794
20
-26.7262614144593
30
0
41
1
10
34.2449987782281
20
-26.7522922940616
30
0
0
SPLINE
5
2B9
100
AcDbEntity
8
1
62
256
6
ByLayer
370
13
48
1
60
0
100
AcDbSpline
70
4
71
3
72
12
73
8
40
0
40
0
40
0
40
0
40
0.250000000000004
40
0.250000000000004
40
0.500000000000008
40
0.500000000000008
40
1
40
1
40
1
40
1
41
1
10
245.723255100627
20
6.36735352719444
30
0
41
1
10
246.024050062395
20
6.47799412962678
30
0
41
1
10
246.31876156757
20
6.57124558024506
30
0
41
1
10
246.897926421083
20
6.72997371531295
30
0
41
1
10
247.182354700801
20
6.79539300081308
30
0
41
1
10
248.021163186075
20
6.95672580427924
30
0
41
1
10
248.561270586455
20
7.01791304795915
30
0
41
1
10
249.080970904527
20
7.04514938752189
30
0
0
SPLINE
5
2BA
100
AcDbEntity
8
1
62
256
6
ByLayer
370
13
48
1
60
0
100
AcDbSpline
70
4
71
3
72
8
73
4
40
0
40
0
40
0
40
0
40
1
40
1
40
1
40
1
41
1
10
230.655699552205
20
2.74191953291114
30
0
41
1
10
228.382789417421
20
3.79600734316187
30
0
41
1
10
226.121662002464
20
4.88543220183556
30
0
41
1
10
223.871072057633
20
6.00645953409983
30
0
0
SPLINE
5
2BB
100
AcDbEntity
8
1
62
256
6
ByLayer
370
13
48
1
60
0
100
AcDbSpline
70
4
71
3
72
18
73
14
40
0
40
0
40
0
40
0
40
0.250000000000008
40
0.250000000000008
40
0.500000000000017
40
0.500000000000017
40
0.562500000000019
40
0.562500000000019
40
0.625000000000021
40
0.625000000000021
40
0.750000000000017
40
0.750000000000017
40
1
40
1
40
1
40
1
41
1
10
238.756780999062
20
6.10433207655367
30
0
41
1
10
239.332317251194
20
5.94083479147835
30
0
41
1
10
239.91023890373
20
5.82644966626961
30
0
41
1
10
241.071947209689
20
5.68771769492878
30
0
41
1
10
241.655730029211
20
5.66344125232098
30
0
41
1
10
242.389783943411
20
5.68993856439045
30
0
41
1
10
242.536811022539
20
5.69810015578062
30
0
41
1
10
242.831314407631
20
5.72024090023368
30
0
41
1
10
242.979010290079
20
5.73424999565273
30
0
41
1
10
243.420388830423
20
5.78489073104805
30
0
41
1
10
243.71277067978
20
5.83011388597492
30
0
41
1
10
244.584304096821
20
6.0002572327771
30
0
41
1
10
245.157925647087
20
6.15940991356229
30
0
41
1
10
245.723255100627
20
6.36735352719438
30
0
0
SPLINE
5
2BC
100
AcDbEntity
8
1
62
256
6
ByLayer
370
13
48
1
60
0
100
AcDbSpline
70
4
71
3
72
8
73
4
40
0
40
0
40
0
40
0
40
1
40
1
40
1
40
1
41
1
10
248.085172465964
20
8.69529479093973
30
0
41
1
10
248.141760801967
20
8.698260459963
30
0
41
1
10
248.19828360401
20
8.69143095501764
30
0
41
1
10
248.252115878551
20
8.67622802595932
30
0
0
SPLINE
5
2BD
100
AcDbEntity
8
1
62
256
6
ByLayer
370
13
48
1
60
0
100
AcDbSpline
70
4
71
3
72
8
73
4
40
0
40
0
40
0
40
0
40
1
40
1
40
1
40
1
41
1
10
36.45
20
-26.0526181929374
30
0
41
1
10
36.2999999947056
20
-26.0527430835969
30
0
41
1
10
36.1499999944708
20
-26.0528725260288
30
0
41
1
10
36
20
-26.0530066284033
30
0
0
SPLINE
5
2BE
100
AcDbEntity
8
1
62
256
6
ByLayer
370
13
48
1
60
0
100
AcDbSpline
70
4
71
3
72
8
73
4
40
0
40
0
40
0
40
0
40
1
40
1
40
1
40
1
41
1
10
41
20
-9.58111482467453
30
0
41
1
10
39.3333331058306
20
-9.58068293534592
30
0
41
1
10
37.6666662181831
20
-9.57981916050664
30
0
41
1
10
36
20
-9.57835209711266
30
0
0
SPLINE
5
2BF
100
AcDbEntity
8
1
62
256
6
ByLayer
370
13
48
1
60
0
100
AcDbSpline
70
4
71
1
72
4
73
2
40
0
40
0
40
1
40
1
41
1
10
36.01
20
-26.062147431663
30
0
41
1
10
36.01
20
-14.6838763387325
30
0
0
SPLINE
5
2C0
100
AcDbEntity
8
1
62
256
6
ByLayer
370
13
48
1
60
0
100
AcDbSpline
70
4
71
3
72
8
73
4
40
0
40
0
40
0
40
0
40
1
40
1
40
1
40
1
41
1
10
36.01
20
-26.0662966445514
30
0
41
1
10
35.4216662502661
20
-26.0668220582108
30
0
41
1
10
34.8333325025439
20
-26.0673491256046
30
0
41
1
10
34.2449987538806
20
-26.0678754192972
30
0
0
SPLINE
5
2C1
100
AcDbEntity
8
1
62
256
6
ByLayer
370
13
48
1
60
0
100
AcDbSpline
70
4
71
3
72
8
73
4
40
0
40
0
40
0
40
0
40
1
40
1
40
1
40
1
41
1
10
36
20
-9.57835209711266
30
0
41
1
10
35.4144669247645
20
-9.57783668848955
30
0
41
1
10
34.8294671897746
20
-9.57779132050354
30
0
41
1
10
34.2449991302681
20
-9.57821215518047
30
0
0
SPLINE
5
2C2
100
AcDbEntity
8
1
62
256
6
ByLayer
370
13
48
1
60
0
100
AcDbSpline
70
4
71
3
72
8
73
4
40
0
40
0
40
0
40
0
40
1
40
1
40
1
40
1
41
1
10
235.128351265129
20
8.63176633509883
30
0
41
1
10
235.077575743258
20
8.49623889528368
30
0
41
1
10
235.020891450609
20
8.36247547723045
30
0
41
1
10
234.95835282408
20
8.23045982918777
30
0
0
SPLINE
5
2C3
100
AcDbEntity
8
1
62
256
6
ByLayer
370
13
48
1
60
0
100
AcDbSpline
70
4
71
3
72
18
73
14
40
0
40
0
40
0
40
0
40
0.25
40
0.25
40
0.375
40
0.375
40
0.5
40
0.625
40
0.625
40
0.75
40
0.875
40
0.875
40
1
40
1
40
1
40
1
41
1
10
36.0049999086964
20
-14.6838760361021
30
0
41
1
10
33.8395772874466
20
-15.1638826240047
30
0
41
1
10
31.6897207489088
20
-15.8567811371322
30
0
41
1
10
28.6147814373249
20
-17.2099573438408
30
0
41
1
10
27.6149066865864
20
-17.7138616913416
30
0
41
1
10
25.6853322533612
20
-18.8211888948228
30
0
41
1
10
23.825663976706
20
-20.0268122576696
30
0
41
1
10
22.1436050668208
20
-21.4069564411154
30
0
41
1
10
20.5692444569054
20
-22.8633217993401
30
0
41
1
10
19.1024747163467
20
-24.3958320260443
30
0
41
1
10
17.8691688611664
20
-26.0446993100916
30
0
41
1
10
16.7617360221558
20
-27.733778783275
30
0
41
1
10
16.2717135095263
20
-28.5984240803434
30
0
41
1
10
15.8468703646889
20
-29.4741939438145
30
0
0
SPLINE
5
2C4
100
AcDbEntity
8
1
62
256
6
ByLayer
370
13
48
1
60
0
100
AcDbSpline
70
4
71
3
72
8
73
4
40
0
40
0
40
0
40
0
40
1
40
1
40
1
40
1
41
1
10
228.076418553961
20
26.1197509369838
30
0
41
1
10
228.104250530338
20
26.1629720968414
30
0
41
1
10
228.132019135014
20
26.2062347914039
30
0
41
1
10
228.159724881216
20
26.2495386842945
30
0
0
SPLINE
5
2C5
100
AcDbEntity
8
1
62
256
6
ByLayer
370
13
48
1
60
0
100
AcDbSpline
70
4
71
3
72
18
73
14
40
0
40
0
40
0
40
0
40
0.250000000000034
40
0.250000000000034
40
0.37500000000005
40
0.37500000000005
40
0.500000000000067
40
0.500000000000067
40
0.750000000000035
40
0.750000000000035
40
0.875000000000017
40
0.875000000000017
40
1
40
1
40
1
40
1
41
1
10
244.752959616462
20
8.32038644619931
30
0
41
1
10
244.747539013917
20
8.32010236446254
30
0
41
1
10
244.748703062168
20
8.33035540560098
30
0
41
1
10
244.763828497659
20
8.3587660669871
30
0
41
1
10
244.771142838892
20
8.37026808681986
30
0
41
1
10
244.791002901129
20
8.39576186422843
30
0
41
1
10
244.803815423053
20
8.41000449090916
30
0
41
1
10
244.849796732523
20
8.45246585031987
30
0
41
1
10
244.89193227738
20
8.48115582964778
30
0
41
1
10
244.965166391235
20
8.5123385372915
30
0
41
1
10
244.991663651391
20
8.52101590186101
30
0
41
1
10
245.04578570484
20
8.53349666508305
30
0
41
1
10
245.073642941693
20
8.53745131753132
30
0
41
1
10
245.102306336201
20
8.53896936340493
30
0
0
SPLINE
5
2C6
100
AcDbEntity
8
1
62
256
6
ByLayer
370
13
48
1
60
0
100
AcDbSpline
70
4
71
3
72
8
73
4
40
0
40
0
40
0
40
0
40
1
40
1
40
1
40
1
41
1
10
0.0999999999999659
20
-5.56776436282993
30
0
41
1
10
0.0648944344305846
20
-5.37072855948901
30
0
41
1
10
0.03155109950454
20
-5.17345582387856
30
0
41
1
10
0
20
-4.97594212184998
30
0
0
SPLINE
5
2C7
100
AcDbEntity
8
1
62
256
6
ByLayer
370
13
48
1
60
0
100
AcDbSpline
70
4
71
3
72
14
73
10
40
0
40
0
40
0
40
0
40
0.500000000000036
40
0.500000000000036
40
0.750000000000054
40
0.750000000000054
40
0.875000000000027
40
0.875000000000027
40
1
40
1
40
1
40
1
41
1
10
248.252115878551
20
8.67622802595932
30
0
41
1
10
248.428094872949
20
8.62652928685907
30
0
41
1
10
248.60345890345
20
8.59321066292657
30
0
41
1
10
248.867370356774
20
8.56443570211948
30
0
41
1
10
248.955473112968
20
8.55842634299734
30
0
41
1
10
249.087996003557
20
8.55471184447597
30
0
41
1
10
249.132231659222
20
8.55435892048834
30
0
41
1
10
249.220854336183
20
8.55543464101621
30
0
41
1
10
249.265679991522
20
8.55688809958153
30
0
41
1
10
249.309581836171
20
8.55918889776603
30
0
0
SPLINE
5
2C8
100
AcDbEntity
8
1
62
256
6
ByLayer
370
13
48
1
60
0
100
AcDbSpline
70
4
71
3
72
14
73
10
40
0
40
0
40
0
40
0
40
0.499999999999998
40
0.499999999999998
40
0.749999999999997
40
0.749999999999997
40
0.874999999999999
40
0.874999999999999
40
1
40
1
40
1
40
1
41
1
10
228.076418553964
20
26.1197509369897
30
0
41
1
10
228.885910589023
20
24.3100532983916
30
0
41
1
10
229.813320102221
20
22.5715644723039
30
0
41
1
10
231.433249622212
20
20.1020097501113
30
0
41
1
10
232.011402298641
20
19.3018789289964
30
0
41
1
10
232.942170132419
20
18.1400529536264
30
0
41
1
10
233.263236825485
20
17.7589847295164
30
0
41
1
10
233.922974790454
20
17.0150345532172
30
0
41
1
10
234.262121850795
20
16.6515288457322
30
0
41
1
10
234.610619930595
20
16.2965591027657
30
0
0
SPLINE
5
2C9
100
AcDbEntity
8
1
62
256
6
ByLayer
370
13
48
1
60
0
100
AcDbSpline
70
4
71
3
72
8
73
4
40
0
40
0
40
0
40
0
40
1
40
1
40
1
40
1
41
1
10
236.274467836134
20
6.81422171714541
30
0
41
1
10
237.11888531303
20
6.57123663293285
30
0
41
1
10
237.946780456205
20
6.33443554818976
30
0
41
1
10
238.756780999062
20
6.10433207655373
30
0
0
SPLINE
5
2CA
100
AcDbEntity
8
1
62
256
6
ByLayer
370
13
48
1
60
0
100
AcDbSpline
70
4
71
1
72
4
73
2
40
0
40
0
40
1
40
1
41
1
10
36.45
20
-14.6798161237525
30
0
41
1
10
36
20
-14.6798161237525
30
0
0
SPLINE
5
2CB
100
AcDbEntity
8
1
62
256
6
ByLayer
370
13
48
1
60
0
100
AcDbSpline
70
4
71
3
72
8
73
4
40
0
40
0
40
0
40
0
40
1
40
1
40
1
40
1
41
1
10
249.080970904527
20
7.04514938752183
30
0
41
1
10
249.956913917209
20
7.09105561559497
30
0
41
1
10
250.780335406315
20
7.13420930725297
30
0
41
1
10
251.542167858936
20
7.17413525428063
30
0
0
SPLINE
5
2CC
100
AcDbEntity
8
1
62
256
6
ByLayer
370
13
48
1
60
0
100
AcDbSpline
70
4
71
3
72
18
73
14
40
0
40
0
40
0
40
0
40
0.499999999999999
40
0.499999999999999
40
0.749999999999999
40
0.749999999999999
40
0.781249999999999
40
0.781249999999999
40
0.8125
40
0.8125
40
0.875
40
0.875
40
1
40
1
40
1
40
1
41
1
10
15.8468703646889
20
-29.4741939438145
30
0
41
1
10
18.3628980262754
20
-29.1029284438319
30
0
41
1
10
20.8719345175847
20
-28.6996175972886
30
0
41
1
10
24.6247227575284
20
-28.0453010592674
30
0
41
1
10
25.8737918868139
20
-27.8189785156616
30
0
41
1
10
27.2775986154983
20
-27.5548036796321
30
0
41
1
10
27.4335555672238
20
-27.5253184280515
30
0
41
1
10
27.7454261990132
20
-27.466082177511
30
0
41
1
10
27.901289550126
20
-27.4360220897305
30
0
41
1
10
28.3692042028152
20
-27.3478353118142
30
0
41
1
10
28.6817100340796
20
-27.2925000576607
30
0
41
1
10
29.6209174922079
20
-27.1368729951601
30
0
41
1
10
30.2493083291793
20
-27.0469552547805
30
0
41
1
10
30.879965779845
20
-26.9709576326955
30
0
0
SPLINE
5
2CD
100
AcDbEntity
8
1
62
256
6
ByLayer
370
13
48
1
60
0
100
AcDbSpline
70
4
71
3
72
8
73
4
40
0
40
0
40
0
40
0
40
1
40
1
40
1
40
1
41
1
10
223.604449542931
20
6.08984625618967
30
0
41
1
10
223.693417839199
20
6.06175723075819
30
0
41
1
10
223.782292876666
20
6.03395895712271
30
0
41
1
10
223.871072057633
20
6.00645953409992
30
0
0
SPLINE
5
2CE
100
AcDbEntity
8
1
62
256
6
ByLayer
370
13
48
1
60
0
100
AcDbSpline
70
4
71
3
72
8
73
4
40
0
40
0
40
0
40
0
40
1
40
1
40
1
40
1
41
1
10
258.686004314138
20
0.567230365119258
30
0
41
1
10
258.684098612069
20
0.62060218019073
30
0
41
1
10
258.683832898652
20
0.673755750799785
30
0
41
1
10
258.685107434346
20
0.722707514114745
30
0
0
SPLINE
5
2CF
100
AcDbEntity
8
1
62
256
6
ByLayer
370
13
48
1
60
0
100
AcDbSpline
70
4
71
3
72
10
73
6
40
0
40
0
40
0
40
0
40
0.5
40
0.5
40
1
40
1
40
1
40
1
41
1
10
253.393438565164
20
8.94567333054235
30
0
41
1
10
253.417895995686
20
8.95594944319379
30
0
41
1
10
253.443960152776
20
8.96434228373636
30
0
41
1
10
253.497295542552
20
8.9764939723818
30
0
41
1
10
253.524744011785
20
8.98035499042717
30
0
41
1
10
253.552985779328
20
8.98185070645212
30
0
0
SPLINE
5
2D0
100
AcDbEntity
8
1
62
256
6
ByLayer
370
13
48
1
60
0
100
AcDbSpline
70
4
71
3
72
8
73
4
40
0
40
0
40
0
40
0
40
1
40
1
40
1
40
1
41
1
10
234.217070545382
20
12.3912399237678
30
0
41
1
10
234.351376677163
20
13.6945377547678
30
0
41
1
10
234.482797791033
20
14.9963359709316
30
0
41
1
10
234.610649306349
20
16.2968579160741
30
0
0
SPLINE
5
2D1
100
AcDbEntity
8
1
62
256
6
ByLayer
370
13
48
1
60
0
100
AcDbSpline
70
4
71
3
72
14
73
10
40
0
40
0
40
0
40
0
40
0.25
40
0.25
40
0.5
40
0.5
40
0.75
40
0.75
40
1
40
1
40
1
40
1
41
1
10
233.937032120104
20
12.2571167358427
30
0
41
1
10
233.944373290586
20
12.2830107922936
30
0
41
1
10
233.961547177961
20
12.3050591296847
30
0
41
1
10
234.002953325409
20
12.3394234646115
30
0
41
1
10
234.027424288798
20
12.3523861830056
30
0
41
1
10
234.078485760051
20
12.3721515447634
30
0
41
1
10
234.105698178025
20
12.3791320665741
30
0
41
1
10
234.160668057593
20
12.3884129906983
30
0
41
1
10
234.188654182559
20
12.3907843345283
30
0
41
1
10
234.217068935759
20
12.3912243040961
30
0
0
SPLINE
5
2D2
100
AcDbEntity
8
1
62
256
6
ByLayer
370
13
48
1
60
0
100
AcDbSpline
70
4
71
3
72
24
73
20
40
0
40
0
40
0
40
0
40
0.0624999999999967
40
0.0624999999999967
40
0.124999999999993
40
0.124999999999993
40
0.18749999999999
40
0.18749999999999
40
0.249999999999987
40
0.249999999999987
40
0.312499999999983
40
0.312499999999983
40
0.37499999999998
40
0.37499999999998
40
0.499999999999974
40
0.499999999999974
40
0.749999999999987
40
0.749999999999987
40
1
40
1
40
1
40
1
41
1
10
234.958352824083
20
8.23045982919524
30
0
41
1
10
234.937222944696
20
8.18585580004984
30
0
41
1
10
234.922436923452
20
8.13896516710221
30
0
41
1
10
234.906260293992
20
8.04384444958023
30
0
41
1
10
234.904863410419
20
7.99491388563226
30
0
41
1
10
234.91364628645
20
7.90061505416199
30
0
41
1
10
234.923811161374
20
7.85412209454324
30
0
41
1
10
234.952057463363
20
7.76614914029582
30
0
41
1
10
234.970125866963
20
7.7242270075358
30
0
41
1
10
235.012264292175
20
7.64353299566636
30
0
41
1
10
235.036423938332
20
7.60474236306692
30
0
41
1
10
235.088286317557
20
7.53151520173773
30
0
41
1
10
235.116140011935
20
7.49678828927725
30
0
41
1
10
235.20427838075
20
7.39710954643488
30
0
41
1
10
235.269452868807
20
7.33630577858014
30
0
41
1
10
235.475639894408
20
7.16918463917759
30
0
41
1
10
235.625105940484
20
7.07874452192041
30
0
41
1
10
235.939744932793
20
6.92529297670188
30
0
41
1
10
236.106013894287
20
6.86269512794715
30
0
41
1
10
236.274467836134
20
6.81422171714541
30
0
0
SPLINE
5
2D3
100
AcDbEntity
8
1
62
256
6
ByLayer
370
13
48
1
60
0
100
AcDbSpline
70
4
71
3
72
14
73
10
40
0
40
0
40
0
40
0
40
0.25
40
0.25
40
0.5
40
0.5
40
0.75
40
0.75
40
1
40
1
40
1
40
1
41
1
10
243.863019877619
20
8.17320193401321
30
0
41
1
10
243.838189913335
20
8.17971066181735
30
0
41
1
10
243.811463401323
20
8.18702657877682
30
0
41
1
10
243.755744850538
20
8.20092616918754
30
0
41
1
10
243.726563757483
20
8.20756047448069
30
0
41
1
10
243.665085147169
20
8.21836861540618
30
0
41
1
10
243.633782163179
20
8.2223277971971
30
0
41
1
10
243.570407159337
20
8.22645413323809
30
0
41
1
10
243.537888888429
20
8.22659494831629
30
0
41
1
10
243.506226946961
20
8.2249356162763
30
0
0
SPLINE
5
2D4
100
AcDbEntity
8
1
62
256
6
ByLayer
370
13
48
1
60
0
100
AcDbSpline
70
4
71
3
72
20
73
16
40
0
40
0
40
0
40
0
40
0.249999999999978
40
0.249999999999978
40
0.499999999999956
40
0.499999999999956
40
0.624999999999944
40
0.624999999999944
40
0.687499999999953
40
0.687499999999953
40
0.749999999999962
40
0.749999999999962
40
0.874999999999981
40
0.874999999999981
40
1
40
1
40
1
40
1
41
1
10
237.631821169215
20
10.2187192740153
30
0
41
1
10
237.6276183284
20
10.0471067245705
30
0
41
1
10
237.602266229827
20
9.87877279888335
30
0
41
1
10
237.498684388182
20
9.55030220452289
30
0
41
1
10
237.422221464643
20
9.39667745424887
30
0
41
1
10
237.264316909659
20
9.19178104931672
30
0
41
1
10
237.206005923234
20
9.12986514982299
30
0
41
1
10
237.109865263059
20
9.04674555201055
30
0
41
1
10
237.076366031102
20
9.02067220429183
30
0
41
1
10
237.006354773058
20
8.9719134428864
30
0
41
1
10
236.969591207123
20
8.94909947652658
30
0
41
1
10
236.856672256267
20
8.88713510738108
30
0
41
1
10
236.778143711912
20
8.85439565363936
30
0
41
1
10
236.615130808916
20
8.80462565580299
30
0
41
1
10
236.530024768737
20
8.78767047692327
30
0
41
1
10
236.445423021973
20
8.77826046618105
30
0
0
SPLINE
5
2D5
100
AcDbEntity
8
1
62
256
6
ByLayer
370
13
48
1
60
0
100
AcDbSpline
70
4
71
3
72
18
73
14
40
0
40
0
40
0
40
0
40
0.124999999999999
40
0.124999999999999
40
0.187499999999999
40
0.187499999999999
40
0.218749999999999
40
0.218749999999999
40
0.249999999999999
40
0.249999999999999
40
0.499999999999999
40
0.499999999999999
40
1
40
1
40
1
40
1
41
1
10
30.8552312125459
20
-10.3294996219867
30
0
41
1
10
30.2256776438555
20
-10.3945451911126
30
0
41
1
10
29.5983786740008
20
-10.4714274773971
30
0
41
1
10
28.6607914965168
20
-10.6043977218763
30
0
41
1
10
28.3488228372992
20
-10.65166325462
30
0
41
1
10
27.881709609704
20
-10.7269703274898
30
0
41
1
10
27.7260947864759
20
-10.7525430143684
30
0
41
1
10
27.4147308788928
20
-10.8029835128469
30
0
41
1
10
27.2590274027319
20
-10.8280907689474
30
0
41
1
10
25.8575029711855
20
-11.0530420505587
30
0
41
1
10
24.6104667560206
20
-11.2457713152698
30
0
41
1
10
20.8637620308257
20
-11.8030010067904
30
0
41
1
10
18.3588017184886
20
-12.1465096520619
30
0
41
1
10
15.8468697798587
20
-12.4627657536303
30
0
0
SPLINE
5
2D6
100
AcDbEntity
8
1
62
256
6
ByLayer
370
13
48
1
60
0
100
AcDbSpline
70
4
71
3
72
8
73
4
40
0
40
0
40
0
40
0
40
1
40
1
40
1
40
1
41
1
10
237.539169144042
20
-26.6443744852274
30
0
41
1
10
236.539169143315
20
-26.5533246552001
30
0
41
1
10
235.539169143308
20
-26.4622748173801
30
0
41
1
10
234.539169144042
20
-26.3712249715227
30
0
0
SPLINE
5
2D7
100
AcDbEntity
8
1
62
256
6
ByLayer
370
13
48
1
60
0
100
AcDbSpline
70
4
71
3
72
22
73
18
40
0
40
0
40
0
40
0
40
0.250000000000002
40
0.250000000000002
40
0.312500000000002
40
0.312500000000002
40
0.375000000000002
40
0.375000000000002
40
0.500000000000003
40
0.500000000000003
40
0.625000000000003
40
0.625000000000003
40
0.687500000000003
40
0.687500000000003
40
0.750000000000003
40
0.750000000000003
40
1
40
1
40
1
40
1
41
1
10
7.21994497836712
20
-22.5896051329037
30
0
41
1
10
6.94388597837542
20
-22.9813589907262
30
0
41
1
10
6.73243861057989
20
-23.3726997884311
30
0
41
1
10
6.55091879985653
20
-23.8586751691822
30
0
41
1
10
6.51880745317598
20
-23.955714198279
30
0
41
1
10
6.46329978197637
20
-24.1494337112427
30
0
41
1
10
6.44015363797366
20
-24.2452855591136
30
0
41
1
10
6.38468438542375
20
-24.5286363177397
30
0
41
1
10
6.36611944026367
20
-24.7124571889694
30
0
41
1
10
6.36625083649085
20
-25.0699003852255
30
0
41
1
10
6.38483983980034
20
-25.2435326086548
30
0
41
1
10
6.44033117810731
20
-25.496311470106
30
0
41
1
10
6.46358054721075
20
-25.5795617275819
30
0
41
1
10
6.51885127227621
20
-25.7411633708842
30
0
41
1
10
6.55093012937039
20
-25.8197129085383
30
0
41
1
10
6.73227384835253
20
-26.2018471112845
30
0
41
1
10
6.94437119596803
20
-26.4736656733041
30
0
41
1
10
7.2198064940486
20
-26.7153657879006
30
0
0
SPLINE
5
2D8
100
AcDbEntity
8
1
62
256
6
ByLayer
370
13
48
1
60
0
100
AcDbSpline
70
4
71
3
72
8
73
4
40
0
40
0
40
0
40
0
40
1
40
1
40
1
40
1
41
1
10
235.544877894965
20
12.3253813933976
30
0
41
1
10
235.498895903605
20
12.3196789151307
30
0
41
1
10
235.452107671037
20
12.3171362459797
30
0
41
1
10
235.404595162984
20
12.3171345303866
30
0
0
SPLINE
5
2D9
100
AcDbEntity
8
1
62
256
6
ByLayer
370
13
48
1
60
0
100
AcDbSpline
70
4
71
3
72
58
73
54
40
0
40
0
40
0
40
0
40
0.0312499999999988
40
0.0312499999999988
40
0.0624999999999976
40
0.0624999999999976
40
0.0781249999999974
40
0.0781249999999974
40
0.0937499999999972
40
0.0937499999999972
40
0.124999999999997
40
0.124999999999997
40
0.156249999999996
40
0.156249999999996
40
0.164062499999996
40
0.164062499999996
40
0.171874999999996
40
0.171874999999996
40
0.179687499999996
40
0.179687499999996
40
0.187499999999996
40
0.187499999999996
40
0.203124999999996
40
0.203124999999996
40
0.218749999999996
40
0.218749999999996
40
0.249999999999995
40
0.249999999999995
40
0.281249999999995
40
0.281249999999995
40
0.312499999999994
40
0.312499999999994
40
0.374999999999994
40
0.374999999999994
40
0.437499999999995
40
0.437499999999995
40
0.499999999999994
40
0.499999999999994
40
0.562499999999994
40
0.562499999999994
40
0.624999999999994
40
0.624999999999994
40
0.687499999999994
40
0.687499999999994
40
0.749999999999994
40
0.749999999999994
40
0.781249999999995
40
0.781249999999995
40
0.812499999999995
40
0.812499999999995
40
0.874999999999997
40
0.874999999999997
40
1
40
1
40
1
40
1
41
1
10
220.019874079572
20
-26.3712249715227
30
0
41
1
10
218.995844034847
20
-26.3595445451766
30
0
41
1
10
217.970735782317
20
-26.3484649614882
30
0
41
1
10
215.920756088118
20
-26.3250937718844
30
0
41
1
10
214.895845457703
20
-26.3128649579043
30
0
41
1
10
213.360940351527
20
-26.2903665883256
30
0
41
1
10
212.849717175525
20
-26.2821620809844
30
0
41
1
10
211.828498723962
20
-26.263601590638
30
0
41
1
10
211.318519211929
20
-26.2532443471
30
0
41
1
10
209.796325811761
20
-26.2177128118737
30
0
41
1
10
208.790284723433
20
-26.1882833902169
30
0
41
1
10
206.806002037132
20
-26.1070988258473
30
0
41
1
10
205.827446903682
20
-26.0557245969247
30
0
41
1
10
204.629689683947
20
-25.9653517739205
30
0
41
1
10
204.391417273627
20
-25.945937205384
30
0
41
1
10
203.917653639688
20
-25.9039771334493
30
0
41
1
10
203.682130857014
20
-25.8814341706286
30
0
41
1
10
203.210906599671
20
-25.8352817514507
30
0
41
1
10
202.975193563655
20
-25.8117037077647
30
0
41
1
10
202.504113391396
20
-25.7630947073864
30
0
41
1
10
202.268758521579
20
-25.7380485410914
30
0
41
1
10
201.562906234399
20
-25.6609250401028
30
0
41
1
10
201.092687805903
20
-25.6069692781296
30
0
41
1
10
200.151632192214
20
-25.4948417920597
30
0
41
1
10
199.680965712854
20
-25.4365666324964
30
0
41
1
10
198.268780516289
20
-25.2550325939068
30
0
41
1
10
197.327123802341
20
-25.1250434844682
30
0
41
1
10
195.444106346935
20
-24.8467074056245
30
0
41
1
10
194.502724885688
20
-24.6983739234751
30
0
41
1
10
192.62076417012
20
-24.3827084770739
30
0
41
1
10
191.680285057555
20
-24.2151677521171
30
0
41
1
10
188.859332074272
20
-23.6847167909461
30
0
41
1
10
186.981683441596
20
-23.2948220232287
30
0
41
1
10
183.218369067811
20
-22.4613576379345
30
0
41
1
10
181.332910414631
20
-22.0176850538537
30
0
41
1
10
177.544920806172
20
-21.0963272726313
30
0
41
1
10
175.642592395448
20
-20.6184666596491
30
0
41
1
10
171.815630486103
20
-19.6462360454101
30
0
41
1
10
169.890596694833
20
-19.1514913697095
30
0
41
1
10
166.017594734173
20
-18.1615424227462
30
0
41
1
10
164.072535369993
20
-17.667130976218
30
0
41
1
10
160.161829787255
20
-16.6959499083482
30
0
41
1
10
158.195720050137
20
-16.2189101646656
30
0
41
1
10
154.243199229128
20
-15.2966770801951
30
0
41
1
10
152.258460776775
20
-14.8518864282412
30
0
41
1
10
149.267058902083
20
-14.219606540931
30
0
41
1
10
148.267562687931
20
-14.0146018560949
30
0
41
1
10
146.263984606615
20
-13.6164617659157
30
0
41
1
10
145.259634074828
20
-13.4232764305499
30
0
41
1
10
142.242144681681
20
-12.8624213092974
30
0
41
1
10
140.224819189361
20
-12.5134731313909
30
0
41
1
10
134.156459196608
20
-11.5444373811767
30
0
41
1
10
130.089087712314
20
-11.0022004373596
30
0
41
1
10
126
20
-10.575286147307
30
0
0
SPLINE
5
2DA
100
AcDbEntity
8
1
62
256
6
ByLayer
370
13
48
1
60
0
100
AcDbSpline
70
4
71
3
72
8
73
4
40
0
40
0
40
0
40
0
40
1
40
1
40
1
40
1
41
1
10
234.517092839
20
2.10913668270336
30
0
41
1
10
235.035956555378
20
1.96486907743997
30
0
41
1
10
235.557746703981
20
1.85294243106725
30
0
41
1
10
236.081386351336
20
1.7709347188441
30
0
0
SPLINE
5
2DB
100
AcDbEntity
8
1
62
256
6
ByLayer
370
13
48
1
60
0
100
AcDbSpline
70
4
71
3
72
44
73
40
40
0
40
0
40
0
40
0
40
0.0625000000000007
40
0.0625000000000007
40
0.125000000000001
40
0.125000000000001
40
0.187500000000002
40
0.187500000000002
40
0.250000000000003
40
0.250000000000003
40
0.281250000000003
40
0.281250000000003
40
0.312500000000003
40
0.312500000000003
40
0.375000000000004
40
0.375000000000004
40
0.406250000000004
40
0.406250000000004
40
0.437500000000004
40
0.437500000000004
40
0.500000000000004
40
0.500000000000004
40
0.531250000000004
40
0.531250000000004
40
0.562500000000004
40
0.562500000000004
40
0.625000000000003
40
0.625000000000003
40
0.687500000000003
40
0.687500000000003
40
0.750000000000002
40
0.750000000000002
40
0.875000000000002
40
0.875000000000002
40
0.906250000000001
40
0.906250000000001
40
0.937500000000001
40
0.937500000000001
40
1
40
1
40
1
40
1
41
1
10
7.2198064940486
20
-26.7153657879006
30
0
41
1
10
7.07581652909533
20
-26.8983680045719
30
0
41
1
10
6.95744468397811
20
-27.0778093414368
30
0
41
1
10
6.77032780879892
20
-27.4284724649636
30
0
41
1
10
6.70158981563176
20
-27.5997005099394
30
0
41
1
10
6.61628762780839
20
-27.9327670867034
30
0
41
1
10
6.60088162938276
20
-28.090358264585
30
0
41
1
10
6.62281795834934
20
-28.3870570289011
30
0
41
1
10
6.65990422960687
20
-28.526385611443
30
0
41
1
10
6.75347797299401
20
-28.7221091898937
30
0
41
1
10
6.79116718761723
20
-28.7851476017642
30
0
41
1
10
6.87814959201417
20
-28.9048578334888
30
0
41
1
10
6.92742187331903
20
-28.9618356921636
30
0
41
1
10
7.09203130773273
20
-29.1245553190869
30
0
41
1
10
7.2241464669295
20
-29.2220956431088
30
0
41
1
10
7.45394073277977
20
-29.3534234971774
30
0
41
1
10
7.53613689694856
20
-29.3948107219684
30
0
41
1
10
7.70948517756278
20
-29.4720077868984
30
0
41
1
10
7.80056035039345
20
-29.5078250501444
30
0
41
1
10
8.08639886062227
20
-29.6075303488569
30
0
41
1
10
8.29372533922395
20
-29.6636995165566
30
0
41
1
10
8.62854707072879
20
-29.7342788762545
30
0
41
1
10
8.74413949567318
20
-29.7555187552517
30
0
41
1
10
8.98322011968826
20
-29.7936435433959
30
0
41
1
10
9.10695387639582
20
-29.8105453104196
30
0
41
1
10
9.48595865315659
20
-29.8545781611271
30
0
41
1
10
9.75000345812434
20
-29.8752915189932
30
0
41
1
10
10.2998782103856
20
-29.9017244854259
30
0
41
1
10
10.5856831085145
20
-29.90744943217
30
0
41
1
10
11.1789595159376
20
-29.9054761245966
30
0
41
1
10
11.4878502106345
20
-29.8976609293724
30
0
41
1
10
12.4293823685479
20
-29.8566730170342
30
0
41
1
10
13.0811603109887
20
-29.8062272941488
30
0
41
1
10
13.9272512540036
20
-29.7195372103537
30
0
41
1
10
14.0980707304296
20
-29.7009856395675
30
0
41
1
10
14.4430216717439
20
-29.6614936039921
30
0
41
1
10
14.6173247729112
20
-29.6405272886868
30
0
41
1
10
15.1410654457074
20
-29.5745910102157
30
0
41
1
10
15.4926637181218
20
-29.526460887552
30
0
41
1
10
15.8468703646889
20
-29.4741939438145
30
0
0
SPLINE
5
2DC
100
AcDbEntity
8
1
62
256
6
ByLayer
370
13
48
1
60
0
100
AcDbSpline
70
4
71
3
72
52
73
48
40
0
40
0
40
0
40
0
40
0.124999999999997
40
0.124999999999997
40
0.249999999999995
40
0.249999999999995
40
0.281249999999993
40
0.281249999999993
40
0.312499999999992
40
0.312499999999992
40
0.374999999999989
40
0.374999999999989
40
0.406249999999987
40
0.406249999999987
40
0.437499999999986
40
0.437499999999986
40
0.499999999999982
40
0.499999999999982
40
0.531249999999982
40
0.531249999999982
40
0.562499999999982
40
0.562499999999982
40
0.624999999999985
40
0.624999999999985
40
0.656249999999985
40
0.656249999999985
40
0.671874999999985
40
0.671874999999985
40
0.687499999999985
40
0.687499999999985
40
0.749999999999982
40
0.749999999999982
40
0.765624999999983
40
0.765624999999983
40
0.781249999999984
40
0.781249999999984
40
0.812499999999986
40
0.812499999999986
40
0.874999999999989
40
0.874999999999989
40
0.890624999999991
40
0.890624999999991
40
0.906249999999992
40
0.906249999999992
40
0.937499999999994
40
0.937499999999994
40
1
40
1
40
1
40
1
41
1
10
236.081386351321
20
1.77093471884663
30
0
41
1
10
237.018929386996
20
1.62410519618649
30
0
41
1
10
237.96297363081
20
1.49675860665783
30
0
41
1
10
239.871200480959
20
1.30241642113646
30
0
41
1
10
240.835285177298
20
1.23512740677168
30
0
41
1
10
242.059236676118
20
1.20749304434284
30
0
41
1
10
242.304121225615
20
1.2048577588678
30
0
41
1
10
242.792089647683
20
1.20585119160202
30
0
41
1
10
243.035469895054
20
1.2094721450236
30
0
41
1
10
243.763657868942
20
1.23043645875512
30
0
41
1
10
244.246522786987
20
1.25782975184148
30
0
41
1
10
244.966227995412
20
1.32267447060403
30
0
41
1
10
245.205362230624
20
1.3482595740519
30
0
41
1
10
245.681942097627
20
1.40816473918844
30
0
41
1
10
245.919077619923
20
1.44248533212743
30
0
41
1
10
246.61793707341
20
1.55809364235506
30
0
41
1
10
247.070283841265
20
1.65232445871797
30
0
41
1
10
247.72592482181
20
1.82262261865876
30
0
41
1
10
247.940647063107
20
1.88422861910078
30
0
41
1
10
248.361822269315
20
2.01790479078846
30
0
41
1
10
248.569178169743
20
2.09035846372527
30
0
41
1
10
249.167385920688
20
2.3207898215189
30
0
41
1
10
249.536604679011
20
2.49216916159179
30
0
41
1
10
250.043487430638
20
2.77741585890598
30
0
41
1
10
250.204595263552
20
2.87721169096221
30
0
41
1
10
250.433830652689
20
3.03436402278947
30
0
41
1
10
250.508155050361
20
3.08800444897287
30
0
41
1
10
250.650921280886
20
3.19656252044123
30
0
41
1
10
250.719588913527
20
3.25162974054703
30
0
41
1
10
251.049530355749
20
3.53085431601161
30
0
41
1
10
251.270853564794
20
3.76660756181403
30
0
41
1
10
251.4946643491
20
4.07663716812684
30
0
41
1
10
251.53676941939
20
4.1394143239734
30
0
41
1
10
251.615616114438
20
4.26652540642692
30
0
41
1
10
251.652428576092
20
4.3310149589667
30
0
41
1
10
251.753767291768
20
4.52492871102805
30
0
41
1
10
251.809526717646
20
4.65520522375837
30
0
41
1
10
251.94332688539
20
5.04887388141614
30
0
41
1
10
251.988065468505
20
5.31509022423003
30
0
41
1
10
251.991553065913
20
5.65230746956587
30
0
41
1
10
251.989599132369
20
5.72002511411014
30
0
41
1
10
251.980567391002
20
5.8547687259225
30
0
41
1
10
251.973496317886
20
5.92193470269331
30
0
41
1
10
251.944905893254
20
6.12283837723666
30
0
41
1
10
251.916020684013
20
6.25598273331997
30
0
41
1
10
251.801721890584
20
6.65318906257383
30
0
41
1
10
251.688600489943
20
6.91534695977737
30
0
41
1
10
251.542167858936
20
7.17413525428063
30
0
0
SPLINE
5
2DD
100
AcDbEntity
8
1
62
256
6
ByLayer
370
13
48
1
60
0
100
AcDbSpline
70
4
71
3
72
50
73
46
40
0
40
0
40
0
40
0
40
0.124999999999999
40
0.124999999999999
40
0.156249999999998
40
0.156249999999998
40
0.187499999999998
40
0.187499999999998
40
0.249999999999998
40
0.249999999999998
40
0.281249999999998
40
0.281249999999998
40
0.312499999999998
40
0.312499999999998
40
0.374999999999998
40
0.374999999999998
40
0.437499999999998
40
0.437499999999998
40
0.468749999999998
40
0.468749999999998
40
0.499999999999998
40
0.499999999999998
40
0.531249999999998
40
0.531249999999998
40
0.562499999999998
40
0.562499999999998
40
0.593749999999998
40
0.593749999999998
40
0.624999999999998
40
0.624999999999998
40
0.687499999999998
40
0.687499999999998
40
0.749999999999998
40
0.749999999999998
40
0.781249999999998
40
0.781249999999998
40
0.812499999999998
40
0.812499999999998
40
0.874999999999999
40
0.874999999999999
40
0.906249999999999
40
0.906249999999999
40
0.937499999999999
40
0.937499999999999
40
1
40
1
40
1
40
1
41
1
10
223.604449542931
20
6.08984625618967
30
0
41
1
10
219.639958160238
20
7.82566913666588
30
0
41
1
10
215.681097627862
20
9.51601297307437
30
0
41
1
10
210.724190217172
20
11.539683649823
30
0
41
1
10
209.732291237698
20
11.9399810770259
30
0
41
1
10
207.750078877327
20
12.7296945371087
30
0
41
1
10
206.759423362179
20
13.1192627788291
30
0
41
1
10
203.788161481642
20
14.2708467089642
30
0
41
1
10
201.808258517
20
15.0157235401615
30
0
41
1
10
198.836873734862
20
16.0932778146071
30
0
41
1
10
197.846154301952
20
16.4458337994561
30
0
41
1
10
195.863685372412
20
17.1367723842494
30
0
41
1
10
194.871765768283
20
17.4751716439038
30
0
41
1
10
191.898103399613
20
18.4667791041764
30
0
41
1
10
189.917148191572
20
19.0969376387808
30
0
41
1
10
185.955948359418
20
20.2918917072078
30
0
41
1
10
183.975972153713
20
20.8570343707101
30
0
41
1
10
181.003775794909
20
21.6512905886807
30
0
41
1
10
180.012380782943
20
21.9070504139442
30
0
41
1
10
178.03033495249
20
22.3986150008111
30
0
41
1
10
177.039490997851
20
22.6345991744719
30
0
41
1
10
175.05473299796
20
23.0832968821358
30
0
41
1
10
174.060804407564
20
23.2959886718452
30
0
41
1
10
172.066063607285
20
23.6952921289707
30
0
41
1
10
171.065220600659
20
23.8819011163706
30
0
41
1
10
169.054534674511
20
24.2291749934667
30
0
41
1
10
168.044689086756
20
24.3898365075896
30
0
41
1
10
166.01380399255
20
24.6858340401379
30
0
41
1
10
164.992442484918
20
24.8212933185389
30
0
41
1
10
161.919500524823
20
25.1946020193805
30
0
41
1
10
159.857356380864
20
25.4001032454376
30
0
41
1
10
155.710523607575
20
25.7467830745817
30
0
41
1
10
153.62568267886
20
25.8877619263869
30
0
41
1
10
150.484475205834
20
26.0627223752808
30
0
41
1
10
149.43495816895
20
26.1149415055572
30
0
41
1
10
147.333231411199
20
26.2085526791198
30
0
41
1
10
146.280785161433
20
26.2498767245462
30
0
41
1
10
143.117456614419
20
26.3586787991211
30
0
41
1
10
141.000599490216
20
26.4108656046085
30
0
41
1
10
137.808012662491
20
26.4661148999167
30
0
41
1
10
136.741080243473
20
26.4807088837252
30
0
41
1
10
134.603605636548
20
26.5038758989891
30
0
41
1
10
133.532806971936
20
26.5124888535913
30
0
41
1
10
130.314484042543
20
26.5318960921125
30
0
41
1
10
128.161193559625
20
26.5363694610369
30
0
41
1
10
126
20
26.5373092053304
30
0
0
SPLINE
5
2DE
100
AcDbEntity
8
1
62
256
6
ByLayer
370
13
48
1
60
0
100
AcDbSpline
70
4
71
3
72
16
73
12
40
0
40
0
40
0
40
0
40
0.24999999999998
40
0.24999999999998
40
0.374999999999977
40
0.374999999999977
40
0.499999999999973
40
0.499999999999973
40
0.749999999999987
40
0.749999999999987
40
1
40
1
40
1
40
1
41
1
10
258.685107434346
20
0.722707514114745
30
0
41
1
10
258.686362201692
20
0.770900024022325
30
0
41
1
10
258.688471493388
20
0.816281675686525
30
0
41
1
10
258.692711302773
20
0.875432781531032
30
0
41
1
10
258.694299403936
20
0.893711204943401
30
0
41
1
10
258.697829295931
20
0.927357692122058
30
0
41
1
10
258.699788323665
20
0.942806326782488
30
0
41
1
10
258.706021853751
20
0.983173098177446
30
0
41
1
10
258.710744074629
20
1.00289624129525
30
0
41
1
10
258.720965536178
20
1.02601484739708
30
0
41
1
10
258.726312973689
20
1.02931009024096
30
0
41
1
10
258.731904704793
20
1.02407639560675
30
0
0
SPLINE
5
2DF
100
AcDbEntity
8
1
62
256
6
ByLayer
370
13
48
1
60
0
100
AcDbSpline
70
4
71
3
72
26
73
22
40
0
40
0
40
0
40
0
40
0.0624999999999998
40
0.0624999999999998
40
0.125
40
0.125
40
0.1875
40
0.1875
40
0.249999999999999
40
0.249999999999999
40
0.312499999999999
40
0.312499999999999
40
0.374999999999999
40
0.374999999999999
40
0.499999999999999
40
0.499999999999999
40
0.624999999999999
40
0.624999999999999
40
0.749999999999999
40
0.749999999999999
40
1
40
1
40
1
40
1
41
1
10
126
20
-26.5079335535064
30
0
41
1
10
124.239945218438
20
-26.5036267484622
30
0
41
1
10
122.476927227823
20
-26.4983694007687
30
0
41
1
10
118.945102974869
20
-26.4897354499616
30
0
41
1
10
117.175758147192
20
-26.4863384526342
30
0
41
1
10
113.636667640003
20
-26.4833668186355
30
0
41
1
10
111.866481596185
20
-26.4837840141409
30
0
41
1
10
108.325011030291
20
-26.4888553705978
30
0
41
1
10
106.553747785627
20
-26.4934083886897
30
0
41
1
10
103.010725368385
20
-26.5045357161643
30
0
41
1
10
101.238957884878
20
-26.5110868100415
30
0
41
1
10
97.6955153196297
20
-26.5241623307717
30
0
41
1
10
95.9237909978276
20
-26.530554364121
30
0
41
1
10
90.6086058948838
20
-26.5491651063973
30
0
41
1
10
87.0651360105657
20
-26.560960782475
30
0
41
1
10
79.9781902365405
20
-26.5842787906622
30
0
41
1
10
76.4347138259952
20
-26.5957758701403
30
0
41
1
10
69.3477660940132
20
-26.6190031528824
30
0
41
1
10
65.8042940570638
20
-26.6307159311826
30
0
41
1
10
55.1738810652398
20
-26.6661108246958
30
0
41
1
10
48.086944918628
20
-26.6901132990347
30
0
41
1
10
41
20
-26.7134985637172
30
0
0
SPLINE
5
2E0
100
AcDbEntity
8
1
62
256
6
ByLayer
370
13
48
1
60
0
100
AcDbSpline
70
4
71
3
72
14
73
10
40
0
40
0
40
0
40
0
40
0.500000000000002
40
0.500000000000002
40
0.625
40
0.625
40
0.749999999999999
40
0.749999999999999
40
1
40
1
40
1
40
1
41
1
10
34.2449987538806
20
-26.0678754192972
30
0
41
1
10
33.6423838710468
20
-26.068414488172
30
0
41
1
10
33.0572928947964
20
-26.1503708291199
30
0
41
1
10
32.3458187840359
20
-26.3452247456217
30
0
41
1
10
32.2039743167524
20
-26.3890809660028
30
0
41
1
10
31.9256475066775
20
-26.4849384032625
30
0
41
1
10
31.7891380825439
20
-26.5368932727924
30
0
41
1
10
31.3870888074417
20
-26.7041036946316
30
0
41
1
10
31.1290014744726
20
-26.8306648904771
30
0
41
1
10
30.879965779845
20
-26.9709576326955
30
0
0
SPLINE
5
2E1
100
AcDbEntity
8
1
62
256
6
ByLayer
370
13
48
1
60
0
100
AcDbSpline
70
4
71
3
72
8
73
4
40
0
40
0
40
0
40
0
40
1
40
1
40
1
40
1
41
1
10
234.217043332529
20
12.3912239076197
30
0
41
1
10
234.626719003303
20
12.3975685511755
30
0
41
1
10
235.02251157921
20
12.3731280739069
30
0
41
1
10
235.404595162984
20
12.3171345303866
30
0
0
SPLINE
5
2E2
100
AcDbEntity
8
1
62
256
6
ByLayer
370
13
48
1
60
0
100
AcDbSpline
70
4
71
3
72
8
73
4
40
0
40
0
40
0
40
0
40
1
40
1
40
1
40
1
41
1
10
234.539169144042
20
0.0598944566752095
30
0
41
1
10
235.179676951227
20
-0.12914795639881
30
0
41
1
10
235.828789163446
20
-0.247815923682168
30
0
41
1
10
236.486557897337
20
-0.293506515391357
30
0
0
SPLINE
5
2E3
100
AcDbEntity
8
1
62
256
6
ByLayer
370
13
48
1
60
0
100
AcDbSpline
70
4
71
3
72
12
73
8
40
0
40
0
40
0
40
0
40
0.5
40
0.5
40
0.75
40
0.75
40
1
40
1
40
1
40
1
41
1
10
34.244998778228
20
-26.7522922940616
30
0
41
1
10
33.6613168169522
20
-26.7782876033314
30
0
41
1
10
33.0880701553716
20
-26.8113226813565
30
0
41
1
10
32.2432439400936
20
-26.8682164826331
30
0
41
1
10
31.9641634597117
20
-26.888356309937
30
0
41
1
10
31.4112156629744
20
-26.9297773060816
30
0
41
1
10
31.1414820591277
20
-26.9507414434047
30
0
41
1
10
30.879965779845
20
-26.9709576326955
30
0
0
SPLINE
5
2E4
100
AcDbEntity
8
1
62
256
6
ByLayer
370
13
48
1
60
0
100
AcDbSpline
70
4
71
3
72
8
73
4
40
0
40
0
40
0
40
0
40
1
40
1
40
1
40
1
41
1
10
236.486557897337
20
-0.293506515390987
30
0
41
1
10
236.837424003168
20
-0.3178787288455
30
0
41
1
10
237.188294445542
20
-0.342230119946549
30
0
41
1
10
237.539169144042
20
-0.36656101615182
30
0
0
SPLINE
5
2E5
100
AcDbEntity
8
1
62
256
6
ByLayer
370
13
48
1
60
0
100
AcDbSpline
70
4
71
3
72
10
73
6
40
0
40
0
40
0
40
0
40
0.5
40
0.5
40
1
40
1
40
1
40
1
41
1
10
237.246039032047
20
12.2914425435953
30
0
41
1
10
237.219083168288
20
12.3957900335773
30
0
41
1
10
237.184499415768
20
12.4977287642644
30
0
41
1
10
237.098632439451
20
12.6963328127821
30
0
41
1
10
237.046909418684
20
12.7935630754053
30
0
41
1
10
236.987395391873
20
12.8857741367324
30
0
0
SPLINE
5
2E6
100
AcDbEntity
8
1
62
256
6
ByLayer
370
13
48
1
60
0
100
AcDbSpline
70
4
71
3
72
28
73
24
40
0
40
0
40
0
40
0
40
0.0625000000000004
40
0.0625000000000004
40
0.125000000000001
40
0.125000000000001
40
0.156250000000001
40
0.156250000000001
40
0.187500000000001
40
0.187500000000001
40
0.250000000000001
40
0.250000000000001
40
0.312500000000001
40
0.312500000000001
40
0.375
40
0.375
40
0.4375
40
0.4375
40
0.5
40
0.5
40
0.75
40
0.75
40
1
40
1
40
1
40
1
41
1
10
126
20
-10.575286147307
30
0
41
1
10
124.238972726004
20
-10.3918716027658
30
0
41
1
10
122.475742203732
20
-10.2295590732189
30
0
41
1
10
118.943996701583
20
-9.95729837630213
30
0
41
1
10
117.174814920171
20
-9.84847881702407
30
0
41
1
10
114.520597567176
20
-9.72566993687559
30
0
41
1
10
113.635687811762
20
-9.69133362704716
30
0
41
1
10
111.865543664356
20
-9.63529994209381
30
0
41
1
10
110.980308386732
20
-9.61363738800989
30
0
41
1
10
108.324213281578
20
-9.5638637315144
30
0
41
1
10
106.552964319199
20
-9.55096793828255
30
0
41
1
10
103.009960058846
20
-9.54503926077646
30
0
41
1
10
101.238199734099
20
-9.55196801301781
30
0
41
1
10
97.6947675528561
20
-9.56491707281
30
0
41
1
10
95.9230514350526
20
-9.57141941773713
30
0
41
1
10
92.3796233011169
20
-9.57912045571092
30
0
41
1
10
90.6079116487807
20
-9.57985146049134
30
0
41
1
10
87.0644898175026
20
-9.57940706003617
30
0
41
1
10
85.29277933754
20
-9.57861987611025
30
0
41
1
10
76.4342265351024
20
-9.57519244602898
30
0
41
1
10
69.3473844824005
20
-9.57216142362518
30
0
41
1
10
55.1736931610853
20
-9.57545518369977
30
0
41
1
10
48.0868436567821
20
-9.58210789069005
30
0
41
1
10
41
20
-9.58111482467453
30
0
0
SPLINE
5
2E7
100
AcDbEntity
8
1
62
256
6
ByLayer
370
13
48
1
60
0
100
AcDbSpline
70
4
71
3
72
12
73
8
40
0
40
0
40
0
40
0
40
0.25
40
0.25
40
0.5
40
0.5
40
1
40
1
40
1
40
1
41
1
10
30.8552312125495
20
-10.3294996219944
30
0
41
1
10
31.1179190545479
20
-10.2073379835394
30
0
41
1
10
31.3871931359663
20
-10.0992835834589
30
0
41
1
10
31.9390744494656
20
-9.91193573372195
30
0
41
1
10
32.223155470632
20
-9.8324160710757
30
0
41
1
10
33.0791453921336
20
-9.64257626570947
30
0
41
1
10
33.6579286662381
20
-9.57863486366824
30
0
41
1
10
34.2449991302677
20
-9.57821215518047
30
0
0
SPLINE
5
2E8
100
AcDbEntity
8
1
62
256
6
ByLayer
370
13
48
1
60
0
100
AcDbSpline
70
4
71
3
72
10
73
6
40
0
40
0
40
0
40
0
40
0.5
40
0.5
40
1
40
1
40
1
40
1
41
1
10
257.803551217048
20
-5.51472837301924
30
0
41
1
10
257.859140697895
20
-5.81100533151971
30
0
41
1
10
257.893749064556
20
-6.10706415842978
30
0
41
1
10
257.923280338306
20
-6.69859221607899
30
0
41
1
10
257.918198069147
20
-6.99406187707271
30
0
41
1
10
257.893159213046
20
-7.2892162207242
30
0
0
SPLINE
5
2E9
100
AcDbEntity
8
1
62
256
6
ByLayer
370
13
48
1
60
0
100
AcDbSpline
70
4
71
3
72
14
73
10
40
0
40
0
40
0
40
0
40
0.499999999999988
40
0.499999999999988
40
0.624999999999991
40
0.624999999999991
40
0.749999999999995
40
0.749999999999995
40
1
40
1
40
1
40
1
41
1
10
237.631821169215
20
10.2187192740153
30
0
41
1
10
237.651235959131
20
10.5747742149127
30
0
41
1
10
237.636841551716
20
10.9288044554618
30
0
41
1
10
237.561042398999
20
11.3678804727278
30
0
41
1
10
237.542862591365
20
11.4558293921061
30
0
41
1
10
237.500388286215
20
11.6297409389644
30
0
41
1
10
237.476168387036
20
11.71549782961
30
0
41
1
10
237.394157978119
20
11.9690100840964
30
0
41
1
10
237.327060432086
20
12.1330245852155
30
0
41
1
10
237.246039032047
20
12.2914425435953
30
0
0
SPLINE
5
2EA
100
AcDbEntity
8
1
62
256
6
ByLayer
370
13
48
1
60
0
100
AcDbSpline
70
4
71
3
72
8
73
4
40
0
40
0
40
0
40
0
40
1
40
1
40
1
40
1
41
1
10
235.128351265129
20
8.63176633509883
30
0
41
1
10
234.52993074056
20
8.94944112824425
30
0
41
1
10
233.908534467049
20
9.24142188465788
30
0
41
1
10
233.268715612524
20
9.51280046290333
30
0
0
SPLINE
5
2EB
100
AcDbEntity
8
1
62
256
6
ByLayer
370
13
48
1
60
0
100
AcDbSpline
70
4
71
3
72
10
73
6
40
0
40
0
40
0
40
0
40
0.5
40
0.5
40
1
40
1
40
1
40
1
41
1
10
243.929458131622
20
7.44846162090994
30
0
41
1
10
243.893998060842
20
7.40551208708143
30
0
41
1
10
243.857776562227
20
7.36458862904746
30
0
41
1
10
243.786685914891
20
7.289035485824
30
0
41
1
10
243.751589834791
20
7.25411803431928
30
0
41
1
10
243.717701577099
20
7.2223886550799
30
0
0
SPLINE
5
2EC
100
AcDbEntity
8
1
62
256
6
ByLayer
370
13
48
1
60
0
100
AcDbSpline
70
4
71
3
72
8
73
4
40
0
40
0
40
0
40
0
40
1
40
1
40
1
40
1
41
1
10
239.498542806229
20
19.0520621701393
30
0
41
1
10
239.486759801547
20
19.0314380675313
30
0
41
1
10
239.474199875524
20
19.0126374022703
30
0
41
1
10
239.461358086286
20
18.9955728219175
30
0
0
SPLINE
5
2ED
100
AcDbEntity
8
1
62
256
6
ByLayer
370
13
48
1
60
0
100
AcDbSpline
70
4
71
3
72
16
73
12
40
0
40
0
40
0
40
0
40
0.250000000000022
40
0.250000000000022
40
0.500000000000045
40
0.500000000000045
40
0.625000000000034
40
0.625000000000034
40
0.750000000000022
40
0.750000000000022
40
1
40
1
40
1
40
1
41
1
10
243.717701577099
20
7.22238865508092
30
0
41
1
10
243.690107789471
20
7.19655275167548
30
0
41
1
10
243.664394051742
20
7.17389984416948
30
0
41
1
10
243.618609168737
20
7.13587490260232
30
0
41
1
10
243.599216294091
20
7.12108105844951
30
0
41
1
10
243.578650480848
20
7.10736138891386
30
0
41
1
10
243.573297702049
20
7.10425339388689
30
0
41
1
10
243.56591692229
20
7.10119512906826
30
0
41
1
10
243.563951400956
20
7.10130038567459
30
0
41
1
10
243.563502567892
20
7.10650929766169
30
0
41
1
10
243.5706020236
20
7.11676891646979
30
0
41
1
10
243.583045292647
20
7.13205569729857
30
0
0
SPLINE
5
2EE
100
AcDbEntity
8
1
62
256
6
ByLayer
370
13
48
1
60
0
100
AcDbSpline
70
2053
71
3
72
95
73
91
40
0
40
0
40
0
40
0
40
0.0312500000000226
40
0.0312500000000226
40
0.0468750000000339
40
0.0468750000000339
40
0.0625000000000452
40
0.0625000000000452
40
0.0937500000000678
40
0.0937500000000678
40
0.109375000000074
40
0.109375000000074
40
0.12500000000008
40
0.140625000000087
40
0.140625000000087
40
0.156250000000093
40
0.156250000000093
40
0.187500000000112
40
0.187500000000112
40
0.218750000000131
40
0.218750000000131
40
0.25000000000015
40
0.25000000000015
40
0.26562500000016
40
0.26562500000016
40
0.281250000000169
40
0.281250000000169
40
0.312500000000187
40
0.312500000000187
40
0.328125000000195
40
0.328125000000195
40
0.343750000000203
40
0.343750000000203
40
0.375000000000213
40
0.375000000000213
40
0.390625000000214
40
0.390625000000214
40
0.406250000000216
40
0.421875000000217
40
0.421875000000217
40
0.437500000000218
40
0.437500000000218
40
0.468750000000209
40
0.468750000000209
40
0.484375000000205
40
0.484375000000205
40
0.500000000000201
40
0.500000000000201
40
0.531250000000186
40
0.531250000000186
40
0.546875000000178
40
0.546875000000178
40
0.562500000000171
40
0.578125000000164
40
0.578125000000164
40
0.593750000000156
40
0.593750000000156
40
0.625000000000142
40
0.625000000000142
40
0.640625000000134
40
0.640625000000134
40
0.656250000000127
40
0.656250000000127
40
0.687500000000115
40
0.687500000000115
40
0.718750000000104
40
0.718750000000104
40
0.734375000000098
40
0.734375000000098
40
0.750000000000093
40
0.750000000000093
40
0.781250000000082
40
0.781250000000082
40
0.796875000000076
40
0.796875000000076
40
0.81250000000007
40
0.81250000000007
40
0.84375000000006
40
0.84375000000006
40
0.87500000000005
40
0.87500000000005
40
0.906250000000041
40
0.906250000000041
40
0.921875000000036
40
0.921875000000036
40
0.937500000000031
40
0.937500000000031
40
0.968750000000015
40
0.968750000000015
40
1
40
1
40
1
40
1
41
1
10
249.798361855935
20
-4.00170525958117
30
0
41
1
10
249.941706398636
20
-4.00170525958117
30
0
41
1
10
250.08247298718
20
-4.0165874497844
30
0
41
1
10
250.289923049787
20
-4.06025290502936
30
0
41
1
10
250.358451438812
20
-4.07839359489393
30
0
41
1
10
250.494233441778
20
-4.12202099974476
30
0
41
1
10
250.561192240522
20
-4.1474619420346
30
0
41
1
10
250.755601038116
20
-4.23296643671003
30
0
41
1
10
250.878121996619
20
-4.30257092811357
30
0
41
1
10
251.051349214579
20
-4.42567744842879
30
0
41
1
10
251.107489208872
20
-4.47004760132882
30
0
41
1
10
251.213818446045
20
-4.56315522184511
30
0
41
1
10
251.314794707729
20
-4.66099024908095
30
0
41
1
10
251.405378588626
20
-4.7679731195538
30
0
41
1
10
251.490774822644
20
-4.87950730433306
30
0
41
1
10
251.531064264593
20
-4.93786298003556
30
0
41
1
10
251.642448754865
20
-5.11741862814554
30
0
41
1
10
251.703956915082
20
-5.24242826539216
30
0
41
1
10
251.802810554471
20
-5.50239689620119
30
0
41
1
10
251.840221563948
20
-5.63863473015053
30
0
41
1
10
251.888368437133
20
-5.91148251127112
30
0
41
1
10
251.899619773178
20
-6.0488093024432
30
0
41
1
10
251.897567392357
20
-6.25610839032765
30
0
41
1
10
251.893661216983
20
-6.32576704901871
30
0
41
1
10
251.87954585484
20
-6.46343901865953
30
0
41
1
10
251.869375937941
20
-6.53148904998559
30
0
41
1
10
251.829778774663
20
-6.73335142314568
30
0
41
1
10
251.791349067234
20
-6.86489548002706
30
0
41
1
10
251.715115312997
20
-7.05759051560767
30
0
41
1
10
251.686521012011
20
-7.12108325631766
30
0
41
1
10
251.624169520925
20
-7.24394386963539
30
0
41
1
10
251.590293411479
20
-7.30364597782525
30
0
41
1
10
251.480600814036
20
-7.47762010157356
30
0
41
1
10
251.396808653881
20
-7.58681435426604
30
0
41
1
10
251.253803147602
20
-7.73972289898427
30
0
41
1
10
251.203573432889
20
-7.78844657017862
30
0
41
1
10
251.099362267736
20
-7.88011415459184
30
0
41
1
10
250.991005232101
20
-7.96642657007584
30
0
41
1
10
250.874260526504
20
-8.04195608369682
30
0
41
1
10
250.753141396404
20
-8.11188710426859
30
0
41
1
10
250.690077798362
20
-8.14419333925343
30
0
41
1
10
250.496035836128
20
-8.23114171560715
30
0
41
1
10
250.36253186598
20
-8.27505476358644
30
0
41
1
10
250.156040919619
20
-8.31987990839966
30
0
41
1
10
250.086164071732
20
-8.33128867014827
30
0
41
1
10
249.944217306125
20
-8.34671251902907
30
0
41
1
10
249.872523957968
20
-8.35063290065082
30
0
41
1
10
249.659721574351
20
-8.35097531877835
30
0
41
1
10
249.519169843685
20
-8.33630398695792
30
0
41
1
10
249.31032125087
20
-8.29186193766958
30
0
41
1
10
249.241088169576
20
-8.27322985116436
30
0
41
1
10
249.10663073778
20
-8.22941176861656
30
0
41
1
10
248.975300592627
20
-8.17888064835955
30
0
41
1
10
248.850019507096
20
-8.1153263860208
30
0
41
1
10
248.727751701878
20
-8.04526151385457
30
0
41
1
10
248.668129056131
20
-8.00691666137817
30
0
41
1
10
248.497481863695
20
-7.88474450941709
30
0
41
1
10
248.393224148944
20
-7.7931224754368
30
0
41
1
10
248.250420174098
20
-7.64100232534011
30
0
41
1
10
248.204951332345
20
-7.58759786823498
30
0
41
1
10
248.120162756195
20
-7.47781003549224
30
0
41
1
10
248.080652933161
20
-7.4212613353304
30
0
41
1
10
247.970461135093
20
-7.24680021291877
30
0
41
1
10
247.90796714717
20
-7.12393539425443
30
0
41
1
10
247.805652118605
20
-6.86587526567266
30
0
41
1
10
247.767126646963
20
-6.73404534716357
30
0
41
1
10
247.727469013413
20
-6.53222239327053
30
0
41
1
10
247.717293647122
20
-6.46426394096358
30
0
41
1
10
247.703152661142
20
-6.32694647846725
30
0
41
1
10
247.699195442105
20
-6.25723188917911
30
0
41
1
10
247.697053071798
20
-6.04927269684998
30
0
41
1
10
247.708330583566
20
-5.91198425083397
30
0
41
1
10
247.744214082611
20
-5.70809213289027
30
0
41
1
10
247.759357055207
20
-5.64047076821518
30
0
41
1
10
247.796253995643
20
-5.50594892646802
30
0
41
1
10
247.818112825978
20
-5.43887153387533
30
0
41
1
10
247.892425381319
20
-5.24309781522962
30
0
41
1
10
247.953834645232
20
-5.11841961552656
30
0
41
1
10
248.100743210569
20
-4.88102043092252
30
0
41
1
10
248.187443739295
20
-4.76724423597364
30
0
41
1
10
248.379301940795
20
-4.56178044123678
30
0
41
1
10
248.48466395372
20
-4.46917056507522
30
0
41
1
10
248.657280281162
20
-4.34598334108438
30
0
41
1
10
248.717655906938
20
-4.30735575177636
30
0
41
1
10
248.841201628128
20
-4.23701030205754
30
0
41
1
10
248.904371623699
20
-4.20522334915535
30
0
41
1
10
249.097993358598
20
-4.11984331454866
30
0
41
1
10
249.23251245087
20
-4.07612404212932
30
0
41
1
10
249.513028578114
20
-4.01661548579429
30
0
41
1
10
249.655017313235
20
-4.00170525958117
30
0
41
1
10
249.798361855935
20
-4.00170525958117
30
0
0
SPLINE
5
2EF
100
AcDbEntity
8
1
62
256
6
ByLayer
370
13
48
1
60
0
100
AcDbSpline
70
4
71
3
72
8
73
4
40
0
40
0
40
0
40
0
40
1
40
1
40
1
40
1
41
1
10
34.2449987538806
20
-26.0678754193167
30
0
41
1
10
34.2449987618956
20
-26.2960143776449
30
0
41
1
10
34.2449987700114
20
-26.5241533358926
30
0
41
1
10
34.244998778228
20
-26.7522922940598
30
0
0
SPLINE
5
2F0
100
AcDbEntity
8
1
62
256
6
ByLayer
370
13
48
1
60
0
100
AcDbSpline
70
4
71
3
72
16
73
12
40
0
40
0
40
0
40
0
40
0.25
40
0.25
40
0.499999999999999
40
0.499999999999999
40
0.749999999999999
40
0.749999999999999
40
0.874999999999999
40
0.874999999999999
40
1
40
1
40
1
40
1
41
1
10
258.847149314071
20
7.73181834288695
30
0
41
1
10
258.716786795033
20
7.76135292641365
30
0
41
1
10
258.588956391821
20
7.79853083604456
30
0
41
1
10
258.336817727932
20
7.88913472393565
30
0
41
1
10
258.212248348685
20
7.94269103025673
30
0
41
1
10
257.967191813572
20
8.06803860789645
30
0
41
1
10
257.848964863691
20
8.13864476013029
30
0
41
1
10
257.678129350375
20
8.2576093571013
30
0
41
1
10
257.622273065607
20
8.29945155939316
30
0
41
1
10
257.512809286967
20
8.38790499529128
30
0
41
1
10
257.459227436012
20
8.43453400346314
30
0
41
1
10
257.407741221222
20
8.48290927441778
30
0
0
SPLINE
5
2F1
100
AcDbEntity
8
1
62
256
6
ByLayer
370
13
48
1
60
0
100
AcDbSpline
70
4
71
3
72
18
73
14
40
0
40
0
40
0
40
0
40
0.249999999999745
40
0.249999999999745
40
0.374999999999731
40
0.374999999999731
40
0.499999999999716
40
0.499999999999716
40
0.749999999999858
40
0.749999999999858
40
0.874999999999929
40
0.874999999999929
40
1
40
1
40
1
40
1
41
1
10
256.535851908978
20
9.13817613398089
30
0
41
1
10
256.593218874438
20
9.14118260924479
30
0
41
1
10
256.650978754447
20
9.13400818979136
30
0
41
1
10
256.732306124869
20
9.11063355548495
30
0
41
1
10
256.75820243134
20
9.10086307336348
30
0
41
1
10
256.806386965567
20
9.07892059620954
30
0
41
1
10
256.829065104019
20
9.06653056525366
30
0
41
1
10
256.889137596936
20
9.0296107819062
30
0
41
1
10
256.920033886235
20
9.00474681119411
30
0
41
1
10
256.952375108359
20
8.97911395497113
30
0
41
1
10
256.961094706919
20
8.9722908829026
30
0
41
1
10
256.974273120032
20
8.96335942057217
30
0
41
1
10
256.978879126339
20
8.96111973740514
30
0
41
1
10
256.981589869296
20
8.96126180142375
30
0
0
SPLINE
5
2F2
100
AcDbEntity
8
1
62
256
6
ByLayer
370
13
48
1
60
0
100
AcDbSpline
70
4
71
3
72
10
73
6
40
0
40
0
40
0
40
0
40
0.5
40
0.5
40
1
40
1
40
1
40
1
41
1
10
235.997505579503
20
12.3351069838789
30
0
41
1
10
236.215471973595
20
12.3140122784198
30
0
41
1
10
236.427132489532
20
12.3012845093945
30
0
41
1
10
236.842193334702
20
12.2880535766291
30
0
41
1
10
237.045566200689
20
12.2875180207445
30
0
41
1
10
237.246039032047
20
12.2914425435954
30
0
0
SPLINE
5
2F3
100
AcDbEntity
8
1
62
256
6
ByLayer
370
13
48
1
60
0
100
AcDbSpline
70
4
71
3
72
10
73
6
40
0
40
0
40
0
40
0
40
0.5
40
0.5
40
1
40
1
40
1
40
1
41
1
10
235.544877894967
20
12.3253813933919
30
0
41
1
10
235.619066076676
20
12.3336953721477
30
0
41
1
10
235.69368156337
20
12.3397209441053
30
0
41
1
10
235.844284307767
20
12.3444256488114
30
0
41
1
10
235.920236011056
20
12.3432951911371
30
0
41
1
10
235.997505579502
20
12.3351069838787
30
0
0
SPLINE
5
2F4
100
AcDbEntity
8
1
62
256
6
ByLayer
370
13
48
1
60
0
100
AcDbSpline
70
4
71
3
72
12
73
8
40
0
40
0
40
0
40
0
40
0.500000000000003
40
0.500000000000003
40
0.750000000000001
40
0.750000000000001
40
1
40
1
40
1
40
1
41
1
10
244.018925842043
20
8.0463881883334
30
0
41
1
10
244.024244869615
20
8.07058591920668
30
0
41
1
10
244.014461052574
20
8.09505977468373
30
0
41
1
10
243.974680658669
20
8.12821788247584
30
0
41
1
10
243.957238452054
20
8.1386763210466
30
0
41
1
10
243.915436284573
20
8.15745107502099
30
0
41
1
10
243.890447553605
20
8.16601226288691
30
0
41
1
10
243.863019877619
20
8.1732019340136
30
0
0
SPLINE
5
2F5
100
AcDbEntity
8
1
62
256
6
ByLayer
370
13
48
1
60
0
100
AcDbSpline
70
4
71
3
72
8
73
4
40
0
40
0
40
0
40
0
40
1
40
1
40
1
40
1
41
1
10
1.42E-14
20
4.97594212184995
30
0
41
1
10
0.031571657597965
20
5.1735845200318
30
0
41
1
10
0.0649171506606621
20
5.37085605809409
30
0
41
1
10
0.0999999999999801
20
5.56776436282993
30
0
0
SPLINE
5
2F6
100
AcDbEntity
8
1
62
256
6
ByLayer
370
18
48
1
60
0
100
AcDbSpline
70
4
71
3
72
8
73
4
40
0
40
0
40
0
40
0
40
1
40
1
40
1
40
1
41
1
10
251.026642208376
20
18.1710730242085
30
0
41
1
10
251.023413150011
20
18.1650498980432
30
0
41
1
10
251.020183867889
20
18.1590260123926
30
0
41
1
10
251.016954353535
20
18.1530013376619
30
0
0
SPLINE
5
2F7
100
AcDbEntity
8
1
62
256
6
ByLayer
370
18
48
1
60
0
100
AcDbSpline
70
4
71
3
72
18
73
14
40
0
40
0
40
0
40
0
40
0.124999999999976
40
0.124999999999976
40
0.249999999999952
40
0.249999999999952
40
0.499999999999903
40
0.499999999999903
40
0.749999999999949
40
0.749999999999949
40
0.874999999999975
40
0.874999999999975
40
1
40
1
40
1
40
1
41
1
10
249.579140052454
20
18.4651809049255
30
0
41
1
10
249.595388166816
20
18.4386832992051
30
0
41
1
10
249.620492680185
20
18.4186026407849
30
0
41
1
10
249.67716058001
20
18.3864927764625
30
0
41
1
10
249.708737764999
20
18.3746995357776
30
0
41
1
10
249.807720811087
20
18.348392200873
30
0
41
1
10
249.879596034659
20
18.342722485525
30
0
41
1
10
250.024114107686
20
18.3503096680721
30
0
41
1
10
250.096487493506
20
18.363488408301
30
0
41
1
10
250.197483174777
20
18.4003464547086
30
0
41
1
10
250.229829859739
20
18.4155402624489
30
0
41
1
10
250.287768651469
20
18.4535920112052
30
0
41
1
10
250.313561272449
20
18.4763077738759
30
0
41
1
10
250.330284066841
20
18.5045466946412
30
0
0
SPLINE
5
2F8
100
AcDbEntity
8
1
62
256
6
ByLayer
370
18
48
1
60
0
100
AcDbSpline
70
4
71
3
72
8
73
4
40
0
40
0
40
0
40
0
40
1
40
1
40
1
40
1
41
1
10
249.728643845485
20
15.6124785947643
30
0
41
1
10
249.725848910192
20
15.6066231744044
30
0
41
1
10
249.723054542004
20
15.6007685412393
30
0
41
1
10
249.720260719401
20
15.5949146657199
30
0
0
SPLINE
5
2F9
100
AcDbEntity
8
1
62
256
6
ByLayer
370
18
48
1
60
0
100
AcDbSpline
70
4
71
3
72
8
73
4
40
0
40
0
40
0
40
0
40
1
40
1
40
1
40
1
41
1
10
248.632157802694
20
16.5977507104164
30
0
41
1
10
248.625868357683
20
16.5975675736176
30
0
41
1
10
248.619579943435
20
16.5973844714038
30
0
41
1
10
248.613292521034
20
16.5972014024645
30
0
0
SPLINE
5
2FA
100
AcDbEntity
8
1
62
256
6
ByLayer
370
18
48
1
60
0
100
AcDbSpline
70
4
71
3
72
18
73
14
40
0
40
0
40
0
40
0
40
0.125
40
0.125
40
0.25
40
0.25
40
0.5
40
0.5
40
0.75
40
0.75
40
0.875
40
0.875
40
1
40
1
40
1
40
1
41
1
10
250.479787859872
20
15.6518443844801
30
0
41
1
10
250.460214481679
20
15.6781677205075
30
0
41
1
10
250.432165936971
20
15.6980940887831
30
0
41
1
10
250.370413532282
20
15.7299374854968
30
0
41
1
10
250.336720675928
20
15.7416198485439
30
0
41
1
10
250.232637717771
20
15.7676599083824
30
0
41
1
10
250.159024775319
20
15.7732385537429
30
0
41
1
10
250.014509044511
20
15.7656514939462
30
0
41
1
10
249.943865063843
20
15.7525633880008
30
0
41
1
10
249.847980543296
20
15.7159732061763
30
0
41
1
10
249.81775667198
20
15.700890650385
30
0
41
1
10
249.764892363344
20
15.6631048440187
30
0
41
1
10
249.742039748872
20
15.6405431605602
30
0
41
1
10
249.728643845485
20
15.6124785947643
30
0
0
SPLINE
5
2FB
100
AcDbEntity
8
1
62
256
6
ByLayer
370
18
48
1
60
0
100
AcDbSpline
70
4
71
3
72
16
73
12
40
0
40
0
40
0
40
0
40
0.250000000000001
40
0.250000000000001
40
0.500000000000001
40
0.500000000000001
40
0.750000000000002
40
0.750000000000002
40
0.875000000000001
40
0.875000000000001
40
1
40
1
40
1
40
1
41
1
10
250.949578404447
20
15.6529364339558
30
0
41
1
10
250.912632695002
20
15.628842203457
30
0
41
1
10
250.873600862987
20
15.6077089592366
30
0
41
1
10
250.792050974888
20
15.5729409384284
30
0
41
1
10
250.749581019091
20
15.5592187750464
30
0
41
1
10
250.662173644713
20
15.544140276848
30
0
41
1
10
250.617076070631
20
15.5423901162122
30
0
41
1
10
250.554942274469
20
15.5609462955667
30
0
41
1
10
250.535805486164
20
15.5709997811161
30
0
41
1
10
250.506598025698
20
15.598790480971
30
0
41
1
10
250.496752889563
20
15.6163947143159
30
0
41
1
10
250.492044260438
20
15.6353621271929
30
0
0
SPLINE
5
2FC
100
AcDbEntity
8
1
62
256
6
ByLayer
370
18
48
1
60
0
100
AcDbSpline
70
4
71
3
72
8
73
4
40
0
40
0
40
0
40
0
40
1
40
1
40
1
40
1
41
1
10
251.125949998954
20
16.0732405290507
30
0
41
1
10
251.129791571682
20
16.0675864342911
30
0
41
1
10
251.133632830969
20
16.0619331000141
30
0
41
1
10
251.137473788336
20
16.0562804976728
30
0
0
SPLINE
5
2FD
100
AcDbEntity
8
1
62
256
6
ByLayer
370
18
48
1
60
0
100
AcDbSpline
70
4
71
3
72
8
73
4
40
0
40
0
40
0
40
0
40
1
40
1
40
1
40
1
41
1
10
250.492044260438
20
15.6353621271929
30
0
41
1
10
250.487959130938
20
15.6408554921088
30
0
41
1
10
250.483873668328
20
15.6463495686199
30
0
41
1
10
250.479787859872
20
15.6518443844801
30
0
0
SPLINE
5
2FE
100
AcDbEntity
8
1
62
256
6
ByLayer
370
18
48
1
60
0
100
AcDbSpline
70
4
71
3
72
16
73
12
40
0
40
0
40
0
40
0
40
0.250000000000025
40
0.250000000000025
40
0.500000000000051
40
0.500000000000051
40
0.750000000000077
40
0.750000000000077
40
0.875000000000038
40
0.875000000000038
40
1
40
1
40
1
40
1
41
1
10
248.373587563661
20
16.9717318402046
30
0
41
1
10
248.371271423236
20
17.0159264322539
30
0
41
1
10
248.372407501275
20
17.0603607427092
30
0
41
1
10
248.382520446237
20
17.1482708877347
30
0
41
1
10
248.391407291943
20
17.1917547108395
30
0
41
1
10
248.420383506409
20
17.2742294879057
30
0
41
1
10
248.440247216149
20
17.31357892553
30
0
41
1
10
248.484290198764
20
17.3563861591189
30
0
41
1
10
248.501300020746
20
17.3672068065254
30
0
41
1
10
248.537082904702
20
17.376900145459
30
0
41
1
10
248.555641302417
20
17.3756514576053
30
0
41
1
10
248.572830301093
20
17.3692665518507
30
0
0
SPLINE
5
2FF
100
AcDbEntity
8
1
62
256
6
ByLayer
370
18
48
1
60
0
100
AcDbSpline
70
4
71
3
72
8
73
4
40
0
40
0
40
0
40
0
40
1
40
1
40
1
40
1
41
1
10
249.034368971562
20
15.9460614446262
30
0
41
1
10
249.036903314789
20
15.9520481623139
30
0
41
1
10
249.039438170456
20
15.9580356546161
30
0
41
1
10
249.041973558791
20
15.9640239517436
30
0
0
SPLINE
5
300
100
AcDbEntity
8
1
62
256
6
ByLayer
370
18
48
1
60
0
100
AcDbSpline
70
4
71
3
72
8
73
4
40
0
40
0
40
0
40
0
40
1
40
1
40
1
40
1
41
1
10
249.5689669195
20
18.4817723416419
30
0
41
1
10
249.572357333862
20
18.4762425682484
30
0
41
1
10
249.575748370017
20
18.4707120983889
30
0
41
1
10
249.579140052454
20
18.4651809049255
30
0
0
SPLINE
5
301
100
AcDbEntity
8
1
62
256
6
ByLayer
370
18
48
1
60
0
100
AcDbSpline
70
4
71
3
72
8
73
4
40
0
40
0
40
0
40
0
40
1
40
1
40
1
40
1
41
1
10
248.572830301093
20
17.3692665518507
30
0
41
1
10
248.579102416251
20
17.3697417003837
30
0
41
1
10
248.585375521301
20
17.3702169195007
30
0
41
1
10
248.591649655082
20
17.3706922119663
30
0
0
SPLINE
5
302
100
AcDbEntity
8
1
62
256
6
ByLayer
370
18
48
1
60
0
100
AcDbSpline
70
4
71
3
72
16
73
12
40
0
40
0
40
0
40
0
40
0.249999999999996
40
0.249999999999996
40
0.499999999999991
40
0.499999999999991
40
0.749999999999987
40
0.749999999999987
40
0.874999999999993
40
0.874999999999993
40
1
40
1
40
1
40
1
41
1
10
250.797615199911
20
18.5525671112089
30
0
41
1
10
250.836877049782
20
18.5324667496584
30
0
41
1
10
250.874477892119
20
18.5091502277593
30
0
41
1
10
250.944569817439
20
18.4559376141451
30
0
41
1
10
250.977122117244
20
18.4261219319445
30
0
41
1
10
251.032064130495
20
18.3585427946486
30
0
41
1
10
251.054909553839
20
18.3208183447715
30
0
41
1
10
251.066816231699
20
18.2591308350099
30
0
41
1
10
251.066428752104
20
18.2381249255274
30
0
41
1
10
251.054139032063
20
18.2003414131465
30
0
41
1
10
251.042252053172
20
18.1838195401788
30
0
41
1
10
251.026642208376
20
18.1710730242085
30
0
0
SPLINE
5
303
100
AcDbEntity
8
1
62
256
6
ByLayer
370
18
48
1
60
0
100
AcDbSpline
70
4
71
3
72
20
73
16
40
0
40
0
40
0
40
0
40
0.12499999999998
40
0.12499999999998
40
0.24999999999996
40
0.24999999999996
40
0.37499999999994
40
0.37499999999994
40
0.499999999999921
40
0.499999999999921
40
0.749999999999956
40
0.749999999999956
40
0.874999999999978
40
0.874999999999978
40
1
40
1
40
1
40
1
41
1
10
251.125949998954
20
16.0732405290507
30
0
41
1
10
251.107464932066
20
16.1004471777939
30
0
41
1
10
251.09860243763
20
16.133129296577
30
0
41
1
10
251.091134339819
20
16.2003921970332
30
0
41
1
10
251.092697118066
20
16.2348542504208
30
0
41
1
10
251.102670361392
20
16.303879625627
30
0
41
1
10
251.111226002272
20
16.3385375460087
30
0
41
1
10
251.133501051588
20
16.4058478204612
30
0
41
1
10
251.147296483195
20
16.438872303645
30
0
41
1
10
251.196506972891
20
16.5361456440521
30
0
41
1
10
251.238581297132
20
16.5967963684711
30
0
41
1
10
251.314642702759
20
16.6724296669333
30
0
41
1
10
251.342223428129
20
16.6950678706506
30
0
41
1
10
251.401848798
20
16.730668581306
30
0
41
1
10
251.433841232014
20
16.7438778410545
30
0
41
1
10
251.467278257244
20
16.7463330774392
30
0
0
SPLINE
5
304
100
AcDbEntity
8
1
62
256
6
ByLayer
370
18
48
1
60
0
100
AcDbSpline
70
4
71
3
72
16
73
12
40
0
40
0
40
0
40
0
40
0.124999999999915
40
0.124999999999915
40
0.24999999999983
40
0.24999999999983
40
0.499999999999887
40
0.499999999999887
40
0.749999999999943
40
0.749999999999943
40
1
40
1
40
1
40
1
41
1
10
251.488180878845
20
16.747867916984
30
0
41
1
10
251.507528113768
20
16.7415689352762
30
0
41
1
10
251.528320760923
20
16.7404412745552
30
0
41
1
10
251.568135799656
20
16.7505124940416
30
0
41
1
10
251.586979886049
20
16.7616769893881
30
0
41
1
10
251.634626218995
20
16.8045068266388
30
0
41
1
10
251.656108360969
20
16.8438897818974
30
0
41
1
10
251.687322985055
20
16.9263099591709
30
0
41
1
10
251.69690951314
20
16.969858860956
30
0
41
1
10
251.707909221677
20
17.0577159664716
30
0
41
1
10
251.709247753615
20
17.1022610560458
30
0
41
1
10
251.706933215018
20
17.1464250833749
30
0
0
SPLINE
5
305
100
AcDbEntity
8
1
62
256
6
ByLayer
370
18
48
1
60
0
100
AcDbSpline
70
4
71
3
72
18
73
14
40
0
40
0
40
0
40
0
40
0.124999999999999
40
0.124999999999999
40
0.249999999999998
40
0.249999999999998
40
0.499999999999996
40
0.499999999999996
40
0.749999999999994
40
0.749999999999994
40
0.874999999999997
40
0.874999999999997
40
1
40
1
40
1
40
1
41
1
10
249.041973558791
20
15.9640239517437
30
0
41
1
10
249.054119530704
20
15.9927113475596
30
0
41
1
10
249.056595639897
20
16.025745894261
30
0
41
1
10
249.051994819127
20
16.0930929328605
30
0
41
1
10
249.044726701382
20
16.1272897273641
30
0
41
1
10
249.013936404288
20
16.2285523931959
30
0
41
1
10
248.98151539874
20
16.2945942073655
30
0
41
1
10
248.902658290759
20
16.4165139416072
30
0
41
1
10
248.856416181565
20
16.4722007279775
30
0
41
1
10
248.778048431653
20
16.5396169772488
30
0
41
1
10
248.750402415977
20
16.5593235725893
30
0
41
1
10
248.692522889423
20
16.5887042860105
30
0
41
1
10
248.662302614252
20
16.5986284705809
30
0
41
1
10
248.632157802694
20
16.5977507104164
30
0
0
SPLINE
5
306
100
AcDbEntity
8
1
62
256
6
ByLayer
370
18
48
1
60
0
100
AcDbSpline
70
4
71
3
72
16
73
12
40
0
40
0
40
0
40
0
40
0.124999999999957
40
0.124999999999957
40
0.249999999999915
40
0.249999999999915
40
0.499999999999943
40
0.499999999999943
40
0.749999999999972
40
0.749999999999972
40
1
40
1
40
1
40
1
41
1
10
248.613292521034
20
16.5972014024645
30
0
41
1
10
248.596803796393
20
16.5890243376974
30
0
41
1
10
248.578370456002
20
16.5858409300789
30
0
41
1
10
248.541549359111
20
16.5918958198845
30
0
41
1
10
248.523329308087
20
16.6011178660979
30
0
41
1
10
248.475541772401
20
16.6389462262252
30
0
41
1
10
248.45165677727
20
16.6759515905757
30
0
41
1
10
248.41431737361
20
16.7547790034941
30
0
41
1
10
248.400919490776
20
16.7971233433449
30
0
41
1
10
248.381692291382
20
16.8833963237412
30
0
41
1
10
248.375902102258
20
16.9275678128754
30
0
41
1
10
248.373587563661
20
16.9717318402046
30
0
0
SPLINE
5
307
100
AcDbEntity
8
1
62
256
6
ByLayer
370
18
48
1
60
0
100
AcDbSpline
70
4
71
3
72
8
73
4
40
0
40
0
40
0
40
0
40
1
40
1
40
1
40
1
41
1
10
251.467278257244
20
16.7463330774392
30
0
41
1
10
251.474246517044
20
16.7468447475081
30
0
41
1
10
251.481214048549
20
16.7473563599734
30
0
41
1
10
251.488180878845
20
16.747867916984
30
0
0
SPLINE
5
308
100
AcDbEntity
8
1
62
256
6
ByLayer
370
18
48
1
60
0
100
AcDbSpline
70
4
71
3
72
8
73
4
40
0
40
0
40
0
40
0
40
1
40
1
40
1
40
1
41
1
10
251.447718658904
20
17.5199330663702
30
0
41
1
10
251.440736521365
20
17.5197135889534
30
0
41
1
10
251.433753680662
20
17.5194940933911
30
0
41
1
10
251.426770109632
20
17.5192745789892
30
0
0
SPLINE
5
309
100
AcDbEntity
8
1
62
256
6
ByLayer
370
18
48
1
60
0
100
AcDbSpline
70
4
71
3
72
16
73
12
40
0
40
0
40
0
40
0
40
0.124999999999998
40
0.124999999999998
40
0.249999999999997
40
0.249999999999997
40
0.499999999999998
40
0.499999999999998
40
0.749999999999999
40
0.749999999999999
40
1
40
1
40
1
40
1
41
1
10
248.923537391602
20
18.060853971162
30
0
41
1
10
248.908711891487
20
18.0720499452875
30
0
41
1
10
248.897226442117
20
18.0874472677874
30
0
41
1
10
248.884891482587
20
18.124217020924
30
0
41
1
10
248.884108877842
20
18.145429529525
30
0
41
1
10
248.893737396034
20
18.207722836389
30
0
41
1
10
248.914054063493
20
18.2477024639694
30
0
41
1
10
248.963861561669
20
18.3206038974062
30
0
41
1
10
248.993823014291
20
18.3537217229403
30
0
41
1
10
249.058790035318
20
18.4139499088678
30
0
41
1
10
249.094022216223
20
18.4411429225531
30
0
41
1
10
249.130942374233
20
18.4652204896237
30
0
0
SPLINE
5
30A
100
AcDbEntity
8
1
62
256
6
ByLayer
370
18
48
1
60
0
100
AcDbSpline
70
4
71
3
72
16
73
12
40
0
40
0
40
0
40
0
40
0.125000000000017
40
0.125000000000017
40
0.250000000000033
40
0.250000000000033
40
0.500000000000022
40
0.500000000000022
40
0.750000000000011
40
0.750000000000011
40
1
40
1
40
1
40
1
41
1
10
251.137473788336
20
16.0562804976728
30
0
41
1
10
251.154393389677
20
16.0451942707421
30
0
41
1
10
251.168006368874
20
16.0299084473557
30
0
41
1
10
251.184169888393
20
15.993339340546
30
0
41
1
10
251.186640306172
20
15.972215286478
30
0
41
1
10
251.181086510712
20
15.9101355267837
30
0
41
1
10
251.162365948466
20
15.870239547533
30
0
41
1
10
251.114877928212
20
15.7974596727831
30
0
41
1
10
251.085604704618
20
15.764377915804
30
0
41
1
10
251.021533503406
20
15.7041966778037
30
0
41
1
10
250.986498562457
20
15.6770140010264
30
0
41
1
10
250.949578404447
20
15.6529364339558
30
0
0
SPLINE
5
30B
100
AcDbEntity
8
1
62
256
6
ByLayer
370
18
48
1
60
0
100
AcDbSpline
70
4
71
3
72
8
73
4
40
0
40
0
40
0
40
0
40
1
40
1
40
1
40
1
41
1
10
250.330284066841
20
18.5045466946412
30
0
41
1
10
250.333773128153
20
18.5104384926044
30
0
41
1
10
250.337261922796
20
18.5163295191179
30
0
41
1
10
250.340750460537
20
18.5222198031148
30
0
0
SPLINE
5
30C
100
AcDbEntity
8
1
62
256
6
ByLayer
370
18
48
1
60
0
100
AcDbSpline
70
4
71
3
72
16
73
12
40
0
40
0
40
0
40
0
40
0.25
40
0.25
40
0.5
40
0.5
40
0.75
40
0.75
40
0.875
40
0.875
40
1
40
1
40
1
40
1
41
1
10
249.282905578768
20
15.5655898123706
30
0
41
1
10
249.243643728898
20
15.5856901739211
30
0
41
1
10
249.205846278802
20
15.6089963920441
30
0
41
1
10
249.134857674937
20
15.662162012727
30
0
41
1
10
249.101618168274
20
15.6919416799424
30
0
41
1
10
249.044350057249
20
15.7593989116196
30
0
41
1
10
249.019912339907
20
15.7970399129043
30
0
41
1
10
249.003882904923
20
15.8585113581204
30
0
41
1
10
249.002594087238
20
15.8794294165852
30
0
41
1
10
249.011074276246
20
15.9170132799045
30
0
41
1
10
249.020845443596
20
15.9334242678879
30
0
41
1
10
249.034368971562
20
15.9460614446262
30
0
0
SPLINE
5
30D
100
AcDbEntity
8
1
62
256
6
ByLayer
370
18
48
1
60
0
100
AcDbSpline
70
4
71
3
72
16
73
12
40
0
40
0
40
0
40
0
40
0.249999999999966
40
0.249999999999966
40
0.499999999999932
40
0.499999999999932
40
0.749999999999899
40
0.749999999999899
40
0.874999999999949
40
0.874999999999949
40
1
40
1
40
1
40
1
41
1
10
249.130942374233
20
18.4652204896237
30
0
41
1
10
249.167888083678
20
18.4893147201225
30
0
41
1
10
249.206723307933
20
18.5104376605669
30
0
41
1
10
249.287376517488
20
18.5451586884438
30
0
41
1
10
249.329159266427
20
18.5588448368405
30
0
41
1
10
249.414240543031
20
18.5738014294202
30
0
41
1
10
249.457745823115
20
18.5754681414635
30
0
41
1
10
249.515756862152
20
18.5566958975636
30
0
41
1
10
249.533217353179
20
18.5465545609964
30
0
41
1
10
249.558615282611
20
18.51856421208
30
0
41
1
10
249.566344607205
20
18.5008490937508
30
0
41
1
10
249.5689669195
20
18.4817723416419
30
0
0
SPLINE
5
30E
100
AcDbEntity
8
1
62
256
6
ByLayer
370
18
48
1
60
0
100
AcDbSpline
70
4
71
3
72
18
73
14
40
0
40
0
40
0
40
0
40
0.124999999999999
40
0.124999999999999
40
0.249999999999997
40
0.249999999999997
40
0.499999999999994
40
0.499999999999994
40
0.749999999999991
40
0.749999999999991
40
0.874999999999996
40
0.874999999999996
40
1
40
1
40
1
40
1
41
1
10
251.426770109632
20
17.5192745789892
30
0
41
1
10
251.393280638529
20
17.5182219053372
30
0
41
1
10
251.360047969452
20
17.5280103161945
30
0
41
1
10
251.296897293633
20
17.557264080274
30
0
41
1
10
251.267182824586
20
17.5768688426522
30
0
41
1
10
251.183816470686
20
17.6439893921082
30
0
41
1
10
251.135632487232
20
17.6998557332504
30
0
41
1
10
251.056795670404
20
17.8219519135682
30
0
41
1
10
251.026369829482
20
17.8877472609217
30
0
41
1
10
251.000785310678
20
17.9887975377138
30
0
41
1
10
250.995609726893
20
18.023288719005
30
0
41
1
10
250.996028779963
20
18.0904374689163
30
0
41
1
10
251.001385459356
20
18.1239574898688
30
0
41
1
10
251.016954353535
20
18.1530013376619
30
0
0
SPLINE
5
30F
100
AcDbEntity
8
1
62
256
6
ByLayer
370
18
48
1
60
0
100
AcDbSpline
70
4
71
3
72
8
73
4
40
0
40
0
40
0
40
0
40
1
40
1
40
1
40
1
41
1
10
248.932977913372
20
18.0437847603549
30
0
41
1
10
248.929830466663
20
18.0494752327177
30
0
41
1
10
248.926683633831
20
18.055164960343
30
0
41
1
10
248.923537391602
20
18.060853971162
30
0
0
SPLINE
5
310
100
AcDbEntity
8
1
62
256
6
ByLayer
370
18
48
1
60
0
100
AcDbSpline
70
4
71
3
72
16
73
12
40
0
40
0
40
0
40
0
40
0.125
40
0.125
40
0.25
40
0.25
40
0.5
40
0.5
40
0.75
40
0.75
40
1
40
1
40
1
40
1
41
1
10
250.340750460537
20
18.5222198031148
30
0
41
1
10
250.343460735676
20
18.5416477156048
30
0
41
1
10
250.351472391609
20
18.5602841952801
30
0
41
1
10
250.377872808966
20
18.5910993817746
30
0
41
1
10
250.396154161762
20
18.6031340714287
30
0
41
1
10
250.455607577007
20
18.6277057917501
30
0
41
1
10
250.500607292203
20
18.6307218791449
30
0
41
1
10
250.588913933
20
18.6248566790068
30
0
41
1
10
250.63261738297
20
18.6156481989676
30
0
41
1
10
250.717259513298
20
18.5896268784624
30
0
41
1
10
250.758380503305
20
18.5726535714674
30
0
41
1
10
250.797615199911
20
18.5525671112089
30
0
0
SPLINE
5
311
100
AcDbEntity
8
1
62
256
6
ByLayer
370
18
48
1
60
0
100
AcDbSpline
70
4
71
3
72
16
73
12
40
0
40
0
40
0
40
0
40
0.124999999999952
40
0.124999999999952
40
0.249999999999904
40
0.249999999999904
40
0.499999999999936
40
0.499999999999936
40
0.749999999999968
40
0.749999999999968
40
1
40
1
40
1
40
1
41
1
10
249.720260719401
20
15.5949146657199
30
0
41
1
10
249.719644545488
20
15.5755965004248
30
0
41
1
10
249.713760419381
20
15.5570715198631
30
0
41
1
10
249.691188562014
20
15.5264569796955
30
0
41
1
10
249.674595022252
20
15.5145107445744
30
0
41
1
10
249.619216329739
20
15.4901525714225
30
0
41
1
10
249.575812719756
20
15.4872201323575
30
0
41
1
10
249.489825556881
20
15.4932068911826
30
0
41
1
10
249.446810335939
20
15.5024514397767
30
0
41
1
10
249.363064025426
20
15.5285197082091
30
0
41
1
10
249.322140275375
20
15.5455033521121
30
0
41
1
10
249.282905578768
20
15.5655898123706
30
0
0
SPLINE
5
312
100
AcDbEntity
8
1
62
256
6
ByLayer
370
18
48
1
60
0
100
AcDbSpline
70
4
71
3
72
18
73
14
40
0
40
0
40
0
40
0
40
0.125000000000002
40
0.125000000000002
40
0.250000000000004
40
0.250000000000004
40
0.500000000000009
40
0.500000000000009
40
0.750000000000013
40
0.750000000000013
40
0.875000000000007
40
0.875000000000007
40
1
40
1
40
1
40
1
41
1
10
248.591649655082
20
17.3706922119663
30
0
41
1
10
248.621706373272
20
17.3729691369084
30
0
41
1
10
248.650759011504
20
17.3860001702619
30
0
41
1
10
248.705368342991
20
17.4213705783433
30
0
41
1
10
248.730735245917
20
17.443829570981
30
0
41
1
10
248.801477950946
20
17.5189185394412
30
0
41
1
10
248.84180102841
20
17.5793361732565
30
0
41
1
10
248.907460822347
20
17.7088430286701
30
0
41
1
10
248.932727396396
20
17.7776632381276
30
0
41
1
10
248.952799747394
20
17.881803601515
30
0
41
1
10
248.956439009856
20
17.9166483786212
30
0
41
1
10
248.953961033485
20
17.9839478696038
30
0
41
1
10
248.948063376041
20
18.0165107772388
30
0
41
1
10
248.932977913372
20
18.0437847603548
30
0
0
SPLINE
5
313
100
AcDbEntity
8
1
62
256
6
ByLayer
370
18
48
1
60
0
100
AcDbSpline
70
4
71
3
72
16
73
12
40
0
40
0
40
0
40
0
40
0.250000000000064
40
0.250000000000064
40
0.500000000000127
40
0.500000000000127
40
0.750000000000191
40
0.750000000000191
40
0.875000000000095
40
0.875000000000095
40
1
40
1
40
1
40
1
41
1
10
251.706933215018
20
17.1464250833749
30
0
41
1
10
251.704617074593
20
17.1906196754243
30
0
41
1
10
251.69864596216
20
17.23468151381
30
0
41
1
10
251.678502626059
20
17.3210059943357
30
0
41
1
10
251.664431959361
20
17.3632866651975
30
0
41
1
10
251.62466742015
20
17.4421588920172
30
0
41
1
10
251.599207095646
20
17.4791329976586
30
0
41
1
10
251.54680805363
20
17.516885918907
30
0
41
1
10
251.52708405031
20
17.5257814281049
30
0
41
1
10
251.486674427879
20
17.5314816869807
30
0
41
1
10
251.46623240689
20
17.5281890737917
30
0
41
1
10
251.447718658904
20
17.5199330663702
30
0
0
SPLINE
5
314
100
AcDbEntity
8
1
62
256
6
ByLayer
370
13
48
1
60
0
100
AcDbSpline
70
4
71
3
72
24
73
20
40
0
40
0
40
0
40
0
40
0.0060739908125025
40
0.0060739908125025
40
0.0612921024340303
40
0.0612921024340303
40
0.116510214055558
40
0.116510214055558
40
0.337382660541668
40
0.337382660541668
40
0.558255107027779
40
0.558255107027779
40
0.613473218649307
40
0.613473218649307
40
0.668691330270834
40
0.668691330270834
40
0.779127553513889
40
0.779127553513889
40
1
40
1
40
1
40
1
41
1
10
17.6534317226498
20
-12.1942043704125
30
0
41
1
10
17.6219705802455
20
-12.2174032636082
30
0
41
1
10
17.5905537898582
20
-12.2406568591773
30
0
41
1
10
17.2739778027858
20
-12.4758593145362
30
0
41
1
10
16.9919494794471
20
-12.6926992871405
30
0
41
1
10
16.4389932428385
20
-13.1327037946013
30
0
41
1
10
16.1678326337629
20
-13.3560116268891
30
0
41
1
10
14.8384437950702
20
-14.4889264155908
30
0
41
1
10
13.859751857405
20
-15.448264771818
30
0
41
1
10
12.0626411962772
20
-17.4677282917057
30
0
41
1
10
11.2439719181544
20
-18.5274755215008
30
0
41
1
10
10.3250121611388
20
-19.9168026126596
30
0
41
1
10
10.1462584991319
20
-20.1983078118337
30
0
41
1
10
9.80068183371915
20
-20.7662335103778
30
0
41
1
10
9.63421169854908
20
-21.0521112391203
30
0
41
1
10
9.15324462124103
20
-21.9155446186643
30
0
41
1
10
8.85709376336915
20
-22.498785048695
30
0
41
1
10
8.03820849965759
20
-24.2699657800341
30
0
41
1
10
7.58439442862989
20
-25.4791759525364
30
0
41
1
10
7.2198064940486
20
-26.7153657879006
30
0
0
SPLINE
5
315
100
AcDbEntity
8
1
62
256
6
ByLayer
370
13
48
1
60
0
100
AcDbSpline
70
4
71
3
72
12
73
8
40
0
40
0
40
0
40
0
40
0.0925377658691736
40
0.0925377658691736
40
0.591129664727318
40
0.591129664727318
40
1
40
1
40
1
40
1
41
1
10
259.629849285375
20
7.81059293034664
30
0
41
1
10
259.621288260397
20
7.80163156684489
30
0
41
1
10
259.612519004891
20
7.79287439109976
30
0
41
1
10
259.555208317601
20
7.73826878984013
30
0
41
1
10
259.500248778495
20
7.69772716728312
30
0
41
1
10
259.39439505079
20
7.63849670904727
30
0
41
1
10
259.343679649679
20
7.61660598946023
30
0
41
1
10
259.291277735253
20
7.59997859551146
30
0
0
SPLINE
5
316
100
AcDbEntity
8
1
62
256
6
ByLayer
370
13
48
1
60
0
100
AcDbSpline
70
4
71
3
72
24
73
20
40
0
40
0
40
0
40
0
40
0.0612470952997353
40
0.0612470952997353
40
0.122494190599471
40
0.122494190599471
40
0.183741285899206
40
0.183741285899206
40
0.244988381198941
40
0.244988381198941
40
0.367482571798411
40
0.367482571798411
40
0.489976762397882
40
0.489976762397882
40
0.73496514359682
40
0.73496514359682
40
0.979953524795758
40
0.979953524795758
40
1
40
1
40
1
40
1
41
1
10
259.878628430143
20
8.32309800324546
30
0
41
1
10
259.877378751968
20
8.30577840252954
30
0
41
1
10
259.87565363583
20
8.28677463218403
30
0
41
1
10
259.871632945899
20
8.24937608610276
30
0
41
1
10
259.869404039445
20
8.23186539986449
30
0
41
1
10
259.865046226659
20
8.20154314812879
30
0
41
1
10
259.862882897152
20
8.1882806642756
30
0
41
1
10
259.858729906827
20
8.16463829234021
30
0
41
1
10
259.856709599937
20
8.15409061570577
30
0
41
1
10
259.850850702832
20
8.12522267933977
30
0
41
1
10
259.847178314922
20
8.10949193848657
30
0
41
1
10
259.84008906334
20
8.08170295523888
30
0
41
1
10
259.836700838002
20
8.06981423534435
30
0
41
1
10
259.82682589246
20
8.03786375023719
30
0
41
1
10
259.820656014936
20
8.02155129935085
30
0
41
1
10
259.808771195501
20
7.99407534010243
30
0
41
1
10
259.803074131046
20
7.98307160255178
30
0
41
1
10
259.797089812659
20
7.97316138696067
30
0
41
1
10
259.796638316677
20
7.97242398340404
30
0
41
1
10
259.796187941809
20
7.97169854287779
30
0
0
SPLINE
5
317
100
AcDbEntity
8
1
62
256
6
ByLayer
370
13
48
1
60
0
100
AcDbSpline
70
4
71
3
72
10
73
6
40
0
40
0
40
0
40
0
40
0.121795173997215
40
0.121795173997215
40
1
40
1
40
1
40
1
41
1
10
259.770289539037
20
7.94076648176727
30
0
41
1
10
259.768888621851
20
7.93964250773357
30
0
41
1
10
259.767496080968
20
7.93860676806187
30
0
41
1
10
259.756125135292
20
7.93075894299827
30
0
41
1
10
259.746570804231
20
7.92818022128307
30
0
41
1
10
259.737304815314
20
7.92848251177207
30
0
0
SPLINE
5
318
100
AcDbEntity
8
1
62
256
6
ByLayer
370
13
48
1
60
0
100
AcDbSpline
70
4
71
1
72
4
73
2
40
0
40
0
40
1
40
1
41
1
10
238.837431349627
20
16.6509058035904
30
0
41
1
10
238.915426832952
20
16.6537134176923
30
0
0
SPLINE
5
319
100
AcDbEntity
8
1
62
256
6
ByLayer
370
13
48
1
60
0
100
AcDbSpline
70
4
71
1
72
4
73
2
40
0
40
0
40
1
40
1
41
1
10
238.91753433748
20
16.5471805278543
30
0
41
1
10
238.861536318056
20
16.5439004887392
30
0
0
SPLINE
5
31A
100
AcDbEntity
8
1
62
256
6
ByLayer
370
13
48
1
60
0
100
AcDbSpline
70
4
71
3
72
10
73
6
40
0
40
0
40
0
40
0
40
0.381050048121181
40
0.381050048121181
40
1
40
1
40
1
40
1
41
1
10
257.221680114193
20
26.0308151887365
30
0
41
1
10
257.226925883219
20
26.0305952630462
30
0
41
1
10
257.237901481099
20
26.0303075089955
30
0
41
1
10
257.279055682205
20
26.0294705220923
30
0
41
1
10
257.316989071679
20
26.0288795969795
30
0
41
1
10
257.356213601929
20
26.0284098929741
30
0
0
SPLINE
5
31B
100
AcDbEntity
8
1
62
256
6
ByLayer
370
13
48
1
60
0
100
AcDbSpline
70
4
71
3
72
8
73
4
40
0
40
0
40
0
40
0
40
1
40
1
40
1
40
1
41
1
10
240.163226817685
20
26.2940998012852
30
0
41
1
10
240.243709353004
20
26.2982506495954
30
0
41
1
10
240.323177855139
20
26.3001920278359
30
0
41
1
10
240.4015222825
20
26.3008702055368
30
0
0
SPLINE
5
31C
100
AcDbEntity
8
1
62
256
6
ByLayer
370
13
48
1
60
0
100
AcDbSpline
70
4
71
3
72
24
73
20
40
0
40
0
40
0
40
0
40
0.0436863032248871
40
0.0436863032248871
40
0.0873726064497743
40
0.0873726064497743
40
0.131058909674661
40
0.131058909674661
40
0.174745212899549
40
0.174745212899549
40
0.262117819349322
40
0.262117819349322
40
0.349490425799095
40
0.349490425799095
40
0.524235638698641
40
0.524235638698641
40
0.698980851598187
40
0.698980851598187
40
1
40
1
40
1
40
1
41
1
10
240.584703922022
20
7.31194626612009
30
0
41
1
10
240.587757145576
20
7.2948521709281
30
0
41
1
10
240.591459246258
20
7.27613282896499
30
0
41
1
10
240.59936712298
20
7.23935943257143
30
0
41
1
10
240.603414184373
20
7.22217765587109
30
0
41
1
10
240.610917662982
20
7.19247702807652
30
0
41
1
10
240.6144554486
20
7.17951332700616
30
0
41
1
10
240.621056989216
20
7.15643457615494
30
0
41
1
10
240.624168761083
20
7.14615586037093
30
0
41
1
10
240.633013083563
20
7.11805848709162
30
0
41
1
10
240.638309663915
20
7.10279778994763
30
0
41
1
10
240.64826481955
20
7.07590206623144
30
0
41
1
10
240.652877193456
20
7.06443263997605
30
0
41
1
10
240.666037778122
20
7.03368939585164
30
0
41
1
10
240.673878971834
20
7.01811123409442
30
0
41
1
10
240.688570704782
20
6.99202809293718
30
0
41
1
10
240.695386763899
20
6.98168014040488
30
0
41
1
10
240.712971947652
20
6.95845013079739
30
0
41
1
10
240.723031338218
20
6.94906656622848
30
0
41
1
10
240.732413692027
20
6.94303379464591
30
0
0
SPLINE
5
31D
100
AcDbEntity
8
1
62
256
6
ByLayer
370
13
48
1
60
0
100
AcDbSpline
70
4
71
3
72
10
73
6
40
0
40
0
40
0
40
0
40
0.831982487582047
40
0.831982487582047
40
1
40
1
40
1
40
1
41
1
10
239.461358086286
20
18.9955728219175
30
0
41
1
10
239.425887053883
20
18.9484377793325
30
0
41
1
10
239.395054038123
20
18.9032614800521
30
0
41
1
10
239.367673478873
20
18.8581649930157
30
0
41
1
10
239.363434019059
20
18.8509478413409
30
0
41
1
10
239.35965057321
20
18.844247787112
30
0
0
SPLINE
5
31E
100
AcDbEntity
8
1
62
256
6
ByLayer
370
13
48
1
60
0
100
AcDbSpline
70
4
71
3
72
14
73
10
40
0
40
0
40
0
40
0
40
0.0145581563128163
40
0.0145581563128163
40
0.343038770875211
40
0.343038770875211
40
0.671519385437606
40
0.671519385437606
40
1
40
1
40
1
40
1
41
1
10
240.191890710356
20
25.198346972687
30
0
41
1
10
240.191899997023
20
25.1951739433341
30
0
41
1
10
240.19191178338
20
25.191992106571
30
0
41
1
10
240.192240074466
20
25.1168728776671
30
0
41
1
10
240.193704453329
20
25.0401940912293
30
0
41
1
10
240.197343052513
20
24.8856108330799
30
0
41
1
10
240.199589420293
20
24.8072025679689
30
0
41
1
10
240.204543214699
20
24.6494955488118
30
0
41
1
10
240.207258979333
20
24.5701902863702
30
0
41
1
10
240.210137023227
20
24.49057811679
30
0
0
SPLINE
5
31F
100
AcDbEntity
8
1
62
256
6
ByLayer
370
13
48
1
60
0
100
AcDbSpline
70
4
71
3
72
18
73
14
40
0
40
0
40
0
40
0
40
0.1467030313982
40
0.1467030313982
40
0.31736242511856
40
0.31736242511856
40
0.48802181883892
40
0.48802181883892
40
0.65868121255928
40
0.65868121255928
40
0.82934060627964
40
0.82934060627964
40
1
40
1
40
1
40
1
41
1
10
36
20
-9.56682612290237
30
0
41
1
10
36
20
-9.79340737246687
30
0
41
1
10
36
20
-10.0325661493246
30
0
41
1
10
36
20
-10.5597287857808
30
0
41
1
10
36
20
-10.8514465683643
30
0
41
1
10
36
20
-11.4515373195763
30
0
41
1
10
36
20
-11.7597132903041
30
0
41
1
10
36
20
-12.3678279835266
30
0
41
1
10
36
20
-12.6709223588946
30
0
41
1
10
36
20
-13.2751334083417
30
0
41
1
10
36
20
-13.5719897870535
30
0
41
1
10
36
20
-14.1411032348351
30
0
41
1
10
36
20
-14.4156712764378
30
0
41
1
10
36
20
-14.6798161228872
30
0
0
SPLINE
5
320
100
AcDbEntity
8
1
62
256
6
ByLayer
370
13
48
1
60
0
100
AcDbSpline
70
4
71
3
72
36
73
32
40
0
40
0
40
0
40
0
40
0.0210208127260334
40
0.0210208127260334
40
0.0754085453523653
40
0.0754085453523653
40
0.102602411665531
40
0.102602411665531
40
0.129796277978696
40
0.129796277978696
40
0.184184010605028
40
0.184184010605028
40
0.23857174323136
40
0.23857174323136
40
0.292959475857692
40
0.292959475857692
40
0.320153342170858
40
0.320153342170858
40
0.347347208484024
40
0.347347208484024
40
0.401734941110355
40
0.401734941110355
40
0.456122673736687
40
0.456122673736687
40
0.564898138989349
40
0.564898138989349
40
0.673673604242012
40
0.673673604242012
40
0.782449069494675
40
0.782449069494675
40
1
40
1
40
1
40
1
41
1
10
146.158712880561
20
-13.6154358377851
30
0
41
1
10
145.396413926274
20
-13.6679782065587
30
0
41
1
10
144.633630911114
20
-13.7188515660976
30
0
41
1
10
141.895448316625
20
-13.8950265014226
30
0
41
1
10
139.91710320071
20
-14.0098990410452
30
0
41
1
10
136.943423562805
20
-14.1600010026401
30
0
41
1
10
135.951165937125
20
-14.2063213955084
30
0
41
1
10
133.964441562905
20
-14.2910647744532
30
0
41
1
10
132.970223159404
20
-14.3295174722696
30
0
41
1
10
129.988256159786
20
-14.4329052492628
30
0
41
1
10
127.999953810057
20
-14.4849864571666
30
0
41
1
10
124.022732534789
20
-14.5656693816117
30
0
41
1
10
122.033822655866
20
-14.5951411323212
30
0
41
1
10
118.055428557819
20
-14.6401860824086
30
0
41
1
10
116.065946174266
20
-14.655357358209
30
0
41
1
10
113.081218683483
20
-14.6700402945727
30
0
41
1
10
112.086218520353
20
-14.6736609235862
30
0
41
1
10
110.0960978174
20
-14.6784929123168
30
0
41
1
10
109.100986020478
20
-14.6797232524932
30
0
41
1
10
106.115560929803
20
-14.6816119549693
30
0
41
1
10
104.125154258421
20
-14.6809271971176
30
0
41
1
10
100.144262673196
20
-14.6806653580068
30
0
41
1
10
98.1537730281299
20
-14.6806851373078
30
0
41
1
10
92.1823293197527
20
-14.6807385877326
30
0
41
1
10
88.2014144865942
20
-14.6796080882853
30
0
41
1
10
80.2396566278903
20
-14.6788699082593
30
0
41
1
10
76.2588083667406
20
-14.6789920309407
30
0
41
1
10
68.2970818687952
20
-14.6794191051942
30
0
41
1
10
64.3162024638351
20
-14.6798593792254
30
0
41
1
10
52.3735350894382
20
-14.6802845222309
30
0
41
1
10
44.4117203175439
20
-14.6795266954692
30
0
41
1
10
36.4500000000283
20
-14.6798161228872
30
0
0
SPLINE
5
321
100
AcDbEntity
8
1
62
256
6
ByLayer
370
13
48
1
60
0
100
AcDbSpline
70
4
71
3
72
64
73
60
40
0
40
0
40
0
40
0
40
0.0170782632607655
40
0.0170782632607655
40
0.0375557994428325
40
0.0375557994428325
40
0.0580333356248995
40
0.0580333356248995
40
0.0785108718069665
40
0.0785108718069665
40
0.0989884079890335
40
0.0989884079890335
40
0.139943480353168
40
0.139943480353168
40
0.180898552717303
40
0.180898552717303
40
0.221853625081437
40
0.221853625081437
40
0.262808697445572
40
0.262808697445572
40
0.303763769809707
40
0.303763769809707
40
0.324241305991774
40
0.324241305991774
40
0.344718842173841
40
0.344718842173841
40
0.365196378355909
40
0.365196378355909
40
0.385673914537976
40
0.385673914537976
40
0.426628986902111
40
0.426628986902111
40
0.447106523084178
40
0.447106523084178
40
0.467584059266245
40
0.467584059266245
40
0.477822827357279
40
0.477822827357279
40
0.488061595448313
40
0.488061595448313
40
0.498300363539346
40
0.498300363539346
40
0.50853913163038
40
0.50853913163038
40
0.549494203994516
40
0.549494203994516
40
0.569971740176583
40
0.569971740176583
40
0.590449276358651
40
0.590449276358651
40
0.631404348722786
40
0.631404348722786
40
0.67235942108692
40
0.67235942108692
40
0.754269565815191
40
0.754269565815191
40
0.83617971054346
40
0.83617971054346
40
1
40
1
40
1
40
1
41
1
10
181.418244083213
20
-22.0199155017746
30
0
41
1
10
180.647862165768
20
-22.2008997325838
30
0
41
1
10
179.877484081622
20
-22.3769547103193
30
0
41
1
10
178.182920620979
20
-22.7515423558574
30
0
41
1
10
177.258680310163
20
-22.9477680523578
30
0
41
1
10
175.408463607809
20
-23.3200160602717
30
0
41
1
10
174.48306278427
20
-23.4943337407042
30
0
41
1
10
172.627789385584
20
-23.8240020360851
30
0
41
1
10
171.697596926992
20
-23.9801804268823
30
0
41
1
10
169.829978047449
20
-24.2702734175419
30
0
41
1
10
168.892377845539
20
-24.405105749113
30
0
41
1
10
166.070062359447
20
-24.7832219317543
30
0
41
1
10
164.177409421231
20
-24.998091188433
30
0
41
1
10
160.37009880609
20
-25.3599144337402
30
0
41
1
10
158.455384659499
20
-25.5066577562279
30
0
41
1
10
154.604566303468
20
-25.7451232859393
30
0
41
1
10
152.667503307539
20
-25.8377054563275
30
0
41
1
10
148.780335998711
20
-25.9835853394122
30
0
41
1
10
146.83004487948
20
-26.0369874562195
30
0
41
1
10
142.91508959632
20
-26.1141666361584
30
0
41
1
10
140.950266782224
20
-26.1378538498328
30
0
41
1
10
137.990256585083
20
-26.157236452693
30
0
41
1
10
137.001135509935
20
-26.1609966803505
30
0
41
1
10
135.020169965426
20
-26.1640299282073
30
0
41
1
10
134.028378141108
20
-26.1632435875637
30
0
41
1
10
132.042081500175
20
-26.1591580720844
30
0
41
1
10
131.047577384195
20
-26.1558686067313
30
0
41
1
10
129.055779998224
20
-26.148806471948
30
0
41
1
10
128.058489544659
20
-26.1449981401223
30
0
41
1
10
125.062505578384
20
-26.1316494017248
30
0
41
1
10
123.059673940641
20
-26.1197318444655
30
0
41
1
10
120.047405506508
20
-26.0959223942791
30
0
41
1
10
119.042519308987
20
-26.0870821837328
30
0
41
1
10
117.032479689631
20
-26.0689879460414
30
0
41
1
10
116.027119076087
20
-26.0600984335926
30
0
41
1
10
114.518541272994
20
-26.0522815704346
30
0
41
1
10
114.015592626747
20
-26.0505988373874
30
0
41
1
10
113.009512760218
20
-26.0499781351684
30
0
41
1
10
112.506378612397
20
-26.0512979927478
30
0
41
1
10
111.49994609729
20
-26.0556417176142
30
0
41
1
10
110.996649198632
20
-26.0585068652342
30
0
41
1
10
109.98992937621
20
-26.0632215611139
30
0
41
1
10
109.486508814819
20
-26.0649485072957
30
0
41
1
10
106.969154326444
20
-26.0702159363968
30
0
41
1
10
104.954348474547
20
-26.0647131954807
30
0
41
1
10
101.932102403155
20
-26.0565605066452
30
0
41
1
10
100.924691151164
20
-26.053760696134
30
0
41
1
10
98.9098694292672
20
-26.0499146549134
30
0
41
1
10
97.9024584535217
20
-26.0491642724293
30
0
41
1
10
94.8802201642577
20
-26.0498111557969
30
0
41
1
10
92.865389691538
20
-26.0513766488458
30
0
41
1
10
88.8357225973708
20
-26.0530406968345
30
0
41
1
10
86.8208854631667
20
-26.0536632646514
30
0
41
1
10
80.7763785052991
20
-26.0546452807522
30
0
41
1
10
76.7467090337852
20
-26.054161214628
30
0
41
1
10
68.6873674589179
20
-26.0521056647682
30
0
41
1
10
64.6576963156992
20
-26.0517703259415
30
0
41
1
10
52.5686837603635
20
-26.0518738763852
30
0
41
1
10
44.5093422662568
20
-26.053160499805
30
0
41
1
10
36.45
20
-26.0526184883292
30
0
0
SPLINE
5
322
100
AcDbEntity
8
1
62
256
6
ByLayer
370
13
48
1
60
0
100
AcDbSpline
70
4
71
3
72
12
73
8
40
0
40
0
40
0
40
0
40
0.316065089021077
40
0.316065089021077
40
0.658032544510538
40
0.658032544510538
40
1
40
1
40
1
40
1
41
1
10
36.4499441349807
20
-9.5737501806594
30
0
41
1
10
36.4498108166303
20
-10.0607256171657
30
0
41
1
10
36.4497035796141
20
-10.5963443274012
30
0
41
1
10
36.4495474843649
20
-11.750207782555
30
0
41
1
10
36.4495041791421
20
-12.3712681967039
30
0
41
1
10
36.4494989005213
20
-13.5744429680005
30
0
41
1
10
36.4495369287009
20
-14.1561977509509
30
0
41
1
10
36.449613120526
20
-14.679816136952
30
0
0
SPLINE
5
323
100
AcDbEntity
8
1
62
256
6
ByLayer
370
13
48
1
60
0
100
AcDbSpline
70
4
71
1
72
4
73
2
40
0
40
0
40
1
40
1
41
1
10
238.851138158451
20
16.4352555704867
30
0
41
1
10
238.92565030073
20
16.4413012054346
30
0
0
SPLINE
5
324
100
AcDbEntity
8
1
62
256
6
ByLayer
370
13
48
1
60
0
100
AcDbSpline
70
4
71
3
72
36
73
32
40
0
40
0
40
0
40
0
40
0.0052225459914708
40
0.0052225459914708
40
0.060487960103055
40
0.060487960103055
40
0.115753374214639
40
0.115753374214639
40
0.171018788326223
40
0.171018788326223
40
0.226284202437808
40
0.226284202437808
40
0.336815030660976
40
0.336815030660976
40
0.392080444772561
40
0.392080444772561
40
0.447345858884146
40
0.447345858884146
40
0.557876687107317
40
0.557876687107317
40
0.613142101218902
40
0.613142101218902
40
0.668407515330488
40
0.668407515330488
40
0.778938343553659
40
0.778938343553659
40
0.834203757665245
40
0.834203757665245
40
0.88946917177683
40
0.88946917177683
40
1
40
1
40
1
40
1
41
1
10
181.946913551805
20
-22.1481799546673
30
0
41
1
10
181.853493266375
20
-22.1708761494223
30
0
41
1
10
181.7600756906
20
-22.1934959711721
30
0
41
1
10
180.678135655633
20
-22.4545935626483
30
0
41
1
10
179.689803625607
20
-22.6844346337957
30
0
41
1
10
177.712252087852
20
-23.1251441398664
30
0
41
1
10
176.723733878276
20
-23.3360300314592
30
0
41
1
10
174.745307550374
20
-23.7364602914787
30
0
41
1
10
173.755178649064
20
-23.9258094363246
30
0
41
1
10
171.769137332874
20
-24.2798842573646
30
0
41
1
10
170.77296881308
20
-24.4443834337197
30
0
41
1
10
167.771868090198
20
-24.9006759827793
30
0
41
1
10
165.755146937116
20
-25.1561630028182
30
0
41
1
10
162.704396034248
20
-25.4787884539278
30
0
41
1
10
161.684035289615
20
-25.5761730217143
30
0
41
1
10
159.638043096439
20
-25.7527152095624
30
0
41
1
10
158.612118781082
20
-25.8318850361998
30
0
41
1
10
155.525774405338
20
-26.0455112540425
30
0
41
1
10
153.456875788451
20
-26.1562636784072
30
0
41
1
10
150.337717904824
20
-26.2865135161349
30
0
41
1
10
149.295343670916
20
-26.3239101350014
30
0
41
1
10
147.205391388959
20
-26.3882764320986
30
0
41
1
10
146.158099803947
20
-26.4152392130569
30
0
41
1
10
143.010806092823
20
-26.4825030367489
30
0
41
1
10
140.904580417628
20
-26.5091792253473
30
0
41
1
10
137.730976061676
20
-26.5306671851442
30
0
41
1
10
136.67048129884
20
-26.5347470744554
30
0
41
1
10
134.546143236118
20
-26.5382265281556
30
0
41
1
10
133.482197840871
20
-26.537633884683
30
0
41
1
10
130.284939246547
20
-26.5310184385921
30
0
41
1
10
128.146203917704
20
-26.5202364227858
30
0
41
1
10
126
20
-26.5079335535064
30
0
0
SPLINE
5
325
100
AcDbEntity
8
1
62
256
6
ByLayer
370
13
48
1
60
0
100
AcDbSpline
70
4
71
3
72
28
73
24
40
0
40
0
40
0
40
0
40
0.0673060885164302
40
0.0673060885164302
40
0.13461217703286
40
0.13461217703286
40
0.269224354065721
40
0.269224354065721
40
0.403836531098581
40
0.403836531098581
40
0.538448708131441
40
0.538448708131441
40
0.673060885164302
40
0.673060885164302
40
0.740366973680733
40
0.740366973680733
40
0.807673062197164
40
0.807673062197164
40
0.874979150713594
40
0.874979150713594
40
0.942285239230025
40
0.942285239230025
40
1
40
1
40
1
40
1
41
1
10
228.159724881211
20
26.2495386842863
30
0
41
1
10
227.124394451207
20
26.3181173825823
30
0
41
1
10
226.088883615151
20
26.3745241377366
30
0
41
1
10
224.019289916339
20
26.4627545045685
30
0
41
1
10
222.984917129056
20
26.4945997174633
30
0
41
1
10
219.882313668028
20
26.5532708808322
30
0
41
1
10
217.814586676898
20
26.5432240211381
30
0
41
1
10
213.676664806443
20
26.424830561962
30
0
41
1
10
211.605143577944
20
26.3163337551761
30
0
41
1
10
207.46699505622
20
26.0022623423313
30
0
41
1
10
205.399431111423
20
25.7967356665172
30
0
41
1
10
201.263102433627
20
25.2909325578308
30
0
41
1
10
199.193687412303
20
24.9907256714779
30
0
41
1
10
196.087907087753
20
24.4709993189257
30
0
41
1
10
195.053313621148
20
24.2863019602324
30
0
41
1
10
192.985269147169
20
23.8940982053303
30
0
41
1
10
191.951769862522
20
23.6866128673268
30
0
41
1
10
189.884217591588
20
23.2505238669576
30
0
41
1
10
188.850180951465
20
23.0219029765405
30
0
41
1
10
186.779976162508
20
22.5456424366392
30
0
41
1
10
185.743717945579
20
22.2980858015471
30
0
41
1
10
183.8141304144
20
21.8247155153324
30
0
41
1
10
182.921117150619
20
21.6008361314731
30
0
41
1
10
182.026280074532
20
21.3731832826204
30
0
0
SPLINE
5
326
100
AcDbEntity
8
1
62
256
6
ByLayer
370
13
48
1
60
0
100
AcDbSpline
70
4
71
3
72
34
73
30
40
0
40
0
40
0
40
0
40
0.123167780065537
40
0.123167780065537
40
0.246335560131074
40
0.246335560131074
40
0.369503340196612
40
0.369503340196612
40
0.43108723022938
40
0.43108723022938
40
0.492671120262147
40
0.492671120262147
40
0.615838900327685
40
0.615838900327685
40
0.739006680393222
40
0.739006680393222
40
0.800590570425991
40
0.800590570425991
40
0.86217446045876
40
0.86217446045876
40
0.92375835049153
40
0.92375835049153
40
0.954550295507915
40
0.954550295507915
40
0.969946268016107
40
0.969946268016107
40
0.985342240524299
40
0.985342240524299
40
1
40
1
40
1
40
1
41
1
10
228.07641855395
20
26.1197509369904
30
0
41
1
10
226.190824413482
20
26.2439287050546
30
0
41
1
10
224.305974044449
20
26.3281623873947
30
0
41
1
10
220.534918353318
20
26.4166338155852
30
0
41
1
10
218.650426731974
20
26.4208107478059
30
0
41
1
10
214.88381343084
20
26.348567126075
30
0
41
1
10
213.001197850019
20
26.2721297650912
30
0
41
1
10
210.176031283854
20
26.0960806508842
30
0
41
1
10
209.234098475666
20
26.0271990497555
30
0
41
1
10
207.349422959738
20
25.8692757578462
30
0
41
1
10
206.406481319193
20
25.7802077836799
30
0
41
1
10
203.579581364167
20
25.4835878361191
30
0
41
1
10
201.69643914611
20
25.2465641423788
30
0
41
1
10
197.930231540905
20
24.6970327553628
30
0
41
1
10
196.047254291067
20
24.384254791635
30
0
41
1
10
193.220670016439
20
23.8531997655202
30
0
41
1
10
192.277811405575
20
23.6658714551454
30
0
41
1
10
190.392558491223
20
23.2750241350742
30
0
41
1
10
189.450226487378
20
23.071529747596
30
0
41
1
10
187.565742216486
20
22.6519432919768
30
0
41
1
10
186.623710048107
20
22.4359938882314
30
0
41
1
10
185.208732688946
20
22.1019368833402
30
0
41
1
10
184.736796545608
20
21.9890529854997
30
0
41
1
10
184.027916536078
20
21.8166287580382
30
0
41
1
10
183.791437368642
20
21.7585672869351
30
0
41
1
10
183.317900500344
20
21.6408689658699
30
0
41
1
10
183.080840456566
20
21.5812320121779
30
0
41
1
10
182.617666059597
20
21.4639257595806
30
0
41
1
10
182.391588344629
20
21.4063688953003
30
0
41
1
10
182.165377622215
20
21.3486036636567
30
0
0
SPLINE
5
327
100
AcDbEntity
8
1
62
256
6
ByLayer
370
13
48
1
60
0
100
AcDbSpline
70
4
71
3
72
12
73
8
40
0
40
0
40
0
40
0
40
0.49411914333985
40
0.49411914333985
40
0.747059571669925
40
0.747059571669925
40
1
40
1
40
1
40
1
41
1
10
209.841490590623
20
11.8859805813817
30
0
41
1
10
213.809144066825
20
12.1160166919489
30
0
41
1
10
217.775750095255
20
12.2651790184563
30
0
41
1
10
223.776447516307
20
12.3621980980926
30
0
41
1
10
225.808990413064
20
12.3727943868177
30
0
41
1
10
229.873016684824
20
12.3488526023846
30
0
41
1
10
231.90487899377
20
12.3143265304333
30
0
41
1
10
233.937032120106
20
12.2571167358494
30
0
0
SPLINE
5
328
100
AcDbEntity
8
1
62
256
6
ByLayer
370
13
48
1
60
0
100
AcDbSpline
70
4
71
3
72
10
73
6
40
0
40
0
40
0
40
0
40
0.618238105036934
40
0.618238105036934
40
1
40
1
40
1
40
1
41
1
10
233.487465033208
20
10.2591131456438
30
0
41
1
10
229.418344300159
20
10.3940402046912
30
0
41
1
10
225.352444736448
20
10.4525758755497
30
0
41
1
10
218.77689623092
20
10.4252073679878
30
0
41
1
10
216.266841621951
20
10.3859921668335
30
0
41
1
10
213.756412957288
20
10.3186618336532
30
0
0
SPLINE
5
329
100
AcDbEntity
8
1
62
256
6
ByLayer
370
13
48
1
60
0
100
AcDbSpline
70
4
71
3
72
46
73
42
40
0
40
0
40
0
40
0
40
0.111859674184135
40
0.18937459374666
40
0.272450164552455
40
0.361175743874054
40
0.455582734565597
40
0.555640096003923
40
0.564575016209658
40
0.573788755219581
40
0.583281993246559
40
0.593055391995315
40
0.603109592690502
40
0.61344521388934
40
0.624062849093444
40
0.634963064172024
40
0.646146394606887
40
0.657613342568305
40
0.669364373829733
40
0.681399914528669
40
0.69372034778049
40
0.706326010151717
40
0.719217187999176
40
0.732394113681402
40
0.745856961648957
40
0.759605844420436
40
0.773640808451458
40
0.787961829904291
40
0.802568810326346
40
0.817461572246436
40
0.83263985469827
40
0.848103308681562
40
0.863851492571811
40
0.879883867490779
40
0.896199792650587
40
0.912798520685349
40
0.929679192985273
40
0.946840835049318
40
0.964282351873528
40
0.98200252339342
40
1
40
1
40
1
40
1
41
1
10
32.387748444713
20
-9.65670455130322
30
0
41
1
10
32.4711258792725
20
-9.84289085666811
30
0
41
1
10
32.6246085706095
20
-10.1641381111938
30
0
41
1
10
32.8733804667292
20
-10.6376039250207
30
0
41
1
10
33.1231484936228
20
-11.0771928959456
30
0
41
1
10
33.4142398650315
20
-11.5498665904703
30
0
41
1
10
33.7491710233136
20
-12.0522116559845
30
0
41
1
10
34.0066366882276
20
-12.4094592247261
30
0
41
1
10
34.1603898808512
20
-12.6146990556253
30
0
41
1
10
34.1964682901139
20
-12.6626350749069
30
0
41
1
10
34.2337927480257
20
-12.7119368558093
30
0
41
1
10
34.2723818631032
20
-12.7625908623084
30
0
41
1
10
34.3122580567978
20
-12.8145778340995
30
0
41
1
10
34.3534420245755
20
-12.8678784323839
30
0
41
1
10
34.3959541506964
20
-12.9224715812287
30
0
41
1
10
34.4398139713768
20
-12.978334852995
30
0
41
1
10
34.4850401780382
20
-13.0354442823398
30
0
41
1
10
34.5316504642455
20
-13.0937743400299
30
0
41
1
10
34.5796614107859
20
-13.1532978626634
30
0
41
1
10
34.6290883547024
20
-13.2139859954308
30
0
41
1
10
34.6799452574531
20
-13.2758081322702
30
0
41
1
10
34.7322445680702
20
-13.3387318580577
30
0
41
1
10
34.7859970825955
20
-13.4027228918391
30
0
41
1
10
34.8412117995946
20
-13.4677450316885
30
0
41
1
10
34.8978957719955
20
-13.5337601013529
30
0
41
1
10
34.9560539554088
20
-13.6007278989703
30
0
41
1
10
35.015689053147
20
-13.668606148122
30
0
41
1
10
35.0768013581849
20
-13.737350451522
30
0
41
1
10
35.1393885923277
20
-13.8069142475371
30
0
41
1
10
35.2034457429214
20
-13.8772487701964
30
0
41
1
10
35.2689648973541
20
-13.9483030115908
30
0
41
1
10
35.3359350760794
20
-14.0200236923525
30
0
41
1
10
35.4043420632386
20
-14.0923552198697
30
0
41
1
10
35.4741682404851
20
-14.1652397137969
30
0
41
1
10
35.5453924047805
20
-14.2386167953736
30
0
41
1
10
35.6179896463021
20
-14.3124243050546
30
0
41
1
10
35.6919309975148
20
-14.3865954900195
30
0
41
1
10
35.7671839623482
20
-14.4610697299793
30
0
41
1
10
35.8437096857028
20
-14.535751498168
30
0
41
1
10
35.9214729800891
20
-14.6106672876519
30
0
41
1
10
35.9736891944149
20
-14.6600841147453
30
0
41
1
10
36
20
-14.6849843597568
30
0
0
SPLINE
5
32A
100
AcDbEntity
8
1
62
256
6
ByLayer
370
13
48
1
60
0
100
AcDbSpline
70
4
71
3
72
8
73
4
40
0
40
0
40
0
40
0
40
1
40
1
40
1
40
1
41
1
10
209.515820951943
20
12.0252356056497
30
0
41
1
10
209.586863363191
20
11.9969096559785
30
0
41
1
10
209.657906008266
20
11.9685580324905
30
0
41
1
10
209.728948961471
20
11.9401808726758
30
0
0
SPLINE
5
32B
100
AcDbEntity
8
1
62
256
6
ByLayer
370
13
48
1
60
0
100
AcDbSpline
70
4
71
3
72
12
73
8
40
0
40
0
40
0
40
0
40
0.102333967097262
40
0.102333967097262
40
0.551166983548632
40
0.551166983548632
40
1
40
1
40
1
40
1
41
1
10
211.533732981097
20
11.2139191616461
30
0
41
1
10
211.954516795965
20
11.0433649549448
30
0
41
1
10
212.375333482662
20
10.871955995353
30
0
41
1
10
214.642096846196
20
9.94430377422123
30
0
41
1
10
216.489251825101
20
9.1728515218104
30
0
41
1
10
220.18048765887
20
7.60649079499817
30
0
41
1
10
222.025483936507
20
6.81122526355904
30
0
41
1
10
223.871072057633
20
6.00645953409997
30
0
0
SPLINE
5
32C
100
AcDbEntity
8
1
62
256
6
ByLayer
370
13
48
1
60
0
100
AcDbSpline
70
4
71
3
72
8
73
4
40
0
40
0
40
0
40
0
40
1
40
1
40
1
40
1
41
1
10
258.691520705694
20
0.571671120762375
30
0
41
1
10
258.846142064111
20
0.594354433749203
30
0
41
1
10
258.999288555149
20
0.603854189330576
30
0
41
1
10
259.152216466308
20
0.601966607674001
30
0
0
SPLINE
5
32D
100
AcDbEntity
8
1
62
256
6
ByLayer
370
13
48
1
60
0
100
AcDbSpline
70
4
71
3
72
34
73
30
40
0
40
0
40
0
40
0
40
0.111361678309014
40
0.111361678309014
40
0.222723356618028
40
0.222723356618028
40
0.334085034927042
40
0.334085034927042
40
0.389765874081549
40
0.389765874081549
40
0.445446713236055
40
0.445446713236055
40
0.556808391545074
40
0.556808391545074
40
0.668170069854093
40
0.668170069854093
40
0.723850909008603
40
0.723850909008603
40
0.751691328585855
40
0.751691328585855
40
0.779531748163107
40
0.779531748163107
40
0.890893426472116
40
0.890893426472116
40
0.94657426562662
40
0.94657426562662
40
0.974414685203875
40
0.974414685203875
40
1
40
1
40
1
40
1
41
1
10
233.268715612524
20
9.51280046290412
30
0
41
1
10
232.724663541011
20
9.64740185079398
30
0
41
1
10
232.174602464449
20
9.7586491187804
30
0
41
1
10
231.063585229331
20
9.94173918634635
30
0
41
1
10
230.502612924881
20
10.0135115587779
30
0
41
1
10
229.369628709588
20
10.1208673620057
30
0
41
1
10
228.797612770275
20
10.1564216687143
30
0
41
1
10
227.930508495431
20
10.1831990396825
30
0
41
1
10
227.639953404763
20
10.1876824100968
30
0
41
1
10
227.055582706031
20
10.1876795148587
30
0
41
1
10
226.761436588629
20
10.1831622511386
30
0
41
1
10
225.881865682572
20
10.1562195777404
30
0
41
1
10
225.2968301243
20
10.1204952719162
30
0
41
1
10
224.129260462701
20
10.0137150835396
30
0
41
1
10
223.546725415421
20
9.94267973538811
30
0
41
1
10
222.67473837387
20
9.80845751496531
30
0
41
1
10
222.384379512476
20
9.75909007212394
30
0
41
1
10
221.949300382353
20
9.67775614670998
30
0
41
1
10
221.804122854945
20
9.64938065134461
30
0
41
1
10
221.515601935641
20
9.5904693714067
30
0
41
1
10
221.372152125304
20
9.5599179144391
30
0
41
1
10
220.659058490834
20
9.40165135370515
30
0
41
1
10
220.10175660517
20
9.25759992753586
30
0
41
1
10
219.28880617316
20
9.01279211106854
30
0
41
1
10
219.021678249339
20
8.92636729881218
30
0
41
1
10
218.627504627056
20
8.78867506774722
30
0
41
1
10
218.496995755989
20
8.74134510488341
30
0
41
1
10
218.251067776695
20
8.64861719089157
30
0
41
1
10
218.135065882174
20
8.60330256437894
30
0
41
1
10
218.020903304055
20
8.55704151012972
30
0
0
SPLINE
5
32E
100
AcDbEntity
8
1
62
256
6
ByLayer
370
13
48
1
60
0
100
AcDbSpline
70
4
71
3
72
8
73
4
40
0
40
0
40
0
40
0
40
1
40
1
40
1
40
1
41
1
10
126
20
26.5373092053304
30
0
41
1
10
125.659194889126
20
26.5385580390543
30
0
41
1
10
125.318282074718
20
26.5397212280591
30
0
41
1
10
124.977263008004
20
26.5408121125725
30
0
0
SPLINE
5
32F
100
AcDbEntity
8
1
62
256
6
ByLayer
370
13
48
1
60
0
100
AcDbSpline
70
4
71
3
72
16
73
12
40
0
40
0
40
0
40
0
40
0.368764661422955
40
0.368764661422955
40
0.460955826778693
40
0.460955826778693
40
0.553146992134431
40
0.553146992134431
40
0.737529322845907
40
0.737529322845907
40
1
40
1
40
1
40
1
41
1
10
7.21994497836712
20
-22.5896051329037
30
0
41
1
10
7.58469471538442
20
-21.412861729458
30
0
41
1
10
8.0392706445337
20
-20.2564173994204
30
0
41
1
10
8.72445114777399
20
-18.8365967988133
30
0
41
1
10
8.86738703054264
20
-18.553931171074
30
0
41
1
10
9.1653797912842
20
-17.9912516078788
30
0
41
1
10
9.32068786407469
20
-17.7108158981018
30
0
41
1
10
9.80315391348368
20
-16.8774028954534
30
0
41
1
10
10.1469747030725
20
-16.3323632776496
30
0
41
1
10
11.0324994076197
20
-15.0374397311081
30
0
41
1
10
11.5957089628621
20
-14.2980039824706
30
0
41
1
10
12.2012870528427
20
-13.5791847845676
30
0
0
SPLINE
5
330
100
AcDbEntity
8
1
62
256
6
ByLayer
370
18
48
1
60
0
100
AcDbSpline
70
4
71
1
72
4
73
2
40
0
40
0
40
1
40
1
41
1
10
259.154124004918
20
0.464443749081596
30
0
41
1
10
258.590145473573
20
0.538192678447018
30
0
0
SPLINE
5
331
100
AcDbEntity
8
1
62
256
6
ByLayer
370
18
48
1
60
0
100
AcDbSpline
70
4
71
3
72
29
73
25
40
0
40
0
40
0
40
0
40
0.0029611416259064
40
0.0106724310423562
40
0.0260950098752558
40
0.056940167541055
40
0.118630482872653
40
0.24201111353585
40
0.365391744199047
40
0.427082059530645
40
0.484916730154018
40
0.488772374862243
40
0.496483664278693
40
0.504194953695143
40
0.519617532528042
40
0.550462690193842
40
0.61215300552544
40
0.735533636188637
40
0.858914266851833
40
0.978439252806805
40
0.98229489751503
40
0.99000618693148
40
0.997717476347929
40
1
40
1
40
1
40
1
41
1
10
258.947780351505
20
-17.6391156986977
30
0
41
1
10
258.969066322924
20
-17.6298840375687
30
0
41
1
10
259.045452342669
20
-17.5908569673022
30
0
41
1
10
259.203912298433
20
-17.4396727527162
30
0
41
1
10
259.221436994428
20
-17.0558077288285
30
0
41
1
10
259.323300052746
20
-16.429834816851
30
0
41
1
10
259.482926719378
20
-15.1297341584787
30
0
41
1
10
259.734168104072
20
-13.293686571373
30
0
41
1
10
259.972399151118
20
-11.4505175035384
30
0
41
1
10
260.17321360623
20
-10.0012494972567
30
0
41
1
10
260.269990981289
20
-9.26380406876874
30
0
41
1
10
260.323738627895
20
-8.83841069713259
30
0
41
1
10
260.316425230222
20
-8.70308971751891
30
0
41
1
10
260.272451801708
20
-8.51503335103263
30
0
41
1
10
260.230451521235
20
-8.19771069705516
30
0
41
1
10
260.122295761824
20
-7.55414044478636
30
0
41
1
10
259.92126820983
20
-6.27037753544533
30
0
41
1
10
259.626933134504
20
-4.43553294367925
30
0
41
1
10
259.279492452613
20
-2.25694859413179
30
0
41
1
10
259.045802387018
20
-0.789411944966503
30
0
41
1
10
258.922305911491
20
0.0010159504099079
30
0
41
1
10
258.869790043797
20
0.147312869017696
30
0
41
1
10
258.766517969208
20
0.254101232001744
30
0
41
1
10
258.702497194493
20
0.289731249265515
30
0
41
1
10
258.687642719274
20
0.296783734265773
30
0
0
SPLINE
5
332
100
AcDbEntity
8
1
62
256
6
ByLayer
370
18
48
1
60
0
100
AcDbSpline
70
4
71
3
72
26
73
22
40
0
40
0
40
0
40
0
40
0.0032723101845208
40
0.0190044859185524
40
0.0504688373866157
40
0.113397540322742
40
0.239254946194995
40
0.365112352067249
40
0.428041055003375
40
0.487036714005994
40
0.490969757939502
40
0.498835845806518
40
0.506701933673533
40
0.522434109407565
40
0.553898460875628
40
0.616827163811755
40
0.742684569684008
40
0.868541975556261
40
0.990466337495006
40
0.994399381428514
40
1
40
1
40
1
40
1
41
1
10
258.990289116595
20
-17.4271096411683
30
0
41
1
10
259.002147650997
20
-17.4145406900874
30
0
41
1
10
259.063069185029
20
-17.3349083556185
30
0
41
1
10
259.077074434099
20
-17.028134117115
30
0
41
1
10
259.17981785629
20
-16.3967511581003
30
0
41
1
10
259.339223859704
20
-15.0984477207155
30
0
41
1
10
259.59052698438
20
-13.2619489438243
30
0
41
1
10
259.82877354246
20
-11.4186598687183
30
0
41
1
10
260.029607127533
20
-9.96925380245793
30
0
41
1
10
260.126272831554
20
-9.23265930938828
30
0
41
1
10
260.178363153966
20
-8.8203830651311
30
0
41
1
10
260.172424334603
20
-8.71049613024408
30
0
41
1
10
260.129720348682
20
-8.52786865046261
30
0
41
1
10
260.08712626142
20
-8.20605963725367
30
0
41
1
10
259.979251845852
20
-7.56416349395917
30
0
41
1
10
259.778141974508
20
-6.27987489285499
30
0
41
1
10
259.483838807002
20
-4.44522921007476
30
0
41
1
10
259.136385227811
20
-2.2665639895865
30
0
41
1
10
258.902659614202
20
-0.798804104515909
30
0
41
1
10
258.783288783989
20
-0.0347820245979733
30
0
41
1
10
258.766947898479
20
0.0167480584779582
30
0
41
1
10
258.753953386918
20
0.0446165667302125
30
0
0
SPLINE
5
333
100
AcDbEntity
8
1
62
256
6
ByLayer
370
13
48
1
60
0
100
AcDbSpline
70
4
71
1
72
4
73
2
40
0
40
0
40
1
40
1
41
1
10
209.531306996092
20
12.019067581837
30
0
41
1
10
209.474616925764
20
12.0417524713873
30
0
0
SPLINE
5
334
100
AcDbEntity
8
1
62
256
6
ByLayer
370
13
48
1
60
0
100
AcDbSpline
70
4
71
1
72
4
73
2
40
0
40
0
40
1
40
1
41
1
10
259.628979123819
20
7.80972673429798
30
0
41
1
10
259.773654116805
20
7.93929124713642
30
0
0
SPLINE
5
335
100
AcDbEntity
8
1
62
256
6
ByLayer
370
13
48
1
60
0
100
AcDbSpline
70
4
71
1
72
4
73
2
40
0
40
0
40
1
40
1
41
1
10
240.729221905496
20
6.94121484723519
30
0
41
1
10
240.886647533153
20
6.82748275704452
30
0
0
SPLINE
5
336
100
AcDbEntity
8
1
62
256
6
ByLayer
370
13
48
1
60
0
100
AcDbSpline
70
4
71
3
72
13
73
9
40
0
40
0
40
0
40
0
40
0.280004113510422
40
0.560047567687425
40
0.670051478707394
40
0.780002836340879
40
0.890040229054535
40
1
40
1
40
1
40
1
41
1
10
5.68819999999991
20
-31.25
30
0
41
1
10
8.52971281068733
20
-30.9010867445737
30
0
41
1
10
14.2001033760829
20
-30.1206876271613
30
0
41
1
10
20.9534208812951
20
-28.97383591134
30
0
41
1
10
25.9762399695807
20
-28.0317192506838
30
0
41
1
10
29.2756464717872
20
-27.3274231835903
30
0
41
1
10
32.6279946106315
20
-26.9066466046337
30
0
41
1
10
34.8731792610843
20
-26.8126634860314
30
0
41
1
10
36
20
-26.8124999999999
30
0
0
SPLINE
5
337
100
AcDbEntity
8
1
62
256
6
ByLayer
370
13
48
1
60
0
100
AcDbSpline
70
4
71
3
72
14
73
10
40
0
40
0
40
0
40
0
40
0.111958870143287
40
0.223990975294337
40
0.335943307946392
40
0.447947490665348
40
0.559964894459282
40
0.780002895838457
40
1
40
1
40
1
40
1
41
1
10
36.0000000000001
20
26.8124999999999
30
0
41
1
10
34.8525751304544
20
26.8126757039084
30
0
41
1
10
32.5666260193521
20
26.9095187020793
30
0
41
1
10
29.1546057760017
20
27.3483352322823
30
0
41
1
10
25.7960747659688
20
28.0686976843073
30
0
41
1
10
22.4199222394508
20
28.6969075843609
30
0
41
1
10
17.951314776696
20
29.4916776229378
30
0
41
1
10
12.3774957325071
20
30.3748793842767
30
0
41
1
10
7.92048597457969
20
30.9759023715954
30
0
41
1
10
5.68819999999999
20
31.25
30
0
0
LINE
5
7F
100
AcDbEntity
8
SK1
62
256
6
ByLayer
370
13
48
1
60
0
100
AcDbLine
10
-6.5
20
-10.670483
30
0
11
-6.5
21
10.670483
31
0
39
0
210
0
220
0
230
1
0
LINE
5
81
100
AcDbEntity
8
SK1
62
256
6
ByLayer
370
13
48
1
60
0
100
AcDbLine
10
-76.600002
20
10.670483
30
0
11
-6.5
21
10.670483
31
0
39
0
210
0
220
0
230
1
0
LINE
5
82
100
AcDbEntity
8
SK1
62
256
6
ByLayer
370
13
48
1
60
0
100
AcDbLine
10
-6.5
20
-10.670483
30
0
11
-76.600002
21
-10.670483
31
0
39
0
210
0
220
0
230
1
0
LINE
5
83
100
AcDbEntity
8
SK1
62
256
6
ByLayer
370
13
48
1
60
0
100
AcDbLine
10
-79
20
10.670483
30
0
11
-78.599999
21
10.670483
31
0
39
0
210
0
220
0
230
1
0
LINE
5
84
100
AcDbEntity
8
1
62
256
6
ByLayer
370
18
48
1
60
0
100
AcDbLine
10
259.08656
20
0.12903
30
0
11
260.493919
21
-8.69682
31
0
39
0
210
0
220
0
230
1
0
LINE
5
85
100
AcDbEntity
8
1
62
256
6
ByLayer
370
18
48
1
60
0
100
AcDbLine
10
260.496924
20
-8.924842
30
0
11
259.357672
21
-17.520023
31
0
39
0
210
0
220
0
230
1
0
LINE
5
86
100
AcDbEntity
8
1
62
256
6
ByLayer
370
18
48
1
60
0
100
AcDbLine
10
259.545811
20
-0.134012
30
0
11
259.444881
21
0.215599
31
0
39
0
210
0
220
0
230
1
0
LINE
5
87
100
AcDbEntity
8
1
62
256
6
ByLayer
370
18
48
1
60
0
100
AcDbLine
10
259.061525
20
0.237234
30
0
11
259.065418
21
0.22375
31
0
39
0
210
0
220
0
230
1
0
LINE
5
88
100
AcDbEntity
8
1
62
256
6
ByLayer
370
18
48
1
60
0
100
AcDbLine
10
259.107139
20
-17.808821
30
0
11
259.093563
21
-17.812688
31
0
39
0
210
0
220
0
230
1
0
LINE
5
89
100
AcDbEntity
8
1
62
256
6
ByLayer
370
18
48
1
60
0
100
AcDbLine
10
259.200063
20
-18.753388
30
0
11
259.552045
21
-18.653138
31
0
39
0
210
0
220
0
230
1
0
LINE
5
8A
100
AcDbEntity
8
1
62
256
6
ByLayer
370
13
48
1
60
0
100
AcDbLine
10
242.103864
20
6.747697
30
0
11
241.905081
21
6.739025
31
0
39
0
210
0
220
0
230
1
0
LINE
5
8B
100
AcDbEntity
8
1
62
256
6
ByLayer
370
13
48
1
60
0
100
AcDbLine
10
240.713758
20
7.328446
30
0
11
239.293501
21
16.322457
31
0
39
0
210
0
220
0
230
1
0
LINE
5
8C
100
AcDbEntity
8
1
62
256
6
ByLayer
370
13
48
1
60
0
100
AcDbLine
10
240.956484
20
26.30278
30
0
11
240.638995
21
26.301883
31
0
39
0
210
0
220
0
230
1
0
LINE
5
8D
100
AcDbEntity
8
1
62
256
6
ByLayer
370
13
48
1
60
0
100
AcDbLine
10
242.741532
20
8.09065
30
0
11
241.440772
21
16.327923
31
0
39
0
210
0
220
0
230
1
0
LINE
5
8E
100
AcDbEntity
8
1
62
256
6
ByLayer
370
13
48
1
60
0
100
AcDbLine
10
242.671582
20
24.709422
30
0
11
242.679756
21
24.771892
31
0
39
0
210
0
220
0
230
1
0
LINE
5
8F
100
AcDbEntity
8
1
62
256
6
ByLayer
370
13
48
1
60
0
100
AcDbLine
10
260.844502
20
17.597702
30
0
11
259.813965
21
9.721596
31
0
39
0
210
0
220
0
230
1
0
LINE
5
90
100
AcDbEntity
8
1
62
256
6
ByLayer
370
13
48
1
60
0
100
AcDbLine
10
258.752479
20
27.382958
30
0
11
258.74778
21
27.382712
31
0
39
0
210
0
220
0
230
1
0
LINE
5
91
100
AcDbEntity
8
1
62
256
6
ByLayer
370
13
48
1
60
0
100
AcDbLine
10
241.437536
20
16.571837
30
0
11
242.504132
21
24.72353
31
0
39
0
210
0
220
0
230
1
0
LINE
5
92
100
AcDbEntity
8
1
62
256
6
ByLayer
370
13
48
1
60
0
100
AcDbLine
10
242.911835
20
8.089645
30
0
11
242.863413
21
8.39628
31
0
39
0
210
0
220
0
230
1
0
LINE
5
93
100
AcDbEntity
8
1
62
256
6
ByLayer
370
13
48
1
60
0
100
AcDbLine
10
258.005735
20
27.442465
30
0
11
257.892401
21
27.418763
31
0
39
0
210
0
220
0
230
1
0
LINE
5
94
100
AcDbEntity
8
1
62
256
6
ByLayer
370
13
48
1
60
0
100
AcDbLine
10
241.604395
20
16.553209
30
0
11
242.671582
21
24.709422
31
0
39
0
210
0
220
0
230
1
0
LINE
5
95
100
AcDbEntity
8
1
62
256
6
ByLayer
370
13
48
1
60
0
100
AcDbLine
10
239.192127
20
16.536403
30
0
11
240.220617
21
24.396861
31
0
39
0
210
0
220
0
230
1
0
LINE
5
96
100
AcDbEntity
8
1
62
256
6
ByLayer
370
13
48
1
60
0
100
AcDbLine
10
258.350417
20
17.738436
30
0
11
257.094064
21
25.694494
31
0
39
0
210
0
220
0
230
1
0
LINE
5
97
100
AcDbEntity
8
1
62
256
6
ByLayer
370
13
48
1
60
0
100
AcDbLine
10
257.285134
20
9.438744
30
0
11
258.352321
21
17.594957
31
0
39
0
210
0
220
0
230
1
0
LINE
5
98
100
AcDbEntity
8
1
62
256
6
ByLayer
370
13
48
1
60
0
100
AcDbLine
10
257.929315
20
27.420697
30
0
11
258.185987
21
27.480161
31
0
39
0
210
0
220
0
230
1
0
LINE
5
99
100
AcDbEntity
8
1
62
256
6
ByLayer
370
13
48
1
60
0
100
AcDbLine
10
240.44882
20
26.522346
30
0
11
240.56401
21
26.51062
31
0
39
0
210
0
220
0
230
1
0
LINE
5
9A
100
AcDbEntity
8
1
62
256
6
ByLayer
370
13
48
1
60
0
100
AcDbLine
10
257.33552
20
9.096553
30
0
11
259.473748
21
9.455472
31
0
39
0
210
0
220
0
230
1
0
LINE
5
9B
100
AcDbEntity
8
1
62
256
6
ByLayer
370
13
48
1
60
0
100
AcDbLine
10
259.737305
20
7.928483
30
0
11
259.695374
21
8.37609
31
0
39
0
210
0
220
0
230
1
0
LINE
5
9C
100
AcDbEntity
8
1
62
256
6
ByLayer
370
13
48
1
60
0
100
AcDbLine
10
259.813965
20
9.721596
30
0
11
259.809266
21
9.72135
31
0
39
0
210
0
220
0
230
1
0
LINE
5
9D
100
AcDbEntity
8
1
62
256
6
ByLayer
370
13
48
1
60
0
100
AcDbLine
10
242.504132
20
24.72353
30
0
11
240.45064
21
24.378835
31
0
39
0
210
0
220
0
230
1
0
LINE
5
9E
100
AcDbEntity
8
1
62
256
6
ByLayer
370
13
48
1
60
0
100
AcDbLine
10
259.166921
20
8.287385
30
0
11
259.214142
21
8.295311
31
0
39
0
210
0
220
0
230
1
0
LINE
5
9F
100
AcDbEntity
8
1
62
256
6
ByLayer
370
13
48
1
60
0
100
AcDbLine
10
257.572462
20
27.223212
30
0
11
257.74731
21
27.232376
31
0
39
0
210
0
220
0
230
1
0
LINE
5
A0
100
AcDbEntity
8
1
62
256
6
ByLayer
370
13
48
1
60
0
100
AcDbLine
10
257.570745
20
9.237431
30
0
11
257.566046
21
9.237185
31
0
39
0
210
0
220
0
230
1
0
LINE
5
A1
100
AcDbEntity
8
1
62
256
6
ByLayer
370
13
48
1
60
0
100
AcDbLine
10
259.258691
20
8.494399
30
0
11
259.701699
21
9.493736
31
0
39
0
210
0
220
0
230
1
0
LINE
5
A2
100
AcDbEntity
8
1
62
256
6
ByLayer
370
13
48
1
60
0
100
AcDbLine
10
257.892401
20
27.418763
30
0
11
257.929315
21
27.420697
31
0
39
0
210
0
220
0
230
1
0
LINE
5
A3
100
AcDbEntity
8
1
62
256
6
ByLayer
370
13
48
1
60
0
100
AcDbLine
10
259.473748
20
9.455472
30
0
11
259.701699
21
9.493736
31
0
39
0
210
0
220
0
230
1
0
LINE
5
A4
100
AcDbEntity
8
1
62
256
6
ByLayer
370
13
48
1
60
0
100
AcDbLine
10
243.372452
20
24.970955
30
0
11
255.899342
21
25.627462
31
0
39
0
210
0
220
0
230
1
0
LINE
5
A5
100
AcDbEntity
8
1
62
256
6
ByLayer
370
13
48
1
60
0
100
AcDbLine
10
260.839803
20
17.597456
30
0
11
259.809266
21
9.72135
31
0
39
0
210
0
220
0
230
1
0
LINE
5
A6
100
AcDbEntity
8
1
62
256
6
ByLayer
370
13
48
1
60
0
100
AcDbLine
10
259.473748
20
9.455472
30
0
11
259.258691
21
8.494399
31
0
39
0
210
0
220
0
230
1
0
LINE
5
A7
100
AcDbEntity
8
1
62
256
6
ByLayer
370
13
48
1
60
0
100
AcDbLine
10
259.41688
20
26.792337
30
0
11
260.837138
21
17.798326
31
0
39
0
210
0
220
0
230
1
0
LINE
5
A8
100
AcDbEntity
8
1
62
256
6
ByLayer
370
13
48
1
60
0
100
AcDbLine
10
241.602361
20
16.352092
30
0
11
242.907136
21
8.089398
31
0
39
0
210
0
220
0
230
1
0
LINE
5
A9
100
AcDbEntity
8
1
62
256
6
ByLayer
370
13
48
1
60
0
100
AcDbLine
10
260.844502
20
17.597702
30
0
11
260.839803
21
17.597456
31
0
39
0
210
0
220
0
230
1
0
LINE
5
AA
100
AcDbEntity
8
1
62
256
6
ByLayer
370
13
48
1
60
0
100
AcDbLine
10
242.799817
20
25.024476
30
0
11
240.433638
21
24.627294
31
0
39
0
210
0
220
0
230
1
0
LINE
5
AB
100
AcDbEntity
8
1
62
256
6
ByLayer
370
13
48
1
60
0
100
AcDbLine
10
260.675549
20
17.774157
30
0
11
259.255291
21
26.768168
31
0
39
0
210
0
220
0
230
1
0
LINE
5
AC
100
AcDbEntity
8
1
62
256
6
ByLayer
370
13
48
1
60
0
100
AcDbLine
10
238.944309
20
17.209733
30
0
11
238.915427
21
16.653713
31
0
39
0
210
0
220
0
230
1
0
LINE
5
AD
100
AcDbEntity
8
1
62
256
6
ByLayer
370
13
48
1
60
0
100
AcDbLine
10
241.822512
20
16.384564
30
0
11
243.078865
21
8.428506
31
0
39
0
210
0
220
0
230
1
0
LINE
5
AE
100
AcDbEntity
8
1
62
256
6
ByLayer
370
13
48
1
60
0
100
AcDbLine
10
258.230257
20
27.382005
30
0
11
258.225558
21
27.381758
31
0
39
0
210
0
220
0
230
1
0
LINE
5
AF
100
AcDbEntity
8
1
62
256
6
ByLayer
370
13
48
1
60
0
100
AcDbLine
10
259.214142
20
8.295311
30
0
11
259.099152
21
7.781428
31
0
39
0
210
0
220
0
230
1
0
LINE
5
B0
100
AcDbEntity
8
1
62
256
6
ByLayer
370
13
48
1
60
0
100
AcDbLine
10
259.647106
20
9.740225
30
0
11
260.677643
21
17.61633
31
0
39
0
210
0
220
0
230
1
0
LINE
5
B1
100
AcDbEntity
8
1
62
256
6
ByLayer
370
13
48
1
60
0
100
AcDbLine
10
258.660209
20
17.547222
30
0
11
257.593614
21
9.395529
31
0
39
0
210
0
220
0
230
1
0
LINE
5
B2
100
AcDbEntity
8
1
62
256
6
ByLayer
370
13
48
1
60
0
100
AcDbLine
10
258.031474
20
27.373333
30
0
11
258.230257
21
27.382005
31
0
39
0
210
0
220
0
230
1
0
LINE
5
B3
100
AcDbEntity
8
1
62
256
6
ByLayer
370
13
48
1
60
0
100
AcDbLine
10
259.685885
20
9.593017
30
0
11
257.566046
21
9.237185
31
0
39
0
210
0
220
0
230
1
0
LINE
5
B4
100
AcDbEntity
8
1
62
256
6
ByLayer
370
13
48
1
60
0
100
AcDbLine
10
239.290836
20
16.523328
30
0
11
240.321373
21
24.399433
31
0
39
0
210
0
220
0
230
1
0
LINE
5
B5
100
AcDbEntity
8
1
62
256
6
ByLayer
370
13
48
1
60
0
100
AcDbLine
10
242.679756
20
24.771892
30
0
11
242.675057
21
24.771646
31
0
39
0
210
0
220
0
230
1
0
LINE
5
B6
100
AcDbEntity
8
1
62
256
6
ByLayer
370
13
48
1
60
0
100
AcDbLine
10
242.911835
20
8.089645
30
0
11
242.907136
21
8.089398
31
0
39
0
210
0
220
0
230
1
0
LINE
5
B7
100
AcDbEntity
8
1
62
256
6
ByLayer
370
13
48
1
60
0
100
AcDbLine
10
260.940165
20
17.814193
30
0
11
259.519907
21
26.808204
31
0
39
0
210
0
220
0
230
1
0
LINE
5
B8
100
AcDbEntity
8
1
62
256
6
ByLayer
370
13
48
1
60
0
100
AcDbLine
10
240.444754
20
24.527767
30
0
11
242.564593
21
24.883599
31
0
39
0
210
0
220
0
230
1
0
LINE
5
B9
100
AcDbEntity
8
1
62
256
6
ByLayer
370
13
48
1
60
0
100
AcDbLine
10
258.260223
20
27.383073
30
0
11
258.255524
21
27.382827
31
0
39
0
210
0
220
0
230
1
0
LINE
5
BA
100
AcDbEntity
8
1
62
256
6
ByLayer
370
13
48
1
60
0
100
AcDbLine
10
256.762885
20
9.150074
30
0
11
244.235996
21
8.493568
31
0
39
0
210
0
220
0
230
1
0
LINE
5
BB
100
AcDbEntity
8
1
62
256
6
ByLayer
370
13
48
1
60
0
100
AcDbLine
10
258.031474
20
27.373333
30
0
11
258.026775
21
27.373087
31
0
39
0
210
0
220
0
230
1
0
LINE
5
BC
100
AcDbEntity
8
1
62
256
6
ByLayer
370
13
48
1
60
0
100
AcDbLine
10
239.422197
20
16.344903
30
0
11
240.842455
21
7.350892
31
0
39
0
210
0
220
0
230
1
0
LINE
5
BD
100
AcDbEntity
8
1
62
256
6
ByLayer
370
13
48
1
60
0
100
AcDbLine
10
242.206022
20
6.700333
30
0
11
241.94935
21
6.640869
31
0
39
0
210
0
220
0
230
1
0
LINE
5
BE
100
AcDbEntity
8
1
62
256
6
ByLayer
370
13
48
1
60
0
100
AcDbLine
10
259.421579
20
26.792584
30
0
11
260.841837
21
17.798573
31
0
39
0
210
0
220
0
230
1
0
LINE
5
BF
100
AcDbEntity
8
1
62
256
6
ByLayer
370
13
48
1
60
0
100
AcDbLine
10
240.329357
20
25.800153
30
0
11
240.433638
21
24.627294
31
0
39
0
210
0
220
0
230
1
0
LINE
5
C0
100
AcDbEntity
8
1
62
256
6
ByLayer
370
13
48
1
60
0
100
AcDbLine
10
241.604395
20
16.553209
30
0
11
241.599696
21
16.552963
31
0
39
0
210
0
220
0
230
1
0
LINE
5
C1
100
AcDbEntity
8
1
62
256
6
ByLayer
370
13
48
1
60
0
100
AcDbLine
10
259.690584
20
9.593263
30
0
11
259.685885
21
9.593017
31
0
39
0
210
0
220
0
230
1
0
LINE
5
C2
100
AcDbEntity
8
1
62
256
6
ByLayer
370
13
48
1
60
0
100
AcDbLine
10
259.690584
20
9.593263
30
0
11
257.570745
21
9.237431
31
0
39
0
210
0
220
0
230
1
0
LINE
5
C3
100
AcDbEntity
8
1
62
256
6
ByLayer
370
13
48
1
60
0
100
AcDbLine
10
260.94321
20
17.584627
30
0
11
259.914721
21
9.724169
31
0
39
0
210
0
220
0
230
1
0
LINE
5
C4
100
AcDbEntity
8
1
62
256
6
ByLayer
370
13
48
1
60
0
100
AcDbLine
10
259.214142
20
8.295311
30
0
11
259.695374
21
8.37609
31
0
39
0
210
0
220
0
230
1
0
LINE
5
C5
100
AcDbEntity
8
1
62
256
6
ByLayer
370
13
48
1
60
0
100
AcDbLine
10
239.195172
20
16.306837
30
0
11
240.61543
21
7.312826
31
0
39
0
210
0
220
0
230
1
0
LINE
5
C6
100
AcDbEntity
8
1
62
256
6
ByLayer
370
13
48
1
60
0
100
AcDbLine
10
239.020842
20
15.749407
30
0
11
238.933998
21
16.299361
31
0
39
0
210
0
220
0
230
1
0
LINE
5
C7
100
AcDbEntity
8
1
62
256
6
ByLayer
370
13
48
1
60
0
100
AcDbLine
10
242.863413
20
8.39628
30
0
11
241.60706
21
16.352339
31
0
39
0
210
0
220
0
230
1
0
LINE
5
C8
100
AcDbEntity
8
1
62
256
6
ByLayer
370
13
48
1
60
0
100
AcDbLine
10
257.593614
20
9.395529
30
0
11
259.647106
21
9.740225
31
0
39
0
210
0
220
0
230
1
0
LINE
5
C9
100
AcDbEntity
8
1
62
256
6
ByLayer
370
13
48
1
60
0
100
AcDbLine
10
240.45064
20
24.378835
30
0
11
239.420103
21
16.502729
31
0
39
0
210
0
220
0
230
1
0
LINE
5
CA
100
AcDbEntity
8
1
62
256
6
ByLayer
370
13
48
1
60
0
100
AcDbLine
10
242.675057
20
24.771646
30
0
11
241.599696
21
16.552963
31
0
39
0
210
0
220
0
230
1
0
LINE
5
CB
100
AcDbEntity
8
1
62
256
6
ByLayer
370
13
48
1
60
0
100
AcDbLine
10
242.882923
20
8.00231
30
0
11
242.878224
21
8.002064
31
0
39
0
210
0
220
0
230
1
0
LINE
5
CC
100
AcDbEntity
8
1
62
256
6
ByLayer
370
13
48
1
60
0
100
AcDbLine
10
241.60706
20
16.352339
30
0
11
241.602361
21
16.352092
31
0
39
0
210
0
220
0
230
1
0
LINE
5
CD
100
AcDbEntity
8
1
62
256
6
ByLayer
370
13
48
1
60
0
100
AcDbLine
10
259.421579
20
26.792584
30
0
11
259.41688
21
26.792337
31
0
39
0
210
0
220
0
230
1
0
LINE
5
CE
100
AcDbEntity
8
1
62
256
6
ByLayer
370
13
48
1
60
0
100
AcDbLine
10
242.887796
20
24.684256
30
0
11
241.820609
21
16.528043
31
0
39
0
210
0
220
0
230
1
0
LINE
5
CF
100
AcDbEntity
8
1
62
256
6
ByLayer
370
13
48
1
60
0
100
AcDbLine
10
239.020842
20
15.749407
30
0
11
240.584704
21
7.311946
31
0
39
0
210
0
220
0
230
1
0
LINE
5
D0
100
AcDbEntity
8
1
62
256
6
ByLayer
370
13
48
1
60
0
100
AcDbLine
10
258.21801
20
27.231163
30
0
11
258.019227
21
27.222491
31
0
39
0
210
0
220
0
230
1
0
LINE
5
D1
100
AcDbEntity
8
1
62
256
6
ByLayer
370
13
48
1
60
0
100
AcDbLine
10
259.166921
20
8.287385
30
0
11
259.258691
21
8.494399
31
0
39
0
210
0
220
0
230
1
0
LINE
5
D2
100
AcDbEntity
8
1
62
256
6
ByLayer
370
13
48
1
60
0
100
AcDbLine
10
260.841837
20
17.798573
30
0
11
260.837138
21
17.798326
31
0
39
0
210
0
220
0
230
1
0
LINE
5
D3
100
AcDbEntity
8
1
62
256
6
ByLayer
370
13
48
1
60
0
100
AcDbLine
10
242.290396
20
6.908271
30
0
11
242.285697
21
6.908025
31
0
39
0
210
0
220
0
230
1
0
LINE
5
D4
100
AcDbEntity
8
1
62
256
6
ByLayer
370
13
48
1
60
0
100
AcDbLine
10
241.879736
20
6.887897
30
0
11
242.078519
21
6.896568
31
0
39
0
210
0
220
0
230
1
0
LINE
5
D5
100
AcDbEntity
8
1
62
256
6
ByLayer
370
13
48
1
60
0
100
AcDbLine
10
257.356214
20
26.02841
30
0
11
258.656974
21
17.791137
31
0
39
0
210
0
220
0
230
1
0
LINE
5
D6
100
AcDbEntity
8
SK1
62
256
6
ByLayer
370
13
48
1
60
0
100
AcDbLine
10
-78.599999
20
-10.670483
30
0
11
-79
21
-10.670483
31
0
39
0
210
0
220
0
230
1
0
LINE
5
D7
100
AcDbEntity
8
SK1
62
256
6
ByLayer
370
13
48
1
60
0
100
AcDbLine
10
-80
20
8.054018
30
0
11
-80
21
-8.054018
31
0
39
0
210
0
220
0
230
1
0
LINE
5
D8
100
AcDbEntity
8
1
62
256
6
ByLayer
370
13
48
1
60
0
100
AcDbLine
10
258.755733
20
-0.149979
30
0
11
259.993144
21
-7.910047
31
0
39
0
210
0
220
0
230
1
0
LINE
5
D9
100
AcDbEntity
8
1
62
256
6
ByLayer
370
13
48
1
60
0
100
AcDbLine
10
259.346229
20
6.797898
30
0
11
259.297283
21
7.630697
31
0
39
0
210
0
220
0
230
1
0
LINE
5
DA
100
AcDbEntity
8
1
62
256
6
ByLayer
370
13
48
1
60
0
100
AcDbLine
10
243.341632
20
8.21631
30
0
11
243.506227
21
8.224936
31
0
39
0
210
0
220
0
230
1
0
LINE
5
DB
100
AcDbEntity
8
1
62
256
6
ByLayer
370
13
48
1
60
0
100
AcDbLine
10
244.75296
20
8.320386
30
0
11
244.762358
21
8.320879
31
0
39
0
210
0
220
0
230
1
0
LINE
5
DC
100
AcDbEntity
8
1
62
256
6
ByLayer
370
13
48
1
60
0
100
AcDbLine
10
237.539169
20
-26.644374
30
0
11
237.539169
21
-0.366561
31
0
39
0
210
0
220
0
230
1
0
LINE
5
DD
100
AcDbEntity
8
1
62
256
6
ByLayer
370
13
48
1
60
0
100
AcDbLine
10
234.958353
20
8.23046
30
0
11
238.806542
21
7.047922
31
0
39
0
210
0
220
0
230
1
0
LINE
5
DE
100
AcDbEntity
8
1
62
256
6
ByLayer
370
13
48
1
60
0
100
AcDbLine
10
258.323467
20
-26.644374
30
0
11
259.338256
21
-18.988225
31
0
39
0
210
0
220
0
230
1
0
LINE
5
DF
100
AcDbEntity
8
1
62
256
6
ByLayer
370
13
48
1
60
0
100
AcDbLine
10
5.6882
20
-5.567764
30
0
11
0.1
21
-5.567764
31
0
39
0
210
0
220
0
230
1
0
LINE
5
E0
100
AcDbEntity
8
1
62
256
6
ByLayer
370
13
48
1
60
0
100
AcDbLine
10
259.338256
20
-18.988225
30
0
11
258.887952
21
-18.572344
31
0
39
0
210
0
220
0
230
1
0
LINE
5
E1
100
AcDbEntity
8
1
62
256
6
ByLayer
370
13
48
1
60
0
100
AcDbLine
10
258.323467
20
-26.644374
30
0
11
237.539169
21
-26.644374
31
0
39
0
210
0
220
0
230
1
0
LINE
5
E2
100
AcDbEntity
8
1
62
256
6
ByLayer
370
13
48
1
60
0
100
AcDbLine
10
259.589583
20
7.148599
30
0
11
259.419505
21
6.502492
31
0
39
0
210
0
220
0
230
1
0
LINE
5
E3
100
AcDbEntity
8
1
62
256
6
ByLayer
370
13
48
1
60
0
100
AcDbLine
10
257.803551
20
-5.514728
30
0
11
259.993144
21
-7.910047
31
0
39
0
210
0
220
0
230
1
0
LINE
5
E4
100
AcDbEntity
8
1
62
256
6
ByLayer
370
13
48
1
60
0
100
AcDbLine
10
259.272406
20
1.11138
30
0
11
259.599083
21
0.708901
31
0
39
0
210
0
220
0
230
1
0
LINE
5
E5
100
AcDbEntity
8
1
62
256
6
ByLayer
370
13
48
1
60
0
100
AcDbLine
10
240.212221
20
25.349888
30
0
11
240.143063
21
26.669497
31
0
39
0
210
0
220
0
230
1
0
LINE
5
E6
100
AcDbEntity
8
1
62
256
6
ByLayer
370
13
48
1
60
0
100
AcDbLine
10
260.015564
20
-9.611034
30
0
11
258.902411
21
-18.009305
31
0
39
0
210
0
220
0
230
1
0
LINE
5
E7
100
AcDbEntity
8
1
62
256
6
ByLayer
370
13
48
1
60
0
100
AcDbLine
10
245.123176
20
6.335905
30
0
11
245.723255
21
6.367354
31
0
39
0
210
0
220
0
230
1
0
LINE
5
E8
100
AcDbEntity
8
1
62
256
6
ByLayer
370
13
48
1
60
0
100
AcDbLine
10
235.544878
20
12.325381
30
0
11
235.544878
21
15.106538
31
0
39
0
210
0
220
0
230
1
0
LINE
5
E9
100
AcDbEntity
8
1
62
256
6
ByLayer
370
13
48
1
60
0
100
AcDbLine
10
234.539169
20
-26.371225
30
0
11
234.539169
21
0.059894
31
0
39
0
210
0
220
0
230
1
0
LINE
5
EA
100
AcDbEntity
8
1
62
256
6
ByLayer
370
13
48
1
60
0
100
AcDbLine
10
253.393439
20
8.945673
30
0
11
253.166982
21
8.933805
31
0
39
0
210
0
220
0
230
1
0
LINE
5
EB
100
AcDbEntity
8
1
62
256
6
ByLayer
370
13
48
1
60
0
100
AcDbLine
10
248.058454
20
7.992934
30
0
11
257.407741
21
8.482909
31
0
39
0
210
0
220
0
230
1
0
LINE
5
EC
100
AcDbEntity
8
1
62
256
6
ByLayer
370
13
48
1
60
0
100
AcDbLine
10
244.714645
20
8.230758
30
0
11
244.400657
21
8.214303
31
0
39
0
210
0
220
0
230
1
0
LINE
5
ED
100
AcDbEntity
8
1
62
256
6
ByLayer
370
13
48
1
60
0
100
AcDbLine
10
126
20
-10.575286
30
0
11
126
21
26.537309
31
0
39
0
210
0
220
0
230
1
0
LINE
5
EE
100
AcDbEntity
8
1
62
256
6
ByLayer
370
13
48
1
60
0
100
AcDbLine
10
253.552986
20
8.981851
30
0
11
256.535852
21
9.138176
31
0
39
0
210
0
220
0
230
1
0
LINE
5
EF
100
AcDbEntity
8
1
62
256
6
ByLayer
370
13
48
1
60
0
100
AcDbLine
10
258.755733
20
-0.149979
30
0
11
256.816858
21
1.971064
31
0
39
0
210
0
220
0
230
1
0
LINE
5
F0
100
AcDbEntity
8
1
62
256
6
ByLayer
370
13
48
1
60
0
100
AcDbLine
10
0
20
-4.975942
30
0
11
0
21
4.975942
31
0
39
0
210
0
220
0
230
1
0
LINE
5
F1
100
AcDbEntity
8
1
62
256
6
ByLayer
370
13
48
1
60
0
100
AcDbLine
10
236.987395
20
12.885774
30
0
11
235.544878
21
15.106538
31
0
39
0
210
0
220
0
230
1
0
LINE
5
F2
100
AcDbEntity
8
1
62
256
6
ByLayer
370
13
48
1
60
0
100
AcDbLine
10
257.505659
20
7.486669
30
0
11
258.791593
21
7.554062
31
0
39
0
210
0
220
0
230
1
0
LINE
5
F3
100
AcDbEntity
8
1
62
256
6
ByLayer
370
13
48
1
60
0
100
AcDbLine
10
245.102307
20
8.538969
30
0
11
248.085172
21
8.695295
31
0
39
0
210
0
220
0
230
1
0
LINE
5
F4
100
AcDbEntity
8
1
62
256
6
ByLayer
370
13
48
1
60
0
100
AcDbLine
10
235.997506
20
12.335107
30
0
11
236.987395
21
12.885774
31
0
39
0
210
0
220
0
230
1
0
LINE
5
F5
100
AcDbEntity
8
1
62
256
6
ByLayer
370
13
48
1
60
0
100
AcDbLine
10
239.586961
20
11.775568
30
0
11
238.835123
21
16.536702
31
0
39
0
210
0
220
0
230
1
0
LINE
5
F6
100
AcDbEntity
8
1
62
256
6
ByLayer
370
13
48
1
60
0
100
AcDbLine
10
0.1
20
5.567764
30
0
11
5.6882
21
5.567764
31
0
39
0
210
0
220
0
230
1
0
LINE
5
F7
100
AcDbEntity
8
1
62
256
6
ByLayer
370
13
48
1
60
0
100
AcDbLine
10
256.990988
20
8.961754
30
0
11
244.762358
21
8.320879
31
0
39
0
210
0
220
0
230
1
0
LINE
5
F8
100
AcDbEntity
8
1
62
256
6
ByLayer
370
13
48
1
60
0
100
AcDbLine
10
251.542168
20
7.174135
30
0
11
257.505659
21
7.486669
31
0
39
0
210
0
220
0
230
1
0
LINE
5
F9
100
AcDbEntity
8
1
62
256
6
ByLayer
370
13
48
1
60
0
100
AcDbLine
10
239.355252
20
18.800309
30
0
11
240.212221
21
25.349888
31
0
39
0
210
0
220
0
230
1
0
LINE
5
FA
100
AcDbEntity
8
1
62
256
6
ByLayer
370
13
48
1
60
0
100
AcDbLine
10
256.854387
20
2.725435
30
0
11
258.685107
21
0.722708
31
0
39
0
210
0
220
0
230
1
0
LINE
5
FB
100
AcDbEntity
8
1
62
256
6
ByLayer
370
13
48
1
60
0
100
AcDbLine
10
259.390559
20
7.528443
30
0
11
259.589583
21
7.148599
31
0
39
0
210
0
220
0
230
1
0
LINE
5
FC
100
AcDbEntity
8
1
62
256
6
ByLayer
370
13
48
1
60
0
100
AcDbLine
10
248.204769
20
6.99923
30
0
11
249.080971
21
7.045149
31
0
39
0
210
0
220
0
230
1
0
LINE
5
FD
100
AcDbEntity
8
1
62
256
6
ByLayer
370
13
48
1
60
0
100
AcDbLine
10
236.445423
20
8.77826
30
0
11
235.128351
21
8.631766
31
0
39
0
210
0
220
0
230
1
0
LINE
5
FE
100
AcDbEntity
8
1
62
256
6
ByLayer
370
13
48
1
60
0
100
AcDbLine
10
236.081386
20
1.770935
30
0
11
236.486558
21
-0.293507
31
0
39
0
210
0
220
0
230
1
0
LINE
5
FF
100
AcDbEntity
8
1
62
256
6
ByLayer
370
13
48
1
60
0
100
AcDbLine
10
257.505659
20
7.486669
30
0
11
256.854387
21
2.725435
31
0
39
0
210
0
220
0
230
1
0
LINE
5
100
100
AcDbEntity
8
1
62
256
6
ByLayer
370
13
48
1
60
0
100
AcDbLine
10
259.589583
20
7.148599
30
0
11
259.599083
21
0.708901
31
0
39
0
210
0
220
0
230
1
0
LINE
5
101
100
AcDbEntity
8
1
62
256
6
ByLayer
370
13
48
1
60
0
100
AcDbLine
10
234.539169
20
-26.371225
30
0
11
220.019874
21
-26.371225
31
0
39
0
210
0
220
0
230
1
0
LINE
5
102
100
AcDbEntity
8
1
62
256
6
ByLayer
370
13
48
1
60
0
100
AcDbLine
10
256.816858
20
1.971064
30
0
11
256.913646
21
-0.553521
31
0
39
0
210
0
220
0
230
1
0
LINE
5
103
100
AcDbEntity
8
1
62
256
6
ByLayer
370
13
48
1
60
0
100
AcDbLine
10
260.015564
20
-9.611034
30
0
11
257.893159
21
-7.289216
31
0
39
0
210
0
220
0
230
1
0
LINE
5
104
100
AcDbEntity
8
1
62
256
6
ByLayer
370
13
48
1
60
0
100
AcDbLine
10
240.210137
20
24.490578
30
0
11
239.498543
21
19.052062
31
0
39
0
210
0
220
0
230
1
0
LINE
5
105
100
AcDbEntity
8
1
62
256
6
ByLayer
370
13
48
1
60
0
100
AcDbLine
10
259.172658
20
0.617193
30
0
11
259.180466
21
0.607572
31
0
39
0
210
0
220
0
230
1
0
LINE
5
106
100
AcDbEntity
8
1
62
256
6
ByLayer
370
13
48
1
60
0
100
AcDbLine
10
231.897796
20
2.280708
30
0
11
232.149488
21
0.998281
31
0
39
0
210
0
220
0
230
1
0
LINE
5
107
100
AcDbEntity
8
1
62
256
6
ByLayer
370
18
48
1
60
0
100
AcDbLine
10
251.309456
20
17.512687
30
0
11
251.289549
21
17.512083
31
0
39
0
210
0
220
0
230
1
0
LINE
5
108
100
AcDbEntity
8
1
62
256
6
ByLayer
370
18
48
1
60
0
100
AcDbLine
10
249.441919
20
18.457989
30
0
11
249.430704
21
18.474526
31
0
39
0
210
0
220
0
230
1
0
LINE
5
109
100
AcDbEntity
8
1
62
256
6
ByLayer
370
18
48
1
60
0
100
AcDbLine
10
249.728644
20
15.612479
30
0
11
249.591423
21
15.605287
31
0
39
0
210
0
220
0
230
1
0
LINE
5
10A
100
AcDbEntity
8
1
62
256
6
ByLayer
370
18
48
1
60
0
100
AcDbLine
10
249.57914
20
18.465181
30
0
11
249.441919
21
18.457989
31
0
39
0
210
0
220
0
230
1
0
LINE
5
10B
100
AcDbEntity
8
1
62
256
6
ByLayer
370
18
48
1
60
0
100
AcDbLine
10
250.879733
20
18.14581
30
0
11
250.88838
21
18.163827
31
0
39
0
210
0
220
0
230
1
0
LINE
5
10C
100
AcDbEntity
8
1
62
256
6
ByLayer
370
18
48
1
60
0
100
AcDbLine
10
249.568967
20
18.481772
30
0
11
249.430704
21
18.474526
31
0
39
0
210
0
220
0
230
1
0
LINE
5
10D
100
AcDbEntity
8
1
62
256
6
ByLayer
370
18
48
1
60
0
100
AcDbLine
10
251.12595
20
16.073241
30
0
11
250.988729
21
16.066049
31
0
39
0
210
0
220
0
230
1
0
LINE
5
10E
100
AcDbEntity
8
1
62
256
6
ByLayer
370
18
48
1
60
0
100
AcDbLine
10
251.026642
20
18.171073
30
0
11
250.88838
21
18.163827
31
0
39
0
210
0
220
0
230
1
0
LINE
5
10F
100
AcDbEntity
8
1
62
256
6
ByLayer
370
18
48
1
60
0
100
AcDbLine
10
251.330057
20
16.739142
30
0
11
251.349918
21
16.740622
31
0
39
0
210
0
220
0
230
1
0
LINE
5
110
100
AcDbEntity
8
1
62
256
6
ByLayer
370
18
48
1
60
0
100
AcDbLine
10
251.016954
20
18.153001
30
0
11
250.879733
21
18.14581
31
0
39
0
210
0
220
0
230
1
0
LINE
5
111
100
AcDbEntity
8
1
62
256
6
ByLayer
370
18
48
1
60
0
100
AcDbLine
10
249.581998
20
15.587669
30
0
11
249.591423
21
15.605287
31
0
39
0
210
0
220
0
230
1
0
LINE
5
112
100
AcDbEntity
8
1
62
256
6
ByLayer
370
18
48
1
60
0
100
AcDbLine
10
249.720261
20
15.594915
30
0
11
249.581998
21
15.587669
31
0
39
0
210
0
220
0
230
1
0
LINE
5
113
100
AcDbEntity
8
1
62
256
6
ByLayer
370
18
48
1
60
0
100
AcDbLine
10
251.137474
20
16.05628
30
0
11
250.999211
21
16.049034
31
0
39
0
210
0
220
0
230
1
0
LINE
5
114
100
AcDbEntity
8
1
62
256
6
ByLayer
370
18
48
1
60
0
100
AcDbLine
10
251.42677
20
17.519275
30
0
11
251.289549
21
17.512083
31
0
39
0
210
0
220
0
230
1
0
LINE
5
115
100
AcDbEntity
8
1
62
256
6
ByLayer
370
18
48
1
60
0
100
AcDbLine
10
251.467278
20
16.746333
30
0
11
251.330057
21
16.739142
31
0
39
0
210
0
220
0
230
1
0
LINE
5
116
100
AcDbEntity
8
1
62
256
6
ByLayer
370
18
48
1
60
0
100
AcDbLine
10
250.999211
20
16.049034
30
0
11
250.988729
21
16.066049
31
0
39
0
210
0
220
0
230
1
0
LINE
5
117
100
AcDbEntity
8
1
62
256
6
ByLayer
370
18
48
1
60
0
100
AcDbLine
10
248.613293
20
16.597201
30
0
11
248.545058
21
16.593625
31
0
39
0
210
0
220
0
230
1
0
LINE
5
118
100
AcDbEntity
8
1
62
256
6
ByLayer
370
18
48
1
60
0
100
AcDbLine
10
248.57283
20
17.369267
30
0
11
248.505185
21
17.365721
31
0
39
0
210
0
220
0
230
1
0
LINE
5
119
100
AcDbEntity
8
1
62
256
6
ByLayer
370
13
48
1
60
0
100
AcDbLine
10
260.100915
20
11.147221
30
0
11
259.878628
21
8.323098
31
0
39
0
210
0
220
0
230
1
0
LINE
5
11A
100
AcDbEntity
8
1
62
256
6
ByLayer
370
13
48
1
60
0
100
AcDbLine
10
259.802917
20
9.443454
30
0
11
259.695374
21
8.37609
31
0
39
0
210
0
220
0
230
1
0
LINE
5
11B
100
AcDbEntity
8
1
62
256
6
ByLayer
370
13
48
1
60
0
100
AcDbLine
10
239.431691
20
12.758899
30
0
11
240.068417
21
10.097421
31
0
39
0
210
0
220
0
230
1
0
LINE
5
11C
100
AcDbEntity
8
1
62
256
6
ByLayer
370
13
48
1
60
0
100
AcDbLine
10
238.944309
20
17.209733
30
0
11
238.954454
21
17.999775
31
0
39
0
210
0
220
0
230
1
0
LINE
5
11D
100
AcDbEntity
8
1
62
256
6
ByLayer
370
13
48
1
60
0
100
AcDbLine
10
238.944309
20
17.209733
30
0
11
239.049055
21
18.249333
31
0
39
0
210
0
220
0
230
1
0
LINE
5
11E
100
AcDbEntity
8
1
62
256
6
ByLayer
370
13
48
1
60
0
100
AcDbLine
10
258.027436
20
27.373116
30
0
11
258.225558
21
27.381758
31
0
39
0
210
0
220
0
230
1
0
LINE
5
11F
100
AcDbEntity
8
1
62
256
6
ByLayer
370
13
48
1
60
0
100
AcDbLine
10
240.329357
20
25.800153
30
0
11
240.189845
21
25.776735
31
0
39
0
210
0
220
0
230
1
0
LINE
5
120
100
AcDbEntity
8
1
62
256
6
ByLayer
370
13
48
1
60
0
100
AcDbLine
10
240.220617
20
24.396861
30
0
11
240.166768
21
25.002496
31
0
39
0
210
0
220
0
230
1
0
LINE
5
121
100
AcDbEntity
8
1
62
256
6
ByLayer
370
13
48
1
60
0
100
AcDbLine
10
239.197857
20
18.550049
30
0
11
238.931178
21
16.511897
31
0
39
0
210
0
220
0
230
1
0
LINE
5
122
100
AcDbEntity
8
1
62
256
6
ByLayer
370
13
48
1
60
0
100
AcDbLine
10
257.223503
20
26.031385
30
0
11
257.269033
21
25.743061
31
0
39
0
210
0
220
0
230
1
0
LINE
5
123
100
AcDbEntity
8
1
62
256
6
ByLayer
370
13
48
1
60
0
100
AcDbLine
10
257.461395
20
9.39357
30
0
11
257.455581
21
9.349137
31
0
39
0
210
0
220
0
230
1
0
LINE
5
124
100
AcDbEntity
8
1
62
256
6
ByLayer
370
13
48
1
60
0
100
AcDbLine
10
243.33997
20
8.225831
30
0
11
243.341632
21
8.21631
31
0
39
0
210
0
220
0
230
1
0
LINE
5
125
100
AcDbEntity
8
1
62
256
6
ByLayer
370
13
48
1
60
0
100
AcDbLine
10
259.390559
20
7.528443
30
0
11
259.303557
21
7.523884
31
0
39
0
210
0
220
0
230
1
0
LINE
5
126
100
AcDbEntity
8
1
62
256
6
ByLayer
370
13
48
1
60
0
100
AcDbLine
10
259.419505
20
6.502492
30
0
11
259.383674
21
6.500614
31
0
39
0
210
0
220
0
230
1
0
LINE
5
127
100
AcDbEntity
8
1
62
256
6
ByLayer
370
13
48
1
60
0
100
AcDbLine
10
244.394886
20
8.201076
30
0
11
243.86302
21
8.173202
31
0
39
0
210
0
220
0
230
1
0
LINE
5
128
100
AcDbEntity
8
1
62
256
6
ByLayer
370
13
48
1
60
0
100
AcDbLine
10
259.599083
20
0.708901
30
0
11
259.131127
21
0.503579
31
0
39
0
210
0
220
0
230
1
0
LINE
5
129
100
AcDbEntity
8
1
62
256
6
ByLayer
370
13
48
1
60
0
100
AcDbLine
10
259.272406
20
1.11138
30
0
11
259.248598
21
1.114493
31
0
39
0
210
0
220
0
230
1
0
LINE
5
12A
100
AcDbEntity
8
1
62
256
6
ByLayer
370
13
48
1
60
0
100
AcDbLine
10
41
20
-26.713499
30
0
11
41
21
-26.8125
31
0
39
0
210
0
220
0
230
1
0
LINE
5
12B
100
AcDbEntity
8
1
62
256
6
ByLayer
370
13
48
1
60
0
100
AcDbLine
10
237.539169
20
26.8125
30
0
11
237.539169
21
26.642848
31
0
39
0
210
0
220
0
230
1
0
LINE
5
12C
100
AcDbEntity
8
1
62
256
6
ByLayer
370
13
48
1
60
0
100
AcDbLine
10
259.172658
20
0.617193
30
0
11
259.160675
21
0.61876
31
0
39
0
210
0
220
0
230
1
0
LINE
5
12D
100
AcDbEntity
8
1
62
256
6
ByLayer
370
13
48
1
60
0
100
AcDbLine
10
259.180466
20
0.607572
30
0
11
259.155687
21
0.610813
31
0
39
0
210
0
220
0
230
1
0
LINE
5
12E
100
AcDbEntity
8
1
62
256
6
ByLayer
370
13
48
1
60
0
100
AcDbLine
10
126
20
-26.507934
30
0
11
126
21
-26.5375
31
0
39
0
210
0
220
0
230
1
0
LINE
5
12F
100
AcDbEntity
8
1
62
256
6
ByLayer
370
13
48
1
60
0
100
AcDbLine
10
234.539169
20
26.5375
30
0
11
234.539169
21
26.331998
31
0
39
0
210
0
220
0
230
1
0
LINE
5
130
100
AcDbEntity
8
SK1
62
256
6
ByLayer
370
13
48
1
60
0
100
AcDbLine
10
-77.633813
20
24.639667
30
0
11
-77.633813
21
9.806751
31
0
39
0
210
0
220
0
230
1
0
LINE
5
131
100
AcDbEntity
8
SK1
62
256
6
ByLayer
370
13
48
1
60
0
100
AcDbLine
10
-77.633813
20
-9.806751
30
0
11
-77.633813
21
-24.639667
31
0
39
0
210
0
220
0
230
1
0
LINE
5
132
100
AcDbEntity
8
SK1
62
256
6
ByLayer
370
13
48
1
60
0
100
AcDbLine
10
-78.516222
20
24.892544
30
0
11
-78.516222
21
10.425829
31
0
39
0
210
0
220
0
230
1
0
LINE
5
133
100
AcDbEntity
8
SK1
62
256
6
ByLayer
370
13
48
1
60
0
100
AcDbLine
10
-78.516222
20
-10.425829
30
0
11
-78.516222
21
-24.892544
31
0
39
0
210
0
220
0
230
1
0
LINE
5
134
100
AcDbEntity
8
SK1
62
256
6
ByLayer
370
13
48
1
60
0
100
AcDbLine
10
-78.599999
20
-24.996
30
0
11
-78.599999
21
-10.670483
31
0
39
0
210
0
220
0
230
1
0
LINE
5
135
100
AcDbEntity
8
SK1
62
256
6
ByLayer
370
13
48
1
60
0
100
AcDbLine
10
-78.599999
20
10.670483
30
0
11
-78.599999
21
24.996
31
0
39
0
210
0
220
0
230
1
0
LINE
5
136
100
AcDbEntity
8
SK1
62
256
6
ByLayer
370
13
48
1
60
0
100
AcDbLine
10
-80
20
-23.996
30
0
11
-80
21
-8.054018
31
0
39
0
210
0
220
0
230
1
0
LINE
5
137
100
AcDbEntity
8
SK1
62
256
6
ByLayer
370
13
48
1
60
0
100
AcDbLine
10
-80
20
8.054018
30
0
11
-80
21
23.996
31
0
39
0
210
0
220
0
230
1
0
LINE
5
138
100
AcDbEntity
8
SK1
62
256
6
ByLayer
370
13
48
1
60
0
100
AcDbLine
10
-79
20
-24.996
30
0
11
-79
21
-10.670483
31
0
39
0
210
0
220
0
230
1
0
LINE
5
139
100
AcDbEntity
8
SK1
62
256
6
ByLayer
370
13
48
1
60
0
100
AcDbLine
10
-79
20
10.670483
30
0
11
-79
21
24.996
31
0
39
0
210
0
220
0
230
1
0
LINE
5
13A
100
AcDbEntity
8
SK1
62
256
6
ByLayer
370
13
48
1
60
0
100
AcDbLine
10
-1.375195
20
-24.746
30
0
11
-1.375195
21
24.746
31
0
39
0
210
0
220
0
230
1
0
LINE
5
13B
100
AcDbEntity
8
SK1
62
256
6
ByLayer
370
13
48
1
60
0
100
AcDbLine
10
-1.544243
20
-24.783477
30
0
11
-1.544243
21
24.783477
31
0
39
0
210
0
220
0
230
1
0
LINE
5
13C
100
AcDbEntity
8
SK1
62
256
6
ByLayer
370
13
48
1
60
0
100
AcDbLine
10
-2
20
-24.996
30
0
11
-2
21
24.996
31
0
39
0
210
0
220
0
230
1
0
LINE
5
13D
100
AcDbEntity
8
SK1
62
256
6
ByLayer
370
13
48
1
60
0
100
AcDbLine
10
-76.600002
20
24.996
30
0
11
-76.600002
21
10.670483
31
0
39
0
210
0
220
0
230
1
0
LINE
5
13E
100
AcDbEntity
8
SK1
62
256
6
ByLayer
370
13
48
1
60
0
100
AcDbLine
10
-76.600002
20
-10.670483
30
0
11
-76.600002
21
-24.996
31
0
39
0
210
0
220
0
230
1
0
LINE
5
13F
100
AcDbEntity
8
SK1
62
256
6
ByLayer
370
13
48
1
60
0
100
AcDbLine
10
-0.15
20
-24.746
30
0
11
-0.15
21
24.746
31
0
39
0
210
0
220
0
230
1
0
LINE
5
140
100
AcDbEntity
8
1
62
256
6
ByLayer
370
13
48
1
60
0
100
AcDbLine
10
41
20
26.8125
30
0
11
41
21
-9.581115
31
0
39
0
210
0
220
0
230
1
0
LINE
5
141
100
AcDbEntity
8
1
62
256
6
ByLayer
370
13
48
1
60
0
100
AcDbLine
10
0
20
31.15
30
0
11
0
21
4.975942
31
0
39
0
210
0
220
0
230
1
0
LINE
5
142
100
AcDbEntity
8
1
62
256
6
ByLayer
370
13
48
1
60
0
100
AcDbLine
10
0
20
-31.15
30
0
11
0
21
-4.975942
31
0
39
0
210
0
220
0
230
1
0
LINE
5
143
100
AcDbEntity
8
1
62
256
6
ByLayer
370
13
48
1
60
0
100
AcDbLine
10
0.1
20
-31.25
30
0
11
0.1
21
-5.567764
31
0
39
0
210
0
220
0
230
1
0
LINE
5
144
100
AcDbEntity
8
1
62
256
6
ByLayer
370
13
48
1
60
0
100
AcDbLine
10
0.1
20
31.25
30
0
11
0.1
21
5.567764
31
0
39
0
210
0
220
0
230
1
0
LINE
5
145
100
AcDbEntity
8
1
62
256
6
ByLayer
370
13
48
1
60
0
100
AcDbLine
10
5.6882
20
31.25
30
0
11
5.6882
21
5.567764
31
0
39
0
210
0
220
0
230
1
0
LINE
5
146
100
AcDbEntity
8
1
62
256
6
ByLayer
370
13
48
1
60
0
100
AcDbLine
10
5.6882
20
-5.567764
30
0
11
5.6882
21
-31.25
31
0
39
0
210
0
220
0
230
1
0
LINE
5
147
100
AcDbEntity
8
1
62
256
6
ByLayer
370
13
48
1
60
0
100
AcDbLine
10
36
20
26.8125
30
0
11
36
21
-9.578352
31
0
39
0
210
0
220
0
230
1
0
LINE
5
148
100
AcDbEntity
8
1
62
256
6
ByLayer
370
13
48
1
60
0
100
AcDbLine
10
36
20
-26.713287
30
0
11
36
21
-26.8125
31
0
39
0
210
0
220
0
230
1
0
LINE
5
149
100
AcDbEntity
8
1
62
256
6
ByLayer
370
18
48
1
60
0
100
AcDbLine
10
258.998201
20
-17.833687
30
0
11
258.92406
21
-17.84535
31
0
39
0
210
0
220
0
230
1
0
LINE
5
14A
100
AcDbEntity
8
1
62
256
6
ByLayer
370
18
48
1
60
0
100
AcDbLine
10
258.68883
20
0.496794
30
0
11
258.770768
21
0.486079
31
0
39
0
210
0
220
0
230
1
0
LINE
5
14B
100
AcDbEntity
8
4
62
256
6
ByLayer
370
18
48
0.05
60
0
100
AcDbLine
10
261
20
0
30
0
11
0
21
0
31
0
39
0
210
0
220
0
230
1
0
LINE
5
14D
100
AcDbEntity
8
SK4
62
256
6
ByLayer
370
13
48
0.05
60
0
100
AcDbLine
10
261
20
0
30
0
11
-80
21
0
31
0
39
0
210
0
220
0
230
1
0
LINE
5
14F
100
AcDbEntity
8
SK1
62
256
6
ByLayer
370
13
48
1
60
0
100
AcDbLine
10
-77.633813
20
-24.639667
30
0
11
-76.600002
21
-24.996
31
0
39
0
210
0
220
0
230
1
0
LINE
5
150
100
AcDbEntity
8
SK1
62
256
6
ByLayer
370
13
48
1
60
0
100
AcDbLine
10
-76.600002
20
24.996
30
0
11
-77.633813
21
24.639667
31
0
39
0
210
0
220
0
230
1
0
LINE
5
151
100
AcDbEntity
8
SK1
62
256
6
ByLayer
370
13
48
1
60
0
100
AcDbLine
10
-78.599999
20
24.996
30
0
11
-79
21
24.996
31
0
39
0
210
0
220
0
230
1
0
LINE
5
152
100
AcDbEntity
8
SK1
62
256
6
ByLayer
370
13
48
1
60
0
100
AcDbLine
10
-79
20
-24.996
30
0
11
-78.599999
21
-24.996
31
0
39
0
210
0
220
0
230
1
0
LINE
5
153
100
AcDbEntity
8
SK1
62
256
6
ByLayer
370
13
48
1
60
0
100
AcDbLine
10
-78.516222
20
24.892544
30
0
11
-78.599999
21
24.996
31
0
39
0
210
0
220
0
230
1
0
LINE
5
154
100
AcDbEntity
8
SK1
62
256
6
ByLayer
370
13
48
1
60
0
100
AcDbLine
10
-78.599999
20
-24.996
30
0
11
-78.516222
21
-24.892544
31
0
39
0
210
0
220
0
230
1
0
LINE
5
155
100
AcDbEntity
8
SK1
62
256
6
ByLayer
370
13
48
1
60
0
100
AcDbLine
10
-80
20
-23.996
30
0
11
-79
21
-24.996
31
0
39
0
210
0
220
0
230
1
0
LINE
5
156
100
AcDbEntity
8
SK1
62
256
6
ByLayer
370
13
48
1
60
0
100
AcDbLine
10
-79
20
24.996
30
0
11
-80
21
23.996
31
0
39
0
210
0
220
0
230
1
0
LINE
5
157
100
AcDbEntity
8
SK1
62
256
6
ByLayer
370
13
48
1
60
0
100
AcDbLine
10
-0.15
20
24.746
30
0
11
-1.375195
21
24.746
31
0
39
0
210
0
220
0
230
1
0
LINE
5
158
100
AcDbEntity
8
SK1
62
256
6
ByLayer
370
13
48
1
60
0
100
AcDbLine
10
-1.375195
20
-24.746
30
0
11
-0.15
21
-24.746
31
0
39
0
210
0
220
0
230
1
0
LINE
5
159
100
AcDbEntity
8
SK1
62
256
6
ByLayer
370
13
48
1
60
0
100
AcDbLine
10
-1.544243
20
24.783477
30
0
11
-2
21
24.996
31
0
39
0
210
0
220
0
230
1
0
LINE
5
15A
100
AcDbEntity
8
SK1
62
256
6
ByLayer
370
13
48
1
60
0
100
AcDbLine
10
-2
20
-24.996
30
0
11
-1.544243
21
-24.783477
31
0
39
0
210
0
220
0
230
1
0
LINE
5
15B
100
AcDbEntity
8
SK1
62
256
6
ByLayer
370
13
48
1
60
0
100
AcDbLine
10
-2
20
24.996
30
0
11
-76.600002
21
24.996
31
0
39
0
210
0
220
0
230
1
0
LINE
5
15C
100
AcDbEntity
8
SK1
62
256
6
ByLayer
370
13
48
1
60
0
100
AcDbLine
10
-76.600002
20
-24.996
30
0
11
-2
21
-24.996
31
0
39
0
210
0
220
0
230
1
0
LINE
5
15D
100
AcDbEntity
8
1
62
256
6
ByLayer
370
18
48
1
60
0
100
AcDbLine
10
249.824714
20
18.339853
30
0
11
249.951782
21
18.346512
31
0
39
0
210
0
220
0
230
1
0
LINE
5
15E
100
AcDbEntity
8
1
62
256
6
ByLayer
370
18
48
1
60
0
100
AcDbLine
10
250.08684
20
15.769449
30
0
11
249.959772
21
15.76279
31
0
39
0
210
0
220
0
230
1
0
LINE
5
15F
100
AcDbEntity
8
1
62
256
6
ByLayer
370
18
48
1
60
0
100
AcDbLine
10
250.114234
20
14.209044
30
0
11
250.181975
21
14.212594
31
0
39
0
210
0
220
0
230
1
0
LINE
5
160
100
AcDbEntity
8
1
62
256
6
ByLayer
370
18
48
1
60
0
100
AcDbLine
10
249.88366
20
19.904783
30
0
11
249.815919
21
19.901232
31
0
39
0
210
0
220
0
230
1
0
LINE
5
161
100
AcDbEntity
8
1
62
256
6
ByLayer
370
13
48
1
60
0
100
AcDbLine
10
259.358182
20
8.440215
30
0
11
259.89296
21
9.646566
31
0
39
0
210
0
220
0
230
1
0
LINE
5
162
100
AcDbEntity
8
1
62
256
6
ByLayer
370
13
48
1
60
0
100
AcDbLine
10
258.529174
20
17.768646
30
0
11
257.27282
21
25.724704
31
0
39
0
210
0
220
0
230
1
0
LINE
5
163
100
AcDbEntity
8
1
62
256
6
ByLayer
370
13
48
1
60
0
100
AcDbLine
10
257.464647
20
9.411811
30
0
11
258.531834
21
17.568024
31
0
39
0
210
0
220
0
230
1
0
LINE
5
164
100
AcDbEntity
8
1
62
256
6
ByLayer
370
13
48
1
60
0
100
AcDbLine
10
36
20
-26.8125
30
0
11
41
21
-26.8125
31
0
39
0
210
0
220
0
230
1
0
LINE
5
165
100
AcDbEntity
8
1
62
256
6
ByLayer
370
13
48
1
60
0
100
AcDbLine
10
41
20
-26.8125
30
0
11
126
21
-26.5375
31
0
39
0
210
0
220
0
230
1
0
LINE
5
166
100
AcDbEntity
8
1
62
256
6
ByLayer
370
13
48
1
60
0
100
AcDbLine
10
239.873792
20
26.8125
30
0
11
237.539169
21
26.8125
31
0
39
0
210
0
220
0
230
1
0
LINE
5
167
100
AcDbEntity
8
1
62
256
6
ByLayer
370
13
48
1
60
0
100
AcDbLine
10
237.539169
20
26.8125
30
0
11
234.539169
21
26.5375
31
0
39
0
210
0
220
0
230
1
0
LINE
5
168
100
AcDbEntity
8
1
62
256
6
ByLayer
370
13
48
1
60
0
100
AcDbLine
10
126
20
-26.5375
30
0
11
134.19995
21
-26.5375
31
0
39
0
210
0
220
0
230
1
0
LINE
5
169
100
AcDbEntity
8
1
62
256
6
ByLayer
370
13
48
1
60
0
100
AcDbLine
10
234.539169
20
26.5375
30
0
11
219.482271
21
26.5375
31
0
39
0
210
0
220
0
230
1
0
LINE
5
16A
100
AcDbEntity
8
1
62
256
6
ByLayer
370
13
48
1
60
0
100
AcDbLine
10
41
20
26.8125
30
0
11
36
21
26.8125
31
0
39
0
210
0
220
0
230
1
0
LINE
5
16B
100
AcDbEntity
8
1
62
256
6
ByLayer
370
13
48
1
60
0
100
AcDbLine
10
124.977242
20
26.540809
30
0
11
41
21
26.8125
31
0
39
0
210
0
220
0
230
1
0
LINE
5
16C
100
AcDbEntity
8
1
62
256
6
ByLayer
370
13
48
1
60
0
100
AcDbLine
10
0.1
20
31.25
30
0
11
0
21
31.15
31
0
39
0
210
0
220
0
230
1
0
LINE
5
16D
100
AcDbEntity
8
1
62
256
6
ByLayer
370
13
48
1
60
0
100
AcDbLine
10
0.1
20
-31.25
30
0
11
5.6882
21
-31.25
31
0
39
0
210
0
220
0
230
1
0
LINE
5
16E
100
AcDbEntity
8
1
62
256
6
ByLayer
370
13
48
1
60
0
100
AcDbLine
10
0
20
-31.15
30
0
11
0.1
21
-31.25
31
0
39
0
210
0
220
0
230
1
0
LINE
5
16F
100
AcDbEntity
8
1
62
256
6
ByLayer
370
13
48
1
60
0
100
AcDbLine
10
5.6882
20
31.25
30
0
11
0.1
21
31.25
31
0
39
0
210
0
220
0
230
1
0
LINE
5
170
100
AcDbEntity
8
81
62
256
6
ByLayer
370
18
48
1
60
0
100
AcDbLine
10
261
20
0
30
0
11
268
21
0
31
0
39
0
210
0
220
0
230
1
0
LINE
5
171
100
AcDbEntity
8
80
62
256
6
ByLayer
370
18
48
1
60
0
100
AcDbLine
10
0
20
0
30
0
11
-7
21
0
31
0
39
0
210
0
220
0
230
1
0
LINE
5
172
100
AcDbEntity
8
SK2
62
256
6
ByLayer
370
13
48
1
60
0
100
AcDbLine
10
-100.725
20
25
30
0
11
-100.725
21
-25
31
0
39
0
210
0
220
0
230
1
0
LINE
5
174
100
AcDbEntity
8
SK2
62
256
6
ByLayer
370
13
48
1
60
0
100
AcDbLine
10
-81.5875
20
-25
30
0
11
-103.9
21
-25
31
0
39
0
210
0
220
0
230
1
0
LINE
5
175
100
AcDbEntity
8
SK2
62
256
6
ByLayer
370
13
48
1
60
0
100
AcDbLine
10
-81.5875
20
25
30
0
11
-103.9
21
25
31
0
39
0
210
0
220
0
230
1
0
LINE
5
176
100
AcDbEntity
8
1
62
256
6
ByLayer
370
18
48
1
60
1
100
AcDbLine
10
-100.725
20
-25
30
0
11
-101.650575
21
-20.825003
31
0
39
0
210
0
220
0
230
1
0
LINE
5
177
100
AcDbEntity
8
1
62
256
6
ByLayer
370
18
48
1
60
1
100
AcDbLine
10
-101.650575
20
-20.825003
30
0
11
-99.799425
21
-20.824997
31
0
39
0
210
0
220
0
230
1
0
LINE
5
178
100
AcDbEntity
8
1
62
256
6
ByLayer
370
18
48
1
60
1
100
AcDbLine
10
-99.799425
20
-20.824997
30
0
11
-100.725
21
-25
31
0
39
0
210
0
220
0
230
1
0
LINE
5
179
100
AcDbEntity
8
1
62
256
6
ByLayer
370
18
48
1
60
1
100
AcDbLine
10
-100.725
20
25
30
0
11
-99.799425
21
20.825003
31
0
39
0
210
0
220
0
230
1
0
LINE
5
17A
100
AcDbEntity
8
1
62
256
6
ByLayer
370
18
48
1
60
1
100
AcDbLine
10
-99.799425
20
20.825003
30
0
11
-101.650575
21
20.824997
31
0
39
0
210
0
220
0
230
1
0
LINE
5
17B
100
AcDbEntity
8
1
62
256
6
ByLayer
370
18
48
1
60
1
100
AcDbLine
10
-101.650575
20
20.824997
30
0
11
-100.725
21
25
31
0
39
0
210
0
220
0
230
1
0
LINE
5
17C
100
AcDbEntity
8
SK2
62
256
6
ByLayer
370
13
48
1
60
0
100
AcDbLine
10
-110.725
20
-31.25
30
0
11
-110.725
21
31.25
31
0
39
0
210
0
220
0
230
1
0
LINE
5
17D
100
AcDbEntity
8
SK2
62
256
6
ByLayer
370
13
48
1
60
0
100
AcDbLine
10
-1.5875
20
31.25
30
0
11
-113.9
21
31.25
31
0
39
0
210
0
220
0
230
1
0
LINE
5
17E
100
AcDbEntity
8
SK2
62
256
6
ByLayer
370
13
48
1
60
0
100
AcDbLine
10
-1.5875
20
-31.25
30
0
11
-113.9
21
-31.25
31
0
39
0
210
0
220
0
230
1
0
LINE
5
17F
100
AcDbEntity
8
1
62
256
6
ByLayer
370
18
48
1
60
1
100
AcDbLine
10
-110.725
20
31.25
30
0
11
-109.799425
21
27.075003
31
0
39
0
210
0
220
0
230
1
0
LINE
5
180
100
AcDbEntity
8
1
62
256
6
ByLayer
370
18
48
1
60
1
100
AcDbLine
10
-109.799425
20
27.075003
30
0
11
-111.650575
21
27.074997
31
0
39
0
210
0
220
0
230
1
0
LINE
5
181
100
AcDbEntity
8
1
62
256
6
ByLayer
370
18
48
1
60
1
100
AcDbLine
10
-111.650575
20
27.074997
30
0
11
-110.725
21
31.25
31
0
39
0
210
0
220
0
230
1
0
LINE
5
182
100
AcDbEntity
8
1
62
256
6
ByLayer
370
18
48
1
60
1
100
AcDbLine
10
-110.725
20
-31.25
30
0
11
-111.650575
21
-27.075003
31
0
39
0
210
0
220
0
230
1
0
LINE
5
183
100
AcDbEntity
8
1
62
256
6
ByLayer
370
18
48
1
60
1
100
AcDbLine
10
-111.650575
20
-27.075003
30
0
11
-109.799425
21
-27.074997
31
0
39
0
210
0
220
0
230
1
0
LINE
5
184
100
AcDbEntity
8
1
62
256
6
ByLayer
370
18
48
1
60
1
100
AcDbLine
10
-109.799425
20
-27.074997
30
0
11
-110.725
21
-31.25
31
0
39
0
210
0
220
0
230
1
0
LINE
5
185
100
AcDbEntity
8
2
62
256
6
ByLayer
370
13
48
1
60
0
100
AcDbLine
10
287.975
20
27.5
30
0
11
287.975
21
-27.5
31
0
39
0
210
0
220
0
230
1
0
LINE
5
187
100
AcDbEntity
8
2
62
256
6
ByLayer
370
13
48
1
60
0
100
AcDbLine
10
262.5875
20
-27.5
30
0
11
291.15
21
-27.5
31
0
39
0
210
0
220
0
230
1
0
LINE
5
188
100
AcDbEntity
8
2
62
256
6
ByLayer
370
13
48
1
60
0
100
AcDbLine
10
262.5875
20
27.5
30
0
11
291.15
21
27.5
31
0
39
0
210
0
220
0
230
1
0
LINE
5
189
100
AcDbEntity
8
1
62
256
6
ByLayer
370
18
48
1
60
1
100
AcDbLine
10
287.975
20
-27.5
30
0
11
287.049425
21
-23.325003
31
0
39
0
210
0
220
0
230
1
0
LINE
5
18A
100
AcDbEntity
8
1
62
256
6
ByLayer
370
18
48
1
60
1
100
AcDbLine
10
287.049425
20
-23.325003
30
0
11
288.900575
21
-23.324997
31
0
39
0
210
0
220
0
230
1
0
LINE
5
18B
100
AcDbEntity
8
1
62
256
6
ByLayer
370
18
48
1
60
1
100
AcDbLine
10
288.900575
20
-23.324997
30
0
11
287.975
21
-27.5
31
0
39
0
210
0
220
0
230
1
0
LINE
5
18C
100
AcDbEntity
8
1
62
256
6
ByLayer
370
18
48
1
60
1
100
AcDbLine
10
287.975
20
27.5
30
0
11
288.900575
21
23.325003
31
0
39
0
210
0
220
0
230
1
0
LINE
5
18D
100
AcDbEntity
8
1
62
256
6
ByLayer
370
18
48
1
60
1
100
AcDbLine
10
288.900575
20
23.325003
30
0
11
287.049425
21
23.324997
31
0
39
0
210
0
220
0
230
1
0
LINE
5
18E
100
AcDbEntity
8
1
62
256
6
ByLayer
370
18
48
1
60
1
100
AcDbLine
10
287.049425
20
23.324997
30
0
11
287.975
21
27.5
31
0
39
0
210
0
220
0
230
1
0
LINE
5
33C
100
AcDbEntity
8
1
62
256
6
ByLayer
370
18
48
1
60
1
100
AcDbLine
10
-100.725
20
-25
30
0
11
-101.650575
21
-20.825003
31
0
39
0
210
0
220
0
230
1
0
LINE
5
33D
100
AcDbEntity
8
1
62
256
6
ByLayer
370
18
48
1
60
1
100
AcDbLine
10
-101.650575
20
-20.825003
30
0
11
-99.799425
21
-20.824997
31
0
39
0
210
0
220
0
230
1
0
LINE
5
33E
100
AcDbEntity
8
1
62
256
6
ByLayer
370
18
48
1
60
1
100
AcDbLine
10
-99.799425
20
-20.824997
30
0
11
-100.725
21
-25
31
0
39
0
210
0
220
0
230
1
0
LINE
5
340
100
AcDbEntity
8
1
62
256
6
ByLayer
370
18
48
1
60
1
100
AcDbLine
10
-100.725
20
25
30
0
11
-99.799425
21
20.825003
31
0
39
0
210
0
220
0
230
1
0
LINE
5
341
100
AcDbEntity
8
1
62
256
6
ByLayer
370
18
48
1
60
1
100
AcDbLine
10
-99.799425
20
20.825003
30
0
11
-101.650575
21
20.824997
31
0
39
0
210
0
220
0
230
1
0
LINE
5
342
100
AcDbEntity
8
1
62
256
6
ByLayer
370
18
48
1
60
1
100
AcDbLine
10
-101.650575
20
20.824997
30
0
11
-100.725
21
25
31
0
39
0
210
0
220
0
230
1
0
LINE
5
346
100
AcDbEntity
8
1
62
256
6
ByLayer
370
18
48
1
60
1
100
AcDbLine
10
-110.725
20
31.25
30
0
11
-109.799425
21
27.075003
31
0
39
0
210
0
220
0
230
1
0
LINE
5
347
100
AcDbEntity
8
1
62
256
6
ByLayer
370
18
48
1
60
1
100
AcDbLine
10
-109.799425
20
27.075003
30
0
11
-111.650575
21
27.074997
31
0
39
0
210
0
220
0
230
1
0
LINE
5
348
100
AcDbEntity
8
1
62
256
6
ByLayer
370
18
48
1
60
1
100
AcDbLine
10
-111.650575
20
27.074997
30
0
11
-110.725
21
31.25
31
0
39
0
210
0
220
0
230
1
0
LINE
5
34A
100
AcDbEntity
8
1
62
256
6
ByLayer
370
18
48
1
60
1
100
AcDbLine
10
-110.725
20
-31.25
30
0
11
-111.650575
21
-27.075003
31
0
39
0
210
0
220
0
230
1
0
LINE
5
34B
100
AcDbEntity
8
1
62
256
6
ByLayer
370
18
48
1
60
1
100
AcDbLine
10
-111.650575
20
-27.075003
30
0
11
-109.799425
21
-27.074997
31
0
39
0
210
0
220
0
230
1
0
LINE
5
34C
100
AcDbEntity
8
1
62
256
6
ByLayer
370
18
48
1
60
1
100
AcDbLine
10
-109.799425
20
-27.074997
30
0
11
-110.725
21
-31.25
31
0
39
0
210
0
220
0
230
1
0
LINE
5
350
100
AcDbEntity
8
1
62
256
6
ByLayer
370
18
48
1
60
1
100
AcDbLine
10
287.975
20
-27.5
30
0
11
287.049425
21
-23.325003
31
0
39
0
210
0
220
0
230
1
0
LINE
5
351
100
AcDbEntity
8
1
62
256
6
ByLayer
370
18
48
1
60
1
100
AcDbLine
10
287.049425
20
-23.325003
30
0
11
288.900575
21
-23.324997
31
0
39
0
210
0
220
0
230
1
0
LINE
5
352
100
AcDbEntity
8
1
62
256
6
ByLayer
370
18
48
1
60
1
100
AcDbLine
10
288.900575
20
-23.324997
30
0
11
287.975
21
-27.5
31
0
39
0
210
0
220
0
230
1
0
LINE
5
354
100
AcDbEntity
8
1
62
256
6
ByLayer
370
18
48
1
60
1
100
AcDbLine
10
287.975
20
27.5
30
0
11
288.900575
21
23.325003
31
0
39
0
210
0
220
0
230
1
0
LINE
5
355
100
AcDbEntity
8
1
62
256
6
ByLayer
370
18
48
1
60
1
100
AcDbLine
10
288.900575
20
23.325003
30
0
11
287.049425
21
23.324997
31
0
39
0
210
0
220
0
230
1
0
LINE
5
356
100
AcDbEntity
8
1
62
256
6
ByLayer
370
18
48
1
60
1
100
AcDbLine
10
287.049425
20
23.324997
30
0
11
287.975
21
27.5
31
0
39
0
210
0
220
0
230
1
0
MTEXT
5
338
100
AcDbEntity
8
SK2
62
256
6
ByLayer
370
18
48
1
60
0
100
AcDbMText
10
-102.736672
20
-6.949399
30
0
210
0
220
0
230
1
1
%%c
40
4.5
41
0
44
1.084337
50
90
71
7
72
5
7
iso_b_vert
0
MTEXT
5
33B
100
AcDbEntity
8
SK2
62
256
6
ByLayer
370
18
48
1
60
0
100
AcDbMText
10
-102.736672
20
4.265444
30
0
210
0
220
0
230
1
1
\W0.6740;50
40
4.5
41
0
44
1.084337
50
90
71
7
72
5
7
iso_b_vert
0
MTEXT
5
344
100
AcDbEntity
8
SK2
62
256
6
ByLayer
370
18
48
1
60
0
100
AcDbMText
10
-112.736672
20
-9.541655
30
0
210
0
220
0
230
1
1
%%c
40
4.5
41
0
44
1.084337
50
90
71
7
72
5
7
iso_b_vert
0
MTEXT
5
345
100
AcDbEntity
8
SK2
62
256
6
ByLayer
370
18
48
1
60
0
100
AcDbMText
10
-112.736672
20
1.673189
30
0
210
0
220
0
230
1
1
\W0.7346;62.5
40
4.5
41
0
44
1.084337
50
90
71
7
72
5
7
iso_b_vert
0
MTEXT
5
34E
100
AcDbEntity
8
2
62
256
6
ByLayer
370
18
48
1
60
0
100
AcDbMText
10
285.963328
20
-6.949399
30
0
210
0
220
0
230
1
1
%%c
40
4.5
41
0
44
1.084337
50
90
71
7
72
5
7
iso_b_vert
0
MTEXT
5
34F
100
AcDbEntity
8
2
62
256
6
ByLayer
370
18
48
1
60
0
100
AcDbMText
10
285.963328
20
4.265444
30
0
210
0
220
0
230
1
1
\W0.6740;55
40
4.5
41
0
44
1.084337
50
90
71
7
72
5
7
iso_b_vert
0
MTEXT
5
358
100
AcDbEntity
8
SK6
62
256
6
ByLayer
370
18
48
1
60
0
100
AcDbMText
10
9.308916
20
-94.592562
30
0
210
0
220
0
230
1
1
\W0.7699;DS20-D5500L50-04
40
3.5
41
0
44
1.084337
50
0
71
7
72
5
7
iso_b_vert
0
HATCH
5
33F
100
AcDbEntity
8
SK2
62
256
6
ByLayer
370
13
48
1
60
0
100
AcDbHatch
10
0
20
0
30
0
210
0
220
0
230
1
2
ANSI31
70
0
71
0
91
1
92
5
93
3
72
1
10
-100.725
20
-24.9999999999999
11
-101.650575216528
21
-20.8250033998275
72
1
10
-101.650575216528
20
-20.8250033998275
11
-99.7994247834721
21
-20.8249966001723
72
1
10
-99.7994247834721
20
-20.8249966001723
11
-100.725
21
-24.9999999999999
97
0
75
0
76
1
52
0
41
0.0062
77
0
78
1
53
45
43
0
44
0
45
-0.0139193969876572
46
0.0139193969876572
79
0
47
0
98
1
10
0
20
0
0
HATCH
5
343
100
AcDbEntity
8
SK2
62
256
6
ByLayer
370
13
48
1
60
0
100
AcDbHatch
10
0
20
0
30
0
210
0
220
0
230
1
2
ANSI31
70
0
71
0
91
1
92
5
93
3
72
1
10
-100.725
20
25.0000000000001
11
-99.7994247834721
21
20.8250033998277
72
1
10
-99.7994247834721
20
20.8250033998277
11
-101.650575216528
21
20.8249966001725
72
1
10
-101.650575216528
20
20.8249966001725
11
-100.725
21
25.0000000000001
97
0
75
0
76
1
52
0
41
0.0062
77
0
78
1
53
45
43
0
44
0
45
-0.0139193969876572
46
0.0139193969876572
79
0
47
0
98
1
10
0
20
0
0
HATCH
5
349
100
AcDbEntity
8
SK2
62
256
6
ByLayer
370
13
48
1
60
0
100
AcDbHatch
10
0
20
0
30
0
210
0
220
0
230
1
2
ANSI31
70
0
71
0
91
1
92
5
93
3
72
1
10
-110.725
20
31.25
11
-109.799424783472
21
27.0750033998276
72
1
10
-109.799424783472
20
27.0750033998276
11
-111.650575216528
21
27.0749966001724
72
1
10
-111.650575216528
20
27.0749966001724
11
-110.725
21
31.25
97
0
75
0
76
1
52
0
41
0.0062
77
0
78
1
53
45
43
0
44
0
45
-0.0139193969876572
46
0.0139193969876572
79
0
47
0
98
1
10
0
20
0
0
HATCH
5
34D
100
AcDbEntity
8
SK2
62
256
6
ByLayer
370
13
48
1
60
0
100
AcDbHatch
10
0
20
0
30
0
210
0
220
0
230
1
2
ANSI31
70
0
71
0
91
1
92
5
93
3
72
1
10
-110.725
20
-31.25
11
-111.650575216528
21
-27.0750033998276
72
1
10
-111.650575216528
20
-27.0750033998276
11
-109.799424783472
21
-27.0749966001724
72
1
10
-109.799424783472
20
-27.0749966001724
11
-110.725
21
-31.25
97
0
75
0
76
1
52
0
41
0.0062
77
0
78
1
53
45
43
0
44
0
45
-0.0139193969876572
46
0.0139193969876572
79
0
47
0
98
1
10
0
20
0
0
HATCH
5
353
100
AcDbEntity
8
2
62
256
6
ByLayer
370
13
48
1
60
0
100
AcDbHatch
10
0
20
0
30
0
210
0
220
0
230
1
2
ANSI31
70
0
71
0
91
1
92
5
93
3
72
1
10
287.975
20
-27.5000000000003
11
287.049424783472
21
-23.3250033998279
72
1
10
287.049424783472
20
-23.3250033998279
11
288.900575216528
21
-23.3249966001727
72
1
10
288.900575216528
20
-23.3249966001727
11
287.975
21
-27.5000000000003
97
0
75
0
76
1
52
0
41
0.0062
77
0
78
1
53
45
43
0
44
0
45
-0.0139193969876572
46
0.0139193969876572
79
0
47
0
98
1
10
0
20
0
0
HATCH
5
357
100
AcDbEntity
8
2
62
256
6
ByLayer
370
13
48
1
60
0
100
AcDbHatch
10
0
20
0
30
0
210
0
220
0
230
1
2
ANSI31
70
0
71
0
91
1
92
5
93
3
72
1
10
287.975
20
27.4999999999997
11
288.900575216528
21
23.3250033998273
72
1
10
288.900575216528
20
23.3250033998273
11
287.049424783472
21
23.3249966001721
72
1
10
287.049424783472
20
23.3249966001721
11
287.975
21
27.4999999999997
97
0
75
0
76
1
52
0
41
0.0062
77
0
78
1
53
45
43
0
44
0
45
-0.0139193969876572
46
0.0139193969876572
79
0
47
0
98
1
10
0
20
0
0
DIMENSION
5
35B
100
AcDbEntity
8
2
62
256
6
ByLayer
370
18
48
1
60
0
100
AcDbDimension
2
_U0
10
261
20
-80.1
30
0
11
130.5
21
-80.1
31
0
70
32
71
1
72
1
41
1
210
0
220
0
230
1
3
Standard
100
AcDbAlignedDimension
13
0
23
-31.25
33
0
14
261
24
-27.5
34
0
50
0
100
AcDbRotatedDimension
1001
ACAD
1000
DSTYLE
1002
{
1070
   371
1070
    13
1070
   372
1070
    13
1070
   170
1070
     0
1070
   144
1040
1.0
1070
   277
1070
     2
1070
   284
1070
     8
1070
   278
1070
    46
1070
   146
1040
0.777778
1070
   345
1005
16
1070
   347
1005
16
1070
   346
1005
16
1070
   344
1005
0
1070
   343
1005
0
1070
   172
1070
     1
1070
    76
1070
     0
1070
    75
1070
     0
1070
   282
1070
     0
1070
   281
1070
     0
1070
    71
1070
     0
1070
    74
1070
     0
1070
   279
1070
     0
1070
   173
1070
     1
1070
   340
1005
339
1070
   271
1070
     1
1070
   272
1070
     2
1070
    77
1070
     1
1070
    73
1070
     1
1070
   171
1070
     3
1070
   274
1070
     4
1070
   177
1070
   150
1070
   176
1070
     9
1070
   178
1070
    43
1070
    78
1070
     8
1070
    48
1040
-0.1
1070
    41
1040
4.175
1070
   147
1040
2.25
1070
    42
1040
1.5875
1070
    44
1040
3.175
1070
   140
1040
4.5
1002
}
1001
ACAD_DSTYLE_DIM_LINETYPE
1070
   380
1005
16
1001
ACAD_DSTYLE_DIM_EXT1_LINETYPE
1070
   381
1005
16
1001
ACAD_DSTYLE_DIM_EXT2_LINETYPE
1070
   382
1005
16
0
DIMENSION
5
374
100
AcDbEntity
8
SK2
62
256
6
ByLayer
370
18
48
1
60
0
100
AcDbDimension
2
_U1
10
0
20
-80.1
30
0
11
-40
21
-80.1
31
0
70
32
71
1
72
1
41
1
210
0
220
0
230
1
3
Standard
100
AcDbAlignedDimension
13
-80
23
-25
33
0
14
0
24
-31.25
34
0
50
0
100
AcDbRotatedDimension
1001
ACAD
1000
DSTYLE
1002
{
1070
   371
1070
    13
1070
   372
1070
    13
1070
   170
1070
     0
1070
   144
1040
1.0
1070
   277
1070
     2
1070
   284
1070
     8
1070
   278
1070
    46
1070
   146
1040
0.777778
1070
   345
1005
16
1070
   347
1005
16
1070
   346
1005
16
1070
   344
1005
0
1070
   343
1005
0
1070
   172
1070
     1
1070
    76
1070
     0
1070
    75
1070
     0
1070
   282
1070
     0
1070
   281
1070
     0
1070
    71
1070
     0
1070
    74
1070
     0
1070
   279
1070
     0
1070
   173
1070
     1
1070
   340
1005
339
1070
   271
1070
     1
1070
   272
1070
     2
1070
    77
1070
     1
1070
    73
1070
     1
1070
   171
1070
     3
1070
   274
1070
     4
1070
   177
1070
   150
1070
   176
1070
     9
1070
   178
1070
    43
1070
    78
1070
     8
1070
    48
1040
-0.1
1070
    41
1040
4.175
1070
   147
1040
2.25
1070
    42
1040
1.5875
1070
    44
1040
3.175
1070
   140
1040
4.5
1002
}
1001
ACAD_DSTYLE_DIM_LINETYPE
1070
   380
1005
16
1001
ACAD_DSTYLE_DIM_EXT1_LINETYPE
1070
   381
1005
16
1001
ACAD_DSTYLE_DIM_EXT2_LINETYPE
1070
   382
1005
16
0
DIMENSION
5
38C
100
AcDbEntity
8
SK2
62
256
6
ByLayer
370
18
48
1
60
0
100
AcDbDimension
2
_U2
10
6.1882
20
-70.1
30
0
11
133.5941
21
-70.1
31
0
70
32
71
1
72
1
41
1
210
0
220
0
230
1
3
Standard
100
AcDbAlignedDimension
13
261
23
-27.5
33
0
14
6.1882
24
-31.25
34
0
50
0
100
AcDbRotatedDimension
1001
ACAD
1000
DSTYLE
1002
{
1070
   371
1070
    13
1070
   372
1070
    13
1070
   170
1070
     0
1070
   144
1040
1.0
1070
   277
1070
     2
1070
   284
1070
     8
1070
   278
1070
    46
1070
   146
1040
0.777778
1070
   345
1005
16
1070
   347
1005
16
1070
   346
1005
16
1070
   344
1005
0
1070
   343
1005
0
1070
   172
1070
     1
1070
    76
1070
     0
1070
    75
1070
     0
1070
   282
1070
     0
1070
   281
1070
     0
1070
    71
1070
     0
1070
    74
1070
     0
1070
   279
1070
     0
1070
   173
1070
     1
1070
   340
1005
339
1070
   271
1070
     1
1070
   272
1070
     2
1070
    77
1070
     1
1070
    73
1070
     1
1070
   171
1070
     3
1070
   274
1070
     4
1070
   177
1070
   150
1070
   176
1070
     9
1070
   178
1070
    43
1070
    78
1070
     8
1070
    48
1040
-0.1
1070
    41
1040
4.175
1070
   147
1040
2.25
1070
    42
1040
1.5875
1070
    44
1040
3.175
1070
   140
1040
4.5
1002
}
1001
ACAD_DSTYLE_DIM_LINETYPE
1070
   380
1005
16
1001
ACAD_DSTYLE_DIM_EXT1_LINETYPE
1070
   381
1005
16
1001
ACAD_DSTYLE_DIM_EXT2_LINETYPE
1070
   382
1005
16
0
DIMENSION
5
3A4
100
AcDbEntity
8
SK2
62
256
6
ByLayer
370
18
48
1
60
0
100
AcDbDimension
2
_U3
10
261
20
-60.1
30
0
11
148.5
21
-60.1
31
0
70
32
71
1
72
1
41
1
210
0
220
0
230
1
3
Standard
100
AcDbAlignedDimension
13
36
23
-27.5
33
0
14
261
24
-27.5
34
0
50
0
100
AcDbRotatedDimension
1001
ACAD
1000
DSTYLE
1002
{
1070
   371
1070
    13
1070
   372
1070
    13
1070
   170
1070
     0
1070
   144
1040
1.0
1070
   277
1070
     2
1070
   284
1070
     8
1070
   278
1070
    46
1070
   146
1040
0.777778
1070
   345
1005
16
1070
   347
1005
16
1070
   346
1005
16
1070
   344
1005
0
1070
   343
1005
0
1070
   172
1070
     1
1070
    76
1070
     0
1070
    75
1070
     0
1070
   282
1070
     0
1070
   281
1070
     0
1070
    71
1070
     0
1070
    74
1070
     0
1070
   279
1070
     0
1070
   173
1070
     1
1070
   340
1005
339
1070
   271
1070
     1
1070
   272
1070
     2
1070
    77
1070
     1
1070
    73
1070
     1
1070
   171
1070
     3
1070
   274
1070
     4
1070
   177
1070
   150
1070
   176
1070
     9
1070
   178
1070
    43
1070
    78
1070
     8
1070
    48
1040
-0.1
1070
    41
1040
4.175
1070
   147
1040
2.25
1070
    42
1040
1.5875
1070
    44
1040
3.175
1070
   140
1040
4.5
1002
}
1001
ACAD_DSTYLE_DIM_LINETYPE
1070
   380
1005
16
1001
ACAD_DSTYLE_DIM_EXT1_LINETYPE
1070
   381
1005
16
1001
ACAD_DSTYLE_DIM_EXT2_LINETYPE
1070
   382
1005
16
0
DIMENSION
5
3BC
100
AcDbEntity
8
2
62
256
6
ByLayer
370
18
48
1
60
0
100
AcDbDimension
2
_U4
10
261
20
-50.1
30
0
11
282.922321
21
-50.1
31
0
70
32
71
1
72
1
41
1
210
0
220
0
230
1
3
Standard
100
AcDbAlignedDimension
13
259.4109
23
-13.75
33
0
14
261
24
0
34
0
50
0
100
AcDbRotatedDimension
1001
ACAD
1000
DSTYLE
1002
{
1070
   371
1070
    13
1070
   372
1070
    13
1070
   170
1070
     0
1070
   144
1040
1.0
1070
   277
1070
     2
1070
   284
1070
     8
1070
   278
1070
    46
1070
   146
1040
0.777778
1070
   345
1005
16
1070
   347
1005
16
1070
   346
1005
16
1070
   344
1005
0
1070
   343
1005
0
1070
   172
1070
     1
1070
    76
1070
     0
1070
    75
1070
     0
1070
   282
1070
     0
1070
   281
1070
     0
1070
    71
1070
     0
1070
    74
1070
     0
1070
   279
1070
     0
1070
   173
1070
     1
1070
   340
1005
339
1070
   271
1070
     2
1070
   272
1070
     2
1070
    77
1070
     1
1070
    73
1070
     1
1070
   171
1070
     3
1070
   274
1070
     4
1070
   177
1070
   150
1070
   176
1070
     9
1070
   178
1070
    43
1070
    78
1070
     8
1070
    48
1040
-0.1
1070
    41
1040
4.175
1070
   147
1040
2.25
1070
    42
1040
1.5875
1070
    44
1040
3.175
1070
   140
1040
4.5
1002
}
1001
ACAD_DSTYLE_DIM_LINETYPE
1070
   380
1005
16
1001
ACAD_DSTYLE_DIM_EXT1_LINETYPE
1070
   381
1005
16
1001
ACAD_DSTYLE_DIM_EXT2_LINETYPE
1070
   382
1005
16
0
ENDSEC
0
SECTION
2
OBJECTS
0
DICTIONARY
5
446
330
0
100
AcDbDictionary
280
0
281
1
3
ACAD_GROUP
350
447
3
ACAD_MLINESTYLE
350
448
0
DICTIONARY
5
447
330
0
100
AcDbDictionary
280
0
281
1
0
DICTIONARY
5
448
330
0
100
AcDbDictionary
280
0
281
1
3
Standard
350
18
0
MLINESTYLE
5
18
330
448
100
AcDbMlineStyle
2
Standard
70
0
3

62
256
51
90
52
90
71
2
49
-0.5
62
256
6
ByLayer
49
0.5
62
256
6
ByLayer
0
RASTERVARIABLES
5
434
330

100
AcDbRasterVariables
90
0
70
1
71
1
72
1
0
ENDSEC
0
EOF
