0
SECTION
2
HEADER
9
$ACADVER
1
AC1015
9
$DWGCODEPAGE
3
ANSI_1252
9
$HANDSEED
5
435
9
$ANGBASE
50
0
9
$ANGDIR
70
0
9
$ATTMODE
70
1
9
$AUNITS
70
0
9
$AUPREC
70
0
9
$CECOLOR
62
256
9
$CELTSCALE
40
1
9
$CELTYPE
6
ByLayer
9
$CELWEIGHT
370
18
9
$CLAYER
8
0
9
$CMLJUST
70
0
9
$CMLSCALE
40
1
9
$CMLSTYLE
2
Standard
9
$DIMSTYLE
2
Standard
9
$TEXTSIZE
40
0.2
9
$TEXTSTYLE
7
Standard
9
$LUNITS
70
2
9
$LUPREC
70
4
9
$EXTNAMES
290
1
9
$INSUNITS
70
4
9
$LTSCALE
40
1
9
$LWDISPLAY
290
1
9
$PDMODE
70
0
9
$PDSIZE
40
0
9
$PLINEGEN
70
0
0
ENDSEC
0
SECTION
2
CLASSES
0
CLASS
1
RASTERVARIABLES
2
AcDbRasterVariables
3
ISM
90
0
280
0
281
0
0
ENDSEC
0
SECTION
2
TABLES
0
TABLE
2
VPORT
5
42b
100
AcDbSymbolTable
0
VPORT
5
1
100
AcDbSymbolTableRecord
100
AcDbViewportTableRecord
2
*Active
70
0
10
0
20
0
11
1
21
1
12
-1
22
1
13
0
23
0
14
0.5
24
0.5
15
10
25
10
16
0
26
0
36
1
17
0
27
0
37
0
0
ENDTAB
0
TABLE
2
LTYPE
5
42c
100
AcDbSymbolTable
0
LTYPE
5
14
100
AcDbSymbolTableRecord
100
AcDbLinetypeTableRecord
70
0
2
ByBlock
3

72
65
73
0
40
0
0
LTYPE
5
15
100
AcDbSymbolTableRecord
100
AcDbLinetypeTableRecord
70
0
2
ByLayer
3

72
65
73
0
40
0
0
LTYPE
5
16
100
AcDbSymbolTableRecord
100
AcDbLinetypeTableRecord
70
0
2
Continuous
3
Solid line
72
65
73
0
40
0
0
LTYPE
5
6E
100
AcDbSymbolTableRecord
100
AcDbLinetypeTableRecord
70
0
2
CENTER
3
____ _ ____ _ ____ _ ____
72
65
73
4
40
47.5
49
22
74
0
49
-8.5
74
0
49
8.5
74
0
49
-8.5
74
0
0
LTYPE
5
6F
100
AcDbSymbolTableRecord
100
AcDbLinetypeTableRecord
70
0
2
DASHED
3
__ __ __ __ __ __ __ __ __
72
65
73
2
40
25.72
49
12.86
74
0
49
-12.86
74
0
0
ENDTAB
0
TABLE
2
LAYER
5
42d
100
AcDbSymbolTable
0
LAYER
5
10
100
AcDbSymbolTableRecord
100
AcDbLayerTableRecord
2
0
70
0
62
7
6
Continuous
290
1
370
-3
390
0
0
LAYER
5
71
100
AcDbSymbolTableRecord
100
AcDbLayerTableRecord
2
1
70
0
62
4
6
Continuous
290
1
370
-3
390
0
0
LAYER
5
73
100
AcDbSymbolTableRecord
100
AcDbLayerTableRecord
2
80
70
0
62
-6
6
Continuous
290
1
370
-3
390
0
0
LAYER
5
75
100
AcDbSymbolTableRecord
100
AcDbLayerTableRecord
2
81
70
0
62
-3
6
Continuous
290
1
370
-3
390
0
0
LAYER
5
139
100
AcDbSymbolTableRecord
100
AcDbLayerTableRecord
2
4
70
0
62
-2
6
CENTER
290
1
370
-3
390
0
0
LAYER
5
16C
100
AcDbSymbolTableRecord
100
AcDbLayerTableRecord
2
2
70
0
62
7
6
Continuous
290
1
370
-3
390
0
0
LAYER
5
340
100
AcDbSymbolTableRecord
100
AcDbLayerTableRecord
2
Defpoints
70
0
62
7
6
Continuous
290
0
370
-3
390
0
0
LAYER
5
417
100
AcDbSymbolTableRecord
100
AcDbLayerTableRecord
2
SK1
70
0
62
4
6
Continuous
290
1
370
-3
390
0
0
LAYER
5
418
100
AcDbSymbolTableRecord
100
AcDbLayerTableRecord
2
SK4
70
0
62
2
6
CENTER
290
1
370
-3
390
0
0
LAYER
5
419
100
AcDbSymbolTableRecord
100
AcDbLayerTableRecord
2
SK2
70
0
62
7
6
Continuous
290
1
370
-3
390
0
0
LAYER
5
41a
100
AcDbSymbolTableRecord
100
AcDbLayerTableRecord
2
SK6
70
0
62
5
6
Continuous
290
1
370
-3
390
0
0
ENDTAB
0
TABLE
2
STYLE
5
42e
100
AcDbSymbolTable
0
STYLE
5
11
100
AcDbSymbolTableRecord
100
AcDbTextStyleTableRecord
2
Standard
3
txt
70
0
71
0
40
0
41
1
42
0
50
0
0
STYLE
5
31B
100
AcDbSymbolTableRecord
100
AcDbTextStyleTableRecord
2
iso_b_vert
3
simplex.shx
70
0
71
0
40
0
41
1
42
0
50
0
0
STYLE
5
31C
100
AcDbSymbolTableRecord
100
AcDbTextStyleTableRecord
2
DWGDirectTextStyle
3
simplex
70
0
71
0
40
0
41
1
42
0
50
0
0
ENDTAB
0
TABLE
2
DIMSTYLE
5
42f
100
AcDbSymbolTable
100
AcDbDimStyleTable
0
DIMSTYLE
105
27
100
AcDbSymbolTableRecord
100
AcDbDimStyleTableRecord
2
Standard
70
0
3
<>
41
0.18
42
0.0625
44
0.18
140
0.18
147
0.09
73
0
74
0
77
1
271
2
275
0
278
52
280
0
340
11
0
ENDTAB
0
TABLE
2
VIEW
5
430
100
AcDbSymbolTable
0
ENDTAB
0
TABLE
2
UCS
5
431
100
AcDbSymbolTable
0
ENDTAB
0
TABLE
2
APPID
5
432
100
AcDbSymbolTable
0
APPID
5
12
100
AcDbSymbolTableRecord
100
AcDbRegAppTableRecord
2
ACAD
70
0
0
APPID
5
33C
100
AcDbSymbolTableRecord
100
AcDbRegAppTableRecord
2
ACAD_DSTYLE_DIMBREAK
70
0
0
APPID
5
3D6
100
AcDbSymbolTableRecord
100
AcDbRegAppTableRecord
2
ACAD_DSTYLE_DIM_LINETYPE
70
0
0
APPID
5
3D7
100
AcDbSymbolTableRecord
100
AcDbRegAppTableRecord
2
ACAD_DSTYLE_DIM_EXT1_LINETYPE
70
0
0
APPID
5
3D8
100
AcDbSymbolTableRecord
100
AcDbRegAppTableRecord
2
ACAD_DSTYLE_DIM_EXT2_LINETYPE
70
0
0
APPID
5
413
100
AcDbSymbolTableRecord
100
AcDbRegAppTableRecord
2
ACAD_MLEADERVER
70
0
0
ENDTAB
0
TABLE
2
BLOCK_RECORD
5
433
100
AcDbSymbolTable
0
BLOCK_RECORD
5
1F
100
AcDbSymbolTableRecord
100
AcDbBlockTableRecord
2
*Model_Space
340
0
70
0
0
BLOCK_RECORD
5
1B
100
AcDbSymbolTableRecord
100
AcDbBlockTableRecord
2
*Paper_Space
340
0
70
0
0
BLOCK_RECORD
5
23
100
AcDbSymbolTableRecord
100
AcDbBlockTableRecord
2
*Paper_Space0
340
0
70
0
0
BLOCK_RECORD
5
341
100
AcDbSymbolTableRecord
100
AcDbBlockTableRecord
2
*D1
340
0
70
0
0
BLOCK_RECORD
5
34D
100
AcDbSymbolTableRecord
100
AcDbBlockTableRecord
2
_U0
340
0
70
0
0
BLOCK_RECORD
5
359
100
AcDbSymbolTableRecord
100
AcDbBlockTableRecord
2
*D3
340
0
70
0
0
BLOCK_RECORD
5
365
100
AcDbSymbolTableRecord
100
AcDbBlockTableRecord
2
_U1
340
0
70
0
0
BLOCK_RECORD
5
371
100
AcDbSymbolTableRecord
100
AcDbBlockTableRecord
2
*D5
340
0
70
0
0
BLOCK_RECORD
5
37D
100
AcDbSymbolTableRecord
100
AcDbBlockTableRecord
2
_U2
340
0
70
0
0
BLOCK_RECORD
5
389
100
AcDbSymbolTableRecord
100
AcDbBlockTableRecord
2
*D7
340
0
70
0
0
BLOCK_RECORD
5
395
100
AcDbSymbolTableRecord
100
AcDbBlockTableRecord
2
_U3
340
0
70
0
0
BLOCK_RECORD
5
3A1
100
AcDbSymbolTableRecord
100
AcDbBlockTableRecord
2
*D9
340
0
70
0
0
BLOCK_RECORD
5
3AF
100
AcDbSymbolTableRecord
100
AcDbBlockTableRecord
2
_U4
340
0
70
0
0
ENDTAB
0
ENDSEC
0
SECTION
2
BLOCKS
0
BLOCK
5
20
100
AcDbEntity
8
0
100
AcDbBlockBegin
2
*Model_Space
70
0
10
0
20
0
30
0
3
*Model_Space
0
ENDBLK
5
21
100
AcDbEntity
8
0
100
AcDbBlockEnd
0
BLOCK
5
1C
100
AcDbEntity
8
0
100
AcDbBlockBegin
2
*Paper_Space
70
0
10
0
20
0
30
0
3
*Paper_Space
0
ENDBLK
5
1D
100
AcDbEntity
8
0
100
AcDbBlockEnd
0
BLOCK
5
24
100
AcDbEntity
8
0
100
AcDbBlockBegin
2
*Paper_Space0
70
0
10
0
20
0
30
0
3
*Paper_Space0
0
ENDBLK
5
25
100
AcDbEntity
8
0
100
AcDbBlockEnd
0
BLOCK
5
342
100
AcDbEntity
8
0
100
AcDbBlockBegin
2
*D1
70
1
10
0
20
0
30
0
3
*D1
0
LINE
5
344
100
AcDbEntity
8
0
62
256
6
ByLayer
370
-2
48
1
60
0
100
AcDbLine
10
0
20
-32.8375
30
0
11
0
21
-83.275
31
0
39
0
210
0
220
0
230
1
0
LINE
5
345
100
AcDbEntity
8
0
62
256
6
ByLayer
370
-2
48
1
60
0
100
AcDbLine
10
336
20
-22.5875
30
0
11
336
21
-83.275
31
0
39
0
210
0
220
0
230
1
0
LINE
5
346
100
AcDbEntity
8
0
62
256
6
ByLayer
370
-2
48
1
60
0
100
AcDbLine
10
4.175
20
-80.1
30
0
11
331.825
21
-80.1
31
0
39
0
210
0
220
0
230
1
0
SOLID
5
347
100
AcDbEntity
8
0
62
256
6
ByLayer
370
-1
48
1
60
0
100
AcDbTrace
10
4.175
20
-79.404167
30
0
11
4.175
21
-80.795833
31
0
12
0
22
-80.1
32
0
13
0
23
-80.1
33
0
39
0
210
0
220
0
230
1
0
SOLID
5
348
100
AcDbEntity
8
0
62
256
6
ByLayer
370
-1
48
1
60
0
100
AcDbTrace
10
331.825
20
-80.795833
30
0
11
331.825
21
-79.404167
31
0
12
336
22
-80.1
32
0
13
336
23
-80.1
33
0
39
0
210
0
220
0
230
1
0
MTEXT
5
349
100
AcDbEntity
8
0
62
256
6
ByLayer
370
18
48
1
60
0
100
AcDbMText
10
168
20
-70.70625
30
0
210
0
220
0
230
1
1
\A1;336
40
4.5
41
0
44
1
50
0
71
5
72
5
7
iso_b_vert
0
POINT
5
34A
100
AcDbEntity
8
Defpoints
62
0
6
ByLayer
370
-1
48
1
60
0
100
AcDbPoint
10
0
20
-31.25
30
0
39
0
210
0
220
0
230
1
50
360
0
POINT
5
34B
100
AcDbEntity
8
Defpoints
62
0
6
ByLayer
370
-1
48
1
60
0
100
AcDbPoint
10
336
20
-21
30
0
39
0
210
0
220
0
230
1
50
360
0
POINT
5
34C
100
AcDbEntity
8
Defpoints
62
0
6
ByLayer
370
-1
48
1
60
0
100
AcDbPoint
10
336
20
-80.1
30
0
39
0
210
0
220
0
230
1
50
360
0
ENDBLK
5
343
100
AcDbEntity
8
0
100
AcDbBlockEnd
0
BLOCK
5
354
100
AcDbEntity
8
0
100
AcDbBlockBegin
2
_U0
70
0
10
0
20
0
30
0
3
_U0
0
MTEXT
5
34E
100
AcDbEntity
8
2
62
256
6
ByLayer
370
18
48
1
60
0
100
AcDbMText
10
163.869387
20
-78.772328
30
0
210
0
220
0
230
1
1
\W0.7138;336
40
4.5
41
0
44
1.084337
50
0
71
7
72
5
7
iso_b_vert
0
LINE
5
34F
100
AcDbEntity
8
2
62
256
6
ByLayer
370
13
48
1
60
0
100
AcDbLine
10
0
20
-32.8375
30
0
11
0
21
-83.275
31
0
39
0
210
0
220
0
230
1
0
LINE
5
350
100
AcDbEntity
8
2
62
256
6
ByLayer
370
13
48
1
60
0
100
AcDbLine
10
336
20
-22.5875
30
0
11
336
21
-83.275
31
0
39
0
210
0
220
0
230
1
0
LINE
5
351
100
AcDbEntity
8
2
62
256
6
ByLayer
370
13
48
1
60
0
100
AcDbLine
10
0
20
-80.1
30
0
11
336
21
-80.1
31
0
39
0
210
0
220
0
230
1
0
SOLID
5
352
100
AcDbEntity
8
2
62
256
6
ByLayer
370
18
48
1
60
0
100
AcDbTrace
10
0
20
-80.1
30
0
11
4.174997
21
-79.174425
31
0
12
4.175003
22
-81.025575
32
0
13
4.175003
23
-81.025575
33
0
39
0
210
0
220
0
230
1
0
SOLID
5
353
100
AcDbEntity
8
2
62
256
6
ByLayer
370
18
48
1
60
0
100
AcDbTrace
10
336
20
-80.1
30
0
11
331.825003
21
-81.025575
31
0
12
331.824997
22
-79.174425
32
0
13
331.824997
23
-79.174425
33
0
39
0
210
0
220
0
230
1
0
ENDBLK
5
355
100
AcDbEntity
8
0
100
AcDbBlockEnd
0
BLOCK
5
35A
100
AcDbEntity
8
0
100
AcDbBlockBegin
2
*D3
70
1
10
0
20
0
30
0
3
*D3
0
LINE
5
35C
100
AcDbEntity
8
0
62
256
6
ByLayer
370
-2
48
1
60
0
100
AcDbLine
10
-80
20
-26.5875
30
0
11
-80
21
-83.275
31
0
39
0
210
0
220
0
230
1
0
LINE
5
35D
100
AcDbEntity
8
0
62
256
6
ByLayer
370
-2
48
1
60
0
100
AcDbLine
10
0
20
-32.8375
30
0
11
0
21
-83.275
31
0
39
0
210
0
220
0
230
1
0
LINE
5
35E
100
AcDbEntity
8
0
62
256
6
ByLayer
370
-2
48
1
60
0
100
AcDbLine
10
-75.825
20
-80.1
30
0
11
-4.175
21
-80.1
31
0
39
0
210
0
220
0
230
1
0
SOLID
5
35F
100
AcDbEntity
8
0
62
256
6
ByLayer
370
-1
48
1
60
0
100
AcDbTrace
10
-75.825
20
-79.404167
30
0
11
-75.825
21
-80.795833
31
0
12
-80
22
-80.1
32
0
13
-80
23
-80.1
33
0
39
0
210
0
220
0
230
1
0
SOLID
5
360
100
AcDbEntity
8
0
62
256
6
ByLayer
370
-1
48
1
60
0
100
AcDbTrace
10
-4.175
20
-80.795833
30
0
11
-4.175
21
-79.404167
31
0
12
0
22
-80.1
32
0
13
0
23
-80.1
33
0
39
0
210
0
220
0
230
1
0
MTEXT
5
361
100
AcDbEntity
8
0
62
256
6
ByLayer
370
18
48
1
60
0
100
AcDbMText
10
-40
20
-70.70625
30
0
210
0
220
0
230
1
1
\A1;80
40
4.5
41
0
44
1
50
0
71
5
72
5
7
iso_b_vert
0
POINT
5
362
100
AcDbEntity
8
Defpoints
62
0
6
ByLayer
370
-1
48
1
60
0
100
AcDbPoint
10
-80
20
-25
30
0
39
0
210
0
220
0
230
1
50
360
0
POINT
5
363
100
AcDbEntity
8
Defpoints
62
0
6
ByLayer
370
-1
48
1
60
0
100
AcDbPoint
10
0
20
-31.25
30
0
39
0
210
0
220
0
230
1
50
360
0
POINT
5
364
100
AcDbEntity
8
Defpoints
62
0
6
ByLayer
370
-1
48
1
60
0
100
AcDbPoint
10
0
20
-80.1
30
0
39
0
210
0
220
0
230
1
50
360
0
ENDBLK
5
35B
100
AcDbEntity
8
0
100
AcDbBlockEnd
0
BLOCK
5
36C
100
AcDbEntity
8
0
100
AcDbBlockBegin
2
_U1
70
0
10
0
20
0
30
0
3
_U1
0
MTEXT
5
366
100
AcDbEntity
8
SK2
62
256
6
ByLayer
370
18
48
1
60
0
100
AcDbMText
10
-42.449242
20
-78.772328
30
0
210
0
220
0
230
1
1
\W0.6740;80
40
4.5
41
0
44
1.084337
50
0
71
7
72
5
7
iso_b_vert
0
LINE
5
367
100
AcDbEntity
8
SK2
62
256
6
ByLayer
370
13
48
1
60
0
100
AcDbLine
10
-80
20
-26.5875
30
0
11
-80
21
-83.275
31
0
39
0
210
0
220
0
230
1
0
LINE
5
368
100
AcDbEntity
8
SK2
62
256
6
ByLayer
370
13
48
1
60
0
100
AcDbLine
10
0
20
-32.8375
30
0
11
0
21
-83.275
31
0
39
0
210
0
220
0
230
1
0
LINE
5
369
100
AcDbEntity
8
SK2
62
256
6
ByLayer
370
13
48
1
60
0
100
AcDbLine
10
-80
20
-80.1
30
0
11
0
21
-80.1
31
0
39
0
210
0
220
0
230
1
0
SOLID
5
36A
100
AcDbEntity
8
SK2
62
256
6
ByLayer
370
18
48
1
60
0
100
AcDbTrace
10
-80
20
-80.1
30
0
11
-75.825003
21
-79.174425
31
0
12
-75.824997
22
-81.025575
32
0
13
-75.824997
23
-81.025575
33
0
39
0
210
0
220
0
230
1
0
SOLID
5
36B
100
AcDbEntity
8
SK2
62
256
6
ByLayer
370
18
48
1
60
0
100
AcDbTrace
10
0
20
-80.1
30
0
11
-4.174997
21
-81.025575
31
0
12
-4.175003
22
-79.174425
32
0
13
-4.175003
23
-79.174425
33
0
39
0
210
0
220
0
230
1
0
ENDBLK
5
36D
100
AcDbEntity
8
0
100
AcDbBlockEnd
0
BLOCK
5
372
100
AcDbEntity
8
0
100
AcDbBlockBegin
2
*D5
70
1
10
0
20
0
30
0
3
*D5
0
LINE
5
374
100
AcDbEntity
8
0
62
256
6
ByLayer
370
-2
48
1
60
0
100
AcDbLine
10
336
20
-22.5875
30
0
11
336
21
-73.275
31
0
39
0
210
0
220
0
230
1
0
LINE
5
375
100
AcDbEntity
8
0
62
256
6
ByLayer
370
-2
48
1
60
0
100
AcDbLine
10
6.1738
20
-32.8375
30
0
11
6.1738
21
-73.275
31
0
39
0
210
0
220
0
230
1
0
LINE
5
376
100
AcDbEntity
8
0
62
256
6
ByLayer
370
-2
48
1
60
0
100
AcDbLine
10
331.825
20
-70.1
30
0
11
10.3488
21
-70.1
31
0
39
0
210
0
220
0
230
1
0
SOLID
5
377
100
AcDbEntity
8
0
62
256
6
ByLayer
370
-1
48
1
60
0
100
AcDbTrace
10
331.825
20
-70.795833
30
0
11
331.825
21
-69.404167
31
0
12
336
22
-70.1
32
0
13
336
23
-70.1
33
0
39
0
210
0
220
0
230
1
0
SOLID
5
378
100
AcDbEntity
8
0
62
256
6
ByLayer
370
-1
48
1
60
0
100
AcDbTrace
10
10.3488
20
-69.404167
30
0
11
10.3488
21
-70.795833
31
0
12
6.1738
22
-70.1
32
0
13
6.1738
23
-70.1
33
0
39
0
210
0
220
0
230
1
0
MTEXT
5
379
100
AcDbEntity
8
0
62
256
6
ByLayer
370
18
48
1
60
0
100
AcDbMText
10
171.0869
20
-60.70625
30
0
210
0
220
0
230
1
1
\A1;329.8
40
4.5
41
0
44
1
50
0
71
5
72
5
7
iso_b_vert
0
POINT
5
37A
100
AcDbEntity
8
Defpoints
62
0
6
ByLayer
370
-1
48
1
60
0
100
AcDbPoint
10
336
20
-21
30
0
39
0
210
0
220
0
230
1
50
360
0
POINT
5
37B
100
AcDbEntity
8
Defpoints
62
0
6
ByLayer
370
-1
48
1
60
0
100
AcDbPoint
10
6.1738
20
-31.25
30
0
39
0
210
0
220
0
230
1
50
360
0
POINT
5
37C
100
AcDbEntity
8
Defpoints
62
0
6
ByLayer
370
-1
48
1
60
0
100
AcDbPoint
10
6.1738
20
-70.1
30
0
39
0
210
0
220
0
230
1
50
360
0
ENDBLK
5
373
100
AcDbEntity
8
0
100
AcDbBlockEnd
0
BLOCK
5
384
100
AcDbEntity
8
0
100
AcDbBlockBegin
2
_U2
70
0
10
0
20
0
30
0
3
_U2
0
MTEXT
5
37E
100
AcDbEntity
8
SK2
62
256
6
ByLayer
370
18
48
1
60
0
100
AcDbMText
10
164.363344
20
-68.772328
30
0
210
0
220
0
230
1
1
\W0.7468;329.8
40
4.5
41
0
44
1.084337
50
0
71
7
72
5
7
iso_b_vert
0
LINE
5
37F
100
AcDbEntity
8
SK2
62
256
6
ByLayer
370
13
48
1
60
0
100
AcDbLine
10
336
20
-22.5875
30
0
11
336
21
-73.275
31
0
39
0
210
0
220
0
230
1
0
LINE
5
380
100
AcDbEntity
8
SK2
62
256
6
ByLayer
370
13
48
1
60
0
100
AcDbLine
10
6.1738
20
-32.8375
30
0
11
6.1738
21
-73.275
31
0
39
0
210
0
220
0
230
1
0
LINE
5
381
100
AcDbEntity
8
SK2
62
256
6
ByLayer
370
13
48
1
60
0
100
AcDbLine
10
336
20
-70.1
30
0
11
6.1738
21
-70.1
31
0
39
0
210
0
220
0
230
1
0
SOLID
5
382
100
AcDbEntity
8
SK2
62
256
6
ByLayer
370
18
48
1
60
0
100
AcDbTrace
10
336
20
-70.1
30
0
11
331.825003
21
-71.025575
31
0
12
331.824997
22
-69.174425
32
0
13
331.824997
23
-69.174425
33
0
39
0
210
0
220
0
230
1
0
SOLID
5
383
100
AcDbEntity
8
SK2
62
256
6
ByLayer
370
18
48
1
60
0
100
AcDbTrace
10
6.1738
20
-70.1
30
0
11
10.348797
21
-69.174425
31
0
12
10.348803
22
-71.025575
32
0
13
10.348803
23
-71.025575
33
0
39
0
210
0
220
0
230
1
0
ENDBLK
5
385
100
AcDbEntity
8
0
100
AcDbBlockEnd
0
BLOCK
5
38A
100
AcDbEntity
8
0
100
AcDbBlockBegin
2
*D7
70
1
10
0
20
0
30
0
3
*D7
0
LINE
5
38C
100
AcDbEntity
8
0
62
256
6
ByLayer
370
-2
48
1
60
0
100
AcDbLine
10
37
20
-22.5875
30
0
11
37
21
-63.275
31
0
39
0
210
0
220
0
230
1
0
LINE
5
38D
100
AcDbEntity
8
0
62
256
6
ByLayer
370
-2
48
1
60
0
100
AcDbLine
10
336
20
-22.5875
30
0
11
336
21
-63.275
31
0
39
0
210
0
220
0
230
1
0
LINE
5
38E
100
AcDbEntity
8
0
62
256
6
ByLayer
370
-2
48
1
60
0
100
AcDbLine
10
41.175
20
-60.1
30
0
11
331.825
21
-60.1
31
0
39
0
210
0
220
0
230
1
0
SOLID
5
38F
100
AcDbEntity
8
0
62
256
6
ByLayer
370
-1
48
1
60
0
100
AcDbTrace
10
41.175
20
-59.404167
30
0
11
41.175
21
-60.795833
31
0
12
37
22
-60.1
32
0
13
37
23
-60.1
33
0
39
0
210
0
220
0
230
1
0
SOLID
5
390
100
AcDbEntity
8
0
62
256
6
ByLayer
370
-1
48
1
60
0
100
AcDbTrace
10
331.825
20
-60.795833
30
0
11
331.825
21
-59.404167
31
0
12
336
22
-60.1
32
0
13
336
23
-60.1
33
0
39
0
210
0
220
0
230
1
0
MTEXT
5
391
100
AcDbEntity
8
0
62
256
6
ByLayer
370
18
48
1
60
0
100
AcDbMText
10
186.5
20
-50.70625
30
0
210
0
220
0
230
1
1
\A1;299
40
4.5
41
0
44
1
50
0
71
5
72
5
7
iso_b_vert
0
POINT
5
392
100
AcDbEntity
8
Defpoints
62
0
6
ByLayer
370
-1
48
1
60
0
100
AcDbPoint
10
37
20
-21
30
0
39
0
210
0
220
0
230
1
50
360
0
POINT
5
393
100
AcDbEntity
8
Defpoints
62
0
6
ByLayer
370
-1
48
1
60
0
100
AcDbPoint
10
336
20
-21
30
0
39
0
210
0
220
0
230
1
50
360
0
POINT
5
394
100
AcDbEntity
8
Defpoints
62
0
6
ByLayer
370
-1
48
1
60
0
100
AcDbPoint
10
336
20
-60.1
30
0
39
0
210
0
220
0
230
1
50
360
0
ENDBLK
5
38B
100
AcDbEntity
8
0
100
AcDbBlockEnd
0
BLOCK
5
39C
100
AcDbEntity
8
0
100
AcDbBlockBegin
2
_U3
70
0
10
0
20
0
30
0
3
_U3
0
MTEXT
5
396
100
AcDbEntity
8
SK2
62
256
6
ByLayer
370
18
48
1
60
0
100
AcDbMText
10
182.369387
20
-58.772328
30
0
210
0
220
0
230
1
1
\W0.7266;299
40
4.5
41
0
44
1.084337
50
0
71
7
72
5
7
iso_b_vert
0
LINE
5
397
100
AcDbEntity
8
SK2
62
256
6
ByLayer
370
13
48
1
60
0
100
AcDbLine
10
37
20
-22.5875
30
0
11
37
21
-63.275
31
0
39
0
210
0
220
0
230
1
0
LINE
5
398
100
AcDbEntity
8
SK2
62
256
6
ByLayer
370
13
48
1
60
0
100
AcDbLine
10
336
20
-22.5875
30
0
11
336
21
-63.275
31
0
39
0
210
0
220
0
230
1
0
LINE
5
399
100
AcDbEntity
8
SK2
62
256
6
ByLayer
370
13
48
1
60
0
100
AcDbLine
10
37
20
-60.1
30
0
11
336
21
-60.1
31
0
39
0
210
0
220
0
230
1
0
SOLID
5
39A
100
AcDbEntity
8
SK2
62
256
6
ByLayer
370
18
48
1
60
0
100
AcDbTrace
10
37
20
-60.1
30
0
11
41.174997
21
-59.174425
31
0
12
41.175003
22
-61.025575
32
0
13
41.175003
23
-61.025575
33
0
39
0
210
0
220
0
230
1
0
SOLID
5
39B
100
AcDbEntity
8
SK2
62
256
6
ByLayer
370
18
48
1
60
0
100
AcDbTrace
10
336
20
-60.1
30
0
11
331.825003
21
-61.025575
31
0
12
331.824997
22
-59.174425
32
0
13
331.824997
23
-59.174425
33
0
39
0
210
0
220
0
230
1
0
ENDBLK
5
39D
100
AcDbEntity
8
0
100
AcDbBlockEnd
0
BLOCK
5
3A2
100
AcDbEntity
8
0
100
AcDbBlockBegin
2
*D9
70
1
10
0
20
0
30
0
3
*D9
0
LINE
5
3A4
100
AcDbEntity
8
0
62
256
6
ByLayer
370
-2
48
1
60
0
100
AcDbLine
10
334.7234
20
-12.0875
30
0
11
334.7234
21
-53.275
31
0
39
0
210
0
220
0
230
1
0
LINE
5
3A5
100
AcDbEntity
8
0
62
256
6
ByLayer
370
-2
48
1
60
0
100
AcDbLine
10
336
20
-1.5875
30
0
11
336
21
-53.275
31
0
39
0
210
0
220
0
230
1
0
LINE
5
3A6
100
AcDbEntity
8
0
62
256
6
ByLayer
370
-2
48
1
60
0
100
AcDbLine
10
336
20
-50.1
30
0
11
371.708929
21
-50.1
31
0
39
0
210
0
220
0
230
1
0
LINE
5
3A7
100
AcDbEntity
8
0
62
256
6
ByLayer
370
-2
48
1
60
0
100
AcDbLine
10
330.5484
20
-50.1
30
0
11
326.3734
21
-50.1
31
0
39
0
210
0
220
0
230
1
0
LINE
5
3A8
100
AcDbEntity
8
0
62
256
6
ByLayer
370
-2
48
1
60
0
100
AcDbLine
10
340.175
20
-50.1
30
0
11
344.35
21
-50.1
31
0
39
0
210
0
220
0
230
1
0
SOLID
5
3A9
100
AcDbEntity
8
0
62
256
6
ByLayer
370
-1
48
1
60
0
100
AcDbTrace
10
330.5484
20
-50.795833
30
0
11
330.5484
21
-49.404167
31
0
12
334.7234
22
-50.1
32
0
13
334.7234
23
-50.1
33
0
39
0
210
0
220
0
230
1
0
SOLID
5
3AA
100
AcDbEntity
8
0
62
256
6
ByLayer
370
-1
48
1
60
0
100
AcDbTrace
10
340.175
20
-49.404167
30
0
11
340.175
21
-50.795833
31
0
12
336
22
-50.1
32
0
13
336
23
-50.1
33
0
39
0
210
0
220
0
230
1
0
MTEXT
5
3AB
100
AcDbEntity
8
0
62
256
6
ByLayer
370
18
48
1
60
0
100
AcDbMText
10
358.029464
20
-40.70625
30
0
210
0
220
0
230
1
1
\A1;1.28
40
4.5
41
0
44
1
50
0
71
5
72
5
7
iso_b_vert
0
POINT
5
3AC
100
AcDbEntity
8
Defpoints
62
0
6
ByLayer
370
-1
48
1
60
0
100
AcDbPoint
10
334.7234
20
-10.5
30
0
39
0
210
0
220
0
230
1
50
360
0
POINT
5
3AD
100
AcDbEntity
8
Defpoints
62
0
6
ByLayer
370
-1
48
1
60
0
100
AcDbPoint
10
336
20
0
30
0
39
0
210
0
220
0
230
1
50
360
0
POINT
5
3AE
100
AcDbEntity
8
Defpoints
62
0
6
ByLayer
370
-1
48
1
60
0
100
AcDbPoint
10
336
20
-50.1
30
0
39
0
210
0
220
0
230
1
50
360
0
ENDBLK
5
3A3
100
AcDbEntity
8
0
100
AcDbBlockEnd
0
BLOCK
5
3B6
100
AcDbEntity
8
0
100
AcDbBlockBegin
2
_U4
70
0
10
0
20
0
30
0
3
_U4
0
MTEXT
5
3B0
100
AcDbEntity
8
2
62
256
6
ByLayer
370
18
48
1
60
0
100
AcDbMText
10
348.351
20
-48.772328
30
0
210
0
220
0
230
1
1
\W0.6563;1.28
40
4.5
41
0
44
1.084337
50
0
71
7
72
5
7
iso_b_vert
0
LINE
5
3B1
100
AcDbEntity
8
2
62
256
6
ByLayer
370
13
48
1
60
0
100
AcDbLine
10
334.7234
20
-12.0875
30
0
11
334.7234
21
-53.275
31
0
39
0
210
0
220
0
230
1
0
LINE
5
3B2
100
AcDbEntity
8
2
62
256
6
ByLayer
370
13
48
1
60
0
100
AcDbLine
10
336
20
-1.5875
30
0
11
336
21
-53.275
31
0
39
0
210
0
220
0
230
1
0
LINE
5
3B3
100
AcDbEntity
8
2
62
256
6
ByLayer
370
13
48
1
60
0
100
AcDbLine
10
357.549041
20
-50.1
30
0
11
323.4734
21
-50.1
31
0
39
0
210
0
220
0
230
1
0
SOLID
5
3B4
100
AcDbEntity
8
2
62
256
6
ByLayer
370
18
48
1
60
0
100
AcDbTrace
10
334.7234
20
-50.1
30
0
11
330.548403
21
-51.025575
31
0
12
330.548397
22
-49.174425
32
0
13
330.548397
23
-49.174425
33
0
39
0
210
0
220
0
230
1
0
SOLID
5
3B5
100
AcDbEntity
8
2
62
256
6
ByLayer
370
18
48
1
60
0
100
AcDbTrace
10
336
20
-50.1
30
0
11
340.174997
21
-49.174425
31
0
12
340.175003
22
-51.025575
32
0
13
340.175003
23
-51.025575
33
0
39
0
210
0
220
0
230
1
0
ENDBLK
5
3B7
100
AcDbEntity
8
0
100
AcDbBlockEnd
0
ENDSEC
0
SECTION
2
ENTITIES
0
ARC
5
175
100
AcDbEntity
8
SK1
62
256
6
ByLayer
370
13
48
1
60
0
100
AcDbCircle
39
0
10
-0.15
20
25.146
30
0
40
0.399999999999999
210
0
220
0
230
1
100
AcDbArc
50
270
51
292.024313
0
ARC
5
176
100
AcDbEntity
8
SK1
62
256
6
ByLayer
370
13
48
1
60
0
100
AcDbCircle
39
0
10
-0.15
20
-25.146
30
0
40
0.399999999999999
210
0
220
0
230
1
100
AcDbArc
50
67.975687
51
90
0
ARC
5
177
100
AcDbEntity
8
SK1
62
256
6
ByLayer
370
13
48
1
60
0
100
AcDbCircle
39
0
10
-1.375195
20
25.146
30
0
40
0.400000000000004
210
0
220
0
230
1
100
AcDbArc
50
245
51
270
0
ARC
5
178
100
AcDbEntity
8
SK1
62
256
6
ByLayer
370
13
48
1
60
0
100
AcDbCircle
39
0
10
-1.375195
20
-25.146
30
0
40
0.400000000000004
210
0
220
0
230
1
100
AcDbArc
50
90
51
115
0
ARC
5
179
100
AcDbEntity
8
1
62
256
6
ByLayer
370
13
48
1
60
0
100
AcDbCircle
39
0
10
332.546286
20
19.518766
30
0
40
0.2
210
0
220
0
230
1
100
AcDbArc
50
8.974534
51
93
0
ARC
5
17A
100
AcDbEntity
8
1
62
256
6
ByLayer
370
13
48
1
60
0
100
AcDbCircle
39
0
10
332.692333
20
6.697667
30
0
40
0.2
210
0
220
0
230
1
100
AcDbArc
50
273
51
352.543899
0
ARC
5
17B
100
AcDbEntity
8
1
62
256
6
ByLayer
370
13
48
1
60
0
100
AcDbCircle
39
0
10
319.925347
20
18.622762
30
0
40
0.2
210
0
220
0
230
1
100
AcDbArc
50
76.847115
51
93
0
ARC
5
17C
100
AcDbEntity
8
1
62
256
6
ByLayer
370
13
48
1
60
0
100
AcDbCircle
39
0
10
320.071393
20
5.801663
30
0
40
0.2
210
0
220
0
230
1
100
AcDbArc
50
273
51
304.880681
0
ELLIPSE
5
17D
100
AcDbEntity
8
1
62
256
6
ByLayer
370
18
48
1
60
0
100
AcDbEllipse
10
326.059023
20
14.132458
30
0
11
-0.391877312292564
21
-0.0205374196881789
31
0
210
0
220
0
230
1
40
0.491826
41
0.288932900934527
42
1.5707963267949
0
ELLIPSE
5
17E
100
AcDbEntity
8
1
62
256
6
ByLayer
370
18
48
1
60
0
100
AcDbEllipse
10
326.806936
20
13.972743
30
0
11
-0.349478313243794
21
0.179405951069301
31
0
210
0
220
0
230
1
40
0.490768
41
2.94809584056043
42
-0.625095735375517
0
ELLIPSE
5
17F
100
AcDbEntity
8
1
62
256
6
ByLayer
370
18
48
1
60
0
100
AcDbEllipse
10
326.281937
20
12.658804
30
0
11
0.087735997045646
21
-1.67410255206257
31
0
210
0
220
0
230
1
40
0.995725
41
0.523598775598324
42
1.5707963267949
0
ELLIPSE
5
180
100
AcDbEntity
8
1
62
256
6
ByLayer
370
18
48
1
60
0
100
AcDbEllipse
10
327.375169
20
13.458766
30
0
11
-0.213416480919518
21
0.330813521384315
31
0
210
0
220
0
230
1
40
0.48867
41
0.291314926058362
42
1.5731783519364
0
ELLIPSE
5
181
100
AcDbEntity
8
1
62
256
6
ByLayer
370
18
48
1
60
0
100
AcDbEllipse
10
326.136653
20
12.65119
30
0
11
0.0675290843402512
21
-1.28853168869383
31
0
210
0
220
0
230
1
40
0.995725
41
2.09439510239319
42
3.14159265358979
0
ELLIPSE
5
182
100
AcDbEntity
8
1
62
256
6
ByLayer
370
18
48
1
60
0
100
AcDbEllipse
10
326.136653
20
12.65119
30
0
11
-0.067529084340268
21
1.28853168869383
31
0
210
0
220
0
230
1
40
0.995725
41
-3.03890209425327
42
-2.09439510239319
0
ELLIPSE
5
183
100
AcDbEntity
8
1
62
256
6
ByLayer
370
18
48
1
60
0
100
AcDbEllipse
10
326.214283
20
11.169923
30
0
11
-0.391877312293948
21
-0.0205374196884099
31
0
210
0
220
0
230
1
40
0.491826
41
-1.5707963267949
42
-0.288932900933812
0
ELLIPSE
5
184
100
AcDbEntity
8
1
62
256
6
ByLayer
370
18
48
1
60
0
100
AcDbEllipse
10
326.208142
20
12.654937
30
0
11
-0.149157475292384
21
2.84609417405054
31
0
210
0
220
0
230
1
40
0.995725
41
9.25163458699478E-05
42
3.14158693516111
0
ELLIPSE
5
185
100
AcDbEntity
8
1
62
256
6
ByLayer
370
18
48
1
60
0
100
AcDbEllipse
10
326.136653
20
12.65119
30
0
11
0.0675290843402512
21
-1.28853168869383
31
0
210
0
220
0
230
1
40
0.995725
41
3.14159265358979
42
-2.34982975905695
0
ELLIPSE
5
186
100
AcDbEntity
8
1
62
256
6
ByLayer
370
18
48
1
60
0
100
AcDbEllipse
10
325.46637
20
11.329637
30
0
11
-0.349478313243806
21
0.179405951069316
31
0
210
0
220
0
230
1
40
0.490768
41
2.51649656479998
42
-2.94329838355303
0
ELLIPSE
5
187
100
AcDbEntity
8
1
62
256
6
ByLayer
370
18
48
1
60
0
100
AcDbEllipse
10
326.274632
20
12.658421
30
0
11
-0.149157475292384
21
2.84609417405054
31
0
210
0
220
0
230
1
40
0.995725
41
0
42
6.28318530717959
0
ELLIPSE
5
188
100
AcDbEntity
8
1
62
256
6
ByLayer
370
18
48
1
60
0
100
AcDbEllipse
10
326.281937
20
12.658804
30
0
11
0.087735997045646
21
-1.67410255206257
31
0
210
0
220
0
230
1
40
0.995725
41
-0.523598775598262
42
0.523598775598324
0
ELLIPSE
5
189
100
AcDbEntity
8
1
62
256
6
ByLayer
370
18
48
1
60
0
100
AcDbEllipse
10
327.452799
20
11.977499
30
0
11
-0.177667934094769
21
-0.351309387092713
31
0
210
0
220
0
230
1
40
0.48867
41
-2.8550417777783
42
-1.57317835192018
0
ELLIPSE
5
18A
100
AcDbEntity
8
1
62
256
6
ByLayer
370
18
48
1
60
0
100
AcDbEllipse
10
327.611687
20
12.728494
30
0
11
-0.0206256003553515
21
0.393559899646816
31
0
210
0
220
0
230
1
40
0.48763
41
-2.94566969474627
42
-0.320422399685779
0
ELLIPSE
5
18B
100
AcDbEntity
8
1
62
256
6
ByLayer
370
18
48
1
60
0
100
AcDbEllipse
10
326.281937
20
12.658804
30
0
11
0.087735997045646
21
-1.67410255206257
31
0
210
0
220
0
230
1
40
0.995725
41
-1.5707963267949
42
-0.523598775598262
0
ELLIPSE
5
18C
100
AcDbEntity
8
1
62
256
6
ByLayer
370
18
48
1
60
0
100
AcDbEllipse
10
326.281937
20
12.658804
30
0
11
0.087735997045646
21
-1.67410255206257
31
0
210
0
220
0
230
1
40
0.995725
41
1.5707963267949
42
2.61799387799149
0
ELLIPSE
5
18D
100
AcDbEntity
8
1
62
256
6
ByLayer
370
18
48
1
60
0
100
AcDbEllipse
10
327.375169
20
13.458766
30
0
11
-0.213416480926262
21
0.330813521389892
31
0
210
0
220
0
230
1
40
0.48867
41
1.57317835192191
42
2.85504177777927
0
ELLIPSE
5
18E
100
AcDbEntity
8
1
62
256
6
ByLayer
370
18
48
1
60
0
100
AcDbEllipse
10
326.281937
20
12.658804
30
0
11
0.087735997045646
21
-1.67410255206257
31
0
210
0
220
0
230
1
40
0.995725
41
2.61799387799149
42
-2.6179938779915
0
ELLIPSE
5
18F
100
AcDbEntity
8
1
62
256
6
ByLayer
370
18
48
1
60
0
100
AcDbEllipse
10
326.281937
20
12.658804
30
0
11
0.087735997045646
21
-1.67410255206257
31
0
210
0
220
0
230
1
40
0.995725
41
-2.6179938779915
42
-1.5707963267949
0
ELLIPSE
5
190
100
AcDbEntity
8
1
62
256
6
ByLayer
370
18
48
1
60
0
100
AcDbEllipse
10
327.452799
20
11.977499
30
0
11
-0.177667934087757
21
-0.351309387086543
31
0
210
0
220
0
230
1
40
0.48867
41
-1.57317835193872
42
-0.291314926058459
0
ELLIPSE
5
191
100
AcDbEntity
8
1
62
256
6
ByLayer
370
18
48
1
60
0
100
AcDbEllipse
10
326.136653
20
12.65119
30
0
11
0.0675290843402512
21
-1.28853168869383
31
0
210
0
220
0
230
1
40
0.995725
41
1.0471975511966
42
2.0943951023932
0
ELLIPSE
5
192
100
AcDbEntity
8
1
62
256
6
ByLayer
370
18
48
1
60
0
100
AcDbEllipse
10
326.281937
20
12.658804
30
0
11
-0.0942047212372956
21
1.79753316255823
31
0
210
0
220
0
230
1
40
0.995725
41
0
42
6.28318530717959
0
ELLIPSE
5
193
100
AcDbEntity
8
1
62
256
6
ByLayer
370
18
48
1
60
0
100
AcDbEllipse
10
325.331902
20
13.89544
30
0
11
-0.328810806110987
21
-0.214953577526582
31
0
210
0
220
0
230
1
40
0.490768
41
2.94329838355269
42
-2.46819100314341
0
ELLIPSE
5
194
100
AcDbEntity
8
1
62
256
6
ByLayer
370
18
48
1
60
0
100
AcDbEllipse
10
326.136653
20
12.65119
30
0
11
0.0675290843402512
21
-1.28853168869383
31
0
210
0
220
0
230
1
40
0.995725
41
-1.89415109854865
42
-1.2315038024086
0
ELLIPSE
5
195
100
AcDbEntity
8
1
62
256
6
ByLayer
370
18
48
1
60
0
100
AcDbEllipse
10
326.941404
20
11.40694
30
0
11
-0.328810806110962
21
-0.214953577526554
31
0
210
0
220
0
230
1
40
0.490768
41
0.673401308867333
42
-2.94809584056054
0
ELLIPSE
5
196
100
AcDbEntity
8
1
62
256
6
ByLayer
370
18
48
1
60
0
100
AcDbEllipse
10
326.136653
20
12.65119
30
0
11
0.0675290843402512
21
-1.28853168869383
31
0
210
0
220
0
230
1
40
0.995725
41
-0.773927979467087
42
4.42435617961647E-14
0
ELLIPSE
5
197
100
AcDbEntity
8
1
62
256
6
ByLayer
370
18
48
1
60
0
100
AcDbEllipse
10
327.204527
20
-6.011651
30
0
11
2
21
0
31
0
210
0
220
0
230
1
40
0.992717
41
0.403203635028846
42
3.14159252542358
0
ELLIPSE
5
198
100
AcDbEntity
8
1
62
256
6
ByLayer
370
18
48
1
60
0
100
AcDbEllipse
10
327.204527
20
-5.951417
30
0
11
-1.5
21
1.51595858262354E-15
31
0
210
0
220
0
230
1
40
0.992717
41
-3.14159261386665
42
0
0
ELLIPSE
5
199
100
AcDbEntity
8
1
62
256
6
ByLayer
370
18
48
1
60
0
100
AcDbEllipse
10
327.204527
20
-5.951417
30
0
11
-1.5
21
1.51595858262354E-15
31
0
210
0
220
0
230
1
40
0.992717
41
0
42
0.556356357381937
0
ELLIPSE
5
19A
100
AcDbEntity
8
1
62
256
6
ByLayer
370
18
48
1
60
0
100
AcDbEllipse
10
327.204527
20
-5.951417
30
0
11
-1.5
21
1.51595858262354E-15
31
0
210
0
220
0
230
1
40
0.992717
41
3.03664385289344
42
-3.14159261386664
0
ELLIPSE
5
19B
100
AcDbEntity
8
1
62
256
6
ByLayer
370
18
48
1
60
0
100
AcDbEllipse
10
327.204527
20
-6.859943
30
0
11
-2.35
21
2.37500177944355E-15
31
0
210
0
220
0
230
1
40
0.992717
41
-0.595429969367703
42
-0.475656593842542
0
ELLIPSE
5
19C
100
AcDbEntity
8
1
62
256
6
ByLayer
370
13
48
1
60
0
100
AcDbEllipse
10
333.532407
20
13.274681
30
0
11
0.197551554484213
21
0.0311990916674006
31
0
210
0
220
0
230
1
40
0.009655
41
-1.47879775232113
42
0.000129454960721397
0
ELLIPSE
5
19D
100
AcDbEntity
8
1
62
256
6
ByLayer
370
13
48
1
60
0
100
AcDbEllipse
10
319.572381
20
12.123612
30
0
11
-0.0366351693700579
21
0.699040674328175
31
0
210
0
220
0
230
1
40
0.995725
41
1.38753675533555
42
1.67551608191456
0
ELLIPSE
5
19E
100
AcDbEntity
8
1
62
256
6
ByLayer
370
13
48
1
60
0
100
AcDbEllipse
10
333.667516
20
19.038794
30
0
11
0.0994383168615647
21
-1.89739611603369
31
0
210
0
220
0
230
1
40
0.995725
41
3.11423538092924
42
3.13286600732959
0
ELLIPSE
5
19F
100
AcDbEntity
8
1
62
256
6
ByLayer
370
13
48
1
60
0
100
AcDbEllipse
10
332.546286
20
19.518766
30
0
11
0.0104671912485858
21
-0.199725906950915
31
0
210
0
220
0
230
1
40
0.995725
41
3.14157394909735
42
-2.58708947813849
0
ELLIPSE
5
1A0
100
AcDbEntity
8
1
62
256
6
ByLayer
370
13
48
1
60
0
100
AcDbEllipse
10
331.342123
20
21.260422
30
0
11
-0.0942047212372957
21
1.79753316255824
31
0
210
0
220
0
230
1
40
0.995725
41
3.1415926535896
42
-1.87965793449112
0
ELLIPSE
5
1A1
100
AcDbEntity
8
1
62
256
6
ByLayer
370
13
48
1
60
0
100
AcDbEllipse
10
319.576993
20
12.123854
30
0
11
0.0366351693700488
21
-0.699040674328175
31
0
210
0
220
0
230
1
40
0.995725
41
-1.75405589825424
42
-1.46607657167523
0
ELLIPSE
5
1A2
100
AcDbEntity
8
1
62
256
6
ByLayer
370
13
48
1
60
0
100
AcDbEllipse
10
319.02195
20
4.533062
30
0
11
0.00653729335066879
21
-0.149857478277353
31
0
210
0
220
0
230
1
40
0.092367
41
-1.56998679074977
42
0.000809536045656196
0
ELLIPSE
5
1A3
100
AcDbEntity
8
1
62
256
6
ByLayer
370
13
48
1
60
0
100
AcDbEllipse
10
318.572052
20
5.082108
30
0
11
0.0366351693700515
21
-0.699040674328226
31
0
210
0
220
0
230
1
40
0.995725
41
-1.46607657167508
42
-0.0773624824588662
0
ELLIPSE
5
1A4
100
AcDbEntity
8
1
62
256
6
ByLayer
370
13
48
1
60
0
100
AcDbEllipse
10
319.580523
20
18.708973
30
0
11
-0.157381426364184
21
-0.0466723701494497
31
0
210
0
220
0
230
1
40
0.019797
41
-3.05943361686752
42
-1.48863728977488
0
ELLIPSE
5
1A5
100
AcDbEntity
8
1
62
256
6
ByLayer
370
13
48
1
60
0
100
AcDbEllipse
10
318.736455
20
11.990832
30
0
11
-0.148163665863161
21
-0.0233993187505443
31
0
210
0
220
0
230
1
40
0.009655
41
-3.04959407911495
42
-1.47879775232179
0
ELLIPSE
5
1A6
100
AcDbEntity
8
1
62
256
6
ByLayer
370
13
48
1
60
0
100
AcDbEllipse
10
334.874155
20
6.90423
30
0
11
0.00785039343643922
21
-0.149794430213184
31
0
210
0
220
0
230
1
40
0.995725
41
0.104719755118906
42
1.38753675533509
0
ELLIPSE
5
1A7
100
AcDbEntity
8
1
62
256
6
ByLayer
370
13
48
1
60
0
100
AcDbEllipse
10
333.358082
20
20.776919
30
0
11
-0.00653729335066904
21
0.149857478277353
31
0
210
0
220
0
230
1
40
0.092367
41
0.000809536037578964
42
1.57160586284002
0
ELLIPSE
5
1A8
100
AcDbEntity
8
1
62
256
6
ByLayer
370
13
48
1
60
0
100
AcDbEllipse
10
318.989506
20
4.53195
30
0
11
0.00373239490690341
21
-0.149953556904326
31
0
210
0
220
0
230
1
40
0.092336
41
-1.56825879134052
42
-0.0414707750420566
0
ELLIPSE
5
1A9
100
AcDbEntity
8
1
62
256
6
ByLayer
370
13
48
1
60
0
100
AcDbEllipse
10
332.692333
20
6.697667
30
0
11
0.0104671912485858
21
-0.199725906950915
31
0
210
0
220
0
230
1
40
0.995725
41
-0.280778212087117
42
2.11747648865027E-05
0
ELLIPSE
5
1AA
100
AcDbEntity
8
1
62
256
6
ByLayer
370
13
48
1
60
0
100
AcDbEllipse
10
317.734299
20
18.415715
30
0
11
-0.14873168642478
21
0.0194649801757105
31
0
210
0
220
0
230
1
40
0.016833
41
0.263130755745252
42
1.47983423648661
0
ELLIPSE
5
1AB
100
AcDbEntity
8
1
62
256
6
ByLayer
370
13
48
1
60
0
100
AcDbEllipse
10
333.875234
20
13.085199
30
0
11
0.148731686424786
21
-0.0194649801756665
31
0
210
0
220
0
230
1
40
0.016833
41
-2.8580497787887
42
-1.66175841710513
0
ELLIPSE
5
1AC
100
AcDbEntity
8
1
62
256
6
ByLayer
370
13
48
1
60
0
100
AcDbEllipse
10
321.275556
20
4.060006
30
0
11
-0.0942047212372957
21
1.79753316255824
31
0
210
0
220
0
230
1
40
0.995725
41
0
42
1.26193471909914
0
ELLIPSE
5
1AD
100
AcDbEntity
8
1
62
256
6
ByLayer
370
13
48
1
60
0
100
AcDbEllipse
10
333.824885
20
12.040058
30
0
11
-0.457939617125741
21
8.73800842910252
31
0
210
0
220
0
230
1
40
0.995725
41
-0.0773624824592522
42
-0.0273572726604767
0
ELLIPSE
5
1AE
100
AcDbEntity
8
1
62
256
6
ByLayer
370
13
48
1
60
0
100
AcDbEllipse
10
333.31092
20
20.741432
30
0
11
0.0127690523125353
21
-0.243648032548307
31
0
210
0
220
0
230
1
40
0.995725
41
-2.96705972839084
42
-1.87965793449098
0
ELLIPSE
5
1AF
100
AcDbEntity
8
1
62
256
6
ByLayer
370
13
48
1
60
0
100
AcDbEllipse
10
334.874155
20
6.90423
30
0
11
-0.0235312926467606
21
0.148142763125211
31
0
210
0
220
0
230
1
40
0.091865
41
1.56109981833785
42
3.13189614514464
0
ELLIPSE
5
1B0
100
AcDbEntity
8
1
62
256
6
ByLayer
370
13
48
1
60
0
100
AcDbEllipse
10
332.974494
20
6.551369
30
0
11
0.00523359562429226
21
-0.0998629534754456
31
0
210
0
220
0
230
1
40
0.995725
41
-1.75405589825434
42
0.104719755119176
0
ELLIPSE
5
1B1
100
AcDbEntity
8
1
62
256
6
ByLayer
370
13
48
1
60
0
100
AcDbEllipse
10
333.843333
20
12.041025
30
0
11
0.465790010562067
21
-8.88780285931572
31
0
210
0
220
0
230
1
40
0.995725
41
3.06423017113029
42
3.11423538092908
0
ELLIPSE
5
1B2
100
AcDbEntity
8
1
62
256
6
ByLayer
370
13
48
1
60
0
100
AcDbEllipse
10
333.027931
20
6.610972
30
0
11
-0.0427993177742593
21
-0.158580925143779
31
0
210
0
220
0
230
1
40
0.080206
41
-1.54458133975152
42
0.0262149871181983
0
ELLIPSE
5
1B3
100
AcDbEntity
8
1
62
256
6
ByLayer
370
13
48
1
60
0
100
AcDbEllipse
10
333.649067
20
19.037827
30
0
11
-0.091587923425148
21
1.7476016858205
31
0
210
0
220
0
230
1
40
0.995725
41
-0.0273572726602751
42
-0.00872664625995484
0
ELLIPSE
5
1B4
100
AcDbEntity
8
1
62
256
6
ByLayer
370
13
48
1
60
0
100
AcDbEllipse
10
333.346428
20
20.726241
30
0
11
-0.00261679781214721
21
0.0499314767377309
31
0
210
0
220
0
230
1
40
0.995725
41
-0.00872664625923374
42
1.26193471909935
0
ELLIPSE
5
1B5
100
AcDbEntity
8
1
62
256
6
ByLayer
370
13
48
1
60
0
100
AcDbEllipse
10
319.08337
20
12.189227
30
0
11
-0.198308915233041
21
0.0259533069009473
31
0
210
0
220
0
230
1
40
0.016833
41
-1.66175841710548
42
-0.0909620903105779
0
ELLIPSE
5
1B6
100
AcDbEntity
8
1
62
256
6
ByLayer
370
13
48
1
60
0
100
AcDbEllipse
10
331.583164
20
21.27306
30
0
11
-2.06115162188987
21
-1.588274736142
31
0
210
0
220
0
230
1
40
0.479617
41
1.82992950565873
42
1.86916258027477
0
ELLIPSE
5
1B7
100
AcDbEntity
8
1
62
256
6
ByLayer
370
13
48
1
60
0
100
AcDbEllipse
10
332.969881
20
6.551127
30
0
11
0.00523359562429226
21
-0.0998629534754456
31
0
210
0
220
0
230
1
40
0.995725
41
-6.34410812906269E-06
42
0.104719755119158
0
ELLIPSE
5
1B8
100
AcDbEntity
8
1
62
256
6
ByLayer
370
13
48
1
60
0
100
AcDbEllipse
10
320.071393
20
5.801663
30
0
11
0.114373860316104
21
-0.164068949153678
31
0
210
0
220
0
230
1
40
0.07853
41
3.35013654188422E-05
42
1.52199123907642
0
ELLIPSE
5
1B9
100
AcDbEntity
8
1
62
256
6
ByLayer
370
13
48
1
60
0
100
AcDbEllipse
10
326.249051
20
12.657081
30
0
11
0.16148876483002
21
-3.08138919525489
31
0
210
0
220
0
230
1
40
0.995725
41
-0.853733431166172
42
0
0
ELLIPSE
5
1BA
100
AcDbEntity
8
1
62
256
6
ByLayer
370
13
48
1
60
0
100
AcDbEllipse
10
326.249051
20
12.657081
30
0
11
0.16148876483002
21
-3.08138919525489
31
0
210
0
220
0
230
1
40
0.995725
41
0
42
-2.28787053660727
0
ELLIPSE
5
1BB
100
AcDbEntity
8
1
62
256
6
ByLayer
370
13
48
1
60
0
100
AcDbEllipse
10
334.874155
20
6.90423
30
0
11
0.148731686424786
21
-0.0194649801756665
31
0
210
0
220
0
230
1
40
0.016833
41
-1.66175841710777
42
-0.090962090310911
0
ELLIPSE
5
1BC
100
AcDbEntity
8
1
62
256
6
ByLayer
370
13
48
1
60
0
100
AcDbEllipse
10
319.643186
20
18.76906
30
0
11
0.00523359562429226
21
-0.0998629534754456
31
0
210
0
220
0
230
1
40
0.995725
41
1.38753675533603
42
-3.03687289847007
0
ELLIPSE
5
1BD
100
AcDbEntity
8
1
62
256
6
ByLayer
370
13
48
1
60
0
100
AcDbEllipse
10
334.425717
20
5.944881
30
0
11
-0.0435637040426528
21
-0.259139630115225
31
0
210
0
220
0
230
1
40
0.947521
41
0.308152981427326
42
1.28542437772257
0
ELLIPSE
5
1BE
100
AcDbEntity
8
1
62
256
6
ByLayer
370
13
48
1
60
0
100
AcDbEllipse
10
318.755897
20
13.278437
30
0
11
-0.457939617125741
21
8.73800842910252
31
0
210
0
220
0
230
1
40
0.995725
41
3.0642301711305
42
3.11423538092927
0
ELLIPSE
5
1BF
100
AcDbEntity
8
1
62
256
6
ByLayer
370
13
48
1
60
0
100
AcDbEllipse
10
333.027931
20
6.610972
30
0
11
-0.157381426383975
21
-0.0466723701563291
31
0
210
0
220
0
230
1
40
0.019797
41
-1.48863729015334
42
-0.271936942513948
0
ELLIPSE
5
1C0
100
AcDbEntity
8
1
62
256
6
ByLayer
370
13
48
1
60
0
100
AcDbEllipse
10
334.045628
20
20.23832
30
0
11
0.0366351693700515
21
-0.699040674328226
31
0
210
0
220
0
230
1
40
0.995725
41
1.67551608191422
42
3.06423017113051
0
ELLIPSE
5
1C1
100
AcDbEntity
8
1
62
256
6
ByLayer
370
13
48
1
60
0
100
AcDbEllipse
10
317.638498
20
19.346542
30
0
11
-0.0435637040116912
21
-0.259139630124276
31
0
210
0
220
0
230
1
40
0.947521
41
-2.83343967227607
42
-2.19739446885983
0
ELLIPSE
5
1C2
100
AcDbEntity
8
1
62
256
6
ByLayer
370
13
48
1
60
0
100
AcDbEllipse
10
319.306759
20
4.578997
30
0
11
0.0127690523125353
21
-0.243648032548307
31
0
210
0
220
0
230
1
40
0.995725
41
0.174532925199193
42
1.2619347190993
0
ELLIPSE
5
1C3
100
AcDbEntity
8
1
62
256
6
ByLayer
370
13
48
1
60
0
100
AcDbEllipse
10
318.159874
20
19.947399
30
0
11
-0.300351321617002
21
0.184900888636914
31
0
210
0
220
0
230
1
40
0.479615
41
-1.86916058275261
42
-0.781758788894103
0
ELLIPSE
5
1C4
100
AcDbEntity
8
1
62
256
6
ByLayer
370
13
48
1
60
0
100
AcDbEllipse
10
335.153411
20
13.223876
30
0
11
0.0366351693700517
21
-0.69904067432823
31
0
210
0
220
0
230
1
40
0.995725
41
1.38753675533524
42
1.67551608191431
0
ELLIPSE
5
1C5
100
AcDbEntity
8
1
62
256
6
ByLayer
370
13
48
1
60
0
100
AcDbEllipse
10
317.737405
20
18.404151
30
0
11
-0.0435637040281113
21
-0.259139630119385
31
0
210
0
220
0
230
1
40
0.947521
41
-2.83343967221768
42
-1.53236303201747
0
ELLIPSE
5
1C6
100
AcDbEntity
8
1
62
256
6
ByLayer
370
13
48
1
60
0
100
AcDbEllipse
10
326.327288
20
12.661181
30
0
11
0.164592752017089
21
-3.14061679904833
31
0
210
0
220
0
230
1
40
0.995725
41
0
42
6.28318530717959
0
ELLIPSE
5
1C7
100
AcDbEntity
8
1
62
256
6
ByLayer
370
13
48
1
60
0
100
AcDbEllipse
10
321.257107
20
4.059039
30
0
11
0.107288710298005
21
-2.04719054624689
31
0
210
0
220
0
230
1
40
0.995725
41
-2.36773979636923
42
-1.87965793449089
0
ELLIPSE
5
1C8
100
AcDbEntity
8
1
62
256
6
ByLayer
370
13
48
1
60
0
100
AcDbEllipse
10
320.071393
20
5.801663
30
0
11
0.197551554484213
21
0.0311990916674006
31
0
210
0
220
0
230
1
40
0.009655
41
-3.04959407911204
42
-1.47879775232231
0
ELLIPSE
5
1C9
100
AcDbEntity
8
1
62
256
6
ByLayer
370
13
48
1
60
0
100
AcDbEllipse
10
331.323675
20
21.259455
30
0
11
0.107288710298005
21
-2.04719054624689
31
0
210
0
220
0
230
1
40
0.995725
41
0.77385285722057
42
1.26193471909893
0
ELLIPSE
5
1CA
100
AcDbEntity
8
1
62
256
6
ByLayer
370
13
48
1
60
0
100
AcDbEllipse
10
317.738912
20
18.415956
30
0
11
0.00785039343643922
21
-0.149794430213184
31
0
210
0
220
0
230
1
40
0.995725
41
-3.03687289847091
42
-1.75405589825432
0
ELLIPSE
5
1CB
100
AcDbEntity
8
1
62
256
6
ByLayer
370
13
48
1
60
0
100
AcDbEllipse
10
333.534309
20
13.131202
30
0
11
0.198308915233048
21
-0.0259533069008886
31
0
210
0
220
0
230
1
40
0.016833
41
0.000152472671805025
42
1.47983423648403
0
ELLIPSE
5
1CC
100
AcDbEntity
8
1
62
256
6
ByLayer
370
13
48
1
60
0
100
AcDbEllipse
10
331.263888
20
21.256322
30
0
11
-1.59242934828601
21
-1.39349696571719
31
0
210
0
220
0
230
1
40
0.74335
41
1.15768450152291
42
1.97984155688512
0
ELLIPSE
5
1CD
100
AcDbEntity
8
1
62
256
6
ByLayer
370
13
48
1
60
0
100
AcDbEllipse
10
319.085272
20
12.045748
30
0
11
-0.197551554484215
21
-0.0311990916673925
31
0
210
0
220
0
230
1
40
0.009655
41
0.0919985744772729
42
1.66279490126838
0
ELLIPSE
5
1CE
100
AcDbEntity
8
1
62
256
6
ByLayer
370
13
48
1
60
0
100
AcDbEllipse
10
318.553871
20
4.532048
30
0
11
-0.00379960965785735
21
-0.149951868832795
31
0
210
0
220
0
230
1
40
0.092094
41
-1.56362690568473
42
-0.0717426686087798
0
ELLIPSE
5
1CF
100
AcDbEntity
8
1
62
256
6
ByLayer
370
13
48
1
60
0
100
AcDbEllipse
10
316.918763
20
12.010394
30
0
11
-0.148163665863161
21
-0.0233993187505443
31
0
210
0
220
0
230
1
40
0.009655
41
-1.47879775232066
42
-0.264819008247486
0
ELLIPSE
5
1D0
100
AcDbEntity
8
1
62
256
6
ByLayer
370
13
48
1
60
0
100
AcDbEllipse
10
320.071393
20
5.801663
30
0
11
0.0104671912485858
21
-0.199725906950915
31
0
210
0
220
0
230
1
40
0.995725
41
-1.46607657167503
42
-1.72590766345903E-05
0
ELLIPSE
5
1D1
100
AcDbEntity
8
1
62
256
6
ByLayer
370
13
48
1
60
0
100
AcDbEllipse
10
333.662904
20
19.038552
30
0
11
0.0994383168615647
21
-1.89739611603369
31
0
210
0
220
0
230
1
40
0.995725
41
3.11423538092957
42
3.1328660073298
0
ELLIPSE
5
1D2
100
AcDbEntity
8
1
62
256
6
ByLayer
370
13
48
1
60
0
100
AcDbEllipse
10
319.24819
20
4.592979
30
0
11
0.0104671912485859
21
-0.199725906950917
31
0
210
0
220
0
230
1
40
0.995725
41
0.0114035669053286
42
1.26193471909874
0
ELLIPSE
5
1D3
100
AcDbEntity
8
1
62
256
6
ByLayer
370
13
48
1
60
0
100
AcDbEllipse
10
333.872
20
13.329113
30
0
11
0.14816366586316
21
0.0233993187505504
31
0
210
0
220
0
230
1
40
0.009655
41
1.66279490126989
42
2.85602956830955
0
ELLIPSE
5
1D4
100
AcDbEntity
8
1
62
256
6
ByLayer
370
13
48
1
60
0
100
AcDbEllipse
10
334.027179
20
20.237353
30
0
11
-0.0287847759336193
21
0.54924624411504
31
0
210
0
220
0
230
1
40
0.995725
41
-1.46607657167533
42
-0.0773624824591321
0
ELLIPSE
5
1D5
100
AcDbEntity
8
1
62
256
6
ByLayer
370
13
48
1
60
0
100
AcDbEllipse
10
331.342123
20
21.260422
30
0
11
-0.0994383168615901
21
1.89739611603371
31
0
210
0
220
0
230
1
40
0.995725
41
-2.37978474864666
42
-1.87965793449111
0
ELLIPSE
5
1D6
100
AcDbEntity
8
1
62
256
6
ByLayer
370
13
48
1
60
0
100
AcDbEllipse
10
333.022237
20
13.195608
30
0
11
0.0444855628064881
21
-0.848835104541361
31
0
210
0
220
0
230
1
40
0.995725
41
1.38753675533554
42
1.67551608191461
0
ELLIPSE
5
1D7
100
AcDbEntity
8
1
62
256
6
ByLayer
370
13
48
1
60
0
100
AcDbEllipse
10
325.984095
20
18.85671
30
0
11
0.0104671912485858
21
-0.199725906950915
31
0
210
0
220
0
230
1
40
0.092371
41
1.5707963267949
42
3.14159265358364
0
ELLIPSE
5
1D8
100
AcDbEntity
8
1
62
256
6
ByLayer
370
13
48
1
60
0
100
AcDbEllipse
10
332.692333
20
6.697667
30
0
11
0.0455100421907785
21
0.194753269702446
31
0
210
0
220
0
230
1
40
0.088753
41
-3.11589220190964
42
-1.54509587511442
0
ELLIPSE
5
1D9
100
AcDbEntity
8
1
62
256
6
ByLayer
370
13
48
1
60
0
100
AcDbEllipse
10
335.691784
20
13.151724
30
0
11
0.148731686424786
21
-0.0194649801756665
31
0
210
0
220
0
230
1
40
0.016833
41
-1.66175841710626
42
-0.0909620903112957
0
ELLIPSE
5
1DA
100
AcDbEntity
8
1
62
256
6
ByLayer
370
13
48
1
60
0
100
AcDbEllipse
10
331.738288
20
4.608335
30
0
11
-1.40394107568942
21
-1.50837379635193
31
0
210
0
220
0
230
1
40
0.735668
41
2.56900210139562
42
-2.89202615041475
0
ELLIPSE
5
1DB
100
AcDbEntity
8
1
62
256
6
ByLayer
370
13
48
1
60
0
100
AcDbEllipse
10
332.790539
20
19.887166
30
0
11
0.0052335956242912
21
-0.0998629534754253
31
0
210
0
220
0
230
1
40
0.995725
41
-2.3797847486484
42
-1.46607657167529
0
ELLIPSE
5
1DC
100
AcDbEntity
8
1
62
256
6
ByLayer
370
13
48
1
60
0
100
AcDbEllipse
10
333.097982
20
20.730272
30
0
11
-0.279378559890766
21
-0.215283244289819
31
0
210
0
220
0
230
1
40
0.479615
41
-2.35983386470156
42
-1.27243207076549
0
ELLIPSE
5
1DD
100
AcDbEntity
8
1
62
256
6
ByLayer
370
13
48
1
60
0
100
AcDbEllipse
10
334.581909
20
20.323995
30
0
11
0.14816366586316
21
0.0233993187505504
31
0
210
0
220
0
230
1
40
0.009655
41
0.0919985744735827
42
1.66279490126826
0
ELLIPSE
5
1DE
100
AcDbEntity
8
1
62
256
6
ByLayer
370
13
48
1
60
0
100
AcDbEllipse
10
332.213517
20
4.63324
30
0
11
-0.0942047212372956
21
1.79753316255823
31
0
210
0
220
0
230
1
40
0.995725
41
-0.400544394528112
42
-2.22502370101826E-13
0
ELLIPSE
5
1DF
100
AcDbEntity
8
1
62
256
6
ByLayer
370
13
48
1
60
0
100
AcDbEllipse
10
318.774346
20
13.279404
30
0
11
0.465790010562067
21
-8.88780285931572
31
0
210
0
220
0
230
1
40
0.995725
41
-0.077362482459055
42
-0.0273572726602743
0
ELLIPSE
5
1E0
100
AcDbEntity
8
1
62
256
6
ByLayer
370
13
48
1
60
0
100
AcDbEllipse
10
326.22396
20
12.655766
30
0
11
0.156043507061148
21
-2.97748748746711
31
0
210
0
220
0
230
1
40
0.995725
41
0
42
6.28318530717959
0
ELLIPSE
5
1E1
100
AcDbEntity
8
1
62
256
6
ByLayer
370
13
48
1
60
0
100
AcDbEllipse
10
335.134962
20
13.222909
30
0
11
-0.0287847759336194
21
0.549246244115043
31
0
210
0
220
0
230
1
40
0.995725
41
-1.75405589825431
42
-1.46607657167522
0
ELLIPSE
5
1E2
100
AcDbEntity
8
1
62
256
6
ByLayer
370
13
48
1
60
0
100
AcDbEllipse
10
333.838721
20
12.040783
30
0
11
0.465790010562067
21
-8.88780285931572
31
0
210
0
220
0
230
1
40
0.995725
41
3.06423017113053
42
3.11423538092932
0
ELLIPSE
5
1E3
100
AcDbEntity
8
1
62
256
6
ByLayer
370
13
48
1
60
0
100
AcDbEllipse
10
319.252802
20
4.59322
30
0
11
0.0104671912485859
21
-0.199725906950917
31
0
210
0
220
0
230
1
40
0.995725
41
-0.00872664626069903
42
1.26193471909904
0
ELLIPSE
5
1E4
100
AcDbEntity
8
1
62
256
6
ByLayer
370
13
48
1
60
0
100
AcDbEllipse
10
320.404162
20
20.687188
30
0
11
-0.0942047212372956
21
1.79753316255823
31
0
210
0
220
0
230
1
40
0.995725
41
2.74104825906212
42
-3.14159265358957
0
ELLIPSE
5
1E5
100
AcDbEntity
8
1
62
256
6
ByLayer
370
13
48
1
60
0
100
AcDbEllipse
10
318.026546
20
4.99595
30
0
11
-0.148163665863161
21
-0.0233993187505443
31
0
210
0
220
0
230
1
40
0.009655
41
-1.4787977523211
42
-0.264793552090025
0
ELLIPSE
5
1E6
100
AcDbEntity
8
1
62
256
6
ByLayer
370
13
48
1
60
0
100
AcDbEllipse
10
319.925347
20
18.622762
30
0
11
-0.0455100421908198
21
-0.194753269702436
31
0
210
0
220
0
230
1
40
0.088753
41
1.5964967784748
42
-3.11589220191275
0
ELLIPSE
5
1E7
100
AcDbEntity
8
1
62
256
6
ByLayer
370
13
48
1
60
0
100
AcDbEllipse
10
319.827141
20
5.433263
30
0
11
0.0052335956242912
21
-0.0998629534754253
31
0
210
0
220
0
230
1
40
0.995725
41
0.761807904941554
42
1.67551608191508
0
ELLIPSE
5
1E8
100
AcDbEntity
8
1
62
256
6
ByLayer
370
13
48
1
60
0
100
AcDbEllipse
10
321.270944
20
4.059765
30
0
11
-0.0994383168615901
21
1.89739611603371
31
0
210
0
220
0
230
1
40
0.995725
41
0.761807904943355
42
1.2619347190989
0
ELLIPSE
5
1E9
100
AcDbEntity
8
1
62
256
6
ByLayer
370
13
48
1
60
0
100
AcDbEllipse
10
318.950163
20
6.281634
30
0
11
0.0994383168615647
21
-1.89739611603369
31
0
210
0
220
0
230
1
40
0.995725
41
-0.0273572726601003
42
-0.00872664625981132
0
ELLIPSE
5
1EA
100
AcDbEntity
8
1
62
256
6
ByLayer
370
13
48
1
60
0
100
AcDbEllipse
10
334.041015
20
20.238078
30
0
11
0.0366351693700515
21
-0.699040674328226
31
0
210
0
220
0
230
1
40
0.995725
41
1.67551608191455
42
3.06423017113068
0
ELLIPSE
5
1EB
100
AcDbEntity
8
1
62
256
6
ByLayer
370
13
48
1
60
0
100
AcDbEllipse
10
333.618949
20
20.787995
30
0
11
-0.0037323949069039
21
0.149953556904326
31
0
210
0
220
0
230
1
40
0.092336
41
0.00253753545169881
42
1.57333386224927
0
ELLIPSE
5
1EC
100
AcDbEntity
8
1
62
256
6
ByLayer
370
13
48
1
60
0
100
AcDbEllipse
10
332.546286
20
19.518766
30
0
11
-0.114373860316097
21
0.164068949153683
31
0
210
0
220
0
230
1
40
0.07853
41
-1.61960141451367
42
-0.0488050877199634
0
ELLIPSE
5
1ED
100
AcDbEntity
8
1
62
256
6
ByLayer
370
13
48
1
60
0
100
AcDbEllipse
10
319.925347
20
18.622762
30
0
11
0.0104671912485858
21
-0.199725906950915
31
0
210
0
220
0
230
1
40
0.995725
41
-3.14157313675466
42
-1.75405589825403
0
ELLIPSE
5
1EE
100
AcDbEntity
8
1
62
256
6
ByLayer
370
13
48
1
60
0
100
AcDbEllipse
10
334.878768
20
6.904472
30
0
11
0.00785039343643922
21
-0.149794430213184
31
0
210
0
220
0
230
1
40
0.995725
41
0.104719755118533
42
1.38753675533471
0
ELLIPSE
5
1EF
100
AcDbEntity
8
1
62
256
6
ByLayer
370
13
48
1
60
0
100
AcDbEllipse
10
321.275556
20
4.060006
30
0
11
-0.0994383168615901
21
1.89739611603371
31
0
210
0
220
0
230
1
40
0.995725
41
0.761807904943608
42
1.26193471909915
0
ELLIPSE
5
1F0
100
AcDbEntity
8
1
62
256
6
ByLayer
370
13
48
1
60
0
100
AcDbEllipse
10
319.250373
20
4.543026
30
0
11
0.00653729335066879
21
-0.149857478277353
31
0
210
0
220
0
230
1
40
0.092367
41
-1.56998679074977
42
-0.0232440763743707
0
ELLIPSE
5
1F1
100
AcDbEntity
8
1
62
256
6
ByLayer
370
13
48
1
60
0
100
AcDbEllipse
10
330.788659
20
21.231416
30
0
11
0.0942047212372723
21
-1.79753316255824
31
0
210
0
220
0
230
1
40
0.995725
41
0
42
0.400544394527611
0
ELLIPSE
5
1F2
100
AcDbEntity
8
1
62
256
6
ByLayer
370
13
48
1
60
0
100
AcDbEllipse
10
332.692333
20
6.697667
30
0
11
-0.198308915233041
21
0.0259533069009473
31
0
210
0
220
0
230
1
40
0.016833
41
-3.1414401809507
42
-1.66175841710635
0
ELLIPSE
5
1F3
100
AcDbEntity
8
1
62
256
6
ByLayer
370
13
48
1
60
0
100
AcDbEllipse
10
319.234354
20
4.592253
30
0
11
-0.00261679781214721
21
0.0499314767377309
31
0
210
0
220
0
230
1
40
0.995725
41
3.13286600733052
42
-1.87965793449044
0
ELLIPSE
5
1F4
100
AcDbEntity
8
1
62
256
6
ByLayer
370
13
48
1
60
0
100
AcDbEllipse
10
318.553603
20
5.081142
30
0
11
-0.0287847759336193
21
0.54924624411504
31
0
210
0
220
0
230
1
40
0.995725
41
1.67551608191447
42
3.06423017113076
0
ELLIPSE
5
1F5
100
AcDbEntity
8
1
62
256
6
ByLayer
370
13
48
1
60
0
100
AcDbEllipse
10
318.733221
20
12.234746
30
0
11
-0.14873168642478
21
0.0194649801757105
31
0
210
0
220
0
230
1
40
0.016833
41
1.47983423648391
42
3.05063056328133
0
ELLIPSE
5
1F6
100
AcDbEntity
8
1
62
256
6
ByLayer
370
13
48
1
60
0
100
AcDbEllipse
10
317.734299
20
18.415715
30
0
11
0.0235312926467406
21
-0.148142763125215
31
0
210
0
220
0
230
1
40
0.091865
41
-3.05123893750693
42
-1.58049283523565
0
ELLIPSE
5
1F7
100
AcDbEntity
8
1
62
256
6
ByLayer
370
13
48
1
60
0
100
AcDbEllipse
10
319.822528
20
5.433021
30
0
11
0.0052335956242912
21
-0.0998629534754253
31
0
210
0
220
0
230
1
40
0.995725
41
0.761807904940755
42
1.67551608191393
0
ELLIPSE
5
1F8
100
AcDbEntity
8
1
62
256
6
ByLayer
370
13
48
1
60
0
100
AcDbEllipse
10
334.054584
20
20.787897
30
0
11
0.00379960965785723
21
0.149951868832795
31
0
210
0
220
0
230
1
40
0.092094
41
0.00716942110630351
42
1.57796574790506
0
ELLIPSE
5
1F9
100
AcDbEntity
8
1
62
256
6
ByLayer
370
13
48
1
60
0
100
AcDbEllipse
10
331.660053
20
4.604235
30
0
11
0.0942047212372723
21
-1.79753316255824
31
0
210
0
220
0
230
1
40
0.995725
41
2.06113979245616
42
2.74715904466359
0
ELLIPSE
5
1FA
100
AcDbEntity
8
1
62
256
6
ByLayer
370
13
48
1
60
0
100
AcDbEllipse
10
319.925347
20
18.622762
30
0
11
0.198308915233048
21
-0.0259533069008886
31
0
210
0
220
0
230
1
40
0.016833
41
1.47983423648517
42
3.05063056327922
0
ELLIPSE
5
1FB
100
AcDbEntity
8
1
62
256
6
ByLayer
370
13
48
1
60
0
100
AcDbEllipse
10
319.580523
20
18.708973
30
0
11
-0.0427993177745547
21
-0.158580925138814
31
0
210
0
220
0
230
1
40
0.080206
41
-3.11537766648662
42
-1.54458133958425
0
ELLIPSE
5
1FC
100
AcDbEntity
8
1
62
256
6
ByLayer
370
13
48
1
60
0
100
AcDbEllipse
10
326.633584
20
6.463718
30
0
11
0.0104671912485858
21
-0.199725906950915
31
0
210
0
220
0
230
1
40
0.092371
41
0
42
1.5707963267949
0
ELLIPSE
5
1FD
100
AcDbEntity
8
1
62
256
6
ByLayer
370
13
48
1
60
0
100
AcDbEllipse
10
317.464268
20
12.096553
30
0
11
0.0366351693700517
21
-0.69904067432823
31
0
210
0
220
0
230
1
40
0.995725
41
-1.75405589825414
42
-1.46607657167508
0
ELLIPSE
5
1FE
100
AcDbEntity
8
1
62
256
6
ByLayer
370
13
48
1
60
0
100
AcDbEllipse
10
334.880274
20
6.916277
30
0
11
-0.0435637040460862
21
-0.259139630114058
31
0
210
0
220
0
230
1
40
0.947521
41
0.308152981438839
42
1.60922962164799
0
ELLIPSE
5
1FF
100
AcDbEntity
8
1
62
256
6
ByLayer
370
13
48
1
60
0
100
AcDbEllipse
10
335.148799
20
13.223634
30
0
11
0.0366351693700517
21
-0.69904067432823
31
0
210
0
220
0
230
1
40
0.995725
41
1.3875367553354
42
1.67551608191455
0
ELLIPSE
5
200
100
AcDbEntity
8
1
62
256
6
ByLayer
370
13
48
1
60
0
100
AcDbEllipse
10
319.296351
20
4.580283
30
0
11
-0.14513953236317
21
0.0378750068699716
31
0
210
0
220
0
230
1
40
0.028078
41
1.48264787473431
42
3.05344420152286
0
ELLIPSE
5
201
100
AcDbEntity
8
1
62
256
6
ByLayer
370
13
48
1
60
0
100
AcDbEllipse
10
318.931715
20
6.280668
30
0
11
-0.091587923425148
21
1.7476016858205
31
0
210
0
220
0
230
1
40
0.995725
41
3.11423538092946
42
3.13286600732974
0
ELLIPSE
5
202
100
AcDbEntity
8
1
62
256
6
ByLayer
370
13
48
1
60
0
100
AcDbEllipse
10
333.364877
20
20.727208
30
0
11
0.0104671912485859
21
-0.199725906950917
31
0
210
0
220
0
230
1
40
0.995725
41
3.13286600732881
42
-1.87965793449105
0
ELLIPSE
5
203
100
AcDbEntity
8
1
62
256
6
ByLayer
370
13
48
1
60
0
100
AcDbEllipse
10
332.546286
20
19.518766
30
0
11
-0.197551554484215
21
-0.0311990916673925
31
0
210
0
220
0
230
1
40
0.009655
41
1.66279490126923
42
-3.14146319857572
0
ELLIPSE
5
204
100
AcDbEntity
8
1
62
256
6
ByLayer
370
13
48
1
60
0
100
AcDbEllipse
10
319.558545
20
12.122887
30
0
11
0.0444855628064881
21
-0.848835104541361
31
0
210
0
220
0
230
1
40
0.995725
41
-1.75405589825432
42
-1.46607657167525
0
ELLIPSE
5
205
100
AcDbEntity
8
1
62
256
6
ByLayer
370
13
48
1
60
0
100
AcDbEllipse
10
316.91667
20
12.168221
30
0
11
-0.14873168642478
21
0.0194649801757105
31
0
210
0
220
0
230
1
40
0.016833
41
-0.0909620903077582
42
1.4798342364851
0
ELLIPSE
5
206
100
AcDbEntity
8
1
62
256
6
ByLayer
370
13
48
1
60
0
100
AcDbEllipse
10
335.689692
20
13.309551
30
0
11
0.14816366586316
21
0.0233993187505504
31
0
210
0
220
0
230
1
40
0.009655
41
0.0919985744649635
42
1.66279490126762
0
ELLIPSE
5
207
100
AcDbEntity
8
1
62
256
6
ByLayer
370
13
48
1
60
0
100
AcDbEllipse
10
319.595442
20
12.124821
30
0
11
-0.0261679781214695
21
0.49931476737726
31
0
210
0
220
0
230
1
40
0.995725
41
1.38753675533547
42
1.67551608191459
0
ELLIPSE
5
208
100
AcDbEntity
8
1
62
256
6
ByLayer
370
13
48
1
60
0
100
AcDbEllipse
10
319.638574
20
18.768818
30
0
11
0.00523359562429226
21
-0.0998629534754456
31
0
210
0
220
0
230
1
40
0.995725
41
1.38753675533661
42
3.11837220864531
0
ELLIPSE
5
209
100
AcDbEntity
8
1
62
256
6
ByLayer
370
13
48
1
60
0
100
AcDbEllipse
10
319.609655
20
20.645554
30
0
11
-2.21587801990533
21
1.36412438215329
31
0
210
0
220
0
230
1
40
0.479616
41
1.27243039840012
42
1.31166350515625
0
ELLIPSE
5
20A
100
AcDbEntity
8
1
62
256
6
ByLayer
370
13
48
1
60
0
100
AcDbEllipse
10
333.586505
20
20.786883
30
0
11
-0.00653729335066904
21
0.149857478277353
31
0
210
0
220
0
230
1
40
0.092367
41
0.000809536045784406
42
1.57160586284002
0
ELLIPSE
5
20B
100
AcDbEntity
8
1
62
256
6
ByLayer
370
13
48
1
60
0
100
AcDbEllipse
10
333.059135
20
13.197542
30
0
11
-0.0261679781214695
21
0.49931476737726
31
0
210
0
220
0
230
1
40
0.995725
41
-1.75405589825421
42
-1.4660765716752
0
ELLIPSE
5
20C
100
AcDbEntity
8
1
62
256
6
ByLayer
370
13
48
1
60
0
100
AcDbEllipse
10
333.040686
20
13.196575
30
0
11
0.0366351693700488
21
-0.699040674328175
31
0
210
0
220
0
230
1
40
0.995725
41
1.38753675533555
42
1.67551608191456
0
ELLIPSE
5
20D
100
AcDbEntity
8
1
62
256
6
ByLayer
370
13
48
1
60
0
100
AcDbEllipse
10
319.928933
20
20.662282
30
0
11
-1.72936595007581
21
1.21940905088969
31
0
210
0
220
0
230
1
40
0.74335
41
1.16175109670372
42
1.983908152073
0
ELLIPSE
5
20E
100
AcDbEntity
8
1
62
256
6
ByLayer
370
13
48
1
60
0
100
AcDbEllipse
10
333.312104
20
20.739662
30
0
11
0.145139532363171
21
-0.0378750068699667
31
0
210
0
220
0
230
1
40
0.028078
41
3.05344420152667
42
-1.6589447788559
0
ELLIPSE
5
20F
100
AcDbEntity
8
1
62
256
6
ByLayer
370
13
48
1
60
0
100
AcDbEllipse
10
317.44582
20
12.095586
30
0
11
-0.0287847759336194
21
0.549246244115043
31
0
210
0
220
0
230
1
40
0.995725
41
1.38753675533538
42
1.67551608191447
0
ELLIPSE
5
210
100
AcDbEntity
8
1
62
256
6
ByLayer
370
13
48
1
60
0
100
AcDbEllipse
10
334.463575
20
0
30
0
11
-3.50337754571424
21
20.4729358063515
31
0
210
0
220
0
230
1
40
0.082986
41
1.60237732572059
42
1.76093553694929
0
ELLIPSE
5
211
100
AcDbEntity
8
1
62
256
6
ByLayer
370
13
48
1
60
0
100
AcDbEllipse
10
318.664116
20
6.526715
30
0
11
-0.109905508110178
21
2.0971220229846
31
0
210
0
220
0
230
1
40
0.995725
41
2.2125634861936
42
2.71619434555601
0
ELLIPSE
5
212
100
AcDbEntity
8
1
62
256
6
ByLayer
370
13
48
1
60
0
100
AcDbEllipse
10
318.664116
20
6.526715
30
0
11
-0.109905508110178
21
2.0971220229846
31
0
210
0
220
0
230
1
40
0.995725
41
-2.74205116610672
42
-2.08304175458826
0
ELLIPSE
5
213
100
AcDbEntity
8
1
62
256
6
ByLayer
370
13
48
1
60
0
100
AcDbEllipse
10
327.917189
20
-5.305241
30
0
11
-8.12676589611804
21
7.00664565015093
31
0
210
0
220
0
230
1
40
0.864815
41
-0.734395645162069
42
-0.718685372132333
0
ELLIPSE
5
214
100
AcDbEntity
8
1
62
256
6
ByLayer
370
13
48
1
60
0
100
AcDbEllipse
10
329.097669
20
-6.902088
30
0
11
-6.03300594471647
21
-0.0225890006344247
31
0
210
0
220
0
230
1
40
0.98728
41
3.00770363065727
42
-2.98905833207221
0
ELLIPSE
5
215
100
AcDbEntity
8
1
62
256
6
ByLayer
370
13
48
1
60
0
100
AcDbEllipse
10
327.002789
20
-5.825889
30
0
11
-2.1
21
2.12234201567296E-15
31
0
210
0
220
0
230
1
40
0.992717
41
-2.75232945959571
42
-0.234441091782477
0
ELLIPSE
5
216
100
AcDbEntity
8
1
62
256
6
ByLayer
370
13
48
1
60
0
100
AcDbEllipse
10
2204.723112
20
-9E-06
30
0
11
-3775.53101370238
21
17.2982981287572
31
0
210
0
220
0
230
1
40
0.002901
41
1.0466447988529
42
1.05207251274765
0
ELLIPSE
5
217
100
AcDbEntity
8
1
62
256
6
ByLayer
370
13
48
1
60
0
100
AcDbEllipse
10
346.152278
20
-6.6E-05
30
0
11
-218.752803941402
21
0.0992491808521478
31
0
210
0
220
0
230
1
40
0.092638
41
-1.41448599223462
42
-1.40104473178469
0
ELLIPSE
5
218
100
AcDbEntity
8
1
62
256
6
ByLayer
370
13
48
1
60
0
100
AcDbEllipse
10
334.346275
20
7.749131
30
0
11
-0.0831044112548975
21
2.59906120599876
31
0
210
0
220
0
230
1
40
0.529007
41
2.99365616580235
42
-3.13080195961862
0
ELLIPSE
5
219
100
AcDbEntity
8
1
62
256
6
ByLayer
370
13
48
1
60
0
100
AcDbEllipse
10
334.155495
20
6.036799
30
0
11
-0.0206836717061787
21
1.00028285076612
31
0
210
0
220
0
230
1
40
0.104661
41
-3.13827535650454
42
-2.61726376000744
0
ELLIPSE
5
21A
100
AcDbEntity
8
1
62
256
6
ByLayer
370
13
48
1
60
0
100
AcDbEllipse
10
325.867064
20
5.602421
30
0
11
-3.96879666996022
21
-0.704906651866792
31
0
210
0
220
0
230
1
40
0.015321
41
-3.01817314087246
42
-2.71671453977656
0
ELLIPSE
5
21B
100
AcDbEntity
8
1
62
256
6
ByLayer
370
13
48
1
60
0
100
AcDbEllipse
10
328.491694
20
8.643952
30
0
11
-1.65564191744888
21
-2.05486645415026
31
0
210
0
220
0
230
1
40
0.966608
41
0.713732916366159
42
1.07490334473741
0
ELLIPSE
5
21C
100
AcDbEntity
8
1
62
256
6
ByLayer
370
13
48
1
60
0
100
AcDbEllipse
10
318.111055
20
5.195946
30
0
11
-3.96879667837192
21
-0.704906653396138
31
0
210
0
220
0
230
1
40
0.015321
41
-3.01817314099781
42
-2.71671454023242
0
ELLIPSE
5
21D
100
AcDbEntity
8
1
62
256
6
ByLayer
370
13
48
1
60
0
100
AcDbEllipse
10
338.881321
20
2.128986
30
0
11
-5.90693419188736
21
-1.83870398212745
31
0
210
0
220
0
230
1
40
0.801146
41
-0.36303497618009
42
-0.215482907182752
0
ELLIPSE
5
21E
100
AcDbEntity
8
1
62
256
6
ByLayer
370
13
48
1
60
0
100
AcDbEllipse
10
318.39719
20
6.512726
30
0
11
-2.29348548767897
21
1.84790145631118
31
0
210
0
220
0
230
1
40
0.775936
41
3.0528350677875
42
-2.77958348589863
0
ELLIPSE
5
21F
100
AcDbEntity
8
1
62
256
6
ByLayer
370
13
48
1
60
0
100
AcDbEllipse
10
334.604857
20
0.114741
30
0
11
-0.0229376429072199
21
1.01137814829695
31
0
210
0
220
0
230
1
40
0.101917
41
-0.135414283153858
42
1.04829161971636
0
ELLIPSE
5
220
100
AcDbEntity
8
1
62
256
6
ByLayer
370
13
48
1
60
0
100
AcDbEllipse
10
334.500707
20
0.126159
30
0
11
-0.0114688214584998
21
0.505689074257988
31
0
210
0
220
0
230
1
40
0.101917
41
-0.135414283139593
42
0.210195955501348
0
ELLIPSE
5
221
100
AcDbEntity
8
1
62
256
6
ByLayer
370
13
48
1
60
0
100
AcDbEllipse
10
319.056594
20
6.547283
30
0
11
-1.6556419212007
21
-2.05486645213265
31
0
210
0
220
0
230
1
40
0.966608
41
1.54124461170367
42
1.8517947104233
0
ELLIPSE
5
222
100
AcDbEntity
8
1
62
256
6
ByLayer
370
13
48
1
60
0
100
AcDbEllipse
10
316.487208
20
7.932381
30
0
11
-0.0261679781214711
21
0.49931476737729
31
0
210
0
220
0
230
1
40
0.995725
41
-2.08239418575102
42
-1.46607657167532
0
ELLIPSE
5
223
100
AcDbEntity
8
1
62
256
6
ByLayer
370
13
48
1
60
0
100
AcDbEllipse
10
325.557876
20
-5.428879
30
0
11
0.575695518672216
21
-10.9849248823003
31
0
210
0
220
0
230
1
40
0.995725
41
3.14159265358978
42
-2.83440246605361
0
ELLIPSE
5
224
100
AcDbEntity
8
1
62
256
6
ByLayer
370
13
48
1
60
0
100
AcDbEllipse
10
318.710238
20
6.529132
30
0
11
0.136073486231615
21
-2.59643679036189
31
0
210
0
220
0
230
1
40
0.995725
41
0.0555653949273165
42
1.07574208457346
0
ELLIPSE
5
225
100
AcDbEntity
8
1
62
256
6
ByLayer
370
13
48
1
60
0
100
AcDbEllipse
10
312
20
3.271386
30
0
11
-0.395104806282848
21
11.2246527358495
31
0
210
0
220
0
230
1
40
0.354616
41
-0.537297845438344
42
-0.397014624612259
0
ELLIPSE
5
226
100
AcDbEntity
8
1
62
256
6
ByLayer
370
13
48
1
60
0
100
AcDbEllipse
10
312
20
6.119877
30
0
11
-2
21
2.02127811016473E-15
31
0
210
0
220
0
230
1
40
0.758862
41
-2.94692594977956
42
-1.70709032218524
0
ELLIPSE
5
227
100
AcDbEntity
8
1
62
256
6
ByLayer
370
13
48
1
60
0
100
AcDbEllipse
10
320.628304
20
5.998227
30
0
11
0.0261679781214645
21
-0.499314767377288
31
0
210
0
220
0
230
1
40
0.092371
41
-1.00594782558321
42
-0.630730776707964
0
ELLIPSE
5
228
100
AcDbEntity
8
1
62
256
6
ByLayer
370
13
48
1
60
0
100
AcDbEllipse
10
331.965057
20
5.922003
30
0
11
-0.0261679781214709
21
0.499314767377286
31
0
210
0
220
0
230
1
40
0.995725
41
-0.9903621033918
42
-0.927295220885251
0
ELLIPSE
5
229
100
AcDbEntity
8
1
62
256
6
ByLayer
370
13
48
1
60
0
100
AcDbEllipse
10
334.530865
20
-1.993817
30
0
11
-2.26174576128055
21
3.85247314258299
31
0
210
0
220
0
230
1
40
0.332873
41
-1.03495349144572
42
-0.891613804335809
0
ELLIPSE
5
22A
100
AcDbEntity
8
1
62
256
6
ByLayer
370
13
48
1
60
0
100
AcDbEllipse
10
321.879362
20
5.393434
30
0
11
-0.31839267667936
21
-0.395166625530185
31
0
210
0
220
0
230
1
40
0.966608
41
-2.12586228181935
42
-1.28979794396024
0
ELLIPSE
5
22B
100
AcDbEntity
8
1
62
256
6
ByLayer
370
13
48
1
60
0
100
AcDbEllipse
10
329.635371
20
5.799909
30
0
11
-0.318390654866633
21
-0.39516860799941
31
0
210
0
220
0
230
1
40
0.966608
41
-2.12586782833522
42
-2.06669488021149
0
ELLIPSE
5
22C
100
AcDbEntity
8
1
62
256
6
ByLayer
370
13
48
1
60
0
100
AcDbEllipse
10
327.002789
20
-5.825889
30
0
11
2
21
0
31
0
210
0
220
0
230
1
40
0.992717
41
0.754080349499551
42
2.99658839217607
0
ELLIPSE
5
22D
100
AcDbEntity
8
1
62
256
6
ByLayer
370
13
48
1
60
0
100
AcDbEllipse
10
340.091475
20
0.752371
30
0
11
-6.0330060647911
21
-0.0225893978939151
31
0
210
0
220
0
230
1
40
0.987279
41
0.0289322692193547
42
0.152534255042659
0
ELLIPSE
5
22E
100
AcDbEntity
8
1
62
256
6
ByLayer
370
13
48
1
60
0
100
AcDbEllipse
10
319.254478
20
6.557654
30
0
11
0.136073486231615
21
-2.59643679036189
31
0
210
0
220
0
230
1
40
0.995725
41
-2.08239418575105
42
-0.581932527432689
0
ELLIPSE
5
22F
100
AcDbEntity
8
1
62
256
6
ByLayer
370
13
48
1
60
0
100
AcDbEllipse
10
317.604447
20
16.646821
30
0
11
-0.14359427475022
21
2.73994198413896
31
0
210
0
220
0
230
1
40
0.016833
41
0.326127687983751
42
0.836829632721539
0
ELLIPSE
5
230
100
AcDbEntity
8
1
62
256
6
ByLayer
370
13
48
1
60
0
100
AcDbEllipse
10
322.120892
20
5.406092
30
0
11
-0.026167978121471
21
0.499314767377288
31
0
210
0
220
0
230
1
40
0.995725
41
0.927295218001719
42
1.13806179252797
0
ELLIPSE
5
231
100
AcDbEntity
8
1
62
256
6
ByLayer
370
13
48
1
60
0
100
AcDbEllipse
10
318.546634
20
13.293579
30
0
11
-0.471023606186477
21
8.98766581279117
31
0
210
0
220
0
230
1
40
0.995725
41
-2.91693381338443
42
-2.8344024660536
0
ELLIPSE
5
232
100
AcDbEntity
8
1
62
256
6
ByLayer
370
13
48
1
60
0
100
AcDbEllipse
10
276.770952
20
0
30
0
11
-221.019298823511
21
0.100266633382237
31
0
210
0
220
0
230
1
40
0.092638
41
-1.82301054052298
42
-1.76110449712536
0
ELLIPSE
5
233
100
AcDbEntity
8
1
62
256
6
ByLayer
370
13
48
1
60
0
100
AcDbEllipse
10
319.254478
20
6.557654
30
0
11
0.136073486231615
21
-2.59643679036189
31
0
210
0
220
0
230
1
40
0.995725
41
0.687062733517176
42
1.13806179252791
0
ELLIPSE
5
234
100
AcDbEntity
8
1
62
256
6
ByLayer
370
13
48
1
60
0
100
AcDbEllipse
10
325.65012
20
-5.424044
30
0
11
-0.523359562429419
21
9.98629534754574
31
0
210
0
220
0
230
1
40
0.995725
41
0
42
0.307190187536183
0
ELLIPSE
5
235
100
AcDbEntity
8
1
62
256
6
ByLayer
370
13
48
1
60
0
100
AcDbEllipse
10
318.90823
20
12.390893
30
0
11
0.136073486231615
21
-2.59643679036189
31
0
210
0
220
0
230
1
40
0.995725
41
-2.20424198809748
42
-1.46607657167525
0
ELLIPSE
5
236
100
AcDbEntity
8
1
62
256
6
ByLayer
370
13
48
1
60
0
100
AcDbEllipse
10
294.545736
20
4.2E-05
30
0
11
-1.07124981031825
21
20.2646919980606
31
0
210
0
220
0
230
1
40
0.092638
41
-1.15108716558414
42
-1.14142584324785
0
ELLIPSE
5
237
100
AcDbEntity
8
1
62
256
6
ByLayer
370
13
48
1
60
0
100
AcDbEllipse
10
334.683014
20
4.484058
30
0
11
-0.0103418358572853
21
0.50014142545662
31
0
210
0
220
0
230
1
40
0.104661
41
1.92317947427448
42
-2.7892095061044
0
ELLIPSE
5
238
100
AcDbEntity
8
1
62
256
6
ByLayer
370
13
48
1
60
0
100
AcDbEllipse
10
776.729016
20
-0.193705
30
0
11
-569.831042623141
21
0.257274262068871
31
0
210
0
220
0
230
1
40
0.060679
41
-0.626440939865041
42
-0.61740464714946
0
ELLIPSE
5
239
100
AcDbEntity
8
1
62
256
6
ByLayer
370
13
48
1
60
0
100
AcDbEllipse
10
325.074424
20
5.560881
30
0
11
0.0523359562429289
21
-0.998629534754575
31
0
210
0
220
0
230
1
40
0.092371
41
-1.5707963267949
42
0
0
ELLIPSE
5
23A
100
AcDbEntity
8
1
62
256
6
ByLayer
370
13
48
1
60
0
100
AcDbEllipse
10
330.655319
20
0
30
0
11
-42.9906206590886
21
18.4124605903731
31
0
210
0
220
0
230
1
40
0.196897
41
0.715275137888496
42
1.1176483933149
0
ELLIPSE
5
23B
100
AcDbEntity
8
1
62
256
6
ByLayer
370
13
48
1
60
0
100
AcDbEllipse
10
316.020675
20
4.692359
30
0
11
-0.293690420649028
21
-0.955900589401951
31
0
210
0
220
0
230
1
40
0.0868
41
-1.53907871771946
42
-1.39194540281492E-05
0
ELLIPSE
5
23C
100
AcDbEntity
8
1
62
256
6
ByLayer
370
13
48
1
60
0
100
AcDbEllipse
10
311.999992
20
4.414838
30
0
11
-4.00001299935829
21
0.0155846501437297
31
0
210
0
220
0
230
1
40
0.7661
41
1.69284372591586
42
1.70559710271058
0
ELLIPSE
5
23D
100
AcDbEntity
8
1
62
256
6
ByLayer
370
13
48
1
60
0
100
AcDbEllipse
10
346.152519
20
-0.000243
30
0
11
-221.020647274419
21
0.100300420082153
31
0
210
0
220
0
230
1
40
0.092638
41
-1.44040507553508
42
-1.42982438440271
0
ELLIPSE
5
23E
100
AcDbEntity
8
1
62
256
6
ByLayer
370
13
48
1
60
0
100
AcDbEllipse
10
327.002789
20
-6.416181
30
0
11
2
21
0
31
0
210
0
220
0
230
1
40
0.992717
41
2.5679576680094
42
2.8184013336615
0
ELLIPSE
5
23F
100
AcDbEntity
8
1
62
256
6
ByLayer
370
13
48
1
60
0
100
AcDbEllipse
10
334.268769
20
-14.245291
30
0
11
-0.0631793113994991
21
-0.515804639240097
31
0
210
0
220
0
230
1
40
0.114944
41
-1.65731329706162
42
-0.0865169702677926
0
ELLIPSE
5
240
100
AcDbEntity
8
1
62
256
6
ByLayer
370
13
48
1
60
0
100
AcDbEllipse
10
318.546634
20
13.293579
30
0
11
-0.471023606186477
21
8.98766581279117
31
0
210
0
220
0
230
1
40
0.995725
41
2.79252680319577
42
3.02206401946895
0
ELLIPSE
5
241
100
AcDbEntity
8
1
62
256
6
ByLayer
370
13
48
1
60
0
100
AcDbEllipse
10
333.728424
20
-13.688648
30
0
11
-0.291238052426706
21
-2.48713669060386
31
0
210
0
220
0
230
1
40
0.119298
41
0
42
6.28318530717959
0
ELLIPSE
5
242
100
AcDbEntity
8
1
62
256
6
ByLayer
370
13
48
1
60
0
100
AcDbEllipse
10
336.603072
20
0
30
0
11
-2.45162539444872
21
-20.4729422737776
31
0
210
0
220
0
230
1
40
0.118401
41
-1.26257244460769
42
-0.105606735383321
0
ELLIPSE
5
243
100
AcDbEntity
8
1
62
256
6
ByLayer
370
13
48
1
60
0
100
AcDbEllipse
10
334.453762
20
7.754764
30
0
11
0.136073486231615
21
-2.59643679036189
31
0
210
0
220
0
230
1
40
0.995725
41
-0.99036210339147
42
-0.858139698776562
0
ELLIPSE
5
244
100
AcDbEntity
8
1
62
256
6
ByLayer
370
13
48
1
60
0
100
AcDbEllipse
10
321.793937
20
4.873307
30
0
11
0.353010790461899
21
-0.935619250452589
31
0
210
0
220
0
230
1
40
0.088046
41
-1.59884006173129
42
-0.0280437349361151
0
ELLIPSE
5
245
100
AcDbEntity
8
1
62
256
6
ByLayer
370
13
48
1
60
0
100
AcDbEllipse
10
318.638878
20
13.298413
30
0
11
0.523359562429289
21
-9.98629534754575
31
0
210
0
220
0
230
1
40
0.995725
41
-9.46300586186204E-06
42
0.307190187536201
0
ELLIPSE
5
246
100
AcDbEntity
8
1
62
256
6
ByLayer
370
13
48
1
60
0
100
AcDbEllipse
10
318.250714
20
0
30
0
11
-1.08235063397284
21
20.4747544799946
31
0
210
0
220
0
230
1
40
0.092638
41
-0.130390403100709
42
-0.0048978715923665
0
POINT
5
70
100
AcDbEntity
8
1
62
256
6
ByLayer
370
18
48
1
60
0
100
AcDbPoint
10
0
20
0
30
0
39
0
210
0
220
0
230
1
50
360
0
POINT
5
72
100
AcDbEntity
8
80
62
256
6
ByLayer
370
18
48
1
60
0
100
AcDbPoint
10
0
20
0
30
0
39
0
210
0
220
0
230
1
50
360
0
POINT
5
74
100
AcDbEntity
8
81
62
256
6
ByLayer
370
18
48
1
60
0
100
AcDbPoint
10
336
20
0
30
0
39
0
210
0
220
0
230
1
50
360
0
POINT
5
76
100
AcDbEntity
8
1
62
256
6
ByLayer
370
18
48
1
60
1
100
AcDbPoint
10
0
20
-31.25
30
0
39
0
210
0
220
0
230
1
50
360
0
POINT
5
77
100
AcDbEntity
8
1
62
256
6
ByLayer
370
18
48
1
60
1
100
AcDbPoint
10
336
20
-21
30
0
39
0
210
0
220
0
230
1
50
360
0
POINT
5
78
100
AcDbEntity
8
1
62
256
6
ByLayer
370
18
48
1
60
1
100
AcDbPoint
10
-80
20
-25
30
0
39
0
210
0
220
0
230
1
50
360
0
POINT
5
79
100
AcDbEntity
8
1
62
256
6
ByLayer
370
18
48
1
60
1
100
AcDbPoint
10
0
20
-31.25
30
0
39
0
210
0
220
0
230
1
50
360
0
POINT
5
7A
100
AcDbEntity
8
1
62
256
6
ByLayer
370
18
48
1
60
1
100
AcDbPoint
10
336
20
-21
30
0
39
0
210
0
220
0
230
1
50
360
0
POINT
5
7B
100
AcDbEntity
8
1
62
256
6
ByLayer
370
18
48
1
60
1
100
AcDbPoint
10
6.1738
20
-31.25
30
0
39
0
210
0
220
0
230
1
50
360
0
POINT
5
7C
100
AcDbEntity
8
1
62
256
6
ByLayer
370
18
48
1
60
1
100
AcDbPoint
10
37
20
-21
30
0
39
0
210
0
220
0
230
1
50
360
0
POINT
5
7D
100
AcDbEntity
8
1
62
256
6
ByLayer
370
18
48
1
60
1
100
AcDbPoint
10
336
20
-21
30
0
39
0
210
0
220
0
230
1
50
360
0
POINT
5
7E
100
AcDbEntity
8
1
62
256
6
ByLayer
370
18
48
1
60
1
100
AcDbPoint
10
334.7234
20
-10.5
30
0
39
0
210
0
220
0
230
1
50
360
0
SPLINE
5
247
100
AcDbEntity
8
SK1
62
256
6
ByLayer
370
13
48
1
60
0
100
AcDbSpline
70
4
71
3
72
74
73
70
40
0
40
0
40
0
40
0
40
0.0156249999999999
40
0.0156249999999999
40
0.0234374999999999
40
0.0234374999999999
40
0.0312499999999998
40
0.0312499999999998
40
0.0468749999999997
40
0.0468749999999997
40
0.0624999999999996
40
0.0624999999999996
40
0.0781249999999995
40
0.0781249999999995
40
0.0937499999999994
40
0.0937499999999994
40
0.124999999999999
40
0.124999999999999
40
0.140624999999999
40
0.140624999999999
40
0.156249999999999
40
0.156249999999999
40
0.187499999999999
40
0.187499999999999
40
0.249999999999999
40
0.249999999999999
40
0.281249999999999
40
0.281249999999999
40
0.312499999999999
40
0.312499999999999
40
0.374999999999999
40
0.374999999999999
40
0.437499999999999
40
0.437499999999999
40
0.499999999999999
40
0.499999999999999
40
0.562499999999999
40
0.562499999999999
40
0.593749999999999
40
0.593749999999999
40
0.624999999999999
40
0.624999999999999
40
0.687499999999999
40
0.687499999999999
40
0.749999999999999
40
0.749999999999999
40
0.781249999999999
40
0.781249999999999
40
0.812499999999999
40
0.812499999999999
40
0.84375
40
0.84375
40
0.875
40
0.875
40
0.90625
40
0.90625
40
0.9375
40
0.9375
40
0.9453125
40
0.9453125
40
0.953125
40
0.953125
40
0.96875
40
0.96875
40
0.984375
40
0.984375
40
0.9921875
40
0.9921875
40
1
40
1
40
1
40
1
41
1
10
-6.50000000009537
20
10.670482650752
30
0
41
1
10
-6.37048388891068
20
10.6704826507608
30
0
41
1
10
-6.24446776465052
20
10.6528697557375
30
0
41
1
10
-6.06010517952292
20
10.6029156441243
30
0
41
1
10
-5.99927461449791
20
10.5821925812253
30
0
41
1
10
-5.88223506583903
20
10.5345394314587
30
0
41
1
10
-5.82559748012396
20
10.5075199899682
30
0
41
1
10
-5.66065779452136
20
10.417975973631
30
0
41
1
10
-5.55712762892129
20
10.3466184036529
30
0
41
1
10
-5.36736536971404
20
10.1913586531549
30
0
41
1
10
-5.27997153671004
20
10.1068512703449
30
0
41
1
10
-5.11666218977226
20
9.92704332772249
30
0
41
1
10
-5.04055810401205
20
9.83130794393438
30
0
41
1
10
-4.90046448763794
20
9.63491798753748
30
0
41
1
10
-4.83603834410379
20
9.5338271584321
30
0
41
1
10
-4.65598112089407
20
9.22347109153861
30
0
41
1
10
-4.55339976152399
20
9.00719880738419
30
0
41
1
10
-4.41750582616754
20
8.67228763084432
30
0
41
1
10
-4.37530268897782
20
8.55891791867154
30
0
41
1
10
-4.29686000058592
20
8.33134323345735
30
0
41
1
10
-4.26049265592715
20
8.21682554312125
30
0
41
1
10
-4.1585724311424
20
7.87130398108656
30
0
41
1
10
-4.10013853486055
20
7.63834185023578
30
0
41
1
10
-3.94578977994675
20
6.93282891322849
30
0
41
1
10
-3.87048459563749
20
6.45370790232082
30
0
41
1
10
-3.78175631324949
20
5.72457369042988
30
0
41
1
10
-3.75634074966133
20
5.47976683985843
30
0
41
1
10
-3.7120067271199
20
4.98691048522593
30
0
41
1
10
-3.69308648223611
20
4.73862820397792
30
0
41
1
10
-3.64424139462162
20
3.99444565639502
30
0
41
1
10
-3.62191393829291
20
3.49753056604814
30
0
41
1
10
-3.58913059568964
20
2.50225576491911
30
0
41
1
10
-3.57872244966512
20
2.00389538867495
30
0
41
1
10
-3.56529013292472
20
1.00580199142325
30
0
41
1
10
-3.56228022077386
20
0.506068785393097
30
0
41
1
10
-3.56223334097642
20
-0.494754197166372
30
0
41
1
10
-3.56519357916225
20
-0.995843898846687
30
0
41
1
10
-3.57526735092097
20
-1.74852495498422
30
0
41
1
10
-3.57958751937886
20
-1.99959349362723
30
0
41
1
10
-3.59064705878916
20
-2.50209075145548
30
0
41
1
10
-3.59739709579894
20
-2.75385038007658
30
0
41
1
10
-3.62227132036486
20
-3.50710000839359
30
0
41
1
10
-3.64484459181701
20
-4.00580366741292
30
0
41
1
10
-3.71010606722081
20
-4.99571816607531
30
0
41
1
10
-3.75268745857275
20
-5.48693664959626
30
0
41
1
10
-3.84180186701059
20
-6.21737273914593
30
0
41
1
10
-3.87576317934641
20
-6.45978205407951
30
0
41
1
10
-3.95487127334194
20
-6.94225537606115
30
0
41
1
10
-3.99994180570394
20
-7.18182085753699
30
0
41
1
10
-4.10416683371689
20
-7.65518824089065
30
0
41
1
10
-4.16332953330694
20
-7.88926779084468
30
0
41
1
10
-4.30073575990994
20
-8.35126379883343
30
0
41
1
10
-4.37869000461005
20
-8.57819056735369
30
0
41
1
10
-4.55882768232693
20
-9.01890405609001
30
0
41
1
10
-4.66096064418578
20
-9.23316248710555
30
0
41
1
10
-4.9012460930548
20
-9.6450662502447
30
0
41
1
10
-5.04044720826909
20
-9.84412891865716
30
0
41
1
10
-5.24436673816899
20
-10.0673788314332
30
0
41
1
10
-5.28672193295479
20
-10.1108128419076
30
0
41
1
10
-5.37506018490618
20
-10.1949099292502
30
0
41
1
10
-5.42113974977889
20
-10.2356293471388
30
0
41
1
10
-5.56352602684599
20
-10.3512474104623
30
0
41
1
10
-5.66447995477703
20
-10.4202823836625
30
0
41
1
10
-5.88197798496885
20
-10.5378913469096
30
0
41
1
10
-6.00024980803648
20
-10.5867345345007
30
0
41
1
10
-6.18283559041274
20
-10.6361515407661
30
0
41
1
10
-6.24478714200797
20
-10.6488401790656
30
0
41
1
10
-6.37105473569075
20
-10.6660269221224
30
0
41
1
10
-6.43557318110056
20
-10.6704826507564
30
0
41
1
10
-6.50000000009538
20
-10.6704826507521
30
0
0
SPLINE
5
248
100
AcDbEntity
8
1
62
256
6
ByLayer
370
18
48
1
60
0
100
AcDbSpline
70
4
71
3
72
16
73
12
40
0
40
0
40
0
40
0
40
0.125
40
0.125
40
0.25
40
0.25
40
0.5
40
0.5
40
0.75
40
0.75
40
1
40
1
40
1
40
1
41
1
10
324.854914587425
20
12.196924406407
30
0
41
1
10
324.838403599963
20
12.1887461748949
30
0
41
1
10
324.819947411053
20
12.1855615698362
30
0
41
1
10
324.783084703225
20
12.191614278905
30
0
41
1
10
324.764846040091
20
12.200835349699
30
0
41
1
10
324.71701308442
20
12.2386613294658
30
0
41
1
10
324.693109645279
20
12.2756657272068
30
0
41
1
10
324.655743223957
20
12.3544917241895
30
0
41
1
10
324.642337108486
20
12.3968356325859
30
0
41
1
10
324.62309916793
20
12.4831080500618
30
0
41
1
10
324.617306575144
20
12.5272794132255
30
0
41
1
10
324.614992036548
20
12.5714434405546
30
0
0
SPLINE
5
249
100
AcDbEntity
8
1
62
256
6
ByLayer
370
18
48
1
60
0
100
AcDbSpline
70
4
71
3
72
8
73
4
40
0
40
0
40
0
40
0
40
1
40
1
40
1
40
1
41
1
10
324.873802353241
20
12.1974748927035
30
0
41
1
10
324.867505416107
20
12.1972913632592
30
0
41
1
10
324.861209507106
20
12.197107868262
30
0
41
1
10
324.854914587425
20
12.196924406407
30
0
0
SPLINE
5
24A
100
AcDbEntity
8
1
62
256
6
ByLayer
370
18
48
1
60
0
100
AcDbSpline
70
4
71
3
72
18
73
14
40
0
40
0
40
0
40
0
40
0.125
40
0.125
40
0.25
40
0.25
40
0.5
40
0.5
40
0.75
40
0.75
40
0.875
40
0.875
40
1
40
1
40
1
40
1
41
1
10
325.820954925372
20
14.0649140134298
30
0
41
1
10
325.83723643454
20
14.0384181578571
30
0
41
1
10
325.86237229031
20
14.0183391420226
30
0
41
1
10
325.919096512
20
13.986232229404
30
0
41
1
10
325.950698449704
20
13.9744402859539
30
0
41
1
10
326.049744908582
20
13.9481362743728
30
0
41
1
10
326.12164798585
20
13.9424680187751
30
0
41
1
10
326.266189659956
20
13.9500564382024
30
0
41
1
10
326.338558847821
20
13.9632349584258
30
0
41
1
10
326.439523700454
20
14.000091389173
30
0
41
1
10
326.47185601554
20
14.01528444382
30
0
41
1
10
326.529757311698
20
14.0533342275166
30
0
41
1
10
326.555526947086
20
14.0760487855635
30
0
41
1
10
326.572221721022
20
14.104286237839
30
0
0
SPLINE
5
24B
100
AcDbEntity
8
1
62
256
6
ByLayer
370
18
48
1
60
0
100
AcDbSpline
70
4
71
3
72
18
73
14
40
0
40
0
40
0
40
0
40
0.124999999999996
40
0.124999999999996
40
0.249999999999993
40
0.249999999999993
40
0.499999999999982
40
0.499999999999982
40
0.749999999999971
40
0.749999999999971
40
0.874999999999986
40
0.874999999999986
40
1
40
1
40
1
40
1
41
1
10
327.668878086185
20
13.1190230484042
30
0
41
1
10
327.635414151083
20
13.1179717130373
30
0
41
1
10
327.602203594124
20
13.1277612827416
30
0
41
1
10
327.539090266042
20
13.157017004133
30
0
41
1
10
327.509390834018
20
13.1766225545681
30
0
41
1
10
327.42605896727
20
13.2437449114192
30
0
41
1
10
327.377883760266
20
13.2996117125157
30
0
41
1
10
327.299034981341
20
13.4217072659266
30
0
41
1
10
327.268588518887
20
13.4875015325513
30
0
41
1
10
327.24295343079
20
13.5885491591192
30
0
41
1
10
327.237757487755
20
13.6230392734272
30
0
41
1
10
327.238130198256
20
13.6901855946275
30
0
41
1
10
327.243460427306
20
13.7237042293762
30
0
41
1
10
327.259000939456
20
13.7527465897302
30
0
0
SPLINE
5
24C
100
AcDbEntity
8
1
62
256
6
ByLayer
370
18
48
1
60
0
100
AcDbSpline
70
4
71
3
72
8
73
4
40
0
40
0
40
0
40
0
40
1
40
1
40
1
40
1
41
1
10
326.572221721022
20
14.1042862378389
30
0
41
1
10
326.575704936117
20
14.1101777294148
30
0
41
1
10
326.579187881695
20
14.1160684493917
30
0
41
1
10
326.582670567632
20
14.1219584267087
30
0
0
SPLINE
5
24D
100
AcDbEntity
8
1
62
256
6
ByLayer
370
18
48
1
60
0
100
AcDbSpline
70
4
71
3
72
16
73
12
40
0
40
0
40
0
40
0
40
0.250000000000001
40
0.250000000000001
40
0.500000000000003
40
0.500000000000003
40
0.750000000000004
40
0.750000000000004
40
0.875000000000002
40
0.875000000000002
40
1
40
1
40
1
40
1
41
1
10
327.948882553313
20
12.7461652389111
30
0
41
1
10
327.946566412887
20
12.7903598309604
30
0
41
1
10
327.940596534786
20
12.8344217340347
30
0
41
1
10
327.920459004514
20
12.9207465188309
30
0
41
1
10
327.906392806205
20
12.9630274238711
30
0
41
1
10
327.86664412474
20
13.0419004817601
30
0
41
1
10
327.841194796913
20
13.0788751637129
30
0
41
1
10
327.78882593644
20
13.116629666709
30
0
41
1
10
327.769114407438
20
13.1255258296582
30
0
41
1
10
327.728733729647
20
13.1312276054583
30
0
41
1
10
327.708308055582
20
13.1279358489753
30
0
41
1
10
327.689810651724
20
13.1196806981133
30
0
0
SPLINE
5
24E
100
AcDbEntity
8
1
62
256
6
ByLayer
370
18
48
1
60
0
100
AcDbSpline
70
4
71
3
72
18
73
14
40
0
40
0
40
0
40
0
40
0.125000000000046
40
0.125000000000046
40
0.250000000000092
40
0.250000000000092
40
0.50000000000006
40
0.50000000000006
40
0.750000000000027
40
0.750000000000027
40
0.875000000000014
40
0.875000000000014
40
1
40
1
40
1
40
1
41
1
10
324.833294205629
20
12.9704163942534
30
0
41
1
10
324.863386815406
20
12.9726952001939
30
0
41
1
10
324.892471722502
20
12.985727924687
30
0
41
1
10
324.947137616773
20
13.0211012970982
30
0
41
1
10
324.972528552686
20
13.0435615492514
30
0
41
1
10
325.043330933246
20
13.1186536451737
30
0
41
1
10
325.083677285638
20
13.1790724987763
30
0
41
1
10
325.149348867431
20
13.3085799719652
30
0
41
1
10
325.17460403993
20
13.3773995838927
30
0
41
1
10
325.19463294567
20
13.4815376704106
30
0
41
1
10
325.198253326502
20
13.5163814579726
30
0
41
1
10
325.195728255808
20
13.5836784808463
30
0
41
1
10
325.189802531023
20
13.6162399175342
30
0
41
1
10
325.17468385455
20
13.6435121599886
30
0
0
SPLINE
5
24F
100
AcDbEntity
8
1
62
256
6
ByLayer
370
18
48
1
60
0
100
AcDbSpline
70
4
71
3
72
8
73
4
40
0
40
0
40
0
40
0
40
1
40
1
40
1
40
1
41
1
10
324.814452367484
20
12.9689895557932
30
0
41
1
10
324.820731979922
20
12.969465097242
30
0
41
1
10
324.827012579724
20
12.9699407091423
30
0
41
1
10
324.833294205629
20
12.9704163942534
30
0
0
SPLINE
5
250
100
AcDbEntity
8
1
62
256
6
ByLayer
370
18
48
1
60
0
100
AcDbSpline
70
4
71
3
72
8
73
4
40
0
40
0
40
0
40
0
40
1
40
1
40
1
40
1
41
1
10
325.810760871615
20
14.0815043537335
30
0
41
1
10
325.814158262207
20
14.0759749459486
30
0
41
1
10
325.817556271998
20
14.070444841562
30
0
41
1
10
325.820954925372
20
14.0649140134298
30
0
0
SPLINE
5
251
100
AcDbEntity
8
1
62
256
6
ByLayer
370
18
48
1
60
0
100
AcDbSpline
70
4
71
3
72
8
73
4
40
0
40
0
40
0
40
0
40
1
40
1
40
1
40
1
41
1
10
327.268671123706
20
13.7708173502004
30
0
41
1
10
327.265447958307
20
13.7647945328723
30
0
41
1
10
327.262224566419
20
13.7587709559158
30
0
41
1
10
327.259000939456
20
13.7527465897302
30
0
0
SPLINE
5
252
100
AcDbEntity
8
1
62
256
6
ByLayer
370
18
48
1
60
0
100
AcDbSpline
70
4
71
3
72
8
73
4
40
0
40
0
40
0
40
0
40
1
40
1
40
1
40
1
41
1
10
327.689810651724
20
13.1196806981133
30
0
41
1
10
327.682833844938
20
13.1194615000693
30
0
41
1
10
327.675856332184
20
13.119242283733
30
0
41
1
10
327.668878086185
20
13.1190230484042
30
0
0
SPLINE
5
253
100
AcDbEntity
8
1
62
256
6
ByLayer
370
18
48
1
60
0
100
AcDbSpline
70
4
71
3
72
8
73
4
40
0
40
0
40
0
40
0
40
1
40
1
40
1
40
1
41
1
10
325.970458718403
20
11.2122117032687
30
0
41
1
10
325.967656812173
20
11.2063559175774
30
0
41
1
10
325.964855470349
20
11.2005009189396
30
0
41
1
10
325.962054671517
20
11.1946466778115
30
0
0
SPLINE
5
254
100
AcDbEntity
8
1
62
256
6
ByLayer
370
18
48
1
60
0
100
AcDbSpline
70
4
71
3
72
16
73
12
40
0
40
0
40
0
40
0
40
0.25
40
0.25
40
0.5
40
0.5
40
0.75
40
0.75
40
0.875
40
0.875
40
1
40
1
40
1
40
1
41
1
10
324.614992036548
20
12.5714434405546
30
0
41
1
10
324.612675896122
20
12.615638032604
30
0
41
1
10
324.613814370227
20
12.6600724686318
30
0
41
1
10
324.62393806668
20
12.747983177119
30
0
41
1
10
324.632833133387
20
12.7914674310682
30
0
41
1
10
324.661836441894
20
12.8739436280729
30
0
41
1
10
324.681718556935
20
12.9132940302782
30
0
41
1
10
324.725807485412
20
12.9561036717877
30
0
41
1
10
324.742835786187
20
12.9669252876266
30
0
41
1
10
324.778660069136
20
12.9766207961895
30
0
41
1
10
324.797241188744
20
12.9753732991399
30
0
41
1
10
324.814452367484
20
12.9689895557932
30
0
0
SPLINE
5
255
100
AcDbEntity
8
1
62
256
6
ByLayer
370
18
48
1
60
0
100
AcDbSpline
70
4
71
3
72
8
73
4
40
0
40
0
40
0
40
0
40
1
40
1
40
1
40
1
41
1
10
326.733964367533
20
11.2351007507868
30
0
41
1
10
326.729885089836
20
11.2405944223827
30
0
41
1
10
326.725805476292
20
11.2460888054303
30
0
41
1
10
326.721725514053
20
11.2515839276778
30
0
0
SPLINE
5
256
100
AcDbEntity
8
1
62
256
6
ByLayer
370
18
48
1
60
0
100
AcDbSpline
70
4
71
3
72
16
73
12
40
0
40
0
40
0
40
0
40
0.125000000000017
40
0.125000000000017
40
0.250000000000034
40
0.250000000000034
40
0.500000000000023
40
0.500000000000023
40
0.750000000000011
40
0.750000000000011
40
1
40
1
40
1
40
1
41
1
10
325.165222535483
20
13.6605802808556
30
0
41
1
10
325.150375209176
20
13.6717751111189
30
0
41
1
10
325.138868202608
20
13.6871713038539
30
0
41
1
10
325.126495886057
20
13.723939099192
30
0
41
1
10
325.125697614139
20
13.7451507867112
30
0
41
1
10
325.135290280817
20
13.807442214677
30
0
41
1
10
325.155595735046
20
13.8474212545969
30
0
41
1
10
325.205390370862
20
13.920322013946
30
0
41
1
10
325.235350580086
20
13.9534397743164
30
0
41
1
10
325.300320362058
20
14.0136681049388
30
0
41
1
10
325.335556681363
20
14.0408613355085
30
0
41
1
10
325.372483063471
20
14.0649392287703
30
0
0
SPLINE
5
257
100
AcDbEntity
8
1
62
256
6
ByLayer
370
18
48
1
60
0
100
AcDbSpline
70
4
71
3
72
16
73
12
40
0
40
0
40
0
40
0
40
0.125000000000001
40
0.125000000000001
40
0.250000000000003
40
0.250000000000003
40
0.500000000000002
40
0.500000000000002
40
0.750000000000001
40
0.750000000000001
40
1
40
1
40
1
40
1
41
1
10
325.962054671517
20
11.1946466778115
30
0
41
1
10
325.961418727008
20
11.1753274763833
30
0
41
1
10
325.955513666982
20
11.1568013987214
30
0
41
1
10
325.932902208196
20
11.1261847831314
30
0
41
1
10
325.916290140621
20
11.1142375770088
30
0
41
1
10
325.860864259417
20
11.0898769308023
30
0
41
1
10
325.817438682478
20
11.086943340498
30
0
41
1
10
325.731415949525
20
11.0929282351742
30
0
41
1
10
325.688387385212
20
11.1021720844719
30
0
41
1
10
325.60461930186
20
11.1282392118382
30
0
41
1
10
325.563687188712
20
11.1452224174499
30
0
41
1
10
325.524446268007
20
11.1653085515172
30
0
0
SPLINE
5
258
100
AcDbEntity
8
1
62
256
6
ByLayer
370
18
48
1
60
0
100
AcDbSpline
70
4
71
3
72
16
73
12
40
0
40
0
40
0
40
0
40
0.125
40
0.125
40
0.25
40
0.25
40
0.5
40
0.5
40
0.75
40
0.75
40
1
40
1
40
1
40
1
41
1
10
327.730272871665
20
12.3476155487271
30
0
41
1
10
327.749603701477
20
12.3413157072638
30
0
41
1
10
327.770379911955
20
12.340187185133
30
0
41
1
10
327.810165866619
20
12.350256880388
30
0
41
1
10
327.82899739937
20
12.3614207178259
30
0
41
1
10
327.876613911858
20
12.4042489922526
30
0
41
1
10
327.898085025489
20
12.4436313695404
30
0
41
1
10
327.929283837687
20
12.5260507181478
30
0
41
1
10
327.938865890144
20
12.5695993853753
30
0
41
1
10
327.949859798379
20
12.6574561869099
30
0
41
1
10
327.951197091909
20
12.702001211582
30
0
41
1
10
327.948882553313
20
12.7461652389111
30
0
0
SPLINE
5
259
100
AcDbEntity
8
1
62
256
6
ByLayer
370
18
48
1
60
0
100
AcDbSpline
70
4
71
3
72
16
73
12
40
0
40
0
40
0
40
0
40
0.250000000000072
40
0.250000000000072
40
0.500000000000144
40
0.500000000000144
40
0.750000000000217
40
0.750000000000217
40
0.875000000000108
40
0.875000000000108
40
1
40
1
40
1
40
1
41
1
10
327.19139152639
20
11.2526694506955
30
0
41
1
10
327.154439588538
20
11.2285748937797
30
0
41
1
10
327.115403044618
20
11.2074414026188
30
0
41
1
10
327.033847917886
20
11.1726731072655
30
0
41
1
10
326.991377322637
20
11.1589509103712
30
0
41
1
10
326.903977237058
20
11.1438727941626
30
0
41
1
10
326.858887127736
20
11.1421230247383
30
0
41
1
10
326.796781762244
20
11.160680694081
30
0
41
1
10
326.777657553873
20
11.1707348389169
30
0
41
1
10
326.748481052846
20
11.1985271612872
30
0
41
1
10
326.738654169569
20
11.2161323512239
30
0
41
1
10
326.733964367533
20
11.2351007507868
30
0
0
SPLINE
5
25A
100
AcDbEntity
8
1
62
256
6
ByLayer
370
18
48
1
60
0
100
AcDbSpline
70
4
71
3
72
8
73
4
40
0
40
0
40
0
40
0
40
1
40
1
40
1
40
1
41
1
10
327.709386233797
20
12.3460815468542
30
0
41
1
10
327.716349168566
20
12.34659293785
30
0
41
1
10
327.723311372122
20
12.3471042710893
30
0
41
1
10
327.730272871665
20
12.3476155487271
30
0
0
SPLINE
5
25B
100
AcDbEntity
8
1
62
256
6
ByLayer
370
18
48
1
60
0
100
AcDbSpline
70
4
71
3
72
8
73
4
40
0
40
0
40
0
40
0
40
1
40
1
40
1
40
1
41
1
10
325.276054115443
20
11.5457877543199
30
0
41
1
10
325.278595393736
20
11.551774835459
30
0
41
1
10
325.281137181871
20
11.5577626910764
30
0
41
1
10
325.283679499969
20
11.5637513513774
30
0
0
SPLINE
5
25C
100
AcDbEntity
8
1
62
256
6
ByLayer
370
18
48
1
60
0
100
AcDbSpline
70
4
71
3
72
16
73
12
40
0
40
0
40
0
40
0
40
0.25
40
0.25
40
0.5
40
0.5
40
0.75
40
0.75
40
0.875
40
0.875
40
1
40
1
40
1
40
1
41
1
10
327.039428321854
20
14.1523001279485
30
0
41
1
10
327.078696400131
20
14.132200092815
30
0
41
1
10
327.116305003901
20
14.1088839776755
30
0
41
1
10
327.186416252344
20
14.0556723767432
30
0
41
1
10
327.218980004685
20
14.0258572947445
30
0
41
1
10
327.273952062777
20
13.958279732032
30
0
41
1
10
327.296815719027
20
13.9205562377009
30
0
41
1
10
327.308762211463
20
13.8588708145329
30
0
41
1
10
327.308390102809
20
13.8378657106072
30
0
41
1
10
327.296133539785
20
13.800083935912
30
0
41
1
10
327.284264189368
20
13.7835629868135
30
0
41
1
10
327.268671123706
20
13.7708173502004
30
0
0
SPLINE
5
25D
100
AcDbEntity
8
1
62
256
6
ByLayer
370
18
48
1
60
0
100
AcDbSpline
70
4
71
3
72
16
73
12
40
0
40
0
40
0
40
0
40
0.250000000000068
40
0.250000000000068
40
0.500000000000135
40
0.500000000000135
40
0.750000000000203
40
0.750000000000203
40
0.875000000000101
40
0.875000000000101
40
1
40
1
40
1
40
1
41
1
10
325.372483063471
20
14.0649392287703
30
0
41
1
10
325.409435001323
20
14.0890337856861
30
0
41
1
10
325.44827856788
20
14.1101571633319
30
0
41
1
10
325.528953573387
20
14.1448793334864
30
0
41
1
10
325.570749651169
20
14.1585661804181
30
0
41
1
10
325.655866590762
20
14.1735246420158
30
0
41
1
10
325.699393808063
20
14.1751925037399
30
0
41
1
10
325.757452543835
20
14.15642275952
30
0
41
1
10
325.77493140804
20
14.1462823858503
30
0
41
1
10
325.800368721666
20
14.1182941009719
30
0
41
1
10
325.808118862218
20
14.1005800735609
30
0
41
1
10
325.810760871615
20
14.0815043537334
30
0
0
SPLINE
5
25E
100
AcDbEntity
8
1
62
256
6
ByLayer
370
18
48
1
60
0
100
AcDbSpline
70
4
71
3
72
20
73
16
40
0
40
0
40
0
40
0
40
0.125000000000023
40
0.125000000000023
40
0.250000000000046
40
0.250000000000046
40
0.375000000000069
40
0.375000000000069
40
0.500000000000091
40
0.500000000000091
40
0.750000000000046
40
0.750000000000046
40
0.875000000000023
40
0.875000000000023
40
1
40
1
40
1
40
1
41
1
10
327.367996584875
20
11.672985781119
30
0
41
1
10
327.349539847223
20
11.7001939145345
30
0
41
1
10
327.340703764332
20
11.7328774174881
30
0
41
1
10
327.333282355908
20
11.8001427648313
30
0
41
1
10
327.334865245712
20
11.834605872221
30
0
41
1
10
327.344872306323
20
11.9036330197159
30
0
41
1
10
327.353441604393
20
11.9382916558406
30
0
41
1
10
327.375736728929
20
12.0056029823909
30
0
41
1
10
327.389538754432
20
12.0386278111461
30
0
41
1
10
327.43875825694
20
12.1359016238946
30
0
41
1
10
327.480823844107
20
12.196551890423
30
0
41
1
10
327.556850686083
20
12.2721833774811
30
0
41
1
10
327.584416319433
20
12.2948207902591
30
0
41
1
10
327.644004410264
20
12.3304195472028
30
0
41
1
10
327.6759747606
20
12.3436276495947
30
0
41
1
10
327.709386233797
20
12.3460815468542
30
0
0
SPLINE
5
25F
100
AcDbEntity
8
1
62
256
6
ByLayer
370
18
48
1
60
0
100
AcDbSpline
70
4
71
3
72
16
73
12
40
0
40
0
40
0
40
0
40
0.124999999999996
40
0.124999999999996
40
0.249999999999993
40
0.249999999999993
40
0.499999999999995
40
0.499999999999995
40
0.749999999999998
40
0.749999999999998
40
1
40
1
40
1
40
1
41
1
10
327.379502703666
20
11.6560248236646
30
0
41
1
10
327.396405463267
20
11.6449377140958
30
0
41
1
10
327.410000714465
20
11.6296509616243
30
0
41
1
10
327.426130895999
20
11.5930801076449
30
0
41
1
10
327.428585815199
20
11.5719552413308
30
0
41
1
10
327.422992630811
20
11.5098734173501
30
0
41
1
10
327.404253809444
20
11.4699764811794
30
0
41
1
10
327.356735821998
20
11.3971950359156
30
0
41
1
10
327.327451133537
20
11.3641126780883
30
0
41
1
10
327.263360629917
20
11.3039304284916
30
0
41
1
10
327.228317908498
20
11.2767473439573
30
0
41
1
10
327.19139152639
20
11.2526694506955
30
0
0
SPLINE
5
260
100
AcDbEntity
8
1
62
256
6
ByLayer
370
18
48
1
60
0
100
AcDbSpline
70
4
71
3
72
16
73
12
40
0
40
0
40
0
40
0
40
0.249999999999998
40
0.249999999999998
40
0.499999999999996
40
0.499999999999996
40
0.749999999999994
40
0.749999999999994
40
0.874999999999997
40
0.874999999999997
40
1
40
1
40
1
40
1
41
1
10
325.524446268007
20
11.1653085515172
30
0
41
1
10
325.48517818973
20
11.1854085866508
30
0
41
1
10
325.447376608596
20
11.2087145882752
30
0
41
1
10
325.376385238929
20
11.2618800640086
30
0
41
1
10
325.343146969121
20
11.2916597960448
30
0
41
1
10
325.285891765043
20
11.3591177041464
30
0
41
1
10
325.261465216772
20
11.3967592907774
30
0
41
1
10
325.245472094616
20
11.4582326390682
30
0
41
1
10
325.244198859103
20
11.47915151416
30
0
41
1
10
325.252716234726
20
11.5167373263472
30
0
41
1
10
325.26250884242
20
11.5331494379713
30
0
41
1
10
325.276054115443
20
11.5457877543199
30
0
0
SPLINE
5
261
100
AcDbEntity
8
1
62
256
6
ByLayer
370
18
48
1
60
0
100
AcDbSpline
70
4
71
3
72
18
73
14
40
0
40
0
40
0
40
0
40
0.124999999999979
40
0.124999999999979
40
0.249999999999958
40
0.249999999999958
40
0.499999999999917
40
0.499999999999917
40
0.749999999999875
40
0.749999999999875
40
0.874999999999938
40
0.874999999999938
40
1
40
1
40
1
40
1
41
1
10
326.721725514053
20
11.2515839276778
30
0
41
1
10
326.702180142611
20
11.2779087314769
30
0
41
1
10
326.674154617537
20
11.2978363061603
30
0
41
1
10
326.612439777223
20
11.3296816715395
30
0
41
1
10
326.578761234383
20
11.341364784726
30
0
41
1
10
326.474709034171
20
11.3674064565201
30
0
41
1
10
326.401100325295
20
11.372985323753
30
0
41
1
10
326.256560950158
20
11.3653970248095
30
0
41
1
10
326.185889233689
20
11.3523074652924
30
0
41
1
10
326.089941163334
20
11.3157139529636
30
0
41
1
10
326.059692463783
20
11.3006300959796
30
0
41
1
10
326.006771949533
20
11.2628413440019
30
0
41
1
10
325.983888032938
20
11.2402780200686
30
0
41
1
10
325.970458718403
20
11.2122117032687
30
0
0
SPLINE
5
262
100
AcDbEntity
8
1
62
256
6
ByLayer
370
18
48
1
60
0
100
AcDbSpline
70
4
71
3
72
16
73
12
40
0
40
0
40
0
40
0
40
0.125
40
0.125
40
0.25
40
0.25
40
0.5
40
0.5
40
0.75
40
0.75
40
1
40
1
40
1
40
1
41
1
10
326.582670567632
20
14.1219584267087
30
0
41
1
10
326.585361945435
20
14.1413853488313
30
0
41
1
10
326.593355250091
20
14.1600208667569
30
0
41
1
10
326.61972457386
20
14.1908344237055
30
0
41
1
10
326.637993288717
20
14.2028684510332
30
0
41
1
10
326.697418652211
20
14.2274387012247
30
0
41
1
10
326.742410862011
20
14.2304543952783
30
0
41
1
10
326.830710243335
20
14.2245888146874
30
0
41
1
10
326.874414328412
20
14.2153803679328
30
0
41
1
10
326.959061690115
20
14.1893593215922
30
0
41
1
10
327.000187401149
20
14.1723862620159
30
0
41
1
10
327.039428321854
20
14.1523001279485
30
0
0
SPLINE
5
263
100
AcDbEntity
8
1
62
256
6
ByLayer
370
18
48
1
60
0
100
AcDbSpline
70
4
71
3
72
8
73
4
40
0
40
0
40
0
40
0
40
1
40
1
40
1
40
1
41
1
10
325.17468385455
20
13.6435121599886
30
0
41
1
10
325.171529478078
20
13.6492022691779
30
0
41
1
10
325.168375712779
20
13.6548916334881
30
0
41
1
10
325.165222535483
20
13.6605802808556
30
0
0
SPLINE
5
264
100
AcDbEntity
8
1
62
256
6
ByLayer
370
18
48
1
60
0
100
AcDbSpline
70
4
71
3
72
18
73
14
40
0
40
0
40
0
40
0
40
0.124999999999978
40
0.124999999999978
40
0.249999999999955
40
0.249999999999955
40
0.49999999999997
40
0.49999999999997
40
0.749999999999985
40
0.749999999999985
40
0.874999999999993
40
0.874999999999993
40
1
40
1
40
1
40
1
41
1
10
325.283679499969
20
11.5637513513774
30
0
41
1
10
325.295858669442
20
11.5924404870038
30
0
41
1
10
325.298362886116
20
11.6254765067558
30
0
41
1
10
325.293809249384
20
11.692826018166
30
0
41
1
10
325.286559945025
20
11.7270237986375
30
0
41
1
10
325.25581299604
20
11.8282887362473
30
0
41
1
10
325.22340345536
20
11.8943311512651
30
0
41
1
10
325.144534512531
20
12.0162502652687
30
0
41
1
10
325.098269232864
20
12.071935837326
30
0
41
1
10
325.01984167711
20
12.1393489523059
30
0
41
1
10
324.992171550623
20
12.1590542840524
30
0
41
1
10
324.934235574726
20
12.1884320390889
30
0
41
1
10
324.903983073949
20
12.1983545347868
30
0
41
1
10
324.873802353241
20
12.1974748927035
30
0
0
SPLINE
5
265
100
AcDbEntity
8
1
62
256
6
ByLayer
370
18
48
1
60
0
100
AcDbSpline
70
4
71
3
72
8
73
4
40
0
40
0
40
0
40
0
40
1
40
1
40
1
40
1
41
1
10
327.367996584875
20
11.672985781119
30
0
41
1
10
327.371832270212
20
11.6673313778143
30
0
41
1
10
327.375667639265
20
11.6616777348432
30
0
41
1
10
327.379502703666
20
11.6560248236646
30
0
0
SPLINE
5
266
100
AcDbEntity
8
1
62
256
6
ByLayer
370
18
48
1
60
0
100
AcDbSpline
70
4
71
3
72
30
73
26
40
0
40
0
40
0
40
0
40
0.0051638252396536
40
0.012848094077261
40
0.028216631752476
40
0.0589537071029059
40
0.120427857803766
40
0.243376159205485
40
0.366324460607205
40
0.485430627590121
40
0.489272762008925
40
0.496957030846532
40
0.50464129968414
40
0.520009837359355
40
0.550746912709784
40
0.612221063410644
40
0.735169364812364
40
0.858117666214084
40
0.919591816914943
40
0.950328892265373
40
0.965697429940588
40
0.981065967615803
40
0.988750236453411
40
0.996434505291018
40
1
40
1
40
1
40
1
41
1
10
334.243124675618
20
-13.8944739535751
30
0
41
1
10
334.271808286655
20
-13.8831603393885
30
0
41
1
10
334.34303943294
20
-13.8483753785436
30
0
41
1
10
334.480386952639
20
-13.7123902936259
30
0
41
1
10
334.523309450743
20
-13.4109158252741
30
0
41
1
10
334.58846206198
20
-12.9073459069038
30
0
41
1
10
334.724904343622
20
-11.8866970083824
30
0
41
1
10
334.914859173735
20
-10.4354000953587
30
0
41
1
10
335.151947525561
20
-8.71112912331185
30
0
41
1
10
335.305495032157
20
-7.54767782604551
30
0
41
1
10
335.38458172912
20
-6.91969791242914
30
0
41
1
10
335.380028996101
20
-6.80958554276177
30
0
41
1
10
335.347441572932
20
-6.65905354785684
30
0
41
1
10
335.312706497597
20
-6.4087342781315
30
0
41
1
10
335.228342488671
20
-5.90093141581386
30
0
41
1
10
335.0689805048
20
-4.88813895234807
30
0
41
1
10
334.837404971431
20
-3.44027387043283
30
0
41
1
10
334.604428430219
20
-1.99354733493578
30
0
41
1
10
334.447119657061
20
-0.978715189276755
30
0
41
1
10
334.359596941715
20
-0.475391029959042
30
0
41
1
10
334.324668124442
20
-0.185548528751411
30
0
41
1
10
334.297125794989
20
0.0110674081719253
30
0
41
1
10
334.226125568123
20
0.184285188607873
30
0
41
1
10
334.134206983345
20
0.275777401655034
30
0
41
1
10
334.075249905572
20
0.307958906962312
30
0
41
1
10
334.056288549022
20
0.316435249745638
30
0
0
SPLINE
5
267
100
AcDbEntity
8
1
62
256
6
ByLayer
370
18
48
1
60
0
100
AcDbSpline
70
4
71
1
72
4
73
2
40
0
40
0
40
1
40
1
41
1
10
334.355543154075
20
-14.0689158027498
30
0
41
1
10
334.448710351011
20
-14.9076489469272
30
0
0
SPLINE
5
268
100
AcDbEntity
8
1
62
256
6
ByLayer
370
18
48
1
60
0
100
AcDbSpline
70
4
71
3
72
12
73
8
40
0
40
0
40
0
40
0
40
0.500000000000005
40
0.500000000000005
40
0.750000000000002
40
0.750000000000002
40
1
40
1
40
1
40
1
41
1
10
335.051250855157
20
-14.5189044531108
30
0
41
1
10
335.042356361299
20
-14.585530802385
30
0
41
1
10
335.013331276521
20
-14.6493000323565
30
0
41
1
10
334.947166936303
20
-14.725746678052
30
0
41
1
10
334.921302936041
20
-14.7480292733985
30
0
41
1
10
334.864283768513
20
-14.7841571836232
30
0
41
1
10
334.833031534692
20
-14.7974731478282
30
0
41
1
10
334.800714090573
20
-14.8075498754092
30
0
0
SPLINE
5
269
100
AcDbEntity
8
1
62
256
6
ByLayer
370
18
48
1
60
0
100
AcDbSpline
70
4
71
2
72
6
73
3
40
0
40
0
40
0
40
1
40
1
40
1
41
1
10
334.260180841453
20
-14.0899031513486
30
0
41
1
10
334.30850852686
20
-14.0823045427685
30
0
41
1
10
334.355543154075
20
-14.0689158027497
30
0
0
SPLINE
5
26A
100
AcDbEntity
8
1
62
256
6
ByLayer
370
18
48
1
60
0
100
AcDbSpline
70
4
71
3
72
10
73
6
40
0
40
0
40
0
40
0
40
0.538211415127476
40
0.538211415127476
40
1
40
1
40
1
40
1
41
1
10
334.802772653109
20
-14.8068611525161
30
0
41
1
10
334.739252395204
20
-14.824941927311
30
0
41
1
10
334.675732602008
20
-14.8430259647754
30
0
41
1
10
334.557711785085
20
-14.876621548711
30
0
41
1
10
334.503210819841
20
-14.8921335072698
30
0
41
1
10
334.448710351011
20
-14.9076489469272
30
0
0
SPLINE
5
26B
100
AcDbEntity
8
1
62
256
6
ByLayer
370
18
48
1
60
0
100
AcDbSpline
70
4
71
1
72
4
73
2
40
0
40
0
40
1
40
1
41
1
10
335.051245754532
20
-14.5190008936498
30
0
41
1
10
335.886152637888
20
-8.2234389262633
30
0
0
SPLINE
5
26C
100
AcDbEntity
8
1
62
256
6
ByLayer
370
18
48
1
60
0
100
AcDbSpline
70
4
71
3
72
27
73
23
40
0
40
0
40
0
40
0
40
0.0031494353643536
40
0.0188964744183664
40
0.050390552526392
40
0.113378708742443
40
0.239355021174546
40
0.365331333606648
40
0.487370886275248
40
0.491307646038751
40
0.499181165565757
40
0.507054685092764
40
0.522801724146776
40
0.554295802254802
40
0.617283958470853
40
0.743260270902956
40
0.869236583335058
40
0.93222473955111
40
0.963718817659135
40
0.979465856713148
40
0.995212895767161
40
1
40
1
40
1
40
1
41
1
10
334.290068379544
20
-13.6814389101032
30
0
41
1
10
334.298928234893
20
-13.6717902705431
30
0
41
1
10
334.346800630964
20
-13.6094970246118
30
0
41
1
10
334.379717997625
20
-13.3782955323337
30
0
41
1
10
334.444792430023
20
-12.8753298646769
30
0
41
1
10
334.581248714974
20
-11.8545762151855
30
0
41
1
10
334.771238301763
20
-10.403013753464
30
0
41
1
10
335.008337074314
20
-8.6786669946724
30
0
41
1
10
335.161778378102
20
-7.51602041119011
30
0
41
1
10
335.239322229876
20
-6.9002913036654
30
0
41
1
10
335.235770288891
20
-6.81438408331499
30
0
41
1
10
335.204647893572
20
-6.6706195325136
30
0
41
1
10
335.16943567046
20
-6.41686168428478
30
0
41
1
10
335.085284583363
20
-5.91034043857209
30
0
41
1
10
334.925855621708
20
-4.89712231151017
30
0
41
1
10
334.694320665636
20
-3.44951092846782
30
0
41
1
10
334.461289455872
20
-2.00244491482113
30
0
41
1
10
334.304117483054
20
-0.988495297073797
30
0
41
1
10
334.216180357971
20
-0.482787957209666
30
0
41
1
10
334.180969511585
20
-0.190605152776698
30
0
41
1
10
334.158057097843
20
-0.0270407127139265
30
0
41
1
10
334.126217476691
20
0.0586000023740496
30
0
41
1
10
334.117236448369
20
0.0774104279472851
30
0
0
SPLINE
5
26D
100
AcDbEntity
8
1
62
256
6
ByLayer
370
18
48
1
60
0
100
AcDbSpline
70
4
71
3
72
12
73
8
40
0
40
0
40
0
40
0
40
0.441018882680559
40
0.441018882680559
40
0.720346499757215
40
0.720346499757215
40
1
40
1
40
1
40
1
41
1
10
334.856297981411
20
-0.120177893857942
30
0
41
1
10
334.860257765117
20
-0.133886237405079
30
0
41
1
10
334.863846796686
20
-0.147705518411186
30
0
41
1
10
334.869091216059
20
-0.170411596071403
30
0
41
1
10
334.870974031042
20
-0.179253233292314
30
0
41
1
10
334.874436273405
20
-0.197002977695831
30
0
41
1
10
334.876015849111
20
-0.20591373832832
30
0
41
1
10
334.87744150598
20
-0.214847435397331
30
0
0
SPLINE
5
26E
100
AcDbEntity
8
1
62
256
6
ByLayer
370
18
48
1
60
0
100
AcDbSpline
70
4
71
1
72
4
73
2
40
0
40
0
40
1
40
1
41
1
10
335.935251136269
20
-6.84445567383179
30
0
41
1
10
335.863960107193
20
-6.39761990220893
30
0
0
SPLINE
5
26F
100
AcDbEntity
8
1
62
256
6
ByLayer
370
18
48
1
60
0
100
AcDbSpline
70
4
71
1
72
4
73
2
40
0
40
0
40
1
40
1
41
1
10
335.863960107193
20
-6.39761990220893
30
0
41
1
10
334.877532521883
20
-0.214918699175655
30
0
0
SPLINE
5
270
100
AcDbEntity
8
1
62
256
6
ByLayer
370
18
48
1
60
0
100
AcDbSpline
70
4
71
3
72
12
73
8
40
0
40
0
40
0
40
0
40
0.555198715623194
40
0.555198715623194
40
0.906844280752311
40
0.906844280752311
40
1
40
1
40
1
40
1
41
1
10
334.448710351406
20
-14.9076489468149
30
0
41
1
10
334.434901626766
20
-14.9115800769206
30
0
41
1
10
334.420981169574
20
-14.9151431736309
30
0
41
1
10
334.398108972114
20
-14.9203498521366
30
0
41
1
10
334.389202678304
20
-14.922219160864
30
0
41
1
10
334.377901288836
20
-14.9243919848878
30
0
41
1
10
334.375532251318
20
-14.9248364439846
30
0
41
1
10
334.373161196253
20
-14.9252702781717
30
0
0
SPLINE
5
271
100
AcDbEntity
8
1
62
256
6
ByLayer
370
18
48
1
60
0
100
AcDbSpline
70
4
71
1
72
4
73
2
40
0
40
0
40
1
40
1
41
1
10
334.464704534181
20
0.477875878518688
30
0
41
1
10
334.008296943413
20
0.537525477096978
30
0
0
SPLINE
5
272
100
AcDbEntity
8
1
62
256
6
ByLayer
370
18
48
1
60
0
100
AcDbSpline
70
4
71
1
72
4
73
2
40
0
40
0
40
1
40
1
41
1
10
334.353368705932
20
-14.9288223540574
30
0
41
1
10
334.260180841453
20
-14.0899031513485
30
0
0
SPLINE
5
273
100
AcDbEntity
8
1
62
256
6
ByLayer
370
18
48
1
60
0
100
AcDbSpline
70
4
71
1
72
4
73
2
40
0
40
0
40
1
40
1
41
1
10
334.877532521883
20
-0.214918699175882
30
0
41
1
10
334.457189228991
20
0.114209270478113
30
0
0
SPLINE
5
274
100
AcDbEntity
8
1
62
256
6
ByLayer
370
18
48
1
60
0
100
AcDbSpline
70
4
71
1
72
4
73
2
40
0
40
0
40
1
40
1
41
1
10
335.993165867265
20
-7.41651251290591
30
0
41
1
10
335.558963327383
20
-7.00051797070464
30
0
0
SPLINE
5
275
100
AcDbEntity
8
1
62
256
6
ByLayer
370
18
48
1
60
0
100
AcDbSpline
70
4
71
1
72
4
73
2
40
0
40
0
40
1
40
1
41
1
10
334.661952578277
20
-13.7643701666702
30
0
41
1
10
335.051245754531
20
-14.5190008936496
30
0
0
SPLINE
5
276
100
AcDbEntity
8
1
62
256
6
ByLayer
370
18
48
1
60
0
100
AcDbSpline
70
4
71
1
72
4
73
2
40
0
40
0
40
1
40
1
41
1
10
335.990160650673
20
-7.18861587962829
30
0
41
1
10
335.974066489715
20
-7.08774138078482
30
0
0
SPLINE
5
277
100
AcDbEntity
8
1
62
256
6
ByLayer
370
18
48
1
60
0
100
AcDbSpline
70
4
71
1
72
4
73
2
40
0
40
0
40
1
40
1
41
1
10
335.886152637888
20
-8.2234389262633
30
0
41
1
10
335.946471987658
20
-7.76860472632836
30
0
0
SPLINE
5
278
100
AcDbEntity
8
1
62
256
6
ByLayer
370
18
48
1
60
0
100
AcDbSpline
70
4
71
1
72
4
73
2
40
0
40
0
40
1
40
1
41
1
10
334.755461960473
20
0.229167820619239
30
0
41
1
10
334.42002549943
20
0.264346942458133
30
0
0
SPLINE
5
279
100
AcDbEntity
8
1
62
256
6
ByLayer
370
18
48
1
60
0
100
AcDbSpline
70
4
71
1
72
4
73
2
40
0
40
0
40
1
40
1
41
1
10
334.12926807312
20
0.513055000351841
30
0
41
1
10
334.464704534181
20
0.477875878518716
30
0
0
SPLINE
5
27A
100
AcDbEntity
8
1
62
256
6
ByLayer
370
18
48
1
60
0
100
AcDbSpline
70
4
71
2
72
7
73
4
40
0
40
0
40
0
40
0.5
40
1
40
1
40
1
41
1
10
335.558963327384
20
-7.00051797070483
30
0
41
1
10
335.566455467071
20
-6.94402397033068
30
0
41
1
10
335.565029417998
20
-6.82947820486487
30
0
41
1
10
335.555958110731
20
-6.77262133741945
30
0
0
SPLINE
5
27B
100
AcDbEntity
8
1
62
256
6
ByLayer
370
18
48
1
60
0
100
AcDbSpline
70
4
71
3
72
10
73
6
40
0
40
0
40
0
40
0
40
0.773065997349359
40
0.773065997349359
40
1
40
1
40
1
40
1
41
1
10
334.755386996138
20
0.229175682554171
30
0
41
1
10
334.781390107256
20
0.139151598298042
30
0
41
1
10
334.807395114849
20
0.0491261180938807
30
0
41
1
10
334.841031117919
20
-0.0673243433573703
30
0
41
1
10
334.848664307675
20
-0.0937509399878138
30
0
41
1
10
334.856297980936
20
-0.120177892214571
30
0
0
SPLINE
5
27C
100
AcDbEntity
8
1
62
256
6
ByLayer
370
18
48
1
60
0
100
AcDbSpline
70
4
71
3
72
12
73
8
40
0
40
0
40
0
40
0
40
0.499999999999845
40
0.499999999999845
40
0.749999999999922
40
0.749999999999922
40
1
40
1
40
1
40
1
41
1
10
334.464705210964
20
0.477978054390093
30
0
41
1
10
334.531820335434
20
0.469148328840873
30
0
41
1
10
334.596055297983
20
0.44033255154946
30
0
41
1
10
334.673063730663
20
0.374651023398769
30
0
41
1
10
334.695509450635
20
0.348975042279932
30
0
41
1
10
334.731901573896
20
0.2923703096086
30
0
41
1
10
334.745314905154
20
0.261345359289891
30
0
41
1
10
334.755465232716
20
0.229262952948602
30
0
0
SPLINE
5
27D
100
AcDbEntity
8
1
62
256
6
ByLayer
370
18
48
1
60
0
100
AcDbSpline
70
4
71
1
72
4
73
2
40
0
40
0
40
1
40
1
41
1
10
335.555958110731
20
-6.77262133741962
30
0
41
1
10
335.990160650673
20
-7.18861587962806
30
0
0
SPLINE
5
27E
100
AcDbEntity
8
1
62
256
6
ByLayer
370
18
48
1
60
0
100
AcDbSpline
70
4
71
3
72
8
73
4
40
0
40
0
40
0
40
0
40
1
40
1
40
1
40
1
41
1
10
335.999943169458
20
-7.30245659557426
30
0
41
1
10
336.000415193704
20
-7.33825193072809
30
0
41
1
10
335.9979842802
20
-7.37393602329746
30
0
41
1
10
335.994156289452
20
-7.40955626322815
30
0
0
SPLINE
5
27F
100
AcDbEntity
8
1
62
256
6
ByLayer
370
18
48
1
60
0
100
AcDbSpline
70
4
71
3
72
8
73
4
40
0
40
0
40
0
40
0
40
1
40
1
40
1
40
1
41
1
10
335.991122535695
20
-7.19425069136724
30
0
41
1
10
335.995995704876
20
-7.23018796684283
30
0
41
1
10
335.99946541116
20
-7.26622642609715
30
0
41
1
10
335.999943169458
20
-7.30245659557426
30
0
0
SPLINE
5
280
100
AcDbEntity
8
1
62
256
6
ByLayer
370
18
48
1
60
0
100
AcDbSpline
70
4
71
2
72
6
73
3
40
0
40
0
40
0
40
1
40
1
40
1
41
1
10
334.457189228991
20
0.114209270478284
30
0
41
1
10
334.449534875558
20
0.162184997185449
30
0
41
1
10
334.436047913291
20
0.20887708225149
30
0
0
SPLINE
5
281
100
AcDbEntity
8
1
62
256
6
ByLayer
370
18
48
1
60
0
100
AcDbSpline
70
4
71
1
72
4
73
2
40
0
40
0
40
1
40
1
41
1
10
335.979329005003
20
-7.52084848801749
30
0
41
1
10
335.993165867265
20
-7.41651251290565
30
0
0
SPLINE
5
282
100
AcDbEntity
8
1
62
256
6
ByLayer
370
18
48
1
60
0
100
AcDbSpline
70
4
71
1
72
4
73
2
40
0
40
0
40
1
40
1
41
1
10
335.974066489715
20
-7.08774138078482
30
0
41
1
10
335.935251136269
20
-6.84445567383179
30
0
0
SPLINE
5
283
100
AcDbEntity
8
1
62
256
6
ByLayer
370
18
48
1
60
0
100
AcDbSpline
70
4
71
2
72
12
73
9
40
0
40
0
40
0
40
0.25
40
0.5
40
0.5
40
0.75
40
0.75
40
0.875
40
1
40
1
40
1
41
1
10
334.42002549943
20
0.264346942458133
30
0
41
1
10
334.406122901692
20
0.312477964388137
30
0
41
1
10
334.351710924057
20
0.397583592136016
30
0
41
1
10
334.312275984137
20
0.431599571373738
30
0
41
1
10
334.274561801037
20
0.464131251957326
30
0
41
1
10
334.226950799258
20
0.48554088104865
30
0
41
1
10
334.204839430049
20
0.495483881527349
30
0
41
1
10
334.155223084203
20
0.509662843815619
30
0
41
1
10
334.12926807312
20
0.513055000351784
30
0
0
SPLINE
5
284
100
AcDbEntity
8
1
62
256
6
ByLayer
370
18
48
1
60
0
100
AcDbSpline
70
4
71
2
72
12
73
9
40
0
40
0
40
0
40
0.25
40
0.5
40
0.5
40
0.75
40
0.75
40
0.875
40
1
40
1
40
1
41
1
10
334.411419951353
20
-14.053010076357
30
0
41
1
10
334.459904071501
20
-14.0392087279071
30
0
41
1
10
334.545634050122
20
-13.9851930196643
30
0
41
1
10
334.579899576979
20
-13.9460452749531
30
0
41
1
10
334.61266991608
20
-13.9086057552095
30
0
41
1
10
334.634236610232
20
-13.8613414929367
30
0
41
1
10
334.644252554427
20
-13.8393911555311
30
0
41
1
10
334.658535536244
20
-13.7901361536345
30
0
41
1
10
334.661952578276
20
-13.7643701666705
30
0
0
SPLINE
5
285
100
AcDbEntity
8
1
62
256
6
ByLayer
370
18
48
1
60
0
100
AcDbSpline
70
4
71
1
72
4
73
2
40
0
40
0
40
1
40
1
41
1
10
334.436047913291
20
0.208877082251746
30
0
41
1
10
334.856297980936
20
-0.120177892214144
30
0
0
SPLINE
5
286
100
AcDbEntity
8
1
62
256
6
ByLayer
370
18
48
1
60
0
100
AcDbSpline
70
4
71
1
72
4
73
2
40
0
40
0
40
1
40
1
41
1
10
334.800713127563
20
-14.8076408033296
30
0
41
1
10
334.411419951353
20
-14.0530100763566
30
0
0
SPLINE
5
287
100
AcDbEntity
8
1
62
256
6
ByLayer
370
18
48
1
60
0
100
AcDbSpline
70
4
71
1
72
4
73
2
40
0
40
0
40
1
40
1
41
1
10
335.946471987658
20
-7.76860472632836
30
0
41
1
10
335.979329005003
20
-7.52084848801749
30
0
0
SPLINE
5
288
100
AcDbEntity
8
1
62
256
6
ByLayer
370
13
48
1
60
0
100
AcDbSpline
70
4
71
3
72
9
73
5
40
0
40
0
40
0
40
0
40
0.51349527176462
40
1
40
1
40
1
40
1
41
1
10
319.000396944418
20
4.28227171012114
30
0
41
1
10
319.022535311879
20
4.28282274159824
30
0
41
1
10
319.065618842356
20
4.28480048773858
30
0
41
1
10
319.108704625631
20
4.28665603279507
30
0
41
1
10
319.129665959112
20
4.2875643925905
30
0
0
SPLINE
5
289
100
AcDbEntity
8
1
62
256
6
ByLayer
370
13
48
1
60
0
100
AcDbSpline
70
4
71
3
72
12
73
8
40
0
40
0
40
0
40
0
40
0.0590320357922795
40
0.0590320357922795
40
0.539356876073222
40
0.539356876073222
40
1
40
1
40
1
40
1
41
1
10
334.824375736977
20
5.35666614324205
30
0
41
1
10
334.81890451595
20
5.35083543229354
30
0
41
1
10
334.813339795174
20
5.34508250573194
30
0
41
1
10
334.761654647337
20
5.29325187972233
30
0
41
1
10
334.711011046268
20
5.25340353401935
30
0
41
1
10
334.602737175676
20
5.18772779037937
30
0
41
1
10
334.545274705529
20
5.16155244690538
30
0
41
1
10
334.4864711584
20
5.14238923737838
30
0
0
SPLINE
5
28A
100
AcDbEntity
8
1
62
256
6
ByLayer
370
13
48
1
60
0
100
AcDbSpline
70
4
71
3
72
10
73
6
40
0
40
0
40
0
40
0
40
0.5
40
0.5
40
1
40
1
40
1
40
1
41
1
10
319.894949215285
20
5.36435813855869
30
0
41
1
10
319.891273613589
20
5.36416550843626
30
0
41
1
10
319.873977397777
20
5.3734727047565
30
0
41
1
10
319.822589639776
20
5.40481113778395
30
0
41
1
10
319.788397109557
20
5.42684346353784
30
0
41
1
10
319.755715336686
20
5.44857454156124
30
0
0
SPLINE
5
28B
100
AcDbEntity
8
1
62
256
6
ByLayer
370
13
48
1
60
0
100
AcDbSpline
70
4
71
3
72
18
73
14
40
0
40
0
40
0
40
0
40
0.499999999999931
40
0.499999999999931
40
0.749999999999911
40
0.749999999999911
40
0.8749999999999
40
0.8749999999999
40
0.906249999999918
40
0.906249999999918
40
0.937499999999936
40
0.937499999999936
40
1
40
1
40
1
40
1
41
1
10
326.64405142892
20
6.26399206122542
30
0
41
1
10
327.645238941347
20
6.3164620753976
30
0
41
1
10
328.646426855324
20
6.36892442729385
30
0
41
1
10
330.14820800311
20
6.44763175479156
30
0
41
1
10
330.648800586876
20
6.47388913126321
30
0
41
1
10
331.399692100644
20
6.5132248622146
30
0
41
1
10
331.649989490183
20
6.52633260592623
30
0
41
1
10
331.962859008788
20
6.54275962916799
30
0
41
1
10
332.025432358393
20
6.54595688999697
30
0
41
1
10
332.150586968469
20
6.55263294719859
30
0
41
1
10
332.213077860725
20
6.55422756492027
30
0
41
1
10
332.400004404868
20
6.54799298383591
30
0
41
1
10
332.524205082082
20
6.53163464117654
30
0
41
1
10
332.647281753555
20
6.50287402257439
30
0
0
SPLINE
5
28C
100
AcDbEntity
8
1
62
256
6
ByLayer
370
13
48
1
60
0
100
AcDbSpline
70
4
71
3
72
22
73
18
40
0
40
0
40
0
40
0
40
0.125
40
0.125
40
0.25
40
0.25
40
0.375
40
0.375
40
0.5
40
0.5
40
0.625
40
0.625
40
0.75
40
0.75
40
0.875
40
0.875
40
1
40
1
40
1
40
1
41
1
10
334.832381499116
20
20.3632896264111
30
0
41
1
10
334.823722805412
20
20.419919033372
30
0
41
1
10
334.809613252836
20
20.4746352701488
30
0
41
1
10
334.769352918802
20
20.5798414519152
30
0
41
1
10
334.743113707507
20
20.6310483638309
30
0
41
1
10
334.680615312497
20
20.7258958529668
30
0
41
1
10
334.644870287778
20
20.7695513114074
30
0
41
1
10
334.563875515223
20
20.8488956151256
30
0
41
1
10
334.518643391064
20
20.8845112563214
30
0
41
1
10
334.423327506442
20
20.94460854404
30
0
41
1
10
334.372605223136
20
20.9695713604521
30
0
41
1
10
334.265296634571
20
21.0086732666713
30
0
41
1
10
334.210574939982
20
21.0223942487569
30
0
41
1
10
334.099023469466
20
21.0383222072999
30
0
41
1
10
334.041855403939
20
21.0387592661451
30
0
41
1
10
333.927897041924
20
21.0406779810546
30
0
41
1
10
333.870918627441
20
21.0410403031486
30
0
41
1
10
333.813940881606
20
21.0408818250158
30
0
0
SPLINE
5
28D
100
AcDbEntity
8
1
62
256
6
ByLayer
370
13
48
1
60
0
100
AcDbSpline
70
4
71
3
72
12
73
8
40
0
40
0
40
0
40
0
40
0.250000000000118
40
0.250000000000118
40
0.500000000000236
40
0.500000000000236
40
1
40
1
40
1
40
1
41
1
10
334.062023229892
20
5.31377620656644
30
0
41
1
10
334.040256839814
20
5.31319059059999
30
0
41
1
10
334.019823381595
20
5.31349949005406
30
0
41
1
10
333.978475538296
20
5.31379455626109
30
0
41
1
10
333.957728239269
20
5.31389448454195
30
0
41
1
10
333.895562107812
20
5.31424342362266
30
0
41
1
10
333.854170097097
20
5.31450983253717
30
0
41
1
10
333.812751293586
20
5.31475886365175
30
0
0
SPLINE
5
28E
100
AcDbEntity
8
1
62
256
6
ByLayer
370
13
48
1
60
0
100
AcDbSpline
70
4
71
3
72
18
73
14
40
0
40
0
40
0
40
0
40
0.500000000000014
40
0.500000000000014
40
0.750000000000021
40
0.750000000000021
40
0.87500000000001
40
0.87500000000001
40
0.906250000000008
40
0.906250000000008
40
0.937500000000005
40
0.937500000000005
40
1
40
1
40
1
40
1
41
1
10
326.002543820049
20
18.8576773550855
30
0
41
1
10
324.993198177651
20
18.8047797914384
30
0
41
1
10
323.983852212612
20
18.7518902310255
30
0
41
1
10
322.469833700359
20
18.6725410020336
30
0
41
1
10
321.965161596705
20
18.6460683638934
30
0
41
1
10
321.208151630987
20
18.6064158903131
30
0
41
1
10
320.955815901456
20
18.5931695148544
30
0
41
1
10
320.640395221315
20
18.5766433165999
30
0
41
1
10
320.577326981255
20
18.5728420855176
30
0
41
1
10
320.451120360573
20
18.5674281731122
30
0
41
1
10
320.387926458573
20
18.5675478887473
30
0
41
1
10
320.198067194268
20
18.5765675044858
30
0
41
1
10
320.071129232943
20
18.5939731321773
30
0
41
1
10
319.943795474741
20
18.6237285489512
30
0
0
SPLINE
5
28F
100
AcDbEntity
8
1
62
256
6
ByLayer
370
13
48
1
60
0
100
AcDbSpline
70
4
71
3
72
8
73
4
40
0
40
0
40
0
40
0
40
1
40
1
40
1
40
1
41
1
10
333.813940881606
20
21.0408818250158
30
0
41
1
10
333.748387093586
20
21.0406994934445
30
0
41
1
10
333.682834259758
20
21.03977395531
30
0
41
1
10
333.617282313949
20
21.0381567525361
30
0
0
SPLINE
5
290
100
AcDbEntity
8
1
62
256
6
ByLayer
370
13
48
1
60
0
100
AcDbSpline
70
4
71
3
72
9
73
5
40
0
40
0
40
0
40
0
40
0.513495271764603
40
1
40
1
40
1
40
1
41
1
10
333.617282313949
20
21.0381567525361
30
0
41
1
10
333.595143946488
20
21.037605721059
30
0
41
1
10
333.552060416011
20
21.0356279749186
30
0
41
1
10
333.508974632735
20
21.0337724298622
30
0
41
1
10
333.488013299254
20
21.0328640700667
30
0
0
SPLINE
5
291
100
AcDbEntity
8
1
62
256
6
ByLayer
370
13
48
1
60
0
100
AcDbSpline
70
4
71
2
72
6
73
3
40
0
40
0
40
0
40
1
40
1
40
1
41
1
10
316.433633523856
20
12.3210702088837
30
0
41
0.997409491337351
10
316.430835682605
20
12.2672263312739
30
0
41
1
10
316.435760323613
20
12.2135330190233
30
0
0
SPLINE
5
292
100
AcDbEntity
8
1
62
256
6
ByLayer
370
13
48
1
60
0
100
AcDbSpline
70
4
71
2
72
6
73
3
40
0
40
0
40
0
40
1
40
1
40
1
41
1
10
316.667749863994
20
12.0862598473156
30
0
41
0.997409491337351
10
316.668514746639
20
12.0285697136261
30
0
41
1
10
316.677514576083
20
11.971583109154
30
0
0
SPLINE
5
293
100
AcDbEntity
8
1
62
256
6
ByLayer
370
13
48
1
60
0
100
AcDbSpline
70
4
71
1
72
4
73
2
40
0
40
0
40
1
40
1
41
1
10
316.677514576083
20
11.971583109154
30
0
41
1
10
316.452280732668
20
11.9652602686921
30
0
0
SPLINE
5
294
100
AcDbEntity
8
1
62
256
6
ByLayer
370
13
48
1
60
0
100
AcDbSpline
70
4
71
3
72
8
73
4
40
0
40
0
40
0
40
0
40
1
40
1
40
1
40
1
41
1
10
333.333818721817
20
21.0005640500804
30
0
41
1
10
333.385217998335
20
21.0113309877499
30
0
41
1
10
333.436658819135
20
21.0221080582944
30
0
41
1
10
333.488013299256
20
21.0328640700685
30
0
0
SPLINE
5
295
100
AcDbEntity
8
1
62
256
6
ByLayer
370
13
48
1
60
0
100
AcDbSpline
70
4
71
3
72
10
73
6
40
0
40
0
40
0
40
0
40
0.5
40
0.5
40
1
40
1
40
1
40
1
41
1
10
319.920872678488
20
5.44864215467234
30
0
41
1
10
319.917196037691
20
5.44844947009295
30
0
41
1
10
319.896924840166
20
5.4483579974312
30
0
41
1
10
319.835824240236
20
5.44836251602661
30
0
41
1
10
319.794913050694
20
5.44845070678977
30
0
41
1
10
319.755715336686
20
5.44857454156127
30
0
0
SPLINE
5
296
100
AcDbEntity
8
1
62
256
6
ByLayer
370
13
48
1
60
0
100
AcDbSpline
70
4
71
2
72
6
73
3
40
0
40
0
40
0
40
1
40
1
40
1
41
1
10
335.949929394373
20
13.2341686153416
30
0
41
0.997409491337352
10
335.950694277018
20
13.1764784816536
30
0
41
1
10
335.943208381914
20
13.1192788445039
30
0
0
SPLINE
5
297
100
AcDbEntity
8
1
62
256
6
ByLayer
370
13
48
1
60
0
100
AcDbSpline
70
4
71
3
72
8
73
4
40
0
40
0
40
0
40
0
40
1
40
1
40
1
40
1
41
1
10
317.897076176786
20
20.1915586539312
30
0
41
1
10
317.844833019434
20
20.1968939218021
30
0
41
1
10
317.79254748621
20
20.202234924479
30
0
41
1
10
317.740350021923
20
20.2075640088063
30
0
0
SPLINE
5
298
100
AcDbEntity
8
1
62
256
6
ByLayer
370
13
48
1
60
0
100
AcDbSpline
70
4
71
3
72
8
73
4
40
0
40
0
40
0
40
0
40
1
40
1
40
1
40
1
41
1
10
334.257101456474
20
5.31862114540257
30
0
41
1
10
334.190258317071
20
5.31539938643931
30
0
41
1
10
334.125349328787
20
5.31408171526567
30
0
41
1
10
334.062023229892
20
5.31377620656644
30
0
0
SPLINE
5
299
100
AcDbEntity
8
1
62
256
6
ByLayer
370
13
48
1
60
0
100
AcDbSpline
70
4
71
1
72
4
73
2
40
0
40
0
40
1
40
1
41
1
10
317.78529775925
20
4.95713883624609
30
0
41
1
10
317.755266580128
20
4.9562957908505
30
0
0
SPLINE
5
29A
100
AcDbEntity
8
1
62
256
6
ByLayer
370
13
48
1
60
0
100
AcDbSpline
70
4
71
2
72
6
73
3
40
0
40
0
40
0
40
1
40
1
40
1
41
1
10
316.667749863994
20
12.0862598473156
30
0
41
0.997409491337352
10
316.666984981349
20
12.1439499810037
30
0
41
1
10
316.674470876453
20
12.2011496181533
30
0
0
SPLINE
5
29B
100
AcDbEntity
8
1
62
256
6
ByLayer
370
13
48
1
60
0
100
AcDbSpline
70
4
71
3
72
24
73
20
40
0
40
0
40
0
40
0
40
0.0312499999999886
40
0.0312499999999886
40
0.0624999999999772
40
0.0624999999999772
40
0.124999999999955
40
0.124999999999955
40
0.156249999999944
40
0.156249999999944
40
0.171874999999939
40
0.171874999999939
40
0.187499999999933
40
0.187499999999933
40
0.249999999999936
40
0.249999999999936
40
0.499999999999949
40
0.499999999999949
40
1
40
1
40
1
40
1
41
1
10
332.432676705474
20
19.6830775349297
30
0
41
1
10
332.376937492917
20
19.6442212556401
30
0
41
1
10
332.318602396436
20
19.6080162140126
30
0
41
1
10
332.198542587485
20
19.5422084924567
30
0
41
1
10
332.137240685788
20
19.5127939515404
30
0
41
1
10
331.949626291258
20
19.4347239388501
30
0
41
1
10
331.819575120022
20
19.3960783402999
30
0
41
1
10
331.617123326511
20
19.3590846179032
30
0
41
1
10
331.549418369495
20
19.3505173309058
30
0
41
1
10
331.447547240282
20
19.3430084388267
30
0
41
1
10
331.413529593286
20
19.3415375277473
30
0
41
1
10
331.345531855416
20
19.3379561445841
30
0
41
1
10
331.311531899303
20
19.3361839670769
30
0
41
1
10
331.141533890673
20
19.3272929044122
30
0
41
1
10
331.00553606373
20
19.3201701778655
30
0
41
1
10
330.325548475379
20
19.2845302112983
30
0
41
1
10
329.781560607795
20
19.2559807204657
30
0
41
1
10
328.149589751642
20
19.1704557695663
30
0
41
1
10
327.061608312741
20
19.1134550424646
30
0
41
1
10
325.973627829447
20
19.0564364014318
30
0
0
SPLINE
5
29C
100
AcDbEntity
8
1
62
256
6
ByLayer
370
13
48
1
60
0
100
AcDbSpline
70
4
71
2
72
6
73
3
40
0
40
0
40
0
40
1
40
1
40
1
41
1
10
316.449436262944
20
12.1798001589815
30
0
41
0.99911644269705
10
316.447054215958
20
12.1615989657509
30
0
41
0.998835603708733
10
316.445564656397
20
12.1433018935468
30
0
0
SPLINE
5
29D
100
AcDbEntity
8
1
62
256
6
ByLayer
370
13
48
1
60
0
100
AcDbSpline
70
4
71
3
72
26
73
22
40
0
40
0
40
0
40
0
40
0.249999999999954
40
0.249999999999954
40
0.37499999999993
40
0.37499999999993
40
0.499999999999907
40
0.499999999999907
40
0.624999999999884
40
0.624999999999884
40
0.68749999999977
40
0.68749999999977
40
0.718749999999713
40
0.718749999999713
40
0.749999999999656
40
0.749999999999656
40
0.812499999999742
40
0.812499999999742
40
0.874999999999828
40
0.874999999999828
40
1
40
1
40
1
40
1
41
1
10
334.916158767461
20
5.46516222849613
30
0
41
1
10
334.878953800936
20
5.4440394374557
30
0
41
1
10
334.837316701714
20
5.42302332445854
30
0
41
1
10
334.763538804946
20
5.39308186341995
30
0
41
1
10
334.737464535296
20
5.38355589368351
30
0
41
1
10
334.680918707223
20
5.3658528967558
30
0
41
1
10
334.650540920246
20
5.35771336201532
30
0
41
1
10
334.587950996527
20
5.3445597932172
30
0
41
1
10
334.556160712591
20
5.33981351359546
30
0
41
1
10
334.510600920771
20
5.33586456529952
30
0
41
1
10
334.495729706951
20
5.33497758564945
30
0
41
1
10
334.473778572272
20
5.33386101667753
30
0
41
1
10
334.466466216562
20
5.33349293815022
30
0
41
1
10
334.452137332755
20
5.33301614130855
30
0
41
1
10
334.44511797433
20
5.33291068197511
30
0
41
1
10
334.422825730752
20
5.33144871915005
30
0
41
1
10
334.406375777067
20
5.32898547704789
30
0
41
1
10
334.375679333171
20
5.32612393649009
30
0
41
1
10
334.36084008543
20
5.32517014397499
30
0
41
1
10
334.315917310781
20
5.32192919712858
30
0
41
1
10
334.286243223906
20
5.32002574355982
30
0
41
1
10
334.257101456474
20
5.31862114540257
30
0
0
SPLINE
5
29E
100
AcDbEntity
8
1
62
256
6
ByLayer
370
13
48
1
60
0
100
AcDbSpline
70
4
71
1
72
4
73
2
40
0
40
0
40
1
40
1
41
1
10
318.086464128798
20
19.9680165048665
30
0
41
1
10
317.897076176786
20
20.1915586539312
30
0
0
SPLINE
5
29F
100
AcDbEntity
8
1
62
256
6
ByLayer
370
13
48
1
60
0
100
AcDbSpline
70
4
71
3
72
20
73
16
40
0
40
0
40
0
40
0
40
0.0625000000000308
40
0.0625000000000308
40
0.125000000000062
40
0.125000000000062
40
0.156250000000065
40
0.156250000000065
40
0.187500000000068
40
0.187500000000068
40
0.250000000000074
40
0.250000000000074
40
0.50000000000005
40
0.50000000000005
40
1
40
1
40
1
40
1
41
1
10
332.564734605263
20
19.5197326261308
30
0
41
1
10
332.448506570563
20
19.4387090742997
30
0
41
1
10
332.32606487107
20
19.3705826680435
30
0
41
1
10
332.069164927891
20
19.25927151636
30
0
41
1
10
331.933057379848
20
19.2159295589677
30
0
41
1
10
331.728522236347
20
19.1725936224379
30
0
41
1
10
331.660079443699
20
19.1616281360134
30
0
41
1
10
331.522676653961
20
19.1465039074915
30
0
41
1
10
331.453639969231
20
19.1433544242188
30
0
41
1
10
331.246636586544
20
19.132502108568
30
0
41
1
10
331.10863210436
20
19.1252965410077
30
0
41
1
10
330.418619370441
20
19.0891413476304
30
0
41
1
10
329.866613176067
20
19.0601643677294
30
0
41
1
10
328.21058386711
20
18.9733762989377
30
0
41
1
10
327.106563333235
20
18.9155365660567
30
0
41
1
10
326.002543820049
20
18.8576773550855
30
0
0
SPLINE
5
2A0
100
AcDbEntity
8
1
62
256
6
ByLayer
370
13
48
1
60
0
100
AcDbSpline
70
4
71
2
72
6
73
3
40
0
40
0
40
0
40
1
40
1
40
1
41
0.998835603708723
10
316.445564656397
20
12.1433018935476
30
0
41
0.998293048640318
10
316.439002421504
20
12.1781844577449
30
0
41
1
10
316.435760323613
20
12.2135330190233
30
0
0
SPLINE
5
2A1
100
AcDbEntity
8
1
62
256
6
ByLayer
370
13
48
1
60
0
100
AcDbSpline
70
4
71
1
72
4
73
2
40
0
40
0
40
1
40
1
41
1
10
316.674470876453
20
12.2011496181533
30
0
41
1
10
316.449436262944
20
12.1798001589815
30
0
0
SPLINE
5
2A2
100
AcDbEntity
8
1
62
256
6
ByLayer
370
13
48
1
60
0
100
AcDbSpline
70
4
71
3
72
9
73
5
40
0
40
0
40
0
40
0
40
0.513495271764438
40
1
40
1
40
1
40
1
41
1
10
317.611235920454
20
20.1993154059516
30
0
41
1
10
317.633310610094
20
20.2010814826125
30
0
41
1
10
317.676364855248
20
20.2036180260054
30
0
41
1
10
317.719408567368
20
20.2062763365333
30
0
41
1
10
317.740350021925
20
20.2075640088047
30
0
0
SPLINE
5
2A3
100
AcDbEntity
8
1
62
256
6
ByLayer
370
13
48
1
60
0
100
AcDbSpline
70
4
71
3
72
8
73
4
40
0
40
0
40
0
40
0
40
1
40
1
40
1
40
1
41
1
10
317.429135371888
20
20.1828017825259
30
0
41
1
10
317.489771464639
20
20.1889237243253
30
0
41
1
10
317.550470382594
20
20.1944404506655
30
0
41
1
10
317.611235920454
20
20.1993154059516
30
0
0
SPLINE
5
2A4
100
AcDbEntity
8
1
62
256
6
ByLayer
370
13
48
1
60
0
100
AcDbSpline
70
4
71
1
72
4
73
2
40
0
40
0
40
1
40
1
41
1
10
316.363485305688
20
12.3185632711499
30
0
41
1
10
316.433633523856
20
12.3210702088837
30
0
0
SPLINE
5
2A5
100
AcDbEntity
8
1
62
256
6
ByLayer
370
13
48
1
60
0
100
AcDbSpline
70
4
71
3
72
18
73
14
40
0
40
0
40
0
40
0
40
0.500000000000014
40
0.500000000000014
40
0.75000000000002
40
0.75000000000002
40
0.87500000000001
40
0.87500000000001
40
0.906250000000008
40
0.906250000000008
40
0.937500000000005
40
0.937500000000005
40
1
40
1
40
1
40
1
41
1
10
326.652033037024
20
6.46468482878086
30
0
41
1
10
327.661378679422
20
6.51758239242795
30
0
41
1
10
328.670724644462
20
6.57047195284082
30
0
41
1
10
330.184743156715
20
6.64982118183269
30
0
41
1
10
330.689415260369
20
6.67629381997284
30
0
41
1
10
331.446425226087
20
6.71594629355323
30
0
41
1
10
331.698760955618
20
6.72919266901192
30
0
41
1
10
332.014181635759
20
6.74571886726642
30
0
41
1
10
332.077249875818
20
6.74952009834871
30
0
41
1
10
332.2034564965
20
6.75493401075411
30
0
41
1
10
332.266650398501
20
6.75481429511902
30
0
41
1
10
332.456509662806
20
6.74579467938057
30
0
41
1
10
332.583447624131
20
6.72838905168899
30
0
41
1
10
332.710781382332
20
6.69863363491513
30
0
0
SPLINE
5
2A6
100
AcDbEntity
8
1
62
256
6
ByLayer
370
13
48
1
60
0
100
AcDbSpline
70
4
71
3
72
14
73
10
40
0
40
0
40
0
40
0
40
0.0288455662573062
40
0.0288455662573062
40
0.190704638547755
40
0.190704638547755
40
0.352563710838204
40
0.352563710838204
40
1
40
1
40
1
40
1
41
1
10
317.442028669475
20
19.950820303856
30
0
41
1
10
317.445748379307
20
19.9512574574482
30
0
41
1
10
317.44946133998
20
19.9516827952881
30
0
41
1
10
317.473811516061
20
19.9541498142445
30
0
41
1
10
317.49396003866
20
19.9553359407487
30
0
41
1
10
317.534542350641
20
19.9582076103802
30
0
41
1
10
317.554770465361
20
19.959533078828
30
0
41
1
10
317.65530261701
20
19.9650952566176
30
0
41
1
10
317.734432504041
20
19.9669944795045
30
0
41
1
10
317.812216260919
20
19.9676902288425
30
0
0
SPLINE
5
2A7
100
AcDbEntity
8
1
62
256
6
ByLayer
370
13
48
1
60
0
100
AcDbSpline
70
4
71
3
72
22
73
18
40
0
40
0
40
0
40
0
40
0.124999999999947
40
0.124999999999947
40
0.249999999999895
40
0.249999999999895
40
0.374999999999842
40
0.374999999999842
40
0.49999999999979
40
0.49999999999979
40
0.624999999999737
40
0.624999999999737
40
0.687499999999763
40
0.687499999999763
40
0.74999999999979
40
0.74999999999979
40
1
40
1
40
1
40
1
41
1
10
317.78529775925
20
4.95713883624609
30
0
41
1
10
317.795201698277
20
4.89236530194813
30
0
41
1
10
317.812318017319
20
4.83012320549011
30
0
41
1
10
317.862159481661
20
4.71111747784147
30
0
41
1
10
317.895182632014
20
4.65372556831073
30
0
41
1
10
317.972634385725
20
4.55023750385826
30
0
41
1
10
318.017721445689
20
4.50323068437979
30
0
41
1
10
318.118923289096
20
4.42104328803262
30
0
41
1
10
318.173454745559
20
4.38670693353077
30
0
41
1
10
318.290396355781
20
4.33157921740735
30
0
41
1
10
318.353008430359
20
4.31098363893224
30
0
41
1
10
318.447682786985
20
4.29174158811011
30
0
41
1
10
318.479590878702
20
4.28723906717642
30
0
41
1
10
318.544098935602
20
4.2820129285422
30
0
41
1
10
318.576778362978
20
4.28170157098117
30
0
41
1
10
318.739712603733
20
4.27879197462175
30
0
41
1
10
318.870056668703
20
4.27905614340014
30
0
41
1
10
319.000396944418
20
4.28227171012117
30
0
0
SPLINE
5
2A8
100
AcDbEntity
8
1
62
256
6
ByLayer
370
13
48
1
60
0
100
AcDbSpline
70
4
71
3
72
24
73
20
40
0
40
0
40
0
40
0
40
0.0514081714718748
40
0.0514081714718748
40
0.10281634294375
40
0.10281634294375
40
0.154224514415624
40
0.154224514415624
40
0.205632685887499
40
0.205632685887499
40
0.308449028831247
40
0.308449028831247
40
0.411265371774996
40
0.411265371774996
40
0.616898057662507
40
0.616898057662507
40
0.822530743550019
40
0.822530743550019
40
1
40
1
40
1
40
1
41
1
10
335.067370085222
20
5.86358469027067
30
0
41
1
10
335.066024847507
20
5.84609857898528
30
0
41
1
10
335.064329161786
20
5.82717029148375
30
0
41
1
10
335.060204044437
20
5.78981529111519
30
0
41
1
10
335.057795208513
20
5.77173343186681
30
0
41
1
10
335.053105407105
20
5.74042601429127
30
0
41
1
10
335.050802429243
20
5.72684668258501
30
0
41
1
10
335.046324629281
20
5.70240348126637
30
0
41
1
10
335.044170679191
20
5.69166593437132
30
0
41
1
10
335.037860186733
20
5.66209747755329
30
0
41
1
10
335.033912537243
20
5.64612534941156
30
0
41
1
10
335.026323651817
20
5.61799522985032
30
0
41
1
10
335.022676981639
20
5.60591225979408
30
0
41
1
10
335.012092440476
20
5.57361194158469
30
0
41
1
10
335.005468004991
20
5.55713283393885
30
0
41
1
10
334.992719946186
20
5.52942023214288
30
0
41
1
10
334.986600320132
20
5.51833541984408
30
0
41
1
10
334.975554508393
20
5.50124884144273
30
0
41
1
10
334.970572334401
20
5.49472887892955
30
0
41
1
10
334.965703257892
20
5.48934365026162
30
0
0
SPLINE
5
2A9
100
AcDbEntity
8
1
62
256
6
ByLayer
370
13
48
1
60
0
100
AcDbSpline
70
4
71
3
72
10
73
6
40
0
40
0
40
0
40
0
40
0.196352315132922
40
0.196352315132922
40
1
40
1
40
1
40
1
41
1
10
334.954912744816
20
5.47901816509366
30
0
41
1
10
334.952245174667
20
5.47685106766446
30
0
41
1
10
334.949608654432
20
5.47498500248076
30
0
41
1
10
334.936319302199
20
5.46677361807147
30
0
41
1
10
334.926090674719
20
5.4645346750803
30
0
41
1
10
334.916158767461
20
5.4651622284961
30
0
0
SPLINE
5
2AA
100
AcDbEntity
8
1
62
256
6
ByLayer
370
13
48
1
60
0
100
AcDbSpline
70
4
71
1
72
4
73
2
40
0
40
0
40
1
40
1
41
1
10
333.997966991094
20
5.21496692660227
30
0
41
1
10
334.062023229892
20
5.31377620656644
30
0
0
SPLINE
5
2AB
100
AcDbEntity
8
1
62
256
6
ByLayer
370
13
48
1
60
0
100
AcDbSpline
70
4
71
2
72
6
73
3
40
0
40
0
40
0
40
1
40
1
40
1
41
1
10
316.452280732668
20
11.9652602686921
30
0
41
0.997409491337351
10
316.443870000502
20
12.0185167298601
30
0
41
1
10
316.443155184393
20
12.0724306696849
30
0
0
SPLINE
5
2AC
100
AcDbEntity
8
1
62
256
6
ByLayer
370
13
48
1
60
0
100
AcDbSpline
70
4
71
2
72
6
73
3
40
0
40
0
40
0
40
1
40
1
40
1
41
0.998835603708733
10
316.445564656397
20
12.1433018935468
30
0
41
0.998293048640302
10
316.442684590943
20
12.1079244793566
30
0
41
1
10
316.443155184393
20
12.0724306696849
30
0
0
SPLINE
5
2AD
100
AcDbEntity
8
1
62
256
6
ByLayer
370
13
48
1
60
0
100
AcDbSpline
70
4
71
3
72
20
73
16
40
0
40
0
40
0
40
0
40
0.0624999999999907
40
0.0624999999999907
40
0.124999999999981
40
0.124999999999981
40
0.156249999999977
40
0.156249999999977
40
0.187499999999972
40
0.187499999999972
40
0.249999999999963
40
0.249999999999963
40
0.499999999999975
40
0.499999999999975
40
1
40
1
40
1
40
1
41
1
10
320.08984225181
20
5.80262955773551
30
0
41
1
10
320.206070286511
20
5.88365310956664
30
0
41
1
10
320.328511986004
20
5.95177951582278
30
0
41
1
10
320.585411929183
20
6.06309066750629
30
0
41
1
10
320.721519477226
20
6.10643262489862
30
0
41
1
10
320.926054620727
20
6.14976856142849
30
0
41
1
10
320.994497413374
20
6.16073404785288
30
0
41
1
10
321.131900203112
20
6.17585827637487
30
0
41
1
10
321.200936887842
20
6.1790077596475
30
0
41
1
10
321.407940270529
20
6.1898600752983
30
0
41
1
10
321.545944752713
20
6.19706564285858
30
0
41
1
10
322.235957486632
20
6.23322083623592
30
0
41
1
10
322.787963681006
20
6.26219781613688
30
0
41
1
10
324.443992989964
20
6.34898588492865
30
0
41
1
10
325.548013523838
20
6.4068256178096
30
0
41
1
10
326.652033037024
20
6.4646848287808
30
0
0
SPLINE
5
2AE
100
AcDbEntity
8
1
62
256
6
ByLayer
370
13
48
1
60
0
100
AcDbSpline
70
4
71
3
72
10
73
6
40
0
40
0
40
0
40
0
40
0.470344360303183
40
0.470344360303183
40
1
40
1
40
1
40
1
41
1
10
332.686971248823
20
19.8712348111466
30
0
41
1
10
332.686990114169
20
19.8710464748074
30
0
41
1
10
332.699836311934
20
19.8707946512023
30
0
41
1
10
332.74791045542
20
19.8702869874802
30
0
41
1
10
332.785868608966
20
19.8700440346584
30
0
41
1
10
332.825066322975
20
19.8699201998868
30
0
0
SPLINE
5
2AF
100
AcDbEntity
8
1
62
256
6
ByLayer
370
13
48
1
60
0
100
AcDbSpline
70
4
71
3
72
10
73
6
40
0
40
0
40
0
40
0
40
0.437251963448342
40
0.437251963448342
40
1
40
1
40
1
40
1
41
1
10
332.71306616853
20
19.9540778738502
30
0
41
1
10
332.714859036324
20
19.9507641343344
30
0
41
1
10
332.724529750398
20
19.9421563736095
30
0
41
1
10
332.761144948735
20
19.9138383601076
30
0
41
1
10
332.792384550103
20
19.8916512779105
30
0
41
1
10
332.825066322975
20
19.8699201998869
30
0
0
SPLINE
5
2B0
100
AcDbEntity
8
1
62
256
6
ByLayer
370
13
48
1
60
0
100
AcDbSpline
70
4
71
3
72
24
73
20
40
0
40
0
40
0
40
0
40
0.0312500000000186
40
0.0312500000000186
40
0.0625000000000372
40
0.0625000000000372
40
0.125000000000075
40
0.125000000000075
40
0.156250000000081
40
0.156250000000081
40
0.171875000000084
40
0.171875000000084
40
0.187500000000087
40
0.187500000000087
40
0.250000000000075
40
0.250000000000075
40
0.50000000000005
40
0.50000000000005
40
1
40
1
40
1
40
1
41
1
10
320.185002552888
20
5.63735092772384
30
0
41
1
10
320.240741765445
20
5.67620720701353
30
0
41
1
10
320.299076861925
20
5.7124122486411
30
0
41
1
10
320.419136670876
20
5.7782199701974
30
0
41
1
10
320.480438572572
20
5.8076345111138
30
0
41
1
10
320.668052967102
20
5.88570452380466
30
0
41
1
10
320.798104138337
20
5.92435012235524
30
0
41
1
10
321.000555931848
20
5.96134384475278
30
0
41
1
10
321.068260888863
20
5.96991113175045
30
0
41
1
10
321.170132018076
20
5.97742002383004
30
0
41
1
10
321.204149665072
20
5.9788909349094
30
0
41
1
10
321.272147402942
20
5.98247231807267
30
0
41
1
10
321.306147359054
20
5.98424449557979
30
0
41
1
10
321.476145367684
20
5.99313555824452
30
0
41
1
10
321.612143194627
20
6.00025828479122
30
0
41
1
10
322.292130782976
20
6.03589825135833
30
0
41
1
10
322.836118650559
20
6.06444774219082
30
0
41
1
10
324.468089506708
20
6.14997269309006
30
0
41
1
10
325.556070945628
20
6.20697342019275
30
0
41
1
10
326.644051428919
20
6.26399206122534
30
0
0
SPLINE
5
2B1
100
AcDbEntity
8
1
62
256
6
ByLayer
370
13
48
1
60
0
100
AcDbSpline
70
4
71
1
72
4
73
2
40
0
40
0
40
1
40
1
41
1
10
317.611235920454
20
20.1993154059516
30
0
41
1
10
317.812216260919
20
19.9676902288425
30
0
0
SPLINE
5
2B2
100
AcDbEntity
8
1
62
256
6
ByLayer
370
13
48
1
60
0
100
AcDbSpline
70
4
71
1
72
4
73
2
40
0
40
0
40
1
40
1
41
1
10
316.443155184393
20
12.0724306696849
30
0
41
1
10
316.667749863994
20
12.0862598473156
30
0
0
SPLINE
5
2B3
100
AcDbEntity
8
1
62
256
6
ByLayer
370
13
48
1
60
0
100
AcDbSpline
70
4
71
3
72
18
73
14
40
0
40
0
40
0
40
0
40
0.500000000000014
40
0.500000000000014
40
0.750000000000007
40
0.750000000000007
40
0.875000000000003
40
0.875000000000003
40
0.906249999999996
40
0.906249999999996
40
0.937499999999988
40
0.937499999999988
40
1
40
1
40
1
40
1
41
1
10
325.973627829448
20
19.0564364014318
30
0
41
1
10
324.972440317021
20
19.0039663872596
30
0
41
1
10
323.971252403043
20
18.9515040353633
30
0
41
1
10
322.469471255257
20
18.8727967078657
30
0
41
1
10
321.968878671491
20
18.846539331394
30
0
41
1
10
321.217987157722
20
18.8072036004427
30
0
41
1
10
320.967689768184
20
18.794095856731
30
0
41
1
10
320.654820249579
20
18.7776688334892
30
0
41
1
10
320.592246899973
20
18.7744715726603
30
0
41
1
10
320.467092289897
20
18.7677955154586
30
0
41
1
10
320.404601397642
20
18.766200897737
30
0
41
1
10
320.217674853499
20
18.7724354788213
30
0
41
1
10
320.093474176285
20
18.7887938214806
30
0
41
1
10
319.970397504812
20
18.8175544400828
30
0
0
SPLINE
5
2B4
100
AcDbEntity
8
1
62
256
6
ByLayer
370
13
48
1
60
0
100
AcDbSpline
70
4
71
2
72
6
73
3
40
0
40
0
40
0
40
1
40
1
40
1
41
1
10
335.949929394373
20
13.2341686153416
30
0
41
0.997409491337351
10
335.949164511728
20
13.2918587490311
30
0
41
1
10
335.940164682284
20
13.3488453535032
30
0
0
SPLINE
5
2B5
100
AcDbEntity
8
1
62
256
6
ByLayer
370
13
48
1
60
0
100
AcDbSpline
70
4
71
1
72
4
73
2
40
0
40
0
40
1
40
1
41
1
10
316.355472024303
20
12.0994319534996
30
0
41
1
10
316.443827408032
20
12.1066410704478
30
0
0
SPLINE
5
2B6
100
AcDbEntity
8
1
62
256
6
ByLayer
370
13
48
1
60
0
100
AcDbSpline
70
4
71
3
72
12
73
8
40
0
40
0
40
0
40
0
40
0.25
40
0.25
40
0.5
40
0.5
40
1
40
1
40
1
40
1
41
1
10
317.812216260919
20
19.9676902288425
30
0
41
1
10
317.835750278049
20
19.9683684822173
30
0
41
1
10
317.858371628458
20
19.9681742453343
30
0
41
1
10
317.903943630179
20
19.9681005578894
30
0
41
1
10
317.926780881133
20
19.9681101593479
30
0
41
1
10
317.99523971584
20
19.9680910068702
30
0
41
1
10
318.040842564287
20
19.9680452786102
30
0
41
1
10
318.086464128798
20
19.9680165048665
30
0
0
SPLINE
5
2B7
100
AcDbEntity
8
1
62
256
6
ByLayer
370
13
48
1
60
0
100
AcDbSpline
70
4
71
3
72
24
73
20
40
0
40
0
40
0
40
0
40
0.0453611707751983
40
0.0453611707751983
40
0.0907223415503964
40
0.0907223415503964
40
0.136083512325595
40
0.136083512325595
40
0.181444683100793
40
0.181444683100793
40
0.27216702465117
40
0.27216702465117
40
0.362889366201546
40
0.362889366201546
40
0.544334049302316
40
0.544334049302316
40
0.725778732403085
40
0.725778732403085
40
1
40
1
40
1
40
1
41
1
10
317.755266580128
20
4.9562957908505
30
0
41
1
10
317.758432244832
20
4.93904608594315
30
0
41
1
10
317.762097186214
20
4.92039873700438
30
0
41
1
10
317.770104366522
20
4.88367956341315
30
0
41
1
10
317.774390075552
20
4.86594855039891
30
0
41
1
10
317.782326701985
20
4.83530285586679
30
0
41
1
10
317.786036490569
20
4.82203863989753
30
0
41
1
10
317.793044770945
20
4.79819739854213
30
0
41
1
10
317.796309300747
20
4.78774382214536
30
0
41
1
10
317.80567596902
20
4.75899697050696
30
0
41
1
10
317.811271534883
20
4.74352498108934
30
0
41
1
10
317.821759245769
20
4.71634221579748
30
0
41
1
10
317.826648953398
20
4.70470661834511
30
0
41
1
10
317.840551813963
20
4.67368963048042
30
0
41
1
10
317.848862495896
20
4.65799323917176
30
0
41
1
10
317.86443747518
20
4.63176498490461
30
0
41
1
10
317.871682255677
20
4.62138057147484
30
0
41
1
10
317.888897628641
20
4.60003092264586
30
0
41
1
10
317.898399787516
20
4.59139470499883
30
0
41
1
10
317.907305561339
20
4.58559125017223
30
0
0
SPLINE
5
2B8
100
AcDbEntity
8
1
62
256
6
ByLayer
370
13
48
1
60
0
100
AcDbSpline
70
4
71
3
72
8
73
4
40
0
40
0
40
0
40
0
40
1
40
1
40
1
40
1
41
1
10
295.806645947023
20
8.52643315183914
30
0
41
1
10
295.799730218141
20
8.53169643760771
30
0
41
1
10
295.792818596564
20
8.53687028131338
30
0
41
1
10
295.785911080585
20
8.54195472016505
30
0
0
SPLINE
5
2B9
100
AcDbEntity
8
1
62
256
6
ByLayer
370
13
48
1
60
0
100
AcDbSpline
70
4
71
3
72
14
73
10
40
0
40
0
40
0
40
0
40
0.25
40
0.25
40
0.5
40
0.5
40
0.75
40
0.75
40
1
40
1
40
1
40
1
41
1
10
334.060771020982
20
0.697699021321029
30
0
41
1
10
334.06188422579
20
0.747981078299006
30
0
41
1
10
334.063865905922
20
0.794662326077741
30
0
41
1
10
334.069456622832
20
0.877546163697758
30
0
41
1
10
334.072983905673
20
0.912776622909291
30
0
41
1
10
334.081444152439
20
0.969578474723676
30
0
41
1
10
334.086180209832
20
0.989932046715722
30
0
41
1
10
334.096682640466
20
1.01425105292591
30
0
41
1
10
334.102199798984
20
1.01758910495783
30
0
41
1
10
334.107938066828
20
1.01194195928431
30
0
0
SPLINE
5
2BA
100
AcDbEntity
8
1
62
256
6
ByLayer
370
13
48
1
60
0
100
AcDbSpline
70
4
71
3
72
18
73
14
40
0
40
0
40
0
40
0
40
0.109629654015174
40
0.109629654015174
40
0.40641976934345
40
0.40641976934345
40
0.480617298175519
40
0.480617298175519
40
0.554814827007588
40
0.554814827007588
40
0.703209884671725
40
0.703209884671725
40
1
40
1
40
1
40
1
41
1
10
14.8761900052226
20
-14.3955348582848
30
0
41
1
10
14.4862719277497
20
-14.7750763013497
30
0
41
1
10
14.1078378887242
20
-15.1622782576255
30
0
41
1
10
12.746725598173
20
-16.6256392845048
30
0
41
1
10
11.8352444934615
20
-17.749221142915
30
0
41
1
10
10.8044153508665
20
-19.2255832730004
30
0
41
1
10
10.6034037141102
20
-19.5249942298746
30
0
41
1
10
10.2147879453728
20
-20.127932515512
30
0
41
1
10
10.0270836982405
20
-20.4315915422563
30
0
41
1
10
9.48325992842155
20
-21.3489699005141
30
0
41
1
10
9.14638095317872
20
-21.9690635442822
30
0
41
1
10
8.20988911125247
20
-23.8537590972783
30
0
41
1
10
7.68371944072409
20
-25.1425485684335
30
0
41
1
10
7.25600189578709
20
-26.4633206470991
30
0
0
SPLINE
5
2BB
100
AcDbEntity
8
1
62
256
6
ByLayer
370
13
48
1
60
0
100
AcDbSpline
70
4
71
3
72
8
73
4
40
0
40
0
40
0
40
0
40
1
40
1
40
1
40
1
41
1
10
312.83366599802
20
9.7336162381566
30
0
41
1
10
312.95131224296
20
11.0495941562917
30
0
41
1
10
313.065526225711
20
12.3638633415989
30
0
41
1
10
313.175337492034
20
13.6767738428962
30
0
0
SPLINE
5
2BC
100
AcDbEntity
8
1
62
256
6
ByLayer
370
13
48
1
60
0
100
AcDbSpline
70
4
71
3
72
16
73
12
40
0
40
0
40
0
40
0
40
0.250000000000005
40
0.250000000000005
40
0.500000000000009
40
0.500000000000009
40
0.625000000000008
40
0.625000000000008
40
0.750000000000008
40
0.750000000000008
40
1
40
1
40
1
40
1
41
1
10
36.1961524259657
20
-19.8058802484051
30
0
41
1
10
35.9348286732987
20
-19.8058602368884
30
0
41
1
10
35.6780270382711
20
-19.8264338793583
30
0
41
1
10
35.1727993911544
20
-19.905723622013
30
0
41
1
10
34.9243770732527
20
-19.9644565454632
30
0
41
1
10
34.5578697963554
20
-20.0804545507623
30
0
41
1
10
34.4375757484141
20
-20.1235475490393
30
0
41
1
10
34.2029693554236
20
-20.2171328531834
30
0
41
1
10
34.0882529962955
20
-20.2677516235034
30
0
41
1
10
33.7513799779062
20
-20.4303697482716
30
0
41
1
10
33.5364690772388
20
-20.5530861000574
30
0
41
1
10
33.3303920538776
20
-20.6888683908126
30
0
0
SPLINE
5
2BD
100
AcDbEntity
8
1
62
256
6
ByLayer
370
13
48
1
60
0
100
AcDbSpline
70
4
71
3
72
44
73
40
40
0
40
0
40
0
40
0
40
0.124999999999999
40
0.124999999999999
40
0.187499999999999
40
0.187499999999999
40
0.218749999999999
40
0.218749999999999
40
0.249999999999999
40
0.249999999999999
40
0.374999999999999
40
0.374999999999999
40
0.437499999999999
40
0.437499999999999
40
0.468749999999998
40
0.468749999999998
40
0.499999999999998
40
0.499999999999998
40
0.562499999999998
40
0.562499999999998
40
0.593749999999998
40
0.593749999999998
40
0.624999999999999
40
0.624999999999999
40
0.687499999999999
40
0.687499999999999
40
0.749999999999999
40
0.749999999999999
40
0.781249999999999
40
0.781249999999999
40
0.812499999999999
40
0.812499999999999
40
0.874999999999999
40
0.874999999999999
40
0.90625
40
0.90625
40
0.9375
40
0.9375
40
1
40
1
40
1
40
1
41
1
10
13.6803946433345
20
-14.7315350914275
30
0
41
1
10
13.1330671354871
20
-14.8596395634588
30
0
41
1
10
12.5960228569311
20
-15.025430081677
30
0
41
1
10
11.805175716857
20
-15.328419156866
30
0
41
1
10
11.5440370176024
20
-15.4385535598589
30
0
41
1
10
11.156186855535
20
-15.6180325062525
30
0
41
1
10
11.0275484910476
20
-15.6802457754199
30
0
41
1
10
10.7716067114637
20
-15.8096201439069
30
0
41
1
10
10.6444118288875
20
-15.8767385114171
30
0
41
1
10
10.0195339525066
20
-16.2208641233703
30
0
41
1
10
9.5485721787585
20
-16.5260653759233
30
0
41
1
10
8.88979609995192
20
-17.0329833995337
30
0
41
1
10
8.6782674749868
20
-17.2102694986389
30
0
41
1
10
8.37435444013342
20
-17.4899579454268
30
0
41
1
10
8.27496654793322
20
-17.5858054962228
30
0
41
1
10
8.08361417226052
20
-17.7796147908
30
0
41
1
10
7.99139227022481
20
-17.8777839457613
30
0
41
1
10
7.72524054551023
20
-18.1761282102374
30
0
41
1
10
7.56176829926072
20
-18.3801188464662
30
0
41
1
10
7.33901533145898
20
-18.6942632335502
30
0
41
1
10
7.26851999696851
20
-18.8003427162826
30
0
41
1
10
7.13548326039407
20
-19.0153888082771
30
0
41
1
10
7.07283914209746
20
-19.1246143565332
30
0
41
1
10
6.90075629827761
20
-19.4510887376095
30
0
41
1
10
6.80579170448644
20
-19.6688557722543
30
0
41
1
10
6.65584702324448
20
-20.1045657276041
30
0
41
1
10
6.60083577651791
20
-20.3225074544559
30
0
41
1
10
6.55119356515942
20
-20.6496234725272
30
0
41
1
10
6.54022553394576
20
-20.7588108700246
30
0
41
1
10
6.53015453511064
20
-20.9725959321401
30
0
41
1
10
6.53098118240136
20
-21.0777740275264
30
0
41
1
10
6.55060883843794
20
-21.3882881608402
30
0
41
1
10
6.5863843192684
20
-21.588643167455
30
0
41
1
10
6.67434501781683
20
-21.8791644590048
30
0
41
1
10
6.70962836854777
20
-21.9747709422359
30
0
41
1
10
6.79093292698451
20
-22.1599057739344
30
0
41
1
10
6.83687255528518
20
-22.2494390024565
30
0
41
1
10
6.99021129158487
20
-22.5092006209726
30
0
41
1
10
7.11330690805197
20
-22.6705262231426
30
0
41
1
10
7.25635914423157
20
-22.8205683532035
30
0
0
SPLINE
5
2BE
100
AcDbEntity
8
1
62
256
6
ByLayer
370
13
48
1
60
0
100
AcDbSpline
70
4
71
3
72
8
73
4
40
0
40
0
40
0
40
0
40
1
40
1
40
1
40
1
41
1
10
42
20
-7.24965921634191
30
0
41
1
10
40.3333333313604
20
-7.24970158787875
30
0
41
1
10
38.6666666630855
20
-7.24978572525867
30
0
41
1
10
37
20
-7.2499198446379
30
0
0
SPLINE
5
2BF
100
AcDbEntity
8
1
62
256
6
ByLayer
370
13
48
1
60
0
100
AcDbSpline
70
4
71
3
72
20
73
16
40
0
40
0
40
0
40
0
40
0.125000000000004
40
0.125000000000004
40
0.250000000000006
40
0.250000000000006
40
0.375000000000009
40
0.375000000000009
40
0.500000000000011
40
0.500000000000011
40
0.750000000000006
40
0.750000000000006
40
0.875000000000003
40
0.875000000000003
40
1
40
1
40
1
40
1
41
1
10
312.273233234959
20
7.62894861343048
30
0
41
1
10
312.293062874088
20
7.69552847164204
30
0
41
1
10
312.312303372527
20
7.76613103943544
30
0
41
1
10
312.350113076084
20
7.91558320779143
30
0
41
1
10
312.368478225096
20
7.99371543414634
30
0
41
1
10
312.403827757261
20
8.15374396639083
30
0
41
1
10
312.420913929114
20
8.23605876933726
30
0
41
1
10
312.454189192624
20
8.40526972216239
30
0
41
1
10
312.470493690452
20
8.49285884237079
30
0
41
1
10
312.517375720337
20
8.7565282245869
30
0
41
1
10
312.545874799208
20
8.93355528156803
30
0
41
1
10
312.587869821288
20
9.20042685447166
30
0
41
1
10
312.601609018531
20
9.28867931423238
30
0
41
1
10
312.629470852121
20
9.46030955627862
30
0
41
1
10
312.643550748789
20
9.54422016685535
30
0
41
1
10
312.659694537938
20
9.6258211989765
30
0
0
SPLINE
5
2C0
100
AcDbEntity
8
1
62
256
6
ByLayer
370
13
48
1
60
0
100
AcDbSpline
70
4
71
3
72
14
73
10
40
0
40
0
40
0
40
0
40
0.125
40
0.125
40
0.250000000000001
40
0.250000000000001
40
0.5
40
0.5
40
1
40
1
40
1
40
1
41
1
10
156.6
20
-7.24523917832042
30
0
41
1
10
151.825002011645
20
-7.2429493388195
30
0
41
1
10
147.050003618643
20
-7.24079275974066
30
0
41
1
10
137.500004982346
20
-7.23923942219704
30
0
41
1
10
132.725004821818
20
-7.23975070492301
30
0
41
1
10
118.400003215738
20
-7.2430093457703
30
0
41
1
10
108.850000963484
20
-7.24705350475858
30
0
41
1
10
80.199998724038
20
-7.25139736915526
30
0
41
1
10
61.1000011941851
20
-7.24788426551132
30
0
41
1
10
41.9999999999999
20
-7.249659216342
30
0
0
SPLINE
5
2C1
100
AcDbEntity
8
1
62
256
6
ByLayer
370
13
48
1
60
0
100
AcDbSpline
70
4
71
3
72
10
73
6
40
0
40
0
40
0
40
0
40
0.5
40
0.5
40
1
40
1
40
1
40
1
41
1
10
308.159341197172
20
2.53844343198182
30
0
41
1
10
306.073439310228
20
3.45547635710599
30
0
41
1
10
304.000640382188
20
4.4186227808101
30
0
41
1
10
299.876978906195
20
6.42211675809364
30
0
41
1
10
297.826176804206
20
7.46267704032908
30
0
41
1
10
295.785597271864
20
8.53921381110803
30
0
0
SPLINE
5
2C2
100
AcDbEntity
8
1
62
256
6
ByLayer
370
13
48
1
60
0
100
AcDbSpline
70
4
71
3
72
14
73
10
40
0
40
0
40
0
40
0
40
0.25
40
0.25
40
0.5
40
0.5
40
0.75
40
0.75
40
1
40
1
40
1
40
1
41
1
10
322.662049866819
20
3.96430823455694
30
0
41
1
10
322.960908413424
20
4.07048371414871
30
0
41
1
10
323.248970946806
20
4.15795129114699
30
0
41
1
10
323.806948036616
20
4.30525891729295
30
0
41
1
10
324.076797679956
20
4.36499599725704
30
0
41
1
10
324.599009026823
20
4.46288734892823
30
0
41
1
10
324.851347268744
20
4.50100070437978
30
0
41
1
10
325.337859846022
20
4.56029923548527
30
0
41
1
10
325.56981328314
20
4.58121026404407
30
0
41
1
10
325.789919955334
20
4.59576999435069
30
0
0
SPLINE
5
2C3
100
AcDbEntity
8
1
62
256
6
ByLayer
370
13
48
1
60
0
100
AcDbSpline
70
4
71
3
72
8
73
4
40
0
40
0
40
0
40
0
40
1
40
1
40
1
40
1
41
1
10
320.538118329166
20
5.59422935859237
30
0
41
1
10
320.48993445533
20
5.59262211648942
30
0
41
1
10
320.441792969854
20
5.59174464402727
30
0
41
1
10
320.393731423841
20
5.59202428703395
30
0
0
SPLINE
5
2C4
100
AcDbEntity
8
1
62
256
6
ByLayer
370
13
48
1
60
0
100
AcDbSpline
70
4
71
3
72
10
73
6
40
0
40
0
40
0
40
0
40
0.806108221289689
40
0.806108221289689
40
1
40
1
40
1
40
1
41
1
10
316.85566143541
20
14.0281120457077
30
0
41
1
10
316.81925528529
20
13.978987568253
30
0
41
1
10
316.787621083916
20
13.9312153263986
30
0
41
1
10
316.758382811686
20
13.8812121926772
30
0
41
1
10
316.753194300718
20
13.8719629192247
30
0
41
1
10
316.74867345325
20
13.8634933509207
30
0
0
SPLINE
5
2C5
100
AcDbEntity
8
1
62
256
6
ByLayer
370
13
48
1
60
0
100
AcDbSpline
70
4
71
3
72
18
73
14
40
0
40
0
40
0
40
0
40
0.249999999999913
40
0.249999999999913
40
0.374999999999901
40
0.374999999999901
40
0.499999999999889
40
0.499999999999889
40
0.749999999999945
40
0.749999999999945
40
0.874999999999973
40
0.874999999999973
40
1
40
1
40
1
40
1
41
1
10
315.340272754749
20
7.23450514818958
30
0
41
1
10
315.299849858392
20
7.1286915894556
30
0
41
1
10
315.251314450621
20
7.02727462311341
30
0
41
1
10
315.16587298269
20
6.88199855700583
30
0
41
1
10
315.135275049476
20
6.83472075475311
30
0
41
1
10
315.069602662905
20
6.74259120962708
30
0
41
1
10
315.034323854382
20
6.69750633482266
30
0
41
1
10
314.922708727524
20
6.56793838683151
30
0
41
1
10
314.841521867205
20
6.4899004911866
30
0
41
1
10
314.709189927506
20
6.3858304319231
30
0
41
1
10
314.663308492179
20
6.35331986781776
30
0
41
1
10
314.567755096641
20
6.29296405093888
30
0
41
1
10
314.517749876339
20
6.26496087741251
30
0
41
1
10
314.466496360567
20
6.23995598436363
30
0
0
SPLINE
5
2C6
100
AcDbEntity
8
1
62
256
6
ByLayer
370
13
48
1
60
0
100
AcDbSpline
70
4
71
3
72
40
73
36
40
0
40
0
40
0
40
0
40
0.125
40
0.125
40
0.1875
40
0.1875
40
0.21875
40
0.21875
40
0.249999999999999
40
0.249999999999999
40
0.374999999999999
40
0.374999999999999
40
0.406249999999999
40
0.406249999999999
40
0.437499999999999
40
0.437499999999999
40
0.499999999999999
40
0.499999999999999
40
0.562499999999999
40
0.562499999999999
40
0.593749999999999
40
0.593749999999999
40
0.624999999999999
40
0.624999999999999
40
0.687499999999999
40
0.687499999999999
40
0.71875
40
0.71875
40
0.75
40
0.75
40
0.875
40
0.875
40
0.9375
40
0.9375
40
1
40
1
40
1
40
1
41
1
10
5.6738
20
-5.56776436283013
30
0
41
1
10
6.10302145386295
20
-5.22919073689249
30
0
41
1
10
6.49770982102547
20
-4.85795725579823
30
0
41
1
10
7.03194623242992
20
-4.24644602004571
30
0
41
1
10
7.20033031916819
20
-4.0334401099054
30
0
41
1
10
7.43683817576867
20
-3.69873458735862
30
0
41
1
10
7.5128552404225
20
-3.58476814258637
30
0
41
1
10
7.65748508653445
20
-3.35439858907196
30
0
41
1
10
7.72633378824355
20
-3.23766989458255
30
0
41
1
10
8.05299615938765
20
-2.64619546528962
30
0
41
1
10
8.25872520308809
20
-2.14825029536686
30
0
41
1
10
8.43638084720806
20
-1.49040557259158
30
0
41
1
10
8.46798194247569
20
-1.356505813806
30
0
41
1
10
8.52198584011308
20
-1.08878444950119
30
0
41
1
10
8.54448548788574
20
-0.95475115947329
30
0
41
1
10
8.59863651908573
20
-0.552139561113449
30
0
41
1
10
8.61697352175199
20
-0.283050810020455
30
0
41
1
10
8.61814194174225
20
0.256487894713189
30
0
41
1
10
8.60097607948632
20
0.526937744059211
30
0
41
1
10
8.54778400465753
20
0.933664630422243
30
0
41
1
10
8.5254391337529
20
1.06931140018887
30
0
41
1
10
8.47236771191417
20
1.33679584642002
30
0
41
1
10
8.44158128202925
20
1.46916412320357
30
0
41
1
10
8.3369004064169
20
1.86228628662926
30
0
41
1
10
8.25071656854345
20
2.11906791224951
30
0
41
1
10
8.0979163830889
20
2.4966366246488
30
0
41
1
10
8.04305384224388
20
2.62122285688613
30
0
41
1
10
7.92555465253137
20
2.86788252122304
30
0
41
1
10
7.86281758285756
20
2.99008712084438
30
0
41
1
10
7.53385684580151
20
3.58791906683797
30
0
41
1
10
7.21983620225916
20
4.03014612054398
30
0
41
1
10
6.68278996749343
20
4.64670213077159
30
0
41
1
10
6.49237693366199
20
4.84447999088258
30
0
41
1
10
6.09564943116834
20
5.21987014358777
30
0
41
1
10
5.88874309943121
20
5.398215371535
30
0
41
1
10
5.67380000000001
20
5.56776436283013
30
0
0
SPLINE
5
2C7
100
AcDbEntity
8
1
62
256
6
ByLayer
370
13
48
1
60
0
100
AcDbSpline
70
4
71
3
72
19
73
15
40
0
40
0
40
0
40
0
40
0.25
40
0.25
40
0.375
40
0.375
40
0.5
40
0.5
40
0.625
40
0.625
40
0.75
40
0.875
40
0.875
40
1
40
1
40
1
40
1
41
1
10
37.0049999759168
20
-11.344133999676
30
0
41
1
10
34.508454920327
20
-11.8932108954296
30
0
41
1
10
32.0217691278242
20
-12.693247983649
30
0
41
1
10
28.4601537385325
20
-14.2666007224515
30
0
41
1
10
27.3011708449996
20
-14.8540500036371
30
0
41
1
10
25.0637356718728
20
-16.1458327153707
30
0
41
1
10
23.9851969800748
20
-16.8496884195645
30
0
41
1
10
21.9319497251126
20
-18.3608225637828
30
0
41
1
10
20.9575703858346
20
-19.168359349011
30
0
41
1
10
19.1345278945206
20
-20.8731049265477
30
0
41
1
10
17.435592164037
20
-22.6662595784578
30
0
41
1
10
16.0098008630427
20
-24.5939460388353
30
0
41
1
10
14.7330472309274
20
-26.5677552336954
30
0
41
1
10
14.1695757498891
20
-27.5777429711073
30
0
41
1
10
13.6804138807299
20
-28.5998575991964
30
0
0
SPLINE
5
2C8
100
AcDbEntity
8
1
62
256
6
ByLayer
370
13
48
1
60
0
100
AcDbSpline
70
4
71
3
72
49
73
45
40
0
40
0
40
0
40
0
40
0.0070893713229502
40
0.0070893713229502
40
0.0468057964700304
40
0.0468057964700304
40
0.0666640090435711
40
0.0666640090435711
40
0.0865222216171119
40
0.0865222216171119
40
0.126238646764195
40
0.126238646764195
40
0.165955071911277
40
0.165955071911277
40
0.20567149705836
40
0.20567149705836
40
0.245387922205443
40
0.245387922205443
40
0.285104347352525
40
0.285104347352525
40
0.324820772499608
40
0.324820772499608
40
0.364537197646691
40
0.364537197646691
40
0.404253622793774
40
0.404253622793774
40
0.424111835367315
40
0.424111835367315
40
0.443970047940856
40
0.443970047940856
40
0.483686473087938
40
0.483686473087938
40
0.503544685661479
40
0.503544685661479
40
0.523402898235019
40
0.523402898235019
40
0.563119323382101
40
0.563119323382101
40
0.602835748529183
40
0.682268598823347
40
0.682268598823347
40
0.841134299411674
40
0.841134299411674
40
1
40
1
40
1
40
1
41
1
10
275.383653359918
20
-16.8793364293256
30
0
41
1
10
275.122073961138
20
-16.9430422488895
30
0
41
1
10
274.860439629784
20
-17.0059376866061
30
0
41
1
10
273.132649233911
20
-17.4157648858883
30
0
41
1
10
271.667361552973
20
-17.7373166894872
30
0
41
1
10
269.469519419593
20
-18.1767444902264
30
0
41
1
10
268.736501965732
20
-18.3156967788373
30
0
41
1
10
267.265916118477
20
-18.5754370555214
30
0
41
1
10
266.528092468423
20
-18.6959954221146
30
0
41
1
10
264.303975496142
20
-19.0295624234956
30
0
41
1
10
262.80826233581
20
-19.215890998139
30
0
41
1
10
259.793779628563
20
-19.5322188260912
30
0
41
1
10
258.27366455647
20
-19.6620331368851
30
0
41
1
10
255.221846964156
20
-19.875696374785
30
0
41
1
10
253.688981177995
20
-19.9596759152311
30
0
41
1
10
250.609284304306
20
-20.0924376965365
30
0
41
1
10
249.062465191701
20
-20.1412227238646
30
0
41
1
10
245.955110032195
20
-20.2126635661496
30
0
41
1
10
244.394461587224
20
-20.2353172501547
30
0
41
1
10
241.259212220785
20
-20.2620161501145
30
0
41
1
10
239.68762291097
20
-20.2660324529676
30
0
41
1
10
236.53493747047
20
-20.2635361202359
30
0
41
1
10
234.953778392871
20
-20.2571136112722
30
0
41
1
10
231.781779242899
20
-20.2410820700146
30
0
41
1
10
230.190938678435
20
-20.2314868883705
30
0
41
1
10
227.797816561199
20
-20.2183135693408
30
0
41
1
10
226.998643688747
20
-20.214108592973
30
0
41
1
10
225.399495542149
20
-20.2065360916443
30
0
41
1
10
224.599849594708
20
-20.2031805219897
30
0
41
1
10
222.200706409117
20
-20.194787566759
30
0
41
1
10
220.601007314934
20
-20.1914508717392
30
0
41
1
10
218.201218091702
20
-20.1889417064992
30
0
41
1
10
217.401250672105
20
-20.188481784513
30
0
41
1
10
215.801280895963
20
-20.1879206772855
30
0
41
1
10
215.001280432077
20
-20.1877990586982
30
0
41
1
10
212.601258483587
20
-20.1876457435627
30
0
41
1
10
211.001219847781
20
-20.1877900032281
30
0
41
1
10
207.801153088843
20
-20.1879703909114
30
0
41
1
10
203.001048076882
20
-20.1882907610497
30
0
41
1
10
198.200934931756
20
-20.188693024841
30
0
41
1
10
188.600715347298
20
-20.1894271744083
30
0
41
1
10
182.200575486206
20
-20.189807205441
30
0
41
1
10
169.40028856738
20
-20.1901963161187
30
0
41
1
10
163.000144453799
20
-20.1902125696266
30
0
41
1
10
156.6
20
-20.1901363560267
30
0
0
SPLINE
5
2C9
100
AcDbEntity
8
1
62
256
6
ByLayer
370
13
48
1
60
0
100
AcDbSpline
70
4
71
3
72
8
73
4
40
0
40
0
40
0
40
0
40
1
40
1
40
1
40
1
41
1
10
312.273233234958
20
7.62894861342696
30
0
41
1
10
307.287707941398
20
7.81088222266828
30
0
41
1
10
302.308724789355
20
7.84676409975046
30
0
41
1
10
297.327884117692
20
7.74011540393877
30
0
0
SPLINE
5
2CA
100
AcDbEntity
8
1
62
256
6
ByLayer
370
13
48
1
60
0
100
AcDbSpline
70
4
71
3
72
23
73
19
40
0
40
0
40
0
40
0
40
0.125
40
0.125
40
0.25
40
0.25
40
0.375
40
0.375
40
0.5
40
0.625
40
0.625
40
0.75
40
0.75
40
0.875
40
0.875
40
0.9375
40
0.9375
40
1
40
1
40
1
40
1
41
1
10
320.999476950795
20
4.63625495306212
30
0
41
1
10
320.898530937841
20
4.54379962910693
30
0
41
1
10
320.791019925729
20
4.45950639009536
30
0
41
1
10
320.561841690486
20
4.30766035920195
30
0
41
1
10
320.442509459987
20
4.24169551419763
30
0
41
1
10
320.195284459864
20
4.12962267645278
30
0
41
1
10
320.066759108206
20
4.08326035008028
30
0
41
1
10
319.801510842867
20
4.01133478055021
30
0
41
1
10
319.533451423994
20
3.96153635657293
30
0
41
1
10
319.25974126077
20
3.95433243897639
30
0
41
1
10
318.983221481745
20
3.96925132588106
30
0
41
1
10
318.846428035536
20
3.98768620922718
30
0
41
1
10
318.578522947979
20
4.04536693552944
30
0
41
1
10
318.446949239779
20
4.08463447177996
30
0
41
1
10
318.253410457197
20
4.15978389287162
30
0
41
1
10
318.189749884025
20
4.18750558023757
30
0
41
1
10
318.066104068818
20
4.24736471342638
30
0
41
1
10
318.005837835591
20
4.27960698356671
30
0
41
1
10
317.947151413127
20
4.31411399737104
30
0
0
SPLINE
5
2CB
100
AcDbEntity
8
1
62
256
6
ByLayer
370
13
48
1
60
0
100
AcDbSpline
70
4
71
3
72
14
73
10
40
0
40
0
40
0
40
0
40
0.25
40
0.25
40
0.5
40
0.5
40
0.75
40
0.75
40
1
40
1
40
1
40
1
41
1
10
156.6
20
-20.190136356027
30
0
41
1
10
147.049999381525
20
-20.2079739505522
30
0
41
1
10
137.499997938155
20
-20.2256449517084
30
0
41
1
10
118.399995902001
20
-20.2611600715672
30
0
41
1
10
108.849995130485
20
-20.2789849471616
30
0
41
1
10
89.7499959545669
20
-20.3149262292714
30
0
41
1
10
80.1999971981168
20
-20.3330020842765
30
0
41
1
10
61.0999989293625
20
-20.369054079233
30
0
41
1
10
51.5499994598194
20
-20.3870383044354
30
0
41
1
10
41.9999999999999
20
-20.4050212947012
30
0
0
SPLINE
5
2CC
100
AcDbEntity
8
1
62
256
6
ByLayer
370
13
48
1
60
0
100
AcDbSpline
70
4
71
3
72
8
73
4
40
0
40
0
40
0
40
0
40
1
40
1
40
1
40
1
41
1
10
312.890330246954
20
-0.716072837889215
30
0
41
1
10
313.629246952687
20
-0.752771852631923
30
0
41
1
10
314.368172378818
20
-0.78941558415525
30
0
41
1
10
315.107106212145
20
-0.826005753405269
30
0
0
SPLINE
5
2CD
100
AcDbEntity
8
1
62
256
6
ByLayer
370
13
48
1
60
0
100
AcDbSpline
70
4
71
3
72
10
73
6
40
0
40
0
40
0
40
0
40
0.5
40
0.5
40
1
40
1
40
1
40
1
41
1
10
314.466496360567
20
6.23995598436366
30
0
41
1
10
314.376287740812
20
6.24935984057754
30
0
41
1
10
314.290014060077
20
6.27126289161856
30
0
41
1
10
314.122522106325
20
6.33171583927037
30
0
41
1
10
314.041130384517
20
6.37045791305644
30
0
41
1
10
313.962224393416
20
6.41346483139048
30
0
0
SPLINE
5
2CE
100
AcDbEntity
8
1
62
256
6
ByLayer
370
13
48
1
60
0
100
AcDbSpline
70
4
71
3
72
14
73
10
40
0
40
0
40
0
40
0
40
0.500000000000078
40
0.500000000000078
40
0.750000000000117
40
0.750000000000117
40
0.875000000000059
40
0.875000000000059
40
1
40
1
40
1
40
1
41
1
10
324.316566613709
20
5.98954673548374
30
0
41
1
10
324.475170997126
20
5.94045520302578
30
0
41
1
10
324.633513164593
20
5.90741064828453
30
0
41
1
10
324.872355969918
20
5.87842571145987
30
0
41
1
10
324.952180872772
20
5.87224720721588
30
0
41
1
10
325.072406325107
20
5.86814639921838
30
0
41
1
10
325.112562798394
20
5.86764278960595
30
0
41
1
10
325.193068354884
20
5.86837843002374
30
0
41
1
10
325.233657432875
20
5.86963729325939
30
0
41
1
10
325.273390009807
20
5.87171958938157
30
0
0
SPLINE
5
2CF
100
AcDbEntity
8
1
62
256
6
ByLayer
370
13
48
1
60
0
100
AcDbSpline
70
4
71
3
72
8
73
4
40
0
40
0
40
0
40
0
40
1
40
1
40
1
40
1
41
1
10
294.887610138704
20
8.90230465351803
30
0
41
1
10
295.187021467697
20
8.78278876699548
30
0
41
1
10
295.486451914083
20
8.66266658211356
30
0
41
1
10
295.785911080585
20
8.54195472016528
30
0
0
SPLINE
5
2D0
100
AcDbEntity
8
1
62
256
6
ByLayer
370
13
48
1
60
0
100
AcDbSpline
70
4
71
3
72
12
73
8
40
0
40
0
40
0
40
0
40
0.249999999999981
40
0.249999999999981
40
0.499999999999963
40
0.499999999999963
40
1
40
1
40
1
40
1
41
1
10
313.980651406504
20
9.67066276082215
30
0
41
1
10
314.124710383211
20
9.63302327728957
30
0
41
1
10
314.265983274675
20
9.60337358346726
30
0
41
1
10
314.545119689963
20
9.55737933690099
30
0
41
1
10
314.6834174399
20
9.54086936124716
30
0
41
1
10
315.090464642031
20
9.50642717925342
30
0
41
1
10
315.352556198943
20
9.50273829085648
30
0
41
1
10
315.61003486757
20
9.51065856896588
30
0
0
SPLINE
5
2D1
100
AcDbEntity
8
1
62
256
6
ByLayer
370
13
48
1
60
0
100
AcDbSpline
70
4
71
3
72
8
73
4
40
0
40
0
40
0
40
0
40
1
40
1
40
1
40
1
41
1
10
316.900809752592
20
14.1004160697604
30
0
41
1
10
316.886940997104
20
14.0736758334376
30
0
41
1
10
316.871597586549
20
14.0496154206804
30
0
41
1
10
316.85566143541
20
14.0281120457077
30
0
0
SPLINE
5
2D2
100
AcDbEntity
8
1
62
256
6
ByLayer
370
13
48
1
60
0
100
AcDbSpline
70
4
71
3
72
12
73
8
40
0
40
0
40
0
40
0
40
0.24999999999999
40
0.24999999999999
40
0.49999999999998
40
0.49999999999998
40
1
40
1
40
1
40
1
41
1
10
315.610034867558
20
9.5106585689654
30
0
41
1
10
315.609063451552
20
9.59160503686448
30
0
41
1
10
315.603587089411
20
9.67235573599476
30
0
41
1
10
315.582239818195
20
9.83340542460223
30
0
41
1
10
315.566168119882
20
9.91420264986132
30
0
41
1
10
315.501693822721
20
10.1486739324787
30
0
41
1
10
315.437070840107
20
10.2962416313597
30
0
41
1
10
315.348466341762
20
10.4341164959491
30
0
0
SPLINE
5
2D3
100
AcDbEntity
8
1
62
256
6
ByLayer
370
13
48
1
60
0
100
AcDbSpline
70
4
71
3
72
28
73
24
40
0
40
0
40
0
40
0
40
0.103303144510565
40
0.103303144510565
40
0.206606289021129
40
0.206606289021129
40
0.309909433531694
40
0.309909433531694
40
0.413212578042258
40
0.413212578042258
40
0.619818867063387
40
0.619818867063387
40
0.723122011573952
40
0.723122011573952
40
0.774773583829228
40
0.774773583829228
40
0.826425156084504
40
0.826425156084504
40
0.929728300595043
40
0.929728300595043
40
0.981379872850312
40
0.981379872850312
40
1
40
1
40
1
40
1
41
1
10
312.174523272141
20
7.25171159705437
30
0
41
1
10
311.772788386314
20
7.34522604592001
30
0
41
1
10
311.36721030536
20
7.42245117835998
30
0
41
1
10
310.549106991191
20
7.54947900485425
30
0
41
1
10
310.136571925333
20
7.59923526062664
30
0
41
1
10
309.304537847076
20
7.67377226091008
30
0
41
1
10
308.885035803177
20
7.69853251227673
30
0
41
1
10
308.038512333929
20
7.72392503577308
30
0
41
1
10
307.611317781206
20
7.72454638210547
30
0
41
1
10
306.317900958643
20
7.68967021761793
30
0
41
1
10
305.460763037536
20
7.61848887300849
30
0
41
1
10
304.182591496365
20
7.43980716560677
30
0
41
1
10
303.757800458733
20
7.36816324472306
30
0
41
1
10
303.122643959188
20
7.24108948603904
30
0
41
1
10
302.911990403017
20
7.19557351068454
30
0
41
1
10
302.496594965354
20
7.09888167423665
30
0
41
1
10
302.291324659636
20
7.04760394499007
30
0
41
1
10
301.683269833781
20
6.88469406571812
30
0
41
1
10
301.288128660607
20
6.76414466297118
30
0
41
1
10
300.714126043109
20
6.56217841400613
30
0
41
1
10
300.525908944705
20
6.49122555195996
30
0
41
1
10
300.27936071572
20
6.39107369739494
30
0
41
1
10
300.214828656084
20
6.36415356647194
30
0
41
1
10
300.151124469475
20
6.33683151950086
30
0
0
SPLINE
5
2D4
100
AcDbEntity
8
1
62
256
6
ByLayer
370
13
48
1
60
0
100
AcDbSpline
70
4
71
3
72
8
73
4
40
0
40
0
40
0
40
0
40
1
40
1
40
1
40
1
41
1
10
313.707240051567
20
9.69846373521639
30
0
41
1
10
313.704104420864
20
9.69895055463542
30
0
41
1
10
313.700964939417
20
9.69940890758525
30
0
41
1
10
313.697821530199
20
9.69983822465161
30
0
0
SPLINE
5
2D5
100
AcDbEntity
8
1
62
256
6
ByLayer
370
13
48
1
60
0
100
AcDbSpline
70
4
71
3
72
38
73
34
40
0
40
0
40
0
40
0
40
0.120646104252385
40
0.216884161526941
40
0.322130289547845
40
0.43649787660755
40
0.5599611223717
40
0.571211372326871
40
0.582909496511018
40
0.595056740125867
40
0.607654299649358
40
0.620703317104465
40
0.634204873482172
40
0.648159981392334
40
0.662569577002308
40
0.677434511313352
40
0.692755540818058
40
0.708533317577799
40
0.724768378756681
40
0.741461135647639
40
0.758611862226686
40
0.776220683272748
40
0.794287562092842
40
0.81281228789548
40
0.83179446285903
40
0.851233488946114
40
0.871128554520249
40
0.891478620826367
40
0.912282408402923
40
0.933538383499753
40
0.955244744582713
40
0.977399409013408
40
1
40
1
40
1
40
1
41
1
10
34.4692111951138
20
-7.36336433516774
30
0
41
1
10
34.5321840696156
20
-7.51980795111245
30
0
41
1
10
34.6561872943651
20
-7.80752035558771
30
0
41
1
10
34.8663593935465
20
-8.2483284004629
30
0
41
1
10
35.0972655724838
20
-8.68842708350235
30
0
41
1
10
35.3752737769335
20
-9.1695298659952
30
0
41
1
10
35.5956504056149
20
-9.51666044870592
30
0
41
1
10
35.7294594293284
20
-9.71810527171854
30
0
41
1
10
35.7616631897059
20
-9.76632549265318
30
0
41
1
10
35.7952722121119
20
-9.81628783694819
30
0
41
1
10
35.8303138724565
20
-9.8679703174532
30
0
41
1
10
35.8668202984528
20
-9.92134277074186
30
0
41
1
10
35.9048207712885
20
-9.97637389637401
30
0
41
1
10
35.9443435390496
20
-10.033029061828
30
0
41
1
10
35.9854149508348
20
-10.0912707196061
30
0
41
1
10
36.0280593313327
20
-10.1510580868917
30
0
41
1
10
36.0722986304806
20
-10.2123470344661
30
0
41
1
10
36.1181521205828
20
-10.2750899190838
30
0
41
1
10
36.1656360646209
20
-10.339235435211
30
0
41
1
10
36.2147633777149
20
-10.4047284659856
30
0
41
1
10
36.2655432762436
20
-10.4715099401797
30
0
41
1
10
36.3179809170272
20
-10.5395166949136
30
0
41
1
10
36.3720770268057
20
-10.6086813441092
30
0
41
1
10
36.4278275235417
20
-10.6789321595943
30
0
41
1
10
36.4852231289678
20
-10.7501929430032
30
0
41
1
10
36.5442489801251
20
-10.8223829788232
30
0
41
1
10
36.6048842164045
20
-10.8954167248012
30
0
41
1
10
36.6671016401528
20
-10.969204574367
30
0
41
1
10
36.7308670803581
20
-11.0436495432509
30
0
41
1
10
36.7961398979749
20
-11.1186597483197
30
0
41
1
10
36.862869097158
20
-11.1941000915583
30
0
41
1
10
36.9310063770379
20
-11.2699781678513
30
0
41
1
10
36.976849869217
20
-11.3199824259201
30
0
41
1
10
37
20
-11.3452336678953
30
0
0
SPLINE
5
2D6
100
AcDbEntity
8
1
62
256
6
ByLayer
370
13
48
1
60
0
100
AcDbSpline
70
4
71
3
72
74
73
70
40
0
40
0
40
0
40
0
40
0.0312499999999983
40
0.0312499999999983
40
0.0468749999999969
40
0.0468749999999969
40
0.0546874999999962
40
0.0546874999999962
40
0.0624999999999955
40
0.0624999999999955
40
0.0703124999999948
40
0.0703124999999948
40
0.0742187499999944
40
0.0742187499999944
40
0.0781249999999941
40
0.0781249999999941
40
0.0820312499999937
40
0.0820312499999937
40
0.0859374999999934
40
0.0859374999999934
40
0.0937499999999937
40
0.0937499999999937
40
0.109374999999994
40
0.109374999999994
40
0.124999999999995
40
0.124999999999995
40
0.156249999999995
40
0.156249999999995
40
0.187499999999995
40
0.187499999999995
40
0.203124999999995
40
0.203124999999995
40
0.218749999999995
40
0.218749999999995
40
0.249999999999997
40
0.249999999999997
40
0.281249999999998
40
0.281249999999998
40
0.312499999999999
40
0.312499999999999
40
0.34375
40
0.34375
40
0.375000000000001
40
0.375000000000001
40
0.390625000000002
40
0.390625000000002
40
0.406250000000002
40
0.406250000000002
40
0.437500000000003
40
0.437500000000003
40
0.468750000000004
40
0.468750000000004
40
0.484375000000004
40
0.484375000000004
40
0.500000000000004
40
0.500000000000004
40
0.531250000000004
40
0.531250000000004
40
0.562500000000004
40
0.562500000000004
40
0.593750000000004
40
0.593750000000004
40
0.625000000000004
40
0.625000000000004
40
0.750000000000003
40
0.750000000000003
40
0.875000000000001
40
0.875000000000001
40
1
40
1
40
1
40
1
41
1
10
303.279634499842
20
-20.1198144221231
30
0
41
1
10
301.714908595683
20
-20.1021499013989
30
0
41
1
10
300.148454073661
20
-20.085072509889
30
0
41
1
10
297.812878784146
20
-20.0411471878135
30
0
41
1
10
297.036697023744
20
-20.0233935123709
30
0
41
1
10
295.878957395261
20
-19.9866838707457
30
0
41
1
10
295.493966900625
20
-19.9727342285152
30
0
41
1
10
294.727437999683
20
-19.9400748959351
30
0
41
1
10
294.34796542611
20
-19.921434353202
30
0
41
1
10
293.597725913779
20
-19.8780758452643
30
0
41
1
10
293.226907605839
20
-19.8533780407448
30
0
41
1
10
292.67730422094
20
-19.8108115267454
30
0
41
1
10
292.495204668793
20
-19.7957018596264
30
0
41
1
10
292.133197247043
20
-19.7634748245321
30
0
41
1
10
291.953267993925
20
-19.746364104644
30
0
41
1
10
291.594464756888
20
-19.7106378015465
30
0
41
1
10
291.415581988357
20
-19.6920275901054
30
0
41
1
10
291.057881956366
20
-19.6538476038724
30
0
41
1
10
290.879114072947
20
-19.6342513279643
30
0
41
1
10
290.342783547637
20
-19.574105350147
30
0
41
1
10
289.985079023724
20
-19.5322732668926
30
0
41
1
10
288.911060228153
20
-19.4019864819428
30
0
41
1
10
288.193927060914
20
-19.3085717440254
30
0
41
1
10
286.760106356265
20
-19.1082577898608
30
0
41
1
10
286.043464976624
20
-19.0012859599078
30
0
41
1
10
283.895293317125
20
-18.6591041740416
30
0
41
1
10
282.465315147206
20
-18.4026789204465
30
0
41
1
10
279.605944975717
20
-17.8357496525807
30
0
41
1
10
278.17608241789
20
-17.5255171499615
30
0
41
1
10
276.023361260505
20
-17.0303117845857
30
0
41
1
10
275.304228231352
20
-16.8603374147561
30
0
41
1
10
273.862597046777
20
-16.5134580012679
30
0
41
1
10
273.140475327057
20
-16.3367696809269
30
0
41
1
10
270.969609336834
20
-15.7991843331756
30
0
41
1
10
269.516436424075
20
-15.4306487828109
30
0
41
1
10
266.595902958827
20
-14.6840907668173
30
0
41
1
10
265.128547581052
20
-14.3060484186801
30
0
41
1
10
262.17718896426
20
-13.5518926545998
30
0
41
1
10
260.692192716021
20
-13.1755684968865
30
0
41
1
10
257.710922852711
20
-12.43884517871
30
0
41
1
10
256.214143153851
20
-12.0780111639781
30
0
41
1
10
253.205347873283
20
-11.3858129890562
30
0
41
1
10
251.692855338864
20
-11.055942755034
30
0
41
1
10
249.412559359593
20
-10.5880511244908
30
0
41
1
10
248.650596713026
20
-10.4363713413163
30
0
41
1
10
247.123097377194
20
-10.1416950684565
30
0
41
1
10
246.357522386187
20
-9.99874302409847
30
0
41
1
10
244.058397992201
20
-9.58424360785577
30
0
41
1
10
242.521455470215
20
-9.32686077792943
30
0
41
1
10
239.439182198079
20
-8.85297203324095
30
0
41
1
10
237.893796973351
20
-8.63677410298388
30
0
41
1
10
235.570037300373
20
-8.34156127637979
30
0
41
1
10
234.794523933836
20
-8.24788433883623
30
0
41
1
10
233.24145665787
20
-8.07126116951136
30
0
41
1
10
232.46366738273
20
-7.98831969175953
30
0
41
1
10
230.129381368145
20
-7.75807517842105
30
0
41
1
10
228.571607593501
20
-7.62942792954766
30
0
41
1
10
225.452823505147
20
-7.42427784486651
30
0
41
1
10
223.891793929558
20
-7.34808614210334
30
0
41
1
10
220.765802075395
20
-7.26006431413617
30
0
41
1
10
219.200928322086
20
-7.2457718451071
30
0
41
1
10
216.07088291774
20
-7.22648268010377
30
0
41
1
10
214.505860075338
20
-7.22325867899181
30
0
41
1
10
206.68074581848
20
-7.20919617737906
30
0
41
1
10
200.420653993303
20
-7.21717401100102
30
0
41
1
10
187.900470259876
20
-7.23693116186027
30
0
41
1
10
181.640378794495
20
-7.24862573060344
30
0
41
1
10
169.120191049043
20
-7.25317317160435
30
0
41
1
10
162.860095388193
20
-7.2486913541932
30
0
41
1
10
156.6
20
-7.24523917832047
30
0
0
SPLINE
5
2D7
100
AcDbEntity
8
1
62
256
6
ByLayer
370
13
48
1
60
0
100
AcDbSpline
70
4
71
3
72
14
73
10
40
0
40
0
40
0
40
0
40
0.25
40
0.25
40
0.5
40
0.5
40
0.75
40
0.75
40
1
40
1
40
1
40
1
41
1
10
312.659694537935
20
9.62582119896368
30
0
41
1
10
312.663244478765
20
9.6437648696357
30
0
41
1
10
312.672021141118
20
9.65992896396853
30
0
41
1
10
312.695524857383
20
9.68691543119584
30
0
41
1
10
312.710357008736
20
9.69796756275045
30
0
41
1
10
312.742379013228
20
9.71518294788396
30
0
41
1
10
312.760007498525
20
9.7216006359408
30
0
41
1
10
312.79605706556
20
9.7303859583491
30
0
41
1
10
312.814617829589
20
9.73284847127482
30
0
41
1
10
312.833662331976
20
9.73357523021303
30
0
0
SPLINE
5
2D8
100
AcDbEntity
8
1
62
256
6
ByLayer
370
13
48
1
60
0
100
AcDbSpline
70
4
71
3
72
18
73
14
40
0
40
0
40
0
40
0
40
0.250000000000001
40
0.250000000000001
40
0.375000000000001
40
0.375000000000001
40
0.500000000000002
40
0.500000000000002
40
0.75
40
0.75
40
0.875
40
0.875
40
1
40
1
40
1
40
1
41
1
10
321.698222874135
20
5.68435301923535
30
0
41
1
10
321.692902324298
20
5.68407418103382
30
0
41
1
10
321.69416626852
20
5.69433263316952
30
0
41
1
10
321.709431364185
20
5.72275096404172
30
0
41
1
10
321.716790018661
20
5.73425547281977
30
0
41
1
10
321.736732277857
20
5.75975383240453
30
0
41
1
10
321.74958335863
20
5.77399861730376
30
0
41
1
10
321.795666620248
20
5.81646562605832
30
0
41
1
10
321.837854314328
20
5.84515836518679
30
0
41
1
10
321.911143279743
20
5.87634363406244
30
0
41
1
10
321.937655393536
20
5.88502161633687
30
0
41
1
10
321.991800116323
20
5.89750315438394
30
0
41
1
10
322.019665439696
20
5.90145797673361
30
0
41
1
10
322.048333784034
20
5.90297598734139
30
0
0
SPLINE
5
2D9
100
AcDbEntity
8
1
62
256
6
ByLayer
370
13
48
1
60
0
100
AcDbSpline
70
4
71
3
72
10
73
6
40
0
40
0
40
0
40
0
40
0.5
40
0.5
40
1
40
1
40
1
40
1
41
1
10
320.62223741031
20
5.59355683510847
30
0
41
1
10
320.672552968059
20
5.59101466698453
30
0
41
1
10
320.720980192397
20
5.58361716926271
30
0
41
1
10
320.813185285845
20
5.56383386463611
30
0
41
1
10
320.855975529441
20
5.55183596776959
30
0
41
1
10
320.894599543143
20
5.5416921583012
30
0
0
SPLINE
5
2DA
100
AcDbEntity
8
1
62
256
6
ByLayer
370
13
48
1
60
0
100
AcDbSpline
70
4
71
3
72
26
73
22
40
0
40
0
40
0
40
0
40
0.062499999999994
40
0.062499999999994
40
0.124999999999988
40
0.124999999999988
40
0.187499999999982
40
0.187499999999982
40
0.249999999999976
40
0.249999999999976
40
0.31249999999997
40
0.31249999999997
40
0.374999999999964
40
0.374999999999964
40
0.437499999999958
40
0.437499999999958
40
0.499999999999952
40
0.499999999999952
40
0.749999999999976
40
0.749999999999976
40
1
40
1
40
1
40
1
41
1
10
313.907645711295
20
5.30838999266007
30
0
41
1
10
313.880622572652
20
5.2732406758488
30
0
41
1
10
313.857213039141
20
5.23618856149466
30
0
41
1
10
313.818777278654
20
5.15767361662043
30
0
41
1
10
313.803897910185
20
5.11597835778707
30
0
41
1
10
313.785062121443
20
5.03324390497525
30
0
41
1
10
313.780736466166
20
4.99120030984662
30
0
41
1
10
313.781894137213
20
4.90820828581136
30
0
41
1
10
313.787250836899
20
4.8680189189605
30
0
41
1
10
313.805810902313
20
4.78979592041878
30
0
41
1
10
313.818971951117
20
4.75218422123652
30
0
41
1
10
313.850713816945
20
4.68098989803295
30
0
41
1
10
313.869381624616
20
4.64710099227707
30
0
41
1
10
313.911247575092
20
4.58209716390209
30
0
41
1
10
313.934514648017
20
4.55095796486478
30
0
41
1
10
313.983778259652
20
4.49228689408014
30
0
41
1
10
314.009898636958
20
4.46455440189553
30
0
41
1
10
314.146621524395
20
4.33249425445058
30
0
41
1
10
314.276150910157
20
4.24669884398966
30
0
41
1
10
314.548039282725
20
4.10677109408979
30
0
41
1
10
314.691858372774
20
4.05184026769373
30
0
41
1
10
314.84199481356
20
4.00888861967999
30
0
0
SPLINE
5
2DB
100
AcDbEntity
8
1
62
256
6
ByLayer
370
13
48
1
60
0
100
AcDbSpline
70
4
71
3
72
8
73
4
40
0
40
0
40
0
40
0
40
1
40
1
40
1
40
1
41
1
10
37
20
-7.2499198446379
30
0
41
1
10
36.7316508181866
20
-7.24994143913335
30
0
41
1
10
36.4637025148279
20
-7.25016756955111
30
0
41
1
10
36.1961524280017
20
-7.25059693544415
30
0
0
SPLINE
5
2DC
100
AcDbEntity
8
1
62
256
6
ByLayer
370
13
48
1
60
0
100
AcDbSpline
70
4
71
3
72
14
73
10
40
0
40
0
40
0
40
0
40
0.249999999999936
40
0.249999999999936
40
0.374999999999947
40
0.374999999999947
40
0.499999999999958
40
0.499999999999958
40
1
40
1
40
1
40
1
41
1
10
310.588351117335
20
1.60172073560239
30
0
41
1
10
310.737059359431
20
1.55049945450406
30
0
41
1
10
310.888836631405
20
1.50683631739201
30
0
41
1
10
311.121083875925
20
1.45301814167294
30
0
41
1
10
311.199265259452
20
1.43702896726049
30
0
41
1
10
311.35718175277
20
1.40906182205128
30
0
41
1
10
311.437195517665
20
1.39705299067646
30
0
41
1
10
311.837461792433
20
1.3478484923491
30
0
41
1
10
312.156713816539
20
1.34265538235795
30
0
41
1
10
312.47512181267
20
1.37132434703386
30
0
0
SPLINE
5
2DD
100
AcDbEntity
8
1
62
256
6
ByLayer
370
13
48
1
60
0
100
AcDbSpline
70
4
71
3
72
8
73
4
40
0
40
0
40
0
40
0
40
1
40
1
40
1
40
1
41
1
10
314.84199481356
20
4.00888861967999
30
0
41
1
10
315.161352785798
20
3.91752538273323
30
0
41
1
10
315.476787707413
20
3.82760433144293
30
0
41
1
10
315.788124752061
20
3.73918973519309
30
0
0
SPLINE
5
2DE
100
AcDbEntity
8
1
62
256
6
ByLayer
370
13
48
1
60
0
100
AcDbSpline
70
4
71
3
72
8
73
4
40
0
40
0
40
0
40
0
40
1
40
1
40
1
40
1
41
1
10
312.107106212145
20
-0.642707958046429
30
0
41
1
10
312.368261629849
20
-0.678670910081507
30
0
41
1
10
312.629339038006
20
-0.703110456404573
30
0
41
1
10
312.890330246954
20
-0.71607283788893
30
0
0
SPLINE
5
2DF
100
AcDbEntity
8
1
62
256
6
ByLayer
370
13
48
1
60
0
100
AcDbSpline
70
4
71
3
72
14
73
10
40
0
40
0
40
0
40
0
40
0.25
40
0.25
40
0.5
40
0.5
40
0.75
40
0.75
40
1
40
1
40
1
40
1
41
1
10
320.894599543143
20
5.54169215830169
30
0
41
1
10
320.922215734162
20
5.53443932895851
30
0
41
1
10
320.947046305561
20
5.52589366904485
30
0
41
1
10
320.988786643865
20
5.50708006637595
30
0
41
1
10
321.00628097267
20
5.49652809488342
30
0
41
1
10
321.032567483605
20
5.47446338113568
30
0
41
1
10
321.041520024574
20
5.46298442993933
30
0
41
1
10
321.051601406737
20
5.43919277475828
30
0
41
1
10
321.052574349004
20
5.42686851322128
30
0
41
1
10
321.049832509097
20
5.41484314226514
30
0
0
SPLINE
5
2E0
100
AcDbEntity
8
1
62
256
6
ByLayer
370
13
48
1
60
0
100
AcDbSpline
70
4
71
3
72
8
73
4
40
0
40
0
40
0
40
0
40
1
40
1
40
1
40
1
41
1
10
334.061638806832
20
0.557486472576159
30
0
41
1
10
334.060053984725
20
0.605422551009781
30
0
41
1
10
334.059782698811
20
0.653057755525623
30
0
41
1
10
334.060771020982
20
0.697699021321029
30
0
0
SPLINE
5
2E1
100
AcDbEntity
8
1
62
256
6
ByLayer
370
13
48
1
60
0
100
AcDbSpline
70
4
71
3
72
26
73
22
40
0
40
0
40
0
40
0
40
0.25
40
0.25
40
0.312499999999999
40
0.312499999999999
40
0.374999999999998
40
0.374999999999998
40
0.499999999999996
40
0.499999999999996
40
0.562499999999996
40
0.562499999999996
40
0.624999999999996
40
0.624999999999996
40
0.749999999999997
40
0.749999999999997
40
0.812499999999998
40
0.812499999999998
40
0.874999999999998
40
0.874999999999998
40
1
40
1
40
1
40
1
41
1
10
7.25635914423158
20
-22.8205683532034
30
0
41
1
10
6.96422554299633
20
-23.1635601656762
30
0
41
1
10
6.73572455632547
20
-23.5102448352647
30
0
41
1
10
6.53824550730205
20
-23.9483156998849
30
0
41
1
10
6.50324087714183
20
-24.0361127587389
30
0
41
1
10
6.44340353691494
20
-24.2090741660834
30
0
41
1
10
6.41838378508625
20
-24.2946278183752
30
0
41
1
10
6.35796966250334
20
-24.5485167943751
30
0
41
1
10
6.33711018182609
20
-24.7140944567627
30
0
41
1
10
6.33664735612365
20
-24.9567300172121
30
0
41
1
10
6.34165402854016
20
-25.0368965115415
30
0
41
1
10
6.36198707052515
20
-25.1941489428821
30
0
41
1
10
6.37720738845485
20
-25.2706987965583
30
0
41
1
10
6.43739240160201
20
-25.4943702339254
30
0
41
1
10
6.4967958178789
20
-25.6355441867105
30
0
41
1
10
6.61399554548655
20
-25.8357769764721
30
0
41
1
10
6.65776662779352
20
-25.9005919701483
30
0
41
1
10
6.7548393431498
20
-26.0263346737576
30
0
41
1
10
6.80795131123723
20
-26.0869505692028
30
0
41
1
10
6.9793088062891
20
-26.260806741972
30
0
41
1
10
7.10985626803493
20
-26.3667811119657
30
0
41
1
10
7.25600189578711
20
-26.4633206470991
30
0
0
SPLINE
5
2E2
100
AcDbEntity
8
1
62
256
6
ByLayer
370
13
48
1
60
0
100
AcDbSpline
70
4
71
3
72
8
73
4
40
0
40
0
40
0
40
0
40
1
40
1
40
1
40
1
41
1
10
42
20
-20.4050212947012
30
0
41
1
10
40.3333333332322
20
-20.4050304455017
30
0
41
1
10
38.6666666665054
20
-20.4050396493463
30
0
41
1
10
37
20
-20.4050491187941
30
0
0
SPLINE
5
2E3
100
AcDbEntity
8
1
62
256
6
ByLayer
370
13
48
1
60
0
100
AcDbSpline
70
4
71
3
72
18
73
14
40
0
40
0
40
0
40
0
40
0.250000000000171
40
0.250000000000171
40
0.375000000000142
40
0.375000000000142
40
0.500000000000114
40
0.500000000000114
40
0.750000000000056
40
0.750000000000056
40
0.875000000000028
40
0.875000000000028
40
1
40
1
40
1
40
1
41
1
10
331.892767032724
20
6.41890090858951
30
0
41
1
10
331.950143375314
20
6.4219078752881
30
0
41
1
10
332.007900199969
20
6.41473329571795
30
0
41
1
10
332.089198500553
20
6.39135713794138
30
0
41
1
10
332.115080972485
20
6.38158593078947
30
0
41
1
10
332.163228505424
20
6.35964151449215
30
0
41
1
10
332.185882986986
20
6.34725024373719
30
0
41
1
10
332.245871405469
20
6.31032605424835
30
0
41
1
10
332.276691628691
20
6.28545809708311
30
0
41
1
10
332.308902401287
20
6.25981840427707
30
0
41
1
10
332.317575045892
20
6.25299287144864
30
0
41
1
10
332.330658044537
20
6.24405640863424
30
0
41
1
10
332.335215172145
20
6.24181416382484
30
0
41
1
10
332.337875860781
20
6.24195360460763
30
0
0
SPLINE
5
2E4
100
AcDbEntity
8
1
62
256
6
ByLayer
370
13
48
1
60
0
100
AcDbSpline
70
2053
71
3
72
94
73
90
40
0
40
0
40
0
40
0
40
0.0312500000000187
40
0.0312500000000187
40
0.0468750000000221
40
0.0468750000000221
40
0.0625000000000255
40
0.0625000000000255
40
0.0937500000000322
40
0.0937500000000322
40
0.109375000000031
40
0.109375000000031
40
0.125000000000029
40
0.140625000000028
40
0.140625000000028
40
0.156250000000026
40
0.156250000000026
40
0.187500000000017
40
0.187500000000017
40
0.218750000000007
40
0.218750000000007
40
0.249999999999998
40
0.249999999999998
40
0.265624999999993
40
0.265624999999993
40
0.281249999999988
40
0.281249999999988
40
0.312499999999977
40
0.312499999999977
40
0.328124999999973
40
0.328124999999973
40
0.343749999999969
40
0.343749999999969
40
0.374999999999961
40
0.374999999999961
40
0.406249999999953
40
0.406249999999953
40
0.42187499999995
40
0.42187499999995
40
0.437499999999946
40
0.437499999999946
40
0.468749999999938
40
0.468749999999938
40
0.484374999999935
40
0.484374999999935
40
0.499999999999931
40
0.499999999999931
40
0.531249999999923
40
0.531249999999923
40
0.546874999999925
40
0.546874999999925
40
0.562499999999928
40
0.57812499999993
40
0.57812499999993
40
0.593749999999932
40
0.593749999999932
40
0.624999999999936
40
0.624999999999936
40
0.640624999999934
40
0.640624999999934
40
0.656249999999933
40
0.656249999999933
40
0.687499999999935
40
0.687499999999935
40
0.718749999999938
40
0.718749999999938
40
0.734374999999938
40
0.734374999999938
40
0.749999999999939
40
0.749999999999939
40
0.781249999999939
40
0.781249999999939
40
0.79687499999994
40
0.79687499999994
40
0.81249999999994
40
0.81249999999994
40
0.843749999999945
40
0.843749999999945
40
0.87499999999995
40
0.87499999999995
40
0.906249999999955
40
0.906249999999955
40
0.921874999999963
40
0.921874999999963
40
0.93749999999997
40
0.93749999999997
40
0.968749999999985
40
0.968749999999985
40
1
40
1
40
1
40
1
41
1
10
327.002789113512
20
-2.66269411150367
30
0
41
1
10
327.14648756063
20
-2.66269411150367
30
0
41
1
10
327.287609022206
20
-2.67763120332609
30
0
41
1
10
327.495589438204
20
-2.72147469827112
30
0
41
1
10
327.564294245039
20
-2.73969098562196
30
0
41
1
10
327.700427192141
20
-2.78350846617215
30
0
41
1
10
327.767557505327
20
-2.80906303591229
30
0
41
1
10
327.962457708493
20
-2.89496509716776
30
0
41
1
10
328.085279234367
20
-2.96491123288408
30
0
41
1
10
328.258889846534
20
-3.08867927512782
30
0
41
1
10
328.315147036009
20
-3.13329721688271
30
0
41
1
10
328.421657350679
20
-3.22692640586115
30
0
41
1
10
328.522768748585
20
-3.32531472082852
30
0
41
1
10
328.613392052951
20
-3.43291108089184
30
0
41
1
10
328.698777238107
20
-3.54508756764756
30
0
41
1
10
328.73903890001
20
-3.60378721659518
30
0
41
1
10
328.850212015763
20
-3.78431363347886
30
0
41
1
10
328.911462618324
20
-3.90995965068654
30
0
41
1
10
329.00961958491
20
-4.17113250421875
30
0
41
1
10
329.046566891074
20
-4.3078989023148
30
0
41
1
10
329.093714283039
20
-4.5814671110935
30
0
41
1
10
329.104445903222
20
-4.71907528201251
30
0
41
1
10
329.101653690582
20
-4.92666577115085
30
0
41
1
10
329.097504946496
20
-4.99638038802399
30
0
41
1
10
329.082970268403
20
-5.13395608516828
30
0
41
1
10
329.072615034101
20
-5.20195070123108
30
0
41
1
10
329.032540916278
20
-5.4036296313559
30
0
41
1
10
328.993898145379
20
-5.53502797357996
30
0
41
1
10
328.917534505141
20
-5.72749575926045
30
0
41
1
10
328.888978887373
20
-5.79079885848947
30
0
41
1
10
328.826766009068
20
-5.91335682742195
30
0
41
1
10
328.79298918678
20
-5.97293553361948
30
0
41
1
10
328.683668457536
20
-6.14662420200042
30
0
41
1
10
328.600224477124
20
-6.25574079212612
30
0
41
1
10
328.410344072151
20
-6.45970850012955
30
0
41
1
10
328.306218105432
20
-6.55189624077425
30
0
41
1
10
328.138040613735
20
-6.67365704483205
30
0
41
1
10
328.079870005358
20
-6.71157812752253
30
0
41
1
10
327.95910178555
20
-6.78186759936608
30
0
41
1
10
327.896232901874
20
-6.81435836962822
30
0
41
1
10
327.702266378156
20
-6.90205768308948
30
0
41
1
10
327.568748065006
20
-6.94641958016061
30
0
41
1
10
327.362101596028
20
-6.99176977360486
30
0
41
1
10
327.292150494416
20
-7.00332862425603
30
0
41
1
10
327.150002533528
20
-7.01898636056333
30
0
41
1
10
327.078013728708
20
-7.02299801212354
30
0
41
1
10
326.86456134926
20
-7.02343447113799
30
0
41
1
10
326.723673751936
20
-7.00863040026545
30
0
41
1
10
326.514457405626
20
-6.96378820551297
30
0
41
1
10
326.445125456431
20
-6.94498786260891
30
0
41
1
10
326.310558450744
20
-6.90080644469344
30
0
41
1
10
326.179191576472
20
-6.84988143803031
30
0
41
1
10
326.053987684405
20
-6.78591244060342
30
0
41
1
10
325.931840509089
20
-6.71543947820808
30
0
41
1
10
325.872424066533
20
-6.67697237724727
30
0
41
1
10
325.702334684043
20
-6.55447064052768
30
0
41
1
10
325.598420006598
20
-6.46268255563231
30
0
41
1
10
325.456028370011
20
-6.31038791151968
30
0
41
1
10
325.410759822806
20
-6.25702607010203
30
0
41
1
10
325.326353198913
20
-6.14743814365025
30
0
41
1
10
325.286984969354
20
-6.09098934674239
30
0
41
1
10
325.177083910648
20
-5.91680996262571
30
0
41
1
10
325.114508266907
20
-5.79386029457953
30
0
41
1
10
325.012155939259
20
-5.53655947245232
30
0
41
1
10
324.973394038847
20
-5.40498882605894
30
0
41
1
10
324.933195057098
20
-5.20333231226152
30
0
41
1
10
324.922807673774
20
-5.13539222405112
30
0
41
1
10
324.908200532188
20
-4.99802901471506
30
0
41
1
10
324.903990213812
20
-4.92825712289093
30
0
41
1
10
324.90106001467
20
-4.72018166288336
30
0
41
1
10
324.911765538065
20
-4.58265916238056
30
0
41
1
10
324.946842348728
20
-4.37820343094685
30
0
41
1
10
324.961724739949
20
-4.31035863173165
30
0
41
1
10
324.998137152689
20
-4.17532111641555
30
0
41
1
10
325.019776029106
20
-4.10793821318188
30
0
41
1
10
325.093509061794
20
-3.91122438460351
30
0
41
1
10
325.154631073524
20
-3.78587910552247
30
0
41
1
10
325.301213743614
20
-3.54711788808524
30
0
41
1
10
325.387893059867
20
-3.43262294593311
30
0
41
1
10
325.57994068414
20
-3.22586833548266
30
0
41
1
10
325.685502035011
20
-3.13268242233858
30
0
41
1
10
325.858562742011
20
-3.008740875819
30
0
41
1
10
325.919109758621
20
-2.96988272206571
30
0
41
1
10
326.042946955515
20
-2.89916675857148
30
0
41
1
10
326.106280042405
20
-2.86721281811708
30
0
41
1
10
326.300440712302
20
-2.78138505157398
30
0
41
1
10
326.435539032442
20
-2.73740430492902
30
0
41
1
10
326.716723973806
20
-2.6776638105662
30
0
41
1
10
326.859090666393
20
-2.66269411150367
30
0
41
1
10
327.002789113511
20
-2.66269411150367
30
0
0
SPLINE
5
2E5
100
AcDbEntity
8
1
62
256
6
ByLayer
370
13
48
1
60
0
100
AcDbSpline
70
4
71
1
72
4
73
2
40
0
40
0
40
1
40
1
41
1
10
37.45
20
-11.3400836065642
30
0
41
1
10
37.01
20
-11.3400836065641
30
0
0
SPLINE
5
2E6
100
AcDbEntity
8
1
62
256
6
ByLayer
370
13
48
1
60
0
100
AcDbSpline
70
4
71
3
72
10
73
6
40
0
40
0
40
0
40
0
40
0.5
40
0.5
40
1
40
1
40
1
40
1
41
1
10
324.13675831441
20
6.01242571556267
30
0
41
1
10
324.167337119695
20
6.01402828284077
30
0
41
1
10
324.198275052232
20
6.01275773890097
30
0
41
1
10
324.258456623205
20
6.00493721615888
30
0
41
1
10
324.287865549188
20
5.99843034393234
30
0
41
1
10
324.316566613709
20
5.98954673548374
30
0
0
SPLINE
5
2E7
100
AcDbEntity
8
1
62
256
6
ByLayer
370
13
48
1
60
0
100
AcDbSpline
70
4
71
3
72
12
73
8
40
0
40
0
40
0
40
0
40
0.500000000000085
40
0.500000000000085
40
0.750000000000043
40
0.750000000000043
40
1
40
1
40
1
40
1
41
1
10
312.833684772243
20
9.73357608651625
30
0
41
1
10
312.981202958553
20
9.73920499113055
30
0
41
1
10
313.127567760028
20
9.73938907489605
30
0
41
1
10
313.34532165811
20
9.73098994007728
30
0
41
1
10
313.417484132645
20
9.7267326196945
30
0
41
1
10
313.559218381448
20
9.71540403326767
30
0
41
1
10
313.629036511797
20
9.70832538222894
30
0
41
1
10
313.697821530199
20
9.69983822465178
30
0
0
SPLINE
5
2E8
100
AcDbEntity
8
1
62
256
6
ByLayer
370
13
48
1
60
0
100
AcDbSpline
70
4
71
3
72
30
73
26
40
0
40
0
40
0
40
0
40
0.110594970176076
40
0.110594970176076
40
0.221189940352151
40
0.221189940352151
40
0.442379880704303
40
0.442379880704303
40
0.552974850880376
40
0.552974850880376
40
0.608272335968413
40
0.608272335968413
40
0.66356982105645
40
0.66356982105645
40
0.77416479123252
40
0.77416479123252
40
0.884759761408589
40
0.884759761408589
40
0.912408503952605
40
0.912408503952605
40
0.940057246496621
40
0.940057246496621
40
0.995354731584652
40
0.995354731584652
40
1
40
1
40
1
40
1
41
1
10
309.086826657518
20
19.7939244442328
30
0
41
1
10
307.770846781945
20
19.8907155028841
30
0
41
1
10
306.455459303295
20
19.9621027616963
30
0
41
1
10
303.824094342107
20
20.0542895065691
30
0
41
1
10
302.507577007734
20
20.0750666378335
30
0
41
1
10
298.56333347367
20
20.0614636964616
30
0
41
1
10
295.938438431515
20
19.951615933171
30
0
41
1
10
291.997915167674
20
19.6331408941638
30
0
41
1
10
290.683898907077
20
19.5014188191022
30
0
41
1
10
288.710832052289
20
19.2653204460632
30
0
41
1
10
288.052556878875
20
19.1801618177332
30
0
41
1
10
286.737052549552
20
18.9972299645514
30
0
41
1
10
286.079670384497
20
18.8994431496232
30
0
41
1
10
284.108300925994
20
18.5871673731144
30
0
41
1
10
282.795096839313
20
18.3537624098754
30
0
41
1
10
280.168863387561
20
17.8367176336497
30
0
41
1
10
278.855659553817
20
17.5533671320555
30
0
41
1
10
277.213266264196
20
17.1853275027496
30
0
41
1
10
276.884797172537
20
17.1111353740955
30
0
41
1
10
276.2275610958
20
16.9610567514917
30
0
41
1
10
275.898736716462
20
16.8849948339358
30
0
41
1
10
274.910372386798
20
16.6512767863786
30
0
41
1
10
274.248719520879
20
16.4877457392883
30
0
41
1
10
273.529557887212
20
16.3076234993505
30
0
41
1
10
273.473817039093
20
16.2936503597316
30
0
41
1
10
273.418067140923
20
16.2796627434261
30
0
0
SPLINE
5
2E9
100
AcDbEntity
8
1
62
256
6
ByLayer
370
13
48
1
60
0
100
AcDbSpline
70
4
71
3
72
44
73
40
40
0
40
0
40
0
40
0
40
0.124999999999996
40
0.124999999999996
40
0.249999999999992
40
0.249999999999992
40
0.31249999999999
40
0.31249999999999
40
0.343749999999985
40
0.343749999999985
40
0.374999999999979
40
0.374999999999979
40
0.437499999999968
40
0.437499999999968
40
0.468749999999962
40
0.468749999999962
40
0.499999999999956
40
0.499999999999956
40
0.562499999999954
40
0.562499999999954
40
0.624999999999952
40
0.624999999999952
40
0.68749999999995
40
0.68749999999995
40
0.718749999999952
40
0.718749999999952
40
0.749999999999954
40
0.749999999999954
40
0.812499999999964
40
0.812499999999964
40
0.84374999999997
40
0.84374999999997
40
0.874999999999977
40
0.874999999999977
40
0.937499999999988
40
0.937499999999988
40
0.968749999999994
40
0.968749999999994
40
1
40
1
40
1
40
1
41
1
10
312.525734543842
20
1.37613242653256
30
0
41
1
10
313.240401169439
20
1.2628328724191
30
0
41
1
10
313.958525866205
20
1.1590443984033
30
0
41
1
10
315.406429902088
20
0.983522382586415
30
0
41
1
10
316.136173876599
20
0.91169157396115
30
0
41
1
10
317.244350911635
20
0.841243741473875
30
0
41
1
10
317.616018754833
20
0.824019661616575
30
0
41
1
10
318.177782393328
20
0.809905400672704
30
0
41
1
10
318.365471689929
20
0.807176686720794
30
0
41
1
10
318.739560419457
20
0.806071704096155
30
0
41
1
10
318.92626256441
20
0.807686396805764
30
0
41
1
10
319.485252172337
20
0.819603032987743
30
0
41
1
10
319.856428924625
20
0.836938802014515
30
0
41
1
10
320.410523621984
20
0.879853561713674
30
0
41
1
10
320.594775467213
20
0.896985329240806
30
0
41
1
10
320.962289534405
20
0.937515876479694
30
0
41
1
10
321.144297514174
20
0.96078801301698
30
0
41
1
10
321.682419039559
20
1.03986603126893
30
0
41
1
10
322.031639744795
20
1.10498843680736
30
0
41
1
10
322.708310784509
20
1.26357735858377
30
0
41
1
10
323.035802198573
20
1.35699039092236
30
0
41
1
10
323.664640083271
20
1.57785607665537
30
0
41
1
10
323.956031050489
20
1.70190103394702
30
0
41
1
10
324.355830401171
20
1.90931203189737
30
0
41
1
10
324.482899420116
20
1.98203305267501
30
0
41
1
10
324.723962186431
20
2.13503662283728
30
0
41
1
10
324.838256566209
20
2.21565452355895
30
0
41
1
10
325.153054406088
20
2.46359766061767
30
0
41
1
10
325.328407262807
20
2.63848996613876
30
0
41
1
10
325.540354980566
20
2.91503271451541
30
0
41
1
10
325.60259888458
20
3.00986723070815
30
0
41
1
10
325.708955826164
20
3.20320678962023
30
0
41
1
10
325.752533768082
20
3.30062249298376
30
0
41
1
10
325.856178015642
20
3.59497435837352
30
0
41
1
10
325.889307096648
20
3.79400343841732
30
0
41
1
10
325.888448850722
20
4.09647474277895
30
0
41
1
10
325.879643269095
20
4.19742234487461
30
0
41
1
10
325.846318712587
20
4.39747009731158
30
0
41
1
10
325.821801018563
20
4.49689893099713
30
0
41
1
10
325.789919955334
20
4.59576999435066
30
0
0
SPLINE
5
2EA
100
AcDbEntity
8
1
62
256
6
ByLayer
370
13
48
1
60
0
100
AcDbSpline
70
4
71
3
72
12
73
8
40
0
40
0
40
0
40
0
40
0.499999999999999
40
0.499999999999999
40
0.749999999999999
40
0.749999999999999
40
1
40
1
40
1
40
1
41
1
10
314.466496360567
20
6.23995598436363
30
0
41
1
10
314.392993535665
20
6.07472152354637
30
0
41
1
10
314.309057950799
20
5.91438736953853
30
0
41
1
10
314.168466884807
20
5.68078500145162
30
0
41
1
10
314.118991269223
20
5.60384519299475
30
0
41
1
10
314.016117319397
20
5.45347929282562
30
0
41
1
10
313.962772812458
20
5.38009446671288
30
0
41
1
10
313.907645711303
20
5.30838999267007
30
0
0
SPLINE
5
2EB
100
AcDbEntity
8
1
62
256
6
ByLayer
370
13
48
1
60
0
100
AcDbSpline
70
4
71
3
72
22
73
18
40
0
40
0
40
0
40
0
40
0.0624999999999932
40
0.0624999999999932
40
0.124999999999987
40
0.124999999999987
40
0.249999999999974
40
0.249999999999974
40
0.499999999999984
40
0.499999999999984
40
0.624999999999988
40
0.624999999999988
40
0.749999999999992
40
0.749999999999992
40
0.874999999999996
40
0.874999999999996
40
1
40
1
40
1
40
1
41
1
10
313.707240051567
20
9.69846373521673
30
0
41
1
10
313.759176915328
20
9.65528958241327
30
0
41
1
10
313.81023569294
20
9.61082612759239
30
0
41
1
10
313.910762846299
20
9.51954961405997
30
0
41
1
10
313.960376174358
20
9.47259042014542
30
0
41
1
10
314.105133477905
20
9.33044091090753
30
0
41
1
10
314.196774528695
20
9.23361000061382
30
0
41
1
10
314.458834099819
20
8.93818267982189
30
0
41
1
10
314.616330270798
20
8.73445203673467
30
0
41
1
10
314.825466430387
20
8.41642361436911
30
0
41
1
10
314.890478449813
20
8.30858845488387
30
0
41
1
10
315.008930662304
20
8.09423751576674
30
0
41
1
10
315.062823468123
20
7.98709650307555
30
0
41
1
10
315.160373974249
20
7.77278727840343
30
0
41
1
10
315.204039211317
20
7.66562483384365
30
0
41
1
10
315.280608374275
20
7.45063693735966
30
0
41
1
10
315.313609690096
20
7.34222525252204
30
0
41
1
10
315.340272754757
20
7.23450514818759
30
0
0
SPLINE
5
2EC
100
AcDbEntity
8
1
62
256
6
ByLayer
370
13
48
1
60
0
100
AcDbSpline
70
4
71
3
72
12
73
8
40
0
40
0
40
0
40
0
40
0.317727221911453
40
0.317727221911453
40
0.658863610955727
40
0.658863610955727
40
1
40
1
40
1
40
1
41
1
10
37.4500010289364
20
-7.24623860696119
30
0
41
1
10
37.450011785162
20
-7.63821837698561
30
0
41
1
10
37.4500207604349
20
-8.06990185125272
30
0
41
1
10
37.4500345960126
20
-8.99641041058464
30
0
41
1
10
37.450039100137
20
-9.49325754630289
30
0
41
1
10
37.4500421963677
20
-10.4557927160552
30
0
41
1
10
37.4500407875487
20
-10.9211930949304
30
0
41
1
10
37.4500365145539
20
-11.3400836065801
30
0
0
SPLINE
5
2ED
100
AcDbEntity
8
1
62
256
6
ByLayer
370
13
48
1
60
0
100
AcDbSpline
70
4
71
3
72
8
73
4
40
0
40
0
40
0
40
0
40
1
40
1
40
1
40
1
41
1
10
312.271744839449
20
7.6235253448954
30
0
41
1
10
312.272200995425
20
7.62534224263479
30
0
41
1
10
312.272697521157
20
7.62714990450255
30
0
41
1
10
312.273233234959
20
7.62894861343048
30
0
0
SPLINE
5
2EE
100
AcDbEntity
8
1
62
256
6
ByLayer
370
13
48
1
60
0
100
AcDbSpline
70
4
71
3
72
10
73
6
40
0
40
0
40
0
40
0
40
0.5
40
0.5
40
1
40
1
40
1
40
1
41
1
10
309.086826657513
20
19.7939244442333
30
0
41
1
10
309.630789400185
20
18.6841655992635
30
0
41
1
10
310.235406928126
20
17.6142057132023
30
0
41
1
10
311.590430897148
20
15.5699461093191
30
0
41
1
10
312.340994169344
20
14.5957492970643
30
0
41
1
10
313.175315488804
20
13.6765107715549
30
0
0
SPLINE
5
2EF
100
AcDbEntity
8
1
62
256
6
ByLayer
370
13
48
1
60
0
100
AcDbSpline
70
4
71
3
72
18
73
14
40
0
40
0
40
0
40
0
40
0.125
40
0.125
40
0.25
40
0.25
40
0.375
40
0.375
40
0.5
40
0.5
40
0.75
40
0.75
40
1
40
1
40
1
40
1
41
1
10
320.554549027942
20
4.51435267220828
30
0
41
1
10
320.541587875729
20
4.5015719625641
30
0
41
1
10
320.533233985635
20
4.49253119136782
30
0
41
1
10
320.528353281593
20
4.48359963816333
30
0
41
1
10
320.531728357906
20
4.48354276160688
30
0
41
1
10
320.548059609984
20
4.49109626834814
30
0
41
1
10
320.561099549334
20
4.49871909703162
30
0
41
1
10
320.59305950905
20
4.51941797205805
30
0
41
1
10
320.61226331414
20
4.53267366950053
30
0
41
1
10
320.675328584248
20
4.57887304168082
30
0
41
1
10
320.72335888346
20
4.61718394581439
30
0
41
1
10
320.826162336553
20
4.70864104649556
30
0
41
1
10
320.878228599885
20
4.75938768807069
30
0
41
1
10
320.929956732343
20
4.81568076205517
30
0
0
SPLINE
5
2F0
100
AcDbEntity
8
1
62
256
6
ByLayer
370
13
48
1
60
0
100
AcDbSpline
70
4
71
3
72
8
73
4
40
0
40
0
40
0
40
0
40
1
40
1
40
1
40
1
41
1
10
315.107106212145
20
-20.3282851429636
30
0
41
1
10
314.107106212121
20
-20.2587949030253
30
0
41
1
10
313.107106212121
20
-20.1893046627486
30
0
41
1
10
312.107106212145
20
-20.1198144221231
30
0
0
SPLINE
5
2F1
100
AcDbEntity
8
1
62
256
6
ByLayer
370
13
48
1
60
0
100
AcDbSpline
70
4
71
3
72
14
73
10
40
0
40
0
40
0
40
0
40
0.499999999999997
40
0.499999999999997
40
0.624999999999999
40
0.624999999999999
40
0.750000000000002
40
0.750000000000002
40
1
40
1
40
1
40
1
41
1
10
36.1961524260705
20
-20.4220784656148
30
0
41
1
10
35.6936698399765
20
-20.443373692022
30
0
41
1
10
35.2016870040067
20
-20.4790299493895
30
0
41
1
10
34.599286084456
20
-20.5375326507222
30
0
41
1
10
34.4794429995233
20
-20.5499116000423
30
0
41
1
10
34.2410506984721
20
-20.5758452396314
30
0
41
1
10
34.1223670181772
20
-20.5894205477417
30
0
41
1
10
33.7732800592678
20
-20.6309568081869
30
0
41
1
10
33.5481385875154
20
-20.6599163184685
30
0
41
1
10
33.3303920538776
20
-20.6888683908126
30
0
0
SPLINE
5
2F2
100
AcDbEntity
8
1
62
256
6
ByLayer
370
13
48
1
60
0
100
AcDbSpline
70
4
71
3
72
8
73
4
40
0
40
0
40
0
40
0
40
1
40
1
40
1
40
1
41
1
10
309.086826657515
20
19.793924444235
30
0
41
1
10
309.126659206422
20
19.8592543979724
30
0
41
1
10
309.166310477848
20
19.9246978100125
30
0
41
1
10
309.205783545303
20
19.9902527567004
30
0
0
SPLINE
5
2F3
100
AcDbEntity
8
1
62
256
6
ByLayer
370
13
48
1
60
0
100
AcDbSpline
70
4
71
3
72
10
73
6
40
0
40
0
40
0
40
0
40
0.5
40
0.5
40
1
40
1
40
1
40
1
41
1
10
329.633042717522
20
6.26817144169596
30
0
41
1
10
329.658906601908
20
6.27989482869924
30
0
41
1
10
329.686819114735
20
6.28954710778803
30
0
41
1
10
329.744210755715
20
6.30345878433681
30
0
41
1
10
329.773817215488
20
6.30783484323851
30
0
41
1
10
329.804342502272
20
6.30945118036402
30
0
0
SPLINE
5
2F4
100
AcDbEntity
8
1
62
256
6
ByLayer
370
13
48
1
60
0
100
AcDbSpline
70
4
71
3
72
8
73
4
40
0
40
0
40
0
40
0
40
1
40
1
40
1
40
1
41
1
10
37
20
-20.4050491187941
30
0
41
1
10
36.7316534485618
20
-20.4050506434503
30
0
41
1
10
36.4637051309846
20
-20.4107395743086
30
0
41
1
10
36.1961524260705
20
-20.4220784656148
30
0
0
SPLINE
5
2F5
100
AcDbEntity
8
1
62
256
6
ByLayer
370
13
48
1
60
0
100
AcDbSpline
70
4
71
3
72
24
73
20
40
0
40
0
40
0
40
0
40
0.250000000000001
40
0.250000000000001
40
0.500000000000003
40
0.500000000000003
40
0.625000000000004
40
0.625000000000004
40
0.656250000000004
40
0.656250000000004
40
0.687500000000003
40
0.687500000000003
40
0.750000000000003
40
0.750000000000003
40
0.875000000000002
40
0.875000000000002
40
0.937500000000001
40
0.937500000000001
40
1
40
1
40
1
40
1
41
1
10
13.6804138807299
20
-28.5998575991964
30
0
41
1
10
15.4213697264299
20
-28.122284013611
30
0
41
1
10
17.1191733026924
20
-27.5663134081529
30
0
41
1
10
20.4298860674188
20
-26.3001400538505
30
0
41
1
10
22.0428114762532
20
-25.5899667734148
30
0
41
1
10
24.3968172610221
20
-24.4059233038962
30
0
41
1
10
25.1705589827975
20
-23.9913907165739
30
0
41
1
10
26.1236277653394
20
-23.4475935578775
30
0
41
1
10
26.3135352670948
20
-23.3375510356165
30
0
41
1
10
26.6919229710854
20
-23.1148729402468
30
0
41
1
10
26.8825517585243
20
-23.0060782397162
30
0
41
1
10
27.4597827995582
20
-22.6898711231632
30
0
41
1
10
27.8510337206201
20
-22.4915987950193
30
0
41
1
10
29.0439494892479
20
-21.9341302212812
30
0
41
1
10
29.8646766503258
20
-21.6120861393164
30
0
41
1
10
31.1352619650333
20
-21.2059943480005
30
0
41
1
10
31.5653976637319
20
-21.0835078692784
30
0
41
1
10
32.4394219642849
20
-20.8653391141729
30
0
41
1
10
32.8844720968515
20
-20.7695369140341
30
0
41
1
10
33.3303920538776
20
-20.6888683908126
30
0
0
SPLINE
5
2F6
100
AcDbEntity
8
1
62
256
6
ByLayer
370
13
48
1
60
0
100
AcDbSpline
70
4
71
3
72
18
73
14
40
0
40
0
40
0
40
0
40
0.249999999999994
40
0.249999999999994
40
0.49999999999999
40
0.49999999999999
40
0.624999999999992
40
0.624999999999992
40
0.749999999999995
40
0.749999999999995
40
0.874999999999997
40
0.874999999999997
40
1
40
1
40
1
40
1
41
1
10
315.340272754748
20
7.23450514818813
30
0
41
1
10
315.411569633814
20
7.41505985851146
30
0
41
1
10
315.473828615971
20
7.59798484459142
30
0
41
1
10
315.576948460255
20
7.96944668040115
30
0
41
1
10
315.617863133258
20
8.15796941770915
30
0
41
1
10
315.658916001561
20
8.44608241470252
30
0
41
1
10
315.669209658176
20
8.54338966277197
30
0
41
1
10
315.681725658431
20
8.73820296244779
30
0
41
1
10
315.683957544752
20
8.83539344587564
30
0
41
1
10
315.679503357
20
9.02929559778059
30
0
41
1
10
315.67282139733
20
9.12600748716437
30
0
41
1
10
315.649368704356
20
9.31888958875064
30
0
41
1
10
315.632462829486
20
9.41561934687775
30
0
41
1
10
315.610034867559
20
9.51065856896142
30
0
0
SPLINE
5
2F7
100
AcDbEntity
8
1
62
256
6
ByLayer
370
13
48
1
60
0
100
AcDbSpline
70
4
71
3
72
14
73
10
40
0
40
0
40
0
40
0
40
0.0995046980372685
40
0.0995046980372685
40
0.549752349018639
40
0.549752349018639
40
0.774876174509319
40
0.774876174509319
40
1
40
1
40
1
40
1
41
1
10
293.826525383312
20
9.32317875392698
30
0
41
1
10
294.451034998796
20
9.36113969849899
30
0
41
1
10
295.07550233396
20
9.39641214536726
30
0
41
1
10
298.525503406365
20
9.57621844395828
30
0
41
1
10
301.350656531848
20
9.6676419539659
30
0
41
1
10
305.591311494767
20
9.71768441898064
30
0
41
1
10
307.005191329972
20
9.71985149992929
30
0
41
1
10
309.832355078952
20
9.69485631117371
30
0
41
1
10
311.245896968125
20
9.66769780718127
30
0
41
1
10
312.659694537938
20
9.62582119897655
30
0
0
SPLINE
5
2F8
100
AcDbEntity
8
1
62
256
6
ByLayer
370
13
48
1
60
0
100
AcDbSpline
70
4
71
3
72
8
73
4
40
0
40
0
40
0
40
0
40
1
40
1
40
1
40
1
41
1
10
313.962224393416
20
6.41346483139085
30
0
41
1
10
313.390678418535
20
6.72498022741181
30
0
41
1
10
312.7923014223
20
7.00113155536755
30
0
41
1
10
312.174523272141
20
7.2517115970538
30
0
0
SPLINE
5
2F9
100
AcDbEntity
8
1
62
256
6
ByLayer
370
13
48
1
60
0
100
AcDbSpline
70
4
71
3
72
12
73
8
40
0
40
0
40
0
40
0
40
0.0553902281087324
40
0.0553902281087324
40
0.498209215495979
40
0.498209215495979
40
1
40
1
40
1
40
1
41
1
10
37.45
20
-19.7922171204973
30
0
41
1
10
37.45
20
-19.6361619193503
30
0
41
1
10
37.45
20
-19.4801067182052
30
0
41
1
10
37.45
20
-18.0764631155275
30
0
41
1
10
37.45
20
-16.8288747141088
30
0
41
1
10
37.45
20
-14.1675520772401
30
0
41
1
10
37.45
20
-12.753817841823
30
0
41
1
10
37.45
20
-11.3400836065545
30
0
0
SPLINE
5
2FA
100
AcDbEntity
8
1
62
256
6
ByLayer
370
13
48
1
60
0
100
AcDbSpline
70
4
71
3
72
38
73
34
40
0
40
0
40
0
40
0
40
0.0631572274187431
40
0.0631572274187431
40
0.126314454837486
40
0.126314454837486
40
0.252628909674972
40
0.252628909674972
40
0.315786137093715
40
0.315786137093715
40
0.347364750803086
40
0.347364750803086
40
0.378943364512457
40
0.378943364512457
40
0.442100591931199
40
0.442100591931199
40
0.505257819349941
40
0.505257819349941
40
0.568415046768683
40
0.568415046768683
40
0.631572274187425
40
0.631572274187425
40
0.694729501606167
40
0.694729501606167
40
0.757886729024909
40
0.757886729024909
40
0.821043956443651
40
0.821043956443651
40
0.884201183862393
40
0.884201183862393
40
0.947358411281136
40
0.947358411281136
40
1
40
1
40
1
40
1
41
1
10
295.806645947023
20
8.52643315183914
30
0
41
1
10
294.446874242641
20
9.0810148878063
30
0
41
1
10
293.086745684754
20
9.62392095051453
30
0
41
1
10
290.364116571512
20
10.6830244818451
30
0
41
1
10
289.000623928412
20
11.199599376073
30
0
41
1
10
284.916500769409
20
12.6996328853122
30
0
41
1
10
282.199505481792
20
13.6345351823954
30
0
41
1
10
278.121747674083
20
14.9202955039962
30
0
41
1
10
276.762207381529
20
15.3295720206454
30
0
41
1
10
274.720223651707
20
15.9110422599489
30
0
41
1
10
274.038913215826
20
16.099498927447
30
0
41
1
10
272.677073026078
20
16.4644705706551
30
0
41
1
10
271.996324182135
20
16.6410505966353
30
0
41
1
10
269.953980017805
20
17.1524454989079
30
0
41
1
10
268.592925405236
20
17.4694494581259
30
0
41
1
10
265.859535496126
20
18.0437597488142
30
0
41
1
10
264.487030442972
20
18.3008061905492
30
0
41
1
10
261.715184035227
20
18.748384465075
30
0
41
1
10
260.314367469968
20
18.9385070816201
30
0
41
1
10
257.489527924043
20
19.2668675661107
30
0
41
1
10
256.068480606593
20
19.4049177909318
30
0
41
1
10
253.213242639465
20
19.6423815858396
30
0
41
1
10
251.778585316349
20
19.7417863182438
30
0
41
1
10
248.900702244853
20
19.9097035501471
30
0
41
1
10
247.457972921095
20
19.9781595870922
30
0
41
1
10
244.564206493838
20
20.0895752021897
30
0
41
1
10
243.113205876108
20
20.1324478105533
30
0
41
1
10
240.199092619529
20
20.1971858349291
30
0
41
1
10
238.735968201687
20
20.2190751391299
30
0
41
1
10
235.793404806112
20
20.2484778337004
30
0
41
1
10
234.313152392944
20
20.2562028958528
30
0
41
1
10
231.597051176972
20
20.2639758507877
30
0
41
1
10
230.360571448532
20
20.2650830889986
30
0
41
1
10
229.122584676799
20
20.2650029776094
30
0
0
SPLINE
5
2FB
100
AcDbEntity
8
1
62
256
6
ByLayer
370
13
48
1
60
0
100
AcDbSpline
70
4
71
1
72
4
73
2
40
0
40
0
40
1
40
1
41
1
10
37.0100000003023
20
-19.7921835345489
30
0
41
1
10
37.0099999996977
20
-19.8059425709459
30
0
0
SPLINE
5
2FC
100
AcDbEntity
8
1
62
256
6
ByLayer
370
13
48
1
60
0
100
AcDbSpline
70
4
71
3
72
16
73
12
40
0
40
0
40
0
40
0
40
0.250000000000009
40
0.250000000000009
40
0.500000000000017
40
0.500000000000017
40
0.625000000000013
40
0.625000000000013
40
0.750000000000008
40
0.750000000000008
40
1
40
1
40
1
40
1
41
1
10
315.788124752061
20
3.73918973519315
30
0
41
1
10
316.36104848757
20
3.57648882430752
30
0
41
1
10
316.934516029795
20
3.46302768491455
30
0
41
1
10
318.083818886943
20
3.32451235779817
30
0
41
1
10
318.659643991578
20
3.29954503679809
30
0
41
1
10
319.526097468853
20
3.32768870867306
30
0
41
1
10
319.815368877837
20
3.34806337536477
30
0
41
1
10
320.394994469398
20
3.41141374127568
30
0
41
1
10
320.682894667885
20
3.45412442167745
30
0
41
1
10
321.540844007108
20
3.61528164944733
30
0
41
1
10
322.105306532737
20
3.76651402329108
30
0
41
1
10
322.662049866819
20
3.96430823455683
30
0
0
SPLINE
5
2FD
100
AcDbEntity
8
1
62
256
6
ByLayer
370
13
48
1
60
0
100
AcDbSpline
70
4
71
3
72
16
73
12
40
0
40
0
40
0
40
0
40
0.498846397030627
40
0.498846397030627
40
0.623557996288283
40
0.623557996288283
40
0.74826959554594
40
0.74826959554594
40
0.997692794061253
40
0.997692794061253
40
1
40
1
40
1
40
1
41
1
10
7.25635914423158
20
-22.8205683532034
30
0
41
1
10
7.68432100411199
20
-21.5781808518968
30
0
41
1
10
8.21162881968444
20
-20.3612360684803
30
0
41
1
10
8.99596905675382
20
-18.8715526648248
30
0
41
1
10
9.15915250646771
20
-18.5752048568596
30
0
41
1
10
9.49839095002329
20
-17.9857332942336
30
0
41
1
10
9.67471479339152
20
-17.6921991881728
30
0
41
1
10
10.2205952326878
20
-16.8210285253086
30
0
41
1
10
10.6075813238226
20
-16.2520829708743
30
0
41
1
10
11.0208918520639
20
-15.6897713704049
30
0
41
1
10
11.024681901568
20
-15.6846185582479
30
0
41
1
10
11.0284738504423
20
-15.6794667357828
30
0
0
SPLINE
5
2FE
100
AcDbEntity
8
1
62
256
6
ByLayer
370
13
48
1
60
0
100
AcDbSpline
70
4
71
3
72
10
73
6
40
0
40
0
40
0
40
0
40
0.5
40
0.5
40
1
40
1
40
1
40
1
41
1
10
333.457350785458
20
-4.15478631881544
30
0
41
1
10
333.513250849348
20
-4.45275001173997
30
0
41
1
10
333.548040096368
20
-4.75007863506661
30
0
41
1
10
333.578244558816
20
-5.34326873614907
30
0
41
1
10
333.573650426495
20
-5.63913094057437
30
0
41
1
10
333.549546496323
20
-5.93421333246977
30
0
0
SPLINE
5
2FF
100
AcDbEntity
8
1
62
256
6
ByLayer
370
13
48
1
60
0
100
AcDbSpline
70
4
71
3
72
46
73
42
40
0
40
0
40
0
40
0
40
0.0624999999999999
40
0.0624999999999999
40
0.0937500000000001
40
0.0937500000000001
40
0.125
40
0.125
40
0.187500000000001
40
0.187500000000001
40
0.218750000000001
40
0.218750000000001
40
0.250000000000001
40
0.250000000000001
40
0.312500000000002
40
0.312500000000002
40
0.343750000000002
40
0.343750000000002
40
0.375000000000002
40
0.375000000000002
40
0.437500000000002
40
0.437500000000002
40
0.500000000000003
40
0.500000000000003
40
0.562500000000003
40
0.562500000000003
40
0.625000000000003
40
0.625000000000003
40
0.656250000000003
40
0.656250000000003
40
0.687500000000002
40
0.687500000000002
40
0.750000000000002
40
0.750000000000002
40
0.812500000000002
40
0.812500000000002
40
0.843750000000001
40
0.843750000000001
40
0.875000000000001
40
0.875000000000001
40
1
40
1
40
1
40
1
41
1
10
7.25600189578708
20
-26.4633206470992
30
0
41
1
10
7.11366275465301
20
-26.6130117324292
30
0
41
1
10
6.99120580730401
20
-26.7612966827614
30
0
41
1
10
6.83859356005253
20
-26.9814606562906
30
0
41
1
10
6.79285588411386
20
-27.0544651100107
30
0
41
1
10
6.71182934196736
20
-27.1996434014204
30
0
41
1
10
6.6764205310124
20
-27.2721538225905
30
0
41
1
10
6.58780680015829
20
-27.48499072672
30
0
41
1
10
6.55163799793895
20
-27.6210360762214
30
0
41
1
10
6.53121974754995
20
-27.816408844516
30
0
41
1
10
6.53009455785062
20
-27.8800766370918
30
0
41
1
10
6.5394671302883
20
-28.0044391804375
30
0
41
1
10
6.55000724900155
20
-28.06540746714
30
0
41
1
10
6.59842360766285
20
-28.2414762650094
30
0
41
1
10
6.65264102554617
20
-28.3496564141907
30
0
41
1
10
6.76440018245148
20
-28.4990791127926
30
0
41
1
10
6.80675558518047
20
-28.546734550707
30
0
41
1
10
6.90158147324586
20
-28.6377833841317
30
0
41
1
10
6.95428753448722
20
-28.6813319186434
30
0
41
1
10
7.12571977334756
20
-28.8041822406251
30
0
41
1
10
7.25742211222946
20
-28.8757504522159
30
0
41
1
10
7.55226873129955
20
-29.0002092053818
30
0
41
1
10
7.71571895232009
20
-29.0531301632062
30
0
41
1
10
8.07206443341489
20
-29.1407503974958
30
0
41
1
10
8.26199062086698
20
-29.1747657906438
30
0
41
1
10
8.66316888052755
20
-29.2251492406745
30
0
41
1
10
8.87449801809267
20
-29.2414720442944
30
0
41
1
10
9.2069629019871
20
-29.2533219469399
30
0
41
1
10
9.32065724329819
20
-29.2551671064026
30
0
41
1
10
9.55138252323755
20
-29.2547422683843
30
0
41
1
10
9.66832947791757
20
-29.2524866571976
30
0
41
1
10
10.023689795955
20
-29.2399042616232
30
0
41
1
10
10.2666031700317
20
-29.2237851748701
30
0
41
1
10
10.7637409039395
20
-29.1770994571085
30
0
41
1
10
11.0179823074485
20
-29.1465178924333
30
0
41
1
10
11.4076855683425
20
-29.0900858132542
30
0
41
1
10
11.5388737257079
20
-29.0695192501717
30
0
41
1
10
11.8017387560873
20
-29.0252841535479
30
0
41
1
10
11.9336928853331
20
-29.0015768933353
30
0
41
1
10
12.5960368874719
20
-28.8752845257058
30
0
41
1
10
13.1340439434258
20
-28.7497363622994
30
0
41
1
10
13.6804138807299
20
-28.5998575991964
30
0
0
SPLINE
5
300
100
AcDbEntity
8
1
62
256
6
ByLayer
370
13
48
1
60
0
100
AcDbSpline
70
4
71
3
72
24
73
20
40
0
40
0
40
0
40
0
40
0.124992188297541
40
0.124992188297541
40
0.249984376595081
40
0.249984376595081
40
0.312480470743852
40
0.312480470743852
40
0.374976564892622
40
0.374976564892622
40
0.499968753190163
40
0.499968753190163
40
0.749953129785244
40
0.749953129785244
40
0.874945318082785
40
0.874945318082785
40
0.999937506380326
40
0.999937506380326
40
1
40
1
40
1
40
1
41
1
10
309.205783545298
20
19.9902527566936
30
0
41
1
10
307.705639745439
20
20.10127679726
30
0
41
1
10
306.205942374397
20
20.1789176454399
30
0
41
1
10
303.204456786694
20
20.2664292193195
30
0
41
1
10
301.704683676913
20
20.2762448063154
30
0
41
1
10
299.454570421195
20
20.2401461225353
30
0
41
1
10
298.704448238195
20
20.2196470541429
30
0
41
1
10
297.203712019282
20
20.1617650573
30
0
41
1
10
296.453101678659
20
20.124375544795
30
0
41
1
10
294.203263961071
20
19.9871943230893
30
0
41
1
10
292.704978093823
20
19.8623604206382
30
0
41
1
10
288.21167286781
20
19.3894379207544
30
0
41
1
10
285.217937777982
20
18.9430375980667
30
0
41
1
10
280.718715290012
20
18.0820704160467
30
0
41
1
10
279.222054341803
20
17.7630674491125
30
0
41
1
10
276.223613662827
20
17.074889696121
30
0
41
1
10
274.72168672987
20
16.7059030020008
30
0
41
1
10
273.21069062689
20
16.3222035766552
30
0
41
1
10
273.209935534334
20
16.3220118266946
30
0
41
1
10
273.209180439831
20
16.3218200730209
30
0
0
SPLINE
5
301
100
AcDbEntity
8
1
62
256
6
ByLayer
370
13
48
1
60
0
100
AcDbSpline
70
4
71
3
72
8
73
4
40
0
40
0
40
0
40
0
40
1
40
1
40
1
40
1
41
1
10
37.45
20
-19.7922171181211
30
0
41
1
10
37.3033333333305
20
-19.7922059505337
30
0
41
1
10
37.1566666666638
20
-19.7921947566225
30
0
41
1
10
37.01
20
-19.7921835345488
30
0
0
SPLINE
5
302
100
AcDbEntity
8
1
62
256
6
ByLayer
370
13
48
1
60
0
100
AcDbSpline
70
4
71
3
72
8
73
4
40
0
40
0
40
0
40
0
40
1
40
1
40
1
40
1
41
1
10
320.538118329165
20
5.59422935858893
30
0
41
1
10
320.565910625818
20
5.59515641043748
30
0
41
1
10
320.594332477488
20
5.59496671771672
30
0
41
1
10
320.622237410309
20
5.59355683508997
30
0
0
SPLINE
5
303
100
AcDbEntity
8
1
62
256
6
ByLayer
370
13
48
1
60
0
100
AcDbSpline
70
4
71
3
72
8
73
4
40
0
40
0
40
0
40
0
40
1
40
1
40
1
40
1
41
1
10
37.01
20
-19.8059425709659
30
0
41
1
10
36.7387174753216
20
-19.8059217990553
30
0
41
1
10
36.4674349506438
20
-19.8059010225182
30
0
41
1
10
36.1961524259657
20
-19.8058802483838
30
0
0
SPLINE
5
304
100
AcDbEntity
8
1
62
256
6
ByLayer
370
13
48
1
60
0
100
AcDbSpline
70
4
71
3
72
8
73
4
40
0
40
0
40
0
40
0
40
1
40
1
40
1
40
1
41
1
10
318.588417386781
20
20.0861364377348
30
0
41
1
10
318.492035393732
20
20.0768735557557
30
0
41
1
10
318.393224099813
20
20.0690154348496
30
0
41
1
10
318.292029252158
20
20.062660076556
30
0
0
SPLINE
5
305
100
AcDbEntity
8
1
62
256
6
ByLayer
370
13
48
1
60
0
100
AcDbSpline
70
4
71
3
72
36
73
32
40
0
40
0
40
0
40
0
40
0.0062635493313726
40
0.0062635493313726
40
0.016301291257318
40
0.016301291257318
40
0.0363767751092088
40
0.0363767751092088
40
0.0765277428129907
40
0.0765277428129907
40
0.116678710516773
40
0.116678710516773
40
0.136754194368664
40
0.136754194368664
40
0.146791936294609
40
0.146791936294609
40
0.156829678220555
40
0.156829678220555
40
0.196980645924338
40
0.196980645924338
40
0.277282581331904
40
0.277282581331904
40
0.35758451673947
40
0.35758451673947
40
0.437886452147036
40
0.437886452147036
40
0.518188387554603
40
0.518188387554603
40
0.678792258369735
40
0.678792258369735
40
1
40
1
40
1
40
1
41
1
10
248.912253691019
20
-10.480601732076
30
0
41
1
10
248.478451882584
20
-10.5111618825401
30
0
41
1
10
248.044520436343
20
-10.5411625808245
30
0
41
1
10
246.91485002
20
-10.6178675580785
30
0
41
1
10
246.218915756092
20
-10.6638209622553
30
0
41
1
10
244.129804769836
20
-10.7947455243761
30
0
41
1
10
242.735261149037
20
-10.8721203195134
30
0
41
1
10
238.545190224568
20
-11.0705324457848
30
0
41
1
10
235.743440945735
20
-11.1601407426761
30
0
41
1
10
230.123991109809
20
-11.2806730589964
30
0
41
1
10
227.30621825921
20
-11.3109142621257
30
0
41
1
10
223.068944029445
20
-11.3336804515664
30
0
41
1
10
221.654806051913
20
-11.3375120228191
30
0
41
1
10
219.530867843781
20
-11.3401036621949
30
0
41
1
10
218.822484420999
20
-11.340438959887
30
0
41
1
10
217.40561570962
20
-11.3403630014913
30
0
41
1
10
216.697113813018
20
-11.3400223565367
30
0
41
1
10
213.154680503101
20
-11.3395229230423
30
0
41
1
10
210.320733937424
20
-11.340534293473
30
0
41
1
10
201.818894501656
20
-11.3408769701361
30
0
41
1
10
196.15100183104
20
-11.3404072248521
30
0
41
1
10
184.815216301461
20
-11.3404783663144
30
0
41
1
10
179.147323417374
20
-11.3400671864296
30
0
41
1
10
167.8115375231
20
-11.3396436201628
30
0
41
1
10
162.143644522464
20
-11.3395603734926
30
0
41
1
10
150.807858590273
20
-11.3397750153521
30
0
41
1
10
145.139965650964
20
-11.3400671501877
30
0
41
1
10
128.136286870662
20
-11.3405269218436
30
0
41
1
10
116.800501041844
20
-11.3402046876266
30
0
41
1
10
82.7931434677907
20
-11.3397652447319
30
0
41
1
10
60.121571734863
20
-11.3400995130714
30
0
41
1
10
37.45
20
-11.3400836065545
30
0
0
SPLINE
5
306
100
AcDbEntity
8
1
62
256
6
ByLayer
370
13
48
1
60
0
100
AcDbSpline
70
4
71
3
72
8
73
4
40
0
40
0
40
0
40
0
40
1
40
1
40
1
40
1
41
1
10
334.049599831417
20
0.59657547094605
30
0
41
1
10
334.193320999822
20
0.617490290248156
30
0
41
1
10
334.335935757172
20
0.624817241828339
30
0
41
1
10
334.478737105305
20
0.620473855224645
30
0
0
SPLINE
5
307
100
AcDbEntity
8
1
62
256
6
ByLayer
370
13
48
1
60
0
100
AcDbSpline
70
4
71
3
72
70
73
66
40
0
40
0
40
0
40
0
40
0.002102709697834
40
0.002102709697834
40
0.011012506932675
40
0.011012506932675
40
0.019922304167516
40
0.019922304167516
40
0.028832101402357
40
0.028832101402357
40
0.037741898637198
40
0.037741898637198
40
0.05556149310688
40
0.05556149310688
40
0.073381087576562
40
0.073381087576562
40
0.082290884811403
40
0.082290884811403
40
0.091200682046244
40
0.091200682046244
40
0.109020276515925
40
0.109020276515925
40
0.126839870985607
40
0.126839870985607
40
0.135749668220448
40
0.135749668220448
40
0.144659465455288
40
0.144659465455288
40
0.16247905992497
40
0.16247905992497
40
0.180298654394652
40
0.180298654394652
40
0.198118248864333
40
0.198118248864333
40
0.215937843334015
40
0.215937843334015
40
0.224847640568856
40
0.224847640568856
40
0.233757437803696
40
0.233757437803696
40
0.242667235038537
40
0.242667235038537
40
0.251577032273378
40
0.251577032273378
40
0.269396626743059
40
0.269396626743059
40
0.28721622121274
40
0.28721622121274
40
0.358494599091466
40
0.358494599091466
40
0.394133788030829
40
0.394133788030829
40
0.429772976970192
40
0.429772976970192
40
0.501051354848918
40
0.501051354848918
40
0.572329732727644
40
0.572329732727644
40
0.64360811060637
40
0.64360811060637
40
0.714886488485096
40
0.714886488485096
40
0.857443244242548
40
0.857443244242548
40
1
40
1
40
1
40
1
41
1
10
274.812508619616
20
-16.7512578855584
30
0
41
1
10
274.658490215785
20
-16.7868345861993
30
0
41
1
10
274.504455149979
20
-16.822127406715
30
0
41
1
10
273.697634128158
20
-17.0054659715095
30
0
41
1
10
273.04437663995
20
-17.1485578035935
30
0
41
1
10
271.738546857562
20
-17.4239295965838
30
0
41
1
10
271.08580655096
20
-17.55645568004
30
0
41
1
10
269.780152055586
20
-17.8109029472992
30
0
41
1
10
269.12725976151
20
-17.9318384802002
30
0
41
1
10
267.818319896596
20
-18.1616901765755
30
0
41
1
10
267.162105250926
20
-18.2713814976468
30
0
41
1
10
265.185945412707
20
-18.5763243218012
30
0
41
1
10
263.859021109599
20
-18.7486742325821
30
0
41
1
10
261.187708496036
20
-19.0470909537683
30
0
41
1
10
259.84331263395
20
-19.1730047353883
30
0
41
1
10
257.813979019071
20
-19.3333431496398
30
0
41
1
10
257.135570928451
20
-19.3820074352449
30
0
41
1
10
255.776756340151
20
-19.4706574921184
30
0
41
1
10
255.09608102818
20
-19.5106646799103
30
0
41
1
10
253.050226055384
20
-19.619198710049
30
0
41
1
10
251.681192123734
20
-19.6764393842389
30
0
41
1
10
248.93291981974
20
-19.7676374816881
30
0
41
1
10
247.553822735796
20
-19.8003165908412
30
0
41
1
10
245.478190435456
20
-19.8277690728151
30
0
41
1
10
244.78508024841
20
-19.8340749972232
30
0
41
1
10
243.395879033941
20
-19.8461404725116
30
0
41
1
10
242.699818955711
20
-19.8515513857209
30
0
41
1
10
240.607105541148
20
-19.8652823050866
30
0
41
1
10
239.20892118702
20
-19.8710743514283
30
0
41
1
10
236.406007258449
20
-19.8726815791954
30
0
41
1
10
235.001259233882
20
-19.8684217137236
30
0
41
1
10
232.18498786855
20
-19.8535582768292
30
0
41
1
10
230.773433636055
20
-19.8429794251256
30
0
41
1
10
227.943882166715
20
-19.8242192238729
30
0
41
1
10
226.525352629953
20
-19.8161090942154
30
0
41
1
10
224.394552753713
20
-19.8035012696502
30
0
41
1
10
223.684193125651
20
-19.7990644861355
30
0
41
1
10
222.263303120814
20
-19.7916323523506
30
0
41
1
10
221.552773963702
20
-19.7884780931739
30
0
41
1
10
220.131545803272
20
-19.7892385314645
30
0
41
1
10
219.420840276628
20
-19.7941814334272
30
0
41
1
10
217.999354352601
20
-19.8011785881171
30
0
41
1
10
217.288579694649
20
-19.8021276957673
30
0
41
1
10
215.156217307484
20
-19.8008935878677
30
0
41
1
10
213.734595921545
20
-19.7969272066286
30
0
41
1
10
210.891326035606
20
-19.7904602439414
30
0
41
1
10
209.469675788967
20
-19.7881197493129
30
0
41
1
10
202.36142355986
20
-19.7807732335445
30
0
41
1
10
196.674831718918
20
-19.7878547879418
30
0
41
1
10
188.144939499452
20
-19.7964333538486
30
0
41
1
10
185.301641166818
20
-19.7981025377137
30
0
41
1
10
179.615042481249
20
-19.798522292389
30
0
41
1
10
176.771742022684
20
-19.7975499610038
30
0
41
1
10
168.241841039546
20
-19.7931882949826
30
0
41
1
10
162.555241084887
20
-19.7883915490934
30
0
41
1
10
151.182039354204
20
-19.785849439523
30
0
41
1
10
145.495437601145
20
-19.7876186710626
30
0
41
1
10
134.12223434346
20
-19.7920095424437
30
0
41
1
10
128.435632825391
20
-19.7946368175181
30
0
41
1
10
117.06242919177
20
-19.798071301691
30
0
41
1
10
111.375827016166
20
-19.7990939673886
30
0
41
1
10
94.316020556041
20
-19.7996579865531
30
0
41
1
10
82.9428165850626
20
-19.7968483556823
30
0
41
1
10
60.1964084345095
20
-19.7931237313958
30
0
41
1
10
48.8232042536384
20
-19.7921637077081
30
0
41
1
10
37.4500000000001
20
-19.7922171204973
30
0
0
SPLINE
5
308
100
AcDbEntity
8
1
62
256
6
ByLayer
370
13
48
1
60
0
100
AcDbSpline
70
4
71
3
72
18
73
14
40
0
40
0
40
0
40
0
40
0.170426712702868
40
0.170426712702868
40
0.340853425405735
40
0.340853425405735
40
0.511280138108603
40
0.511280138108603
40
0.68170685081147
40
0.68170685081147
40
0.852133563514339
40
0.852133563514339
40
1
40
1
40
1
40
1
41
1
10
37.01
20
-11.3400836065545
30
0
41
1
10
37.01
20
-11.1287698411728
30
0
41
1
10
37.01
20
-10.9091172917779
30
0
41
1
10
37.01
20
-10.4538298651492
30
0
41
1
10
37.01
20
-10.2163462605284
30
0
41
1
10
37.01
20
-9.7329796865441
30
0
41
1
10
37.01
20
-9.49050503832578
30
0
41
1
10
37.01
20
-9.0040144420299
30
0
41
1
10
37.01
20
-8.75747398242291
30
0
41
1
10
37.01
20
-8.27740111048848
30
0
41
1
10
37.01
20
-8.04402645202961
30
0
41
1
10
37.01
20
-7.62048070144894
30
0
41
1
10
37.01
20
-7.42740617843435
30
0
41
1
10
37.01
20
-7.24464260657362
30
0
0
SPLINE
5
309
100
AcDbEntity
8
1
62
256
6
ByLayer
370
13
48
1
60
0
100
AcDbSpline
70
4
71
3
72
16
73
12
40
0
40
0
40
0
40
0
40
0.25
40
0.25
40
0.5
40
0.5
40
0.75
40
0.75
40
0.875
40
0.875
40
1
40
1
40
1
40
1
41
1
10
33.331912087216
20
-7.98146872735634
30
0
41
1
10
33.5502570465277
20
-7.86288261333019
30
0
41
1
10
33.7786139535834
20
-7.75658859437496
30
0
41
1
10
34.2416244743337
20
-7.57510589084126
30
0
41
1
10
34.4771907663281
20
-7.49922260320548
30
0
41
1
10
34.9563685232866
20
-7.37672878414088
30
0
41
1
10
35.1999795467599
20
-7.33011704535144
30
0
41
1
10
35.5716414465773
20
-7.28284993287943
30
0
41
1
10
35.6964687710109
20
-7.27091501275174
30
0
41
1
10
35.9459977419387
20
-7.25490817746422
30
0
41
1
10
36.0709704091929
20
-7.25079782825617
30
0
41
1
10
36.1961524280017
20
-7.25059693544415
30
0
0
SPLINE
5
30A
100
AcDbEntity
8
1
62
256
6
ByLayer
370
13
48
1
60
0
100
AcDbSpline
70
4
71
3
72
14
73
10
40
0
40
0
40
0
40
0
40
0.500000000000043
40
0.500000000000043
40
0.750000000000044
40
0.750000000000044
40
0.875000000000022
40
0.875000000000022
40
1
40
1
40
1
40
1
41
1
10
308.574652217442
20
0.45053051155017
30
0
41
1
10
309.123272616596
20
0.150647074946363
30
0
41
1
10
309.692065235556
20
-0.0912084536792861
30
0
41
1
10
310.575713647489
20
-0.366397060714149
30
0
41
1
10
310.875367833667
20
-0.443446449265338
30
0
41
1
10
311.332846159976
20
-0.536024838091066
30
0
41
1
10
311.486955609251
20
-0.563080990367183
30
0
41
1
10
311.796229589489
20
-0.609016342272355
30
0
41
1
10
311.951399006855
20
-0.627916081263692
30
0
41
1
10
312.107106212145
20
-0.642707958046429
30
0
0
SPLINE
5
30B
100
AcDbEntity
8
1
62
256
6
ByLayer
370
13
48
1
60
0
100
AcDbSpline
70
4
71
3
72
8
73
4
40
0
40
0
40
0
40
0
40
1
40
1
40
1
40
1
41
1
10
320.929956732343
20
4.81568076205616
30
0
41
1
10
320.951391865018
20
4.83900751777335
30
0
41
1
10
320.972435739481
20
4.86275971190562
30
0
41
1
10
320.993058048493
20
4.88690901729521
30
0
0
SPLINE
5
30C
100
AcDbEntity
8
1
62
256
6
ByLayer
370
13
48
1
60
0
100
AcDbSpline
70
4
71
3
72
8
73
4
40
0
40
0
40
0
40
0
40
1
40
1
40
1
40
1
41
1
10
1.42E-14
20
4.97594212184995
30
0
41
1
10
0.031571657597965
20
5.1735845200318
30
0
41
1
10
0.0649171506606621
20
5.37085605809409
30
0
41
1
10
0.0999999999999801
20
5.56776436282993
30
0
0
SPLINE
5
30D
100
AcDbEntity
8
1
62
256
6
ByLayer
370
13
48
1
60
0
100
AcDbSpline
70
4
71
3
72
10
73
6
40
0
40
0
40
0
40
0
40
0.5
40
0.5
40
1
40
1
40
1
40
1
41
1
10
310.588133931455
20
1.60179554956403
30
0
41
1
10
310.178486822856
20
1.74291816807769
30
0
41
1
10
309.770517299546
20
1.88959502258652
30
0
41
1
10
308.960148023426
20
2.19979445282095
30
0
41
1
10
308.557740045193
20
2.36329384165199
30
0
41
1
10
308.159341197153
20
2.53844343199032
30
0
0
SPLINE
5
30E
100
AcDbEntity
8
1
62
256
6
ByLayer
370
13
48
1
60
0
100
AcDbSpline
70
4
71
3
72
10
73
6
40
0
40
0
40
0
40
0
40
0.5
40
0.5
40
1
40
1
40
1
40
1
41
1
10
313.707240051567
20
9.69846373521682
30
0
41
1
10
313.752224683684
20
9.69909879167025
30
0
41
1
10
313.797426085261
20
9.69802650120411
30
0
41
1
10
313.888567053044
20
9.69006789503518
30
0
41
1
10
313.935006418988
20
9.683224781777
30
0
41
1
10
313.980651406504
20
9.67066276082178
30
0
0
SPLINE
5
30F
100
AcDbEntity
8
1
62
256
6
ByLayer
370
13
48
1
60
0
100
AcDbSpline
70
4
71
3
72
8
73
4
40
0
40
0
40
0
40
0
40
1
40
1
40
1
40
1
41
1
10
0.0999999999999659
20
-5.56776436282993
30
0
41
1
10
0.0648944344305846
20
-5.37072855948904
30
0
41
1
10
0.03155109950454
20
-5.17345582387856
30
0
41
1
10
0
20
-4.97594212184998
30
0
0
SPLINE
5
310
100
AcDbEntity
8
1
62
256
6
ByLayer
370
13
48
1
60
0
100
AcDbSpline
70
4
71
1
72
4
73
2
40
0
40
0
40
1
40
1
41
1
10
36.1961513370587
20
-19.8058802483935
30
0
41
1
10
36.1961535149746
20
-20.4220784656283
30
0
0
SPLINE
5
311
100
AcDbEntity
8
1
62
256
6
ByLayer
370
13
48
1
60
0
100
AcDbSpline
70
4
71
3
72
8
73
4
40
0
40
0
40
0
40
0
40
1
40
1
40
1
40
1
41
1
10
312.17452327214
20
7.25171159705232
30
0
41
1
10
312.208311596781
20
7.37541786197585
30
0
41
1
10
312.240576437486
20
7.4993796533133
30
0
41
1
10
312.271744839447
20
7.6235253448896
30
0
0
SPLINE
5
312
100
AcDbEntity
8
1
62
256
6
ByLayer
370
13
48
1
60
0
100
AcDbSpline
70
4
71
3
72
14
73
10
40
0
40
0
40
0
40
0
40
0.125000000000035
40
0.125000000000035
40
0.250000000000071
40
0.250000000000071
40
0.5
40
0.5
40
1
40
1
40
1
40
1
41
1
10
328.762708723844
20
6.05458703439493
30
0
41
1
10
328.799334960757
20
6.05650653413505
30
0
41
1
10
328.836663465276
20
6.05933115836586
30
0
41
1
10
328.910544169299
20
6.06668655901342
30
0
41
1
10
328.947318261127
20
6.07122192870247
30
0
41
1
10
329.057213947034
20
6.08738287452138
30
0
41
1
10
329.129908900443
20
6.10155460572869
30
0
41
1
10
329.346835960251
20
6.1544254290491
30
0
41
1
10
329.489843189205
20
6.20326303644504
30
0
41
1
10
329.633042717522
20
6.26817144169596
30
0
0
SPLINE
5
313
100
AcDbEntity
8
1
62
256
6
ByLayer
370
13
48
1
60
0
100
AcDbSpline
70
4
71
3
72
14
73
10
40
0
40
0
40
0
40
0
40
0.25
40
0.25
40
0.5
40
0.5
40
0.75
40
0.75
40
1
40
1
40
1
40
1
41
1
10
334.225811456349
20
5.17197806148568
30
0
41
1
10
334.0712540895
20
5.18796686332183
30
0
41
1
10
333.921630964431
20
5.21633919630611
30
0
41
1
10
333.62666355672
20
5.2976474874892
30
0
41
1
10
333.48464213899
20
5.34977285626474
30
0
41
1
10
333.209111596972
20
5.47822392047121
30
0
41
1
10
333.075260635822
20
5.55473938432576
30
0
41
1
10
332.817118426475
20
5.7366614739783
30
0
41
1
10
332.6970023581
20
5.83908721729421
30
0
41
1
10
332.586596423833
20
5.95457679317957
30
0
0
SPLINE
5
314
100
AcDbEntity
8
1
62
256
6
ByLayer
370
13
48
1
60
0
100
AcDbSpline
70
4
71
3
72
26
73
22
40
0
40
0
40
0
40
0
40
0.0625000000000007
40
0.0625000000000007
40
0.0937500000000007
40
0.0937500000000007
40
0.125000000000001
40
0.125000000000001
40
0.250000000000001
40
0.250000000000001
40
0.312500000000001
40
0.312500000000001
40
0.343750000000001
40
0.343750000000001
40
0.375000000000001
40
0.375000000000001
40
0.500000000000001
40
0.500000000000001
40
0.750000000000001
40
0.750000000000001
40
1
40
1
40
1
40
1
41
1
10
33.331912087216
20
-7.98146872735637
30
0
41
1
10
32.8909049538577
20
-8.049509521066
30
0
41
1
10
32.4528309302773
20
-8.12972111487395
30
0
41
1
10
31.800116989708
20
-8.26828404219793
30
0
41
1
10
31.5832791240479
20
-8.31751509180734
30
0
41
1
10
31.1510773654868
20
-8.42209337117617
30
0
41
1
10
30.9353396851515
20
-8.47754524633484
30
0
41
1
10
29.8655458877458
20
-8.76878493038865
30
0
41
1
10
29.039611781298
20
-9.0456214539264
30
0
41
1
10
27.8431599238905
20
-9.52312112826175
30
0
41
1
10
27.4514478836631
20
-9.69270635520343
30
0
41
1
10
26.8745011148557
20
-9.9626585649834
30
0
41
1
10
26.6841451344004
20
-10.0555670719054
30
0
41
1
10
26.3059537491338
20
-10.2453830571502
30
0
41
1
10
26.1161456052348
20
-10.3391862580601
30
0
41
1
10
25.1635794964139
20
-10.8027354733734
30
0
41
1
10
24.3902586986215
20
-11.1561017986984
30
0
41
1
10
22.0375690675525
20
-12.1654509441731
30
0
41
1
10
20.4255919171432
20
-12.7708683428536
30
0
41
1
10
17.1169124077291
20
-13.8503205280966
30
0
41
1
10
15.4201938809963
20
-14.3243302435099
30
0
41
1
10
13.6803946433345
20
-14.7315350914276
30
0
0
SPLINE
5
315
100
AcDbEntity
8
1
62
256
6
ByLayer
370
13
48
1
60
0
100
AcDbSpline
70
4
71
1
72
4
73
2
40
0
40
0
40
1
40
1
41
1
10
294.3219128977
20
9.12741885821882
30
0
41
1
10
294.243154797324
20
9.15879794020321
30
0
0
SPLINE
5
316
100
AcDbEntity
8
1
62
256
6
ByLayer
370
13
48
1
60
0
100
AcDbSpline
70
4
71
3
72
19
73
15
40
0
40
0
40
0
40
0
40
0.11153030697229
40
0.223634937758446
40
0.336027204292537
40
0.448415973902401
40
0.560510168155256
40
0.62319281679446
40
0.685590479203278
40
0.74819873528873
40
0.811312976085466
40
0.874565153278952
40
0.937582383394963
40
1
40
1
40
1
40
1
41
1
10
5.67379999999997
20
-31.25
30
0
41
1
10
6.90783749150903
20
-31.0764521927185
30
0
41
1
10
9.36258600336393
20
-30.6414664277247
30
0
41
1
10
13.0005948948902
20
-29.7239443458969
30
0
41
1
10
16.5704050242184
20
-28.5439313199522
30
0
41
1
10
20.0475458317693
20
-27.1119428632071
30
0
41
1
10
22.9119559374895
20
-25.6745236997356
30
0
41
1
10
25.2162323311651
20
-24.373436969266
30
0
41
1
10
26.9676074525547
20
-23.2255495880591
30
0
41
1
10
28.8211748805149
20
-22.2342620971803
30
0
41
1
10
30.7840893727119
20
-21.4549464221561
30
0
41
1
10
32.8227528987802
20
-20.8894389065458
30
0
41
1
10
34.9053272208928
20
-20.5501620568925
30
0
41
1
10
36.3009027688865
20
-20.4752163570171
30
0
41
1
10
37
20
-20.475
30
0
0
SPLINE
5
317
100
AcDbEntity
8
1
62
256
6
ByLayer
370
13
48
1
60
0
100
AcDbSpline
70
4
71
3
72
18
73
14
40
0
40
0
40
0
40
0
40
0.0795429481455826
40
0.159896446954611
40
0.240301230065507
40
0.319995139459269
40
0.399509375309597
40
0.47941391641673
40
0.559563389697589
40
0.669964801990857
40
0.780354503643814
40
0.890456729752487
40
1
40
1
40
1
40
1
41
1
10
37
20
20.4749999999999
30
0
41
1
10
36.1067855755416
20
20.4755705877387
30
0
41
1
10
34.3302613723675
20
20.5966364794344
30
0
41
1
10
31.6967993010556
20
21.1489474272527
30
0
41
1
10
29.1615329443895
20
22.0498726254974
30
0
41
1
10
26.8021854047392
20
23.3193898168937
30
0
41
1
10
24.5660052785463
20
24.7728051186817
30
0
41
1
10
22.2092683917142
20
26.0362532072345
30
0
41
1
10
19.4925700287039
20
27.3471351907794
30
0
41
1
10
16.3806603013654
20
28.6121427716856
30
0
41
1
10
12.8711347600986
20
29.7597664589155
30
0
41
1
10
9.2967109573957
20
30.6539220947962
30
0
41
1
10
6.88566368618885
20
31.0795765472675
30
0
41
1
10
5.67380000000004
20
31.25
30
0
0
SPLINE
5
318
100
AcDbEntity
8
1
62
256
6
ByLayer
370
13
48
1
60
0
100
AcDbSpline
70
4
71
2
72
6
73
3
40
0
40
0
40
0
40
1
40
1
40
1
41
1
10
334.821210170497
20
5.35334963563457
30
0
41
1
10
334.889138076597
20
5.42434135323745
30
0
41
1
10
334.958380134285
20
5.48021624351622
30
0
0
SPLINE
5
319
100
AcDbEntity
8
1
62
256
6
ByLayer
370
13
48
1
60
0
100
AcDbSpline
70
4
71
2
72
6
73
3
40
0
40
0
40
0
40
1
40
1
40
1
41
1
10
317.903732387315
20
4.58642002864298
30
0
41
1
10
317.978435646182
20
4.53808899274318
30
0
41
1
10
318.053412091251
20
4.47458657483469
30
0
0
LINE
5
7F
100
AcDbEntity
8
SK1
62
256
6
ByLayer
370
13
48
1
60
0
100
AcDbLine
10
-6.5
20
-10.670483
30
0
11
-76.600002
21
-10.670483
31
0
39
0
210
0
220
0
230
1
0
LINE
5
81
100
AcDbEntity
8
SK1
62
256
6
ByLayer
370
13
48
1
60
0
100
AcDbLine
10
-1.544243
20
-24.783477
30
0
11
-1.544243
21
24.783477
31
0
39
0
210
0
220
0
230
1
0
LINE
5
82
100
AcDbEntity
8
SK1
62
256
6
ByLayer
370
13
48
1
60
0
100
AcDbLine
10
-76.600002
20
10.670483
30
0
11
-6.5
21
10.670483
31
0
39
0
210
0
220
0
230
1
0
LINE
5
83
100
AcDbEntity
8
1
62
256
6
ByLayer
370
18
48
1
60
0
100
AcDbLine
10
325.962055
20
11.194647
30
0
11
325.826345
21
11.187534
31
0
39
0
210
0
220
0
230
1
0
LINE
5
84
100
AcDbEntity
8
1
62
256
6
ByLayer
370
18
48
1
60
0
100
AcDbLine
10
327.124314
20
13.745688
30
0
11
327.132962
21
13.763705
31
0
39
0
210
0
220
0
230
1
0
LINE
5
85
100
AcDbEntity
8
1
62
256
6
ByLayer
370
18
48
1
60
0
100
AcDbLine
10
324.814452
20
12.96899
30
0
11
324.746727
21
12.96544
31
0
39
0
210
0
220
0
230
1
0
LINE
5
86
100
AcDbEntity
8
1
62
256
6
ByLayer
370
18
48
1
60
0
100
AcDbLine
10
325.686268
20
14.057855
30
0
11
325.675051
21
14.074392
31
0
39
0
210
0
220
0
230
1
0
LINE
5
87
100
AcDbEntity
8
1
62
256
6
ByLayer
370
18
48
1
60
0
100
AcDbLine
10
325.810761
20
14.081504
30
0
11
325.675051
21
14.074392
31
0
39
0
210
0
220
0
230
1
0
LINE
5
88
100
AcDbEntity
8
1
62
256
6
ByLayer
370
18
48
1
60
0
100
AcDbLine
10
325.970459
20
11.212212
30
0
11
325.835771
21
11.205153
31
0
39
0
210
0
220
0
230
1
0
LINE
5
89
100
AcDbEntity
8
1
62
256
6
ByLayer
370
18
48
1
60
0
100
AcDbLine
10
327.259001
20
13.752747
30
0
11
327.124314
21
13.745688
31
0
39
0
210
0
220
0
230
1
0
LINE
5
8A
100
AcDbEntity
8
1
62
256
6
ByLayer
370
18
48
1
60
0
100
AcDbLine
10
327.379503
20
11.656025
30
0
11
327.243793
21
11.648913
31
0
39
0
210
0
220
0
230
1
0
LINE
5
8B
100
AcDbEntity
8
1
62
256
6
ByLayer
370
18
48
1
60
0
100
AcDbLine
10
327.268671
20
13.770817
30
0
11
327.132962
21
13.763705
31
0
39
0
210
0
220
0
230
1
0
LINE
5
8C
100
AcDbEntity
8
1
62
256
6
ByLayer
370
18
48
1
60
0
100
AcDbLine
10
324.854915
20
12.196924
30
0
11
324.7866
21
12.193344
31
0
39
0
210
0
220
0
230
1
0
LINE
5
8D
100
AcDbEntity
8
1
62
256
6
ByLayer
370
18
48
1
60
0
100
AcDbLine
10
327.243793
20
11.648913
30
0
11
327.233309
21
11.665927
31
0
39
0
210
0
220
0
230
1
0
LINE
5
8E
100
AcDbEntity
8
1
62
256
6
ByLayer
370
18
48
1
60
0
100
AcDbLine
10
325.826345
20
11.187534
30
0
11
325.835771
21
11.205153
31
0
39
0
210
0
220
0
230
1
0
LINE
5
8F
100
AcDbEntity
8
1
62
256
6
ByLayer
370
18
48
1
60
0
100
AcDbLine
10
327.668878
20
13.119023
30
0
11
327.534191
21
13.111964
31
0
39
0
210
0
220
0
230
1
0
LINE
5
90
100
AcDbEntity
8
1
62
256
6
ByLayer
370
18
48
1
60
0
100
AcDbLine
10
327.709386
20
12.346082
30
0
11
327.574699
21
12.339023
31
0
39
0
210
0
220
0
230
1
0
LINE
5
91
100
AcDbEntity
8
1
62
256
6
ByLayer
370
18
48
1
60
0
100
AcDbLine
10
325.820955
20
14.064914
30
0
11
325.686268
21
14.057855
31
0
39
0
210
0
220
0
230
1
0
LINE
5
92
100
AcDbEntity
8
1
62
256
6
ByLayer
370
18
48
1
60
0
100
AcDbLine
10
327.367997
20
11.672986
30
0
11
327.233309
21
11.665927
31
0
39
0
210
0
220
0
230
1
0
LINE
5
93
100
AcDbEntity
8
1
62
256
6
ByLayer
370
18
48
1
60
0
100
AcDbLine
10
327.574699
20
12.339023
30
0
11
327.594563
21
12.340503
31
0
39
0
210
0
220
0
230
1
0
LINE
5
94
100
AcDbEntity
8
1
62
256
6
ByLayer
370
18
48
1
60
0
100
AcDbLine
10
327.554101
20
13.112568
30
0
11
327.534191
21
13.111964
31
0
39
0
210
0
220
0
230
1
0
LINE
5
95
100
AcDbEntity
8
1
62
256
6
ByLayer
370
18
48
1
60
0
100
AcDbLine
10
334.420025
20
0.264347
30
0
11
334.436048
21
0.208877
31
0
39
0
210
0
220
0
230
1
0
LINE
5
96
100
AcDbEntity
8
1
62
256
6
ByLayer
370
18
48
1
60
0
100
AcDbLine
10
334.062837
20
0.521737
30
0
11
334.129268
21
0.513055
31
0
39
0
210
0
220
0
230
1
0
LINE
5
97
100
AcDbEntity
8
1
62
256
6
ByLayer
370
18
48
1
60
0
100
AcDbLine
10
334.457189
20
0.114209
30
0
11
335.555958
21
-6.772621
31
0
39
0
210
0
220
0
230
1
0
LINE
5
98
100
AcDbEntity
8
1
62
256
6
ByLayer
370
18
48
1
60
0
100
AcDbLine
10
335.558963
20
-7.000518
30
0
11
334.661953
21
-13.76437
31
0
39
0
210
0
220
0
230
1
0
LINE
5
99
100
AcDbEntity
8
1
62
256
6
ByLayer
370
18
48
1
60
0
100
AcDbLine
10
334.41142
20
-14.05301
30
0
11
334.355543
21
-14.068916
31
0
39
0
210
0
220
0
230
1
0
LINE
5
9A
100
AcDbEntity
8
1
62
256
6
ByLayer
370
18
48
1
60
0
100
AcDbLine
10
334.260181
20
-14.089903
30
0
11
334.228204
21
-14.094931
31
0
39
0
210
0
220
0
230
1
0
LINE
5
9B
100
AcDbEntity
8
1
62
256
6
ByLayer
370
13
48
1
60
0
100
AcDbLine
10
333.333819
20
21.000564
30
0
11
333.223505
21
20.977456
31
0
39
0
210
0
220
0
230
1
0
LINE
5
9C
100
AcDbEntity
8
1
62
256
6
ByLayer
370
13
48
1
60
0
100
AcDbLine
10
316.677515
20
11.971583
30
0
11
317.785298
21
4.957139
31
0
39
0
210
0
220
0
230
1
0
LINE
5
9D
100
AcDbEntity
8
1
62
256
6
ByLayer
370
13
48
1
60
0
100
AcDbLine
10
335.943208
20
13.119279
30
0
11
335.127307
21
6.884987
31
0
39
0
210
0
220
0
230
1
0
LINE
5
9E
100
AcDbEntity
8
1
62
256
6
ByLayer
370
13
48
1
60
0
100
AcDbLine
10
319.899561
20
5.3646
30
0
11
319.894949
21
5.364358
31
0
39
0
210
0
220
0
230
1
0
LINE
5
9F
100
AcDbEntity
8
1
62
256
6
ByLayer
370
13
48
1
60
0
100
AcDbLine
10
333.619794
20
20.938189
30
0
11
333.615182
21
20.937947
31
0
39
0
210
0
220
0
230
1
0
LINE
5
A0
100
AcDbEntity
8
1
62
256
6
ByLayer
370
13
48
1
60
0
100
AcDbLine
10
318.719385
20
12.234021
30
0
11
319.566687
21
18.708247
31
0
39
0
210
0
220
0
230
1
0
LINE
5
A1
100
AcDbEntity
8
1
62
256
6
ByLayer
370
13
48
1
60
0
100
AcDbLine
10
319.445446
20
4.542438
30
0
11
319.440833
21
4.542196
31
0
39
0
210
0
220
0
230
1
0
LINE
5
A2
100
AcDbEntity
8
1
62
256
6
ByLayer
370
13
48
1
60
0
100
AcDbLine
10
319.566687
20
18.708247
30
0
11
317.720463
21
18.41499
31
0
39
0
210
0
220
0
230
1
0
LINE
5
A3
100
AcDbEntity
8
1
62
256
6
ByLayer
370
13
48
1
60
0
100
AcDbLine
10
319.74191
20
18.755985
30
0
11
319.737298
21
18.755743
31
0
39
0
210
0
220
0
230
1
0
LINE
5
A4
100
AcDbEntity
8
1
62
256
6
ByLayer
370
13
48
1
60
0
100
AcDbLine
10
332.887464
20
6.653807
30
0
11
332.875769
21
6.564443
31
0
39
0
210
0
220
0
230
1
0
LINE
5
A5
100
AcDbEntity
8
1
62
256
6
ByLayer
370
13
48
1
60
0
100
AcDbLine
10
316.50719
20
11.617577
30
0
11
317.755267
21
4.956296
31
0
39
0
210
0
220
0
230
1
0
LINE
5
A6
100
AcDbEntity
8
1
62
256
6
ByLayer
370
13
48
1
60
0
100
AcDbLine
10
317.720463
20
18.41499
30
0
11
316.902834
21
12.167496
31
0
39
0
210
0
220
0
230
1
0
LINE
5
A7
100
AcDbEntity
8
1
62
256
6
ByLayer
370
13
48
1
60
0
100
AcDbLine
10
319.737298
20
18.755743
30
0
11
318.881308
21
12.215134
31
0
39
0
210
0
220
0
230
1
0
LINE
5
A8
100
AcDbEntity
8
1
62
256
6
ByLayer
370
13
48
1
60
0
100
AcDbLine
10
319.361463
20
4.341258
30
0
11
319.129666
21
4.287564
31
0
39
0
210
0
220
0
230
1
0
LINE
5
A9
100
AcDbEntity
8
1
62
256
6
ByLayer
370
13
48
1
60
0
100
AcDbLine
10
335.839871
20
13.132112
30
0
11
335.022243
21
6.884618
31
0
39
0
210
0
220
0
230
1
0
LINE
5
AA
100
AcDbEntity
8
1
62
256
6
ByLayer
370
13
48
1
60
0
100
AcDbLine
10
319.943795
20
18.623729
30
0
11
319.101819
21
12.190194
31
0
39
0
210
0
220
0
230
1
0
LINE
5
AB
100
AcDbEntity
8
1
62
256
6
ByLayer
370
13
48
1
60
0
100
AcDbLine
10
334.860319
20
6.903505
30
0
11
335.677948
21
13.150999
31
0
39
0
210
0
220
0
230
1
0
LINE
5
AC
100
AcDbEntity
8
1
62
256
6
ByLayer
370
13
48
1
60
0
100
AcDbLine
10
319.727897
20
18.648911
30
0
11
319.74191
21
18.755985
31
0
39
0
210
0
220
0
230
1
0
LINE
5
AD
100
AcDbEntity
8
1
62
256
6
ByLayer
370
13
48
1
60
0
100
AcDbLine
10
332.692194
20
19.871545
30
0
11
332.740135
21
19.567984
31
0
39
0
210
0
220
0
230
1
0
LINE
5
AE
100
AcDbEntity
8
1
62
256
6
ByLayer
370
13
48
1
60
0
100
AcDbLine
10
333.584568
20
20.936982
30
0
11
333.579956
21
20.93674
31
0
39
0
210
0
220
0
230
1
0
LINE
5
AF
100
AcDbEntity
8
1
62
256
6
ByLayer
370
13
48
1
60
0
100
AcDbLine
10
335.844484
20
13.132353
30
0
11
335.026855
21
6.88486
31
0
39
0
210
0
220
0
230
1
0
LINE
5
B0
100
AcDbEntity
8
1
62
256
6
ByLayer
370
13
48
1
60
0
100
AcDbLine
10
317.490372
20
18.435441
30
0
11
317.467982
21
18.648775
31
0
39
0
210
0
220
0
230
1
0
LINE
5
B1
100
AcDbEntity
8
1
62
256
6
ByLayer
370
13
48
1
60
0
100
AcDbLine
10
318.883972
20
12.014264
30
0
11
319.920873
21
5.448642
31
0
39
0
210
0
220
0
230
1
0
LINE
5
B2
100
AcDbEntity
8
1
62
256
6
ByLayer
370
13
48
1
60
0
100
AcDbLine
10
319.755715
20
5.448575
30
0
11
318.722619
21
11.990107
31
0
39
0
210
0
220
0
230
1
0
LINE
5
B3
100
AcDbEntity
8
1
62
256
6
ByLayer
370
13
48
1
60
0
100
AcDbLine
10
319.874705
20
5.77042
30
0
11
318.888584
21
12.014505
31
0
39
0
210
0
220
0
230
1
0
LINE
5
B4
100
AcDbEntity
8
1
62
256
6
ByLayer
370
13
48
1
60
0
100
AcDbLine
10
332.990092
20
6.452598
30
0
11
332.98548
21
6.452356
31
0
39
0
210
0
220
0
230
1
0
LINE
5
B5
100
AcDbEntity
8
1
62
256
6
ByLayer
370
13
48
1
60
0
100
AcDbLine
10
316.904926
20
12.009669
30
0
11
318.01271
21
4.995225
31
0
39
0
210
0
220
0
230
1
0
LINE
5
B6
100
AcDbEntity
8
1
62
256
6
ByLayer
370
13
48
1
60
0
100
AcDbLine
10
332.917165
20
20.795062
30
0
11
333.075912
21
20.803382
31
0
39
0
210
0
220
0
230
1
0
LINE
5
B7
100
AcDbEntity
8
1
62
256
6
ByLayer
370
13
48
1
60
0
100
AcDbLine
10
334.729425
20
20.347427
30
0
11
335.837208
21
13.332982
31
0
39
0
210
0
220
0
230
1
0
LINE
5
B8
100
AcDbEntity
8
1
62
256
6
ByLayer
370
13
48
1
60
0
100
AcDbLine
10
334.570629
20
6.602404
30
0
11
334.257101
21
5.318621
31
0
39
0
210
0
220
0
230
1
0
LINE
5
B9
100
AcDbEntity
8
1
62
256
6
ByLayer
370
13
48
1
60
0
100
AcDbLine
10
333.352147
20
20.926802
30
0
11
333.579956
21
20.93674
31
0
39
0
210
0
220
0
230
1
0
LINE
5
BA
100
AcDbEntity
8
1
62
256
6
ByLayer
370
13
48
1
60
0
100
AcDbLine
10
332.710781
20
6.698634
30
0
11
333.552758
21
13.132168
31
0
39
0
210
0
220
0
230
1
0
LINE
5
BB
100
AcDbEntity
8
1
62
256
6
ByLayer
370
13
48
1
60
0
100
AcDbLine
10
334.458678
20
5.685429
30
0
11
334.913235
21
6.656825
31
0
39
0
210
0
220
0
230
1
0
LINE
5
BC
100
AcDbEntity
8
1
62
256
6
ByLayer
370
13
48
1
60
0
100
AcDbLine
10
335.675855
20
13.308826
30
0
11
334.568072
21
20.32327
31
0
39
0
210
0
220
0
230
1
0
LINE
5
BD
100
AcDbEntity
8
1
62
256
6
ByLayer
370
13
48
1
60
0
100
AcDbLine
10
332.119312
20
6.430774
30
0
11
321.181351
21
5.857539
31
0
39
0
210
0
220
0
230
1
0
LINE
5
BE
100
AcDbEntity
8
1
62
256
6
ByLayer
370
13
48
1
60
0
100
AcDbLine
10
319.925485
20
5.448884
30
0
11
319.920873
21
5.448642
31
0
39
0
210
0
220
0
230
1
0
LINE
5
BF
100
AcDbEntity
8
1
62
256
6
ByLayer
370
13
48
1
60
0
100
AcDbLine
10
318.888584
20
12.014505
30
0
11
318.883972
21
12.014264
31
0
39
0
210
0
220
0
230
1
0
LINE
5
C0
100
AcDbEntity
8
1
62
256
6
ByLayer
370
13
48
1
60
0
100
AcDbLine
10
334.570629
20
6.602404
30
0
11
334.913235
21
6.656825
31
0
39
0
210
0
220
0
230
1
0
LINE
5
C1
100
AcDbEntity
8
1
62
256
6
ByLayer
370
13
48
1
60
0
100
AcDbLine
10
317.883642
20
4.97276
30
0
11
316.775859
21
11.987204
31
0
39
0
210
0
220
0
230
1
0
LINE
5
C2
100
AcDbEntity
8
1
62
256
6
ByLayer
370
13
48
1
60
0
100
AcDbLine
10
319.103721
20
12.046715
30
0
11
320.089842
21
5.80263
31
0
39
0
210
0
220
0
230
1
0
LINE
5
C3
100
AcDbEntity
8
1
62
256
6
ByLayer
370
13
48
1
60
0
100
AcDbLine
10
317.605537
20
19.605994
30
0
11
317.704444
21
18.663604
31
0
39
0
210
0
220
0
230
1
0
LINE
5
C4
100
AcDbEntity
8
1
62
256
6
ByLayer
370
13
48
1
60
0
100
AcDbLine
10
318.885921
20
12.215376
30
0
11
319.727897
21
18.648911
31
0
39
0
210
0
220
0
230
1
0
LINE
5
C5
100
AcDbEntity
8
1
62
256
6
ByLayer
370
13
48
1
60
0
100
AcDbLine
10
333.572668
20
20.786158
30
0
11
333.344245
21
20.776194
31
0
39
0
210
0
220
0
230
1
0
LINE
5
C6
100
AcDbEntity
8
1
62
256
6
ByLayer
370
13
48
1
60
0
100
AcDbLine
10
332.824666
20
6.325072
30
0
11
334.570629
21
6.602404
31
0
39
0
210
0
220
0
230
1
0
LINE
5
C7
100
AcDbEntity
8
1
62
256
6
ByLayer
370
13
48
1
60
0
100
AcDbLine
10
318.885921
20
12.215376
30
0
11
318.881308
21
12.215134
31
0
39
0
210
0
220
0
230
1
0
LINE
5
C8
100
AcDbEntity
8
1
62
256
6
ByLayer
370
13
48
1
60
0
100
AcDbLine
10
316.50719
20
11.617577
30
0
11
316.452281
21
11.96526
31
0
39
0
210
0
220
0
230
1
0
LINE
5
C9
100
AcDbEntity
8
1
62
256
6
ByLayer
370
13
48
1
60
0
100
AcDbLine
10
316.451899
20
12.672588
30
0
11
316.433634
21
12.32107
31
0
39
0
210
0
220
0
230
1
0
LINE
5
CA
100
AcDbEntity
8
1
62
256
6
ByLayer
370
13
48
1
60
0
100
AcDbLine
10
334.897554
20
6.756074
30
0
11
332.98548
21
6.452356
31
0
39
0
210
0
220
0
230
1
0
LINE
5
CB
100
AcDbEntity
8
1
62
256
6
ByLayer
370
13
48
1
60
0
100
AcDbLine
10
334.916159
20
5.465162
30
0
11
334.881235
21
5.752548
31
0
39
0
210
0
220
0
230
1
0
LINE
5
CC
100
AcDbEntity
8
1
62
256
6
ByLayer
370
13
48
1
60
0
100
AcDbLine
10
317.897076
20
20.191559
30
0
11
318.009201
21
20.180108
31
0
39
0
210
0
220
0
230
1
0
LINE
5
CD
100
AcDbEntity
8
1
62
256
6
ByLayer
370
13
48
1
60
0
100
AcDbLine
10
334.734037
20
20.347668
30
0
11
334.729425
21
20.347427
31
0
39
0
210
0
220
0
230
1
0
LINE
5
CE
100
AcDbEntity
8
1
62
256
6
ByLayer
370
13
48
1
60
0
100
AcDbLine
10
334.062897
20
20.938089
30
0
11
334.058284
21
20.937847
31
0
39
0
210
0
220
0
230
1
0
LINE
5
CF
100
AcDbEntity
8
1
62
256
6
ByLayer
370
13
48
1
60
0
100
AcDbLine
10
319.793014
20
18.995356
30
0
11
317.704444
21
18.663604
31
0
39
0
210
0
220
0
230
1
0
LINE
5
D0
100
AcDbEntity
8
1
62
256
6
ByLayer
370
13
48
1
60
0
100
AcDbLine
10
334.902166
20
6.756315
30
0
11
332.990092
21
6.452598
31
0
39
0
210
0
220
0
230
1
0
LINE
5
D1
100
AcDbEntity
8
1
62
256
6
ByLayer
370
13
48
1
60
0
100
AcDbLine
10
333.356146
20
20.927017
30
0
11
333.351533
21
20.926776
31
0
39
0
210
0
220
0
230
1
0
LINE
5
D2
100
AcDbEntity
8
1
62
256
6
ByLayer
370
13
48
1
60
0
100
AcDbLine
10
319.008114
20
4.532337
30
0
11
319.236536
21
4.542301
31
0
39
0
210
0
220
0
230
1
0
LINE
5
D3
100
AcDbEntity
8
1
62
256
6
ByLayer
370
13
48
1
60
0
100
AcDbLine
10
334.458678
20
5.685429
30
0
11
334.881235
21
5.752548
31
0
39
0
210
0
220
0
230
1
0
LINE
5
D4
100
AcDbEntity
8
1
62
256
6
ByLayer
370
13
48
1
60
0
100
AcDbLine
10
319.925485
20
5.448884
30
0
11
319.874705
21
5.77042
31
0
39
0
210
0
220
0
230
1
0
LINE
5
D5
100
AcDbEntity
8
1
62
256
6
ByLayer
370
13
48
1
60
0
100
AcDbLine
10
333.014095
20
6.610247
30
0
11
334.860319
21
6.903505
31
0
39
0
210
0
220
0
230
1
0
LINE
5
D6
100
AcDbEntity
8
1
62
256
6
ByLayer
370
13
48
1
60
0
100
AcDbLine
10
316.641625
20
13.648311
30
0
11
316.449436
21
12.1798
31
0
39
0
210
0
220
0
230
1
0
LINE
5
D7
100
AcDbEntity
8
1
62
256
6
ByLayer
370
13
48
1
60
0
100
AcDbLine
10
316.773196
20
12.188075
30
0
11
317.590825
21
18.435568
31
0
39
0
210
0
220
0
230
1
0
LINE
5
D8
100
AcDbEntity
8
1
62
256
6
ByLayer
370
13
48
1
60
0
100
AcDbLine
10
333.256217
20
20.97917
30
0
11
333.488013
21
21.032864
31
0
39
0
210
0
220
0
230
1
0
LINE
5
D9
100
AcDbEntity
8
1
62
256
6
ByLayer
370
13
48
1
60
0
100
AcDbLine
10
333.861397
20
13.084474
30
0
11
333.014095
21
6.610247
31
0
39
0
210
0
220
0
230
1
0
LINE
5
DA
100
AcDbEntity
8
1
62
256
6
ByLayer
370
13
48
1
60
0
100
AcDbLine
10
333.550856
20
13.275647
30
0
11
332.564735
21
19.519733
31
0
39
0
210
0
220
0
230
1
0
LINE
5
DB
100
AcDbEntity
8
1
62
256
6
ByLayer
370
13
48
1
60
0
100
AcDbLine
10
316.451899
20
12.672588
30
0
11
316.457301
21
13.229505
31
0
39
0
210
0
220
0
230
1
0
LINE
5
DC
100
AcDbEntity
8
1
62
256
6
ByLayer
370
13
48
1
60
0
100
AcDbLine
10
317.715513
20
18.564113
30
0
11
319.627587
21
18.867831
31
0
39
0
210
0
220
0
230
1
0
LINE
5
DD
100
AcDbEntity
8
1
62
256
6
ByLayer
370
13
48
1
60
0
100
AcDbLine
10
316.744505
20
9.494873
30
0
11
317.483892
21
6.404674
31
0
39
0
210
0
220
0
230
1
0
LINE
5
DE
100
AcDbEntity
8
1
62
256
6
ByLayer
370
13
48
1
60
0
100
AcDbLine
10
335.185862
20
7.332429
30
0
11
335.06737
21
5.863585
31
0
39
0
210
0
220
0
230
1
0
LINE
5
DF
100
AcDbEntity
8
1
62
256
6
ByLayer
370
13
48
1
60
0
100
AcDbLine
10
333.356146
20
20.927017
30
0
11
333.584568
21
20.936982
31
0
39
0
210
0
220
0
230
1
0
LINE
5
E0
100
AcDbEntity
8
1
62
256
6
ByLayer
370
13
48
1
60
0
100
AcDbLine
10
335.026855
20
6.88486
30
0
11
335.022243
21
6.884618
31
0
39
0
210
0
220
0
230
1
0
LINE
5
E1
100
AcDbEntity
8
1
62
256
6
ByLayer
370
13
48
1
60
0
100
AcDbLine
10
335.940165
20
13.348845
30
0
11
334.832381
21
20.36329
31
0
39
0
210
0
220
0
230
1
0
LINE
5
E2
100
AcDbEntity
8
1
62
256
6
ByLayer
370
13
48
1
60
0
100
AcDbLine
10
333.611999
20
5.315966
30
0
11
333.812751
21
5.314759
31
0
39
0
210
0
220
0
230
1
0
LINE
5
E3
100
AcDbEntity
8
1
62
256
6
ByLayer
370
13
48
1
60
0
100
AcDbLine
10
332.825066
20
19.86992
30
0
11
333.858163
21
13.328388
31
0
39
0
210
0
220
0
230
1
0
LINE
5
E4
100
AcDbEntity
8
1
62
256
6
ByLayer
370
13
48
1
60
0
100
AcDbLine
10
317.605537
20
19.605994
30
0
11
317.462462
21
19.583268
31
0
39
0
210
0
220
0
230
1
0
LINE
5
E5
100
AcDbEntity
8
1
62
256
6
ByLayer
370
13
48
1
60
0
100
AcDbLine
10
334.734037
20
20.347668
30
0
11
335.84182
21
13.333224
31
0
39
0
210
0
220
0
230
1
0
LINE
5
E6
100
AcDbEntity
8
1
62
256
6
ByLayer
370
13
48
1
60
0
100
AcDbLine
10
335.844484
20
13.132353
30
0
11
335.839871
21
13.132112
31
0
39
0
210
0
220
0
230
1
0
LINE
5
E7
100
AcDbEntity
8
1
62
256
6
ByLayer
370
13
48
1
60
0
100
AcDbLine
10
334.902166
20
6.756315
30
0
11
334.897554
21
6.756074
31
0
39
0
210
0
220
0
230
1
0
LINE
5
E8
100
AcDbEntity
8
1
62
256
6
ByLayer
370
13
48
1
60
0
100
AcDbLine
10
316.451899
20
12.672588
30
0
11
316.531873
21
13.423696
31
0
39
0
210
0
220
0
230
1
0
LINE
5
E9
100
AcDbEntity
8
1
62
256
6
ByLayer
370
13
48
1
60
0
100
AcDbLine
10
316.674471
20
12.20115
30
0
11
317.490372
21
18.435441
31
0
39
0
210
0
220
0
230
1
0
LINE
5
EA
100
AcDbEntity
8
1
62
256
6
ByLayer
370
13
48
1
60
0
100
AcDbLine
10
333.223505
20
20.977456
30
0
11
333.256217
21
20.97917
31
0
39
0
210
0
220
0
230
1
0
LINE
5
EB
100
AcDbEntity
8
1
62
256
6
ByLayer
370
13
48
1
60
0
100
AcDbLine
10
320.498367
20
18.889655
30
0
11
331.436328
21
19.462889
31
0
39
0
210
0
220
0
230
1
0
LINE
5
EC
100
AcDbEntity
8
1
62
256
6
ByLayer
370
13
48
1
60
0
100
AcDbLine
10
318.40944
20
19.967813
30
0
11
318.086464
21
19.968017
31
0
39
0
210
0
220
0
230
1
0
LINE
5
ED
100
AcDbEntity
8
1
62
256
6
ByLayer
370
13
48
1
60
0
100
AcDbLine
10
335.84182
20
13.333224
30
0
11
335.837208
21
13.332982
31
0
39
0
210
0
220
0
230
1
0
LINE
5
EE
100
AcDbEntity
8
1
62
256
6
ByLayer
370
13
48
1
60
0
100
AcDbLine
10
319.261534
20
4.393411
30
0
11
319.033111
21
4.383446
31
0
39
0
210
0
220
0
230
1
0
LINE
5
EF
100
AcDbEntity
8
1
62
256
6
ByLayer
370
13
48
1
60
0
100
AcDbLine
10
334.960626
20
6.498184
30
0
11
334.881235
21
5.752548
31
0
39
0
210
0
220
0
230
1
0
LINE
5
F0
100
AcDbEntity
8
SK1
62
256
6
ByLayer
370
13
48
1
60
0
100
AcDbLine
10
-6.5
20
-10.670483
30
0
11
-6.5
21
10.670483
31
0
39
0
210
0
220
0
230
1
0
LINE
5
F1
100
AcDbEntity
8
SK1
62
256
6
ByLayer
370
13
48
1
60
0
100
AcDbLine
10
-2
20
-24.996
30
0
11
-2
21
24.996
31
0
39
0
210
0
220
0
230
1
0
LINE
5
F2
100
AcDbEntity
8
SK1
62
256
6
ByLayer
370
13
48
1
60
0
100
AcDbLine
10
-0.15
20
-24.746
30
0
11
-0.15
21
24.746
31
0
39
0
210
0
220
0
230
1
0
LINE
5
F3
100
AcDbEntity
8
SK1
62
256
6
ByLayer
370
13
48
1
60
0
100
AcDbLine
10
-1.375195
20
-24.746
30
0
11
-1.375195
21
24.746
31
0
39
0
210
0
220
0
230
1
0
LINE
5
F4
100
AcDbEntity
8
1
62
256
6
ByLayer
370
13
48
1
60
0
100
AcDbLine
10
0
20
-4.975942
30
0
11
0
21
4.975942
31
0
39
0
210
0
220
0
230
1
0
LINE
5
F5
100
AcDbEntity
8
1
62
256
6
ByLayer
370
13
48
1
60
0
100
AcDbLine
10
0
20
31.15
30
0
11
0
21
4.975942
31
0
39
0
210
0
220
0
230
1
0
LINE
5
F6
100
AcDbEntity
8
1
62
256
6
ByLayer
370
13
48
1
60
0
100
AcDbLine
10
334.855222
20
0.786593
30
0
11
334.504264
21
0.622906
31
0
39
0
210
0
220
0
230
1
0
LINE
5
F7
100
AcDbEntity
8
1
62
256
6
ByLayer
370
13
48
1
60
0
100
AcDbLine
10
334.495073
20
0.618619
30
0
11
334.252695
21
0.505573
31
0
39
0
210
0
220
0
230
1
0
LINE
5
F8
100
AcDbEntity
8
1
62
256
6
ByLayer
370
13
48
1
60
0
100
AcDbLine
10
334.594804
20
5.030739
30
0
11
334.848854
21
4.541212
31
0
39
0
210
0
220
0
230
1
0
LINE
5
F9
100
AcDbEntity
8
1
62
256
6
ByLayer
370
13
48
1
60
0
100
AcDbLine
10
313.697822
20
9.699838
30
0
11
313.697822
21
12.986138
31
0
39
0
210
0
220
0
230
1
0
LINE
5
FA
100
AcDbEntity
8
1
62
256
6
ByLayer
370
13
48
1
60
0
100
AcDbLine
10
0.1
20
-31.25
30
0
11
0.1
21
-5.567764
31
0
39
0
210
0
220
0
230
1
0
LINE
5
FB
100
AcDbEntity
8
1
62
256
6
ByLayer
370
13
48
1
60
0
100
AcDbLine
10
322.048334
20
5.902976
30
0
11
324.136758
21
6.012426
31
0
39
0
210
0
220
0
230
1
0
LINE
5
FC
100
AcDbEntity
8
1
62
256
6
ByLayer
370
13
48
1
60
0
100
AcDbLine
10
313.980651
20
9.670663
30
0
11
315.348466
21
10.434116
31
0
39
0
210
0
220
0
230
1
0
LINE
5
FD
100
AcDbEntity
8
1
62
256
6
ByLayer
370
13
48
1
60
0
100
AcDbLine
10
317.472728
20
19.387385
30
0
11
317.424167
21
20.313985
31
0
39
0
210
0
220
0
230
1
0
LINE
5
FE
100
AcDbEntity
8
1
62
256
6
ByLayer
370
13
48
1
60
0
100
AcDbLine
10
318.550464
20
19.796135
30
0
11
318.588417
21
20.086136
31
0
39
0
210
0
220
0
230
1
0
LINE
5
FF
100
AcDbEntity
8
1
62
256
6
ByLayer
370
13
48
1
60
0
100
AcDbLine
10
333.909588
20
-20.328285
30
0
11
334.597398
21
-15.141897
31
0
39
0
210
0
220
0
230
1
0
LINE
5
100
100
AcDbEntity
8
1
62
256
6
ByLayer
370
13
48
1
60
0
100
AcDbLine
10
5.6738
20
-5.567764
30
0
11
0.1
21
-5.567764
31
0
39
0
210
0
220
0
230
1
0
LINE
5
101
100
AcDbEntity
8
1
62
256
6
ByLayer
370
13
48
1
60
0
100
AcDbLine
10
317.474018
20
18.480295
30
0
11
316.90081
21
14.100416
31
0
39
0
210
0
220
0
230
1
0
LINE
5
102
100
AcDbEntity
8
1
62
256
6
ByLayer
370
13
48
1
60
0
100
AcDbLine
10
334.848854
20
4.541212
30
0
11
334.710786
21
4.015022
31
0
39
0
210
0
220
0
230
1
0
LINE
5
103
100
AcDbEntity
8
1
62
256
6
ByLayer
370
13
48
1
60
0
100
AcDbLine
10
335.079658
20
-7.674799
30
0
11
334.215161
21
-14.193486
31
0
39
0
210
0
220
0
230
1
0
LINE
5
104
100
AcDbEntity
8
1
62
256
6
ByLayer
370
13
48
1
60
0
100
AcDbLine
10
334.504087
20
0.617446
30
0
11
334.478766
21
0.620755
31
0
39
0
210
0
220
0
230
1
0
LINE
5
105
100
AcDbEntity
8
1
62
256
6
ByLayer
370
13
48
1
60
0
100
AcDbLine
10
321.698223
20
5.684353
30
0
11
321.707447
21
5.684836
31
0
39
0
210
0
220
0
230
1
0
LINE
5
106
100
AcDbEntity
8
1
62
256
6
ByLayer
370
13
48
1
60
0
100
AcDbLine
10
332.3471
20
6.242437
30
0
11
321.707447
21
5.684836
31
0
39
0
210
0
220
0
230
1
0
LINE
5
107
100
AcDbEntity
8
1
62
256
6
ByLayer
370
13
48
1
60
0
100
AcDbLine
10
315.107106
20
20.475
30
0
11
315.107106
21
20.285733
31
0
39
0
210
0
220
0
230
1
0
LINE
5
108
100
AcDbEntity
8
1
62
256
6
ByLayer
370
13
48
1
60
0
100
AcDbLine
10
312.107106
20
20.265
30
0
11
312.107106
21
20.033147
31
0
39
0
210
0
220
0
230
1
0
LINE
5
109
100
AcDbEntity
8
1
62
256
6
ByLayer
370
13
48
1
60
0
100
AcDbLine
10
312.107106
20
-20.119814
30
0
11
303.279634
21
-20.119814
31
0
39
0
210
0
220
0
230
1
0
LINE
5
10A
100
AcDbEntity
8
1
62
256
6
ByLayer
370
13
48
1
60
0
100
AcDbLine
10
334.496301
20
0.627376
30
0
11
334.504087
21
0.617446
31
0
39
0
210
0
220
0
230
1
0
LINE
5
10B
100
AcDbEntity
8
1
62
256
6
ByLayer
370
13
48
1
60
0
100
AcDbLine
10
325.12676
20
4.562251
30
0
11
325.945887
21
4.60518
31
0
39
0
210
0
220
0
230
1
0
LINE
5
10C
100
AcDbEntity
8
1
62
256
6
ByLayer
370
13
48
1
60
0
100
AcDbLine
10
334.596044
20
1.117176
30
0
11
334.855222
21
0.786593
31
0
39
0
210
0
220
0
230
1
0
LINE
5
10D
100
AcDbEntity
8
1
62
256
6
ByLayer
370
13
48
1
60
0
100
AcDbLine
10
321.419656
20
5.569209
30
0
11
320.8946
21
5.541692
31
0
39
0
210
0
220
0
230
1
0
LINE
5
10E
100
AcDbEntity
8
1
62
256
6
ByLayer
370
13
48
1
60
0
100
AcDbLine
10
334.587256
20
5.158192
30
0
11
334.44421
21
5.150695
31
0
39
0
210
0
220
0
230
1
0
LINE
5
10F
100
AcDbEntity
8
1
62
256
6
ByLayer
370
13
48
1
60
0
100
AcDbLine
10
37
20
20.475
30
0
11
37
21
-7.24992
31
0
39
0
210
0
220
0
230
1
0
LINE
5
110
100
AcDbEntity
8
1
62
256
6
ByLayer
370
13
48
1
60
0
100
AcDbLine
10
42
20
20.475
30
0
11
42
21
-7.249659
31
0
39
0
210
0
220
0
230
1
0
LINE
5
111
100
AcDbEntity
8
1
62
256
6
ByLayer
370
13
48
1
60
0
100
AcDbLine
10
315.107106
20
-20.328285
30
0
11
315.107106
21
-0.826006
31
0
39
0
210
0
220
0
230
1
0
LINE
5
112
100
AcDbEntity
8
1
62
256
6
ByLayer
370
13
48
1
60
0
100
AcDbLine
10
316.978929
20
8.010487
30
0
11
316.35128
21
11.984742
31
0
39
0
210
0
220
0
230
1
0
LINE
5
113
100
AcDbEntity
8
1
62
256
6
ByLayer
370
13
48
1
60
0
100
AcDbLine
10
316.743922
20
13.818585
30
0
11
317.472728
21
19.387385
31
0
39
0
210
0
220
0
230
1
0
LINE
5
114
100
AcDbEntity
8
1
62
256
6
ByLayer
370
13
48
1
60
0
100
AcDbLine
10
334.131906
20
-0.174972
30
0
11
332.796024
21
1.344666
31
0
39
0
210
0
220
0
230
1
0
LINE
5
115
100
AcDbEntity
8
1
62
256
6
ByLayer
370
13
48
1
60
0
100
AcDbLine
10
0.1
20
31.25
30
0
11
0.1
21
5.567764
31
0
39
0
210
0
220
0
230
1
0
LINE
5
116
100
AcDbEntity
8
1
62
256
6
ByLayer
370
13
48
1
60
0
100
AcDbLine
10
37
20
-20.405049
30
0
11
37
21
-20.475
31
0
39
0
210
0
220
0
230
1
0
LINE
5
117
100
AcDbEntity
8
1
62
256
6
ByLayer
370
13
48
1
60
0
100
AcDbLine
10
334.848854
20
4.541212
30
0
11
334.855222
21
0.786593
31
0
39
0
210
0
220
0
230
1
0
LINE
5
118
100
AcDbEntity
8
1
62
256
6
ByLayer
370
13
48
1
60
0
100
AcDbLine
10
42
20
-20.405021
30
0
11
42
21
-20.475
31
0
39
0
210
0
220
0
230
1
0
LINE
5
119
100
AcDbEntity
8
1
62
256
6
ByLayer
370
13
48
1
60
0
100
AcDbLine
10
334.131906
20
-0.174972
30
0
11
335.057238
21
-5.974746
31
0
39
0
210
0
220
0
230
1
0
LINE
5
11A
100
AcDbEntity
8
1
62
256
6
ByLayer
370
13
48
1
60
0
100
AcDbLine
10
156.6
20
20.265
30
0
11
156.6
21
-7.245239
31
0
39
0
210
0
220
0
230
1
0
LINE
5
11B
100
AcDbEntity
8
1
62
256
6
ByLayer
370
13
48
1
60
0
100
AcDbLine
10
334.637454
20
4.310426
30
0
11
334.587256
21
5.158192
31
0
39
0
210
0
220
0
230
1
0
LINE
5
11C
100
AcDbEntity
8
1
62
256
6
ByLayer
370
13
48
1
60
0
100
AcDbLine
10
5.6738
20
31.25
30
0
11
5.6738
21
5.567764
31
0
39
0
210
0
220
0
230
1
0
LINE
5
11D
100
AcDbEntity
8
1
62
256
6
ByLayer
370
13
48
1
60
0
100
AcDbLine
10
333.909588
20
-20.328285
30
0
11
315.107106
21
-20.328285
31
0
39
0
210
0
220
0
230
1
0
LINE
5
11E
100
AcDbEntity
8
1
62
256
6
ByLayer
370
13
48
1
60
0
100
AcDbLine
10
312.475122
20
1.371324
30
0
11
312.89033
21
-0.716073
31
0
39
0
210
0
220
0
230
1
0
LINE
5
11F
100
AcDbEntity
8
1
62
256
6
ByLayer
370
13
48
1
60
0
100
AcDbLine
10
315.348466
20
10.434116
30
0
11
313.697822
21
12.986138
31
0
39
0
210
0
220
0
230
1
0
LINE
5
120
100
AcDbEntity
8
1
62
256
6
ByLayer
370
13
48
1
60
0
100
AcDbLine
10
5.6738
20
-5.567764
30
0
11
5.6738
21
-31.25
31
0
39
0
210
0
220
0
230
1
0
LINE
5
121
100
AcDbEntity
8
1
62
256
6
ByLayer
370
13
48
1
60
0
100
AcDbLine
10
0
20
-31.15
30
0
11
0
21
-4.975942
31
0
39
0
210
0
220
0
230
1
0
LINE
5
122
100
AcDbEntity
8
1
62
256
6
ByLayer
370
13
48
1
60
0
100
AcDbLine
10
329.804343
20
6.309451
30
0
11
331.892767
21
6.418901
31
0
39
0
210
0
220
0
230
1
0
LINE
5
123
100
AcDbEntity
8
1
62
256
6
ByLayer
370
13
48
1
60
0
100
AcDbLine
10
334.596044
20
1.117176
30
0
11
334.571251
21
1.120416
31
0
39
0
210
0
220
0
230
1
0
LINE
5
124
100
AcDbEntity
8
1
62
256
6
ByLayer
370
13
48
1
60
0
100
AcDbLine
10
313.907646
20
5.30839
30
0
11
315.928431
21
4.687525
31
0
39
0
210
0
220
0
230
1
0
LINE
5
125
100
AcDbEntity
8
1
62
256
6
ByLayer
370
13
48
1
60
0
100
AcDbLine
10
329.633043
20
6.268171
30
0
11
329.450907
21
6.258626
31
0
39
0
210
0
220
0
230
1
0
LINE
5
126
100
AcDbEntity
8
1
62
256
6
ByLayer
370
13
48
1
60
0
100
AcDbLine
10
334.496301
20
0.627376
30
0
11
334.483944
21
0.628991
31
0
39
0
210
0
220
0
230
1
0
LINE
5
127
100
AcDbEntity
8
1
62
256
6
ByLayer
370
13
48
1
60
0
100
AcDbLine
10
324.98218
20
5.556046
30
0
11
332.586596
21
5.954577
31
0
39
0
210
0
220
0
230
1
0
LINE
5
128
100
AcDbEntity
8
1
62
256
6
ByLayer
370
13
48
1
60
0
100
AcDbLine
10
0.1
20
5.567764
30
0
11
5.6738
21
5.567764
31
0
39
0
210
0
220
0
230
1
0
LINE
5
129
100
AcDbEntity
8
1
62
256
6
ByLayer
370
13
48
1
60
0
100
AcDbLine
10
333.457351
20
-4.154786
30
0
11
335.057238
21
-5.974746
31
0
39
0
210
0
220
0
230
1
0
LINE
5
12A
100
AcDbEntity
8
1
62
256
6
ByLayer
370
13
48
1
60
0
100
AcDbLine
10
308.159341
20
2.538443
30
0
11
308.574652
21
0.450531
31
0
39
0
210
0
220
0
230
1
0
LINE
5
12B
100
AcDbEntity
8
1
62
256
6
ByLayer
370
13
48
1
60
0
100
AcDbLine
10
334.710786
20
4.015022
30
0
11
334.675003
21
4.013147
31
0
39
0
210
0
220
0
230
1
0
LINE
5
12C
100
AcDbEntity
8
1
62
256
6
ByLayer
370
13
48
1
60
0
100
AcDbLine
10
333.247483
20
4.98784
30
0
11
332.836274
21
2.090631
31
0
39
0
210
0
220
0
230
1
0
LINE
5
12D
100
AcDbEntity
8
1
62
256
6
ByLayer
370
13
48
1
60
0
100
AcDbLine
10
156.6
20
-20.190136
30
0
11
156.6
21
-20.265
31
0
39
0
210
0
220
0
230
1
0
LINE
5
12E
100
AcDbEntity
8
1
62
256
6
ByLayer
370
13
48
1
60
0
100
AcDbLine
10
335.079658
20
-7.674799
30
0
11
333.549546
21
-5.934213
31
0
39
0
210
0
220
0
230
1
0
LINE
5
12F
100
AcDbEntity
8
1
62
256
6
ByLayer
370
13
48
1
60
0
100
AcDbLine
10
321.658567
20
5.591828
30
0
11
321.424077
21
5.579539
31
0
39
0
210
0
220
0
230
1
0
LINE
5
130
100
AcDbEntity
8
1
62
256
6
ByLayer
370
13
48
1
60
0
100
AcDbLine
10
37.01
20
-11.340084
30
0
11
37.01
21
-19.792184
31
0
39
0
210
0
220
0
230
1
0
LINE
5
131
100
AcDbEntity
8
1
62
256
6
ByLayer
370
13
48
1
60
0
100
AcDbLine
10
325.945887
20
4.60518
30
0
11
333.247483
21
4.98784
31
0
39
0
210
0
220
0
230
1
0
LINE
5
132
100
AcDbEntity
8
1
62
256
6
ByLayer
370
13
48
1
60
0
100
AcDbLine
10
334.597398
20
-15.141897
30
0
11
334.200702
21
-14.758539
31
0
39
0
210
0
220
0
230
1
0
LINE
5
133
100
AcDbEntity
8
1
62
256
6
ByLayer
370
13
48
1
60
0
100
AcDbLine
10
332.796024
20
1.344666
30
0
11
332.876078
21
-0.937034
31
0
39
0
210
0
220
0
230
1
0
LINE
5
134
100
AcDbEntity
8
1
62
256
6
ByLayer
370
13
48
1
60
0
100
AcDbLine
10
312.107106
20
-20.119814
30
0
11
312.107106
21
-0.642708
31
0
39
0
210
0
220
0
230
1
0
LINE
5
135
100
AcDbEntity
8
1
62
256
6
ByLayer
370
13
48
1
60
0
100
AcDbLine
10
322.144499
20
3.937185
30
0
11
322.66205
21
3.964308
31
0
39
0
210
0
220
0
230
1
0
LINE
5
136
100
AcDbEntity
8
1
62
256
6
ByLayer
370
13
48
1
60
0
100
AcDbLine
10
333.247483
20
4.98784
30
0
11
334.176526
21
5.036529
31
0
39
0
210
0
220
0
230
1
0
LINE
5
137
100
AcDbEntity
8
1
62
256
6
ByLayer
370
13
48
1
60
0
100
AcDbLine
10
332.836274
20
2.090631
30
0
11
334.060771
21
0.697699
31
0
39
0
210
0
220
0
230
1
0
LINE
5
138
100
AcDbEntity
8
4
62
256
6
ByLayer
370
18
48
0.05
60
0
100
AcDbLine
10
336
20
0
30
0
11
0
21
0
31
0
39
0
210
0
220
0
230
1
0
LINE
5
13A
100
AcDbEntity
8
SK4
62
256
6
ByLayer
370
13
48
0.05
60
0
100
AcDbLine
10
336
20
0
30
0
11
-80
21
0
31
0
39
0
210
0
220
0
230
1
0
LINE
5
13C
100
AcDbEntity
8
SK1
62
256
6
ByLayer
370
13
48
1
60
0
100
AcDbLine
10
-0.15
20
24.746
30
0
11
-1.375195
21
24.746
31
0
39
0
210
0
220
0
230
1
0
LINE
5
13D
100
AcDbEntity
8
SK1
62
256
6
ByLayer
370
13
48
1
60
0
100
AcDbLine
10
-1.375195
20
-24.746
30
0
11
-0.15
21
-24.746
31
0
39
0
210
0
220
0
230
1
0
LINE
5
13E
100
AcDbEntity
8
SK1
62
256
6
ByLayer
370
13
48
1
60
0
100
AcDbLine
10
-2
20
24.996
30
0
11
-76.600002
21
24.996
31
0
39
0
210
0
220
0
230
1
0
LINE
5
13F
100
AcDbEntity
8
SK1
62
256
6
ByLayer
370
13
48
1
60
0
100
AcDbLine
10
-76.600002
20
-24.996
30
0
11
-2
21
-24.996
31
0
39
0
210
0
220
0
230
1
0
LINE
5
140
100
AcDbEntity
8
SK1
62
256
6
ByLayer
370
13
48
1
60
0
100
AcDbLine
10
-1.544243
20
24.783477
30
0
11
-2
21
24.996
31
0
39
0
210
0
220
0
230
1
0
LINE
5
141
100
AcDbEntity
8
SK1
62
256
6
ByLayer
370
13
48
1
60
0
100
AcDbLine
10
-2
20
-24.996
30
0
11
-1.544243
21
-24.783477
31
0
39
0
210
0
220
0
230
1
0
LINE
5
142
100
AcDbEntity
8
1
62
256
6
ByLayer
370
13
48
1
60
0
100
AcDbLine
10
37
20
-20.475
30
0
11
42
21
-20.475
31
0
39
0
210
0
220
0
230
1
0
LINE
5
143
100
AcDbEntity
8
1
62
256
6
ByLayer
370
13
48
1
60
0
100
AcDbLine
10
42
20
-20.475
30
0
11
156.6
21
-20.265
31
0
39
0
210
0
220
0
230
1
0
LINE
5
144
100
AcDbEntity
8
1
62
256
6
ByLayer
370
13
48
1
60
0
100
AcDbLine
10
317.177664
20
20.475
30
0
11
315.107106
21
20.475
31
0
39
0
210
0
220
0
230
1
0
LINE
5
145
100
AcDbEntity
8
1
62
256
6
ByLayer
370
13
48
1
60
0
100
AcDbLine
10
315.107106
20
20.475
30
0
11
312.107106
21
20.265
31
0
39
0
210
0
220
0
230
1
0
LINE
5
146
100
AcDbEntity
8
1
62
256
6
ByLayer
370
13
48
1
60
0
100
AcDbLine
10
156.6
20
-20.265
30
0
11
238.609836
21
-20.265
31
0
39
0
210
0
220
0
230
1
0
LINE
5
147
100
AcDbEntity
8
1
62
256
6
ByLayer
370
13
48
1
60
0
100
AcDbLine
10
312.107106
20
20.265
30
0
11
301.802125
21
20.265
31
0
39
0
210
0
220
0
230
1
0
LINE
5
148
100
AcDbEntity
8
1
62
256
6
ByLayer
370
13
48
1
60
0
100
AcDbLine
10
229.058012
20
20.265
30
0
11
156.6
21
20.265
31
0
39
0
210
0
220
0
230
1
0
LINE
5
149
100
AcDbEntity
8
1
62
256
6
ByLayer
370
13
48
1
60
0
100
AcDbLine
10
156.6
20
20.265
30
0
11
42
21
20.475
31
0
39
0
210
0
220
0
230
1
0
LINE
5
14A
100
AcDbEntity
8
1
62
256
6
ByLayer
370
13
48
1
60
0
100
AcDbLine
10
42
20
20.475
30
0
11
37
21
20.475
31
0
39
0
210
0
220
0
230
1
0
LINE
5
14B
100
AcDbEntity
8
1
62
256
6
ByLayer
370
13
48
1
60
0
100
AcDbLine
10
0.1
20
31.25
30
0
11
0
21
31.15
31
0
39
0
210
0
220
0
230
1
0
LINE
5
14C
100
AcDbEntity
8
1
62
256
6
ByLayer
370
13
48
1
60
0
100
AcDbLine
10
0
20
-31.15
30
0
11
0.1
21
-31.25
31
0
39
0
210
0
220
0
230
1
0
LINE
5
14D
100
AcDbEntity
8
1
62
256
6
ByLayer
370
13
48
1
60
0
100
AcDbLine
10
0.1
20
-31.25
30
0
11
5.6738
21
-31.25
31
0
39
0
210
0
220
0
230
1
0
LINE
5
14E
100
AcDbEntity
8
1
62
256
6
ByLayer
370
13
48
1
60
0
100
AcDbLine
10
5.6738
20
31.25
30
0
11
0.1
21
31.25
31
0
39
0
210
0
220
0
230
1
0
LINE
5
14F
100
AcDbEntity
8
1
62
256
6
ByLayer
370
18
48
1
60
0
100
AcDbLine
10
326.328904
20
11.369195
30
0
11
326.204182
21
11.362659
31
0
39
0
210
0
220
0
230
1
0
LINE
5
150
100
AcDbEntity
8
1
62
256
6
ByLayer
370
18
48
1
60
0
100
AcDbLine
10
326.069124
20
13.939722
30
0
11
326.193846
21
13.946258
31
0
39
0
210
0
220
0
230
1
0
LINE
5
151
100
AcDbEntity
8
1
62
256
6
ByLayer
370
18
48
1
60
0
100
AcDbLine
10
326.3573
20
9.808843
30
0
11
326.423789
21
9.812327
31
0
39
0
210
0
220
0
230
1
0
LINE
5
152
100
AcDbEntity
8
1
62
256
6
ByLayer
370
18
48
1
60
0
100
AcDbLine
10
326.125474
20
15.504516
30
0
11
326.058985
21
15.501031
31
0
39
0
210
0
220
0
230
1
0
LINE
5
153
100
AcDbEntity
8
1
62
256
6
ByLayer
370
13
48
1
60
0
100
AcDbLine
10
334.649065
20
5.832325
30
0
11
335.103622
21
6.803721
31
0
39
0
210
0
220
0
230
1
0
LINE
5
154
100
AcDbEntity
8
1
62
256
6
ByLayer
370
13
48
1
60
0
100
AcDbLine
10
333.729959
20
13.30588
30
0
11
332.743837
21
19.549965
31
0
39
0
210
0
220
0
230
1
0
LINE
5
155
100
AcDbEntity
8
1
62
256
6
ByLayer
370
13
48
1
60
0
100
AcDbLine
10
332.890641
20
6.671713
30
0
11
333.732618
21
13.105248
31
0
39
0
210
0
220
0
230
1
0
LINE
5
156
100
AcDbEntity
8
81
62
256
6
ByLayer
370
18
48
1
60
0
100
AcDbLine
10
336
20
0
30
0
11
343
21
0
31
0
39
0
210
0
220
0
230
1
0
LINE
5
157
100
AcDbEntity
8
80
62
256
6
ByLayer
370
18
48
1
60
0
100
AcDbLine
10
0
20
0
30
0
11
-7
21
0
31
0
39
0
210
0
220
0
230
1
0
LINE
5
158
100
AcDbEntity
8
SK2
62
256
6
ByLayer
370
13
48
1
60
0
100
AcDbLine
10
-100.725
20
25
30
0
11
-100.725
21
-25
31
0
39
0
210
0
220
0
230
1
0
LINE
5
15A
100
AcDbEntity
8
SK2
62
256
6
ByLayer
370
13
48
1
60
0
100
AcDbLine
10
-81.5875
20
-25
30
0
11
-103.9
21
-25
31
0
39
0
210
0
220
0
230
1
0
LINE
5
15B
100
AcDbEntity
8
SK2
62
256
6
ByLayer
370
13
48
1
60
0
100
AcDbLine
10
-81.5875
20
25
30
0
11
-103.9
21
25
31
0
39
0
210
0
220
0
230
1
0
LINE
5
15C
100
AcDbEntity
8
1
62
256
6
ByLayer
370
18
48
1
60
1
100
AcDbLine
10
-100.725
20
-25
30
0
11
-101.650575
21
-20.825003
31
0
39
0
210
0
220
0
230
1
0
LINE
5
15D
100
AcDbEntity
8
1
62
256
6
ByLayer
370
18
48
1
60
1
100
AcDbLine
10
-101.650575
20
-20.825003
30
0
11
-99.799425
21
-20.824997
31
0
39
0
210
0
220
0
230
1
0
LINE
5
15E
100
AcDbEntity
8
1
62
256
6
ByLayer
370
18
48
1
60
1
100
AcDbLine
10
-99.799425
20
-20.824997
30
0
11
-100.725
21
-25
31
0
39
0
210
0
220
0
230
1
0
LINE
5
15F
100
AcDbEntity
8
1
62
256
6
ByLayer
370
18
48
1
60
1
100
AcDbLine
10
-100.725
20
25
30
0
11
-99.799425
21
20.825003
31
0
39
0
210
0
220
0
230
1
0
LINE
5
160
100
AcDbEntity
8
1
62
256
6
ByLayer
370
18
48
1
60
1
100
AcDbLine
10
-99.799425
20
20.825003
30
0
11
-101.650575
21
20.824997
31
0
39
0
210
0
220
0
230
1
0
LINE
5
161
100
AcDbEntity
8
1
62
256
6
ByLayer
370
18
48
1
60
1
100
AcDbLine
10
-101.650575
20
20.824997
30
0
11
-100.725
21
25
31
0
39
0
210
0
220
0
230
1
0
LINE
5
162
100
AcDbEntity
8
SK2
62
256
6
ByLayer
370
13
48
1
60
0
100
AcDbLine
10
-110.725
20
-31.25
30
0
11
-110.725
21
31.25
31
0
39
0
210
0
220
0
230
1
0
LINE
5
163
100
AcDbEntity
8
SK2
62
256
6
ByLayer
370
13
48
1
60
0
100
AcDbLine
10
-1.5875
20
31.25
30
0
11
-113.9
21
31.25
31
0
39
0
210
0
220
0
230
1
0
LINE
5
164
100
AcDbEntity
8
SK2
62
256
6
ByLayer
370
13
48
1
60
0
100
AcDbLine
10
-1.5875
20
-31.25
30
0
11
-113.9
21
-31.25
31
0
39
0
210
0
220
0
230
1
0
LINE
5
165
100
AcDbEntity
8
1
62
256
6
ByLayer
370
18
48
1
60
1
100
AcDbLine
10
-110.725
20
31.25
30
0
11
-109.799425
21
27.075003
31
0
39
0
210
0
220
0
230
1
0
LINE
5
166
100
AcDbEntity
8
1
62
256
6
ByLayer
370
18
48
1
60
1
100
AcDbLine
10
-109.799425
20
27.075003
30
0
11
-111.650575
21
27.074997
31
0
39
0
210
0
220
0
230
1
0
LINE
5
167
100
AcDbEntity
8
1
62
256
6
ByLayer
370
18
48
1
60
1
100
AcDbLine
10
-111.650575
20
27.074997
30
0
11
-110.725
21
31.25
31
0
39
0
210
0
220
0
230
1
0
LINE
5
168
100
AcDbEntity
8
1
62
256
6
ByLayer
370
18
48
1
60
1
100
AcDbLine
10
-110.725
20
-31.25
30
0
11
-111.650575
21
-27.075003
31
0
39
0
210
0
220
0
230
1
0
LINE
5
169
100
AcDbEntity
8
1
62
256
6
ByLayer
370
18
48
1
60
1
100
AcDbLine
10
-111.650575
20
-27.075003
30
0
11
-109.799425
21
-27.074997
31
0
39
0
210
0
220
0
230
1
0
LINE
5
16A
100
AcDbEntity
8
1
62
256
6
ByLayer
370
18
48
1
60
1
100
AcDbLine
10
-109.799425
20
-27.074997
30
0
11
-110.725
21
-31.25
31
0
39
0
210
0
220
0
230
1
0
LINE
5
16B
100
AcDbEntity
8
2
62
256
6
ByLayer
370
13
48
1
60
0
100
AcDbLine
10
362.975
20
21
30
0
11
362.975
21
-21
31
0
39
0
210
0
220
0
230
1
0
LINE
5
16D
100
AcDbEntity
8
2
62
256
6
ByLayer
370
13
48
1
60
0
100
AcDbLine
10
337.5875
20
-21
30
0
11
366.15
21
-21
31
0
39
0
210
0
220
0
230
1
0
LINE
5
16E
100
AcDbEntity
8
2
62
256
6
ByLayer
370
13
48
1
60
0
100
AcDbLine
10
337.5875
20
21
30
0
11
366.15
21
21
31
0
39
0
210
0
220
0
230
1
0
LINE
5
16F
100
AcDbEntity
8
1
62
256
6
ByLayer
370
18
48
1
60
1
100
AcDbLine
10
362.975
20
-21
30
0
11
362.049425
21
-16.825003
31
0
39
0
210
0
220
0
230
1
0
LINE
5
170
100
AcDbEntity
8
1
62
256
6
ByLayer
370
18
48
1
60
1
100
AcDbLine
10
362.049425
20
-16.825003
30
0
11
363.900575
21
-16.824997
31
0
39
0
210
0
220
0
230
1
0
LINE
5
171
100
AcDbEntity
8
1
62
256
6
ByLayer
370
18
48
1
60
1
100
AcDbLine
10
363.900575
20
-16.824997
30
0
11
362.975
21
-21
31
0
39
0
210
0
220
0
230
1
0
LINE
5
172
100
AcDbEntity
8
1
62
256
6
ByLayer
370
18
48
1
60
1
100
AcDbLine
10
362.975
20
21
30
0
11
363.900575
21
16.825003
31
0
39
0
210
0
220
0
230
1
0
LINE
5
173
100
AcDbEntity
8
1
62
256
6
ByLayer
370
18
48
1
60
1
100
AcDbLine
10
363.900575
20
16.825003
30
0
11
362.049425
21
16.824997
31
0
39
0
210
0
220
0
230
1
0
LINE
5
174
100
AcDbEntity
8
1
62
256
6
ByLayer
370
18
48
1
60
1
100
AcDbLine
10
362.049425
20
16.824997
30
0
11
362.975
21
21
31
0
39
0
210
0
220
0
230
1
0
LINE
5
31E
100
AcDbEntity
8
1
62
256
6
ByLayer
370
18
48
1
60
1
100
AcDbLine
10
-100.725
20
-25
30
0
11
-101.650575
21
-20.825003
31
0
39
0
210
0
220
0
230
1
0
LINE
5
31F
100
AcDbEntity
8
1
62
256
6
ByLayer
370
18
48
1
60
1
100
AcDbLine
10
-101.650575
20
-20.825003
30
0
11
-99.799425
21
-20.824997
31
0
39
0
210
0
220
0
230
1
0
LINE
5
320
100
AcDbEntity
8
1
62
256
6
ByLayer
370
18
48
1
60
1
100
AcDbLine
10
-99.799425
20
-20.824997
30
0
11
-100.725
21
-25
31
0
39
0
210
0
220
0
230
1
0
LINE
5
322
100
AcDbEntity
8
1
62
256
6
ByLayer
370
18
48
1
60
1
100
AcDbLine
10
-100.725
20
25
30
0
11
-99.799425
21
20.825003
31
0
39
0
210
0
220
0
230
1
0
LINE
5
323
100
AcDbEntity
8
1
62
256
6
ByLayer
370
18
48
1
60
1
100
AcDbLine
10
-99.799425
20
20.825003
30
0
11
-101.650575
21
20.824997
31
0
39
0
210
0
220
0
230
1
0
LINE
5
324
100
AcDbEntity
8
1
62
256
6
ByLayer
370
18
48
1
60
1
100
AcDbLine
10
-101.650575
20
20.824997
30
0
11
-100.725
21
25
31
0
39
0
210
0
220
0
230
1
0
LINE
5
328
100
AcDbEntity
8
1
62
256
6
ByLayer
370
18
48
1
60
1
100
AcDbLine
10
-110.725
20
31.25
30
0
11
-109.799425
21
27.075003
31
0
39
0
210
0
220
0
230
1
0
LINE
5
329
100
AcDbEntity
8
1
62
256
6
ByLayer
370
18
48
1
60
1
100
AcDbLine
10
-109.799425
20
27.075003
30
0
11
-111.650575
21
27.074997
31
0
39
0
210
0
220
0
230
1
0
LINE
5
32A
100
AcDbEntity
8
1
62
256
6
ByLayer
370
18
48
1
60
1
100
AcDbLine
10
-111.650575
20
27.074997
30
0
11
-110.725
21
31.25
31
0
39
0
210
0
220
0
230
1
0
LINE
5
32C
100
AcDbEntity
8
1
62
256
6
ByLayer
370
18
48
1
60
1
100
AcDbLine
10
-110.725
20
-31.25
30
0
11
-111.650575
21
-27.075003
31
0
39
0
210
0
220
0
230
1
0
LINE
5
32D
100
AcDbEntity
8
1
62
256
6
ByLayer
370
18
48
1
60
1
100
AcDbLine
10
-111.650575
20
-27.075003
30
0
11
-109.799425
21
-27.074997
31
0
39
0
210
0
220
0
230
1
0
LINE
5
32E
100
AcDbEntity
8
1
62
256
6
ByLayer
370
18
48
1
60
1
100
AcDbLine
10
-109.799425
20
-27.074997
30
0
11
-110.725
21
-31.25
31
0
39
0
210
0
220
0
230
1
0
LINE
5
332
100
AcDbEntity
8
1
62
256
6
ByLayer
370
18
48
1
60
1
100
AcDbLine
10
362.975
20
-21
30
0
11
362.049425
21
-16.825003
31
0
39
0
210
0
220
0
230
1
0
LINE
5
333
100
AcDbEntity
8
1
62
256
6
ByLayer
370
18
48
1
60
1
100
AcDbLine
10
362.049425
20
-16.825003
30
0
11
363.900575
21
-16.824997
31
0
39
0
210
0
220
0
230
1
0
LINE
5
334
100
AcDbEntity
8
1
62
256
6
ByLayer
370
18
48
1
60
1
100
AcDbLine
10
363.900575
20
-16.824997
30
0
11
362.975
21
-21
31
0
39
0
210
0
220
0
230
1
0
LINE
5
336
100
AcDbEntity
8
1
62
256
6
ByLayer
370
18
48
1
60
1
100
AcDbLine
10
362.975
20
21
30
0
11
363.900575
21
16.825003
31
0
39
0
210
0
220
0
230
1
0
LINE
5
337
100
AcDbEntity
8
1
62
256
6
ByLayer
370
18
48
1
60
1
100
AcDbLine
10
363.900575
20
16.825003
30
0
11
362.049425
21
16.824997
31
0
39
0
210
0
220
0
230
1
0
LINE
5
338
100
AcDbEntity
8
1
62
256
6
ByLayer
370
18
48
1
60
1
100
AcDbLine
10
362.049425
20
16.824997
30
0
11
362.975
21
21
31
0
39
0
210
0
220
0
230
1
0
MTEXT
5
31A
100
AcDbEntity
8
SK2
62
256
6
ByLayer
370
18
48
1
60
0
100
AcDbMText
10
-102.736672
20
-6.949399
30
0
210
0
220
0
230
1
1
%%c
40
4.5
41
0
44
1.084337
50
90
71
7
72
5
7
iso_b_vert
0
MTEXT
5
31D
100
AcDbEntity
8
SK2
62
256
6
ByLayer
370
18
48
1
60
0
100
AcDbMText
10
-102.736672
20
4.265444
30
0
210
0
220
0
230
1
1
\W0.6740;50
40
4.5
41
0
44
1.084337
50
90
71
7
72
5
7
iso_b_vert
0
MTEXT
5
326
100
AcDbEntity
8
SK2
62
256
6
ByLayer
370
18
48
1
60
0
100
AcDbMText
10
-112.736672
20
-9.541655
30
0
210
0
220
0
230
1
1
%%c
40
4.5
41
0
44
1.084337
50
90
71
7
72
5
7
iso_b_vert
0
MTEXT
5
327
100
AcDbEntity
8
SK2
62
256
6
ByLayer
370
18
48
1
60
0
100
AcDbMText
10
-112.736672
20
1.673189
30
0
210
0
220
0
230
1
1
\W0.7346;62.5
40
4.5
41
0
44
1.084337
50
90
71
7
72
5
7
iso_b_vert
0
MTEXT
5
330
100
AcDbEntity
8
2
62
256
6
ByLayer
370
18
48
1
60
0
100
AcDbMText
10
360.963328
20
-7.186314
30
0
210
0
220
0
230
1
1
%%c
40
4.5
41
0
44
1.084337
50
90
71
7
72
5
7
iso_b_vert
0
MTEXT
5
331
100
AcDbEntity
8
2
62
256
6
ByLayer
370
18
48
1
60
0
100
AcDbMText
10
360.963328
20
4.02853
30
0
210
0
220
0
230
1
1
\W0.7361;42
40
4.5
41
0
44
1.084337
50
90
71
7
72
5
7
iso_b_vert
0
MTEXT
5
33A
100
AcDbEntity
8
SK6
62
256
6
ByLayer
370
18
48
1
60
0
100
AcDbMText
10
9.308916
20
-94.592562
30
0
210
0
220
0
230
1
1
\W0.7723;DS20-D4200L50-07
40
3.5
41
0
44
1.084337
50
0
71
7
72
5
7
iso_b_vert
0
HATCH
5
321
100
AcDbEntity
8
SK2
62
256
6
ByLayer
370
13
48
1
60
0
100
AcDbHatch
10
0
20
0
30
0
210
0
220
0
230
1
2
ANSI31
70
0
71
0
91
1
92
5
93
3
72
1
10
-100.725
20
-24.9999999999999
11
-101.650575216528
21
-20.8250033998275
72
1
10
-101.650575216528
20
-20.8250033998275
11
-99.7994247834721
21
-20.8249966001723
72
1
10
-99.7994247834721
20
-20.8249966001723
11
-100.725
21
-24.9999999999999
97
0
75
0
76
1
52
0
41
0.0062
77
0
78
1
53
45
43
0
44
0
45
-0.0139193969876572
46
0.0139193969876572
79
0
47
0
98
1
10
0
20
0
0
HATCH
5
325
100
AcDbEntity
8
SK2
62
256
6
ByLayer
370
13
48
1
60
0
100
AcDbHatch
10
0
20
0
30
0
210
0
220
0
230
1
2
ANSI31
70
0
71
0
91
1
92
5
93
3
72
1
10
-100.725
20
25.0000000000001
11
-99.7994247834721
21
20.8250033998277
72
1
10
-99.7994247834721
20
20.8250033998277
11
-101.650575216528
21
20.8249966001725
72
1
10
-101.650575216528
20
20.8249966001725
11
-100.725
21
25.0000000000001
97
0
75
0
76
1
52
0
41
0.0062
77
0
78
1
53
45
43
0
44
0
45
-0.0139193969876572
46
0.0139193969876572
79
0
47
0
98
1
10
0
20
0
0
HATCH
5
32B
100
AcDbEntity
8
SK2
62
256
6
ByLayer
370
13
48
1
60
0
100
AcDbHatch
10
0
20
0
30
0
210
0
220
0
230
1
2
ANSI31
70
0
71
0
91
1
92
5
93
3
72
1
10
-110.725
20
31.25
11
-109.799424783472
21
27.0750033998276
72
1
10
-109.799424783472
20
27.0750033998276
11
-111.650575216528
21
27.0749966001724
72
1
10
-111.650575216528
20
27.0749966001724
11
-110.725
21
31.25
97
0
75
0
76
1
52
0
41
0.0062
77
0
78
1
53
45
43
0
44
0
45
-0.0139193969876572
46
0.0139193969876572
79
0
47
0
98
1
10
0
20
0
0
HATCH
5
32F
100
AcDbEntity
8
SK2
62
256
6
ByLayer
370
13
48
1
60
0
100
AcDbHatch
10
0
20
0
30
0
210
0
220
0
230
1
2
ANSI31
70
0
71
0
91
1
92
5
93
3
72
1
10
-110.725
20
-31.25
11
-111.650575216528
21
-27.0750033998276
72
1
10
-111.650575216528
20
-27.0750033998276
11
-109.799424783472
21
-27.0749966001724
72
1
10
-109.799424783472
20
-27.0749966001724
11
-110.725
21
-31.25
97
0
75
0
76
1
52
0
41
0.0062
77
0
78
1
53
45
43
0
44
0
45
-0.0139193969876572
46
0.0139193969876572
79
0
47
0
98
1
10
0
20
0
0
HATCH
5
335
100
AcDbEntity
8
2
62
256
6
ByLayer
370
13
48
1
60
0
100
AcDbHatch
10
0
20
0
30
0
210
0
220
0
230
1
2
ANSI31
70
0
71
0
91
1
92
5
93
3
72
1
10
362.975
20
-21.0000000000004
11
362.049424783472
21
-16.825003399828
72
1
10
362.049424783472
20
-16.825003399828
11
363.900575216528
21
-16.8249966001727
72
1
10
363.900575216528
20
-16.8249966001727
11
362.975
21
-21.0000000000004
97
0
75
0
76
1
52
0
41
0.0062
77
0
78
1
53
45
43
0
44
0
45
-0.0139193969876572
46
0.0139193969876572
79
0
47
0
98
1
10
0
20
0
0
HATCH
5
339
100
AcDbEntity
8
2
62
256
6
ByLayer
370
13
48
1
60
0
100
AcDbHatch
10
0
20
0
30
0
210
0
220
0
230
1
2
ANSI31
70
0
71
0
91
1
92
5
93
3
72
1
10
362.975
20
20.9999999999996
11
363.900575216528
21
16.8250033998272
72
1
10
363.900575216528
20
16.8250033998272
11
362.049424783472
21
16.824996600172
72
1
10
362.049424783472
20
16.824996600172
11
362.975
21
20.9999999999996
97
0
75
0
76
1
52
0
41
0.0062
77
0
78
1
53
45
43
0
44
0
45
-0.0139193969876572
46
0.0139193969876572
79
0
47
0
98
1
10
0
20
0
0
DIMENSION
5
33D
100
AcDbEntity
8
2
62
256
6
ByLayer
370
18
48
1
60
0
100
AcDbDimension
2
_U0
10
336
20
-80.1
30
0
11
168
21
-80.1
31
0
70
32
71
1
72
1
41
1
210
0
220
0
230
1
3
Standard
100
AcDbAlignedDimension
13
0
23
-31.25
33
0
14
336
24
-21
34
0
50
0
100
AcDbRotatedDimension
1001
ACAD
1000
DSTYLE
1002
{
1070
   371
1070
    13
1070
   372
1070
    13
1070
   170
1070
     0
1070
   144
1040
1.0
1070
   277
1070
     2
1070
   284
1070
     8
1070
   278
1070
    46
1070
   146
1040
0.777778
1070
   345
1005
16
1070
   347
1005
16
1070
   346
1005
16
1070
   344
1005
0
1070
   343
1005
0
1070
   172
1070
     1
1070
    76
1070
     0
1070
    75
1070
     0
1070
   282
1070
     0
1070
   281
1070
     0
1070
    71
1070
     0
1070
    74
1070
     0
1070
   279
1070
     0
1070
   173
1070
     1
1070
   340
1005
31B
1070
   271
1070
     1
1070
   272
1070
     2
1070
    77
1070
     1
1070
    73
1070
     1
1070
   171
1070
     3
1070
   274
1070
     4
1070
   177
1070
   150
1070
   176
1070
     9
1070
   178
1070
    43
1070
    78
1070
     8
1070
    48
1040
-0.1
1070
    41
1040
4.175
1070
   147
1040
2.25
1070
    42
1040
1.5875
1070
    44
1040
3.175
1070
   140
1040
4.5
1002
}
1001
ACAD_DSTYLE_DIM_LINETYPE
1070
   380
1005
16
1001
ACAD_DSTYLE_DIM_EXT1_LINETYPE
1070
   381
1005
16
1001
ACAD_DSTYLE_DIM_EXT2_LINETYPE
1070
   382
1005
16
0
DIMENSION
5
356
100
AcDbEntity
8
SK2
62
256
6
ByLayer
370
18
48
1
60
0
100
AcDbDimension
2
_U1
10
0
20
-80.1
30
0
11
-40
21
-80.1
31
0
70
32
71
1
72
1
41
1
210
0
220
0
230
1
3
Standard
100
AcDbAlignedDimension
13
-80
23
-25
33
0
14
0
24
-31.25
34
0
50
0
100
AcDbRotatedDimension
1001
ACAD
1000
DSTYLE
1002
{
1070
   371
1070
    13
1070
   372
1070
    13
1070
   170
1070
     0
1070
   144
1040
1.0
1070
   277
1070
     2
1070
   284
1070
     8
1070
   278
1070
    46
1070
   146
1040
0.777778
1070
   345
1005
16
1070
   347
1005
16
1070
   346
1005
16
1070
   344
1005
0
1070
   343
1005
0
1070
   172
1070
     1
1070
    76
1070
     0
1070
    75
1070
     0
1070
   282
1070
     0
1070
   281
1070
     0
1070
    71
1070
     0
1070
    74
1070
     0
1070
   279
1070
     0
1070
   173
1070
     1
1070
   340
1005
31B
1070
   271
1070
     1
1070
   272
1070
     2
1070
    77
1070
     1
1070
    73
1070
     1
1070
   171
1070
     3
1070
   274
1070
     4
1070
   177
1070
   150
1070
   176
1070
     9
1070
   178
1070
    43
1070
    78
1070
     8
1070
    48
1040
-0.1
1070
    41
1040
4.175
1070
   147
1040
2.25
1070
    42
1040
1.5875
1070
    44
1040
3.175
1070
   140
1040
4.5
1002
}
1001
ACAD_DSTYLE_DIM_LINETYPE
1070
   380
1005
16
1001
ACAD_DSTYLE_DIM_EXT1_LINETYPE
1070
   381
1005
16
1001
ACAD_DSTYLE_DIM_EXT2_LINETYPE
1070
   382
1005
16
0
DIMENSION
5
36E
100
AcDbEntity
8
SK2
62
256
6
ByLayer
370
18
48
1
60
0
100
AcDbDimension
2
_U2
10
6.1738
20
-70.1
30
0
11
171.0869
21
-70.1
31
0
70
32
71
1
72
1
41
1
210
0
220
0
230
1
3
Standard
100
AcDbAlignedDimension
13
336
23
-21
33
0
14
6.1738
24
-31.25
34
0
50
0
100
AcDbRotatedDimension
1001
ACAD
1000
DSTYLE
1002
{
1070
   371
1070
    13
1070
   372
1070
    13
1070
   170
1070
     0
1070
   144
1040
1.0
1070
   277
1070
     2
1070
   284
1070
     8
1070
   278
1070
    46
1070
   146
1040
0.777778
1070
   345
1005
16
1070
   347
1005
16
1070
   346
1005
16
1070
   344
1005
0
1070
   343
1005
0
1070
   172
1070
     1
1070
    76
1070
     0
1070
    75
1070
     0
1070
   282
1070
     0
1070
   281
1070
     0
1070
    71
1070
     0
1070
    74
1070
     0
1070
   279
1070
     0
1070
   173
1070
     1
1070
   340
1005
31B
1070
   271
1070
     1
1070
   272
1070
     2
1070
    77
1070
     1
1070
    73
1070
     1
1070
   171
1070
     3
1070
   274
1070
     4
1070
   177
1070
   150
1070
   176
1070
     9
1070
   178
1070
    43
1070
    78
1070
     8
1070
    48
1040
-0.1
1070
    41
1040
4.175
1070
   147
1040
2.25
1070
    42
1040
1.5875
1070
    44
1040
3.175
1070
   140
1040
4.5
1002
}
1001
ACAD_DSTYLE_DIM_LINETYPE
1070
   380
1005
16
1001
ACAD_DSTYLE_DIM_EXT1_LINETYPE
1070
   381
1005
16
1001
ACAD_DSTYLE_DIM_EXT2_LINETYPE
1070
   382
1005
16
0
DIMENSION
5
386
100
AcDbEntity
8
SK2
62
256
6
ByLayer
370
18
48
1
60
0
100
AcDbDimension
2
_U3
10
336
20
-60.1
30
0
11
186.5
21
-60.1
31
0
70
32
71
1
72
1
41
1
210
0
220
0
230
1
3
Standard
100
AcDbAlignedDimension
13
37
23
-21
33
0
14
336
24
-21
34
0
50
0
100
AcDbRotatedDimension
1001
ACAD
1000
DSTYLE
1002
{
1070
   371
1070
    13
1070
   372
1070
    13
1070
   170
1070
     0
1070
   144
1040
1.0
1070
   277
1070
     2
1070
   284
1070
     8
1070
   278
1070
    46
1070
   146
1040
0.777778
1070
   345
1005
16
1070
   347
1005
16
1070
   346
1005
16
1070
   344
1005
0
1070
   343
1005
0
1070
   172
1070
     1
1070
    76
1070
     0
1070
    75
1070
     0
1070
   282
1070
     0
1070
   281
1070
     0
1070
    71
1070
     0
1070
    74
1070
     0
1070
   279
1070
     0
1070
   173
1070
     1
1070
   340
1005
31B
1070
   271
1070
     1
1070
   272
1070
     2
1070
    77
1070
     1
1070
    73
1070
     1
1070
   171
1070
     3
1070
   274
1070
     4
1070
   177
1070
   150
1070
   176
1070
     9
1070
   178
1070
    43
1070
    78
1070
     8
1070
    48
1040
-0.1
1070
    41
1040
4.175
1070
   147
1040
2.25
1070
    42
1040
1.5875
1070
    44
1040
3.175
1070
   140
1040
4.5
1002
}
1001
ACAD_DSTYLE_DIM_LINETYPE
1070
   380
1005
16
1001
ACAD_DSTYLE_DIM_EXT1_LINETYPE
1070
   381
1005
16
1001
ACAD_DSTYLE_DIM_EXT2_LINETYPE
1070
   382
1005
16
0
DIMENSION
5
39E
100
AcDbEntity
8
2
62
256
6
ByLayer
370
18
48
1
60
0
100
AcDbDimension
2
_U4
10
336
20
-50.1
30
0
11
358.029464
21
-50.1
31
0
70
32
71
1
72
1
41
1
210
0
220
0
230
1
3
Standard
100
AcDbAlignedDimension
13
334.7234
23
-10.5
33
0
14
336
24
0
34
0
50
0
100
AcDbRotatedDimension
1001
ACAD
1000
DSTYLE
1002
{
1070
   371
1070
    13
1070
   372
1070
    13
1070
   170
1070
     0
1070
   144
1040
1.0
1070
   277
1070
     2
1070
   284
1070
     8
1070
   278
1070
    46
1070
   146
1040
0.777778
1070
   345
1005
16
1070
   347
1005
16
1070
   346
1005
16
1070
   344
1005
0
1070
   343
1005
0
1070
   172
1070
     1
1070
    76
1070
     0
1070
    75
1070
     0
1070
   282
1070
     0
1070
   281
1070
     0
1070
    71
1070
     0
1070
    74
1070
     0
1070
   279
1070
     0
1070
   173
1070
     1
1070
   340
1005
31B
1070
   271
1070
     2
1070
   272
1070
     2
1070
    77
1070
     1
1070
    73
1070
     1
1070
   171
1070
     3
1070
   274
1070
     4
1070
   177
1070
   150
1070
   176
1070
     9
1070
   178
1070
    43
1070
    78
1070
     8
1070
    48
1040
-0.1
1070
    41
1040
4.175
1070
   147
1040
2.25
1070
    42
1040
1.5875
1070
    44
1040
3.175
1070
   140
1040
4.5
1002
}
1001
ACAD_DSTYLE_DIM_LINETYPE
1070
   380
1005
16
1001
ACAD_DSTYLE_DIM_EXT1_LINETYPE
1070
   381
1005
16
1001
ACAD_DSTYLE_DIM_EXT2_LINETYPE
1070
   382
1005
16
0
ENDSEC
0
SECTION
2
OBJECTS
0
DICTIONARY
5
428
330
0
100
AcDbDictionary
280
0
281
1
3
ACAD_GROUP
350
429
3
ACAD_MLINESTYLE
350
42a
0
DICTIONARY
5
429
330
0
100
AcDbDictionary
280
0
281
1
0
DICTIONARY
5
42a
330
0
100
AcDbDictionary
280
0
281
1
3
Standard
350
18
0
MLINESTYLE
5
18
330
42a
100
AcDbMlineStyle
2
Standard
70
0
3

62
256
51
90
52
90
71
2
49
-0.5
62
256
6
ByLayer
49
0.5
62
256
6
ByLayer
0
RASTERVARIABLES
5
416
330

100
AcDbRasterVariables
90
0
70
1
71
1
72
1
0
ENDSEC
0
EOF
