0
SECTION
2
HEADER
9
$ACADVER
1
AC1015
9
$DWGCODEPAGE
3
ANSI_1252
9
$HANDSEED
5
458
9
$ANGBASE
50
0
9
$ANGDIR
70
0
9
$ATTMODE
70
1
9
$AUNITS
70
0
9
$AUPREC
70
0
9
$CECOLOR
62
256
9
$CELTSCALE
40
1
9
$CELTYPE
6
ByLayer
9
$CELWEIGHT
370
18
9
$CLAYER
8
0
9
$CMLJUST
70
0
9
$CMLSCALE
40
1
9
$CMLSTYLE
2
Standard
9
$DIMSTYLE
2
Standard
9
$TEXTSIZE
40
0.2
9
$TEXTSTYLE
7
Standard
9
$LUNITS
70
2
9
$LUPREC
70
4
9
$EXTNAMES
290
1
9
$INSUNITS
70
4
9
$LTSCALE
40
1
9
$LWDISPLAY
290
1
9
$PDMODE
70
0
9
$PDSIZE
40
0
9
$PLINEGEN
70
0
0
ENDSEC
0
SECTION
2
CLASSES
0
CLASS
1
RASTERVARIABLES
2
AcDbRasterVariables
3
ISM
90
0
280
0
281
0
0
ENDSEC
0
SECTION
2
TABLES
0
TABLE
2
VPORT
5
44e
100
AcDbSymbolTable
0
VPORT
5
1
100
AcDbSymbolTableRecord
100
AcDbViewportTableRecord
2
*Active
70
0
10
0
20
0
11
1
21
1
12
-1
22
1
13
0
23
0
14
0.5
24
0.5
15
10
25
10
16
0
26
0
36
1
17
0
27
0
37
0
0
ENDTAB
0
TABLE
2
LTYPE
5
44f
100
AcDbSymbolTable
0
LTYPE
5
14
100
AcDbSymbolTableRecord
100
AcDbLinetypeTableRecord
70
0
2
ByBlock
3

72
65
73
0
40
0
0
LTYPE
5
15
100
AcDbSymbolTableRecord
100
AcDbLinetypeTableRecord
70
0
2
ByLayer
3

72
65
73
0
40
0
0
LTYPE
5
16
100
AcDbSymbolTableRecord
100
AcDbLinetypeTableRecord
70
0
2
Continuous
3
Solid line
72
65
73
0
40
0
0
LTYPE
5
6E
100
AcDbSymbolTableRecord
100
AcDbLinetypeTableRecord
70
0
2
CENTER
3
____ _ ____ _ ____ _ ____
72
65
73
4
40
47.5
49
22
74
0
49
-8.5
74
0
49
8.5
74
0
49
-8.5
74
0
0
LTYPE
5
6F
100
AcDbSymbolTableRecord
100
AcDbLinetypeTableRecord
70
0
2
DASHED
3
__ __ __ __ __ __ __ __ __
72
65
73
2
40
25.72
49
12.86
74
0
49
-12.86
74
0
0
ENDTAB
0
TABLE
2
LAYER
5
450
100
AcDbSymbolTable
0
LAYER
5
10
100
AcDbSymbolTableRecord
100
AcDbLayerTableRecord
2
0
70
0
62
7
6
Continuous
290
1
370
-3
390
0
0
LAYER
5
71
100
AcDbSymbolTableRecord
100
AcDbLayerTableRecord
2
1
70
0
62
4
6
Continuous
290
1
370
-3
390
0
0
LAYER
5
73
100
AcDbSymbolTableRecord
100
AcDbLayerTableRecord
2
80
70
0
62
-6
6
Continuous
290
1
370
-3
390
0
0
LAYER
5
75
100
AcDbSymbolTableRecord
100
AcDbLayerTableRecord
2
81
70
0
62
-3
6
Continuous
290
1
370
-3
390
0
0
LAYER
5
14B
100
AcDbSymbolTableRecord
100
AcDbLayerTableRecord
2
4
70
0
62
-2
6
CENTER
290
1
370
-3
390
0
0
LAYER
5
186
100
AcDbSymbolTableRecord
100
AcDbLayerTableRecord
2
2
70
0
62
7
6
Continuous
290
1
370
-3
390
0
0
LAYER
5
363
100
AcDbSymbolTableRecord
100
AcDbLayerTableRecord
2
Defpoints
70
0
62
7
6
Continuous
290
0
370
-3
390
0
0
LAYER
5
43a
100
AcDbSymbolTableRecord
100
AcDbLayerTableRecord
2
SK1
70
0
62
4
6
Continuous
290
1
370
-3
390
0
0
LAYER
5
43b
100
AcDbSymbolTableRecord
100
AcDbLayerTableRecord
2
SK4
70
0
62
2
6
CENTER
290
1
370
-3
390
0
0
LAYER
5
43c
100
AcDbSymbolTableRecord
100
AcDbLayerTableRecord
2
SK2
70
0
62
7
6
Continuous
290
1
370
-3
390
0
0
LAYER
5
43d
100
AcDbSymbolTableRecord
100
AcDbLayerTableRecord
2
SK6
70
0
62
5
6
Continuous
290
1
370
-3
390
0
0
ENDTAB
0
TABLE
2
STYLE
5
451
100
AcDbSymbolTable
0
STYLE
5
11
100
AcDbSymbolTableRecord
100
AcDbTextStyleTableRecord
2
Standard
3
txt
70
0
71
0
40
0
41
1
42
0
50
0
0
STYLE
5
33E
100
AcDbSymbolTableRecord
100
AcDbTextStyleTableRecord
2
iso_b_vert
3
simplex.shx
70
0
71
0
40
0
41
1
42
0
50
0
0
STYLE
5
33F
100
AcDbSymbolTableRecord
100
AcDbTextStyleTableRecord
2
DWGDirectTextStyle
3
simplex
70
0
71
0
40
0
41
1
42
0
50
0
0
ENDTAB
0
TABLE
2
DIMSTYLE
5
452
100
AcDbSymbolTable
100
AcDbDimStyleTable
0
DIMSTYLE
105
27
100
AcDbSymbolTableRecord
100
AcDbDimStyleTableRecord
2
Standard
70
0
3
<>
41
0.18
42
0.0625
44
0.18
140
0.18
147
0.09
73
0
74
0
77
1
271
2
275
0
278
52
280
0
340
11
0
ENDTAB
0
TABLE
2
VIEW
5
453
100
AcDbSymbolTable
0
ENDTAB
0
TABLE
2
UCS
5
454
100
AcDbSymbolTable
0
ENDTAB
0
TABLE
2
APPID
5
455
100
AcDbSymbolTable
0
APPID
5
12
100
AcDbSymbolTableRecord
100
AcDbRegAppTableRecord
2
ACAD
70
0
0
APPID
5
35F
100
AcDbSymbolTableRecord
100
AcDbRegAppTableRecord
2
ACAD_DSTYLE_DIMBREAK
70
0
0
APPID
5
3F9
100
AcDbSymbolTableRecord
100
AcDbRegAppTableRecord
2
ACAD_DSTYLE_DIM_LINETYPE
70
0
0
APPID
5
3FA
100
AcDbSymbolTableRecord
100
AcDbRegAppTableRecord
2
ACAD_DSTYLE_DIM_EXT1_LINETYPE
70
0
0
APPID
5
3FB
100
AcDbSymbolTableRecord
100
AcDbRegAppTableRecord
2
ACAD_DSTYLE_DIM_EXT2_LINETYPE
70
0
0
APPID
5
436
100
AcDbSymbolTableRecord
100
AcDbRegAppTableRecord
2
ACAD_MLEADERVER
70
0
0
ENDTAB
0
TABLE
2
BLOCK_RECORD
5
456
100
AcDbSymbolTable
0
BLOCK_RECORD
5
1F
100
AcDbSymbolTableRecord
100
AcDbBlockTableRecord
2
*Model_Space
340
0
70
0
0
BLOCK_RECORD
5
1B
100
AcDbSymbolTableRecord
100
AcDbBlockTableRecord
2
*Paper_Space
340
0
70
0
0
BLOCK_RECORD
5
23
100
AcDbSymbolTableRecord
100
AcDbBlockTableRecord
2
*Paper_Space0
340
0
70
0
0
BLOCK_RECORD
5
364
100
AcDbSymbolTableRecord
100
AcDbBlockTableRecord
2
*D1
340
0
70
0
0
BLOCK_RECORD
5
370
100
AcDbSymbolTableRecord
100
AcDbBlockTableRecord
2
_U0
340
0
70
0
0
BLOCK_RECORD
5
37C
100
AcDbSymbolTableRecord
100
AcDbBlockTableRecord
2
*D3
340
0
70
0
0
BLOCK_RECORD
5
388
100
AcDbSymbolTableRecord
100
AcDbBlockTableRecord
2
_U1
340
0
70
0
0
BLOCK_RECORD
5
394
100
AcDbSymbolTableRecord
100
AcDbBlockTableRecord
2
*D5
340
0
70
0
0
BLOCK_RECORD
5
3A0
100
AcDbSymbolTableRecord
100
AcDbBlockTableRecord
2
_U2
340
0
70
0
0
BLOCK_RECORD
5
3AC
100
AcDbSymbolTableRecord
100
AcDbBlockTableRecord
2
*D7
340
0
70
0
0
BLOCK_RECORD
5
3B8
100
AcDbSymbolTableRecord
100
AcDbBlockTableRecord
2
_U3
340
0
70
0
0
BLOCK_RECORD
5
3C4
100
AcDbSymbolTableRecord
100
AcDbBlockTableRecord
2
*D9
340
0
70
0
0
BLOCK_RECORD
5
3D2
100
AcDbSymbolTableRecord
100
AcDbBlockTableRecord
2
_U4
340
0
70
0
0
ENDTAB
0
ENDSEC
0
SECTION
2
BLOCKS
0
BLOCK
5
20
100
AcDbEntity
8
0
100
AcDbBlockBegin
2
*Model_Space
70
0
10
0
20
0
30
0
3
*Model_Space
0
ENDBLK
5
21
100
AcDbEntity
8
0
100
AcDbBlockEnd
0
BLOCK
5
1C
100
AcDbEntity
8
0
100
AcDbBlockBegin
2
*Paper_Space
70
0
10
0
20
0
30
0
3
*Paper_Space
0
ENDBLK
5
1D
100
AcDbEntity
8
0
100
AcDbBlockEnd
0
BLOCK
5
24
100
AcDbEntity
8
0
100
AcDbBlockBegin
2
*Paper_Space0
70
0
10
0
20
0
30
0
3
*Paper_Space0
0
ENDBLK
5
25
100
AcDbEntity
8
0
100
AcDbBlockEnd
0
BLOCK
5
365
100
AcDbEntity
8
0
100
AcDbBlockBegin
2
*D1
70
1
10
0
20
0
30
0
3
*D1
0
LINE
5
367
100
AcDbEntity
8
0
62
256
6
ByLayer
370
-2
48
1
60
0
100
AcDbLine
10
0
20
-32.8375
30
0
11
0
21
-83.287261
31
0
39
0
210
0
220
0
230
1
0
LINE
5
368
100
AcDbEntity
8
0
62
256
6
ByLayer
370
-2
48
1
60
0
100
AcDbLine
10
312
20
-24.0875
30
0
11
312
21
-83.287261
31
0
39
0
210
0
220
0
230
1
0
LINE
5
369
100
AcDbEntity
8
0
62
256
6
ByLayer
370
-2
48
1
60
0
100
AcDbLine
10
4.175
20
-80.112261
30
0
11
307.825
21
-80.112261
31
0
39
0
210
0
220
0
230
1
0
SOLID
5
36A
100
AcDbEntity
8
0
62
256
6
ByLayer
370
-1
48
1
60
0
100
AcDbTrace
10
4.175
20
-79.416428
30
0
11
4.175
21
-80.808094
31
0
12
0
22
-80.112261
32
0
13
0
23
-80.112261
33
0
39
0
210
0
220
0
230
1
0
SOLID
5
36B
100
AcDbEntity
8
0
62
256
6
ByLayer
370
-1
48
1
60
0
100
AcDbTrace
10
307.825
20
-80.808094
30
0
11
307.825
21
-79.416428
31
0
12
312
22
-80.112261
32
0
13
312
23
-80.112261
33
0
39
0
210
0
220
0
230
1
0
MTEXT
5
36C
100
AcDbEntity
8
0
62
256
6
ByLayer
370
18
48
1
60
0
100
AcDbMText
10
156
20
-70.718511
30
0
210
0
220
0
230
1
1
\A1;312
40
4.5
41
0
44
1
50
0
71
5
72
5
7
iso_b_vert
0
POINT
5
36D
100
AcDbEntity
8
Defpoints
62
0
6
ByLayer
370
-1
48
1
60
0
100
AcDbPoint
10
0
20
-31.25
30
0
39
0
210
0
220
0
230
1
50
360
0
POINT
5
36E
100
AcDbEntity
8
Defpoints
62
0
6
ByLayer
370
-1
48
1
60
0
100
AcDbPoint
10
312
20
-22.5
30
0
39
0
210
0
220
0
230
1
50
360
0
POINT
5
36F
100
AcDbEntity
8
Defpoints
62
0
6
ByLayer
370
-1
48
1
60
0
100
AcDbPoint
10
312
20
-80.112261
30
0
39
0
210
0
220
0
230
1
50
360
0
ENDBLK
5
366
100
AcDbEntity
8
0
100
AcDbBlockEnd
0
BLOCK
5
377
100
AcDbEntity
8
0
100
AcDbBlockBegin
2
_U0
70
0
10
0
20
0
30
0
3
_U0
0
MTEXT
5
371
100
AcDbEntity
8
2
62
256
6
ByLayer
370
18
48
1
60
0
100
AcDbMText
10
152.431801
20
-78.784589
30
0
210
0
220
0
230
1
1
\W0.6217;312
40
4.5
41
0
44
1.084337
50
0
71
7
72
5
7
iso_b_vert
0
LINE
5
372
100
AcDbEntity
8
2
62
256
6
ByLayer
370
13
48
1
60
0
100
AcDbLine
10
0
20
-32.8375
30
0
11
0
21
-83.287261
31
0
39
0
210
0
220
0
230
1
0
LINE
5
373
100
AcDbEntity
8
2
62
256
6
ByLayer
370
13
48
1
60
0
100
AcDbLine
10
312
20
-24.0875
30
0
11
312
21
-83.287261
31
0
39
0
210
0
220
0
230
1
0
LINE
5
374
100
AcDbEntity
8
2
62
256
6
ByLayer
370
13
48
1
60
0
100
AcDbLine
10
0
20
-80.112261
30
0
11
312
21
-80.112261
31
0
39
0
210
0
220
0
230
1
0
SOLID
5
375
100
AcDbEntity
8
2
62
256
6
ByLayer
370
18
48
1
60
0
100
AcDbTrace
10
0
20
-80.112261
30
0
11
4.174997
21
-79.186686
31
0
12
4.175003
22
-81.037836
32
0
13
4.175003
23
-81.037836
33
0
39
0
210
0
220
0
230
1
0
SOLID
5
376
100
AcDbEntity
8
2
62
256
6
ByLayer
370
18
48
1
60
0
100
AcDbTrace
10
312
20
-80.112261
30
0
11
307.825003
21
-81.037836
31
0
12
307.824997
22
-79.186686
32
0
13
307.824997
23
-79.186686
33
0
39
0
210
0
220
0
230
1
0
ENDBLK
5
378
100
AcDbEntity
8
0
100
AcDbBlockEnd
0
BLOCK
5
37D
100
AcDbEntity
8
0
100
AcDbBlockBegin
2
*D3
70
1
10
0
20
0
30
0
3
*D3
0
LINE
5
37F
100
AcDbEntity
8
0
62
256
6
ByLayer
370
-2
48
1
60
0
100
AcDbLine
10
-80
20
-26.5875
30
0
11
-80
21
-83.287261
31
0
39
0
210
0
220
0
230
1
0
LINE
5
380
100
AcDbEntity
8
0
62
256
6
ByLayer
370
-2
48
1
60
0
100
AcDbLine
10
0
20
-32.8375
30
0
11
0
21
-83.287261
31
0
39
0
210
0
220
0
230
1
0
LINE
5
381
100
AcDbEntity
8
0
62
256
6
ByLayer
370
-2
48
1
60
0
100
AcDbLine
10
-75.825
20
-80.112261
30
0
11
-4.175
21
-80.112261
31
0
39
0
210
0
220
0
230
1
0
SOLID
5
382
100
AcDbEntity
8
0
62
256
6
ByLayer
370
-1
48
1
60
0
100
AcDbTrace
10
-75.825
20
-79.416428
30
0
11
-75.825
21
-80.808094
31
0
12
-80
22
-80.112261
32
0
13
-80
23
-80.112261
33
0
39
0
210
0
220
0
230
1
0
SOLID
5
383
100
AcDbEntity
8
0
62
256
6
ByLayer
370
-1
48
1
60
0
100
AcDbTrace
10
-4.175
20
-80.808094
30
0
11
-4.175
21
-79.416428
31
0
12
0
22
-80.112261
32
0
13
0
23
-80.112261
33
0
39
0
210
0
220
0
230
1
0
MTEXT
5
384
100
AcDbEntity
8
0
62
256
6
ByLayer
370
18
48
1
60
0
100
AcDbMText
10
-40
20
-70.718511
30
0
210
0
220
0
230
1
1
\A1;80
40
4.5
41
0
44
1
50
0
71
5
72
5
7
iso_b_vert
0
POINT
5
385
100
AcDbEntity
8
Defpoints
62
0
6
ByLayer
370
-1
48
1
60
0
100
AcDbPoint
10
-80
20
-25
30
0
39
0
210
0
220
0
230
1
50
360
0
POINT
5
386
100
AcDbEntity
8
Defpoints
62
0
6
ByLayer
370
-1
48
1
60
0
100
AcDbPoint
10
0
20
-31.25
30
0
39
0
210
0
220
0
230
1
50
360
0
POINT
5
387
100
AcDbEntity
8
Defpoints
62
0
6
ByLayer
370
-1
48
1
60
0
100
AcDbPoint
10
0
20
-80.112261
30
0
39
0
210
0
220
0
230
1
50
360
0
ENDBLK
5
37E
100
AcDbEntity
8
0
100
AcDbBlockEnd
0
BLOCK
5
38F
100
AcDbEntity
8
0
100
AcDbBlockBegin
2
_U1
70
0
10
0
20
0
30
0
3
_U1
0
MTEXT
5
389
100
AcDbEntity
8
SK2
62
256
6
ByLayer
370
18
48
1
60
0
100
AcDbMText
10
-42.449242
20
-78.784589
30
0
210
0
220
0
230
1
1
\W0.6740;80
40
4.5
41
0
44
1.084337
50
0
71
7
72
5
7
iso_b_vert
0
LINE
5
38A
100
AcDbEntity
8
SK2
62
256
6
ByLayer
370
13
48
1
60
0
100
AcDbLine
10
-80
20
-26.5875
30
0
11
-80
21
-83.287261
31
0
39
0
210
0
220
0
230
1
0
LINE
5
38B
100
AcDbEntity
8
SK2
62
256
6
ByLayer
370
13
48
1
60
0
100
AcDbLine
10
0
20
-32.8375
30
0
11
0
21
-83.287261
31
0
39
0
210
0
220
0
230
1
0
LINE
5
38C
100
AcDbEntity
8
SK2
62
256
6
ByLayer
370
13
48
1
60
0
100
AcDbLine
10
-80
20
-80.112261
30
0
11
0
21
-80.112261
31
0
39
0
210
0
220
0
230
1
0
SOLID
5
38D
100
AcDbEntity
8
SK2
62
256
6
ByLayer
370
18
48
1
60
0
100
AcDbTrace
10
-80
20
-80.112261
30
0
11
-75.825003
21
-79.186686
31
0
12
-75.824997
22
-81.037836
32
0
13
-75.824997
23
-81.037836
33
0
39
0
210
0
220
0
230
1
0
SOLID
5
38E
100
AcDbEntity
8
SK2
62
256
6
ByLayer
370
18
48
1
60
0
100
AcDbTrace
10
0
20
-80.112261
30
0
11
-4.174997
21
-81.037836
31
0
12
-4.175003
22
-79.186686
32
0
13
-4.175003
23
-79.186686
33
0
39
0
210
0
220
0
230
1
0
ENDBLK
5
390
100
AcDbEntity
8
0
100
AcDbBlockEnd
0
BLOCK
5
395
100
AcDbEntity
8
0
100
AcDbBlockBegin
2
*D5
70
1
10
0
20
0
30
0
3
*D5
0
LINE
5
397
100
AcDbEntity
8
0
62
256
6
ByLayer
370
-2
48
1
60
0
100
AcDbLine
10
312
20
-24.0875
30
0
11
312
21
-73.287261
31
0
39
0
210
0
220
0
230
1
0
LINE
5
398
100
AcDbEntity
8
0
62
256
6
ByLayer
370
-2
48
1
60
0
100
AcDbLine
10
6.4079
20
-32.8375
30
0
11
6.4079
21
-73.287261
31
0
39
0
210
0
220
0
230
1
0
LINE
5
399
100
AcDbEntity
8
0
62
256
6
ByLayer
370
-2
48
1
60
0
100
AcDbLine
10
307.825
20
-70.112261
30
0
11
10.5829
21
-70.112261
31
0
39
0
210
0
220
0
230
1
0
SOLID
5
39A
100
AcDbEntity
8
0
62
256
6
ByLayer
370
-1
48
1
60
0
100
AcDbTrace
10
307.825
20
-70.808094
30
0
11
307.825
21
-69.416428
31
0
12
312
22
-70.112261
32
0
13
312
23
-70.112261
33
0
39
0
210
0
220
0
230
1
0
SOLID
5
39B
100
AcDbEntity
8
0
62
256
6
ByLayer
370
-1
48
1
60
0
100
AcDbTrace
10
10.5829
20
-69.416428
30
0
11
10.5829
21
-70.808094
31
0
12
6.4079
22
-70.112261
32
0
13
6.4079
23
-70.112261
33
0
39
0
210
0
220
0
230
1
0
MTEXT
5
39C
100
AcDbEntity
8
0
62
256
6
ByLayer
370
18
48
1
60
0
100
AcDbMText
10
159.20395
20
-60.718511
30
0
210
0
220
0
230
1
1
\A1;305.6
40
4.5
41
0
44
1
50
0
71
5
72
5
7
iso_b_vert
0
POINT
5
39D
100
AcDbEntity
8
Defpoints
62
0
6
ByLayer
370
-1
48
1
60
0
100
AcDbPoint
10
312
20
-22.5
30
0
39
0
210
0
220
0
230
1
50
360
0
POINT
5
39E
100
AcDbEntity
8
Defpoints
62
0
6
ByLayer
370
-1
48
1
60
0
100
AcDbPoint
10
6.4079
20
-31.25
30
0
39
0
210
0
220
0
230
1
50
360
0
POINT
5
39F
100
AcDbEntity
8
Defpoints
62
0
6
ByLayer
370
-1
48
1
60
0
100
AcDbPoint
10
6.4079
20
-70.112261
30
0
39
0
210
0
220
0
230
1
50
360
0
ENDBLK
5
396
100
AcDbEntity
8
0
100
AcDbBlockEnd
0
BLOCK
5
3A7
100
AcDbEntity
8
0
100
AcDbBlockBegin
2
_U2
70
0
10
0
20
0
30
0
3
_U2
0
MTEXT
5
3A1
100
AcDbEntity
8
SK2
62
256
6
ByLayer
370
18
48
1
60
0
100
AcDbMText
10
152.480394
20
-68.784589
30
0
210
0
220
0
230
1
1
\W0.7468;305.6
40
4.5
41
0
44
1.084337
50
0
71
7
72
5
7
iso_b_vert
0
LINE
5
3A2
100
AcDbEntity
8
SK2
62
256
6
ByLayer
370
13
48
1
60
0
100
AcDbLine
10
312
20
-24.0875
30
0
11
312
21
-73.287261
31
0
39
0
210
0
220
0
230
1
0
LINE
5
3A3
100
AcDbEntity
8
SK2
62
256
6
ByLayer
370
13
48
1
60
0
100
AcDbLine
10
6.4079
20
-32.8375
30
0
11
6.4079
21
-73.287261
31
0
39
0
210
0
220
0
230
1
0
LINE
5
3A4
100
AcDbEntity
8
SK2
62
256
6
ByLayer
370
13
48
1
60
0
100
AcDbLine
10
312
20
-70.112261
30
0
11
6.4079
21
-70.112261
31
0
39
0
210
0
220
0
230
1
0
SOLID
5
3A5
100
AcDbEntity
8
SK2
62
256
6
ByLayer
370
18
48
1
60
0
100
AcDbTrace
10
312
20
-70.112261
30
0
11
307.825003
21
-71.037836
31
0
12
307.824997
22
-69.186686
32
0
13
307.824997
23
-69.186686
33
0
39
0
210
0
220
0
230
1
0
SOLID
5
3A6
100
AcDbEntity
8
SK2
62
256
6
ByLayer
370
18
48
1
60
0
100
AcDbTrace
10
6.4079
20
-70.112261
30
0
11
10.582897
21
-69.186686
31
0
12
10.582903
22
-71.037836
32
0
13
10.582903
23
-71.037836
33
0
39
0
210
0
220
0
230
1
0
ENDBLK
5
3A8
100
AcDbEntity
8
0
100
AcDbBlockEnd
0
BLOCK
5
3AD
100
AcDbEntity
8
0
100
AcDbBlockBegin
2
*D7
70
1
10
0
20
0
30
0
3
*D7
0
LINE
5
3AF
100
AcDbEntity
8
0
62
256
6
ByLayer
370
-2
48
1
60
0
100
AcDbLine
10
37
20
-24.0875
30
0
11
37
21
-63.287261
31
0
39
0
210
0
220
0
230
1
0
LINE
5
3B0
100
AcDbEntity
8
0
62
256
6
ByLayer
370
-2
48
1
60
0
100
AcDbLine
10
312
20
-24.0875
30
0
11
312
21
-63.287261
31
0
39
0
210
0
220
0
230
1
0
LINE
5
3B1
100
AcDbEntity
8
0
62
256
6
ByLayer
370
-2
48
1
60
0
100
AcDbLine
10
41.175
20
-60.112261
30
0
11
307.825
21
-60.112261
31
0
39
0
210
0
220
0
230
1
0
SOLID
5
3B2
100
AcDbEntity
8
0
62
256
6
ByLayer
370
-1
48
1
60
0
100
AcDbTrace
10
41.175
20
-59.416428
30
0
11
41.175
21
-60.808094
31
0
12
37
22
-60.112261
32
0
13
37
23
-60.112261
33
0
39
0
210
0
220
0
230
1
0
SOLID
5
3B3
100
AcDbEntity
8
0
62
256
6
ByLayer
370
-1
48
1
60
0
100
AcDbTrace
10
307.825
20
-60.808094
30
0
11
307.825
21
-59.416428
31
0
12
312
22
-60.112261
32
0
13
312
23
-60.112261
33
0
39
0
210
0
220
0
230
1
0
MTEXT
5
3B4
100
AcDbEntity
8
0
62
256
6
ByLayer
370
18
48
1
60
0
100
AcDbMText
10
174.5
20
-50.718511
30
0
210
0
220
0
230
1
1
\A1;275
40
4.5
41
0
44
1
50
0
71
5
72
5
7
iso_b_vert
0
POINT
5
3B5
100
AcDbEntity
8
Defpoints
62
0
6
ByLayer
370
-1
48
1
60
0
100
AcDbPoint
10
37
20
-22.5
30
0
39
0
210
0
220
0
230
1
50
360
0
POINT
5
3B6
100
AcDbEntity
8
Defpoints
62
0
6
ByLayer
370
-1
48
1
60
0
100
AcDbPoint
10
312
20
-22.5
30
0
39
0
210
0
220
0
230
1
50
360
0
POINT
5
3B7
100
AcDbEntity
8
Defpoints
62
0
6
ByLayer
370
-1
48
1
60
0
100
AcDbPoint
10
312
20
-60.112261
30
0
39
0
210
0
220
0
230
1
50
360
0
ENDBLK
5
3AE
100
AcDbEntity
8
0
100
AcDbBlockEnd
0
BLOCK
5
3BF
100
AcDbEntity
8
0
100
AcDbBlockBegin
2
_U3
70
0
10
0
20
0
30
0
3
_U3
0
MTEXT
5
3B9
100
AcDbEntity
8
SK2
62
256
6
ByLayer
370
18
48
1
60
0
100
AcDbMText
10
170.369387
20
-58.784589
30
0
210
0
220
0
230
1
1
\W0.7138;275
40
4.5
41
0
44
1.084337
50
0
71
7
72
5
7
iso_b_vert
0
LINE
5
3BA
100
AcDbEntity
8
SK2
62
256
6
ByLayer
370
13
48
1
60
0
100
AcDbLine
10
37
20
-24.0875
30
0
11
37
21
-63.287261
31
0
39
0
210
0
220
0
230
1
0
LINE
5
3BB
100
AcDbEntity
8
SK2
62
256
6
ByLayer
370
13
48
1
60
0
100
AcDbLine
10
312
20
-24.0875
30
0
11
312
21
-63.287261
31
0
39
0
210
0
220
0
230
1
0
LINE
5
3BC
100
AcDbEntity
8
SK2
62
256
6
ByLayer
370
13
48
1
60
0
100
AcDbLine
10
37
20
-60.112261
30
0
11
312
21
-60.112261
31
0
39
0
210
0
220
0
230
1
0
SOLID
5
3BD
100
AcDbEntity
8
SK2
62
256
6
ByLayer
370
18
48
1
60
0
100
AcDbTrace
10
37
20
-60.112261
30
0
11
41.174997
21
-59.186686
31
0
12
41.175003
22
-61.037836
32
0
13
41.175003
23
-61.037836
33
0
39
0
210
0
220
0
230
1
0
SOLID
5
3BE
100
AcDbEntity
8
SK2
62
256
6
ByLayer
370
18
48
1
60
0
100
AcDbTrace
10
312
20
-60.112261
30
0
11
307.825003
21
-61.037836
31
0
12
307.824997
22
-59.186686
32
0
13
307.824997
23
-59.186686
33
0
39
0
210
0
220
0
230
1
0
ENDBLK
5
3C0
100
AcDbEntity
8
0
100
AcDbBlockEnd
0
BLOCK
5
3C5
100
AcDbEntity
8
0
100
AcDbBlockBegin
2
*D9
70
1
10
0
20
0
30
0
3
*D9
0
LINE
5
3C7
100
AcDbEntity
8
0
62
256
6
ByLayer
370
-2
48
1
60
0
100
AcDbLine
10
310.7234
20
-12.8375
30
0
11
310.7234
21
-53.287261
31
0
39
0
210
0
220
0
230
1
0
LINE
5
3C8
100
AcDbEntity
8
0
62
256
6
ByLayer
370
-2
48
1
60
0
100
AcDbLine
10
312
20
-1.5875
30
0
11
312
21
-53.287261
31
0
39
0
210
0
220
0
230
1
0
LINE
5
3C9
100
AcDbEntity
8
0
62
256
6
ByLayer
370
-2
48
1
60
0
100
AcDbLine
10
312
20
-50.112261
30
0
11
347.708929
21
-50.112261
31
0
39
0
210
0
220
0
230
1
0
LINE
5
3CA
100
AcDbEntity
8
0
62
256
6
ByLayer
370
-2
48
1
60
0
100
AcDbLine
10
306.5484
20
-50.112261
30
0
11
302.3734
21
-50.112261
31
0
39
0
210
0
220
0
230
1
0
LINE
5
3CB
100
AcDbEntity
8
0
62
256
6
ByLayer
370
-2
48
1
60
0
100
AcDbLine
10
316.175
20
-50.112261
30
0
11
320.35
21
-50.112261
31
0
39
0
210
0
220
0
230
1
0
SOLID
5
3CC
100
AcDbEntity
8
0
62
256
6
ByLayer
370
-1
48
1
60
0
100
AcDbTrace
10
306.5484
20
-50.808094
30
0
11
306.5484
21
-49.416428
31
0
12
310.7234
22
-50.112261
32
0
13
310.7234
23
-50.112261
33
0
39
0
210
0
220
0
230
1
0
SOLID
5
3CD
100
AcDbEntity
8
0
62
256
6
ByLayer
370
-1
48
1
60
0
100
AcDbTrace
10
316.175
20
-49.416428
30
0
11
316.175
21
-50.808094
31
0
12
312
22
-50.112261
32
0
13
312
23
-50.112261
33
0
39
0
210
0
220
0
230
1
0
MTEXT
5
3CE
100
AcDbEntity
8
0
62
256
6
ByLayer
370
18
48
1
60
0
100
AcDbMText
10
334.029464
20
-40.718511
30
0
210
0
220
0
230
1
1
\A1;1.28
40
4.5
41
0
44
1
50
0
71
5
72
5
7
iso_b_vert
0
POINT
5
3CF
100
AcDbEntity
8
Defpoints
62
0
6
ByLayer
370
-1
48
1
60
0
100
AcDbPoint
10
310.7234
20
-11.25
30
0
39
0
210
0
220
0
230
1
50
360
0
POINT
5
3D0
100
AcDbEntity
8
Defpoints
62
0
6
ByLayer
370
-1
48
1
60
0
100
AcDbPoint
10
312
20
0
30
0
39
0
210
0
220
0
230
1
50
360
0
POINT
5
3D1
100
AcDbEntity
8
Defpoints
62
0
6
ByLayer
370
-1
48
1
60
0
100
AcDbPoint
10
312
20
-50.112261
30
0
39
0
210
0
220
0
230
1
50
360
0
ENDBLK
5
3C6
100
AcDbEntity
8
0
100
AcDbBlockEnd
0
BLOCK
5
3D9
100
AcDbEntity
8
0
100
AcDbBlockBegin
2
_U4
70
0
10
0
20
0
30
0
3
_U4
0
MTEXT
5
3D3
100
AcDbEntity
8
2
62
256
6
ByLayer
370
18
48
1
60
0
100
AcDbMText
10
324.351
20
-48.784589
30
0
210
0
220
0
230
1
1
\W0.6563;1.28
40
4.5
41
0
44
1.084337
50
0
71
7
72
5
7
iso_b_vert
0
LINE
5
3D4
100
AcDbEntity
8
2
62
256
6
ByLayer
370
13
48
1
60
0
100
AcDbLine
10
310.7234
20
-12.8375
30
0
11
310.7234
21
-53.287261
31
0
39
0
210
0
220
0
230
1
0
LINE
5
3D5
100
AcDbEntity
8
2
62
256
6
ByLayer
370
13
48
1
60
0
100
AcDbLine
10
312
20
-1.5875
30
0
11
312
21
-53.287261
31
0
39
0
210
0
220
0
230
1
0
LINE
5
3D6
100
AcDbEntity
8
2
62
256
6
ByLayer
370
13
48
1
60
0
100
AcDbLine
10
333.549041
20
-50.112261
30
0
11
299.4734
21
-50.112261
31
0
39
0
210
0
220
0
230
1
0
SOLID
5
3D7
100
AcDbEntity
8
2
62
256
6
ByLayer
370
18
48
1
60
0
100
AcDbTrace
10
310.7234
20
-50.112261
30
0
11
306.548403
21
-51.037836
31
0
12
306.548397
22
-49.186686
32
0
13
306.548397
23
-49.186686
33
0
39
0
210
0
220
0
230
1
0
SOLID
5
3D8
100
AcDbEntity
8
2
62
256
6
ByLayer
370
18
48
1
60
0
100
AcDbTrace
10
312
20
-50.112261
30
0
11
316.174997
21
-49.186686
31
0
12
316.175003
22
-51.037836
32
0
13
316.175003
23
-51.037836
33
0
39
0
210
0
220
0
230
1
0
ENDBLK
5
3DA
100
AcDbEntity
8
0
100
AcDbBlockEnd
0
ENDSEC
0
SECTION
2
ENTITIES
0
ARC
5
18F
100
AcDbEntity
8
SK1
62
256
6
ByLayer
370
13
48
1
60
0
100
AcDbCircle
39
0
10
-77.894505
20
-25.396
30
0
40
0.799999999999979
210
0
220
0
230
1
100
AcDbArc
50
70.982
51
141
0
ARC
5
190
100
AcDbEntity
8
SK1
62
256
6
ByLayer
370
13
48
1
60
0
100
AcDbCircle
39
0
10
-77.894505
20
25.396
30
0
40
0.799999999999979
210
0
220
0
230
1
100
AcDbArc
50
219
51
289.018
0
ARC
5
191
100
AcDbEntity
8
SK1
62
256
6
ByLayer
370
13
48
1
60
0
100
AcDbCircle
39
0
10
-0.15
20
25.146
30
0
40
0.399999999999999
210
0
220
0
230
1
100
AcDbArc
50
270
51
292.024313
0
ARC
5
192
100
AcDbEntity
8
SK1
62
256
6
ByLayer
370
13
48
1
60
0
100
AcDbCircle
39
0
10
-0.15
20
-25.146
30
0
40
0.399999999999999
210
0
220
0
230
1
100
AcDbArc
50
67.975687
51
90
0
ARC
5
193
100
AcDbEntity
8
SK1
62
256
6
ByLayer
370
13
48
1
60
0
100
AcDbCircle
39
0
10
-1.375195
20
25.146
30
0
40
0.400000000000004
210
0
220
0
230
1
100
AcDbArc
50
245
51
270
0
ARC
5
194
100
AcDbEntity
8
SK1
62
256
6
ByLayer
370
13
48
1
60
0
100
AcDbCircle
39
0
10
-1.375195
20
-25.146
30
0
40
0.400000000000004
210
0
220
0
230
1
100
AcDbArc
50
90
51
115
0
ARC
5
195
100
AcDbEntity
8
1
62
256
6
ByLayer
370
13
48
1
60
0
100
AcDbCircle
39
0
10
308.546286
20
21.017565
30
0
40
0.2
210
0
220
0
230
1
100
AcDbArc
50
8.974534
51
93
0
ARC
5
196
100
AcDbEntity
8
1
62
256
6
ByLayer
370
13
48
1
60
0
100
AcDbCircle
39
0
10
308.692333
20
8.196466
30
0
40
0.2
210
0
220
0
230
1
100
AcDbArc
50
273
51
352.543899
0
ARC
5
197
100
AcDbEntity
8
1
62
256
6
ByLayer
370
13
48
1
60
0
100
AcDbCircle
39
0
10
295.925347
20
20.121561
30
0
40
0.2
210
0
220
0
230
1
100
AcDbArc
50
76.847115
51
93
0
ARC
5
198
100
AcDbEntity
8
1
62
256
6
ByLayer
370
13
48
1
60
0
100
AcDbCircle
39
0
10
296.071393
20
7.300462
30
0
40
0.2
210
0
220
0
230
1
100
AcDbArc
50
273
51
304.880681
0
ELLIPSE
5
199
100
AcDbEntity
8
1
62
256
6
ByLayer
370
18
48
1
60
0
100
AcDbEllipse
10
302.281937
20
14.157604
30
0
11
0.087735997045646
21
-1.67410255206257
31
0
210
0
220
0
230
1
40
0.995725
41
0.523598775598307
42
1.5707963267949
0
ELLIPSE
5
19A
100
AcDbEntity
8
1
62
256
6
ByLayer
370
18
48
1
60
0
100
AcDbEllipse
10
303.452799
20
13.476298
30
0
11
-0.177667934094596
21
-0.351309387096699
31
0
210
0
220
0
230
1
40
0.48867
41
-2.85504177777826
42
-1.57317835193027
0
ELLIPSE
5
19B
100
AcDbEntity
8
1
62
256
6
ByLayer
370
18
48
1
60
0
100
AcDbEllipse
10
303.452799
20
13.476298
30
0
11
-0.177667934102133
21
-0.351309387096727
31
0
210
0
220
0
230
1
40
0.48867
41
-1.57317835189155
42
-0.291314926051884
0
ELLIPSE
5
19C
100
AcDbEntity
8
1
62
256
6
ByLayer
370
18
48
1
60
0
100
AcDbEllipse
10
302.136653
20
14.14999
30
0
11
0.0675290843402512
21
-1.28853168869383
31
0
210
0
220
0
230
1
40
0.995725
41
3.14159265358979
42
-2.34982975905695
0
ELLIPSE
5
19D
100
AcDbEntity
8
1
62
256
6
ByLayer
370
18
48
1
60
0
100
AcDbEllipse
10
302.136653
20
14.14999
30
0
11
0.0675290843402512
21
-1.28853168869383
31
0
210
0
220
0
230
1
40
0.995725
41
-0.773927979467098
42
0
0
ELLIPSE
5
19E
100
AcDbEntity
8
1
62
256
6
ByLayer
370
18
48
1
60
0
100
AcDbEllipse
10
302.281937
20
14.157604
30
0
11
0.087735997045646
21
-1.67410255206257
31
0
210
0
220
0
230
1
40
0.995725
41
-1.5707963267949
42
-0.523598775598262
0
ELLIPSE
5
19F
100
AcDbEntity
8
1
62
256
6
ByLayer
370
18
48
1
60
0
100
AcDbEllipse
10
302.806936
20
15.471543
30
0
11
-0.349478313243819
21
0.17940595106931
31
0
210
0
220
0
230
1
40
0.490768
41
2.94809584055971
42
-0.625095735375803
0
ELLIPSE
5
1A0
100
AcDbEntity
8
1
62
256
6
ByLayer
370
18
48
1
60
0
100
AcDbEllipse
10
302.059023
20
15.631257
30
0
11
-0.391877312291122
21
-0.0205374196872878
31
0
210
0
220
0
230
1
40
0.491826
41
0.288932900936491
42
1.5707963267949
0
ELLIPSE
5
1A1
100
AcDbEntity
8
1
62
256
6
ByLayer
370
18
48
1
60
0
100
AcDbEllipse
10
301.46637
20
12.828437
30
0
11
-0.349478313243768
21
0.179405951069325
31
0
210
0
220
0
230
1
40
0.490768
41
2.51649656479985
42
-2.94329838355334
0
ELLIPSE
5
1A2
100
AcDbEntity
8
1
62
256
6
ByLayer
370
18
48
1
60
0
100
AcDbEllipse
10
302.281937
20
14.157604
30
0
11
0.087735997045646
21
-1.67410255206257
31
0
210
0
220
0
230
1
40
0.995725
41
2.61799387799149
42
-2.61799387799148
0
ELLIPSE
5
1A3
100
AcDbEntity
8
1
62
256
6
ByLayer
370
18
48
1
60
0
100
AcDbEllipse
10
302.136653
20
14.14999
30
0
11
0.0675290843402512
21
-1.28853168869383
31
0
210
0
220
0
230
1
40
0.995725
41
1.0471975511966
42
2.09439510239315
0
ELLIPSE
5
1A4
100
AcDbEntity
8
1
62
256
6
ByLayer
370
18
48
1
60
0
100
AcDbEllipse
10
302.281937
20
14.157604
30
0
11
0.087735997045646
21
-1.67410255206257
31
0
210
0
220
0
230
1
40
0.995725
41
1.5707963267949
42
2.61799387799149
0
ELLIPSE
5
1A5
100
AcDbEntity
8
1
62
256
6
ByLayer
370
18
48
1
60
0
100
AcDbEllipse
10
303.375169
20
14.957565
30
0
11
-0.213416480926817
21
0.330813521388462
31
0
210
0
220
0
230
1
40
0.48867
41
0.29131492605371
42
1.57317835191354
0
ELLIPSE
5
1A6
100
AcDbEntity
8
1
62
256
6
ByLayer
370
18
48
1
60
0
100
AcDbEllipse
10
303.611687
20
14.227293
30
0
11
-0.0206256003553535
21
0.393559899646816
31
0
210
0
220
0
230
1
40
0.48763
41
-2.94566969474628
42
-0.320422399685788
0
ELLIPSE
5
1A7
100
AcDbEntity
8
1
62
256
6
ByLayer
370
18
48
1
60
0
100
AcDbEllipse
10
302.214283
20
12.668723
30
0
11
-0.391877312293667
21
-0.0205374196885869
31
0
210
0
220
0
230
1
40
0.491826
41
-1.5707963267949
42
-0.288932900935142
0
ELLIPSE
5
1A8
100
AcDbEntity
8
1
62
256
6
ByLayer
370
18
48
1
60
0
100
AcDbEllipse
10
302.208142
20
14.153736
30
0
11
-0.149157475292372
21
2.84609417405054
31
0
210
0
220
0
230
1
40
0.995725
41
9.25163458605584E-05
42
3.14158693516109
0
ELLIPSE
5
1A9
100
AcDbEntity
8
1
62
256
6
ByLayer
370
18
48
1
60
0
100
AcDbEllipse
10
303.375169
20
14.957565
30
0
11
-0.213416480925652
21
0.33081352138299
31
0
210
0
220
0
230
1
40
0.48867
41
1.57317835190303
42
2.85504177777518
0
ELLIPSE
5
1AA
100
AcDbEntity
8
1
62
256
6
ByLayer
370
18
48
1
60
0
100
AcDbEllipse
10
302.136653
20
14.14999
30
0
11
0.0675290843402512
21
-1.28853168869383
31
0
210
0
220
0
230
1
40
0.995725
41
2.09439510239315
42
3.14159265358979
0
ELLIPSE
5
1AB
100
AcDbEntity
8
1
62
256
6
ByLayer
370
18
48
1
60
0
100
AcDbEllipse
10
302.941404
20
12.90574
30
0
11
-0.328810806110973
21
-0.214953577526554
31
0
210
0
220
0
230
1
40
0.490768
41
0.673401308867589
42
-2.94809584056006
0
ELLIPSE
5
1AC
100
AcDbEntity
8
1
62
256
6
ByLayer
370
18
48
1
60
0
100
AcDbEllipse
10
302.136653
20
14.14999
30
0
11
0.0675290843402512
21
-1.28853168869383
31
0
210
0
220
0
230
1
40
0.995725
41
-1.89415109854865
42
-1.2315038024086
0
ELLIPSE
5
1AD
100
AcDbEntity
8
1
62
256
6
ByLayer
370
18
48
1
60
0
100
AcDbEllipse
10
301.331902
20
15.39424
30
0
11
-0.328810806110978
21
-0.214953577526592
31
0
210
0
220
0
230
1
40
0.490768
41
2.94329838355278
42
-2.4681910031434
0
ELLIPSE
5
1AE
100
AcDbEntity
8
1
62
256
6
ByLayer
370
18
48
1
60
0
100
AcDbEllipse
10
302.274632
20
14.157221
30
0
11
-0.149157475292372
21
2.84609417405054
31
0
210
0
220
0
230
1
40
0.995725
41
0
42
6.28318530717959
0
ELLIPSE
5
1AF
100
AcDbEntity
8
1
62
256
6
ByLayer
370
18
48
1
60
0
100
AcDbEllipse
10
302.281937
20
14.157604
30
0
11
0.087735997045646
21
-1.67410255206257
31
0
210
0
220
0
230
1
40
0.995725
41
-2.61799387799148
42
-1.5707963267949
0
ELLIPSE
5
1B0
100
AcDbEntity
8
1
62
256
6
ByLayer
370
18
48
1
60
0
100
AcDbEllipse
10
302.281937
20
14.157604
30
0
11
0.087735997045646
21
-1.67410255206257
31
0
210
0
220
0
230
1
40
0.995725
41
-0.523598775598262
42
0.523598775598307
0
ELLIPSE
5
1B1
100
AcDbEntity
8
1
62
256
6
ByLayer
370
18
48
1
60
0
100
AcDbEllipse
10
302.281937
20
14.157604
30
0
11
-0.094204721237288
21
1.79753316255823
31
0
210
0
220
0
230
1
40
0.995725
41
0
42
6.28318530717959
0
ELLIPSE
5
1B2
100
AcDbEntity
8
1
62
256
6
ByLayer
370
18
48
1
60
0
100
AcDbEllipse
10
302.136653
20
14.14999
30
0
11
-0.0675290843402623
21
1.28853168869383
31
0
210
0
220
0
230
1
40
0.995725
41
-3.03890209425325
42
-2.09439510239319
0
ELLIPSE
5
1B3
100
AcDbEntity
8
1
62
256
6
ByLayer
370
18
48
1
60
0
100
AcDbEllipse
10
303.204527
20
-6.189481
30
0
11
2
21
0
31
0
210
0
220
0
230
1
40
0.994442
41
0.409879787451688
42
3.07002360464513
0
ELLIPSE
5
1B4
100
AcDbEntity
8
1
62
256
6
ByLayer
370
18
48
1
60
0
100
AcDbEllipse
10
303.204527
20
-6.13684
30
0
11
-1.5
21
1.51595858262354E-15
31
0
210
0
220
0
230
1
40
0.994442
41
3.14159233504511
42
0
0
ELLIPSE
5
1B5
100
AcDbEntity
8
1
62
256
6
ByLayer
370
18
48
1
60
0
100
AcDbEllipse
10
303.204527
20
-6.13684
30
0
11
-1.5
21
1.51595858262354E-15
31
0
210
0
220
0
230
1
40
0.994442
41
0
42
0.430692617745935
0
ELLIPSE
5
1B6
100
AcDbEntity
8
1
62
256
6
ByLayer
370
18
48
1
60
0
100
AcDbEllipse
10
303.204527
20
-6.13684
30
0
11
-1.5
21
1.51595858262354E-15
31
0
210
0
220
0
230
1
40
0.994442
41
3.08376800125819
42
-3.14159230174209
0
ELLIPSE
5
1B7
100
AcDbEntity
8
1
62
256
6
ByLayer
370
18
48
1
60
0
100
AcDbEllipse
10
303.204527
20
-7.034904
30
0
11
-2.35
21
2.37500177944355E-15
31
0
210
0
220
0
230
1
40
0.994442
41
-0.59660808727456
42
-0.487928549620538
0
ELLIPSE
5
1B8
100
AcDbEntity
8
1
62
256
6
ByLayer
370
18
48
1
60
0
100
AcDbEllipse
10
303.204527
20
-6.930835
30
0
11
-2.35
21
2.37500177944355E-15
31
0
210
0
220
0
230
1
40
0.994442
41
-0.634896132567381
42
-0.474773272732849
0
ELLIPSE
5
1B9
100
AcDbEntity
8
1
62
256
6
ByLayer
370
13
48
1
60
0
100
AcDbEllipse
10
296.071393
20
7.300462
30
0
11
0.114373860315978
21
-0.164068949153766
31
0
210
0
220
0
230
1
40
0.07853
41
3.35013625913291E-05
42
1.52199123907642
0
ELLIPSE
5
1BA
100
AcDbEntity
8
1
62
256
6
ByLayer
370
13
48
1
60
0
100
AcDbEllipse
10
297.275556
20
5.558806
30
0
11
-0.0942047212372876
21
1.79753316255823
31
0
210
0
220
0
230
1
40
0.995725
41
0
42
1.26193471909927
0
ELLIPSE
5
1BB
100
AcDbEntity
8
1
62
256
6
ByLayer
370
13
48
1
60
0
100
AcDbEllipse
10
297.275556
20
5.558806
30
0
11
-0.0994383168615809
21
1.89739611603368
31
0
210
0
220
0
230
1
40
0.995725
41
0.761807904943557
42
1.26193471909933
0
ELLIPSE
5
1BC
100
AcDbEntity
8
1
62
256
6
ByLayer
370
13
48
1
60
0
100
AcDbEllipse
10
295.827141
20
6.932062
30
0
11
0.00523359562429348
21
-0.0998629534754688
31
0
210
0
220
0
230
1
40
0.995725
41
0.761807904945318
42
1.67551608191618
0
ELLIPSE
5
1BD
100
AcDbEntity
8
1
62
256
6
ByLayer
370
13
48
1
60
0
100
AcDbEllipse
10
309.586505
20
22.285683
30
0
11
-0.00653729335066914
21
0.149857478277353
31
0
210
0
220
0
230
1
40
0.092367
41
0.000809536041681685
42
1.57160586284002
0
ELLIPSE
5
1BE
100
AcDbEntity
8
1
62
256
6
ByLayer
370
13
48
1
60
0
100
AcDbEllipse
10
309.364877
20
22.226008
30
0
11
0.0104671912485857
21
-0.199725906950914
31
0
210
0
220
0
230
1
40
0.995725
41
3.13286600733166
42
-1.87965793449105
0
ELLIPSE
5
1BF
100
AcDbEntity
8
1
62
256
6
ByLayer
370
13
48
1
60
0
100
AcDbEllipse
10
308.546286
20
21.017565
30
0
11
0.0104671912485858
21
-0.199725906950915
31
0
210
0
220
0
230
1
40
0.995725
41
3.14157394909757
42
-2.58708947813838
0
ELLIPSE
5
1C0
100
AcDbEntity
8
1
62
256
6
ByLayer
370
13
48
1
60
0
100
AcDbEllipse
10
293.734299
20
19.914514
30
0
11
-0.148731686424782
21
0.0194649801756966
31
0
210
0
220
0
230
1
40
0.016833
41
0.263130755739423
42
1.4798342364851
0
ELLIPSE
5
1C1
100
AcDbEntity
8
1
62
256
6
ByLayer
370
13
48
1
60
0
100
AcDbEllipse
10
295.250373
20
6.041826
30
0
11
0.00653729335066852
21
-0.149857478277353
31
0
210
0
220
0
230
1
40
0.092367
41
-1.56998679074977
42
-0.0232440763805231
0
ELLIPSE
5
1C2
100
AcDbEntity
8
1
62
256
6
ByLayer
370
13
48
1
60
0
100
AcDbEllipse
10
308.974494
20
8.050168
30
0
11
0.00523359562429226
21
-0.0998629534754455
31
0
210
0
220
0
230
1
40
0.995725
41
-1.75405589825318
42
0.104719755119176
0
ELLIPSE
5
1C3
100
AcDbEntity
8
1
62
256
6
ByLayer
370
13
48
1
60
0
100
AcDbEllipse
10
309.618949
20
22.286794
30
0
11
-0.00373239490690377
21
0.149953556904326
31
0
210
0
220
0
230
1
40
0.092336
41
0.0025375354558029
42
1.57333386224927
0
ELLIPSE
5
1C4
100
AcDbEntity
8
1
62
256
6
ByLayer
370
13
48
1
60
0
100
AcDbEllipse
10
295.928933
20
22.161082
30
0
11
-1.72936595007513
21
1.21940905088548
31
0
210
0
220
0
230
1
40
0.74335
41
1.16175109670095
42
1.98390815207162
0
ELLIPSE
5
1C5
100
AcDbEntity
8
1
62
256
6
ByLayer
370
13
48
1
60
0
100
AcDbEllipse
10
309.059135
20
14.696341
30
0
11
-0.0261679781214703
21
0.499314767377316
31
0
210
0
220
0
230
1
40
0.995725
41
-1.7540558982543
42
-1.46607657167521
0
ELLIPSE
5
1C6
100
AcDbEntity
8
1
62
256
6
ByLayer
370
13
48
1
60
0
100
AcDbEllipse
10
307.660053
20
6.103034
30
0
11
0.0942047212372717
21
-1.79753316255823
31
0
210
0
220
0
230
1
40
0.995725
41
2.0677850501321
42
2.74715960225026
0
ELLIPSE
5
1C7
100
AcDbEntity
8
1
62
256
6
ByLayer
370
13
48
1
60
0
100
AcDbEllipse
10
307.342123
20
22.759222
30
0
11
-0.0942047212372876
21
1.79753316255823
31
0
210
0
220
0
230
1
40
0.995725
41
3.14159265358944
42
-1.87965793449119
0
ELLIPSE
5
1C8
100
AcDbEntity
8
1
62
256
6
ByLayer
370
13
48
1
60
0
100
AcDbEllipse
10
295.925347
20
20.121561
30
0
11
0.198308915233048
21
-0.0259533069008895
31
0
210
0
220
0
230
1
40
0.016833
41
1.47983423648347
42
3.05063056327922
0
ELLIPSE
5
1C9
100
AcDbEntity
8
1
62
256
6
ByLayer
370
13
48
1
60
0
100
AcDbEllipse
10
294.733221
20
13.733546
30
0
11
-0.148731686424782
21
0.0194649801756966
31
0
210
0
220
0
230
1
40
0.016833
41
1.47983423648466
42
3.0506305632785
0
ELLIPSE
5
1CA
100
AcDbEntity
8
1
62
256
6
ByLayer
370
13
48
1
60
0
100
AcDbEllipse
10
292.918763
20
13.509194
30
0
11
-0.148163665863161
21
-0.0233993187505435
31
0
210
0
220
0
230
1
40
0.009655
41
-1.47879775232104
42
-0.264819008248768
0
ELLIPSE
5
1CB
100
AcDbEntity
8
1
62
256
6
ByLayer
370
13
48
1
60
0
100
AcDbEllipse
10
308.546286
20
21.017565
30
0
11
-0.114373860315992
21
0.164068949153757
31
0
210
0
220
0
230
1
40
0.07853
41
-1.61960141451367
42
-0.0488050877156568
0
ELLIPSE
5
1CC
100
AcDbEntity
8
1
62
256
6
ByLayer
370
13
48
1
60
0
100
AcDbEllipse
10
308.692333
20
8.196466
30
0
11
-0.198308915233043
21
0.0259533069009289
31
0
210
0
220
0
230
1
40
0.016833
41
-3.14144018084623
42
-1.66175841710434
0
ELLIPSE
5
1CD
100
AcDbEntity
8
1
62
256
6
ByLayer
370
13
48
1
60
0
100
AcDbEllipse
10
292.91667
20
13.667021
30
0
11
-0.148731686424782
21
0.0194649801756966
31
0
210
0
220
0
230
1
40
0.016833
41
-0.0909620903084588
42
1.47983423648428
0
ELLIPSE
5
1CE
100
AcDbEntity
8
1
62
256
6
ByLayer
370
13
48
1
60
0
100
AcDbEllipse
10
308.692333
20
8.196466
30
0
11
0.0104671912485858
21
-0.199725906950915
31
0
210
0
220
0
230
1
40
0.995725
41
-0.28077821208801
42
2.11747640257308E-05
0
ELLIPSE
5
1CF
100
AcDbEntity
8
1
62
256
6
ByLayer
370
13
48
1
60
0
100
AcDbEllipse
10
310.874155
20
8.40303
30
0
11
0.00785039343643922
21
-0.149794430213184
31
0
210
0
220
0
230
1
40
0.995725
41
0.104719755118539
42
1.38753675533509
0
ELLIPSE
5
1D0
100
AcDbEntity
8
1
62
256
6
ByLayer
370
13
48
1
60
0
100
AcDbEllipse
10
295.580523
20
20.207772
30
0
11
-0.0427993177740842
21
-0.158580925136425
31
0
210
0
220
0
230
1
40
0.080206
41
-3.11537766648731
42
-1.54458133956898
0
ELLIPSE
5
1D1
100
AcDbEntity
8
1
62
256
6
ByLayer
370
13
48
1
60
0
100
AcDbEllipse
10
309.649067
20
20.536627
30
0
11
-0.0915879234251407
21
1.74760168582051
31
0
210
0
220
0
230
1
40
0.995725
41
-0.0273572726603709
42
-0.00872664625995484
0
ELLIPSE
5
1D2
100
AcDbEntity
8
1
62
256
6
ByLayer
370
13
48
1
60
0
100
AcDbEllipse
10
294.553603
20
6.579941
30
0
11
-0.028784775933614
21
0.549246244114983
31
0
210
0
220
0
230
1
40
0.995725
41
1.67551608191458
42
3.06423017113065
0
ELLIPSE
5
1D3
100
AcDbEntity
8
1
62
256
6
ByLayer
370
13
48
1
60
0
100
AcDbEllipse
10
295.306759
20
6.077796
30
0
11
0.0127690523125556
21
-0.243648032548696
31
0
210
0
220
0
230
1
40
0.995725
41
0.174532925199436
42
1.26193471909859
0
ELLIPSE
5
1D4
100
AcDbEntity
8
1
62
256
6
ByLayer
370
13
48
1
60
0
100
AcDbEllipse
10
310.878768
20
8.403272
30
0
11
0.00785039343643922
21
-0.149794430213184
31
0
210
0
220
0
230
1
40
0.995725
41
0.104719755118172
42
1.38753675533471
0
ELLIPSE
5
1D5
100
AcDbEntity
8
1
62
256
6
ByLayer
370
13
48
1
60
0
100
AcDbEllipse
10
308.213517
20
6.13204
30
0
11
-0.0942047212372881
21
1.79753316255824
31
0
210
0
220
0
230
1
40
0.995725
41
-0.400544394528239
42
-3.49858960561001E-13
0
ELLIPSE
5
1D6
100
AcDbEntity
8
1
62
256
6
ByLayer
370
13
48
1
60
0
100
AcDbEllipse
10
309.346428
20
22.225041
30
0
11
-0.00261679781214681
21
0.0499314767377274
31
0
210
0
220
0
230
1
40
0.995725
41
-0.00872664625695033
42
1.26193471909933
0
ELLIPSE
5
1D7
100
AcDbEntity
8
1
62
256
6
ByLayer
370
13
48
1
60
0
100
AcDbEllipse
10
295.609645
20
22.144349
30
0
11
-2.21586678193728
21
1.36412147187859
31
0
210
0
220
0
230
1
40
0.479615
41
1.27243200831435
42
1.31166527049872
0
ELLIPSE
5
1D8
100
AcDbEntity
8
1
62
256
6
ByLayer
370
13
48
1
60
0
100
AcDbEllipse
10
309.022237
20
14.694407
30
0
11
0.044485562806491
21
-0.848835104541417
31
0
210
0
220
0
230
1
40
0.995725
41
1.38753675533549
42
1.67551608191454
0
ELLIPSE
5
1D9
100
AcDbEntity
8
1
62
256
6
ByLayer
370
13
48
1
60
0
100
AcDbEllipse
10
309.040686
20
14.695374
30
0
11
0.0366351693700517
21
-0.699040674328231
31
0
210
0
220
0
230
1
40
0.995725
41
1.38753675533549
42
1.67551608191447
0
ELLIPSE
5
1DA
100
AcDbEntity
8
1
62
256
6
ByLayer
370
13
48
1
60
0
100
AcDbEllipse
10
310.874155
20
8.40303
30
0
11
0.148731686424786
21
-0.019464980175667
31
0
210
0
220
0
230
1
40
0.016833
41
-1.66175841710664
42
-0.0909620903112957
0
ELLIPSE
5
1DB
100
AcDbEntity
8
1
62
256
6
ByLayer
370
13
48
1
60
0
100
AcDbEllipse
10
295.822528
20
6.93182
30
0
11
0.00523359562429348
21
-0.0998629534754688
31
0
210
0
220
0
230
1
40
0.995725
41
0.761807904944429
42
1.6755160819156
0
ELLIPSE
5
1DC
100
AcDbEntity
8
1
62
256
6
ByLayer
370
13
48
1
60
0
100
AcDbEllipse
10
310.874155
20
8.40303
30
0
11
-0.0235312926467606
21
0.148142763125211
31
0
210
0
220
0
230
1
40
0.091865
41
1.5610998183424
42
3.13189614513645
0
ELLIPSE
5
1DD
100
AcDbEntity
8
1
62
256
6
ByLayer
370
13
48
1
60
0
100
AcDbEllipse
10
302.327288
20
14.159981
30
0
11
0.16459275201709
21
-3.14061679904835
31
0
210
0
220
0
230
1
40
0.995725
41
0
42
6.28318530717959
0
ELLIPSE
5
1DE
100
AcDbEntity
8
1
62
256
6
ByLayer
370
13
48
1
60
0
100
AcDbEllipse
10
309.312104
20
22.238462
30
0
11
0.145139532363188
21
-0.0378750068699017
31
0
210
0
220
0
230
1
40
0.028078
41
3.05344420153006
42
-1.65894477885552
0
ELLIPSE
5
1DF
100
AcDbEntity
8
1
62
256
6
ByLayer
370
13
48
1
60
0
100
AcDbEllipse
10
294.736455
20
13.489631
30
0
11
-0.148163665863161
21
-0.0233993187505435
31
0
210
0
220
0
230
1
40
0.009655
41
-3.04959407911495
42
-1.47879775232142
0
ELLIPSE
5
1E0
100
AcDbEntity
8
1
62
256
6
ByLayer
370
13
48
1
60
0
100
AcDbEllipse
10
309.872
20
14.827913
30
0
11
0.148163665863163
21
0.0233993187505309
31
0
210
0
220
0
230
1
40
0.009655
41
1.66279490126913
42
2.85602956830698
0
ELLIPSE
5
1E1
100
AcDbEntity
8
1
62
256
6
ByLayer
370
13
48
1
60
0
100
AcDbEllipse
10
295.24819
20
6.091778
30
0
11
0.0104671912485857
21
-0.199725906950914
31
0
210
0
220
0
230
1
40
0.995725
41
0.0114035669056006
42
1.26193471909904
0
ELLIPSE
5
1E2
100
AcDbEntity
8
1
62
256
6
ByLayer
370
13
48
1
60
0
100
AcDbEllipse
10
302.22396
20
14.154565
30
0
11
0.156043507061151
21
-2.97748748746716
31
0
210
0
220
0
230
1
40
0.995725
41
0
42
6.28318530717959
0
ELLIPSE
5
1E3
100
AcDbEntity
8
1
62
256
6
ByLayer
370
13
48
1
60
0
100
AcDbEllipse
10
309.843333
20
13.539824
30
0
11
0.465790010562067
21
-8.88780285931571
31
0
210
0
220
0
230
1
40
0.995725
41
3.06423017113022
42
3.11423538092898
0
ELLIPSE
5
1E4
100
AcDbEntity
8
1
62
256
6
ByLayer
370
13
48
1
60
0
100
AcDbEllipse
10
295.925347
20
20.121561
30
0
11
-0.045510042190933
21
-0.19475326970241
31
0
210
0
220
0
230
1
40
0.088753
41
1.5964967784748
42
-3.11589220191275
0
ELLIPSE
5
1E5
100
AcDbEntity
8
1
62
256
6
ByLayer
370
13
48
1
60
0
100
AcDbEllipse
10
311.689692
20
14.80835
30
0
11
0.148163665863163
21
0.0233993187505309
31
0
210
0
220
0
230
1
40
0.009655
41
0.0919985744748388
42
1.662794901268
0
ELLIPSE
5
1E6
100
AcDbEntity
8
1
62
256
6
ByLayer
370
13
48
1
60
0
100
AcDbEllipse
10
307.342123
20
22.759222
30
0
11
-0.0994383168615809
21
1.89739611603368
31
0
210
0
220
0
230
1
40
0.995725
41
-2.37978474864689
42
-1.87965793449112
0
ELLIPSE
5
1E7
100
AcDbEntity
8
1
62
256
6
ByLayer
370
13
48
1
60
0
100
AcDbEllipse
10
294.553871
20
6.030848
30
0
11
-0.00379960965785735
21
-0.149951868832795
31
0
210
0
220
0
230
1
40
0.092094
41
-1.56362690568473
42
-0.0716854432917607
0
ELLIPSE
5
1E8
100
AcDbEntity
8
1
62
256
6
ByLayer
370
13
48
1
60
0
100
AcDbEllipse
10
309.027931
20
8.109772
30
0
11
-0.157381426383975
21
-0.0466723701563291
31
0
210
0
220
0
230
1
40
0.019797
41
-1.48863729015331
42
-0.271936942513685
0
ELLIPSE
5
1E9
100
AcDbEntity
8
1
62
256
6
ByLayer
370
13
48
1
60
0
100
AcDbEllipse
10
294.572052
20
6.580908
30
0
11
0.0366351693700485
21
-0.699040674328169
31
0
210
0
220
0
230
1
40
0.995725
41
-1.46607657167491
42
-0.0773624824588713
0
ELLIPSE
5
1EA
100
AcDbEntity
8
1
62
256
6
ByLayer
370
13
48
1
60
0
100
AcDbEllipse
10
295.296351
20
6.079083
30
0
11
-0.145139532363191
21
0.0378750068698907
31
0
210
0
220
0
230
1
40
0.028078
41
1.48264787473469
42
3.05344420152604
0
ELLIPSE
5
1EB
100
AcDbEntity
8
1
62
256
6
ByLayer
370
13
48
1
60
0
100
AcDbEllipse
10
310.045628
20
21.73712
30
0
11
0.0366351693700485
21
-0.699040674328169
31
0
210
0
220
0
230
1
40
0.995725
41
1.67551608191415
42
3.06423017113018
0
ELLIPSE
5
1EC
100
AcDbEntity
8
1
62
256
6
ByLayer
370
13
48
1
60
0
100
AcDbEllipse
10
308.546286
20
21.017565
30
0
11
-0.197551554484215
21
-0.0311990916673913
31
0
210
0
220
0
230
1
40
0.009655
41
1.66279490126838
42
-3.14146319866219
0
ELLIPSE
5
1ED
100
AcDbEntity
8
1
62
256
6
ByLayer
370
13
48
1
60
0
100
AcDbEllipse
10
310.880274
20
8.415076
30
0
11
-0.0435637040863673
21
-0.259139630101908
31
0
210
0
220
0
230
1
40
0.947521
41
0.3081529815899
42
1.60922962181871
0
ELLIPSE
5
1EE
100
AcDbEntity
8
1
62
256
6
ByLayer
370
13
48
1
60
0
100
AcDbEllipse
10
295.576993
20
13.622653
30
0
11
0.0366351693700517
21
-0.699040674328231
31
0
210
0
220
0
230
1
40
0.995725
41
-1.75405589825431
42
-1.46607657167532
0
ELLIPSE
5
1EF
100
AcDbEntity
8
1
62
256
6
ByLayer
370
13
48
1
60
0
100
AcDbEllipse
10
307.583176
20
22.771855
30
0
11
-2.061139184019
21
-1.58827005323574
31
0
210
0
220
0
230
1
40
0.479615
41
1.82992750849946
42
1.86916076139171
0
ELLIPSE
5
1F0
100
AcDbEntity
8
1
62
256
6
ByLayer
370
13
48
1
60
0
100
AcDbEllipse
10
310.054584
20
22.286696
30
0
11
0.00379960965785739
21
0.149951868832795
31
0
210
0
220
0
230
1
40
0.092094
41
0.00716942110630351
42
1.57796574790506
0
ELLIPSE
5
1F1
100
AcDbEntity
8
1
62
256
6
ByLayer
370
13
48
1
60
0
100
AcDbEllipse
10
296.071393
20
7.300462
30
0
11
0.197551554484218
21
0.0311990916673745
31
0
210
0
220
0
230
1
40
0.009655
41
-3.04959407912313
42
-1.47879775232089
0
ELLIPSE
5
1F2
100
AcDbEntity
8
1
62
256
6
ByLayer
370
13
48
1
60
0
100
AcDbEllipse
10
308.790539
20
21.385965
30
0
11
0.00523359562429348
21
-0.0998629534754688
31
0
210
0
220
0
230
1
40
0.995725
41
-2.37978474864534
42
-1.46607657167419
0
ELLIPSE
5
1F3
100
AcDbEntity
8
1
62
256
6
ByLayer
370
13
48
1
60
0
100
AcDbEllipse
10
310.425717
20
7.44368
30
0
11
-0.0435637040649784
21
-0.259139630108113
31
0
210
0
220
0
230
1
40
0.947521
41
0.308152981510496
42
1.28542437781491
0
ELLIPSE
5
1F4
100
AcDbEntity
8
1
62
256
6
ByLayer
370
13
48
1
60
0
100
AcDbEllipse
10
293.734299
20
19.914514
30
0
11
0.0235312926467406
21
-0.148142763125215
31
0
210
0
220
0
230
1
40
0.091865
41
-3.05123893754164
42
-1.5804928352402
0
ELLIPSE
5
1F5
100
AcDbEntity
8
1
62
256
6
ByLayer
370
13
48
1
60
0
100
AcDbEllipse
10
293.738912
20
19.914756
30
0
11
0.00785039343643922
21
-0.149794430213184
31
0
210
0
220
0
230
1
40
0.995725
41
-3.03687289847053
42
-1.75405589825432
0
ELLIPSE
5
1F6
100
AcDbEntity
8
1
62
256
6
ByLayer
370
13
48
1
60
0
100
AcDbEllipse
10
294.950163
20
7.780434
30
0
11
0.0994383168615647
21
-1.89739611603369
31
0
210
0
220
0
230
1
40
0.995725
41
-0.0273572726600698
42
-0.00872664625962918
0
ELLIPSE
5
1F7
100
AcDbEntity
8
1
62
256
6
ByLayer
370
13
48
1
60
0
100
AcDbEllipse
10
294.931715
20
7.779467
30
0
11
-0.0915879234251407
21
1.74760168582051
31
0
210
0
220
0
230
1
40
0.995725
41
3.11423538092936
42
3.13286600732977
0
ELLIPSE
5
1F8
100
AcDbEntity
8
1
62
256
6
ByLayer
370
13
48
1
60
0
100
AcDbEllipse
10
309.667516
20
20.537594
30
0
11
0.0994383168615647
21
-1.89739611603369
31
0
210
0
220
0
230
1
40
0.995725
41
3.11423538092903
42
3.13286600732944
0
ELLIPSE
5
1F9
100
AcDbEntity
8
1
62
256
6
ByLayer
370
13
48
1
60
0
100
AcDbEllipse
10
295.580523
20
20.207772
30
0
11
-0.157381426420244
21
-0.046672370167142
31
0
210
0
220
0
230
1
40
0.019797
41
-3.05943361682133
42
-1.48863729015943
0
ELLIPSE
5
1FA
100
AcDbEntity
8
1
62
256
6
ByLayer
370
13
48
1
60
0
100
AcDbEllipse
10
294.774346
20
14.778203
30
0
11
0.465790010562067
21
-8.88780285931571
31
0
210
0
220
0
230
1
40
0.995725
41
-0.0773624824589069
42
-0.0273572726601529
0
ELLIPSE
5
1FB
100
AcDbEntity
8
1
62
256
6
ByLayer
370
13
48
1
60
0
100
AcDbEllipse
10
293.464268
20
13.595352
30
0
11
0.0366351693700517
21
-0.69904067432823
31
0
210
0
220
0
230
1
40
0.995725
41
-1.75405589825398
42
-1.46607657167492
0
ELLIPSE
5
1FC
100
AcDbEntity
8
1
62
256
6
ByLayer
370
13
48
1
60
0
100
AcDbEllipse
10
311.148799
20
14.722434
30
0
11
0.0366351693700517
21
-0.69904067432823
31
0
210
0
220
0
230
1
40
0.995725
41
1.38753675533549
42
1.67551608191455
0
ELLIPSE
5
1FD
100
AcDbEntity
8
1
62
256
6
ByLayer
370
13
48
1
60
0
100
AcDbEllipse
10
296.071393
20
7.300462
30
0
11
0.0104671912485858
21
-0.199725906950915
31
0
210
0
220
0
230
1
40
0.995725
41
-1.46607657167475
42
-1.72590765052516E-05
0
ELLIPSE
5
1FE
100
AcDbEntity
8
1
62
256
6
ByLayer
370
13
48
1
60
0
100
AcDbEllipse
10
307.263888
20
22.755122
30
0
11
-1.59242934823301
21
-1.39349696567618
31
0
210
0
220
0
230
1
40
0.74335
41
1.15768450150639
42
1.97984155689633
0
ELLIPSE
5
1FF
100
AcDbEntity
8
1
62
256
6
ByLayer
370
13
48
1
60
0
100
AcDbEllipse
10
309.838721
20
13.539583
30
0
11
0.465790010562067
21
-8.88780285931571
31
0
210
0
220
0
230
1
40
0.995725
41
3.06423017113057
42
3.11423538092933
0
ELLIPSE
5
200
100
AcDbEntity
8
1
62
256
6
ByLayer
370
13
48
1
60
0
100
AcDbEllipse
10
295.572381
20
13.622412
30
0
11
-0.0366351693700579
21
0.699040674328231
31
0
210
0
220
0
230
1
40
0.995725
41
1.38753675533549
42
1.67551608191447
0
ELLIPSE
5
201
100
AcDbEntity
8
1
62
256
6
ByLayer
370
13
48
1
60
0
100
AcDbEllipse
10
311.134962
20
14.721708
30
0
11
-0.0287847759336171
21
0.549246244115043
31
0
210
0
220
0
230
1
40
0.995725
41
-1.75405589825431
42
-1.46607657167522
0
ELLIPSE
5
202
100
AcDbEntity
8
1
62
256
6
ByLayer
370
13
48
1
60
0
100
AcDbEllipse
10
295.08337
20
13.688026
30
0
11
-0.198308915233043
21
0.0259533069009289
31
0
210
0
220
0
230
1
40
0.016833
41
-1.66175841710548
42
-0.0909620903105779
0
ELLIPSE
5
203
100
AcDbEntity
8
1
62
256
6
ByLayer
370
13
48
1
60
0
100
AcDbEllipse
10
294.989506
20
6.03075
30
0
11
0.00373239490690381
21
-0.149953556904326
31
0
210
0
220
0
230
1
40
0.092336
41
-1.56825879134052
42
-0.0414707750412877
0
ELLIPSE
5
204
100
AcDbEntity
8
1
62
256
6
ByLayer
370
13
48
1
60
0
100
AcDbEllipse
10
295.595442
20
13.62362
30
0
11
-0.0261679781214703
21
0.499314767377316
31
0
210
0
220
0
230
1
40
0.995725
41
1.38753675533549
42
1.67551608191447
0
ELLIPSE
5
205
100
AcDbEntity
8
1
62
256
6
ByLayer
370
13
48
1
60
0
100
AcDbEllipse
10
295.234354
20
6.091053
30
0
11
-0.00261679781214681
21
0.0499314767377274
31
0
210
0
220
0
230
1
40
0.995725
41
3.13286600733281
42
-1.87965793449046
0
ELLIPSE
5
206
100
AcDbEntity
8
1
62
256
6
ByLayer
370
13
48
1
60
0
100
AcDbEllipse
10
296.404162
20
22.185988
30
0
11
-0.0942047212372881
21
1.79753316255824
31
0
210
0
220
0
230
1
40
0.995725
41
2.74104825906223
42
-3.14159265358948
0
ELLIPSE
5
207
100
AcDbEntity
8
1
62
256
6
ByLayer
370
13
48
1
60
0
100
AcDbEllipse
10
309.358082
20
22.275718
30
0
11
-0.00653729335066914
21
0.149857478277353
31
0
210
0
220
0
230
1
40
0.092367
41
0.000809536041681685
42
1.57160586284002
0
ELLIPSE
5
208
100
AcDbEntity
8
1
62
256
6
ByLayer
370
13
48
1
60
0
100
AcDbEllipse
10
301.984095
20
20.35551
30
0
11
0.0104671912485858
21
-0.199725906950915
31
0
210
0
220
0
230
1
40
0.092371
41
1.5707963267949
42
3.14159265358672
0
ELLIPSE
5
209
100
AcDbEntity
8
1
62
256
6
ByLayer
370
13
48
1
60
0
100
AcDbEllipse
10
306.788659
20
22.730216
30
0
11
0.0942047212372723
21
-1.79753316255824
31
0
210
0
220
0
230
1
40
0.995725
41
0
42
0.400544394527468
0
ELLIPSE
5
20A
100
AcDbEntity
8
1
62
256
6
ByLayer
370
13
48
1
60
0
100
AcDbEllipse
10
309.097982
20
22.229072
30
0
11
-0.279378559894771
21
-0.215283244297293
31
0
210
0
220
0
230
1
40
0.479615
41
-2.35983386470736
42
-1.27243207079315
0
ELLIPSE
5
20B
100
AcDbEntity
8
1
62
256
6
ByLayer
370
13
48
1
60
0
100
AcDbEllipse
10
308.692333
20
8.196466
30
0
11
0.0455100421908895
21
0.19475326970242
31
0
210
0
220
0
230
1
40
0.088753
41
-3.11589220190964
42
-1.54509587511442
0
ELLIPSE
5
20C
100
AcDbEntity
8
1
62
256
6
ByLayer
370
13
48
1
60
0
100
AcDbEllipse
10
309.532407
20
14.77348
30
0
11
0.197551554484218
21
0.0311990916673745
31
0
210
0
220
0
230
1
40
0.009655
41
-1.47879775232085
42
0.000129454977279876
0
ELLIPSE
5
20D
100
AcDbEntity
8
1
62
256
6
ByLayer
370
13
48
1
60
0
100
AcDbEllipse
10
293.737405
20
19.902951
30
0
11
-0.0435637040808252
21
-0.259139630103538
31
0
210
0
220
0
230
1
40
0.947521
41
-2.83343967202078
42
-1.53236303179457
0
ELLIPSE
5
20E
100
AcDbEntity
8
1
62
256
6
ByLayer
370
13
48
1
60
0
100
AcDbEllipse
10
302.633584
20
7.962517
30
0
11
0.0104671912485858
21
-0.199725906950915
31
0
210
0
220
0
230
1
40
0.092371
41
0
42
1.5707963267949
0
ELLIPSE
5
20F
100
AcDbEntity
8
1
62
256
6
ByLayer
370
13
48
1
60
0
100
AcDbEllipse
10
309.824885
20
13.538857
30
0
11
-0.457939617125704
21
8.73800842910252
31
0
210
0
220
0
230
1
40
0.995725
41
-0.077362482459214
42
-0.0273572726604569
0
ELLIPSE
5
210
100
AcDbEntity
8
1
62
256
6
ByLayer
370
13
48
1
60
0
100
AcDbEllipse
10
307.738288
20
6.107134
30
0
11
-1.40394107569369
21
-1.50837379634913
31
0
210
0
220
0
230
1
40
0.735668
41
2.56900210139731
42
-2.89202615041311
0
ELLIPSE
5
211
100
AcDbEntity
8
1
62
256
6
ByLayer
370
13
48
1
60
0
100
AcDbEllipse
10
294.026546
20
6.49475
30
0
11
-0.148163665863161
21
-0.0233993187505435
31
0
210
0
220
0
230
1
40
0.009655
41
-1.47879775232223
42
-0.264793552093282
0
ELLIPSE
5
212
100
AcDbEntity
8
1
62
256
6
ByLayer
370
13
48
1
60
0
100
AcDbEllipse
10
295.02195
20
6.031861
30
0
11
0.00653729335066852
21
-0.149857478277353
31
0
210
0
220
0
230
1
40
0.092367
41
-1.56998679074977
42
0.000809536041553475
0
ELLIPSE
5
213
100
AcDbEntity
8
1
62
256
6
ByLayer
370
13
48
1
60
0
100
AcDbEllipse
10
309.534309
20
14.630001
30
0
11
0.198308915233048
21
-0.0259533069008895
31
0
210
0
220
0
230
1
40
0.016833
41
0.00015247270504642
42
1.4798342364846
0
ELLIPSE
5
214
100
AcDbEntity
8
1
62
256
6
ByLayer
370
13
48
1
60
0
100
AcDbEllipse
10
295.085272
20
13.544547
30
0
11
-0.197551554484215
21
-0.0311990916673913
31
0
210
0
220
0
230
1
40
0.009655
41
0.0919985744745248
42
1.66279490126838
0
ELLIPSE
5
215
100
AcDbEntity
8
1
62
256
6
ByLayer
370
13
48
1
60
0
100
AcDbEllipse
10
310.041015
20
21.736878
30
0
11
0.0366351693700485
21
-0.699040674328169
31
0
210
0
220
0
230
1
40
0.995725
41
1.67551608191456
42
3.06423017113051
0
ELLIPSE
5
216
100
AcDbEntity
8
1
62
256
6
ByLayer
370
13
48
1
60
0
100
AcDbEllipse
10
311.691784
20
14.650523
30
0
11
0.148731686424786
21
-0.019464980175667
31
0
210
0
220
0
230
1
40
0.016833
41
-1.66175841710626
42
-0.0909620903084588
0
ELLIPSE
5
217
100
AcDbEntity
8
1
62
256
6
ByLayer
370
13
48
1
60
0
100
AcDbEllipse
10
294.755897
20
14.777236
30
0
11
-0.457939617125704
21
8.73800842910252
31
0
210
0
220
0
230
1
40
0.995725
41
3.06423017113053
42
3.11423538092929
0
ELLIPSE
5
218
100
AcDbEntity
8
1
62
256
6
ByLayer
370
13
48
1
60
0
100
AcDbEllipse
10
295.643186
20
20.267859
30
0
11
0.00523359562429226
21
-0.0998629534754455
31
0
210
0
220
0
230
1
40
0.995725
41
1.38753675533719
42
-3.03687289847064
0
ELLIPSE
5
219
100
AcDbEntity
8
1
62
256
6
ByLayer
370
13
48
1
60
0
100
AcDbEllipse
10
295.925347
20
20.121561
30
0
11
0.0104671912485858
21
-0.199725906950915
31
0
210
0
220
0
230
1
40
0.995725
41
-3.14157313675458
42
-1.75405589825403
0
ELLIPSE
5
21A
100
AcDbEntity
8
1
62
256
6
ByLayer
370
13
48
1
60
0
100
AcDbEllipse
10
302.249051
20
14.15588
30
0
11
0.161488764830024
21
-3.08138919525496
31
0
210
0
220
0
230
1
40
0.995725
41
-0.853733431166145
42
0
0
ELLIPSE
5
21B
100
AcDbEntity
8
1
62
256
6
ByLayer
370
13
48
1
60
0
100
AcDbEllipse
10
302.249051
20
14.15588
30
0
11
0.161488764830024
21
-3.08138919525496
31
0
210
0
220
0
230
1
40
0.995725
41
0
42
-2.28787053660735
0
ELLIPSE
5
21C
100
AcDbEntity
8
1
62
256
6
ByLayer
370
13
48
1
60
0
100
AcDbEllipse
10
310.027179
20
21.736153
30
0
11
-0.028784775933614
21
0.549246244114983
31
0
210
0
220
0
230
1
40
0.995725
41
-1.46607657167521
42
-0.0773624824592436
0
ELLIPSE
5
21D
100
AcDbEntity
8
1
62
256
6
ByLayer
370
13
48
1
60
0
100
AcDbEllipse
10
297.257107
20
5.557839
30
0
11
0.107288710298004
21
-2.04719054624687
31
0
210
0
220
0
230
1
40
0.995725
41
-2.36773979636928
42
-1.87965793449078
0
ELLIPSE
5
21E
100
AcDbEntity
8
1
62
256
6
ByLayer
370
13
48
1
60
0
100
AcDbEllipse
10
309.027931
20
8.109772
30
0
11
-0.0427993177828428
21
-0.158580925169389
31
0
210
0
220
0
230
1
40
0.080206
41
-1.54458133959035
42
0.0262149871049934
0
ELLIPSE
5
21F
100
AcDbEntity
8
1
62
256
6
ByLayer
370
13
48
1
60
0
100
AcDbEllipse
10
309.875234
20
14.583998
30
0
11
0.148731686424786
21
-0.019464980175667
31
0
210
0
220
0
230
1
40
0.016833
41
-2.85804977879375
42
-1.66175841710626
0
ELLIPSE
5
220
100
AcDbEntity
8
1
62
256
6
ByLayer
370
13
48
1
60
0
100
AcDbEllipse
10
293.638498
20
20.845341
30
0
11
-0.0435637040132676
21
-0.259139630123993
31
0
210
0
220
0
230
1
40
0.947521
41
-2.83343967227135
42
-2.19739446885452
0
ELLIPSE
5
221
100
AcDbEntity
8
1
62
256
6
ByLayer
370
13
48
1
60
0
100
AcDbEllipse
10
309.31092
20
22.240231
30
0
11
0.0127690523125556
21
-0.243648032548696
31
0
210
0
220
0
230
1
40
0.995725
41
-2.96705972839089
42
-1.87965793449169
0
ELLIPSE
5
222
100
AcDbEntity
8
1
62
256
6
ByLayer
370
13
48
1
60
0
100
AcDbEllipse
10
310.581909
20
21.822794
30
0
11
0.148163665863163
21
0.0233993187505309
31
0
210
0
220
0
230
1
40
0.009655
41
0.0919985744735827
42
1.66279490126902
0
ELLIPSE
5
223
100
AcDbEntity
8
1
62
256
6
ByLayer
370
13
48
1
60
0
100
AcDbEllipse
10
294.159874
20
21.446199
30
0
11
-0.300351321606848
21
0.184900888624693
31
0
210
0
220
0
230
1
40
0.479615
41
-1.86916058279558
42
-0.781758788887941
0
ELLIPSE
5
224
100
AcDbEntity
8
1
62
256
6
ByLayer
370
13
48
1
60
0
100
AcDbEllipse
10
297.270944
20
5.558564
30
0
11
-0.0994383168615809
21
1.89739611603368
31
0
210
0
220
0
230
1
40
0.995725
41
0.761807904943166
42
1.26193471909899
0
ELLIPSE
5
225
100
AcDbEntity
8
1
62
256
6
ByLayer
370
13
48
1
60
0
100
AcDbEllipse
10
295.638574
20
20.267617
30
0
11
0.00523359562429226
21
-0.0998629534754455
31
0
210
0
220
0
230
1
40
0.995725
41
1.38753675533777
42
3.11837220864628
0
ELLIPSE
5
226
100
AcDbEntity
8
1
62
256
6
ByLayer
370
13
48
1
60
0
100
AcDbEllipse
10
295.252802
20
6.09202
30
0
11
0.0104671912485857
21
-0.199725906950914
31
0
210
0
220
0
230
1
40
0.995725
41
-0.00872664625784477
42
1.26193471909963
0
ELLIPSE
5
227
100
AcDbEntity
8
1
62
256
6
ByLayer
370
13
48
1
60
0
100
AcDbEllipse
10
307.323675
20
22.758255
30
0
11
0.107288710298004
21
-2.04719054624687
31
0
210
0
220
0
230
1
40
0.995725
41
0.773852857220516
42
1.26193471909904
0
ELLIPSE
5
228
100
AcDbEntity
8
1
62
256
6
ByLayer
370
13
48
1
60
0
100
AcDbEllipse
10
293.44582
20
13.594385
30
0
11
-0.0287847759336171
21
0.549246244115043
31
0
210
0
220
0
230
1
40
0.995725
41
1.38753675533549
42
1.67551608191457
0
ELLIPSE
5
229
100
AcDbEntity
8
1
62
256
6
ByLayer
370
13
48
1
60
0
100
AcDbEllipse
10
309.662904
20
20.537352
30
0
11
0.0994383168615647
21
-1.89739611603369
31
0
210
0
220
0
230
1
40
0.995725
41
3.11423538092942
42
3.13286600732983
0
ELLIPSE
5
22A
100
AcDbEntity
8
1
62
256
6
ByLayer
370
13
48
1
60
0
100
AcDbEllipse
10
295.558545
20
13.621686
30
0
11
0.044485562806491
21
-0.848835104541417
31
0
210
0
220
0
230
1
40
0.995725
41
-1.75405589825438
42
-1.46607657167526
0
ELLIPSE
5
22B
100
AcDbEntity
8
1
62
256
6
ByLayer
370
13
48
1
60
0
100
AcDbEllipse
10
311.153411
20
14.722675
30
0
11
0.0366351693700517
21
-0.69904067432823
31
0
210
0
220
0
230
1
40
0.995725
41
1.38753675533516
42
1.67551608191422
0
ELLIPSE
5
22C
100
AcDbEntity
8
1
62
256
6
ByLayer
370
13
48
1
60
0
100
AcDbEllipse
10
316.091475
20
0.690859
30
0
11
-6.0329917429498
21
-0.0261334627168801
31
0
210
0
220
0
230
1
40
0.988995
41
0.0283448634305019
42
0.151946851042344
0
ELLIPSE
5
22D
100
AcDbEntity
8
1
62
256
6
ByLayer
370
13
48
1
60
0
100
AcDbEllipse
10
322.878457
20
-4.7E-05
30
0
11
-234.377869928291
21
0.10633418218828
31
0
210
0
220
0
230
1
40
0.092638
41
-1.42184868188994
42
-1.40746035702245
0
ELLIPSE
5
22E
100
AcDbEntity
8
1
62
256
6
ByLayer
370
13
48
1
60
0
100
AcDbEllipse
10
295.254478
20
8.056454
30
0
11
0.136073486231615
21
-2.59643679036189
31
0
210
0
220
0
230
1
40
0.995725
41
0.68706273351721
42
1.13806179252791
0
ELLIPSE
5
22F
100
AcDbEntity
8
1
62
256
6
ByLayer
370
13
48
1
60
0
100
AcDbEllipse
10
301.557876
20
-3.930079
30
0
11
0.575695518672216
21
-10.9849248823003
31
0
210
0
220
0
230
1
40
0.995725
41
3.14159265358978
42
-2.8344024660536
0
ELLIPSE
5
230
100
AcDbEntity
8
1
62
256
6
ByLayer
370
13
48
1
60
0
100
AcDbEllipse
10
310.604857
20
0.13218
30
0
11
-0.0213639609465543
21
1.01120812697428
31
0
210
0
220
0
230
1
40
0.102268
41
-0.120172362712283
42
1.06353354016785
0
ELLIPSE
5
231
100
AcDbEntity
8
1
62
256
6
ByLayer
370
13
48
1
60
0
100
AcDbEllipse
10
301.074424
20
7.05968
30
0
11
0.0523359562429289
21
-0.998629534754575
31
0
210
0
220
0
230
1
40
0.092371
41
-1.5707963267949
42
0
0
ELLIPSE
5
232
100
AcDbEntity
8
1
62
256
6
ByLayer
370
13
48
1
60
0
100
AcDbEllipse
10
305.635371
20
7.298709
30
0
11
-0.31839087076372
21
-0.395168396202059
31
0
210
0
220
0
230
1
40
0.966608
41
-2.1258672362309
42
-2.06669428536128
0
ELLIPSE
5
233
100
AcDbEntity
8
1
62
256
6
ByLayer
370
13
48
1
60
0
100
AcDbEllipse
10
305.097669
20
-6.976902
30
0
11
-6.03299180461444
21
-0.0261337091452708
31
0
210
0
220
0
230
1
40
0.988995
41
3.00711611912304
42
-2.98964584369146
0
ELLIPSE
5
234
100
AcDbEntity
8
1
62
256
6
ByLayer
370
13
48
1
60
0
100
AcDbEllipse
10
310.333709
20
9.247272
30
0
11
-0.0804333839916098
21
2.59918503410748
31
0
210
0
220
0
230
1
40
0.529771
41
2.98258494739822
42
-3.13024152832018
0
ELLIPSE
5
235
100
AcDbEntity
8
1
62
256
6
ByLayer
370
13
48
1
60
0
100
AcDbEllipse
10
292.487208
20
9.43118
30
0
11
-0.026167978121469
21
0.49931476737729
31
0
210
0
220
0
230
1
40
0.995725
41
-2.08239418575089
42
-1.46607657167544
0
ELLIPSE
5
236
100
AcDbEntity
8
1
62
256
6
ByLayer
370
13
48
1
60
0
100
AcDbEllipse
10
303.002789
20
-6.001985
30
0
11
-2.1
21
2.12234201567296E-15
31
0
210
0
220
0
230
1
40
0.994442
41
-2.75498062477372
42
-0.245437362984195
0
ELLIPSE
5
237
100
AcDbEntity
8
1
62
256
6
ByLayer
370
13
48
1
60
0
100
AcDbEllipse
10
310.651762
20
5.98122
30
0
11
-0.00953372865712444
21
0.500183469476486
31
0
210
0
220
0
230
1
40
0.10498
41
1.92335948622704
42
-2.78902949417653
0
ELLIPSE
5
238
100
AcDbEntity
8
1
62
256
6
ByLayer
370
13
48
1
60
0
100
AcDbEllipse
10
295.056594
20
8.046083
30
0
11
-1.65564191585212
21
-2.05486645452807
31
0
210
0
220
0
230
1
40
0.966608
41
1.54124460946465
42
1.85179470835811
0
ELLIPSE
5
239
100
AcDbEntity
8
1
62
256
6
ByLayer
370
13
48
1
60
0
100
AcDbEllipse
10
310.64187
20
7.00817
30
0
11
-0.0190690707678748
21
-0.501607026758432
31
0
210
0
220
0
230
1
40
0.195483
41
-0.786740978470666
42
-0.33135615371182
0
ELLIPSE
5
23A
100
AcDbEntity
8
1
62
256
6
ByLayer
370
13
48
1
60
0
100
AcDbEllipse
10
293.604447
20
18.14562
30
0
11
-0.143594274824092
21
2.73994198539689
31
0
210
0
220
0
230
1
40
0.016833
41
0.326127687908414
42
0.836829632517334
0
ELLIPSE
5
23B
100
AcDbEntity
8
1
62
256
6
ByLayer
370
13
48
1
60
0
100
AcDbEllipse
10
303.002789
20
-6.001985
30
0
11
2
21
0
31
0
210
0
220
0
230
1
40
0.994442
41
0.75005527622246
42
2.98922542808475
0
ELLIPSE
5
23C
100
AcDbEntity
8
1
62
256
6
ByLayer
370
13
48
1
60
0
100
AcDbEllipse
10
310.530865
20
-1.993734
30
0
11
-2.22377745470157
21
3.55532513042481
31
0
210
0
220
0
230
1
40
0.378911
41
-1.00607715201679
42
-0.862737463754808
0
ELLIPSE
5
23D
100
AcDbEntity
8
1
62
256
6
ByLayer
370
13
48
1
60
0
100
AcDbEllipse
10
294.323689
20
0
30
0
11
-1.15966139441135
21
21.9372369613645
31
0
210
0
220
0
230
1
40
0.092638
41
-0.124738688408087
42
-0.00489871382072501
0
ELLIPSE
5
23E
100
AcDbEntity
8
1
62
256
6
ByLayer
370
13
48
1
60
0
100
AcDbEllipse
10
310.125204
20
7.534011
30
0
11
-0.0190674573077288
21
1.00036693879323
31
0
210
0
220
0
230
1
40
0.10498
41
-3.13809534457133
42
-2.60721637392033
0
ELLIPSE
5
23F
100
AcDbEntity
8
1
62
256
6
ByLayer
370
13
48
1
60
0
100
AcDbEllipse
10
1300.873805
20
4E-06
30
0
11
-1777.81183912458
21
17.7321621040534
31
0
210
0
220
0
230
1
40
0.007265
41
0.966815824681159
42
0.9787704800796
0
ELLIPSE
5
240
100
AcDbEntity
8
1
62
256
6
ByLayer
370
13
48
1
60
0
100
AcDbEllipse
10
294.39719
20
8.011525
30
0
11
-2.29348548688686
21
1.847901455936
31
0
210
0
220
0
230
1
40
0.775936
41
3.05283506782369
42
-2.77958348579167
0
ELLIPSE
5
241
100
AcDbEntity
8
1
62
256
6
ByLayer
370
13
48
1
60
0
100
AcDbEllipse
10
311.146843
20
0
30
0
11
-45.1993673332224
21
19.2053789533401
31
0
210
0
220
0
230
1
40
0.224085
41
0.744048710920019
42
1.04554801812318
0
ELLIPSE
5
242
100
AcDbEntity
8
1
62
256
6
ByLayer
370
13
48
1
60
0
100
AcDbEllipse
10
301.65012
20
-3.925245
30
0
11
-0.523359562429376
21
9.98629534754574
31
0
210
0
220
0
230
1
40
0.995725
41
0
42
0.307190187536193
0
ELLIPSE
5
243
100
AcDbEntity
8
1
62
256
6
ByLayer
370
13
48
1
60
0
100
AcDbEllipse
10
307.965057
20
7.420803
30
0
11
-0.0261679781214688
21
0.499314767377286
31
0
210
0
220
0
230
1
40
0.995725
41
-0.990362103391666
42
-0.92729522088525
0
ELLIPSE
5
244
100
AcDbEntity
8
1
62
256
6
ByLayer
370
13
48
1
60
0
100
AcDbEllipse
10
310.453762
20
9.253563
30
0
11
0.136073486231615
21
-2.59643679036189
31
0
210
0
220
0
230
1
40
0.995725
41
-0.990362103391497
42
-0.858139698776645
0
ELLIPSE
5
245
100
AcDbEntity
8
1
62
256
6
ByLayer
370
13
48
1
60
0
100
AcDbEllipse
10
310.268769
20
-14.325169
30
0
11
-0.064049836977346
21
-0.515985208242862
31
0
210
0
220
0
230
1
40
0.113079
41
-1.64251319358964
42
-0.0717168667961048
0
ELLIPSE
5
246
100
AcDbEntity
8
1
62
256
6
ByLayer
370
13
48
1
60
0
100
AcDbEllipse
10
288
20
5.968111
30
0
11
-3
21
3.03191716524709E-15
31
0
210
0
220
0
230
1
40
0.759344
41
-2.7680265246029
42
-1.69071699970195
0
ELLIPSE
5
247
100
AcDbEntity
8
1
62
256
6
ByLayer
370
13
48
1
60
0
100
AcDbEllipse
10
288
20
1.088351
30
0
11
-0.494019427454109
21
14.0036610324079
31
0
210
0
220
0
230
1
40
0.355302
41
-0.53712087691399
42
-0.386707904096247
0
ELLIPSE
5
248
100
AcDbEntity
8
1
62
256
6
ByLayer
370
13
48
1
60
0
100
AcDbEllipse
10
298.120892
20
6.904892
30
0
11
-0.0261679781214689
21
0.499314767377288
31
0
210
0
220
0
230
1
40
0.995725
41
0.927295218001594
42
1.13806179252785
0
ELLIPSE
5
249
100
AcDbEntity
8
1
62
256
6
ByLayer
370
13
48
1
60
0
100
AcDbEllipse
10
294.90823
20
13.889693
30
0
11
0.136073486231615
21
-2.59643679036189
31
0
210
0
220
0
230
1
40
0.995725
41
-2.20424198809746
42
-1.46607657167523
0
ELLIPSE
5
24A
100
AcDbEntity
8
1
62
256
6
ByLayer
370
13
48
1
60
0
100
AcDbEllipse
10
297.879362
20
6.892234
30
0
11
-0.318392676659104
21
-0.395166625558116
31
0
210
0
220
0
230
1
40
0.966608
41
-2.12586228187685
42
-1.28979794403347
0
ELLIPSE
5
24B
100
AcDbEntity
8
1
62
256
6
ByLayer
370
13
48
1
60
0
100
AcDbEllipse
10
303.002789
20
-6.517863
30
0
11
2
21
0
31
0
210
0
220
0
230
1
40
0.994442
41
2.49628982891385
42
2.82684423053173
0
ELLIPSE
5
24C
100
AcDbEntity
8
1
62
256
6
ByLayer
370
13
48
1
60
0
100
AcDbEllipse
10
939.72408
20
-0.277138
30
0
11
-761.921316881919
21
0.343446442806308
31
0
210
0
220
0
230
1
40
0.054378
41
-0.552330393408646
42
-0.544779853667051
0
ELLIPSE
5
24D
100
AcDbEntity
8
1
62
256
6
ByLayer
370
13
48
1
60
0
100
AcDbEllipse
10
295.254478
20
8.056454
30
0
11
0.136073486231615
21
-2.59643679036189
31
0
210
0
220
0
230
1
40
0.995725
41
-2.08239418575108
42
-0.581932527432634
0
ELLIPSE
5
24E
100
AcDbEntity
8
1
62
256
6
ByLayer
370
13
48
1
60
0
100
AcDbEllipse
10
253.497169
20
0
30
0
11
-236.80639045416
21
0.107428577468473
31
0
210
0
220
0
230
1
40
0.092638
41
-1.80287434866803
42
-1.74516023794794
0
ELLIPSE
5
24F
100
AcDbEntity
8
1
62
256
6
ByLayer
370
13
48
1
60
0
100
AcDbEllipse
10
314.648711
20
2.123587
30
0
11
-5.84818575315226
21
-2.01945124318449
31
0
210
0
220
0
230
1
40
0.832716
41
-0.386528272503138
42
-0.238976202763386
0
ELLIPSE
5
250
100
AcDbEntity
8
1
62
256
6
ByLayer
370
13
48
1
60
0
100
AcDbEllipse
10
288
20
5.557463
30
0
11
-4.99986660337431
21
0.0460818403903928
31
0
210
0
220
0
230
1
40
0.792544
41
1.72177996554813
42
1.792045741761
0
ELLIPSE
5
251
100
AcDbEntity
8
1
62
256
6
ByLayer
370
13
48
1
60
0
100
AcDbEllipse
10
297.793937
20
6.372107
30
0
11
0.353010790461845
21
-0.93561925045261
31
0
210
0
220
0
230
1
40
0.088046
41
-1.59884006173129
42
-0.0280437349361151
0
ELLIPSE
5
252
100
AcDbEntity
8
1
62
256
6
ByLayer
370
13
48
1
60
0
100
AcDbEllipse
10
294.664116
20
8.025514
30
0
11
-0.109905508110169
21
2.0971220229846
31
0
210
0
220
0
230
1
40
0.995725
41
2.21256348619434
42
2.71261166246159
0
ELLIPSE
5
253
100
AcDbEntity
8
1
62
256
6
ByLayer
370
13
48
1
60
0
100
AcDbEllipse
10
294.664116
20
8.025514
30
0
11
-0.109905508110169
21
2.0971220229846
31
0
210
0
220
0
230
1
40
0.995725
41
-2.74205116610598
42
-2.08304175458752
0
ELLIPSE
5
254
100
AcDbEntity
8
1
62
256
6
ByLayer
370
13
48
1
60
0
100
AcDbEllipse
10
312.599301
20
0
30
0
11
-2.6660996763984
21
-21.9352988748397
31
0
210
0
220
0
230
1
40
0.116558
41
-1.27663276852565
42
-0.0890314845170319
0
ELLIPSE
5
255
100
AcDbEntity
8
1
62
256
6
ByLayer
370
13
48
1
60
0
100
AcDbEllipse
10
310.500707
20
0.128222
30
0
11
-0.0106819804559394
21
0.50560406277431
31
0
210
0
220
0
230
1
40
0.102268
41
-0.120172362796084
42
0.225437876172411
0
ELLIPSE
5
256
100
AcDbEntity
8
1
62
256
6
ByLayer
370
13
48
1
60
0
100
AcDbEllipse
10
294.111055
20
6.694745
30
0
11
-3.96879667561631
21
-0.704906652895767
31
0
210
0
220
0
230
1
40
0.015321
41
-3.01817314104114
42
-2.7167145400834
0
ELLIPSE
5
257
100
AcDbEntity
8
1
62
256
6
ByLayer
370
13
48
1
60
0
100
AcDbEllipse
10
294.546634
20
14.792379
30
0
11
-0.471023606186439
21
8.98766581279117
31
0
210
0
220
0
230
1
40
0.995725
41
2.79252680319575
42
3.02206401946898
0
ELLIPSE
5
258
100
AcDbEntity
8
1
62
256
6
ByLayer
370
13
48
1
60
0
100
AcDbEllipse
10
301.867064
20
7.101221
30
0
11
-3.96879667143113
21
-0.704906652136038
31
0
210
0
220
0
230
1
40
0.015321
41
-3.01817314086553
42
-2.71671453985579
0
ELLIPSE
5
259
100
AcDbEntity
8
1
62
256
6
ByLayer
370
13
48
1
60
0
100
AcDbEllipse
10
292.020675
20
6.191159
30
0
11
-0.293690420649028
21
-0.955900589401951
31
0
210
0
220
0
230
1
40
0.0868
41
-1.53907871771946
42
-1.39194539667544E-05
0
ELLIPSE
5
25A
100
AcDbEntity
8
1
62
256
6
ByLayer
370
13
48
1
60
0
100
AcDbEllipse
10
294.546634
20
14.792379
30
0
11
-0.471023606186439
21
8.98766581279117
31
0
210
0
220
0
230
1
40
0.995725
41
-2.9169338133844
42
-2.83440246605362
0
ELLIPSE
5
25B
100
AcDbEntity
8
1
62
256
6
ByLayer
370
13
48
1
60
0
100
AcDbEllipse
10
310.461166
20
0
30
0
11
-3.72597578322591
21
21.93518493745
31
0
210
0
220
0
230
1
40
0.085536
41
1.59377710193996
42
1.7533465499127
0
ELLIPSE
5
25C
100
AcDbEntity
8
1
62
256
6
ByLayer
370
13
48
1
60
0
100
AcDbEllipse
10
294.710238
20
8.027931
30
0
11
0.136073486231615
21
-2.59643679036189
31
0
210
0
220
0
230
1
40
0.995725
41
0.0555653949273241
42
1.07574208457346
0
ELLIPSE
5
25D
100
AcDbEntity
8
1
62
256
6
ByLayer
370
13
48
1
60
0
100
AcDbEllipse
10
294.638878
20
14.797213
30
0
11
0.523359562429289
21
-9.98629534754575
31
0
210
0
220
0
230
1
40
0.995725
41
-9.46300589308175E-06
42
0.307190187536174
0
ELLIPSE
5
25E
100
AcDbEntity
8
1
62
256
6
ByLayer
370
13
48
1
60
0
100
AcDbEllipse
10
296.628304
20
7.497027
30
0
11
0.0261679781214645
21
-0.499314767377288
31
0
210
0
220
0
230
1
40
0.092371
41
-1.00594782558429
42
-0.630730776709541
0
ELLIPSE
5
25F
100
AcDbEntity
8
1
62
256
6
ByLayer
370
13
48
1
60
0
100
AcDbEllipse
10
309.652381
20
-14.247706
30
0
11
-0.295423195926135
21
-2.48616273440062
31
0
210
0
220
0
230
1
40
0.117941
41
0
42
6.28318530717959
0
ELLIPSE
5
260
100
AcDbEntity
8
1
62
256
6
ByLayer
370
13
48
1
60
0
100
AcDbEllipse
10
322.878203
20
0.000125
30
0
11
-236.805701283607
21
0.107412049946528
31
0
210
0
220
0
230
1
40
0.092638
41
-1.44605802271787
42
-1.43618325547166
0
ELLIPSE
5
261
100
AcDbEntity
8
1
62
256
6
ByLayer
370
13
48
1
60
0
100
AcDbEllipse
10
304.491694
20
10.142751
30
0
11
-1.65564191818554
21
-2.05486645342838
31
0
210
0
220
0
230
1
40
0.966608
41
0.71373291675183
42
1.07490334513255
0
POINT
5
70
100
AcDbEntity
8
1
62
256
6
ByLayer
370
18
48
1
60
0
100
AcDbPoint
10
0
20
0
30
0
39
0
210
0
220
0
230
1
50
360
0
POINT
5
72
100
AcDbEntity
8
80
62
256
6
ByLayer
370
18
48
1
60
0
100
AcDbPoint
10
0
20
0
30
0
39
0
210
0
220
0
230
1
50
360
0
POINT
5
74
100
AcDbEntity
8
81
62
256
6
ByLayer
370
18
48
1
60
0
100
AcDbPoint
10
312
20
0
30
0
39
0
210
0
220
0
230
1
50
360
0
POINT
5
76
100
AcDbEntity
8
1
62
256
6
ByLayer
370
18
48
1
60
1
100
AcDbPoint
10
0
20
-31.25
30
0
39
0
210
0
220
0
230
1
50
360
0
POINT
5
77
100
AcDbEntity
8
1
62
256
6
ByLayer
370
18
48
1
60
1
100
AcDbPoint
10
312
20
-22.5
30
0
39
0
210
0
220
0
230
1
50
360
0
POINT
5
78
100
AcDbEntity
8
1
62
256
6
ByLayer
370
18
48
1
60
1
100
AcDbPoint
10
-80
20
-25
30
0
39
0
210
0
220
0
230
1
50
360
0
POINT
5
79
100
AcDbEntity
8
1
62
256
6
ByLayer
370
18
48
1
60
1
100
AcDbPoint
10
0
20
-31.25
30
0
39
0
210
0
220
0
230
1
50
360
0
POINT
5
7A
100
AcDbEntity
8
1
62
256
6
ByLayer
370
18
48
1
60
1
100
AcDbPoint
10
312
20
-22.5
30
0
39
0
210
0
220
0
230
1
50
360
0
POINT
5
7B
100
AcDbEntity
8
1
62
256
6
ByLayer
370
18
48
1
60
1
100
AcDbPoint
10
6.4079
20
-31.25
30
0
39
0
210
0
220
0
230
1
50
360
0
POINT
5
7C
100
AcDbEntity
8
1
62
256
6
ByLayer
370
18
48
1
60
1
100
AcDbPoint
10
37
20
-22.5
30
0
39
0
210
0
220
0
230
1
50
360
0
POINT
5
7D
100
AcDbEntity
8
1
62
256
6
ByLayer
370
18
48
1
60
1
100
AcDbPoint
10
312
20
-22.5
30
0
39
0
210
0
220
0
230
1
50
360
0
POINT
5
7E
100
AcDbEntity
8
1
62
256
6
ByLayer
370
18
48
1
60
1
100
AcDbPoint
10
310.7234
20
-11.25
30
0
39
0
210
0
220
0
230
1
50
360
0
SPLINE
5
262
100
AcDbEntity
8
SK1
62
256
6
ByLayer
370
13
48
1
60
0
100
AcDbSpline
70
4
71
3
72
22
73
18
40
0
40
0
40
0
40
0
40
0.250000000000013
40
0.250000000000013
40
0.375000000000011
40
0.375000000000011
40
0.500000000000009
40
0.500000000000009
40
0.625000000000006
40
0.625000000000006
40
0.687500000000005
40
0.687500000000005
40
0.750000000000004
40
0.750000000000004
40
0.875000000000002
40
0.875000000000002
40
1
40
1
40
1
40
1
41
1
10
-78.5162221138982
20
10.4258292340508
30
0
41
1
10
-78.4816010925007
20
10.3237518956136
30
0
41
1
10
-78.4411780188043
20
10.2239013321123
30
0
41
1
10
-78.3666785250411
20
10.0794467030181
30
0
41
1
10
-78.3393689035363
20
10.0320610579929
30
0
41
1
10
-78.2793566754053
20
9.94200016242738
30
0
41
1
10
-78.2466129799402
20
9.89906478118272
30
0
41
1
10
-78.1725895963645
20
9.81972659981167
30
0
41
1
10
-78.1310790894698
20
9.78319125007499
30
0
41
1
10
-78.0614135112523
20
9.74017151629326
30
0
41
1
10
-78.0367084860757
20
9.72773410304424
30
0
41
1
10
-77.9859900462305
20
9.70877612675764
30
0
41
1
10
-77.9597650984162
20
9.70209114959093
30
0
41
1
10
-77.8779326920127
20
9.69222679373803
30
0
41
1
10
-77.8229289559465
20
9.7004005561752
30
0
41
1
10
-77.720518632779
20
9.74066343125068
30
0
41
1
10
-77.6749703009745
20
9.77110884838677
30
0
41
1
10
-77.6338131992791
20
9.80675144594503
30
0
0
SPLINE
5
263
100
AcDbEntity
8
1
62
256
6
ByLayer
370
18
48
1
60
0
100
AcDbSpline
70
4
71
3
72
16
73
12
40
0
40
0
40
0
40
0
40
0.250000000000072
40
0.250000000000072
40
0.500000000000144
40
0.500000000000144
40
0.750000000000217
40
0.750000000000217
40
0.875000000000108
40
0.875000000000108
40
1
40
1
40
1
40
1
41
1
10
303.19139152639
20
12.7514689783245
30
0
41
1
10
303.154439588538
20
12.7273744214087
30
0
41
1
10
303.115403044618
20
12.7062409302478
30
0
41
1
10
303.033847917886
20
12.6714726348945
30
0
41
1
10
302.991377322637
20
12.6577504380003
30
0
41
1
10
302.903977237058
20
12.6426723217917
30
0
41
1
10
302.858887127736
20
12.6409225523674
30
0
41
1
10
302.796781762244
20
12.6594802217101
30
0
41
1
10
302.777657553873
20
12.6695343665459
30
0
41
1
10
302.748481052846
20
12.6973266889162
30
0
41
1
10
302.738654169569
20
12.7149318788529
30
0
41
1
10
302.733964367533
20
12.7339002784158
30
0
0
SPLINE
5
264
100
AcDbEntity
8
1
62
256
6
ByLayer
370
18
48
1
60
0
100
AcDbSpline
70
4
71
3
72
18
73
14
40
0
40
0
40
0
40
0
40
0.125000000000046
40
0.125000000000046
40
0.250000000000092
40
0.250000000000092
40
0.50000000000006
40
0.50000000000006
40
0.750000000000027
40
0.750000000000027
40
0.875000000000014
40
0.875000000000014
40
1
40
1
40
1
40
1
41
1
10
300.833294205629
20
14.4692159218825
30
0
41
1
10
300.863386815406
20
14.471494727823
30
0
41
1
10
300.892471722502
20
14.4845274523161
30
0
41
1
10
300.947137616773
20
14.5199008247273
30
0
41
1
10
300.972528552686
20
14.5423610768805
30
0
41
1
10
301.043330933246
20
14.6174531728027
30
0
41
1
10
301.083677285638
20
14.6778720264053
30
0
41
1
10
301.149348867431
20
14.8073794995942
30
0
41
1
10
301.17460403993
20
14.8761991115218
30
0
41
1
10
301.19463294567
20
14.9803371980397
30
0
41
1
10
301.198253326502
20
15.0151809856017
30
0
41
1
10
301.195728255809
20
15.0824780084753
30
0
41
1
10
301.189802531023
20
15.1150394451633
30
0
41
1
10
301.17468385455
20
15.1423116876177
30
0
0
SPLINE
5
265
100
AcDbEntity
8
1
62
256
6
ByLayer
370
18
48
1
60
0
100
AcDbSpline
70
4
71
3
72
18
73
14
40
0
40
0
40
0
40
0
40
0.125
40
0.125
40
0.25
40
0.25
40
0.5
40
0.5
40
0.75
40
0.75
40
0.875
40
0.875
40
1
40
1
40
1
40
1
41
1
10
301.820954925372
20
15.5637135410589
30
0
41
1
10
301.83723643454
20
15.5372176854862
30
0
41
1
10
301.86237229031
20
15.5171386696516
30
0
41
1
10
301.919096512
20
15.4850317570331
30
0
41
1
10
301.950698449704
20
15.4732398135829
30
0
41
1
10
302.049744908582
20
15.4469358020019
30
0
41
1
10
302.12164798585
20
15.4412675464042
30
0
41
1
10
302.266189659956
20
15.4488559658315
30
0
41
1
10
302.338558847821
20
15.4620344860549
30
0
41
1
10
302.439523700454
20
15.4988909168021
30
0
41
1
10
302.47185601554
20
15.5140839714491
30
0
41
1
10
302.529757311698
20
15.5521337551457
30
0
41
1
10
302.555526947086
20
15.5748483131926
30
0
41
1
10
302.572221721022
20
15.603085765468
30
0
0
SPLINE
5
266
100
AcDbEntity
8
1
62
256
6
ByLayer
370
18
48
1
60
0
100
AcDbSpline
70
4
71
3
72
18
73
14
40
0
40
0
40
0
40
0
40
0.124999999999996
40
0.124999999999996
40
0.249999999999993
40
0.249999999999993
40
0.499999999999982
40
0.499999999999982
40
0.749999999999971
40
0.749999999999971
40
0.874999999999986
40
0.874999999999986
40
1
40
1
40
1
40
1
41
1
10
303.668878086185
20
14.6178225760332
30
0
41
1
10
303.635414151083
20
14.6167712406663
30
0
41
1
10
303.602203594124
20
14.6265608103707
30
0
41
1
10
303.539090266042
20
14.6558165317621
30
0
41
1
10
303.509390834018
20
14.6754220821971
30
0
41
1
10
303.42605896727
20
14.7425444390482
30
0
41
1
10
303.377883760266
20
14.7984112401448
30
0
41
1
10
303.299034981341
20
14.9205067935556
30
0
41
1
10
303.268588518887
20
14.9863010601804
30
0
41
1
10
303.24295343079
20
15.0873486867482
30
0
41
1
10
303.237757487755
20
15.1218388010563
30
0
41
1
10
303.238130198256
20
15.1889851222565
30
0
41
1
10
303.243460427306
20
15.2225037570053
30
0
41
1
10
303.259000939456
20
15.2515461173593
30
0
0
SPLINE
5
267
100
AcDbEntity
8
1
62
256
6
ByLayer
370
18
48
1
60
0
100
AcDbSpline
70
4
71
3
72
16
73
12
40
0
40
0
40
0
40
0
40
0.125000000000017
40
0.125000000000017
40
0.250000000000034
40
0.250000000000034
40
0.500000000000023
40
0.500000000000023
40
0.750000000000011
40
0.750000000000011
40
1
40
1
40
1
40
1
41
1
10
301.165222535483
20
15.1593798084847
30
0
41
1
10
301.150375209176
20
15.170574638748
30
0
41
1
10
301.138868202608
20
15.185970831483
30
0
41
1
10
301.126495886057
20
15.2227386268211
30
0
41
1
10
301.125697614139
20
15.2439503143403
30
0
41
1
10
301.135290280817
20
15.306241742306
30
0
41
1
10
301.155595735046
20
15.346220782226
30
0
41
1
10
301.205390370862
20
15.4191215415751
30
0
41
1
10
301.235350580086
20
15.4522393019454
30
0
41
1
10
301.300320362058
20
15.5124676325679
30
0
41
1
10
301.335556681363
20
15.5396608631376
30
0
41
1
10
301.372483063471
20
15.5637387563993
30
0
0
SPLINE
5
268
100
AcDbEntity
8
1
62
256
6
ByLayer
370
18
48
1
60
0
100
AcDbSpline
70
4
71
3
72
16
73
12
40
0
40
0
40
0
40
0
40
0.25
40
0.25
40
0.5
40
0.5
40
0.75
40
0.75
40
0.875
40
0.875
40
1
40
1
40
1
40
1
41
1
10
300.614992036548
20
14.0702429681837
30
0
41
1
10
300.612675896122
20
14.114437560233
30
0
41
1
10
300.613814370227
20
14.1588719962608
30
0
41
1
10
300.62393806668
20
14.2467827047481
30
0
41
1
10
300.632833133387
20
14.2902669586972
30
0
41
1
10
300.661836441894
20
14.372743155702
30
0
41
1
10
300.681718556935
20
14.4120935579072
30
0
41
1
10
300.725807485412
20
14.4549031994167
30
0
41
1
10
300.742835786187
20
14.4657248152557
30
0
41
1
10
300.778660069136
20
14.4754203238186
30
0
41
1
10
300.797241188744
20
14.4741728267689
30
0
41
1
10
300.814452367484
20
14.4677890834223
30
0
0
SPLINE
5
269
100
AcDbEntity
8
1
62
256
6
ByLayer
370
18
48
1
60
0
100
AcDbSpline
70
4
71
3
72
8
73
4
40
0
40
0
40
0
40
0
40
1
40
1
40
1
40
1
41
1
10
301.276054115443
20
13.0445872819489
30
0
41
1
10
301.278595393736
20
13.0505743630881
30
0
41
1
10
301.281137181871
20
13.0565622187055
30
0
41
1
10
301.283679499969
20
13.0625508790065
30
0
0
SPLINE
5
26A
100
AcDbEntity
8
1
62
256
6
ByLayer
370
18
48
1
60
0
100
AcDbSpline
70
4
71
3
72
8
73
4
40
0
40
0
40
0
40
0
40
1
40
1
40
1
40
1
41
1
10
300.814452367484
20
14.4677890834223
30
0
41
1
10
300.820731979922
20
14.468264624871
30
0
41
1
10
300.827012579724
20
14.4687402367713
30
0
41
1
10
300.833294205629
20
14.4692159218825
30
0
0
SPLINE
5
26B
100
AcDbEntity
8
1
62
256
6
ByLayer
370
18
48
1
60
0
100
AcDbSpline
70
4
71
3
72
16
73
12
40
0
40
0
40
0
40
0
40
0.249999999999998
40
0.249999999999998
40
0.499999999999996
40
0.499999999999996
40
0.749999999999994
40
0.749999999999994
40
0.874999999999997
40
0.874999999999997
40
1
40
1
40
1
40
1
41
1
10
301.524446268007
20
12.6641080791463
30
0
41
1
10
301.48517818973
20
12.6842081142798
30
0
41
1
10
301.447376608596
20
12.7075141159043
30
0
41
1
10
301.376385238929
20
12.7606795916377
30
0
41
1
10
301.343146969121
20
12.7904593236738
30
0
41
1
10
301.285891765043
20
12.8579172317755
30
0
41
1
10
301.261465216772
20
12.8955588184064
30
0
41
1
10
301.245472094616
20
12.9570321666972
30
0
41
1
10
301.244198859103
20
12.977951041789
30
0
41
1
10
301.252716234726
20
13.0155368539762
30
0
41
1
10
301.26250884242
20
13.0319489656004
30
0
41
1
10
301.276054115443
20
13.0445872819489
30
0
0
SPLINE
5
26C
100
AcDbEntity
8
1
62
256
6
ByLayer
370
18
48
1
60
0
100
AcDbSpline
70
4
71
3
72
8
73
4
40
0
40
0
40
0
40
0
40
1
40
1
40
1
40
1
41
1
10
303.268671123706
20
15.2696168778294
30
0
41
1
10
303.265447958307
20
15.2635940605014
30
0
41
1
10
303.262224566419
20
15.2575704835449
30
0
41
1
10
303.259000939456
20
15.2515461173593
30
0
0
SPLINE
5
26D
100
AcDbEntity
8
1
62
256
6
ByLayer
370
18
48
1
60
0
100
AcDbSpline
70
4
71
3
72
16
73
12
40
0
40
0
40
0
40
0
40
0.125000000000001
40
0.125000000000001
40
0.250000000000003
40
0.250000000000003
40
0.500000000000002
40
0.500000000000002
40
0.750000000000001
40
0.750000000000001
40
1
40
1
40
1
40
1
41
1
10
301.962054671517
20
12.6934462054405
30
0
41
1
10
301.961418727008
20
12.6741270040124
30
0
41
1
10
301.955513666982
20
12.6556009263505
30
0
41
1
10
301.932902208196
20
12.6249843107605
30
0
41
1
10
301.916290140621
20
12.6130371046378
30
0
41
1
10
301.860864259417
20
12.5886764584314
30
0
41
1
10
301.817438682478
20
12.5857428681271
30
0
41
1
10
301.731415949525
20
12.5917277628033
30
0
41
1
10
301.688387385211
20
12.600971612101
30
0
41
1
10
301.60461930186
20
12.6270387394673
30
0
41
1
10
301.563687188712
20
12.644021945079
30
0
41
1
10
301.524446268007
20
12.6641080791463
30
0
0
SPLINE
5
26E
100
AcDbEntity
8
1
62
256
6
ByLayer
370
18
48
1
60
0
100
AcDbSpline
70
4
71
3
72
8
73
4
40
0
40
0
40
0
40
0
40
1
40
1
40
1
40
1
41
1
10
303.689810651724
20
14.6184802257423
30
0
41
1
10
303.682833844938
20
14.6182610276984
30
0
41
1
10
303.675856332184
20
14.6180418113621
30
0
41
1
10
303.668878086185
20
14.6178225760332
30
0
0
SPLINE
5
26F
100
AcDbEntity
8
1
62
256
6
ByLayer
370
18
48
1
60
0
100
AcDbSpline
70
4
71
3
72
18
73
14
40
0
40
0
40
0
40
0
40
0.124999999999978
40
0.124999999999978
40
0.249999999999955
40
0.249999999999955
40
0.49999999999997
40
0.49999999999997
40
0.749999999999985
40
0.749999999999985
40
0.874999999999993
40
0.874999999999993
40
1
40
1
40
1
40
1
41
1
10
301.283679499969
20
13.0625508790065
30
0
41
1
10
301.295858669442
20
13.0912400146328
30
0
41
1
10
301.298362886116
20
13.1242760343849
30
0
41
1
10
301.293809249384
20
13.191625545795
30
0
41
1
10
301.286559945025
20
13.2258233262665
30
0
41
1
10
301.25581299604
20
13.3270882638764
30
0
41
1
10
301.22340345536
20
13.3931306788942
30
0
41
1
10
301.144534512531
20
13.5150497928977
30
0
41
1
10
301.098269232864
20
13.5707353649551
30
0
41
1
10
301.01984167711
20
13.638148479935
30
0
41
1
10
300.992171550623
20
13.6578538116814
30
0
41
1
10
300.934235574726
20
13.6872315667179
30
0
41
1
10
300.903983073949
20
13.6971540624159
30
0
41
1
10
300.873802353241
20
13.6962744203325
30
0
0
SPLINE
5
270
100
AcDbEntity
8
1
62
256
6
ByLayer
370
18
48
1
60
0
100
AcDbSpline
70
4
71
3
72
16
73
12
40
0
40
0
40
0
40
0
40
0.25
40
0.25
40
0.5
40
0.5
40
0.75
40
0.75
40
0.875
40
0.875
40
1
40
1
40
1
40
1
41
1
10
303.039428321854
20
15.6510996555776
30
0
41
1
10
303.078696400131
20
15.630999620444
30
0
41
1
10
303.116305003901
20
15.6076835053046
30
0
41
1
10
303.186416252344
20
15.5544719043723
30
0
41
1
10
303.218980004685
20
15.5246568223736
30
0
41
1
10
303.273952062777
20
15.457079259661
30
0
41
1
10
303.296815719027
20
15.41935576533
30
0
41
1
10
303.308762211463
20
15.357670342162
30
0
41
1
10
303.308390102809
20
15.3366652382363
30
0
41
1
10
303.296133539785
20
15.2988834635411
30
0
41
1
10
303.284264189368
20
15.2823625144425
30
0
41
1
10
303.268671123706
20
15.2696168778294
30
0
0
SPLINE
5
271
100
AcDbEntity
8
1
62
256
6
ByLayer
370
18
48
1
60
0
100
AcDbSpline
70
4
71
3
72
18
73
14
40
0
40
0
40
0
40
0
40
0.124999999999979
40
0.124999999999979
40
0.249999999999958
40
0.249999999999958
40
0.499999999999917
40
0.499999999999917
40
0.749999999999875
40
0.749999999999875
40
0.874999999999938
40
0.874999999999938
40
1
40
1
40
1
40
1
41
1
10
302.721725514053
20
12.7503834553069
30
0
41
1
10
302.702180142611
20
12.7767082591059
30
0
41
1
10
302.674154617537
20
12.7966358337893
30
0
41
1
10
302.612439777223
20
12.8284811991686
30
0
41
1
10
302.578761234383
20
12.8401643123551
30
0
41
1
10
302.474709034171
20
12.8662059841492
30
0
41
1
10
302.401100325295
20
12.871784851382
30
0
41
1
10
302.256560950158
20
12.8641965524386
30
0
41
1
10
302.185889233689
20
12.8511069929214
30
0
41
1
10
302.089941163334
20
12.8145134805926
30
0
41
1
10
302.059692463783
20
12.7994296236087
30
0
41
1
10
302.006771949533
20
12.761640871631
30
0
41
1
10
301.983888032938
20
12.7390775476976
30
0
41
1
10
301.970458718403
20
12.7110112308977
30
0
0
SPLINE
5
272
100
AcDbEntity
8
1
62
256
6
ByLayer
370
18
48
1
60
0
100
AcDbSpline
70
4
71
3
72
8
73
4
40
0
40
0
40
0
40
0
40
1
40
1
40
1
40
1
41
1
10
302.733964367533
20
12.7339002784159
30
0
41
1
10
302.729885089836
20
12.7393939500117
30
0
41
1
10
302.725805476292
20
12.7448883330594
30
0
41
1
10
302.721725514053
20
12.7503834553069
30
0
0
SPLINE
5
273
100
AcDbEntity
8
1
62
256
6
ByLayer
370
18
48
1
60
0
100
AcDbSpline
70
4
71
3
72
8
73
4
40
0
40
0
40
0
40
0
40
1
40
1
40
1
40
1
41
1
10
300.873802353241
20
13.6962744203325
30
0
41
1
10
300.867505416106
20
13.6960908908883
30
0
41
1
10
300.861209507106
20
13.6959073958911
30
0
41
1
10
300.854914587425
20
13.695723934036
30
0
0
SPLINE
5
274
100
AcDbEntity
8
1
62
256
6
ByLayer
370
18
48
1
60
0
100
AcDbSpline
70
4
71
3
72
8
73
4
40
0
40
0
40
0
40
0
40
1
40
1
40
1
40
1
41
1
10
303.709386233797
20
13.8448810744833
30
0
41
1
10
303.716349168566
20
13.845392465479
30
0
41
1
10
303.723311372122
20
13.8459037987184
30
0
41
1
10
303.730272871665
20
13.8464150763561
30
0
0
SPLINE
5
275
100
AcDbEntity
8
1
62
256
6
ByLayer
370
18
48
1
60
0
100
AcDbSpline
70
4
71
3
72
16
73
12
40
0
40
0
40
0
40
0
40
0.124999999999996
40
0.124999999999996
40
0.249999999999993
40
0.249999999999993
40
0.499999999999995
40
0.499999999999995
40
0.749999999999998
40
0.749999999999998
40
1
40
1
40
1
40
1
41
1
10
303.379502703666
20
13.1548243512937
30
0
41
1
10
303.396405463267
20
13.1437372417248
30
0
41
1
10
303.410000714465
20
13.1284504892534
30
0
41
1
10
303.426130895999
20
13.0918796352739
30
0
41
1
10
303.428585815199
20
13.0707547689598
30
0
41
1
10
303.422992630811
20
13.0086729449792
30
0
41
1
10
303.404253809444
20
12.9687760088085
30
0
41
1
10
303.356735821998
20
12.8959945635447
30
0
41
1
10
303.327451133537
20
12.8629122057174
30
0
41
1
10
303.263360629917
20
12.8027299561207
30
0
41
1
10
303.228317908498
20
12.7755468715863
30
0
41
1
10
303.19139152639
20
12.7514689783245
30
0
0
SPLINE
5
276
100
AcDbEntity
8
1
62
256
6
ByLayer
370
18
48
1
60
0
100
AcDbSpline
70
4
71
3
72
16
73
12
40
0
40
0
40
0
40
0
40
0.250000000000001
40
0.250000000000001
40
0.500000000000003
40
0.500000000000003
40
0.750000000000004
40
0.750000000000004
40
0.875000000000002
40
0.875000000000002
40
1
40
1
40
1
40
1
41
1
10
303.948882553313
20
14.2449647665402
30
0
41
1
10
303.946566412887
20
14.2891593585895
30
0
41
1
10
303.940596534786
20
14.3332212616638
30
0
41
1
10
303.920459004514
20
14.41954604646
30
0
41
1
10
303.906392806204
20
14.4618269515001
30
0
41
1
10
303.86664412474
20
14.5407000093892
30
0
41
1
10
303.841194796913
20
14.577674691342
30
0
41
1
10
303.78882593644
20
14.6154291943381
30
0
41
1
10
303.769114407438
20
14.6243253572872
30
0
41
1
10
303.728733729647
20
14.6300271330874
30
0
41
1
10
303.708308055582
20
14.6267353766043
30
0
41
1
10
303.689810651724
20
14.6184802257423
30
0
0
SPLINE
5
277
100
AcDbEntity
8
1
62
256
6
ByLayer
370
18
48
1
60
0
100
AcDbSpline
70
4
71
3
72
8
73
4
40
0
40
0
40
0
40
0
40
1
40
1
40
1
40
1
41
1
10
301.17468385455
20
15.1423116876176
30
0
41
1
10
301.171529478078
20
15.148001796807
30
0
41
1
10
301.168375712779
20
15.1536911611171
30
0
41
1
10
301.165222535483
20
15.1593798084846
30
0
0
SPLINE
5
278
100
AcDbEntity
8
1
62
256
6
ByLayer
370
18
48
1
60
0
100
AcDbSpline
70
4
71
3
72
8
73
4
40
0
40
0
40
0
40
0
40
1
40
1
40
1
40
1
41
1
10
302.572221721022
20
15.603085765468
30
0
41
1
10
302.575704936117
20
15.6089772570439
30
0
41
1
10
302.579187881695
20
15.6148679770208
30
0
41
1
10
302.582670567632
20
15.6207579543378
30
0
0
SPLINE
5
279
100
AcDbEntity
8
1
62
256
6
ByLayer
370
18
48
1
60
0
100
AcDbSpline
70
4
71
3
72
16
73
12
40
0
40
0
40
0
40
0
40
0.250000000000065
40
0.250000000000065
40
0.500000000000134
40
0.500000000000134
40
0.750000000000202
40
0.750000000000202
40
0.875000000000101
40
0.875000000000101
40
1
40
1
40
1
40
1
41
1
10
301.372483063471
20
15.5637387563993
30
0
41
1
10
301.409435001323
20
15.5878333133151
30
0
41
1
10
301.44827856788
20
15.608956690961
30
0
41
1
10
301.528953573387
20
15.6436788611154
30
0
41
1
10
301.570749651169
20
15.6573657080471
30
0
41
1
10
301.655866590761
20
15.6723241696448
30
0
41
1
10
301.699393808063
20
15.673992031369
30
0
41
1
10
301.757452543835
20
15.6552222871491
30
0
41
1
10
301.77493140804
20
15.6450819134794
30
0
41
1
10
301.800368721666
20
15.617093628601
30
0
41
1
10
301.808118862218
20
15.59937960119
30
0
41
1
10
301.810760871615
20
15.5803038813625
30
0
0
SPLINE
5
27A
100
AcDbEntity
8
1
62
256
6
ByLayer
370
18
48
1
60
0
100
AcDbSpline
70
4
71
3
72
16
73
12
40
0
40
0
40
0
40
0
40
0.125
40
0.125
40
0.25
40
0.25
40
0.5
40
0.5
40
0.75
40
0.75
40
1
40
1
40
1
40
1
41
1
10
300.854914587425
20
13.695723934036
30
0
41
1
10
300.838403599963
20
13.687545702524
30
0
41
1
10
300.819947411053
20
13.6843610974653
30
0
41
1
10
300.783084703225
20
13.690413806534
30
0
41
1
10
300.764846040091
20
13.6996348773281
30
0
41
1
10
300.71701308442
20
13.7374608570949
30
0
41
1
10
300.693109645279
20
13.7744652548358
30
0
41
1
10
300.655743223957
20
13.8532912518185
30
0
41
1
10
300.642337108486
20
13.895635160215
30
0
41
1
10
300.62309916793
20
13.9819075776909
30
0
41
1
10
300.617306575144
20
14.0260789408546
30
0
41
1
10
300.614992036548
20
14.0702429681837
30
0
0
SPLINE
5
27B
100
AcDbEntity
8
1
62
256
6
ByLayer
370
18
48
1
60
0
100
AcDbSpline
70
4
71
3
72
16
73
12
40
0
40
0
40
0
40
0
40
0.125000000000003
40
0.125000000000003
40
0.250000000000006
40
0.250000000000006
40
0.500000000000004
40
0.500000000000004
40
0.750000000000002
40
0.750000000000002
40
1
40
1
40
1
40
1
41
1
10
302.582670567632
20
15.6207579543378
30
0
41
1
10
302.585361945435
20
15.6401848764604
30
0
41
1
10
302.593355250091
20
15.6588203943859
30
0
41
1
10
302.61972457386
20
15.6896339513346
30
0
41
1
10
302.637993288716
20
15.7016679786623
30
0
41
1
10
302.697418652211
20
15.7262382288538
30
0
41
1
10
302.742410862011
20
15.7292539229074
30
0
41
1
10
302.830710243335
20
15.7233883423165
30
0
41
1
10
302.874414328412
20
15.7141798955618
30
0
41
1
10
302.959061690115
20
15.6881588492213
30
0
41
1
10
303.000187401149
20
15.6711857896449
30
0
41
1
10
303.039428321854
20
15.6510996555776
30
0
0
SPLINE
5
27C
100
AcDbEntity
8
1
62
256
6
ByLayer
370
18
48
1
60
0
100
AcDbSpline
70
4
71
3
72
8
73
4
40
0
40
0
40
0
40
0
40
1
40
1
40
1
40
1
41
1
10
303.367996584875
20
13.1717853087481
30
0
41
1
10
303.371832270212
20
13.1661309054434
30
0
41
1
10
303.375667639265
20
13.1604772624723
30
0
41
1
10
303.379502703666
20
13.1548243512937
30
0
0
SPLINE
5
27D
100
AcDbEntity
8
1
62
256
6
ByLayer
370
18
48
1
60
0
100
AcDbSpline
70
4
71
3
72
8
73
4
40
0
40
0
40
0
40
0
40
1
40
1
40
1
40
1
41
1
10
301.810760871615
20
15.5803038813625
30
0
41
1
10
301.814158262207
20
15.5747744735777
30
0
41
1
10
301.817556271998
20
15.569244369191
30
0
41
1
10
301.820954925372
20
15.5637135410589
30
0
0
SPLINE
5
27E
100
AcDbEntity
8
1
62
256
6
ByLayer
370
18
48
1
60
0
100
AcDbSpline
70
4
71
3
72
8
73
4
40
0
40
0
40
0
40
0
40
1
40
1
40
1
40
1
41
1
10
301.970458718403
20
12.7110112308977
30
0
41
1
10
301.967656812173
20
12.7051554452065
30
0
41
1
10
301.964855470349
20
12.6993004465686
30
0
41
1
10
301.962054671517
20
12.6934462054405
30
0
0
SPLINE
5
27F
100
AcDbEntity
8
1
62
256
6
ByLayer
370
18
48
1
60
0
100
AcDbSpline
70
4
71
3
72
20
73
16
40
0
40
0
40
0
40
0
40
0.12500000000002
40
0.12500000000002
40
0.25000000000004
40
0.25000000000004
40
0.375000000000061
40
0.375000000000061
40
0.500000000000081
40
0.500000000000081
40
0.75000000000004
40
0.75000000000004
40
0.87500000000002
40
0.87500000000002
40
1
40
1
40
1
40
1
41
1
10
303.367996584875
20
13.1717853087481
30
0
41
1
10
303.349539847223
20
13.1989934421636
30
0
41
1
10
303.340703764333
20
13.2316769451172
30
0
41
1
10
303.333282355909
20
13.2989422924604
30
0
41
1
10
303.334865245712
20
13.3334053998501
30
0
41
1
10
303.344872306323
20
13.402432547345
30
0
41
1
10
303.353441604393
20
13.4370911834697
30
0
41
1
10
303.375736728929
20
13.5044025100199
30
0
41
1
10
303.389538754432
20
13.5374273387751
30
0
41
1
10
303.43875825694
20
13.6347011515237
30
0
41
1
10
303.480823844107
20
13.6953514180521
30
0
41
1
10
303.556850686082
20
13.7709829051101
30
0
41
1
10
303.584416319433
20
13.7936203178881
30
0
41
1
10
303.644004410264
20
13.8292190748319
30
0
41
1
10
303.6759747606
20
13.8424271772238
30
0
41
1
10
303.709386233797
20
13.8448810744833
30
0
0
SPLINE
5
280
100
AcDbEntity
8
1
62
256
6
ByLayer
370
18
48
1
60
0
100
AcDbSpline
70
4
71
3
72
16
73
12
40
0
40
0
40
0
40
0
40
0.125
40
0.125
40
0.25
40
0.25
40
0.5
40
0.5
40
0.75
40
0.75
40
1
40
1
40
1
40
1
41
1
10
303.730272871665
20
13.8464150763561
30
0
41
1
10
303.749603701477
20
13.8401152348929
30
0
41
1
10
303.770379911955
20
13.8389867127621
30
0
41
1
10
303.810165866619
20
13.849056408017
30
0
41
1
10
303.828997399369
20
13.860220245455
30
0
41
1
10
303.876613911858
20
13.9030485198817
30
0
41
1
10
303.898085025489
20
13.9424308971694
30
0
41
1
10
303.929283837687
20
14.0248502457769
30
0
41
1
10
303.938865890144
20
14.0683989130043
30
0
41
1
10
303.949859798379
20
14.156255714539
30
0
41
1
10
303.951197091909
20
14.200800739211
30
0
41
1
10
303.948882553313
20
14.2449647665402
30
0
0
SPLINE
5
281
100
AcDbEntity
8
1
62
256
6
ByLayer
370
18
48
1
60
0
100
AcDbSpline
70
4
71
3
72
30
73
26
40
0
40
0
40
0
40
0
40
0.0051026813661711
40
0.0127874227470773
40
0.0281569055088898
40
0.0588958710325147
40
0.120373802079765
40
0.243329664174264
40
0.366285526268764
40
0.485399017672811
40
0.489241388363264
40
0.49692612974417
40
0.504610871125077
40
0.519980353886889
40
0.550719319410514
40
0.612197250457764
40
0.735153112552264
40
0.858108974646764
40
0.919586905694013
40
0.950325871217638
40
0.965695353979451
40
0.981064836741263
40
0.98874957812217
40
0.996434319503076
40
1
40
1
40
1
40
1
41
1
10
310.244148790312
20
-13.9733365397599
30
0
41
1
10
310.272489542685
20
-13.962075071765
30
0
41
1
10
310.343338584692
20
-13.9272669403373
30
0
41
1
10
310.480386952639
20
-13.7913422251956
30
0
41
1
10
310.523309450744
20
-13.4893438226637
30
0
41
1
10
310.58846206198
20
-12.9848987472901
30
0
41
1
10
310.724904343623
20
-11.9624760572878
30
0
41
1
10
310.914859173735
20
-10.5086569271685
30
0
41
1
10
311.151947525561
20
-8.78138933486795
30
0
41
1
10
311.305495032157
20
-7.61591606902587
30
0
41
1
10
311.38458172912
20
-6.98684478557354
30
0
41
1
10
311.380028996101
20
-6.87654105099764
30
0
41
1
10
311.347441572933
20
-6.72574744568945
30
0
41
1
10
311.312706497598
20
-6.47499314469235
30
0
41
1
10
311.228342488671
20
-5.96630776891459
30
0
41
1
10
311.0689805048
20
-4.95175516771064
30
0
41
1
10
310.837404971432
20
-3.5013738328984
30
0
41
1
10
310.604428430219
20
-2.05213302319046
30
0
41
1
10
310.447119657061
20
-1.03553719501821
30
0
41
1
10
310.359596941715
20
-0.531338305803331
30
0
41
1
10
310.324668124442
20
-0.240992085677249
30
0
41
1
10
310.29712579499
20
-0.0440344488077926
30
0
41
1
10
310.226125568124
20
0.129484367786489
30
0
41
1
10
310.134207145831
20
0.221135423655397
30
0
41
1
10
310.075250256385
20
0.253372827572036
30
0
41
1
10
310.056289083
20
0.261863854141296
30
0
0
SPLINE
5
282
100
AcDbEntity
8
1
62
256
6
ByLayer
370
18
48
1
60
0
100
AcDbSpline
70
4
71
1
72
4
73
2
40
0
40
0
40
1
40
1
41
1
10
311.946471987647
20
-7.78334127838582
30
0
41
1
10
311.979329005004
20
-7.5351544630195
30
0
0
SPLINE
5
283
100
AcDbEntity
8
1
62
256
6
ByLayer
370
18
48
1
60
0
100
AcDbSpline
70
4
71
2
72
6
73
3
40
0
40
0
40
0
40
1
40
1
40
1
41
1
10
310.457189228913
20
0.0592866648175914
30
0
41
1
10
310.449534875525
20
0.107345768594541
30
0
41
1
10
310.436047913154
20
0.154119000299033
30
0
0
SPLINE
5
284
100
AcDbEntity
8
1
62
256
6
ByLayer
370
18
48
1
60
0
100
AcDbSpline
70
4
71
2
72
12
73
9
40
0
40
0
40
0
40
0.25
40
0.5
40
0.5
40
0.75
40
0.75
40
0.875
40
1
40
1
40
1
41
1
10
310.42002549943
20
0.209685261412858
30
0
41
1
10
310.406122901693
20
0.257899930513389
30
0
41
1
10
310.35171092406
20
0.34315346381058
30
0
41
1
10
310.312275984135
20
0.377228559615844
30
0
41
1
10
310.274561801039
20
0.409816777187956
30
0
41
1
10
310.226950799256
20
0.431263614197007
30
0
41
1
10
310.204839430051
20
0.441223894671055
30
0
41
1
10
310.155223084202
20
0.455427498658906
30
0
41
1
10
310.129268073118
20
0.45882555044335
30
0
0
SPLINE
5
285
100
AcDbEntity
8
1
62
256
6
ByLayer
370
18
48
1
60
0
100
AcDbSpline
70
4
71
1
72
4
73
2
40
0
40
0
40
1
40
1
41
1
10
310.355543154041
20
-14.1484873420218
30
0
41
1
10
310.448710351009
20
-14.9348044350878
30
0
0
SPLINE
5
286
100
AcDbEntity
8
1
62
256
6
ByLayer
370
18
48
1
60
0
100
AcDbSpline
70
4
71
1
72
4
73
2
40
0
40
0
40
1
40
1
41
1
10
311.974066489721
20
-7.10129465653043
30
0
41
1
10
311.93525113625
20
-6.85758614182552
30
0
0
SPLINE
5
287
100
AcDbEntity
8
1
62
256
6
ByLayer
370
18
48
1
60
0
100
AcDbSpline
70
4
71
3
72
27
73
23
40
0
40
0
40
0
40
0
40
0.003086239876283
40
0.0188322870161332
40
0.0503243812958336
40
0.113308569855235
40
0.239276946974036
40
0.365245324092838
40
0.487277189426677
40
0.49121370121164
40
0.499086724781565
40
0.50695974835149
40
0.52270579549134
40
0.554197889771041
40
0.617182078330442
40
0.743150455449244
40
0.869118832568045
40
0.932103021127446
40
0.963595115407147
40
0.979341162546997
40
0.995087209686847
40
1
40
1
40
1
40
1
41
1
10
310.290599016676
20
-13.7614678028646
30
0
41
1
10
310.299247054255
20
-13.7519669484906
30
0
41
1
10
310.346841786087
20
-13.6896922459575
30
0
41
1
10
310.379717997626
20
-13.4583785106294
30
0
41
1
10
310.444792430023
20
-12.9545387361003
30
0
41
1
10
310.581248714974
20
-11.9320111130806
30
0
41
1
10
310.771238301763
20
-10.4779259727649
30
0
41
1
10
311.008337074315
20
-8.75058246200939
30
0
41
1
10
311.161778378102
20
-7.58591530846797
30
0
41
1
10
311.239322229876
20
-6.96911612185232
30
0
41
1
10
311.235770288892
20
-6.88305960285896
30
0
41
1
10
311.204647893573
20
-6.73904520283369
30
0
41
1
10
311.16943567046
20
-6.48484634740816
30
0
41
1
10
311.085284583363
20
-5.97744481556401
30
0
41
1
10
310.925855621708
20
-4.96246581100081
30
0
41
1
10
310.694320665637
20
-3.51233861596612
30
0
41
1
10
310.461289455872
20
-2.06275773812757
30
0
41
1
10
310.304117483054
20
-1.04704597161722
30
0
41
1
10
310.216180357971
20
-0.540459760113094
30
0
41
1
10
310.180969511585
20
-0.247769169535445
30
0
41
1
10
310.157977528706
20
-0.0833514639624582
30
0
41
1
10
310.125826036378
20
0.0029216123332958
30
0
41
1
10
310.116524064001
20
0.0221976188403517
30
0
0
SPLINE
5
288
100
AcDbEntity
8
1
62
256
6
ByLayer
370
18
48
1
60
0
100
AcDbSpline
70
4
71
3
72
10
73
6
40
0
40
0
40
0
40
0
40
0.538206403674497
40
0.538206403674497
40
1
40
1
40
1
40
1
41
1
10
310.802775998912
20
-14.8338406172888
30
0
41
1
10
310.739255732166
20
-14.8519528615534
30
0
41
1
10
310.675735930224
20
-14.8700681634015
30
0
41
1
10
310.557713998045
20
-14.9037224437956
30
0
41
1
10
310.503211926313
20
-14.9192618085967
30
0
41
1
10
310.448710351009
20
-14.9348044350879
30
0
0
SPLINE
5
289
100
AcDbEntity
8
1
62
256
6
ByLayer
370
18
48
1
60
0
100
AcDbSpline
70
4
71
3
72
12
73
8
40
0
40
0
40
0
40
0
40
0.441018882276453
40
0.441018882276453
40
0.720346499558534
40
0.720346499558534
40
1
40
1
40
1
40
1
41
1
10
310.856297980253
20
-0.121634148601544
30
0
41
1
10
310.860257763978
20
-0.135366292350454
30
0
41
1
10
310.863846795647
20
-0.149209563955736
30
0
41
1
10
310.869091215137
20
-0.171955044714309
30
0
41
1
10
310.87097403017
20
-0.180812021558182
30
0
41
1
10
310.874436272637
20
-0.198592548747882
30
0
41
1
10
310.876015848415
20
-0.207518757122358
30
0
41
1
10
310.877441505319
20
-0.216467933546994
30
0
0
SPLINE
5
28A
100
AcDbEntity
8
1
62
256
6
ByLayer
370
18
48
1
60
0
100
AcDbSpline
70
4
71
1
72
4
73
2
40
0
40
0
40
1
40
1
41
1
10
311.993165867268
20
-7.43063716180853
30
0
41
1
10
311.558963327369
20
-7.0678053015977
30
0
0
SPLINE
5
28B
100
AcDbEntity
8
1
62
256
6
ByLayer
370
18
48
1
60
0
100
AcDbSpline
70
4
71
3
72
8
73
4
40
0
40
0
40
0
40
0
40
1
40
1
40
1
40
1
41
1
10
311.991122535702
20
-7.20798907027208
30
0
41
1
10
311.995995704879
20
-7.24398880132216
30
0
41
1
10
311.99946541116
20
-7.28008989199878
30
0
41
1
10
311.999943169458
20
-7.31638302607365
30
0
0
SPLINE
5
28C
100
AcDbEntity
8
1
62
256
6
ByLayer
370
18
48
1
60
0
100
AcDbSpline
70
4
71
1
72
4
73
2
40
0
40
0
40
1
40
1
41
1
10
310.129268073117
20
0.458825550443436
30
0
41
1
10
310.464704534157
20
0.477470931739248
30
0
0
SPLINE
5
28D
100
AcDbEntity
8
1
62
256
6
ByLayer
370
18
48
1
60
0
100
AcDbSpline
70
4
71
1
72
4
73
2
40
0
40
0
40
1
40
1
41
1
10
310.755461960471
20
0.228330642705657
30
0
41
1
10
310.42002549943
20
0.209685261412886
30
0
0
SPLINE
5
28E
100
AcDbEntity
8
1
62
256
6
ByLayer
370
18
48
1
60
0
100
AcDbSpline
70
4
71
2
72
7
73
4
40
0
40
0
40
0
40
0.5
40
1
40
1
40
1
41
1
10
311.558963327369
20
-7.06780530159767
30
0
41
1
10
311.566455467058
20
-7.01121311997068
30
0
41
1
10
311.565029418014
20
-6.89646828476967
30
0
41
1
10
311.555958110748
20
-6.83951260545999
30
0
0
SPLINE
5
28F
100
AcDbEntity
8
1
62
256
6
ByLayer
370
18
48
1
60
0
100
AcDbSpline
70
4
71
2
72
6
73
3
40
0
40
0
40
0
40
1
40
1
40
1
41
1
10
310.260180841421
20
-14.1695111646478
30
0
41
1
10
310.308508526864
20
-14.161899350392
30
0
41
1
10
310.355543154041
20
-14.1484873420218
30
0
0
SPLINE
5
290
100
AcDbEntity
8
1
62
256
6
ByLayer
370
18
48
1
60
0
100
AcDbSpline
70
4
71
1
72
4
73
2
40
0
40
0
40
1
40
1
41
1
10
311.93525113625
20
-6.85758614182552
30
0
41
1
10
311.863960107241
20
-6.40997381220942
30
0
0
SPLINE
5
291
100
AcDbEntity
8
1
62
256
6
ByLayer
370
18
48
1
60
0
100
AcDbSpline
70
4
71
1
72
4
73
2
40
0
40
0
40
1
40
1
41
1
10
311.555958110748
20
-6.83951260545999
30
0
41
1
10
311.990160650669
20
-7.20234446567619
30
0
0
SPLINE
5
292
100
AcDbEntity
8
1
62
256
6
ByLayer
370
18
48
1
60
0
100
AcDbSpline
70
4
71
1
72
4
73
2
40
0
40
0
40
1
40
1
41
1
10
311.979329005004
20
-7.5351544630195
30
0
41
1
10
311.993165867268
20
-7.43063716180836
30
0
0
SPLINE
5
293
100
AcDbEntity
8
1
62
256
6
ByLayer
370
18
48
1
60
0
100
AcDbSpline
70
4
71
2
72
12
73
9
40
0
40
0
40
0
40
0.25
40
0.5
40
0.5
40
0.75
40
0.75
40
0.875
40
1
40
1
40
1
41
1
10
310.411419951343
20
-14.1325539729708
30
0
41
1
10
310.459904071491
20
-14.1187286390798
30
0
41
1
10
310.545634050114
20
-14.0646190566333
30
0
41
1
10
310.579899576972
20
-14.0254032768352
30
0
41
1
10
310.612669916071
20
-13.9878986907436
30
0
41
1
10
310.634236610228
20
-13.9405522876385
30
0
41
1
10
310.644252554424
20
-13.9185638026206
30
0
41
1
10
310.658535536244
20
-13.8692232001724
30
0
41
1
10
310.661952578276
20
-13.8434124343574
30
0
0
SPLINE
5
294
100
AcDbEntity
8
1
62
256
6
ByLayer
370
18
48
1
60
0
100
AcDbSpline
70
4
71
3
72
12
73
8
40
0
40
0
40
0
40
0
40
0.499999999999862
40
0.499999999999862
40
0.749999999999931
40
0.749999999999931
40
1
40
1
40
1
40
1
41
1
10
311.051250855158
20
-14.5453848001166
30
0
41
1
10
311.042356361297
20
-14.6121269386531
30
0
41
1
10
311.01333127652
20
-14.6760067283128
30
0
41
1
10
310.947166936306
20
-14.7525863528599
30
0
41
1
10
310.921302936042
20
-14.7749076295292
30
0
41
1
10
310.864283768517
20
-14.8110982215955
30
0
41
1
10
310.833031534705
20
-14.824437286914
30
0
41
1
10
310.800714090589
20
-14.8345314856969
30
0
0
SPLINE
5
295
100
AcDbEntity
8
1
62
256
6
ByLayer
370
18
48
1
60
0
100
AcDbSpline
70
4
71
1
72
4
73
2
40
0
40
0
40
1
40
1
41
1
10
311.051245754533
20
-14.5454689972028
30
0
41
1
10
311.88615263793
20
-8.23896593684185
30
0
0
SPLINE
5
296
100
AcDbEntity
8
1
62
256
6
ByLayer
370
18
48
1
60
0
100
AcDbSpline
70
4
71
3
72
12
73
8
40
0
40
0
40
0
40
0
40
0.441018882298376
40
0.441018882298376
40
0.720346499566758
40
0.720346499566758
40
1
40
1
40
1
40
1
41
1
10
310.448710351142
20
-14.9348044350497
30
0
41
1
10
310.434901626518
20
-14.9387423735043
30
0
41
1
10
310.420981169338
20
-14.9423116365657
30
0
41
1
10
310.398108971887
20
-14.9475273058957
30
0
41
1
10
310.389202678072
20
-14.949399837001
30
0
41
1
10
310.371323227263
20
-14.9528432796078
30
0
41
1
10
310.362347397589
20
-14.9544143388319
30
0
41
1
10
310.353348528271
20
-14.9558323910344
30
0
0
SPLINE
5
297
100
AcDbEntity
8
1
62
256
6
ByLayer
370
18
48
1
60
0
100
AcDbSpline
70
4
71
3
72
10
73
6
40
0
40
0
40
0
40
0
40
0.772174323578777
40
0.772174323578777
40
1
40
1
40
1
40
1
41
1
10
310.755386996138
20
0.228326475780705
30
0
41
1
10
310.78136011461
20
0.138249912321982
30
0
41
1
10
310.807335131286
20
0.0481721968148463
30
0
41
1
10
310.840971132865
20
-0.068480742403068
30
0
41
1
10
310.848634313219
20
-0.0950572988074896
30
0
41
1
10
310.856297980836
20
-0.121634150624146
30
0
0
SPLINE
5
298
100
AcDbEntity
8
1
62
256
6
ByLayer
370
18
48
1
60
0
100
AcDbSpline
70
4
71
1
72
4
73
2
40
0
40
0
40
1
40
1
41
1
10
310.353368705929
20
-14.9560026886483
30
0
41
1
10
310.260180841421
20
-14.1695111646478
30
0
0
SPLINE
5
299
100
AcDbEntity
8
1
62
256
6
ByLayer
370
18
48
1
60
0
100
AcDbSpline
70
4
71
1
72
4
73
2
40
0
40
0
40
1
40
1
41
1
10
311.990160650669
20
-7.20234446567633
30
0
41
1
10
311.974066489721
20
-7.10129465653043
30
0
0
SPLINE
5
29A
100
AcDbEntity
8
1
62
256
6
ByLayer
370
18
48
1
60
0
100
AcDbSpline
70
4
71
1
72
4
73
2
40
0
40
0
40
1
40
1
41
1
10
310.800713127578
20
-14.8346105358146
30
0
41
1
10
310.411419951343
20
-14.1325539729705
30
0
0
SPLINE
5
29B
100
AcDbEntity
8
1
62
256
6
ByLayer
370
18
48
1
60
0
100
AcDbSpline
70
4
71
3
72
12
73
8
40
0
40
0
40
0
40
0
40
0.5
40
0.5
40
0.75
40
0.75
40
1
40
1
40
1
40
1
41
1
10
310.46470521094
20
0.477560874125317
30
0
41
1
10
310.531820335412
20
0.468715804388012
30
0
41
1
10
310.596055297968
20
0.439850213213106
30
0
41
1
10
310.673063730649
20
0.374054414965883
30
0
41
1
10
310.695509450626
20
0.348333855139885
30
0
41
1
10
310.731901573892
20
0.291630853845589
30
0
41
1
10
310.745314905146
20
0.260552025869174
30
0
41
1
10
310.755465232714
20
0.228413904539423
30
0
0
SPLINE
5
29C
100
AcDbEntity
8
1
62
256
6
ByLayer
370
18
48
1
60
0
100
AcDbSpline
70
4
71
1
72
4
73
2
40
0
40
0
40
1
40
1
41
1
10
310.464704534157
20
0.477470931739219
30
0
41
1
10
310.061111682799
20
0.530309645784001
30
0
0
SPLINE
5
29D
100
AcDbEntity
8
1
62
256
6
ByLayer
370
18
48
1
60
0
100
AcDbSpline
70
4
71
1
72
4
73
2
40
0
40
0
40
1
40
1
41
1
10
310.877532521826
20
-0.216527657207706
30
0
41
1
10
310.457189228912
20
0.0592866648177619
30
0
0
SPLINE
5
29E
100
AcDbEntity
8
1
62
256
6
ByLayer
370
18
48
1
60
0
100
AcDbSpline
70
4
71
1
72
4
73
2
40
0
40
0
40
1
40
1
41
1
10
310.661952578277
20
-13.843412434357
30
0
41
1
10
311.051245754533
20
-14.5454689972027
30
0
0
SPLINE
5
29F
100
AcDbEntity
8
1
62
256
6
ByLayer
370
18
48
1
60
0
100
AcDbSpline
70
4
71
1
72
4
73
2
40
0
40
0
40
1
40
1
41
1
10
311.863960107241
20
-6.40997381220942
30
0
41
1
10
310.877532521826
20
-0.216527657207735
30
0
0
SPLINE
5
2A0
100
AcDbEntity
8
1
62
256
6
ByLayer
370
18
48
1
60
0
100
AcDbSpline
70
4
71
1
72
4
73
2
40
0
40
0
40
1
40
1
41
1
10
311.88615263793
20
-8.23896593684185
30
0
41
1
10
311.946471987647
20
-7.78334127838582
30
0
0
SPLINE
5
2A1
100
AcDbEntity
8
1
62
256
6
ByLayer
370
18
48
1
60
0
100
AcDbSpline
70
4
71
1
72
4
73
2
40
0
40
0
40
1
40
1
41
1
10
310.436047913154
20
0.154119000298891
30
0
41
1
10
310.856297980836
20
-0.121634150623891
30
0
0
SPLINE
5
2A2
100
AcDbEntity
8
1
62
256
6
ByLayer
370
18
48
1
60
0
100
AcDbSpline
70
4
71
3
72
8
73
4
40
0
40
0
40
0
40
0
40
1
40
1
40
1
40
1
41
1
10
311.999943169458
20
-7.31638302607365
30
0
41
1
10
312.000415193704
20
-7.35224057014054
30
0
41
1
10
311.997984280201
20
-7.38798667829596
30
0
41
1
10
311.994156289452
20
-7.42366882284338
30
0
0
SPLINE
5
2A3
100
AcDbEntity
8
1
62
256
6
ByLayer
370
13
48
1
60
0
100
AcDbSpline
70
4
71
1
72
4
73
2
40
0
40
0
40
1
40
1
41
1
10
292.363485305688
20
13.8173627987795
30
0
41
1
10
292.433633523856
20
13.8198697365133
30
0
0
SPLINE
5
2A4
100
AcDbEntity
8
1
62
256
6
ByLayer
370
13
48
1
60
0
100
AcDbSpline
70
4
71
3
72
18
73
14
40
0
40
0
40
0
40
0
40
0.500000000000014
40
0.500000000000014
40
0.75000000000002
40
0.75000000000002
40
0.875000000000038
40
0.875000000000038
40
0.906250000000028
40
0.906250000000028
40
0.937500000000019
40
0.937500000000019
40
1
40
1
40
1
40
1
41
1
10
301.973627829447
20
20.5552359290609
30
0
41
1
10
300.97244031702
20
20.5027659148887
30
0
41
1
10
299.971252403043
20
20.4503035629924
30
0
41
1
10
298.469471255256
20
20.3715962354948
30
0
41
1
10
297.968878671491
20
20.3453388590231
30
0
41
1
10
297.217987157722
20
20.3060031280717
30
0
41
1
10
296.967689768183
20
20.2928953843601
30
0
41
1
10
296.654820249578
20
20.2764683611183
30
0
41
1
10
296.592246899973
20
20.2732711002893
30
0
41
1
10
296.467092289897
20
20.2665950430877
30
0
41
1
10
296.404601397641
20
20.265000425366
30
0
41
1
10
296.217674853499
20
20.2712350064504
30
0
41
1
10
296.093474176284
20
20.2875933491097
30
0
41
1
10
295.970397504811
20
20.3163539677119
30
0
0
SPLINE
5
2A5
100
AcDbEntity
8
1
62
256
6
ByLayer
370
13
48
1
60
0
100
AcDbSpline
70
4
71
2
72
6
73
3
40
0
40
0
40
0
40
1
40
1
40
1
41
1
10
311.949929394373
20
14.7329681429707
30
0
41
0.997409491337352
10
311.950694277017
20
14.6752780092826
30
0
41
1
10
311.943208381914
20
14.618078372133
30
0
0
SPLINE
5
2A6
100
AcDbEntity
8
1
62
256
6
ByLayer
370
13
48
1
60
0
100
AcDbSpline
70
4
71
3
72
18
73
14
40
0
40
0
40
0
40
0
40
0.500000000000014
40
0.500000000000014
40
0.750000000000007
40
0.750000000000007
40
0.87499999999999
40
0.87499999999999
40
0.906249999999992
40
0.906249999999992
40
0.937499999999995
40
0.937499999999995
40
1
40
1
40
1
40
1
41
1
10
302.002543820049
20
20.3564768827145
30
0
41
1
10
300.993198177651
20
20.3035793190675
30
0
41
1
10
299.983852212611
20
20.2506897586545
30
0
41
1
10
298.469833700358
20
20.1713405296627
30
0
41
1
10
297.965161596704
20
20.1448678915226
30
0
41
1
10
297.208151630986
20
20.1052154179422
30
0
41
1
10
296.955815901455
20
20.0919690424835
30
0
41
1
10
296.640395221315
20
20.075442844229
30
0
41
1
10
296.577326981255
20
20.0716416131467
30
0
41
1
10
296.451120360573
20
20.0662277007413
30
0
41
1
10
296.387926458573
20
20.0663474163764
30
0
41
1
10
296.198067194268
20
20.0753670321148
30
0
41
1
10
296.071129232942
20
20.0927726598064
30
0
41
1
10
295.943795474741
20
20.1225280765803
30
0
0
SPLINE
5
2A7
100
AcDbEntity
8
1
62
256
6
ByLayer
370
13
48
1
60
0
100
AcDbSpline
70
4
71
2
72
6
73
3
40
0
40
0
40
0
40
1
40
1
40
1
41
1
10
292.667749863994
20
13.5850593749447
30
0
41
0.997409491337352
10
292.668514746638
20
13.5273692412552
30
0
41
1
10
292.677514576082
20
13.4703826367831
30
0
0
SPLINE
5
2A8
100
AcDbEntity
8
1
62
256
6
ByLayer
370
13
48
1
60
0
100
AcDbSpline
70
4
71
1
72
4
73
2
40
0
40
0
40
1
40
1
41
1
10
309.998475063099
20
6.71455017537895
30
0
41
1
10
310.062023229892
20
6.81257573419526
30
0
0
SPLINE
5
2A9
100
AcDbEntity
8
1
62
256
6
ByLayer
370
13
48
1
60
0
100
AcDbSpline
70
4
71
2
72
6
73
3
40
0
40
0
40
0
40
1
40
1
40
1
41
0.99883560370872
10
292.445564656396
20
13.6421014211755
30
0
41
0.998293048640322
10
292.442684590943
20
13.6067240069856
30
0
41
1
10
292.443155184393
20
13.5712301973139
30
0
0
SPLINE
5
2AA
100
AcDbEntity
8
1
62
256
6
ByLayer
370
13
48
1
60
0
100
AcDbSpline
70
4
71
3
72
9
73
5
40
0
40
0
40
0
40
0
40
0.513495271766622
40
1
40
1
40
1
40
1
41
1
10
295.000396944418
20
5.78107123775021
30
0
41
1
10
295.022535311879
20
5.78162226922731
30
0
41
1
10
295.065618842355
20
5.78360001536763
30
0
41
1
10
295.108704625631
20
5.78545556042411
30
0
41
1
10
295.129665959111
20
5.78636392021952
30
0
0
SPLINE
5
2AB
100
AcDbEntity
8
1
62
256
6
ByLayer
370
13
48
1
60
0
100
AcDbSpline
70
4
71
3
72
24
73
20
40
0
40
0
40
0
40
0
40
0.031250000000016
40
0.031250000000016
40
0.0625000000000319
40
0.0625000000000319
40
0.125000000000064
40
0.125000000000064
40
0.156250000000081
40
0.156250000000081
40
0.171875000000076
40
0.171875000000076
40
0.187500000000072
40
0.187500000000072
40
0.250000000000055
40
0.250000000000055
40
0.500000000000037
40
0.500000000000037
40
1
40
1
40
1
40
1
41
1
10
308.432676705477
20
21.181877062561
30
0
41
1
10
308.37693749292
20
21.1430207832714
30
0
41
1
10
308.31860239644
20
21.106815741644
30
0
41
1
10
308.19854258749
20
21.0410080200878
30
0
41
1
10
308.137240685793
20
21.0115934791713
30
0
41
1
10
307.949626291263
20
20.9335234664808
30
0
41
1
10
307.819575120028
20
20.8948778679304
30
0
41
1
10
307.617123326517
20
20.8578841455331
30
0
41
1
10
307.549418369502
20
20.8493168585355
30
0
41
1
10
307.447547240289
20
20.841807966456
30
0
41
1
10
307.413529593293
20
20.8403370553766
30
0
41
1
10
307.345531855424
20
20.8367556722134
30
0
41
1
10
307.311531899311
20
20.8349834947062
30
0
41
1
10
307.141533890681
20
20.8260924320415
30
0
41
1
10
307.005536063738
20
20.8189697054948
30
0
41
1
10
306.325548475388
20
20.7833297389277
30
0
41
1
10
305.781560607806
20
20.7547802480952
30
0
41
1
10
304.149589751657
20
20.6692552971959
30
0
41
1
10
303.061608312739
20
20.6122545700933
30
0
41
1
10
301.973627829447
20
20.5552359290608
30
0
0
SPLINE
5
2AC
100
AcDbEntity
8
1
62
256
6
ByLayer
370
13
48
1
60
0
100
AcDbSpline
70
4
71
3
72
9
73
5
40
0
40
0
40
0
40
0
40
0.513495271766207
40
1
40
1
40
1
40
1
41
1
10
293.611235920453
20
21.6981149335808
30
0
41
1
10
293.633310610094
20
21.6998810102417
30
0
41
1
10
293.676364855248
20
21.7024175536346
30
0
41
1
10
293.719408567368
20
21.7050758641625
30
0
41
1
10
293.740350021924
20
21.7063635364339
30
0
0
SPLINE
5
2AD
100
AcDbEntity
8
1
62
256
6
ByLayer
370
13
48
1
60
0
100
AcDbSpline
70
4
71
3
72
10
73
6
40
0
40
0
40
0
40
0
40
0.437251963455506
40
0.437251963455506
40
1
40
1
40
1
40
1
41
1
10
308.71306616853
20
21.4528774014796
30
0
41
1
10
308.714859036323
20
21.4495636619639
30
0
41
1
10
308.724529750398
20
21.4409559012388
30
0
41
1
10
308.761144948735
20
21.4126378877365
30
0
41
1
10
308.792384550104
20
21.3904508055404
30
0
41
1
10
308.825066322975
20
21.3687197275158
30
0
0
SPLINE
5
2AE
100
AcDbEntity
8
1
62
256
6
ByLayer
370
13
48
1
60
0
100
AcDbSpline
70
4
71
1
72
4
73
2
40
0
40
0
40
1
40
1
41
1
10
292.674470876453
20
13.6999491457824
30
0
41
1
10
292.449436262943
20
13.6785996866111
30
0
0
SPLINE
5
2AF
100
AcDbEntity
8
1
62
256
6
ByLayer
370
13
48
1
60
0
100
AcDbSpline
70
4
71
3
72
22
73
18
40
0
40
0
40
0
40
0
40
0.125000000000013
40
0.125000000000013
40
0.250000000000026
40
0.250000000000026
40
0.375000000000039
40
0.375000000000039
40
0.500000000000052
40
0.500000000000052
40
0.625000000000065
40
0.625000000000065
40
0.687500000000019
40
0.687500000000019
40
0.749999999999973
40
0.749999999999973
40
1
40
1
40
1
40
1
41
1
10
293.78529775925
20
6.45593836387516
30
0
41
1
10
293.795201698277
20
6.39116482957749
30
0
41
1
10
293.812318017318
20
6.32892273311924
30
0
41
1
10
293.862159481661
20
6.20991700547074
30
0
41
1
10
293.895182632014
20
6.15252509593986
30
0
41
1
10
293.972634385724
20
6.04903703148747
30
0
41
1
10
294.017721445689
20
6.00203021200937
30
0
41
1
10
294.118923289095
20
5.9198428156619
30
0
41
1
10
294.173454745558
20
5.88550646115971
30
0
41
1
10
294.290396355781
20
5.83037874503663
30
0
41
1
10
294.353008430358
20
5.80978316656149
30
0
41
1
10
294.447682786985
20
5.79054111573916
30
0
41
1
10
294.479590878701
20
5.78603859480558
30
0
41
1
10
294.544098935601
20
5.78081245617133
30
0
41
1
10
294.576778362978
20
5.78050109861027
30
0
41
1
10
294.739712603733
20
5.77759150225083
30
0
41
1
10
294.870056668703
20
5.77785567102919
30
0
41
1
10
295.000396944418
20
5.78107123775024
30
0
0
SPLINE
5
2B0
100
AcDbEntity
8
1
62
256
6
ByLayer
370
13
48
1
60
0
100
AcDbSpline
70
4
71
3
72
24
73
20
40
0
40
0
40
0
40
0
40
0.0514081714714976
40
0.0514081714714976
40
0.102816342942995
40
0.102816342942995
40
0.154224514414493
40
0.154224514414493
40
0.205632685885991
40
0.205632685885991
40
0.308449028828986
40
0.308449028828986
40
0.411265371771981
40
0.411265371771981
40
0.616898057657958
40
0.616898057657958
40
0.822530743543934
40
0.822530743543934
40
1
40
1
40
1
40
1
41
1
10
311.067370085222
20
7.3623842178996
30
0
41
1
10
311.066024847507
20
7.34489810661339
30
0
41
1
10
311.064329161785
20
7.32596981911163
30
0
41
1
10
311.060204044437
20
7.28861481874281
30
0
41
1
10
311.057795208512
20
7.27053295949426
30
0
41
1
10
311.053105407105
20
7.2392255419183
30
0
41
1
10
311.050802429243
20
7.22564621021206
30
0
41
1
10
311.046324629281
20
7.20120300889394
30
0
41
1
10
311.044170679191
20
7.19046546199937
30
0
41
1
10
311.037860186733
20
7.16089700518199
30
0
41
1
10
311.033912537243
20
7.14492487704092
30
0
41
1
10
311.026323651818
20
7.11679475747945
30
0
41
1
10
311.022676981639
20
7.10471178742287
30
0
41
1
10
311.012092440477
20
7.07241146921314
30
0
41
1
10
311.005468004991
20
7.05593236156742
30
0
41
1
10
310.992719946185
20
7.02821975977156
30
0
41
1
10
310.986600320132
20
7.01713494747295
30
0
41
1
10
310.975554508393
20
7.00004836907149
30
0
41
1
10
310.9705723344
20
6.9935284065582
30
0
41
1
10
310.965703257891
20
6.98814317789015
30
0
0
SPLINE
5
2B1
100
AcDbEntity
8
1
62
256
6
ByLayer
370
13
48
1
60
0
100
AcDbSpline
70
4
71
3
72
10
73
6
40
0
40
0
40
0
40
0
40
0.196352315209973
40
0.196352315209973
40
1
40
1
40
1
40
1
41
1
10
310.95491274482
20
6.97781769272612
30
0
41
1
10
310.95224517467
20
6.97565059529558
30
0
41
1
10
310.949608654433
20
6.97378453011086
30
0
41
1
10
310.936319302199
20
6.9655731457008
30
0
41
1
10
310.926090674719
20
6.96333420270955
30
0
41
1
10
310.916158767461
20
6.96396175612526
30
0
0
SPLINE
5
2B2
100
AcDbEntity
8
1
62
256
6
ByLayer
370
13
48
1
60
0
100
AcDbSpline
70
4
71
3
72
8
73
4
40
0
40
0
40
0
40
0
40
1
40
1
40
1
40
1
41
1
10
310.257101456474
20
6.81742067303142
30
0
41
1
10
310.190258317071
20
6.8141989140681
30
0
41
1
10
310.125349328787
20
6.81288124289449
30
0
41
1
10
310.062023229892
20
6.81257573419526
30
0
0
SPLINE
5
2B3
100
AcDbEntity
8
1
62
256
6
ByLayer
370
13
48
1
60
0
100
AcDbSpline
70
4
71
3
72
24
73
20
40
0
40
0
40
0
40
0
40
0.0453611707763345
40
0.0453611707763345
40
0.0907223415526688
40
0.0907223415526688
40
0.136083512329003
40
0.136083512329003
40
0.181444683105338
40
0.181444683105338
40
0.272167024658007
40
0.272167024658007
40
0.362889366210676
40
0.362889366210676
40
0.54433404931603
40
0.54433404931603
40
0.725778732421384
40
0.725778732421384
40
1
40
1
40
1
40
1
41
1
10
293.755266580128
20
6.45509531847958
30
0
41
1
10
293.758432244832
20
6.43784561357205
30
0
41
1
10
293.762097186215
20
6.41919826463209
30
0
41
1
10
293.770104366523
20
6.38247909104123
30
0
41
1
10
293.774390075552
20
6.36474807802657
30
0
41
1
10
293.782326701985
20
6.3341023834943
30
0
41
1
10
293.786036490569
20
6.32083816752476
30
0
41
1
10
293.793044770945
20
6.2969969261697
30
0
41
1
10
293.796309300747
20
6.28654334977327
30
0
41
1
10
293.80567596902
20
6.25779649813521
30
0
41
1
10
293.811271534882
20
6.24232450871801
30
0
41
1
10
293.821759245769
20
6.21514174342627
30
0
41
1
10
293.826648953398
20
6.20350614597396
30
0
41
1
10
293.840551813962
20
6.17248915810913
30
0
41
1
10
293.848862495896
20
6.15679276680055
30
0
41
1
10
293.864437475179
20
6.13056451253357
30
0
41
1
10
293.871682255677
20
6.12018009910378
30
0
41
1
10
293.888897628639
20
6.09883045027621
30
0
41
1
10
293.898399787514
20
6.09019423262976
30
0
41
1
10
293.907305561336
20
6.08439077780318
30
0
0
SPLINE
5
2B4
100
AcDbEntity
8
1
62
256
6
ByLayer
370
13
48
1
60
0
100
AcDbSpline
70
4
71
3
72
18
73
14
40
0
40
0
40
0
40
0
40
0.500000000000014
40
0.500000000000014
40
0.75000000000002
40
0.75000000000002
40
0.875000000000038
40
0.875000000000038
40
0.906250000000028
40
0.906250000000028
40
0.937500000000019
40
0.937500000000019
40
1
40
1
40
1
40
1
41
1
10
302.644051428919
20
7.76279158885441
30
0
41
1
10
303.645238941346
20
7.81526160302661
30
0
41
1
10
304.646426855324
20
7.86772395492289
30
0
41
1
10
306.148208003111
20
7.9464312824206
30
0
41
1
10
306.648800586877
20
7.97268865889228
30
0
41
1
10
307.399692100645
20
8.01202438984365
30
0
41
1
10
307.649989490183
20
8.02513213355527
30
0
41
1
10
307.962859008788
20
8.04155915679704
30
0
41
1
10
308.025432358394
20
8.04475641762602
30
0
41
1
10
308.15058696847
20
8.05143247482764
30
0
41
1
10
308.213077860725
20
8.05302709254931
30
0
41
1
10
308.400004404868
20
8.04679251146493
30
0
41
1
10
308.524205082082
20
8.03043416880558
30
0
41
1
10
308.647281753555
20
8.00167355020344
30
0
0
SPLINE
5
2B5
100
AcDbEntity
8
1
62
256
6
ByLayer
370
13
48
1
60
0
100
AcDbSpline
70
4
71
3
72
22
73
18
40
0
40
0
40
0
40
0
40
0.125
40
0.125
40
0.25
40
0.25
40
0.375
40
0.375
40
0.5
40
0.5
40
0.625
40
0.625
40
0.75
40
0.75
40
0.875
40
0.875
40
1
40
1
40
1
40
1
41
1
10
310.832381499116
20
21.8620891540402
30
0
41
1
10
310.823722805411
20
21.9187185610009
30
0
41
1
10
310.809613252836
20
21.9734347977776
30
0
41
1
10
310.769352918802
20
22.0786409795439
30
0
41
1
10
310.743113707507
20
22.1298478914597
30
0
41
1
10
310.680615312498
20
22.2246953805958
30
0
41
1
10
310.644870287778
20
22.2683508390362
30
0
41
1
10
310.563875515223
20
22.3476951427541
30
0
41
1
10
310.518643391064
20
22.3833107839503
30
0
41
1
10
310.423327506442
20
22.4434080716693
30
0
41
1
10
310.372605223136
20
22.468370888081
30
0
41
1
10
310.265296634571
20
22.5074727943
30
0
41
1
10
310.210574939983
20
22.5211937763859
30
0
41
1
10
310.099023469466
20
22.5371217349288
30
0
41
1
10
310.04185540394
20
22.5375587937742
30
0
41
1
10
309.927897041924
20
22.5394775086836
30
0
41
1
10
309.870918627441
20
22.5398398307777
30
0
41
1
10
309.813940881606
20
22.5396813526448
30
0
0
SPLINE
5
2B6
100
AcDbEntity
8
1
62
256
6
ByLayer
370
13
48
1
60
0
100
AcDbSpline
70
4
71
1
72
4
73
2
40
0
40
0
40
1
40
1
41
1
10
292.355472024303
20
13.5982314811285
30
0
41
1
10
292.443827408031
20
13.6054405980765
30
0
0
SPLINE
5
2B7
100
AcDbEntity
8
1
62
256
6
ByLayer
370
13
48
1
60
0
100
AcDbSpline
70
4
71
3
72
18
73
14
40
0
40
0
40
0
40
0
40
0.500000000000014
40
0.500000000000014
40
0.75000000000002
40
0.75000000000002
40
0.87500000000001
40
0.87500000000001
40
0.906250000000008
40
0.906250000000008
40
0.937500000000005
40
0.937500000000005
40
1
40
1
40
1
40
1
41
1
10
302.652033037024
20
7.96348435640988
30
0
41
1
10
303.661378679422
20
8.01638192005697
30
0
41
1
10
304.670724644462
20
8.06927148046984
30
0
41
1
10
306.184743156715
20
8.14862070946171
30
0
41
1
10
306.689415260369
20
8.17509334760189
30
0
41
1
10
307.446425226087
20
8.21474582118225
30
0
41
1
10
307.698760955618
20
8.22799219664094
30
0
41
1
10
308.014181635759
20
8.24451839489547
30
0
41
1
10
308.077249875818
20
8.24831962597773
30
0
41
1
10
308.2034564965
20
8.25373353838316
30
0
41
1
10
308.2666503985
20
8.25361382274806
30
0
41
1
10
308.456509662805
20
8.24459420700961
30
0
41
1
10
308.583447624131
20
8.22718857931801
30
0
41
1
10
308.710781382333
20
8.19743316254414
30
0
0
SPLINE
5
2B8
100
AcDbEntity
8
1
62
256
6
ByLayer
370
13
48
1
60
0
100
AcDbSpline
70
4
71
2
72
6
73
3
40
0
40
0
40
0
40
1
40
1
40
1
41
1
10
311.949929394373
20
14.7329681429707
30
0
41
0.997409491337352
10
311.949164511728
20
14.7906582766601
30
0
41
1
10
311.940164682284
20
14.8476448811323
30
0
0
SPLINE
5
2B9
100
AcDbEntity
8
1
62
256
6
ByLayer
370
13
48
1
60
0
100
AcDbSpline
70
4
71
1
72
4
73
2
40
0
40
0
40
1
40
1
41
1
10
293.611235920453
20
21.6981149335808
30
0
41
1
10
293.812216260919
20
21.4664897564718
30
0
0
SPLINE
5
2BA
100
AcDbEntity
8
1
62
256
6
ByLayer
370
13
48
1
60
0
100
AcDbSpline
70
4
71
1
72
4
73
2
40
0
40
0
40
1
40
1
41
1
10
293.78529775925
20
6.45593836387516
30
0
41
1
10
293.755266580128
20
6.45509531847955
30
0
0
SPLINE
5
2BB
100
AcDbEntity
8
1
62
256
6
ByLayer
370
13
48
1
60
0
100
AcDbSpline
70
4
71
3
72
12
73
8
40
0
40
0
40
0
40
0
40
0.25
40
0.25
40
0.5
40
0.5
40
1
40
1
40
1
40
1
41
1
10
310.062023229892
20
6.81257573419526
30
0
41
1
10
310.040256839814
20
6.81199011822878
30
0
41
1
10
310.019823381595
20
6.81229901768285
30
0
41
1
10
309.978475538296
20
6.81259408388991
30
0
41
1
10
309.957728239269
20
6.81269401217074
30
0
41
1
10
309.895562107812
20
6.81304295125142
30
0
41
1
10
309.854170097097
20
6.81330936016596
30
0
41
1
10
309.812751293586
20
6.81355839128054
30
0
0
SPLINE
5
2BC
100
AcDbEntity
8
1
62
256
6
ByLayer
370
13
48
1
60
0
100
AcDbSpline
70
4
71
2
72
6
73
3
40
0
40
0
40
0
40
1
40
1
40
1
41
1
10
292.449436262943
20
13.6785996866111
30
0
41
0.99911644269703
10
292.447054215957
20
13.6603984933801
30
0
41
0.99883560370872
10
292.445564656396
20
13.6421014211755
30
0
0
SPLINE
5
2BD
100
AcDbEntity
8
1
62
256
6
ByLayer
370
13
48
1
60
0
100
AcDbSpline
70
4
71
3
72
20
73
16
40
0
40
0
40
0
40
0
40
0.0625000000000093
40
0.0625000000000093
40
0.125000000000019
40
0.125000000000019
40
0.156250000000023
40
0.156250000000023
40
0.187500000000028
40
0.187500000000028
40
0.250000000000037
40
0.250000000000037
40
0.500000000000025
40
0.500000000000025
40
1
40
1
40
1
40
1
41
1
10
308.564734605263
20
21.0185321537595
30
0
41
1
10
308.448506570562
20
20.9375086019285
30
0
41
1
10
308.32606487107
20
20.8693821956723
30
0
41
1
10
308.069164927891
20
20.758071043989
30
0
41
1
10
307.933057379848
20
20.7147290865966
30
0
41
1
10
307.728522236347
20
20.6713931500668
30
0
41
1
10
307.660079443699
20
20.6604276636423
30
0
41
1
10
307.522676653961
20
20.6453034351203
30
0
41
1
10
307.453639969231
20
20.6421539518477
30
0
41
1
10
307.246636586544
20
20.6313016361969
30
0
41
1
10
307.10863210436
20
20.6240960686367
30
0
41
1
10
306.418619370441
20
20.5879408752593
30
0
41
1
10
305.866613176068
20
20.5589638953583
30
0
41
1
10
304.21058386711
20
20.4721758265666
30
0
41
1
10
303.106563333235
20
20.4143360936856
30
0
41
1
10
302.002543820049
20
20.3564768827144
30
0
0
SPLINE
5
2BE
100
AcDbEntity
8
1
62
256
6
ByLayer
370
13
48
1
60
0
100
AcDbSpline
70
4
71
3
72
8
73
4
40
0
40
0
40
0
40
0
40
1
40
1
40
1
40
1
41
1
10
293.429135371888
20
21.6816013101553
30
0
41
1
10
293.489771464639
20
21.6877232519545
30
0
41
1
10
293.550470382593
20
21.6932399782948
30
0
41
1
10
293.611235920453
20
21.6981149335808
30
0
0
SPLINE
5
2BF
100
AcDbEntity
8
1
62
256
6
ByLayer
370
13
48
1
60
0
100
AcDbSpline
70
4
71
3
72
8
73
4
40
0
40
0
40
0
40
0
40
1
40
1
40
1
40
1
41
1
10
293.897076176785
20
21.6903581815604
30
0
41
1
10
293.844833019433
20
21.6956934494313
30
0
41
1
10
293.792547486209
20
21.7010344521083
30
0
41
1
10
293.740350021922
20
21.7063635364356
30
0
0
SPLINE
5
2C0
100
AcDbEntity
8
1
62
256
6
ByLayer
370
13
48
1
60
0
100
AcDbSpline
70
4
71
3
72
8
73
4
40
0
40
0
40
0
40
0
40
1
40
1
40
1
40
1
41
1
10
309.333818721817
20
22.4993635777095
30
0
41
1
10
309.385217998335
20
22.510130515379
30
0
41
1
10
309.436658819136
20
22.5209075859235
30
0
41
1
10
309.488013299256
20
22.5316635976976
30
0
0
SPLINE
5
2C1
100
AcDbEntity
8
1
62
256
6
ByLayer
370
13
48
1
60
0
100
AcDbSpline
70
4
71
3
72
20
73
16
40
0
40
0
40
0
40
0
40
0.0624999999999835
40
0.0624999999999835
40
0.124999999999967
40
0.124999999999967
40
0.156249999999971
40
0.156249999999971
40
0.187499999999975
40
0.187499999999975
40
0.249999999999982
40
0.249999999999982
40
0.499999999999988
40
0.499999999999988
40
1
40
1
40
1
40
1
41
1
10
296.08984225181
20
7.3014290853649
30
0
41
1
10
296.206070286511
20
7.382452637196
30
0
41
1
10
296.328511986003
20
7.45057904345214
30
0
41
1
10
296.585411929183
20
7.5618901951355
30
0
41
1
10
296.721519477225
20
7.60523215252786
30
0
41
1
10
296.926054620727
20
7.64856808905768
30
0
41
1
10
296.994497413374
20
7.6595335754821
30
0
41
1
10
297.131900203112
20
7.67465780400411
30
0
41
1
10
297.200936887842
20
7.67780728727675
30
0
41
1
10
297.407940270529
20
7.68865960292749
30
0
41
1
10
297.545944752713
20
7.69586517048776
30
0
41
1
10
298.235957486632
20
7.73202036386513
30
0
41
1
10
298.787963681006
20
7.76099734376609
30
0
41
1
10
300.443992989964
20
7.84778541255787
30
0
41
1
10
301.548013523838
20
7.90562514543882
30
0
41
1
10
302.652033037024
20
7.96348435641002
30
0
0
SPLINE
5
2C2
100
AcDbEntity
8
1
62
256
6
ByLayer
370
13
48
1
60
0
100
AcDbSpline
70
4
71
3
72
26
73
22
40
0
40
0
40
0
40
0
40
0.249999999999556
40
0.249999999999556
40
0.374999999999334
40
0.374999999999334
40
0.499999999999112
40
0.499999999999112
40
0.62499999999889
40
0.62499999999889
40
0.687499999998778
40
0.687499999998778
40
0.718749999998821
40
0.718749999998821
40
0.749999999998863
40
0.749999999998863
40
0.812499999999147
40
0.812499999999147
40
0.874999999999432
40
0.874999999999432
40
1
40
1
40
1
40
1
41
1
10
310.916158767461
20
6.96396175612526
30
0
41
1
10
310.878953800937
20
6.942838965085
30
0
41
1
10
310.837316701716
20
6.92182285208796
30
0
41
1
10
310.763538804947
20
6.89188139104908
30
0
41
1
10
310.737464535297
20
6.88235542131267
30
0
41
1
10
310.680918707225
20
6.86465242438513
30
0
41
1
10
310.650540920247
20
6.85651288964451
30
0
41
1
10
310.587950996528
20
6.84335932084633
30
0
41
1
10
310.556160712592
20
6.83861304122451
30
0
41
1
10
310.510600920773
20
6.83466409292853
30
0
41
1
10
310.495729706952
20
6.83377711327842
30
0
41
1
10
310.473778572273
20
6.83266054430649
30
0
41
1
10
310.466466216563
20
6.83229246577915
30
0
41
1
10
310.452137332756
20
6.83181566893748
30
0
41
1
10
310.445117974331
20
6.83171020960407
30
0
41
1
10
310.422825730754
20
6.83024824677915
30
0
41
1
10
310.406375777068
20
6.82778500467685
30
0
41
1
10
310.375679333171
20
6.824923464119
30
0
41
1
10
310.360840085431
20
6.82396967160392
30
0
41
1
10
310.315917310782
20
6.82072872475752
30
0
41
1
10
310.286243223906
20
6.8188252711887
30
0
41
1
10
310.257101456474
20
6.81742067303142
30
0
0
SPLINE
5
2C3
100
AcDbEntity
8
1
62
256
6
ByLayer
370
13
48
1
60
0
100
AcDbSpline
70
4
71
3
72
10
73
6
40
0
40
0
40
0
40
0
40
0.470344360329718
40
0.470344360329718
40
1
40
1
40
1
40
1
41
1
10
308.686971248823
20
21.3700343387756
30
0
41
1
10
308.686990114166
20
21.3698460024364
30
0
41
1
10
308.699836311932
20
21.3695941788312
30
0
41
1
10
308.74791045542
20
21.3690865151091
30
0
41
1
10
308.785868608966
20
21.3688435622871
30
0
41
1
10
308.825066322974
20
21.3687197275158
30
0
0
SPLINE
5
2C4
100
AcDbEntity
8
1
62
256
6
ByLayer
370
13
48
1
60
0
100
AcDbSpline
70
4
71
3
72
8
73
4
40
0
40
0
40
0
40
0
40
1
40
1
40
1
40
1
41
1
10
309.813940881606
20
22.5396813526448
30
0
41
1
10
309.748387093586
20
22.5394990210735
30
0
41
1
10
309.682834259758
20
22.5385734829391
30
0
41
1
10
309.617282313949
20
22.5369562801651
30
0
0
SPLINE
5
2C5
100
AcDbEntity
8
1
62
256
6
ByLayer
370
13
48
1
60
0
100
AcDbSpline
70
4
71
2
72
6
73
3
40
0
40
0
40
0
40
1
40
1
40
1
41
1
10
292.433633523856
20
13.8198697365133
30
0
41
0.997409491337352
10
292.430835682605
20
13.7660258589036
30
0
41
1
10
292.435760323612
20
13.7123325466525
30
0
0
SPLINE
5
2C6
100
AcDbEntity
8
1
62
256
6
ByLayer
370
13
48
1
60
0
100
AcDbSpline
70
4
71
2
72
6
73
3
40
0
40
0
40
0
40
1
40
1
40
1
41
1
10
292.667749863994
20
13.5850593749447
30
0
41
0.997409491337352
10
292.666984981349
20
13.6427495086327
30
0
41
1
10
292.674470876453
20
13.6999491457824
30
0
0
SPLINE
5
2C7
100
AcDbEntity
8
1
62
256
6
ByLayer
370
13
48
1
60
0
100
AcDbSpline
70
4
71
3
72
9
73
5
40
0
40
0
40
0
40
0
40
0.513495271766404
40
1
40
1
40
1
40
1
41
1
10
309.617282313949
20
22.5369562801651
30
0
41
1
10
309.595143946488
20
22.5364052486881
30
0
41
1
10
309.552060416011
20
22.5344275025477
30
0
41
1
10
309.508974632736
20
22.5325719574912
30
0
41
1
10
309.488013299255
20
22.5316635976958
30
0
0
SPLINE
5
2C8
100
AcDbEntity
8
1
62
256
6
ByLayer
370
13
48
1
60
0
100
AcDbSpline
70
4
71
2
72
6
73
3
40
0
40
0
40
0
40
1
40
1
40
1
41
1
10
292.452280732668
20
13.4640597963207
30
0
41
0.997409491337352
10
292.443870000501
20
13.5173162574887
30
0
41
1
10
292.443155184393
20
13.5712301973139
30
0
0
SPLINE
5
2C9
100
AcDbEntity
8
1
62
256
6
ByLayer
370
13
48
1
60
0
100
AcDbSpline
70
4
71
3
72
24
73
20
40
0
40
0
40
0
40
0
40
0.0312499999999787
40
0.0312499999999787
40
0.0624999999999575
40
0.0624999999999575
40
0.124999999999938
40
0.124999999999938
40
0.156249999999929
40
0.156249999999929
40
0.171874999999924
40
0.171874999999924
40
0.187499999999919
40
0.187499999999919
40
0.249999999999926
40
0.249999999999926
40
0.49999999999995
40
0.49999999999995
40
1
40
1
40
1
40
1
41
1
10
296.185002552896
20
7.13615045535909
30
0
41
1
10
296.240741765453
20
7.17500673464869
30
0
41
1
10
296.299076861935
20
7.21121177627606
30
0
41
1
10
296.419136670886
20
7.27701949783199
30
0
41
1
10
296.480438572583
20
7.30643403874819
30
0
41
1
10
296.668052967114
20
7.3845040514382
30
0
41
1
10
296.79810413835
20
7.42314964998801
30
0
41
1
10
297.000555931862
20
7.46014337238418
30
0
41
1
10
297.068260888878
20
7.46871065938137
30
0
41
1
10
297.170132018091
20
7.47621955146016
30
0
41
1
10
297.204149665088
20
7.4776904625395
30
0
41
1
10
297.272147402957
20
7.48127184570274
30
0
41
1
10
297.306147359071
20
7.48304402320989
30
0
41
1
10
297.476145367701
20
7.49193508587464
30
0
41
1
10
297.612143194645
20
7.49905781242137
30
0
41
1
10
298.292130782998
20
7.53469777898871
30
0
41
1
10
298.836118650584
20
7.56324726982137
30
0
41
1
10
300.468089506742
20
7.6487722207211
30
0
41
1
10
301.556070945622
20
7.70577294782166
30
0
41
1
10
302.644051428919
20
7.76279158885455
30
0
0
SPLINE
5
2CA
100
AcDbEntity
8
1
62
256
6
ByLayer
370
13
48
1
60
0
100
AcDbSpline
70
4
71
3
72
10
73
6
40
0
40
0
40
0
40
0
40
0.5
40
0.5
40
1
40
1
40
1
40
1
41
1
10
295.920872678488
20
6.94744168230147
30
0
41
1
10
295.91719603769
20
6.94724899772208
30
0
41
1
10
295.896924840166
20
6.94715752506042
30
0
41
1
10
295.835824240236
20
6.94716204365585
30
0
41
1
10
295.794913050694
20
6.94725023441913
30
0
41
1
10
295.755715336685
20
6.94737406919046
30
0
0
SPLINE
5
2CB
100
AcDbEntity
8
1
62
256
6
ByLayer
370
13
48
1
60
0
100
AcDbSpline
70
4
71
3
72
12
73
8
40
0
40
0
40
0
40
0
40
0.25
40
0.25
40
0.5
40
0.5
40
1
40
1
40
1
40
1
41
1
10
293.812216260919
20
21.4664897564718
30
0
41
1
10
293.835750278049
20
21.4671680098466
30
0
41
1
10
293.858371628458
20
21.4669737729636
30
0
41
1
10
293.903943630178
20
21.4669000855188
30
0
41
1
10
293.926780881132
20
21.4669096869772
30
0
41
1
10
293.99523971584
20
21.4668905344996
30
0
41
1
10
294.040842564287
20
21.4668448062395
30
0
41
1
10
294.086464128798
20
21.4668160324958
30
0
0
SPLINE
5
2CC
100
AcDbEntity
8
1
62
256
6
ByLayer
370
13
48
1
60
0
100
AcDbSpline
70
4
71
1
72
4
73
2
40
0
40
0
40
1
40
1
41
1
10
294.086464128798
20
21.4668160324958
30
0
41
1
10
293.897076176785
20
21.6903581815604
30
0
0
SPLINE
5
2CD
100
AcDbEntity
8
1
62
256
6
ByLayer
370
13
48
1
60
0
100
AcDbSpline
70
4
71
1
72
4
73
2
40
0
40
0
40
1
40
1
41
1
10
292.443155184393
20
13.5712301973139
30
0
41
1
10
292.667749863994
20
13.5850593749447
30
0
0
SPLINE
5
2CE
100
AcDbEntity
8
1
62
256
6
ByLayer
370
13
48
1
60
0
100
AcDbSpline
70
4
71
3
72
12
73
8
40
0
40
0
40
0
40
0
40
0.0590320358459094
40
0.0590320358459094
40
0.539356876126649
40
0.539356876126649
40
1
40
1
40
1
40
1
41
1
10
310.824375736992
20
6.85546567088713
30
0
41
1
10
310.81890451596
20
6.84963495993316
30
0
41
1
10
310.813339795179
20
6.84388203336627
30
0
41
1
10
310.761654647337
20
6.79205140735138
30
0
41
1
10
310.711011046268
20
6.75220306164795
30
0
41
1
10
310.602737175682
20
6.68652731801237
30
0
41
1
10
310.545274705542
20
6.66035197454048
30
0
41
1
10
310.48647115842
20
6.64118876501411
30
0
0
SPLINE
5
2CF
100
AcDbEntity
8
1
62
256
6
ByLayer
370
13
48
1
60
0
100
AcDbSpline
70
4
71
2
72
6
73
3
40
0
40
0
40
0
40
1
40
1
40
1
41
0.998835603708725
10
292.445564656396
20
13.6421014211762
30
0
41
0.998293048640314
10
292.439002421504
20
13.6769839853738
30
0
41
1
10
292.435760323612
20
13.7123325466525
30
0
0
SPLINE
5
2D0
100
AcDbEntity
8
1
62
256
6
ByLayer
370
13
48
1
60
0
100
AcDbSpline
70
4
71
1
72
4
73
2
40
0
40
0
40
1
40
1
41
1
10
292.677514576082
20
13.4703826367831
30
0
41
1
10
292.452280732668
20
13.4640597963207
30
0
0
SPLINE
5
2D1
100
AcDbEntity
8
1
62
256
6
ByLayer
370
13
48
1
60
0
100
AcDbSpline
70
4
71
3
72
10
73
6
40
0
40
0
40
0
40
0
40
0.5
40
0.5
40
1
40
1
40
1
40
1
41
1
10
295.894949215285
20
6.86315766618773
30
0
41
1
10
295.891273613589
20
6.86296503606533
30
0
41
1
10
295.873977397777
20
6.87227223238571
30
0
41
1
10
295.822589639776
20
6.9036106654132
30
0
41
1
10
295.788397109556
20
6.92564299116603
30
0
41
1
10
295.755715336685
20
6.94737406919043
30
0
0
SPLINE
5
2D2
100
AcDbEntity
8
1
62
256
6
ByLayer
370
13
48
1
60
0
100
AcDbSpline
70
4
71
3
72
14
73
10
40
0
40
0
40
0
40
0
40
0.0288455662507585
40
0.0288455662507585
40
0.190704638542369
40
0.190704638542369
40
0.352563710833979
40
0.352563710833979
40
1
40
1
40
1
40
1
41
1
10
293.442028669476
20
21.4496198314854
30
0
41
1
10
293.445748379307
20
21.4500569850774
30
0
41
1
10
293.44946133998
20
21.4504823229174
30
0
41
1
10
293.47381151606
20
21.4529493418738
30
0
41
1
10
293.493960038659
20
21.4541354683779
30
0
41
1
10
293.534542350641
20
21.4570071380094
30
0
41
1
10
293.554770465361
20
21.4583326064573
30
0
41
1
10
293.65530261701
20
21.463894784247
30
0
41
1
10
293.73443250404
20
21.4657940071338
30
0
41
1
10
293.812216260919
20
21.4664897564718
30
0
0
SPLINE
5
2D3
100
AcDbEntity
8
SK1
62
256
6
ByLayer
370
13
48
1
60
0
100
AcDbSpline
70
4
71
3
72
8
73
4
40
0
40
0
40
0
40
0
40
1
40
1
40
1
40
1
41
1
10
-78.5162221138915
20
-10.4258292340309
30
0
41
1
10
-78.5439104435588
20
-10.5074660802026
30
0
41
1
10
-78.5718376779285
20
-10.5890166857158
30
0
41
1
10
-78.5999993841625
20
-10.6704826507519
30
0
0
SPLINE
5
2D4
100
AcDbEntity
8
SK1
62
256
6
ByLayer
370
13
48
1
60
0
100
AcDbSpline
70
4
71
3
72
8
73
4
40
0
40
0
40
0
40
0
40
1
40
1
40
1
40
1
41
1
10
-79
20
-10.6704826507519
30
0
41
1
10
-79.3663118043068
20
-9.81238370995035
30
0
41
1
10
-79.7021882940637
20
-8.9413126460914
30
0
41
1
10
-80
20
-8.05401763097143
30
0
0
SPLINE
5
2D5
100
AcDbEntity
8
SK1
62
256
6
ByLayer
370
13
48
1
60
0
100
AcDbSpline
70
4
71
3
72
10
73
6
40
0
40
0
40
0
40
0
40
0.5
40
0.5
40
1
40
1
40
1
40
1
41
1
10
-80
20
8.0540176309716
30
0
41
1
10
-79.85176739512
20
8.49565927489135
30
0
41
1
10
-79.6935189817436
20
8.93491944720282
30
0
41
1
10
-79.3587118244384
20
9.80908612108971
30
0
41
1
10
-79.1828143207057
20
10.2422333475178
30
0
41
1
10
-79
20
10.6704826507521
30
0
0
SPLINE
5
2D6
100
AcDbEntity
8
SK1
62
256
6
ByLayer
370
13
48
1
60
0
100
AcDbSpline
70
4
71
3
72
8
73
4
40
0
40
0
40
0
40
0
40
1
40
1
40
1
40
1
41
1
10
-78.5999993841624
20
10.6704826507521
30
0
41
1
10
-78.571842816211
20
10.5890315497
30
0
41
1
10
-78.5439155289718
20
10.5074810741399
30
0
41
1
10
-78.5162221138982
20
10.4258292340508
30
0
0
SPLINE
5
2D7
100
AcDbEntity
8
SK1
62
256
6
ByLayer
370
13
48
1
60
0
100
AcDbSpline
70
4
71
3
72
8
73
4
40
0
40
0
40
0
40
0
40
1
40
1
40
1
40
1
41
1
10
-77.6338131992799
20
9.80675144594619
30
0
41
1
10
-77.2939543866941
20
10.101073698597
30
0
41
1
10
-76.9490850005699
20
10.3886250228495
30
0
41
1
10
-76.6000022063887
20
10.6704826507521
30
0
0
SPLINE
5
2D8
100
AcDbEntity
8
SK1
62
256
6
ByLayer
370
13
48
1
60
0
100
AcDbSpline
70
4
71
3
72
18
73
14
40
0
40
0
40
0
40
0
40
0.124999999999994
40
0.124999999999994
40
0.249999999999988
40
0.249999999999988
40
0.374999999999981
40
0.374999999999981
40
0.499999999999975
40
0.499999999999975
40
0.749999999999988
40
0.749999999999988
40
1
40
1
40
1
40
1
41
1
10
-77.6338131992802
20
-9.80675144594582
30
0
41
1
10
-77.6747633651724
20
-9.77128805754603
30
0
41
1
10
-77.7208435774768
20
-9.74055738411698
30
0
41
1
10
-77.8223424340443
20
-9.70060949890774
30
0
41
1
10
-77.877225313581
20
-9.69229190808377
30
0
41
1
10
-77.9860246497556
20
-9.70510854686367
30
0
41
1
10
-78.0378757025226
20
-9.72573581195073
30
0
41
1
10
-78.1301404068999
20
-9.78251362708679
30
0
41
1
10
-78.1717204994047
20
-9.81892837813635
30
0
41
1
10
-78.2826414870913
20
-9.93741839107241
30
0
41
1
10
-78.3411195831128
20
-10.0300646017818
30
0
41
1
10
-78.4407354299096
20
-10.2228684878255
30
0
41
1
10
-78.4816839215995
20
-10.3239961106508
30
0
41
1
10
-78.5162221138915
20
-10.4258292340309
30
0
0
SPLINE
5
2D9
100
AcDbEntity
8
SK1
62
256
6
ByLayer
370
13
48
1
60
0
100
AcDbSpline
70
4
71
3
72
8
73
4
40
0
40
0
40
0
40
0
40
1
40
1
40
1
40
1
41
1
10
-76.6000022063887
20
-10.6704826507519
30
0
41
1
10
-76.9486457469478
20
-10.3889796865166
30
0
41
1
10
-77.2935001928291
20
-10.1014670365259
30
0
41
1
10
-77.6338131992803
20
-9.80675144594593
30
0
0
SPLINE
5
2DA
100
AcDbEntity
8
SK1
62
256
6
ByLayer
370
13
48
1
60
0
100
AcDbSpline
70
4
71
3
72
74
73
70
40
0
40
0
40
0
40
0
40
0.0156249999999999
40
0.0156249999999999
40
0.0234374999999999
40
0.0234374999999999
40
0.0312499999999998
40
0.0312499999999998
40
0.0468749999999997
40
0.0468749999999997
40
0.0624999999999996
40
0.0624999999999996
40
0.0781249999999995
40
0.0781249999999995
40
0.0937499999999994
40
0.0937499999999994
40
0.124999999999999
40
0.124999999999999
40
0.140624999999999
40
0.140624999999999
40
0.156249999999999
40
0.156249999999999
40
0.187499999999999
40
0.187499999999999
40
0.249999999999999
40
0.249999999999999
40
0.281249999999999
40
0.281249999999999
40
0.312499999999999
40
0.312499999999999
40
0.374999999999999
40
0.374999999999999
40
0.437499999999999
40
0.437499999999999
40
0.499999999999999
40
0.499999999999999
40
0.562499999999999
40
0.562499999999999
40
0.593749999999999
40
0.593749999999999
40
0.624999999999999
40
0.624999999999999
40
0.687499999999999
40
0.687499999999999
40
0.749999999999999
40
0.749999999999999
40
0.781249999999999
40
0.781249999999999
40
0.812499999999999
40
0.812499999999999
40
0.84375
40
0.84375
40
0.875
40
0.875
40
0.90625
40
0.90625
40
0.9375
40
0.9375
40
0.9453125
40
0.9453125
40
0.953125
40
0.953125
40
0.96875
40
0.96875
40
0.984375
40
0.984375
40
0.9921875
40
0.9921875
40
1
40
1
40
1
40
1
41
1
10
-6.50000000009537
20
10.670482650752
30
0
41
1
10
-6.37048388891068
20
10.6704826507608
30
0
41
1
10
-6.24446776465052
20
10.6528697557375
30
0
41
1
10
-6.06010517952292
20
10.6029156441243
30
0
41
1
10
-5.99927461449792
20
10.5821925812253
30
0
41
1
10
-5.88223506583904
20
10.5345394314587
30
0
41
1
10
-5.82559748012396
20
10.5075199899682
30
0
41
1
10
-5.66065779452136
20
10.417975973631
30
0
41
1
10
-5.55712762892128
20
10.3466184036529
30
0
41
1
10
-5.36736536971405
20
10.1913586531549
30
0
41
1
10
-5.27997153671004
20
10.1068512703449
30
0
41
1
10
-5.11666218977227
20
9.92704332772249
30
0
41
1
10
-5.04055810401205
20
9.83130794393438
30
0
41
1
10
-4.90046448763793
20
9.63491798753748
30
0
41
1
10
-4.83603834410378
20
9.5338271584321
30
0
41
1
10
-4.65598112089407
20
9.22347109153861
30
0
41
1
10
-4.55339976152399
20
9.00719880738419
30
0
41
1
10
-4.41750582616754
20
8.67228763084432
30
0
41
1
10
-4.37530268897782
20
8.55891791867154
30
0
41
1
10
-4.29686000058592
20
8.33134323345735
30
0
41
1
10
-4.26049265592715
20
8.21682554312125
30
0
41
1
10
-4.1585724311424
20
7.87130398108656
30
0
41
1
10
-4.10013853486055
20
7.63834185023578
30
0
41
1
10
-3.94578977994675
20
6.93282891322849
30
0
41
1
10
-3.87048459563749
20
6.45370790232082
30
0
41
1
10
-3.78175631324949
20
5.72457369042988
30
0
41
1
10
-3.75634074966133
20
5.47976683985843
30
0
41
1
10
-3.7120067271199
20
4.98691048522593
30
0
41
1
10
-3.69308648223611
20
4.73862820397792
30
0
41
1
10
-3.64424139462162
20
3.99444565639502
30
0
41
1
10
-3.62191393829291
20
3.49753056604814
30
0
41
1
10
-3.58913059568964
20
2.50225576491911
30
0
41
1
10
-3.57872244966512
20
2.00389538867495
30
0
41
1
10
-3.56529013292472
20
1.00580199142325
30
0
41
1
10
-3.56228022077386
20
0.506068785393097
30
0
41
1
10
-3.56223334097642
20
-0.494754197166372
30
0
41
1
10
-3.56519357916225
20
-0.995843898846687
30
0
41
1
10
-3.57526735092097
20
-1.74852495498422
30
0
41
1
10
-3.57958751937886
20
-1.99959349362723
30
0
41
1
10
-3.59064705878916
20
-2.50209075145548
30
0
41
1
10
-3.59739709579894
20
-2.75385038007658
30
0
41
1
10
-3.62227132036486
20
-3.50710000839359
30
0
41
1
10
-3.64484459181701
20
-4.00580366741292
30
0
41
1
10
-3.71010606722081
20
-4.99571816607531
30
0
41
1
10
-3.75268745857275
20
-5.48693664959626
30
0
41
1
10
-3.84180186701059
20
-6.21737273914593
30
0
41
1
10
-3.87576317934641
20
-6.45978205407951
30
0
41
1
10
-3.95487127334194
20
-6.94225537606115
30
0
41
1
10
-3.99994180570394
20
-7.18182085753699
30
0
41
1
10
-4.10416683371689
20
-7.65518824089065
30
0
41
1
10
-4.16332953330694
20
-7.88926779084468
30
0
41
1
10
-4.30073575990994
20
-8.35126379883343
30
0
41
1
10
-4.37869000461005
20
-8.57819056735369
30
0
41
1
10
-4.55882768232694
20
-9.01890405609001
30
0
41
1
10
-4.66096064418579
20
-9.23316248710555
30
0
41
1
10
-4.9012460930548
20
-9.6450662502447
30
0
41
1
10
-5.04044720826909
20
-9.84412891865716
30
0
41
1
10
-5.24436673816899
20
-10.0673788314332
30
0
41
1
10
-5.28672193295479
20
-10.1108128419076
30
0
41
1
10
-5.37506018490618
20
-10.1949099292502
30
0
41
1
10
-5.42113974977889
20
-10.2356293471388
30
0
41
1
10
-5.56352602684599
20
-10.3512474104623
30
0
41
1
10
-5.66447995477702
20
-10.4202823836625
30
0
41
1
10
-5.88197798496884
20
-10.5378913469096
30
0
41
1
10
-6.00024980803649
20
-10.5867345345007
30
0
41
1
10
-6.18283559041274
20
-10.6361515407661
30
0
41
1
10
-6.24478714200797
20
-10.6488401790656
30
0
41
1
10
-6.37105473569075
20
-10.6660269221224
30
0
41
1
10
-6.43557318110055
20
-10.6704826507564
30
0
41
1
10
-6.50000000009538
20
-10.6704826507521
30
0
0
SPLINE
5
2DB
100
AcDbEntity
8
1
62
256
6
ByLayer
370
13
48
1
60
0
100
AcDbSpline
70
4
71
3
72
49
73
45
40
0
40
0
40
0
40
0
40
0.124999999999981
40
0.124999999999981
40
0.249999999999961
40
0.249999999999961
40
0.312499999999951
40
0.312499999999951
40
0.374999999999941
40
0.374999999999941
40
0.406249999999937
40
0.406249999999937
40
0.437499999999932
40
0.437499999999932
40
0.499999999999922
40
0.499999999999922
40
0.562499999999912
40
0.562499999999912
40
0.578124999999915
40
0.578124999999915
40
0.593749999999918
40
0.593749999999918
40
0.624999999999924
40
0.624999999999924
40
0.687499999999935
40
0.687499999999935
40
0.703124999999938
40
0.703124999999938
40
0.718749999999941
40
0.718749999999941
40
0.749999999999948
40
0.781249999999954
40
0.781249999999954
40
0.81249999999996
40
0.81249999999996
40
0.874999999999973
40
0.874999999999973
40
0.890624999999976
40
0.890624999999976
40
0.90624999999998
40
0.90624999999998
40
0.937499999999986
40
0.937499999999986
40
1
40
1
40
1
40
1
41
1
10
289.061582863793
20
1.681328486052
30
0
41
1
10
289.883112819042
20
1.52245440523328
30
0
41
1
10
290.71031801638
20
1.37851062662659
30
0
41
1
10
292.383811232159
20
1.14082573593748
30
0
41
1
10
293.230019569835
20
1.04687500145101
30
0
41
1
10
294.521366755114
20
0.963917248539076
30
0
41
1
10
294.956863843357
20
0.94606055225708
30
0
41
1
10
295.822382137379
20
0.934670206730232
30
0
41
1
10
296.253767326707
20
0.940973693987445
30
0
41
1
10
296.898414795822
20
0.971652665828998
30
0
41
1
10
297.11289126472
20
0.985424736260541
30
0
41
1
10
297.540953837676
20
1.02074436041741
30
0
41
1
10
297.755184503734
20
1.04237230944497
30
0
41
1
10
298.391638350375
20
1.11956705287207
30
0
41
1
10
298.805048591585
20
1.18697244562398
30
0
41
1
10
299.607652162981
20
1.35722760502531
30
0
41
1
10
299.996881778948
20
1.46002426305375
30
0
41
1
10
300.465803978627
20
1.61430150236393
30
0
41
1
10
300.558702020266
20
1.64645430118216
30
0
41
1
10
300.74263551238
20
1.71348602592639
30
0
41
1
10
300.83377734872
20
1.74841801173011
30
0
41
1
10
301.101319735144
20
1.85628876794996
30
0
41
1
10
301.272812295609
20
1.93263025217453
30
0
41
1
10
301.766246711392
20
2.17521879467014
30
0
41
1
10
302.067312799698
20
2.35492197634383
30
0
41
1
10
302.405239679029
20
2.60430655911409
30
0
41
1
10
302.470795474282
20
2.65537859799753
30
0
41
1
10
302.596451832865
20
2.75881344972902
30
0
41
1
10
302.656753561403
20
2.81132112457814
30
0
41
1
10
302.830168366019
20
2.97118706673919
30
0
41
1
10
303.041438821449
20
3.19058159641813
30
0
41
1
10
303.213137894708
20
3.42235366580925
30
0
41
1
10
303.364804697071
20
3.66039163279945
30
0
41
1
10
303.430856088992
20
3.78323351578749
30
0
41
1
10
303.594990998376
20
4.15382024492521
30
0
41
1
10
303.660635419253
20
4.40484102913916
30
0
41
1
10
303.692146076492
20
4.72319244997124
30
0
41
1
10
303.695903493657
20
4.78709308766756
30
0
41
1
10
303.698368328326
20
4.91535150092233
30
0
41
1
10
303.697062888112
20
4.97985921657232
30
0
41
1
10
303.685700935075
20
5.17270311576854
30
0
41
1
10
303.66827693642
20
5.30038402940411
30
0
41
1
10
303.588604839949
20
5.68097399447259
30
0
41
1
10
303.499095890036
20
5.93144273517242
30
0
41
1
10
303.376628279942
20
6.17896111423636
30
0
0
SPLINE
5
2DC
100
AcDbEntity
8
1
62
256
6
ByLayer
370
13
48
1
60
0
100
AcDbSpline
70
4
71
2
72
16
73
13
40
0
40
0
40
0
40
0.30140568356355
40
0.30140568356355
40
0.452108525345324
40
0.452108525345324
40
0.602811367127099
40
0.602811367127099
40
0.753514208908874
40
0.753514208908874
40
0.904217050690649
40
0.904217050690649
40
1
40
1
40
1
41
1
10
36.9999999999992
20
-12.6660648794565
30
0
41
1
10
32.5977004638136
20
-13.4292181385347
30
0
41
1
10
28.7054361496611
20
-15.2548542705505
30
0
41
1
10
26.7210485452597
20
-16.1856157548995
30
0
41
1
10
24.9213861022889
20
-17.3770171520481
30
0
41
1
10
23.1085857836259
20
-18.5771160043868
30
0
41
1
10
21.569885643496
20
-19.9836713083511
30
0
41
1
10
20.0369164974608
20
-21.3849878007168
30
0
41
1
10
18.7772189616431
20
-22.989358211753
30
0
41
1
10
17.536008930039
20
-24.5701826493384
30
0
41
1
10
16.6186268148153
20
-26.2721720850921
30
0
41
1
10
16.0533511165243
20
-27.3209098474857
30
0
41
1
10
15.6164586796977
20
-28.3977941753802
30
0
0
SPLINE
5
2DD
100
AcDbEntity
8
1
62
256
6
ByLayer
370
13
48
1
60
0
100
AcDbSpline
70
4
71
3
72
12
73
8
40
0
40
0
40
0
40
0
40
0.233569605259032
40
0.233569605259032
40
0.616784802629516
40
0.616784802629516
40
1
40
1
40
1
40
1
41
1
10
268.600063014117
20
9.90753927402153
30
0
41
1
10
270.172772083189
20
10.00262815187
30
0
41
1
10
271.74525547697
20
10.0820099351343
30
0
41
1
10
275.897950344472
20
10.2486408675887
30
0
41
1
10
278.478467034011
20
10.3083525252124
30
0
41
1
10
283.642380985642
20
10.3378435204159
30
0
41
1
10
286.223539866151
20
10.3076063985153
30
0
41
1
10
288.805355381971
20
10.232024239223
30
0
0
SPLINE
5
2DE
100
AcDbEntity
8
1
62
256
6
ByLayer
370
13
48
1
60
0
100
AcDbSpline
70
4
71
3
72
8
73
4
40
0
40
0
40
0
40
0
40
1
40
1
40
1
40
1
41
1
10
310.097772328017
20
0.601065664120824
30
0
41
1
10
310.225217358148
20
0.617697510110361
30
0
41
1
10
310.351903634153
20
0.623836783805501
30
0
41
1
10
310.47873710525
20
0.620788068783867
30
0
0
SPLINE
5
2DF
100
AcDbEntity
8
1
62
256
6
ByLayer
370
13
48
1
60
0
100
AcDbSpline
70
4
71
3
72
18
73
14
40
0
40
0
40
0
40
0
40
0.125
40
0.125
40
0.25
40
0.25
40
0.5
40
0.5
40
0.625
40
0.625
40
0.75
40
0.75
40
1
40
1
40
1
40
1
41
1
10
290.170554943913
20
10.2828453553659
30
0
41
1
10
290.275410050465
20
10.2141818095622
30
0
41
1
10
290.378276435247
20
10.1411083015003
30
0
41
1
10
290.577145943361
20
9.98802629396269
30
0
41
1
10
290.672457896845
20
9.90862059250944
30
0
41
1
10
290.946914936741
20
9.66280561116074
30
0
41
1
10
291.114646952071
20
9.48887192096328
30
0
41
1
10
291.346278207038
20
9.21651878009803
30
0
41
1
10
291.420144420296
20
9.12380841502062
30
0
41
1
10
291.561485353606
20
8.93495274027748
30
0
41
1
10
291.629223267933
20
8.83838086781324
30
0
41
1
10
291.820233885609
20
8.5485469251368
30
0
41
1
10
291.932198910371
20
8.3546287898678
30
0
41
1
10
292.030319657105
20
8.16027103285433
30
0
0
SPLINE
5
2E0
100
AcDbEntity
8
1
62
256
6
ByLayer
370
13
48
1
60
0
100
AcDbSpline
70
4
71
3
72
32
73
28
40
0
40
0
40
0
40
0
40
0.108695893526111
40
0.108695893526111
40
0.217391787052222
40
0.217391787052222
40
0.326087680578333
40
0.326087680578333
40
0.380435627341389
40
0.380435627341389
40
0.434783574104444
40
0.434783574104444
40
0.543479467630542
40
0.543479467630542
40
0.652175361156641
40
0.652175361156641
40
0.70652330791969
40
0.70652330791969
40
0.760871254682739
40
0.760871254682739
40
0.869567148208837
40
0.869567148208837
40
0.923915094971893
40
0.923915094971893
40
0.978263041734947
40
0.978263041734947
40
1
40
1
40
1
40
1
41
1
10
288.227303682719
20
7.79456459577637
30
0
41
1
10
287.79119628341
20
7.9027687448783
30
0
41
1
10
287.350321852265
20
7.99262739606519
30
0
41
1
10
286.459911279191
20
8.14127036942358
30
0
41
1
10
286.010362977097
20
8.20000234146227
30
0
41
1
10
285.10250689423
20
8.28891533765545
30
0
41
1
10
284.644195915673
20
8.31907425630612
30
0
41
1
10
283.94955528008
20
8.34340069940555
30
0
41
1
10
283.716807393856
20
8.3480114260567
30
0
41
1
10
283.248743141407
20
8.35018152470803
30
0
41
1
10
283.012944058418
20
8.34771894696502
30
0
41
1
10
282.307194001038
20
8.32973814429442
30
0
41
1
10
281.837717579355
20
8.30372675580514
30
0
41
1
10
280.900649861135
20
8.22390809028164
30
0
41
1
10
280.433058078068
20
8.17011396671344
30
0
41
1
10
279.733018693665
20
8.06779594195928
30
0
41
1
10
279.499897554533
20
8.03007443344708
30
0
41
1
10
279.034105012227
20
7.94708543231792
30
0
41
1
10
278.800794862477
20
7.9016668742336
30
0
41
1
10
278.110066996534
20
7.75525718941836
30
0
41
1
10
277.65978275071
20
7.64395347324066
30
0
41
1
10
277.001897519301
20
7.45486239302997
30
0
41
1
10
276.785540978093
20
7.38811928684424
30
0
41
1
10
276.359369384821
20
7.24649726100085
30
0
41
1
10
276.148701650448
20
7.17126525706908
30
0
41
1
10
275.863930905466
20
7.06137076024655
30
0
41
1
10
275.783622021758
20
7.02944237933227
30
0
41
1
10
275.704417621342
20
6.99694460861633
30
0
0
SPLINE
5
2E1
100
AcDbEntity
8
1
62
256
6
ByLayer
370
13
48
1
60
0
100
AcDbSpline
70
4
71
3
72
8
73
4
40
0
40
0
40
0
40
0
40
1
40
1
40
1
40
1
41
1
10
288.107106212144
20
-0.297508387326758
30
0
41
1
10
288.432436399417
20
-0.357590167709105
30
0
41
1
10
288.758355282481
20
-0.398912991715037
30
0
41
1
10
289.084840862284
20
-0.42142214537563
30
0
0
SPLINE
5
2E2
100
AcDbEntity
8
1
62
256
6
ByLayer
370
13
48
1
60
0
100
AcDbSpline
70
4
71
3
72
38
73
34
40
0
40
0
40
0
40
0
40
0.125
40
0.125
40
0.1875
40
0.1875
40
0.21875
40
0.21875
40
0.250000000000001
40
0.250000000000001
40
0.375000000000001
40
0.375000000000001
40
0.406250000000001
40
0.406250000000001
40
0.437500000000001
40
0.437500000000001
40
0.500000000000001
40
0.500000000000001
40
0.562500000000001
40
0.562500000000001
40
0.593750000000001
40
0.593750000000001
40
0.625
40
0.625
40
0.6875
40
0.6875
40
0.75
40
0.75
40
0.875
40
0.875
40
0.9375
40
0.9375
40
1
40
1
40
1
40
1
41
1
10
5.90790000000001
20
-5.56776436283002
30
0
41
1
10
6.33978614979274
20
-5.22708880150483
30
0
41
1
10
6.74032525552444
20
-4.85609766047494
30
0
41
1
10
7.2861897826229
20
-4.2464747363251
30
0
41
1
10
7.45892887210459
20
-4.03435458342835
30
0
41
1
10
7.7024392329911
20
-3.70108933689139
30
0
41
1
10
7.7807427072935
20
-3.58779907415217
30
0
41
1
10
7.93016126314406
20
-3.35853195397857
30
0
41
1
10
8.00147062929757
20
-3.2422933740493
30
0
41
1
10
8.34055611908262
20
-2.65285737851278
30
0
41
1
10
8.55666042609892
20
-2.15526689139938
30
0
41
1
10
8.74415642456425
20
-1.49426899725813
30
0
41
1
10
8.7775186075614
20
-1.35970996522588
30
0
41
1
10
8.83445395755444
20
-1.09111365067841
30
0
41
1
10
8.85819539813717
20
-0.956578160968206
30
0
41
1
10
8.9153384982272
20
-0.552264589660268
30
0
41
1
10
8.93469110645663
20
-0.281781021352003
30
0
41
1
10
8.93565284498666
20
0.261081440547542
30
0
41
1
10
8.91726565970109
20
0.533460149122391
30
0
41
1
10
8.86037984029872
20
0.943499793011966
30
0
41
1
10
8.83662141392128
20
1.07952889422299
30
0
41
1
10
8.78026693919701
20
1.34799103969695
30
0
41
1
10
8.74762076542756
20
1.48079766138073
30
0
41
1
10
8.63678805335724
20
1.87510756783411
30
0
41
1
10
8.54573929917197
20
2.13251108583745
30
0
41
1
10
8.33117678184206
20
2.63697006315871
30
0
41
1
10
8.20688719709855
20
2.88503856348712
30
0
41
1
10
7.79754581024342
20
3.59712978618509
30
0
41
1
10
7.47466953493982
20
4.03508259429046
30
0
41
1
10
6.92843492901511
20
4.64645352349169
30
0
41
1
10
6.73526707767002
20
4.84314309613799
30
0
41
1
10
6.33307569503071
20
5.21847878014475
30
0
41
1
10
6.12410436080732
20
5.39722047756223
30
0
41
1
10
5.90790000000001
20
5.56776436282999
30
0
0
SPLINE
5
2E3
100
AcDbEntity
8
1
62
256
6
ByLayer
370
13
48
1
60
0
100
AcDbSpline
70
4
71
3
72
18
73
14
40
0
40
0
40
0
40
0
40
0.249999999999831
40
0.249999999999831
40
0.374999999999859
40
0.374999999999859
40
0.499999999999887
40
0.499999999999887
40
0.749999999999943
40
0.749999999999943
40
0.874999999999972
40
0.874999999999972
40
1
40
1
40
1
40
1
41
1
10
307.892767032724
20
7.91770043621858
30
0
41
1
10
307.950143375314
20
7.92070740291717
30
0
41
1
10
308.007900199969
20
7.91353282334703
30
0
41
1
10
308.089198500553
20
7.89015666557046
30
0
41
1
10
308.115080972485
20
7.88038545841854
30
0
41
1
10
308.163228505424
20
7.85844104212123
30
0
41
1
10
308.185882986986
20
7.84604977136624
30
0
41
1
10
308.245871405469
20
7.8091255818774
30
0
41
1
10
308.276691628691
20
7.78425762471218
30
0
41
1
10
308.308902401286
20
7.75861793190614
30
0
41
1
10
308.317575045892
20
7.75179239907769
30
0
41
1
10
308.330658044537
20
7.74285593626328
30
0
41
1
10
308.335215172145
20
7.74061369145389
30
0
41
1
10
308.337875860781
20
7.74075313223668
30
0
0
SPLINE
5
2E4
100
AcDbEntity
8
1
62
256
6
ByLayer
370
13
48
1
60
0
100
AcDbSpline
70
4
71
3
72
8
73
4
40
0
40
0
40
0
40
0
40
1
40
1
40
1
40
1
41
1
10
289.036072612899
20
10.3545948603802
30
0
41
1
10
289.167630771628
20
11.6125734110366
30
0
41
1
10
289.295776316852
20
12.8688390393922
30
0
41
1
10
289.41961932056
20
14.1237020271483
30
0
0
SPLINE
5
2E5
100
AcDbEntity
8
1
62
256
6
ByLayer
370
13
48
1
60
0
100
AcDbSpline
70
4
71
3
72
18
73
14
40
0
40
0
40
0
40
0
40
0.249999999999998
40
0.249999999999998
40
0.374999999999999
40
0.374999999999999
40
0.5
40
0.5
40
0.749999999999998
40
0.749999999999998
40
0.874999999999999
40
0.874999999999999
40
1
40
1
40
1
40
1
41
1
10
35.2449980058231
20
-21.2410605318995
30
0
41
1
10
34.8778020725368
20
-21.2410305794837
30
0
41
1
10
34.5171238217906
20
-21.2714819233793
30
0
41
1
10
33.9851610244003
20
-21.3595045575687
30
0
41
1
10
33.8093556672347
20
-21.3959333383427
30
0
41
1
10
33.4607249733991
20
-21.4827275847787
30
0
41
1
10
33.2872606650923
20
-21.5333135095114
30
0
41
1
10
32.7758208431116
20
-21.7043600955151
30
0
41
1
10
32.4506514212225
20
-21.84240915692
30
0
41
1
10
31.9835440690496
20
-22.0808874376673
30
0
41
1
10
31.8313021265452
20
-22.1656437876723
30
0
41
1
10
31.5334232814584
20
-22.3452030525981
30
0
41
1
10
31.3873537720467
20
-22.4403284126564
30
0
41
1
10
31.2459029489929
20
-22.5392757174271
30
0
0
SPLINE
5
2E6
100
AcDbEntity
8
1
62
256
6
ByLayer
370
13
48
1
60
0
100
AcDbSpline
70
4
71
3
72
22
73
18
40
0
40
0
40
0
40
0
40
0.125
40
0.125
40
0.25
40
0.25
40
0.375
40
0.375
40
0.5
40
0.5
40
0.625
40
0.625
40
0.75
40
0.75
40
0.875
40
0.875
40
1
40
1
40
1
40
1
41
1
10
288.360615528531
20
8.23526399481358
30
0
41
1
10
288.383225294868
20
8.30250553248885
30
0
41
1
10
288.404825107392
20
8.37373628113917
30
0
41
1
10
288.446383730828
20
8.52189464333503
30
0
41
1
10
288.46642461552
20
8.59911443471901
30
0
41
1
10
288.505589187789
20
8.75981229411656
30
0
41
1
10
288.524819432237
20
8.84385734529246
30
0
41
1
10
288.561764784257
20
9.01367666497285
30
0
41
1
10
288.579580996861
20
9.09982984588737
30
0
41
1
10
288.614405284684
20
9.27449880786619
30
0
41
1
10
288.631405259591
20
9.36301582782639
30
0
41
1
10
288.665203263372
20
9.54238960450266
30
0
41
1
10
288.681646646254
20
9.63140149383946
30
0
41
1
10
288.714521415046
20
9.80723395630392
30
0
41
1
10
288.730935810025
20
9.89417934004365
30
0
41
1
10
288.765680608593
20
10.0657021810088
30
0
41
1
10
288.783965829406
20
10.1507704806925
30
0
41
1
10
288.805355381969
20
10.2320242392237
30
0
0
SPLINE
5
2E7
100
AcDbEntity
8
1
62
256
6
ByLayer
370
13
48
1
60
0
100
AcDbSpline
70
4
71
3
72
8
73
4
40
0
40
0
40
0
40
0
40
1
40
1
40
1
40
1
41
1
10
291.107106212144
20
-21.8207894932469
30
0
41
1
10
290.107106211994
20
-21.7462061128631
30
0
41
1
10
289.107106211992
20
-21.6716227305037
30
0
41
1
10
288.107106212144
20
-21.5970393461067
30
0
0
SPLINE
5
2E8
100
AcDbEntity
8
1
62
256
6
ByLayer
370
13
48
1
60
0
100
AcDbSpline
70
4
71
3
72
8
73
4
40
0
40
0
40
0
40
0
40
1
40
1
40
1
40
1
41
1
10
35.2449980058231
20
-21.2410605319025
30
0
41
1
10
35.2449980059102
20
-21.4698544929143
30
0
41
1
10
35.2449980059987
20
-21.6986484539256
30
0
41
1
10
35.2449980060886
20
-21.9274424149365
30
0
0
SPLINE
5
2E9
100
AcDbEntity
8
1
62
256
6
ByLayer
370
13
48
1
60
0
100
AcDbSpline
70
4
71
3
72
14
73
10
40
0
40
0
40
0
40
0
40
0.250000000000004
40
0.250000000000004
40
0.375000000000001
40
0.375000000000001
40
0.499999999999998
40
0.499999999999998
40
1
40
1
40
1
40
1
41
1
10
284.663762829563
20
21.2595709001005
30
0
41
1
10
284.970263336959
20
20.6096805367404
30
0
41
1
10
285.296658170711
20
19.9705331821504
30
0
41
1
10
285.820071145264
20
19.0300754644998
30
0
41
1
10
286.000181566859
20
18.7196348714201
30
0
41
1
10
286.372368845046
20
18.1052156037905
30
0
41
1
10
286.564667921765
20
17.8009127235904
30
0
41
1
10
287.554232399662
20
16.3018082691029
30
0
41
1
10
288.436591019225
20
15.1733338790132
30
0
41
1
10
289.419591929041
20
14.1234244780181
30
0
0
SPLINE
5
2EA
100
AcDbEntity
8
1
62
256
6
ByLayer
370
13
48
1
60
0
100
AcDbSpline
70
4
71
3
72
36
73
32
40
0
40
0
40
0
40
0
40
0.0174147553958653
40
0.0174147553958653
40
0.038320824429995
40
0.038320824429995
40
0.0592268934641248
40
0.0592268934641248
40
0.0801329624982546
40
0.0801329624982546
40
0.121945100566514
40
0.121945100566514
40
0.163757238634773
40
0.163757238634773
40
0.174210273151838
40
0.174210273151838
40
0.184663307668903
40
0.184663307668903
40
0.205569376703034
40
0.205569376703034
40
0.247381514771295
40
0.247381514771295
40
0.331005790907818
40
0.331005790907818
40
0.41463006704434
40
0.41463006704434
40
0.498254343180863
40
0.498254343180863
40
0.665502895453909
40
0.665502895453909
40
1
40
1
40
1
40
1
41
1
10
222.123096203173
20
-11.6705505378664
30
0
41
1
10
221.07088230204
20
-11.7455891197288
30
0
41
1
10
220.017777101149
20
-11.8157726294798
30
0
41
1
10
217.698598337573
20
-11.961865299707
30
0
41
1
10
216.432180562635
20
-12.0363931841413
30
0
41
1
10
213.896582876929
20
-12.1728778071325
30
0
41
1
10
212.627311539076
20
-12.2338997562158
30
0
41
1
10
210.085420536974
20
-12.3399520599891
30
0
41
1
10
208.8128490033
20
-12.3854530169138
30
0
41
1
10
204.990309699616
20
-12.5027450849964
30
0
41
1
10
202.435478216662
20
-12.5551705266016
30
0
41
1
10
197.313565294789
20
-12.6256032299274
30
0
41
1
10
194.746527505758
20
-12.6439631486714
30
0
41
1
10
191.530682576808
20
-12.6548936751444
30
0
41
1
10
190.887171953521
20
-12.6565680546438
30
0
41
1
10
189.599423601718
20
-12.6593770333793
30
0
41
1
10
188.95514212606
20
-12.6604588542756
30
0
41
1
10
187.021688899144
20
-12.6622706201963
30
0
41
1
10
185.73218833903
20
-12.6616003807525
30
0
41
1
10
181.863957015807
20
-12.6616714436185
30
0
41
1
10
179.285136267596
20
-12.6623118125192
30
0
41
1
10
171.548674345772
20
-12.6621457675454
30
0
41
1
10
166.391033422108
20
-12.6611970627815
30
0
41
1
10
156.07575106868
20
-12.6606502595308
30
0
41
1
10
150.918109704254
20
-12.6605509694595
30
0
41
1
10
140.602826898382
20
-12.6606986314278
30
0
41
1
10
135.445185476341
20
-12.6609689830546
30
0
41
1
10
119.972261395515
20
-12.661355528533
30
0
41
1
10
109.656978795043
20
-12.6610154731091
30
0
41
1
10
78.7111307870944
20
-12.6605688503693
30
0
41
1
10
58.0805653633416
20
-12.6610004098073
30
0
41
1
10
37.45
20
-12.6609163665901
30
0
0
SPLINE
5
2EB
100
AcDbEntity
8
1
62
256
6
ByLayer
370
13
48
1
60
0
100
AcDbSpline
70
4
71
3
72
10
73
6
40
0
40
0
40
0
40
0
40
0.451566013944706
40
0.451566013944706
40
1
40
1
40
1
40
1
41
1
10
37.45
20
-21.2274803272127
30
0
41
1
10
37.45
20
-19.9380239465274
30
0
41
1
10
37.45
20
-18.648567566016
30
0
41
1
10
37.45
20
-15.7930462457258
30
0
41
1
10
37.45
20
-14.2269813060297
30
0
41
1
10
37.45
20
-12.6609163665901
30
0
0
SPLINE
5
2EC
100
AcDbEntity
8
1
62
256
6
ByLayer
370
13
48
1
60
0
100
AcDbSpline
70
4
71
3
72
8
73
4
40
0
40
0
40
0
40
0
40
1
40
1
40
1
40
1
41
1
10
284.663762829557
20
21.2595709000906
30
0
41
1
10
284.701264956043
20
21.3198035826725
30
0
41
1
10
284.738621108312
20
21.3801293578686
30
0
41
1
10
284.775833362637
20
21.4405469015722
30
0
0
SPLINE
5
2ED
100
AcDbEntity
8
1
62
256
6
ByLayer
370
13
48
1
60
0
100
AcDbSpline
70
4
71
3
72
16
73
12
40
0
40
0
40
0
40
0
40
0.125
40
0.125
40
0.25
40
0.25
40
0.5
40
0.5
40
0.75
40
0.75
40
1
40
1
40
1
40
1
41
1
10
147
20
-21.6237052983903
30
0
41
1
10
142.624998876843
20
-21.6332222669346
30
0
41
1
10
138.249997112294
20
-21.6425687515188
30
0
41
1
10
129.499994869723
20
-21.6614795034645
30
0
41
1
10
125.124994792871
20
-21.6710723293409
30
0
41
1
10
111.999996071214
20
-21.7000469881889
30
0
41
1
10
103.249998535993
20
-21.7195695146561
30
0
41
1
10
85.7499989944507
20
-21.7580384218703
30
0
41
1
10
76.9999979886056
20
-21.7771176354709
30
0
41
1
10
59.4999980735439
20
-21.8155260368679
30
0
41
1
10
50.7499990740576
20
-21.834839580277
30
0
41
1
10
41.9999999999999
20
-21.8541415843063
30
0
0
SPLINE
5
2EE
100
AcDbEntity
8
1
62
256
6
ByLayer
370
13
48
1
60
0
100
AcDbSpline
70
4
71
3
72
8
73
4
40
0
40
0
40
0
40
0
40
1
40
1
40
1
40
1
41
1
10
1.42E-14
20
4.97594212184995
30
0
41
1
10
0.031571657597965
20
5.1735845200318
30
0
41
1
10
0.0649171506606621
20
5.37085605809409
30
0
41
1
10
0.0999999999999801
20
5.56776436282993
30
0
0
SPLINE
5
2EF
100
AcDbEntity
8
1
62
256
6
ByLayer
370
13
48
1
60
0
100
AcDbSpline
70
4
71
3
72
8
73
4
40
0
40
0
40
0
40
0
40
1
40
1
40
1
40
1
41
1
10
290.326184995464
20
6.74868629274297
30
0
41
1
10
290.317181550024
20
6.72805002231425
30
0
41
1
10
290.308029853293
20
6.70749908673562
30
0
41
1
10
290.298731688402
20
6.68703245962135
30
0
0
SPLINE
5
2F0
100
AcDbEntity
8
1
62
256
6
ByLayer
370
13
48
1
60
0
100
AcDbSpline
70
4
71
3
72
18
73
14
40
0
40
0
40
0
40
0
40
0.182644245733292
40
0.182644245733292
40
0.365288491466584
40
0.365288491466584
40
0.547932737199876
40
0.547932737199876
40
0.730576982933168
40
0.730576982933168
40
0.91322122866646
40
0.91322122866646
40
1
40
1
40
1
40
1
41
1
10
37.01
20
-12.6609163665901
30
0
41
1
10
37.01
20
-12.3967741597985
30
0
41
1
10
37.01
20
-12.1222084680357
30
0
41
1
10
37.01
20
-11.5530991652036
30
0
41
1
10
37.01
20
-11.2562446431496
30
0
41
1
10
37.01
20
-10.6520363924521
30
0
41
1
10
37.01
20
-10.3489430618571
30
0
41
1
10
37.01
20
-9.74082976857679
30
0
41
1
10
37.01
20
-9.43265416566359
30
0
41
1
10
37.01
20
-8.83256302546681
30
0
41
1
10
37.01
20
-8.54084467498083
30
0
41
1
10
37.01
20
-8.12267795736656
30
0
41
1
10
37.01
20
-7.98937265835889
30
0
41
1
10
37.01
20
-7.85880936659032
30
0
0
SPLINE
5
2F1
100
AcDbEntity
8
1
62
256
6
ByLayer
370
13
48
1
60
0
100
AcDbSpline
70
4
71
3
72
8
73
4
40
0
40
0
40
0
40
0
40
1
40
1
40
1
40
1
41
1
10
42
20
-21.8541415843063
30
0
41
1
10
40.3333333336546
20
-21.8541531878167
30
0
41
1
10
38.6666666671985
20
-21.8541646936246
30
0
41
1
10
37
20
-21.8541753248575
30
0
0
SPLINE
5
2F2
100
AcDbEntity
8
1
62
256
6
ByLayer
370
13
48
1
60
0
100
AcDbSpline
70
4
71
3
72
8
73
4
40
0
40
0
40
0
40
0
40
1
40
1
40
1
40
1
41
1
10
291.502470977194
20
5.30476377998824
30
0
41
1
10
291.583092505932
20
5.28165608342377
30
0
41
1
10
291.663517547511
20
5.25862173038732
30
0
41
1
10
291.74373843389
20
5.23566307444781
30
0
0
SPLINE
5
2F3
100
AcDbEntity
8
1
62
256
6
ByLayer
370
13
48
1
60
0
100
AcDbSpline
70
4
71
3
72
8
73
4
40
0
40
0
40
0
40
0
40
1
40
1
40
1
40
1
41
1
10
296.929956732343
20
6.31448028968523
30
0
41
1
10
296.951391865019
20
6.3378070454024
30
0
41
1
10
296.972435739481
20
6.36155923953464
30
0
41
1
10
296.993058048494
20
6.38570854492423
30
0
0
SPLINE
5
2F4
100
AcDbEntity
8
1
62
256
6
ByLayer
370
13
48
1
60
0
100
AcDbSpline
70
4
71
3
72
10
73
6
40
0
40
0
40
0
40
0
40
0.5
40
0.5
40
1
40
1
40
1
40
1
41
1
10
300.136758314409
20
7.51122524319174
30
0
41
1
10
300.167337119694
20
7.51282781046984
30
0
41
1
10
300.198275052232
20
7.51155726653005
30
0
41
1
10
300.258456623205
20
7.50373674378793
30
0
41
1
10
300.287865549188
20
7.49722987156142
30
0
41
1
10
300.316566613709
20
7.48834626311279
30
0
0
SPLINE
5
2F5
100
AcDbEntity
8
1
62
256
6
ByLayer
370
13
48
1
60
0
100
AcDbSpline
70
4
71
3
72
34
73
30
40
0
40
0
40
0
40
0
40
0.0946073661355857
40
0.0946073661355857
40
0.189214732271171
40
0.189214732271171
40
0.378429464542339
40
0.378429464542339
40
0.473036830677923
40
0.473036830677923
40
0.567644196813507
40
0.567644196813507
40
0.662251562949091
40
0.662251562949091
40
0.756858929084675
40
0.756858929084675
40
0.851466295220259
40
0.851466295220259
40
0.89876997828805
40
0.89876997828805
40
0.922421819821946
40
0.922421819821946
40
0.946073661355842
40
0.946073661355842
40
0.96972550288974
40
0.96972550288974
40
0.993377344423638
40
0.993377344423638
40
1
40
1
40
1
40
1
41
1
10
284.663762829537
20
21.2595709001024
30
0
41
1
10
283.460784276992
20
21.3448883340993
30
0
41
1
10
282.258211746381
20
21.4104067090828
30
0
41
1
10
279.852746676463
20
21.5017949909521
30
0
41
1
10
278.649287462883
20
21.5276620277498
30
0
41
1
10
275.042038227585
20
21.545330008231
30
0
41
1
10
272.641151449306
20
21.4771513138668
30
0
41
1
10
269.038939342275
20
21.2544254309671
30
0
41
1
10
267.838055855922
20
21.1601491919745
30
0
41
1
10
265.434848571463
20
20.9316082804146
30
0
41
1
10
264.23181707035
20
20.7972473328417
30
0
41
1
10
261.82665338047
20
20.4888657201247
30
0
41
1
10
260.625103677493
20
20.3148048654204
30
0
41
1
10
258.222785692164
20
19.9280720152932
30
0
41
1
10
257.021984818873
20
19.7157243402347
30
0
41
1
10
254.619897441284
20
19.2570258080442
30
0
41
1
10
253.418621165458
20
19.0103441731576
30
0
41
1
10
251.615690050355
20
18.618474131298
30
0
41
1
10
251.014537270167
20
18.4844381633207
30
0
41
1
10
250.112471213603
20
18.279589262013
30
0
41
1
10
249.811726862457
20
18.2106718459989
30
0
41
1
10
249.210119541189
20
18.0717649901156
30
0
41
1
10
248.909242988682
20
18.0019311579046
30
0
41
1
10
248.306931810377
20
17.85896992135
30
0
41
1
10
248.005428311952
20
17.7855374052843
30
0
41
1
10
247.401531515099
20
17.6349007888004
30
0
41
1
10
247.099199306173
20
17.5579840962191
30
0
41
1
10
246.711973286363
20
17.4589008303177
30
0
41
1
10
246.62725423789
20
17.4371985230711
30
0
41
1
10
246.542523032373
20
17.4154699049215
30
0
0
SPLINE
5
2F6
100
AcDbEntity
8
1
62
256
6
ByLayer
370
13
48
1
60
0
100
AcDbSpline
70
4
71
3
72
23
73
19
40
0
40
0
40
0
40
0
40
0.125
40
0.125
40
0.25
40
0.25
40
0.375
40
0.375
40
0.5
40
0.625
40
0.625
40
0.75
40
0.75
40
0.875
40
0.875
40
0.9375
40
0.9375
40
1
40
1
40
1
40
1
41
1
10
296.999476950795
20
6.1350544806912
30
0
41
1
10
296.898530937841
20
6.042599156736
30
0
41
1
10
296.791019925729
20
5.95830591772443
30
0
41
1
10
296.561841690486
20
5.80645988683105
30
0
41
1
10
296.442509459987
20
5.74049504182673
30
0
41
1
10
296.195284459864
20
5.62842220408189
30
0
41
1
10
296.066759108206
20
5.58205987770936
30
0
41
1
10
295.801510842867
20
5.51013430817929
30
0
41
1
10
295.533451423994
20
5.46033588420201
30
0
41
1
10
295.25974126077
20
5.45313196660547
30
0
41
1
10
294.983221481745
20
5.46805085351011
30
0
41
1
10
294.846428035536
20
5.48648573685622
30
0
41
1
10
294.578522947979
20
5.54416646315852
30
0
41
1
10
294.446949239779
20
5.58343399940901
30
0
41
1
10
294.253410457198
20
5.65858342050066
30
0
41
1
10
294.189749884025
20
5.68630510786662
30
0
41
1
10
294.066104068818
20
5.7461642410554
30
0
41
1
10
294.005837835591
20
5.77840651119573
30
0
41
1
10
293.947151413127
20
5.81291352500006
30
0
0
SPLINE
5
2F7
100
AcDbEntity
8
1
62
256
6
ByLayer
370
13
48
1
60
0
100
AcDbSpline
70
2053
71
3
72
94
73
90
40
0
40
0
40
0
40
0
40
0.0312499999999953
40
0.0312499999999953
40
0.0468749999999929
40
0.0468749999999929
40
0.0624999999999905
40
0.0624999999999905
40
0.0937499999999858
40
0.0937499999999858
40
0.109374999999983
40
0.109374999999983
40
0.124999999999981
40
0.140624999999978
40
0.140624999999978
40
0.156249999999976
40
0.156249999999976
40
0.187499999999978
40
0.187499999999978
40
0.218749999999979
40
0.218749999999979
40
0.249999999999981
40
0.249999999999981
40
0.265624999999982
40
0.265624999999982
40
0.281249999999982
40
0.281249999999982
40
0.312499999999983
40
0.312499999999983
40
0.328124999999986
40
0.328124999999986
40
0.343749999999989
40
0.343749999999989
40
0.374999999999994
40
0.374999999999994
40
0.40625
40
0.40625
40
0.421875000000003
40
0.421875000000003
40
0.437500000000006
40
0.437500000000006
40
0.468750000000011
40
0.468750000000011
40
0.484375000000014
40
0.484375000000014
40
0.500000000000017
40
0.500000000000017
40
0.531250000000035
40
0.531250000000035
40
0.546875000000038
40
0.546875000000038
40
0.562500000000041
40
0.578125000000044
40
0.578125000000044
40
0.593750000000047
40
0.593750000000047
40
0.625000000000053
40
0.625000000000053
40
0.640625000000052
40
0.640625000000052
40
0.656250000000051
40
0.656250000000051
40
0.687500000000048
40
0.687500000000048
40
0.718750000000046
40
0.718750000000046
40
0.734375000000045
40
0.734375000000045
40
0.750000000000044
40
0.750000000000044
40
0.781250000000042
40
0.781250000000042
40
0.796875000000041
40
0.796875000000041
40
0.81250000000004
40
0.81250000000004
40
0.843750000000039
40
0.843750000000039
40
0.875000000000037
40
0.875000000000037
40
0.906250000000035
40
0.906250000000035
40
0.921875000000029
40
0.921875000000029
40
0.937500000000023
40
0.937500000000023
40
0.968750000000012
40
0.968750000000012
40
1
40
1
40
1
40
1
41
1
10
303.002789113504
20
-2.80923364041274
30
0
41
1
10
303.145777703599
20
-2.80923364041274
30
0
41
1
10
303.286226850895
20
-2.82396611967351
30
0
41
1
10
303.493252004774
20
-2.86721497696919
30
0
41
1
10
303.561647395303
20
-2.88518437447223
30
0
41
1
10
303.697180618189
20
-2.92840537383722
30
0
41
1
10
303.764106633304
20
-2.95364140489542
30
0
41
1
10
303.958416241313
20
-3.03847770529112
30
0
41
1
10
304.080926908401
20
-3.10757382757839
30
0
41
1
10
304.254202254282
20
-3.22985477275344
30
0
41
1
10
304.310427498201
20
-3.2739799412094
30
0
41
1
10
304.417006680197
20
-3.36668209484327
30
0
41
1
10
304.518221965925
20
-3.46411300089599
30
0
41
1
10
304.609020121947
20
-3.5706943268944
30
0
41
1
10
304.694616565975
20
-3.68182814673054
30
0
41
1
10
304.734979575854
20
-3.73994453837429
30
0
41
1
10
304.846849662538
20
-3.91930117767086
30
0
41
1
10
304.908556579881
20
-4.04416161287892
30
0
41
1
10
305.007620712555
20
-4.30376315285216
30
0
41
1
10
305.045075699298
20
-4.4398690025175
30
0
41
1
10
305.09313563594
20
-4.71260059465649
30
0
41
1
10
305.104228335685
20
-4.849774226097
30
0
41
1
10
305.101847928733
20
-5.0566928433592
30
0
41
1
10
305.097817915341
20
-5.12620105986443
30
0
41
1
10
305.083422558016
20
-5.26362809115611
30
0
41
1
10
305.073101236099
20
-5.33152557584742
30
0
41
1
10
305.033037450827
20
-5.53284930075327
30
0
41
1
10
304.994280378101
20
-5.66392662769721
30
0
41
1
10
304.917602169756
20
-5.85578658213481
30
0
41
1
10
304.888874799311
20
-5.91896150215919
30
0
41
1
10
304.826285270081
20
-6.04117332383444
30
0
41
1
10
304.792302934198
20
-6.10054231992038
30
0
41
1
10
304.682336000055
20
-6.27350183292319
30
0
41
1
10
304.598420100796
20
-6.3819993361887
30
0
41
1
10
304.407643007934
20
-6.58449507571729
30
0
41
1
10
304.303152817202
20
-6.67580636102466
30
0
41
1
10
304.134553610907
20
-6.79624176694085
30
0
41
1
10
304.076267848455
20
-6.83371299518265
30
0
41
1
10
303.955339243301
20
-6.90310203343236
30
0
41
1
10
303.892354640549
20
-6.93516896654768
30
0
41
1
10
303.698800449662
20
-7.0213793182067
30
0
41
1
10
303.565631537182
20
-7.06493790174937
30
0
41
1
10
303.359640795839
20
-7.10940848289377
30
0
41
1
10
303.289930365776
20
-7.12072889193158
30
0
41
1
10
303.148313731698
20
-7.13603436384477
30
0
41
1
10
303.076803191602
20
-7.13992402810393
30
0
41
1
10
302.864527092648
20
-7.14026744856656
30
0
41
1
10
302.724317986476
20
-7.12571469572308
30
0
41
1
10
302.515969727354
20
-7.08163148129751
30
0
41
1
10
302.446897450453
20
-7.06314922843359
30
0
41
1
10
302.312742417413
20
-7.01968298218225
30
0
41
1
10
302.181698616958
20
-6.96955757100855
30
0
41
1
10
302.056667381777
20
-6.90651480470709
30
0
41
1
10
301.934628091379
20
-6.83701480970768
30
0
41
1
10
301.875102628407
20
-6.79897607089194
30
0
41
1
10
301.704683391948
20
-6.67776087798842
30
0
41
1
10
301.600504335448
20
-6.58683995409115
30
0
41
1
10
301.45770445035
20
-6.43583334624722
30
0
41
1
10
301.412210631378
20
-6.38280486564162
30
0
41
1
10
301.327317034244
20
-6.27373896861457
30
0
41
1
10
301.287736489178
20
-6.21754891258453
30
0
41
1
10
301.177284325339
20
-6.04414698662242
30
0
41
1
10
301.114588991374
20
-5.92206172958166
30
0
41
1
10
301.011629459146
20
-5.66506641884328
30
0
41
1
10
300.972774786333
20
-5.53371858801523
30
0
41
1
10
300.932646096219
20
-5.33252702414924
30
0
41
1
10
300.922317625782
20
-5.26476372102977
30
0
41
1
10
300.907885931005
20
-5.12780268757615
30
0
41
1
10
300.903788285802
20
-5.05824191372196
30
0
41
1
10
300.901279307283
20
-4.85052556369692
30
0
41
1
10
300.912392176239
20
-4.713385738287
30
0
41
1
10
300.948153370262
20
-4.50970248628278
30
0
41
1
10
300.96327655777
20
-4.44214845767294
30
0
41
1
10
301.000179169413
20
-4.30775846943942
30
0
41
1
10
301.022071505313
20
-4.24072214365231
30
0
41
1
10
301.09655092029
20
-4.04509914310799
30
0
41
1
10
301.158147375383
20
-3.92057641939871
30
0
41
1
10
301.305537311108
20
-3.68359215732744
30
0
41
1
10
301.392515527906
20
-3.57011985302276
30
0
41
1
10
301.584801933162
20
-3.3654501699292
30
0
41
1
10
301.690378487254
20
-3.27325866548455
30
0
41
1
10
301.863287275708
20
-3.15070771446884
30
0
41
1
10
301.923736203862
20
-3.11231279612437
30
0
41
1
10
302.047191942599
20
-3.04251930117476
30
0
41
1
10
302.110314257342
20
-3.01098297595445
30
0
41
1
10
302.303785713829
20
-2.92628263257805
30
0
41
1
10
302.438439910438
20
-2.88287044905201
30
0
41
1
10
302.718204944804
20
-2.82399014931738
30
0
41
1
10
302.859800523409
20
-2.80923364041274
30
0
41
1
10
303.002789113504
20
-2.80923364041274
30
0
0
SPLINE
5
2F8
100
AcDbEntity
8
1
62
256
6
ByLayer
370
13
48
1
60
0
100
AcDbSpline
70
4
71
3
72
48
73
44
40
0
40
0
40
0
40
0
40
0.103103412624312
40
0.103103412624312
40
0.154655118936468
40
0.154655118936468
40
0.206206825248624
40
0.206206825248624
40
0.257758531560781
40
0.257758531560781
40
0.309310237872937
40
0.309310237872937
40
0.360861944185093
40
0.360861944185093
40
0.412413650497249
40
0.412413650497249
40
0.463965356809405
40
0.463965356809405
40
0.515517063121561
40
0.515517063121561
40
0.541292916277639
40
0.541292916277639
40
0.567068769433717
40
0.567068769433717
40
0.618620475745874
40
0.618620475745874
40
0.67017218205803
40
0.67017218205803
40
0.721723888370186
40
0.721723888370186
40
0.773275594682342
40
0.773275594682342
40
0.824827300994498
40
0.824827300994498
40
0.876379007306654
40
0.876379007306654
40
0.92793071361881
40
0.92793071361881
40
0.953706566774888
40
0.953706566774888
40
0.979482419930966
40
0.979482419930966
40
1
40
1
40
1
40
1
41
1
10
274.977471377248
20
7.27028468640103
30
0
41
1
10
272.452510783808
20
8.34098349629917
30
0
41
1
10
269.928858356385
20
9.38131421754863
30
0
41
1
10
266.137561953425
20
10.8802104981828
30
0
41
1
10
264.872271987845
20
11.3697754750273
30
0
41
1
10
262.344968539004
20
12.323096979257
30
0
41
1
10
261.082230790409
20
12.7871453440031
30
0
41
1
10
258.557104999991
20
13.6874492339465
30
0
41
1
10
257.294693942254
20
14.1236660104624
30
0
41
1
10
254.768810623597
20
14.9659867400002
30
0
41
1
10
253.505412954768
20
15.3722350790504
30
0
41
1
10
250.977437882255
20
16.1542755008847
30
0
41
1
10
249.712587473917
20
16.5303508444822
30
0
41
1
10
247.187549494979
20
17.248346764708
30
0
41
1
10
245.926302381696
20
17.5900282118085
30
0
41
1
10
243.401729132661
20
18.232953125851
30
0
41
1
10
242.138558387515
20
18.5343592311494
30
0
41
1
10
239.60427993851
20
19.0916543612435
30
0
41
1
10
238.332934949951
20
19.3471888714766
30
0
41
1
10
236.4122972937
20
19.691865433428
30
0
41
1
10
235.769499322848
20
19.8003956290291
30
0
41
1
10
234.47960459551
20
20.0041255385208
30
0
41
1
10
233.832696279277
20
20.0992733841567
30
0
41
1
10
231.886358255469
20
20.3667474971345
30
0
41
1
10
230.581321113683
20
20.5211889555038
30
0
41
1
10
227.958026929285
20
20.7922588028118
30
0
41
1
10
226.639777537665
20
20.9088759876294
30
0
41
1
10
223.991830714293
20
21.112002385442
30
0
41
1
10
222.662128340185
20
21.1985009090472
30
0
41
1
10
219.993248859232
20
21.3474485809767
30
0
41
1
10
218.65432889397
20
21.4100145736506
30
0
41
1
10
215.971737204409
20
21.5144369656807
30
0
41
1
10
214.627426992041
20
21.5562508769995
30
0
41
1
10
211.929815455919
20
21.622101652122
30
0
41
1
10
210.576262436201
20
21.6460860679464
30
0
41
1
10
207.858316661841
20
21.6812152262087
30
0
41
1
10
206.493884242511
20
21.6924046073568
30
0
41
1
10
204.439485122994
20
21.7033533255921
30
0
41
1
10
203.753152766257
20
21.7060226861717
30
0
41
1
10
202.379791125553
20
21.7098870184715
30
0
41
1
10
201.692657351764
20
21.7110821536496
30
0
41
1
10
200.457740346236
20
21.7123016840264
30
0
41
1
10
199.910125341819
20
21.7125197407162
30
0
41
1
10
199.362216318977
20
21.7125057789645
30
0
0
SPLINE
5
2F9
100
AcDbEntity
8
1
62
256
6
ByLayer
370
13
48
1
60
0
100
AcDbSpline
70
4
71
3
72
12
73
8
40
0
40
0
40
0
40
0
40
0.25
40
0.25
40
0.5
40
0.5
40
1
40
1
40
1
40
1
41
1
10
298.582333408843
20
5.45892999965116
30
0
41
1
10
298.876386479911
20
5.56359951605657
30
0
41
1
10
299.163988012455
20
5.65169150655711
30
0
41
1
10
299.728132736605
20
5.80146081719028
30
0
41
1
10
300.004649262818
20
5.8630822448381
30
0
41
1
10
300.818241703088
20
6.01490292236429
30
0
41
1
10
301.339596703731
20
6.07220481301536
30
0
41
1
10
301.837377308263
20
6.09829238906946
30
0
0
SPLINE
5
2FA
100
AcDbEntity
8
1
62
256
6
ByLayer
370
13
48
1
60
0
100
AcDbSpline
70
4
71
3
72
8
73
4
40
0
40
0
40
0
40
0
40
1
40
1
40
1
40
1
41
1
10
301.837377308263
20
6.09829238906931
30
0
41
1
10
302.378373402464
20
6.1266447929672
30
0
41
1
10
302.892668611519
20
6.15359786276963
30
0
41
1
10
303.376628279947
20
6.17896111425449
30
0
0
SPLINE
5
2FB
100
AcDbEntity
8
1
62
256
6
ByLayer
370
13
48
1
60
0
100
AcDbSpline
70
4
71
3
72
16
73
12
40
0
40
0
40
0
40
0
40
0.250000000000001
40
0.250000000000001
40
0.374999999999999
40
0.374999999999999
40
0.499999999999997
40
0.499999999999997
40
0.749999999999999
40
0.749999999999999
40
1
40
1
40
1
40
1
41
1
10
31.2486258615227
20
-8.94493960915733
30
0
41
1
10
31.5512864369669
20
-8.76970894107322
30
0
41
1
10
31.8630660485005
20
-8.6153359789607
30
0
41
1
10
32.3444201469818
20
-8.41451831437473
30
0
41
1
10
32.5071593910846
20
-8.35272063361842
30
0
41
1
10
32.8373004414256
20
-8.23953018607045
30
0
41
1
10
33.0050099504112
20
-8.18805502904448
30
0
41
1
10
33.5133152770945
20
-8.05018317026156
30
0
41
1
10
33.8552796450326
20
-7.98120345769266
30
0
41
1
10
34.5454234027644
20
-7.88806588674373
30
0
41
1
10
34.8936026883151
20
-7.86391002953587
30
0
41
1
10
35.2449980097523
20
-7.86282424751803
30
0
0
SPLINE
5
2FC
100
AcDbEntity
8
1
62
256
6
ByLayer
370
13
48
1
60
0
100
AcDbSpline
70
4
71
3
72
8
73
4
40
0
40
0
40
0
40
0
40
1
40
1
40
1
40
1
41
1
10
288.358900350868
20
8.2297832706389
30
0
41
1
10
288.359432248732
20
8.23161968804482
30
0
41
1
10
288.360004398275
20
8.23344649092783
30
0
41
1
10
288.360615528531
20
8.23526399481344
30
0
0
SPLINE
5
2FD
100
AcDbEntity
8
1
62
256
6
ByLayer
370
13
48
1
60
0
100
AcDbSpline
70
4
71
3
72
12
73
8
40
0
40
0
40
0
40
0
40
0.500000000000022
40
0.500000000000022
40
0.750000000000011
40
0.750000000000011
40
1
40
1
40
1
40
1
41
1
10
284.759124847345
20
0.866957930942789
30
0
41
1
10
285.275757297645
20
0.563605057056463
30
0
41
1
10
285.812857985756
20
0.313409285604791
30
0
41
1
10
286.650013125569
20
0.0200655461624706
30
0
41
1
10
286.93434122601
20
-0.0639910302895146
30
0
41
1
10
287.514087315436
20
-0.203241687708385
30
0
41
1
10
287.80980017525
20
-0.258349654459408
30
0
41
1
10
288.107106212144
20
-0.297508387326758
30
0
0
SPLINE
5
2FE
100
AcDbEntity
8
1
62
256
6
ByLayer
370
13
48
1
60
0
100
AcDbSpline
70
4
71
3
72
8
73
4
40
0
40
0
40
0
40
0
40
1
40
1
40
1
40
1
41
1
10
290.170554943915
20
10.2828453553712
30
0
41
1
10
290.154233418801
20
10.2864629663245
30
0
41
1
10
290.137833655626
20
10.2895894625761
30
0
41
1
10
290.121349742138
20
10.292187731838
30
0
0
SPLINE
5
2FF
100
AcDbEntity
8
1
62
256
6
ByLayer
370
13
48
1
60
0
100
AcDbSpline
70
4
71
3
72
18
73
14
40
0
40
0
40
0
40
0
40
0.125000000000024
40
0.125000000000024
40
0.250000000000048
40
0.250000000000048
40
0.375000000000072
40
0.375000000000072
40
0.500000000000096
40
0.500000000000096
40
0.750000000000048
40
0.750000000000048
40
1
40
1
40
1
40
1
41
1
10
296.554549027944
20
6.01315219983837
30
0
41
1
10
296.54158787573
20
6.0003714901942
30
0
41
1
10
296.533233985636
20
5.99133071899797
30
0
41
1
10
296.528353281594
20
5.98239916579345
30
0
41
1
10
296.531728357907
20
5.98234228923698
30
0
41
1
10
296.548059609985
20
5.98989579597819
30
0
41
1
10
296.561099549335
20
5.99751862466161
30
0
41
1
10
296.593059509052
20
6.01821749968798
30
0
41
1
10
296.612263314141
20
6.0314731971304
30
0
41
1
10
296.675328584249
20
6.07767256931058
30
0
41
1
10
296.72335888346
20
6.11598347344403
30
0
41
1
10
296.826162336554
20
6.20744057412497
30
0
41
1
10
296.878228599885
20
6.25818721569999
30
0
41
1
10
296.929956732343
20
6.31448028968433
30
0
0
SPLINE
5
300
100
AcDbEntity
8
1
62
256
6
ByLayer
370
13
48
1
60
0
100
AcDbSpline
70
4
71
3
72
12
73
8
40
0
40
0
40
0
40
0
40
0.270248050190985
40
0.270248050190985
40
0.635124025095492
40
0.635124025095492
40
1
40
1
40
1
40
1
41
1
10
37.4500090520584
20
-7.85059036715825
30
0
41
1
10
37.4500190334773
20
-8.25536980719883
30
0
41
1
10
37.4500275323841
20
-8.68755358281649
30
0
41
1
10
37.4500432466806
20
-9.73132472861778
30
0
41
1
10
37.4500489652269
20
-10.3523836979587
30
0
41
1
10
37.4500530307875
20
-11.5555527316165
30
0
41
1
10
37.4500513765868
20
-12.1373032268533
30
0
41
1
10
37.4500461443202
20
-12.6609163667781
30
0
0
SPLINE
5
301
100
AcDbEntity
8
1
62
256
6
ByLayer
370
13
48
1
60
0
100
AcDbSpline
70
4
71
3
72
8
73
4
40
0
40
0
40
0
40
0
40
1
40
1
40
1
40
1
41
1
10
37.01
20
-21.2412045058323
30
0
41
1
10
36.4216660019475
20
-21.2411564558375
30
0
41
1
10
35.8333320038821
20
-21.2411085226699
30
0
41
1
10
35.2449980058231
20
-21.2410605318756
30
0
0
SPLINE
5
302
100
AcDbEntity
8
1
62
256
6
ByLayer
370
13
48
1
60
0
100
AcDbSpline
70
4
71
3
72
8
73
4
40
0
40
0
40
0
40
0
40
1
40
1
40
1
40
1
41
1
10
296.538118329166
20
7.09302888621937
30
0
41
1
10
296.565910625818
20
7.09395593806792
30
0
41
1
10
296.594332477489
20
7.09376624534715
30
0
41
1
10
296.622237410309
20
7.09235636272047
30
0
0
SPLINE
5
303
100
AcDbEntity
8
1
62
256
6
ByLayer
370
13
48
1
60
0
100
AcDbSpline
70
4
71
3
72
10
73
6
40
0
40
0
40
0
40
0
40
0.977278301418857
40
0.977278301418857
40
1
40
1
40
1
40
1
41
1
10
288.36061552853
20
8.23526399481381
30
0
41
1
10
283.185447247455
20
8.41918670537385
30
0
41
1
10
278.01648956343
20
8.45563184560081
30
0
41
1
10
272.725816621616
20
8.34450448668781
30
0
41
1
10
272.605602718816
20
8.34190127258961
30
0
41
1
10
272.485387896768
20
8.33922002601747
30
0
0
SPLINE
5
304
100
AcDbEntity
8
1
62
256
6
ByLayer
370
13
48
1
60
0
100
AcDbSpline
70
4
71
3
72
46
73
42
40
0
40
0
40
0
40
0
40
0.010207684216876
40
0.0962191022796277
40
0.188623505649284
40
0.287514636430427
40
0.392922181654895
40
0.504807068566899
40
0.514748422005007
40
0.525001615950807
40
0.535567386657373
40
0.546446450127214
40
0.557639500029043
40
0.569147205372674
40
0.580970207958781
40
0.593109119617537
40
0.605564519248107
40
0.61833694966933
40
0.631426914290803
40
0.64483487361273
40
0.658561241562368
40
0.672606381674559
40
0.686970603123758
40
0.70165415661499
40
0.716657230141384
40
0.731979944616278
40
0.747622349388322
40
0.763584417648556
40
0.779866041739125
40
0.796467028373984
40
0.813387093782815
40
0.830625858790222
40
0.848182843843303
40
0.866057464001653
40
0.884249023905037
40
0.902756712735076
40
0.921579599188513
40
0.940716626480937
40
0.960166607401122
40
0.979928219437532
40
1
40
1
40
1
40
1
41
1
10
33.7998683293979
20
-8.08361435028425
30
0
41
1
10
33.8072857504171
20
-8.09942672872424
30
0
41
1
10
33.8776208475314
20
-8.24868803711698
30
0
41
1
10
34.0231577419141
20
-8.5451295618802
30
0
41
1
10
34.258620301797
20
-8.98814747066029
30
0
41
1
10
34.5343901417508
20
-9.46663577574395
30
0
41
1
10
34.8530428448834
20
-9.97718846402199
30
0
41
1
10
35.0986271265262
20
-10.3412830928713
30
0
41
1
10
35.2453934544314
20
-10.5506956627905
30
0
41
1
10
35.2796917044399
20
-10.5994137645608
30
0
41
1
10
35.315181145927
20
-10.649535348223
30
0
41
1
10
35.3518799958225
20
-10.7010474107748
30
0
41
1
10
35.3898104349008
20
-10.7539313266112
30
0
41
1
10
35.428992887314
20
-10.8081683306518
30
0
41
1
10
35.4694474882067
20
-10.8637378997567
30
0
41
1
10
35.5111935337471
20
-10.9206181216873
30
0
41
1
10
35.5542494898333
20
-10.9787855081443
30
0
41
1
10
35.5986328393094
20
-11.0382149631242
30
0
41
1
10
35.6443599688127
20
-11.0988797082411
30
0
41
1
10
35.6914460391962
20
-11.1607512206082
30
0
41
1
10
35.7399048552203
20
-11.2237991680632
30
0
41
1
10
35.7897487302419
20
-11.2879913462644
30
0
41
1
10
35.8409883472166
20
-11.3532936166994
30
0
41
1
10
35.8936326158069
20
-11.4196698461885
30
0
41
1
10
35.9476885258433
20
-11.4870818480489
30
0
41
1
10
36.0031609972961
20
-11.5554893252139
30
0
41
1
10
36.0600527269748
20
-11.6248498155736
30
0
41
1
10
36.1183640321977
20
-11.6951186398493
30
0
41
1
10
36.1780926916999
20
-11.7662488522023
30
0
41
1
10
36.2392337841128
20
-11.8381911942489
30
0
41
1
10
36.3017795242639
20
-11.9108940513825
30
0
41
1
10
36.3657190980395
20
-11.9843034171436
30
0
41
1
10
36.4310384948442
20
-12.0583628451525
30
0
41
1
10
36.4977203434296
20
-12.1330134687773
30
0
41
1
10
36.5657437312158
20
-12.2081937827431
30
0
41
1
10
36.6350840857405
20
-12.2838403601859
30
0
41
1
10
36.7057128197085
20
-12.3598850120217
30
0
41
1
10
36.7775978853527
20
-12.436265591098
30
0
41
1
10
36.8507008573474
20
-12.5128846208558
30
0
41
1
10
36.9249873013663
20
-12.5897674732573
30
0
41
1
10
36.9748663037444
20
-12.6405007300868
30
0
41
1
10
37
20
-12.6660648794565
30
0
0
SPLINE
5
305
100
AcDbEntity
8
1
62
256
6
ByLayer
370
13
48
1
60
0
100
AcDbSpline
70
4
71
3
72
16
73
12
40
0
40
0
40
0
40
0
40
0.25
40
0.25
40
0.5
40
0.5
40
0.624999999999999
40
0.624999999999999
40
0.749999999999999
40
0.749999999999999
40
1
40
1
40
1
40
1
41
1
10
310.19509962232
20
6.67412855351549
30
0
41
1
10
310.043647696236
20
6.69151123848783
30
0
41
1
10
309.897039599703
20
6.72075104664069
30
0
41
1
10
309.60819698549
20
6.80289129266507
30
0
41
1
10
309.46802459093
20
6.85537368835813
30
0
41
1
10
309.26441672732
20
6.95179374311834
30
0
41
1
10
309.197569336123
20
6.98693931548993
30
0
41
1
10
309.065812995649
20
7.06381673706628
30
0
41
1
10
309.000690899937
20
7.10574010962455
30
0
41
1
10
308.812440932112
20
7.23953284984643
30
0
41
1
10
308.695068535903
20
7.33990960996951
30
0
41
1
10
308.586596423833
20
7.45337632080876
30
0
0
SPLINE
5
306
100
AcDbEntity
8
1
62
256
6
ByLayer
370
13
48
1
60
0
100
AcDbSpline
70
4
71
3
72
25
73
21
40
0
40
0
40
0
40
0
40
0.0625000000000005
40
0.0625000000000005
40
0.125000000000001
40
0.125000000000001
40
0.250000000000001
40
0.250000000000001
40
0.281250000000001
40
0.281250000000001
40
0.312500000000002
40
0.375000000000002
40
0.375000000000002
40
0.500000000000001
40
0.500000000000001
40
0.625000000000001
40
0.625000000000001
40
0.75
40
0.75
40
1
40
1
40
1
40
1
41
1
10
31.248625861521
20
-8.94493960915179
30
0
41
1
10
30.9103750011583
20
-9.01961860192208
30
0
41
1
10
30.5738672429395
20
-9.10090947247102
30
0
41
1
10
29.9043614271261
20
-9.27680409465711
30
0
41
1
10
29.5706039977536
20
-9.37165454741663
30
0
41
1
10
28.5822371914797
20
-9.67405331182047
30
0
41
1
10
27.9396265681244
20
-9.89947335914457
30
0
41
1
10
27.1560751198792
20
-10.2100543233327
30
0
41
1
10
27.0005581978329
20
-10.2739144451805
30
0
41
1
10
26.6906118553447
20
-10.4032239104971
30
0
41
1
10
26.2245772572287
20
-10.5955585787272
30
0
41
1
10
25.7552136218973
20
-10.7830283548969
30
0
41
1
10
24.8120832512922
20
-11.1515334324725
30
0
41
1
10
24.1774611681147
20
-11.3886275414457
30
0
41
1
10
22.8966102062167
20
-11.8458541564333
30
0
41
1
10
22.249986126528
20
-12.0661120626298
30
0
41
1
10
20.9472236945372
20
-12.4891024717778
30
0
41
1
10
20.2913503242505
20
-12.6917636097693
30
0
41
1
10
18.3104062898256
20
-13.2735448008738
30
0
41
1
10
16.9720324617481
20
-13.6265034560526
30
0
41
1
10
15.6160502115054
20
-13.9448341880281
30
0
0
SPLINE
5
307
100
AcDbEntity
8
1
62
256
6
ByLayer
370
13
48
1
60
0
100
AcDbSpline
70
4
71
3
72
8
73
4
40
0
40
0
40
0
40
0
40
1
40
1
40
1
40
1
41
1
10
310.061638806789
20
0.495636291634128
30
0
41
1
10
310.060054100644
20
0.543652164728712
30
0
41
1
10
310.059782849263
20
0.591486207290643
30
0
41
1
10
310.060771020937
20
0.636402521858258
30
0
0
SPLINE
5
308
100
AcDbEntity
8
1
62
256
6
ByLayer
370
13
48
1
60
0
100
AcDbSpline
70
4
71
3
72
50
73
46
40
0
40
0
40
0
40
0
40
0.0007702369556435
40
0.0007702369556435
40
0.0424048104158256
40
0.0424048104158256
40
0.0840393838760076
40
0.0840393838760076
40
0.12567395733619
40
0.12567395733619
40
0.146491244066281
40
0.146491244066281
40
0.167308530796372
40
0.167308530796372
40
0.208943104256554
40
0.208943104256554
40
0.250577677716736
40
0.250577677716736
40
0.292212251176918
40
0.292212251176918
40
0.3338468246371
40
0.3338468246371
40
0.375481398097282
40
0.375481398097282
40
0.417115971557464
40
0.417115971557464
40
0.458750545017647
40
0.458750545017647
40
0.500385118477829
40
0.500385118477829
40
0.542019691938011
40
0.542019691938011
40
0.562836978668101
40
0.562836978668101
40
0.583654265398192
40
0.583654265398192
40
0.625288838858372
40
0.625288838858372
40
0.666923412318553
40
0.666923412318553
40
0.750192559238914
40
0.750192559238914
40
0.833461706159276
40
0.833461706159276
40
1
40
1
40
1
40
1
41
1
10
248.611181133271
20
-18.0705379322227
30
0
41
1
10
248.586774767116
20
-18.0765211948154
30
0
41
1
10
248.562369032451
20
-18.0824979216313
30
0
41
1
10
247.218765721388
20
-18.411181585612
30
0
41
1
10
245.901026690888
20
-18.7145709109604
30
0
41
1
10
243.262651197192
20
-19.2763073805274
30
0
41
1
10
241.941663770516
20
-19.5341829877677
30
0
41
1
10
239.287633903579
20
-19.9988456640125
30
0
41
1
10
237.954603049858
20
-20.2056896410959
30
0
41
1
10
235.940752702411
20
-20.478076286987
30
0
41
1
10
235.266898923592
20
-20.5626279032081
30
0
41
1
10
233.914654411604
20
-20.7195725933107
30
0
41
1
10
233.236807272411
20
-20.7919637222896
30
0
41
1
10
231.198268225392
20
-20.9928368186023
30
0
41
1
10
229.832579924934
20
-21.1050791090952
30
0
41
1
10
227.088861235458
20
-21.294986055395
30
0
41
1
10
225.710898021973
20
-21.3726575293748
30
0
41
1
10
222.942910863359
20
-21.5001251240258
30
0
41
1
10
221.552863061942
20
-21.5499008102703
30
0
41
1
10
218.760729086053
20
-21.6274052678926
30
0
41
1
10
217.359024437052
20
-21.6550950761779
30
0
41
1
10
214.549247297041
20
-21.693438387918
30
0
41
1
10
213.140346764211
20
-21.7041198073719
30
0
41
1
10
210.313275302405
20
-21.7139910715024
30
0
41
1
10
208.895136680007
20
-21.7132349950859
30
0
41
1
10
206.049824405581
20
-21.7053941937614
30
0
41
1
10
204.622670929982
20
-21.6983025212239
30
0
41
1
10
201.759457383405
20
-21.6817864136468
30
0
41
1
10
200.325190627277
20
-21.6723764028887
30
0
41
1
10
197.454868671871
20
-21.6547603834297
30
0
41
1
10
196.018199616352
20
-21.646601628177
30
0
41
1
10
193.860922796063
20
-21.6370848181931
30
0
41
1
10
193.141462771439
20
-21.6343413679691
30
0
41
1
10
191.70185783387
20
-21.629806229454
30
0
41
1
10
190.981709173681
20
-21.6280206367936
30
0
41
1
10
188.820505722003
20
-21.6238119576777
30
0
41
1
10
187.378692751664
20
-21.6224888386409
30
0
41
1
10
184.494500262875
20
-21.6210269032639
30
0
41
1
10
183.052404528049
20
-21.6208376750364
30
0
41
1
10
178.726117657405
20
-21.6206322136416
30
0
41
1
10
175.84192686748
20
-21.620986411745
30
0
41
1
10
170.073545469654
20
-21.6218860655003
30
0
41
1
10
167.189355227234
20
-21.6224613423321
30
0
41
1
10
158.536780735938
20
-21.6236854701339
30
0
41
1
10
152.768391845515
20
-21.6238550490935
30
0
41
1
10
147
20
-21.6237052983903
30
0
0
SPLINE
5
309
100
AcDbEntity
8
1
62
256
6
ByLayer
370
13
48
1
60
0
100
AcDbSpline
70
4
71
3
72
18
73
14
40
0
40
0
40
0
40
0
40
0.249999999999932
40
0.249999999999932
40
0.374999999999899
40
0.374999999999899
40
0.499999999999867
40
0.499999999999867
40
0.749999999999933
40
0.749999999999933
40
0.874999999999967
40
0.874999999999967
40
1
40
1
40
1
40
1
41
1
10
297.698222874135
20
7.18315254686442
30
0
41
1
10
297.692902324298
20
7.18287370866287
30
0
41
1
10
297.69416626852
20
7.19313216080005
30
0
41
1
10
297.709431364188
20
7.22155049167523
30
0
41
1
10
297.716790018665
20
7.23305500045473
30
0
41
1
10
297.736732277864
20
7.25855336004187
30
0
41
1
10
297.749583358639
20
7.27279814494236
30
0
41
1
10
297.795666620264
20
7.31526515369978
30
0
41
1
10
297.83785431435
20
7.3439578928288
30
0
41
1
10
297.911143279773
20
7.37514316170225
30
0
41
1
10
297.937655393569
20
7.38382114397552
30
0
41
1
10
297.99180011636
20
7.39630268201944
30
0
41
1
10
298.019665439735
20
7.40025750436715
30
0
41
1
10
298.048333784076
20
7.40177551497263
30
0
0
SPLINE
5
30A
100
AcDbEntity
8
1
62
256
6
ByLayer
370
13
48
1
60
0
100
AcDbSpline
70
4
71
3
72
10
73
6
40
0
40
0
40
0
40
0
40
0.5
40
0.5
40
1
40
1
40
1
40
1
41
1
10
309.292494198905
20
-4.29548014528419
30
0
41
1
10
309.347515939734
20
-4.5910532473317
30
0
41
1
10
309.381517728958
20
-4.8861434501159
30
0
41
1
10
309.410045241489
20
-5.47518896834114
30
0
41
1
10
309.40456359658
20
-5.76914485076779
30
0
41
1
10
309.379375034757
20
-6.06250042440158
30
0
0
SPLINE
5
30B
100
AcDbEntity
8
1
62
256
6
ByLayer
370
13
48
1
60
0
100
AcDbSpline
70
4
71
3
72
12
73
8
40
0
40
0
40
0
40
0
40
0.250000000000122
40
0.250000000000122
40
0.500000000000244
40
0.500000000000244
40
1
40
1
40
1
40
1
41
1
10
288.805355381964
20
10.2320242392241
30
0
41
1
10
288.811139349545
20
10.253996139001
30
0
41
1
10
288.824347717444
20
10.2734593149681
30
0
41
1
10
288.857415583224
20
10.3046174502942
30
0
41
1
10
288.877364330196
20
10.3167833902115
30
0
41
1
10
288.940614468659
20
10.3449188448939
30
0
41
1
10
288.988008601708
20
10.3533658768152
30
0
41
1
10
289.036071485278
20
10.354584077896
30
0
0
SPLINE
5
30C
100
AcDbEntity
8
1
62
256
6
ByLayer
370
13
48
1
60
0
100
AcDbSpline
70
4
71
3
72
16
73
12
40
0
40
0
40
0
40
0
40
0.125
40
0.125
40
0.25
40
0.25
40
0.5
40
0.5
40
0.75
40
0.75
40
1
40
1
40
1
40
1
41
1
10
147
20
-7.85773036736097
30
0
41
1
10
142.625000137806
20
-7.85717138504683
30
0
41
1
10
138.250002862353
20
-7.85447408535231
30
0
41
1
10
129.500005395761
20
-7.85188981734632
30
0
41
1
10
125.125005573337
20
-7.8518101013542
30
0
41
1
10
112.000004664936
20
-7.85317925063623
30
0
41
1
10
103.250002551193
20
-7.85580407984611
30
0
41
1
10
85.7500018374786
20
-7.85687328405342
30
0
41
1
10
77.0000022977371
20
-7.8563937105323
30
0
41
1
10
59.5000018134931
20
-7.85717782429495
30
0
41
1
10
50.7500009897762
20
-7.85831119578745
30
0
41
1
10
42
20
-7.85965293760847
30
0
0
SPLINE
5
30D
100
AcDbEntity
8
1
62
256
6
ByLayer
370
13
48
1
60
0
100
AcDbSpline
70
4
71
3
72
14
73
10
40
0
40
0
40
0
40
0
40
0.499999999999922
40
0.499999999999922
40
0.749999999999883
40
0.749999999999883
40
0.874999999999941
40
0.874999999999941
40
1
40
1
40
1
40
1
41
1
10
300.316566613709
20
7.48834626311279
30
0
41
1
10
300.475170997126
20
7.43925473065482
30
0
41
1
10
300.633513164593
20
7.4062101759136
30
0
41
1
10
300.872355969918
20
7.37722523908894
30
0
41
1
10
300.952180872772
20
7.37104673484495
30
0
41
1
10
301.072406325107
20
7.36694592684745
30
0
41
1
10
301.112562798394
20
7.36644231723503
30
0
41
1
10
301.193068354884
20
7.36717795765281
30
0
41
1
10
301.233657432877
20
7.36843682088855
30
0
41
1
10
301.273390009807
20
7.37051911701065
30
0
0
SPLINE
5
30E
100
AcDbEntity
8
1
62
256
6
ByLayer
370
13
48
1
60
0
100
AcDbSpline
70
4
71
3
72
26
73
22
40
0
40
0
40
0
40
0
40
0.0624999999999891
40
0.0624999999999891
40
0.124999999999978
40
0.124999999999978
40
0.187499999999967
40
0.187499999999967
40
0.249999999999956
40
0.249999999999956
40
0.374999999999963
40
0.374999999999963
40
0.499999999999971
40
0.499999999999971
40
0.624999999999978
40
0.624999999999978
40
0.749999999999985
40
0.749999999999985
40
0.874999999999993
40
0.874999999999993
40
1
40
1
40
1
40
1
41
1
10
290.298731688397
20
6.68703245960907
30
0
41
1
10
290.279150040703
20
6.64393037588485
30
0
41
1
10
290.264955089264
20
6.59864483367068
30
0
41
1
10
290.248220201181
20
6.50750378119258
30
0
41
1
10
290.245538324952
20
6.46055820730442
30
0
41
1
10
290.250520219532
20
6.36957977579976
30
0
41
1
10
290.258088963059
20
6.32474922330536
30
0
41
1
10
290.280987260225
20
6.23856211010533
30
0
41
1
10
290.296135287983
20
6.19752061447619
30
0
41
1
10
290.350050223348
20
6.07911170392262
30
0
41
1
10
290.397552681036
20
6.00622691376086
30
0
41
1
10
290.503277200075
20
5.8746916286025
30
0
41
1
10
290.562081692563
20
5.81504824143502
30
0
41
1
10
290.688420256909
20
5.70477524193163
30
0
41
1
10
290.755491632518
20
5.65469778476282
30
0
41
1
10
290.893713968222
20
5.56384185262434
30
0
41
1
10
290.965216313348
20
5.52280578701701
30
0
41
1
10
291.112298630099
20
5.44819093898246
30
0
41
1
10
291.187885874471
20
5.41462548159126
30
0
41
1
10
291.342856810886
20
5.35439044079419
30
0
41
1
10
291.422217953739
20
5.32776585577739
30
0
41
1
10
291.502470977194
20
5.3047637799875
30
0
0
SPLINE
5
30F
100
AcDbEntity
8
1
62
256
6
ByLayer
370
13
48
1
60
0
100
AcDbSpline
70
4
71
3
72
18
73
14
40
0
40
0
40
0
40
0
40
0.250000000000001
40
0.250000000000001
40
0.375000000000001
40
0.375000000000001
40
0.5
40
0.5
40
0.750000000000001
40
0.750000000000001
40
0.875000000000001
40
0.875000000000001
40
1
40
1
40
1
40
1
41
1
10
6.91765799380032
20
-23.3443597991705
30
0
41
1
10
6.79104398693127
20
-23.6101739952315
30
0
41
1
10
6.69415870611314
20
-23.8726230546561
30
0
41
1
10
6.59534029183453
20
-24.2607774412489
30
0
41
1
10
6.57015601415726
20
-24.3898578828651
30
0
41
1
10
6.53678763056818
20
-24.6418599247319
30
0
41
1
10
6.52846223176614
20
-24.765001223462
30
0
41
1
10
6.5284711911373
20
-25.1259576293415
30
0
41
1
10
6.56125358441457
20
-25.355406231111
30
0
41
1
10
6.65876500708605
20
-25.6829457657907
30
0
41
1
10
6.6997688893813
20
-25.789718517696
30
0
41
1
10
6.79716700054753
20
-25.9948110855639
30
0
41
1
10
6.85353188215906
20
-26.0932859285571
30
0
41
1
10
6.91738955313171
20
-26.1878138857676
30
0
0
SPLINE
5
310
100
AcDbEntity
8
1
62
256
6
ByLayer
370
13
48
1
60
0
100
AcDbSpline
70
4
71
3
72
12
73
8
40
0
40
0
40
0
40
0
40
0.499999999999969
40
0.499999999999969
40
0.749999999999984
40
0.749999999999984
40
1
40
1
40
1
40
1
41
1
10
286.158956783753
20
1.97033211847813
30
0
41
1
10
286.564050080134
20
1.81324351042196
30
0
41
1
10
286.983539173249
20
1.70488299623844
30
0
41
1
10
287.63501648806
20
1.61848511218531
30
0
41
1
10
287.852351427391
20
1.60304449512282
30
0
41
1
10
288.285035001799
20
1.59835999168143
30
0
41
1
10
288.500783492536
20
1.60906533115016
30
0
41
1
10
288.715926805399
20
1.632997569618
30
0
0
SPLINE
5
311
100
AcDbEntity
8
1
62
256
6
ByLayer
370
13
48
1
60
0
100
AcDbSpline
70
4
71
3
72
8
73
4
40
0
40
0
40
0
40
0
40
1
40
1
40
1
40
1
41
1
10
296.538118329166
20
7.09302888622281
30
0
41
1
10
296.489934455331
20
7.09142164411986
30
0
41
1
10
296.441792969854
20
7.09054417165774
30
0
41
1
10
296.393731423841
20
7.09082381466442
30
0
0
SPLINE
5
312
100
AcDbEntity
8
1
62
256
6
ByLayer
370
13
48
1
60
0
100
AcDbSpline
70
4
71
3
72
21
73
17
40
0
40
0
40
0
40
0
40
0.25
40
0.25
40
0.5
40
0.5
40
0.625
40
0.625
40
0.6875
40
0.71875
40
0.71875
40
0.75
40
0.75
40
0.875
40
0.875
40
1
40
1
40
1
40
1
41
1
10
15.6161468554089
20
-28.3985627557262
30
0
41
1
10
16.9704886241984
20
-28.0259193127267
30
0
41
1
10
18.3066611477627
20
-27.6129546130238
30
0
41
1
10
20.9424859904921
20
-26.7059794399392
30
0
41
1
10
22.2422202891636
20
-26.2119472488469
30
0
41
1
10
24.163496682235
20
-25.4086629319164
30
0
41
1
10
24.7988398249597
20
-25.1306646018796
30
0
41
1
10
25.74409325486
20
-24.6980342078359
30
0
41
1
10
26.2147788547654
20
-24.4778091867839
30
0
41
1
10
26.6825191039034
20
-24.251651594533
30
0
41
1
10
26.9936870715242
20
-24.0995527699858
30
0
41
1
10
27.1496886546512
20
-24.0243444927329
30
0
41
1
10
27.9351032212841
20
-23.6591932667662
30
0
41
1
10
28.577358178293
20
-23.3951168202644
30
0
41
1
10
29.890118492706
20
-22.9238663219073
30
0
41
1
10
30.5606219581569
20
-22.7166884592504
30
0
41
1
10
31.2459029489929
20
-22.5392757174271
30
0
0
SPLINE
5
313
100
AcDbEntity
8
1
62
256
6
ByLayer
370
13
48
1
60
0
100
AcDbSpline
70
4
71
3
72
14
73
10
40
0
40
0
40
0
40
0
40
0.25
40
0.25
40
0.5
40
0.5
40
0.75
40
0.75
40
1
40
1
40
1
40
1
41
1
10
296.894599543143
20
7.04049168593073
30
0
41
1
10
296.922215734162
20
7.03323885658756
30
0
41
1
10
296.947046305561
20
7.02469319667389
30
0
41
1
10
296.988786643865
20
7.00587959400502
30
0
41
1
10
297.00628097267
20
6.99532762251249
30
0
41
1
10
297.032567483606
20
6.97326290876472
30
0
41
1
10
297.041520024574
20
6.96178395756837
30
0
41
1
10
297.051601406737
20
6.93799230238736
30
0
41
1
10
297.052574349004
20
6.92566804085035
30
0
41
1
10
297.049832509097
20
6.91364266989422
30
0
0
SPLINE
5
314
100
AcDbEntity
8
1
62
256
6
ByLayer
370
13
48
1
60
0
100
AcDbSpline
70
4
71
3
72
8
73
4
40
0
40
0
40
0
40
0
40
1
40
1
40
1
40
1
41
1
10
294.588552409144
20
21.5859676696585
30
0
41
1
10
294.491130807425
20
21.5773756031809
30
0
41
1
10
294.39123200661
20
21.5701028501535
30
0
41
1
10
294.288907848283
20
21.5642415183065
30
0
0
SPLINE
5
315
100
AcDbEntity
8
1
62
256
6
ByLayer
370
13
48
1
60
0
100
AcDbSpline
70
4
71
3
72
8
73
4
40
0
40
0
40
0
40
0
40
1
40
1
40
1
40
1
41
1
10
289.036125145494
20
10.3545854377629
30
0
41
1
10
289.412117969733
20
10.3641124832365
30
0
41
1
10
289.773819375657
20
10.343647943172
30
0
41
1
10
290.121349742138
20
10.2921877318382
30
0
0
SPLINE
5
316
100
AcDbEntity
8
1
62
256
6
ByLayer
370
13
48
1
60
0
100
AcDbSpline
70
4
71
3
72
10
73
6
40
0
40
0
40
0
40
0
40
0.5
40
0.5
40
1
40
1
40
1
40
1
41
1
10
305.633042717521
20
7.76697096932503
30
0
41
1
10
305.658906601906
20
7.77869435632743
30
0
41
1
10
305.686819114731
20
7.78834663541565
30
0
41
1
10
305.744210755706
20
7.80225831196412
30
0
41
1
10
305.773817215477
20
7.80663437086614
30
0
41
1
10
305.804342502259
20
7.80825070799236
30
0
0
SPLINE
5
317
100
AcDbEntity
8
1
62
256
6
ByLayer
370
13
48
1
60
0
100
AcDbSpline
70
4
71
3
72
10
73
6
40
0
40
0
40
0
40
0
40
0.5
40
0.5
40
1
40
1
40
1
40
1
41
1
10
290.432035426314
20
10.2612898172967
30
0
41
1
10
290.686964973945
20
10.2131314914971
30
0
41
1
10
290.932827825354
20
10.1836629994232
30
0
41
1
10
291.415109906263
20
10.1483191906141
30
0
41
1
10
291.651390966266
20
10.1423443690936
30
0
41
1
10
291.88470898612
20
10.1440800869137
30
0
0
SPLINE
5
318
100
AcDbEntity
8
1
62
256
6
ByLayer
370
13
48
1
60
0
100
AcDbSpline
70
4
71
3
72
16
73
12
40
0
40
0
40
0
40
0
40
0.249999999999995
40
0.249999999999995
40
0.499999999999991
40
0.499999999999991
40
0.624999999999997
40
0.624999999999997
40
0.750000000000004
40
0.750000000000004
40
1
40
1
40
1
40
1
41
1
10
291.74373843389
20
5.23566307444796
30
0
41
1
10
292.316281531871
20
5.07180524900866
30
0
41
1
10
292.889872917637
20
4.95767234290051
30
0
41
1
10
294.039736153485
20
4.81901103819627
30
0
41
1
10
294.61600413675
20
4.7945826735104
30
0
41
1
10
295.482502268572
20
4.82431594819951
30
0
41
1
10
295.772483620841
20
4.84547412159563
30
0
41
1
10
296.346993223908
20
4.90970369154064
30
0
41
1
10
296.631964252777
20
4.95272552300924
30
0
41
1
10
297.479976616259
20
5.1140805422958
30
0
41
1
10
298.036186445258
20
5.26452652562125
30
0
41
1
10
298.582333408843
20
5.45892999965091
30
0
0
SPLINE
5
319
100
AcDbEntity
8
1
62
256
6
ByLayer
370
13
48
1
60
0
100
AcDbSpline
70
4
71
3
72
12
73
8
40
0
40
0
40
0
40
0
40
0.500000000000001
40
0.500000000000001
40
0.750000000000001
40
0.750000000000001
40
1
40
1
40
1
40
1
41
1
10
292.030319657105
20
8.16027103285506
30
0
41
1
10
292.08490144233
20
8.49219969422737
30
0
41
1
10
292.108620641371
20
8.82548676336822
30
0
41
1
10
292.079330754816
20
9.32827254341737
30
0
41
1
10
292.058261917536
20
9.49734672079933
30
0
41
1
10
291.991066078426
20
9.82634861725668
30
0
41
1
10
291.945024071856
20
9.98726821503436
30
0
41
1
10
291.88470898612
20
10.1440800869136
30
0
0
SPLINE
5
31A
100
AcDbEntity
8
1
62
256
6
ByLayer
370
13
48
1
60
0
100
AcDbSpline
70
4
71
3
72
42
73
38
40
0
40
0
40
0
40
0
40
0.125
40
0.125
40
0.1875
40
0.1875
40
0.21875
40
0.21875
40
0.25
40
0.25
40
0.375
40
0.375
40
0.4375
40
0.4375
40
0.46875
40
0.46875
40
0.5
40
0.5
40
0.624999999999999
40
0.624999999999999
40
0.656249999999999
40
0.656249999999999
40
0.687499999999999
40
0.687499999999999
40
0.749999999999999
40
0.749999999999999
40
0.812499999999999
40
0.812499999999999
40
0.843749999999999
40
0.843749999999999
40
0.874999999999999
40
0.874999999999999
40
0.9375
40
0.9375
40
0.96875
40
0.96875
40
1
40
1
40
1
40
1
41
1
10
15.6191249879937
20
-13.9441122861886
30
0
41
1
10
14.9820401760549
20
-14.0937037329025
30
0
41
1
10
14.3567311733363
20
-14.2858008043996
30
0
41
1
10
13.4357734128641
20
-14.6358776424062
30
0
41
1
10
13.1316401123941
20
-14.7629623739086
30
0
41
1
10
12.679813831249
20
-14.969632663914
30
0
41
1
10
12.5299353144279
20
-15.0412016447178
30
0
41
1
10
12.2316718670731
20
-15.1898402124942
30
0
41
1
10
12.0828748452896
20
-15.2671369224173
30
0
41
1
10
11.3497722901256
20
-15.6640824099459
30
0
41
1
10
10.7951076898078
20
-16.0149697450862
30
0
41
1
10
10.0125301125116
20
-16.5923801710154
30
0
41
1
10
9.75995716737381
20
-16.7934126825984
30
0
41
1
10
9.39430579276853
20
-17.1084981965022
30
0
41
1
10
9.27461690425022
20
-17.2157747174187
30
0
41
1
10
9.03985448223219
20
-17.4350380993195
30
0
41
1
10
8.9253536519371
20
-17.546537168659
30
0
41
1
10
8.37185874634326
20
-18.1090246098666
30
0
41
1
10
7.98461357351832
20
-18.5788494186226
30
0
41
1
10
7.57751463582572
20
-19.1924864099641
30
0
41
1
10
7.49971982726743
20
-19.3170401622184
30
0
41
1
10
7.35393449405967
20
-19.5661903694331
30
0
41
1
10
7.2859591946095
20
-19.6906715169055
30
0
41
1
10
7.09672165522396
20
-20.0637978784868
30
0
41
1
10
6.99021649722732
20
-20.3121423416272
30
0
41
1
10
6.81768653438334
20
-20.8078726459377
30
0
41
1
10
6.75163852840981
20
-21.0552577551582
30
0
41
1
10
6.68505997334071
20
-21.4254859305566
30
0
41
1
10
6.6683411200339
20
-21.5485978407847
30
0
41
1
10
6.64644847138113
20
-21.7900860422252
30
0
41
1
10
6.64116894851124
20
-21.9090199389952
30
0
41
1
10
6.64253060462786
20
-22.260409959444
30
0
41
1
10
6.66616597320504
20
-22.4874934519179
30
0
41
1
10
6.73514653767974
20
-22.8174773915891
30
0
41
1
10
6.76375116360593
20
-22.9256929796153
30
0
41
1
10
6.8323793077015
20
-23.1385183617777
30
0
41
1
10
6.87235719874511
20
-23.2428797186911
30
0
41
1
10
6.91765799380032
20
-23.3443597991705
30
0
0
SPLINE
5
31B
100
AcDbEntity
8
1
62
256
6
ByLayer
370
13
48
1
60
0
100
AcDbSpline
70
4
71
3
72
18
73
14
40
0
40
0
40
0
40
0
40
0.249999999999925
40
0.249999999999925
40
0.49999999999985
40
0.49999999999985
40
0.749999999999776
40
0.749999999999776
40
0.812499999999812
40
0.812499999999812
40
0.874999999999848
40
0.874999999999848
40
1
40
1
40
1
40
1
41
1
10
292.030319657105
20
8.16027103285506
30
0
41
1
10
292.009207260056
20
7.99587666233629
30
0
41
1
10
291.968478794739
20
7.83518758089349
30
0
41
1
10
291.840644845776
20
7.52623852507077
30
0
41
1
10
291.756360648326
20
7.38412560852254
30
0
41
1
10
291.538931650021
20
7.12955505986071
30
0
41
1
10
291.412040819098
20
7.02461931289895
30
0
41
1
10
291.228771453453
20
6.92561109438859
30
0
41
1
10
291.190875955749
20
6.9074970053542
30
0
41
1
10
291.114379728415
20
6.8754695040879
30
0
41
1
10
291.075552561106
20
6.86142656078977
30
0
41
1
10
290.957376685205
20
6.8250645276556
30
0
41
1
10
290.876202771967
20
6.8084872975146
30
0
41
1
10
290.793095558219
20
6.79945141704269
30
0
0
SPLINE
5
31C
100
AcDbEntity
8
1
62
256
6
ByLayer
370
13
48
1
60
0
100
AcDbSpline
70
4
71
3
72
8
73
4
40
0
40
0
40
0
40
0
40
1
40
1
40
1
40
1
41
1
10
274.977471377248
20
7.270284686401
30
0
41
1
10
275.115225849782
20
7.22022255245395
30
0
41
1
10
275.252899477773
20
7.17068310052426
30
0
41
1
10
275.39048950091
20
7.12168417678146
30
0
0
SPLINE
5
31D
100
AcDbEntity
8
1
62
256
6
ByLayer
370
13
48
1
60
0
100
AcDbSpline
70
4
71
3
72
66
73
62
40
0
40
0
40
0
40
0
40
0.0160708311684083
40
0.0160708311684083
40
0.0342917417023267
40
0.0342917417023267
40
0.0525126522362452
40
0.0525126522362452
40
0.0707335627701637
40
0.0707335627701637
40
0.0798440180371231
40
0.0798440180371231
40
0.0889544733040825
40
0.0889544733040825
40
0.107175383838001
40
0.107175383838001
40
0.125396294371919
40
0.125396294371919
40
0.143617204905838
40
0.143617204905838
40
0.161838115439757
40
0.161838115439757
40
0.180059025973675
40
0.180059025973675
40
0.198279936507594
40
0.198279936507594
40
0.216500847041512
40
0.216500847041512
40
0.234721757575431
40
0.234721757575431
40
0.252942668109349
40
0.252942668109349
40
0.271163578643268
40
0.271163578643268
40
0.280274033910227
40
0.280274033910227
40
0.289384489177186
40
0.289384489177186
40
0.298494944444145
40
0.298494944444145
40
0.307605399711105
40
0.307605399711105
40
0.325826310245023
40
0.325826310245023
40
0.344047220778942
40
0.344047220778942
40
0.380489041846778
40
0.380489041846778
40
0.416930862914615
40
0.416930862914615
40
0.489814505050288
40
0.489814505050288
40
0.562698147185961
40
0.562698147185961
40
0.635581789321634
40
0.635581789321634
40
0.708465431457307
40
0.708465431457307
40
0.854232715728653
40
0.854232715728653
40
1
40
1
40
1
40
1
41
1
10
248.076866274291
20
-17.9348613477618
30
0
41
1
10
247.030146059116
20
-18.1800296876948
30
0
41
1
10
245.984124797494
20
-18.4134246953324
30
0
41
1
10
243.751285822254
20
-18.8826309066825
30
0
41
1
10
242.56430269676
20
-19.1133982533315
30
0
41
1
10
240.183692673489
20
-19.5261127899511
30
0
41
1
10
238.989732325215
20
-19.7093270526972
30
0
41
1
10
236.586163982707
20
-20.0520792684139
30
0
41
1
10
235.376972136608
20
-20.2110177976408
30
0
41
1
10
233.551994048809
20
-20.4140580075656
30
0
41
1
10
232.941583554293
20
-20.4763332410893
30
0
41
1
10
231.718791928418
20
-20.5911666475279
30
0
41
1
10
231.106280715885
20
-20.6437442302839
30
0
41
1
10
229.26535431531
20
-20.7889812371281
30
0
41
1
10
228.033542209396
20
-20.8691957576314
30
0
41
1
10
225.560818356639
20
-21.0065867843755
30
0
41
1
10
224.319861214434
20
-21.0639038440405
30
0
41
1
10
221.828875947643
20
-21.1603458989414
30
0
41
1
10
220.578880042609
20
-21.1992582899881
30
0
41
1
10
218.070066190279
20
-21.2610495123848
30
0
41
1
10
216.810587998446
20
-21.2834242486318
30
0
41
1
10
214.286830192013
20
-21.3102359205278
30
0
41
1
10
213.022114516319
20
-21.3161313495736
30
0
41
1
10
210.485907109482
20
-21.3216538734179
30
0
41
1
10
209.214501295569
20
-21.3203884802451
30
0
41
1
10
206.665185337877
20
-21.3134627373676
30
0
41
1
10
205.38727525375
20
-21.3078036537362
30
0
41
1
10
202.825043023596
20
-21.2957156284685
30
0
41
1
10
201.540139059679
20
-21.2892751950323
30
0
41
1
10
198.966308735269
20
-21.2753922126181
30
0
41
1
10
197.678544494221
20
-21.2679210592642
30
0
41
1
10
195.101261144923
20
-21.2509782504684
30
0
41
1
10
193.811739689707
20
-21.2414283447119
30
0
41
1
10
191.876190780171
20
-21.2288639350983
30
0
41
1
10
191.230795699947
20
-21.2247304637673
30
0
41
1
10
189.939621989251
20
-21.2211457254718
30
0
41
1
10
189.293830208934
20
-21.2226988568364
30
0
41
1
10
188.001998076602
20
-21.228780097186
30
0
41
1
10
187.355973930442
20
-21.2322856659315
30
0
41
1
10
186.063849742676
20
-21.2352445175721
30
0
41
1
10
185.417739151786
20
-21.2354288289365
30
0
41
1
10
183.479329561743
20
-21.2348190807242
30
0
41
1
10
182.187013930829
20
-21.233425977316
30
0
41
1
10
179.602423336245
20
-21.2310357168702
30
0
41
1
10
178.310128515176
20
-21.2300685213918
30
0
41
1
10
174.43324489598
20
-21.2278374386915
30
0
41
1
10
171.848656999086
20
-21.2271702262248
30
0
41
1
10
166.679481001055
20
-21.2268294763252
30
0
41
1
10
164.094892851984
20
-21.2274204168023
30
0
41
1
10
156.341127051716
20
-21.2278918826747
30
0
41
1
10
151.171948242583
20
-21.2260167937864
30
0
41
1
10
140.833589362348
20
-21.224932048823
30
0
41
1
10
135.664409567294
20
-21.2262271629496
30
0
41
1
10
125.326050561958
20
-21.2281884572837
30
0
41
1
10
120.156871085929
20
-21.2284493946144
30
0
41
1
10
109.818512127157
20
-21.2278758189273
30
0
41
1
10
104.64933261799
20
-21.2268484408286
30
0
41
1
10
89.1417942314465
20
-21.2267047276367
30
0
41
1
10
78.8034357058547
20
-21.2299600164247
30
0
41
1
10
58.126717973968
20
-21.2302794209523
30
0
41
1
10
47.7883590476094
20
-21.2274906158932
30
0
41
1
10
37.4499999999999
20
-21.2274803272127
30
0
0
SPLINE
5
31E
100
AcDbEntity
8
1
62
256
6
ByLayer
370
13
48
1
60
0
100
AcDbSpline
70
4
71
3
72
20
73
16
40
0
40
0
40
0
40
0
40
0.0502215698213252
40
0.0502215698213252
40
0.208517974851104
40
0.208517974851104
40
0.366814379880884
40
0.366814379880884
40
0.445962582395773
40
0.445962582395773
40
0.525110784910663
40
0.525110784910663
40
0.683407189940442
40
0.683407189940442
40
1
40
1
40
1
40
1
41
1
10
13.1870380083817
20
-14.7494071384067
30
0
41
1
10
13.0312455164665
20
-14.9153175562123
30
0
41
1
10
12.877881484886
20
-15.0826964718641
30
0
41
1
10
12.2510666646606
20
-15.7836739169074
30
0
41
1
10
11.7991819178428
20
-16.3302499051579
30
0
41
1
10
10.9435287114286
20
-17.4521531971239
30
0
41
1
10
10.5397517600214
20
-18.0274756777067
30
0
41
1
10
9.97157758413483
20
-18.9126253828384
30
0
41
1
10
9.78845327476166
20
-19.2113628697647
30
0
41
1
10
9.43513384370803
20
-19.8165109546148
30
0
41
1
10
9.26516160698174
20
-20.1226916784921
30
0
41
1
10
8.77781017909886
20
-21.0461034520307
30
0
41
1
10
8.48168282206964
20
-21.6702866456784
30
0
41
1
10
7.67455239918192
20
-23.5666996439672
30
0
41
1
10
7.24391648471553
20
-24.8625589374401
30
0
41
1
10
6.91738955313171
20
-26.1878138857676
30
0
0
SPLINE
5
31F
100
AcDbEntity
8
1
62
256
6
ByLayer
370
13
48
1
60
0
100
AcDbSpline
70
4
71
1
72
4
73
2
40
0
40
0
40
1
40
1
41
1
10
37.45
20
-12.6609163666046
30
0
41
1
10
37.01
20
-12.6609163666046
30
0
0
SPLINE
5
320
100
AcDbEntity
8
1
62
256
6
ByLayer
370
13
48
1
60
0
100
AcDbSpline
70
4
71
3
72
12
73
8
40
0
40
0
40
0
40
0
40
0.577325018696409
40
0.577325018696409
40
0.865987528044614
40
0.865987528044614
40
1
40
1
40
1
40
1
41
1
10
6.91765799380032
20
-23.3443597991705
30
0
41
1
10
7.24436351126936
20
-22.0739106085029
30
0
41
1
10
7.67546137655879
20
-20.8244622815059
30
0
41
1
10
8.48441272199896
20
-18.9810512900276
30
0
41
1
10
8.78133681442739
20
-18.3717559317614
30
0
41
1
10
9.25863785149174
20
-17.4874729940971
30
0
41
1
10
9.41597467734341
20
-17.2088016428828
30
0
41
1
10
9.57877186678016
20
-16.9329498112525
30
0
0
SPLINE
5
321
100
AcDbEntity
8
1
62
256
6
ByLayer
370
13
48
1
60
0
100
AcDbSpline
70
4
71
3
72
10
73
6
40
0
40
0
40
0
40
0
40
0.806108221290379
40
0.806108221290379
40
1
40
1
40
1
40
1
41
1
10
292.85566143541
20
15.5269115733368
30
0
41
1
10
292.81925528529
20
15.477787095882
30
0
41
1
10
292.787621083916
20
15.4300148540276
30
0
41
1
10
292.758382811686
20
15.3800117203062
30
0
41
1
10
292.753194300718
20
15.3707624468537
30
0
41
1
10
292.74867345325
20
15.3622928785497
30
0
0
SPLINE
5
322
100
AcDbEntity
8
1
62
256
6
ByLayer
370
13
48
1
60
0
100
AcDbSpline
70
4
71
3
72
8
73
4
40
0
40
0
40
0
40
0
40
1
40
1
40
1
40
1
41
1
10
290.170554943918
20
10.2828453553463
30
0
41
1
10
290.257350479274
20
10.2833548472093
30
0
41
1
10
290.344534639359
20
10.2787713904718
30
0
41
1
10
290.432035426314
20
10.261289817297
30
0
0
SPLINE
5
323
100
AcDbEntity
8
1
62
256
6
ByLayer
370
13
48
1
60
0
100
AcDbSpline
70
4
71
3
72
8
73
4
40
0
40
0
40
0
40
0
40
1
40
1
40
1
40
1
41
1
10
37
20
-21.8541753248575
30
0
41
1
10
36.4129522550094
20
-21.8541790694823
30
0
41
1
10
35.8279598774704
20
-21.8787003189746
30
0
41
1
10
35.2449980060886
20
-21.9274424149365
30
0
0
SPLINE
5
324
100
AcDbEntity
8
1
62
256
6
ByLayer
370
13
48
1
60
0
100
AcDbSpline
70
4
71
3
72
14
73
10
40
0
40
0
40
0
40
0
40
0.125000000000071
40
0.125000000000071
40
0.250000000000143
40
0.250000000000143
40
0.500000000000143
40
0.500000000000143
40
1
40
1
40
1
40
1
41
1
10
304.762708723844
20
7.55338656202403
30
0
41
1
10
304.799334960744
20
7.55530606176347
30
0
41
1
10
304.836663465275
20
7.55813068599497
30
0
41
1
10
304.910544169299
20
7.56548608664252
30
0
41
1
10
304.947318261127
20
7.57002145633157
30
0
41
1
10
305.057213947034
20
7.58618240215048
30
0
41
1
10
305.129908900443
20
7.6003541333578
30
0
41
1
10
305.346835960251
20
7.65322495667817
30
0
41
1
10
305.489843189205
20
7.70206256407414
30
0
41
1
10
305.633042717521
20
7.766970969325
30
0
0
SPLINE
5
325
100
AcDbEntity
8
1
62
256
6
ByLayer
370
13
48
1
60
0
100
AcDbSpline
70
4
71
3
72
8
73
4
40
0
40
0
40
0
40
0
40
1
40
1
40
1
40
1
41
1
10
0.0999999999999659
20
-5.56776436282993
30
0
41
1
10
0.0648944344305846
20
-5.37072855948901
30
0
41
1
10
0.03155109950454
20
-5.17345582387856
30
0
41
1
10
0
20
-4.97594212184998
30
0
0
SPLINE
5
326
100
AcDbEntity
8
1
62
256
6
ByLayer
370
13
48
1
60
0
100
AcDbSpline
70
4
71
1
72
4
73
2
40
0
40
0
40
1
40
1
41
1
10
37.010000000151
20
-21.227443447524
30
0
41
1
10
37.0099999998489
20
-21.2412045058129
30
0
0
SPLINE
5
327
100
AcDbEntity
8
1
62
256
6
ByLayer
370
13
48
1
60
0
100
AcDbSpline
70
4
71
3
72
8
73
4
40
0
40
0
40
0
40
0
40
1
40
1
40
1
40
1
41
1
10
42
20
-7.85965293760842
30
0
41
1
10
40.3333333327178
20
-7.85977661597533
30
0
41
1
10
38.6666666661279
20
-7.85990849815622
30
0
41
1
10
37
20
-7.86004506345432
30
0
0
SPLINE
5
328
100
AcDbEntity
8
1
62
256
6
ByLayer
370
13
48
1
60
0
100
AcDbSpline
70
4
71
3
72
44
73
40
40
0
40
0
40
0
40
0
40
0.0625000000000005
40
0.0625000000000005
40
0.125000000000001
40
0.125000000000001
40
0.156250000000001
40
0.156250000000001
40
0.187500000000002
40
0.187500000000002
40
0.250000000000002
40
0.250000000000002
40
0.281250000000002
40
0.281250000000002
40
0.312500000000002
40
0.312500000000002
40
0.375000000000002
40
0.375000000000002
40
0.406250000000002
40
0.406250000000002
40
0.437500000000002
40
0.437500000000002
40
0.500000000000002
40
0.500000000000002
40
0.562500000000002
40
0.562500000000002
40
0.593750000000002
40
0.593750000000002
40
0.625000000000002
40
0.625000000000002
40
0.750000000000002
40
0.750000000000002
40
0.781250000000002
40
0.781250000000002
40
0.812500000000002
40
0.812500000000002
40
0.875000000000001
40
0.875000000000001
40
1
40
1
40
1
40
1
41
1
10
6.9173895531317
20
-26.1878138857676
30
0
41
1
10
6.82748267292404
20
-26.3728429994994
30
0
41
1
10
6.75957154352754
20
-26.5523305119029
30
0
41
1
10
6.6672947086355
20
-26.9001217959803
30
0
41
1
10
6.64292223535085
20
-27.06842798758
30
0
41
1
10
6.64101536659005
20
-27.3120555712758
30
0
41
1
10
6.64626521196983
20
-27.3915563092899
30
0
41
1
10
6.66786294386297
20
-27.5450756979656
30
0
41
1
10
6.68419477826734
20
-27.6194194785423
30
0
41
1
10
6.7492747480658
20
-27.8354101447379
30
0
41
1
10
6.81423418487178
20
-27.9699985725835
30
0
41
1
10
6.94366799667674
20
-28.1580430416726
30
0
41
1
10
6.99223878584452
20
-28.218513316144
30
0
41
1
10
7.09978567859598
20
-28.3343864948773
30
0
41
1
10
7.15833964726794
20
-28.3893665535584
30
0
41
1
10
7.34760996306798
20
-28.5459098614531
30
0
41
1
10
7.49180308079673
20
-28.6391338420116
30
0
41
1
10
7.73383272299246
20
-28.7633150774079
30
0
41
1
10
7.81881107145973
20
-28.8020925292045
30
0
41
1
10
7.99729156595561
20
-28.874511080977
30
0
41
1
10
8.09109920941337
20
-28.9082403399495
30
0
41
1
10
8.38247468688937
20
-29.0009439856111
30
0
41
1
10
8.58998484115592
20
-29.0516107399355
30
0
41
1
10
9.02960662701271
20
-29.132718508091
30
0
41
1
10
9.26172473648633
20
-29.1631519273938
30
0
41
1
10
9.62770840694131
20
-29.1944890824305
30
0
41
1
10
9.75291666358044
20
-29.2025456457969
30
0
41
1
10
10.0083048261385
20
-29.2138791128828
30
0
41
1
10
10.1379789339288
20
-29.217143956481
30
0
41
1
10
10.7958427672194
20
-29.2220962896495
30
0
41
1
10
11.3521932445257
20
-29.1900809523129
30
0
41
1
10
12.0829967583541
20
-29.1100771723509
30
0
41
1
10
12.2312741157891
20
-29.0919885140477
30
0
41
1
10
12.5300334916794
20
-29.051981018457
30
0
41
1
10
12.6801260599829
20
-29.0301203472884
30
0
41
1
10
13.1324883607914
20
-28.9592050000794
30
0
41
1
10
13.4368344301565
20
-28.9048368387502
30
0
41
1
10
14.3580576328865
20
-28.7215787946253
30
0
41
1
10
14.9830151481023
20
-28.5727991002922
30
0
41
1
10
15.6191519666233
20
-28.3977358330777
30
0
0
SPLINE
5
329
100
AcDbEntity
8
1
62
256
6
ByLayer
370
13
48
1
60
0
100
AcDbSpline
70
4
71
3
72
8
73
4
40
0
40
0
40
0
40
0
40
1
40
1
40
1
40
1
41
1
10
37.45
20
-21.227480324103
30
0
41
1
10
37.3033333333699
20
-21.2274677149085
30
0
41
1
10
37.1566666667028
20
-21.2274554183071
30
0
41
1
10
37.01
20
-21.227443447524
30
0
0
SPLINE
5
32A
100
AcDbEntity
8
1
62
256
6
ByLayer
370
13
48
1
60
0
100
AcDbSpline
70
4
71
3
72
8
73
4
40
0
40
0
40
0
40
0
40
1
40
1
40
1
40
1
41
1
10
289.084840862284
20
-0.421422145376056
30
0
41
1
10
289.75891227939
20
-0.467895184445666
30
0
41
1
10
290.43300096138
20
-0.514266993001996
30
0
41
1
10
291.107106212144
20
-0.560540907881261
30
0
0
SPLINE
5
32B
100
AcDbEntity
8
1
62
256
6
ByLayer
370
13
48
1
60
0
100
AcDbSpline
70
4
71
3
72
8
73
4
40
0
40
0
40
0
40
0
40
1
40
1
40
1
40
1
41
1
10
268.836631839544
20
9.80879388388394
30
0
41
1
10
271.022264999692
20
8.94004883926794
30
0
41
1
10
273.205754650162
20
8.04207062737314
30
0
41
1
10
275.39048950091
20
7.12168417678137
30
0
0
SPLINE
5
32C
100
AcDbEntity
8
1
62
256
6
ByLayer
370
13
48
1
60
0
100
AcDbSpline
70
4
71
3
72
10
73
6
40
0
40
0
40
0
40
0
40
0.5
40
0.5
40
1
40
1
40
1
40
1
41
1
10
284.43113420486
20
2.69348210296391
30
0
41
1
10
282.910372128795
20
3.38637859371417
30
0
41
1
10
281.397103142774
20
4.10345423897354
30
0
41
1
10
278.383951943396
20
5.58080277425381
30
0
41
1
10
276.884081474054
20
6.34111356057281
30
0
41
1
10
275.39048950091
20
7.1216841767814
30
0
0
SPLINE
5
32D
100
AcDbEntity
8
1
62
256
6
ByLayer
370
13
48
1
60
0
100
AcDbSpline
70
4
71
3
72
8
73
4
40
0
40
0
40
0
40
0
40
1
40
1
40
1
40
1
41
1
10
288.227303682723
20
7.7945645957893
30
0
41
1
10
288.273133836504
20
7.93925797469748
30
0
41
1
10
288.316783746405
20
8.08437252392778
30
0
41
1
10
288.358900350868
20
8.22978327063893
30
0
0
SPLINE
5
32E
100
AcDbEntity
8
1
62
256
6
ByLayer
370
13
48
1
60
0
100
AcDbSpline
70
4
71
3
72
26
73
22
40
0
40
0
40
0
40
0
40
0.106485051301747
40
0.106485051301747
40
0.212970102603494
40
0.212970102603494
40
0.425940205206984
40
0.425940205206984
40
0.532425256508729
40
0.532425256508729
40
0.638910307810474
40
0.638910307810474
40
0.745395359112219
40
0.745395359112219
40
0.851880410413964
40
0.851880410413964
40
0.905122936064839
40
0.905122936064839
40
0.958365461715713
40
0.958365461715713
40
1
40
1
40
1
40
1
41
1
10
284.775833362637
20
21.440546901563
30
0
41
1
10
283.413193936675
20
21.5374567700724
30
0
41
1
10
282.050686718544
20
21.608640410576
30
0
41
1
10
279.324233668356
20
21.6989733854956
30
0
41
1
10
277.962508492172
20
21.7180524943058
30
0
41
1
10
273.87932490001
20
21.6972284465539
30
0
41
1
10
271.159890628331
20
21.5792288214128
30
0
41
1
10
267.075168335773
20
21.2477259919747
30
0
41
1
10
265.711675200781
20
21.1113544793768
30
0
41
1
10
262.987700797761
20
20.7883173848621
30
0
41
1
10
261.62701959423
20
20.6016809798288
30
0
41
1
10
258.906807658839
20
20.1791637291146
30
0
41
1
10
257.547229311089
20
19.9432830730583
30
0
41
1
10
254.826419009362
20
19.4246884549912
30
0
41
1
10
253.465320536867
20
19.1418281480946
30
0
41
1
10
251.420092314998
20
18.6851987965915
30
0
41
1
10
250.737456243817
20
18.5276549436463
30
0
41
1
10
249.371679148053
20
18.2037457361367
30
0
41
1
10
248.688381914382
20
18.0373502901416
30
0
41
1
10
247.469285002051
20
17.7342992976568
30
0
41
1
10
246.933760394842
20
17.5991296998735
30
0
41
1
10
246.39756596871
20
17.462084037188
30
0
0
SPLINE
5
32F
100
AcDbEntity
8
1
62
256
6
ByLayer
370
13
48
1
60
0
100
AcDbSpline
70
4
71
3
72
12
73
8
40
0
40
0
40
0
40
0
40
0.250000000000018
40
0.250000000000018
40
0.500000000000037
40
0.500000000000037
40
1
40
1
40
1
40
1
41
1
10
291.88470898612
20
10.1440800869137
30
0
41
1
10
291.875746587369
20
10.2120308138703
30
0
41
1
10
291.86353833804
20
10.279590819923
30
0
41
1
10
291.831901869078
20
10.413841724454
30
0
41
1
10
291.812331268744
20
10.4808468577089
30
0
41
1
10
291.743066595722
20
10.6761966549314
30
0
41
1
10
291.68273165803
20
10.7999097331882
30
0
41
1
10
291.607490248044
20
10.9167582380835
30
0
0
SPLINE
5
330
100
AcDbEntity
8
1
62
256
6
ByLayer
370
13
48
1
60
0
100
AcDbSpline
70
4
71
3
72
10
73
6
40
0
40
0
40
0
40
0
40
0.5
40
0.5
40
1
40
1
40
1
40
1
41
1
10
290.326184995464
20
6.74868629274297
30
0
41
1
10
289.994241706813
20
6.94399833756148
30
0
41
1
10
289.652185641431
20
7.12742705780747
30
0
41
1
10
288.951582398443
20
7.47490611743109
30
0
41
1
10
288.593011641238
20
7.6389287488887
30
0
41
1
10
288.227303682714
20
7.79456459577784
30
0
0
SPLINE
5
331
100
AcDbEntity
8
1
62
256
6
ByLayer
370
13
48
1
60
0
100
AcDbSpline
70
4
71
3
72
14
73
10
40
0
40
0
40
0
40
0
40
0.25
40
0.25
40
0.5
40
0.5
40
0.75
40
0.75
40
1
40
1
40
1
40
1
41
1
10
310.060771020937
20
0.636402521858258
30
0
41
1
10
310.061884141966
20
0.686998279226458
30
0
41
1
10
310.063866988105
20
0.734138410682846
30
0
41
1
10
310.069457347903
20
0.818088486106944
30
0
41
1
10
310.072987158499
20
0.853968329155549
30
0
41
1
10
310.081446460524
20
0.912177800454543
30
0
41
1
10
310.086182959741
20
0.933296186816477
30
0
41
1
10
310.096689858225
20
0.959241914497909
30
0
41
1
10
310.102202606482
20
0.963392400528875
30
0
41
1
10
310.107938066775
20
0.958579527829556
30
0
0
SPLINE
5
332
100
AcDbEntity
8
1
62
256
6
ByLayer
370
13
48
1
60
0
100
AcDbSpline
70
4
71
3
72
76
73
72
40
0
40
0
40
0
40
0
40
0.0156249999999993
40
0.0156249999999993
40
0.0312499999999986
40
0.0312499999999986
40
0.0468749999999979
40
0.0468749999999979
40
0.0546874999999981
40
0.0546874999999981
40
0.0624999999999984
40
0.0624999999999984
40
0.0781250000000001
40
0.0781250000000001
40
0.0859375000000009
40
0.0859375000000009
40
0.0898437500000008
40
0.0898437500000008
40
0.0937500000000006
40
0.0937500000000006
40
0.0976562500000005
40
0.0976562500000005
40
0.1015625
40
0.1015625
40
0.109375
40
0.109375
40
0.125000000000001
40
0.125000000000001
40
0.140625000000001
40
0.140625000000001
40
0.156250000000001
40
0.156250000000001
40
0.187500000000001
40
0.187500000000001
40
0.218750000000001
40
0.218750000000001
40
0.250000000000001
40
0.250000000000001
40
0.281250000000001
40
0.281250000000001
40
0.312500000000001
40
0.312500000000001
40
0.343750000000001
40
0.343750000000001
40
0.375000000000001
40
0.375000000000001
40
0.4375
40
0.4375
40
0.46875
40
0.46875
40
0.500000000000001
40
0.500000000000001
40
0.531250000000001
40
0.531250000000001
40
0.562500000000001
40
0.562500000000001
40
0.625000000000001
40
0.625000000000001
40
0.656250000000001
40
0.656250000000001
40
0.687500000000001
40
0.687500000000001
40
0.718750000000002
40
0.718750000000002
40
0.750000000000002
40
0.750000000000002
40
0.812500000000001
40
0.812500000000001
40
0.875000000000001
40
0.875000000000001
40
1
40
1
40
1
40
1
41
1
10
279.884826230843
20
-21.5970393461067
30
0
41
1
10
279.176960936869
20
-21.5886719780063
30
0
41
1
10
278.468462290445
20
-21.5803828236907
30
0
41
1
10
277.051439931667
20
-21.5630671442724
30
0
41
1
10
276.342859150735
20
-21.5540988534467
30
0
41
1
10
274.927319767169
20
-21.5337080508754
30
0
41
1
10
274.22039828935
20
-21.5222626024858
30
0
41
1
10
273.16280541012
20
-21.5010638741095
30
0
41
1
10
272.810735377138
20
-21.4933232630727
30
0
41
1
10
272.107795419702
20
-21.4759950471691
30
0
41
1
10
271.756570378313
20
-21.4663926790957
30
0
41
1
10
270.708417011036
20
-21.433877164906
30
0
41
1
10
270.017117613121
20
-21.4073925941724
30
0
41
1
10
268.996488406211
20
-21.3548803640554
30
0
41
1
10
268.659126735663
20
-21.3351424638014
30
0
41
1
10
268.157187843451
20
-21.301706780311
30
0
41
1
10
267.990493189472
20
-21.2899632425653
30
0
41
1
10
267.658627659622
20
-21.2649984668476
30
0
41
1
10
267.49361235213
20
-21.2516781461836
30
0
41
1
10
267.165151613404
20
-21.2233885070502
30
0
41
1
10
267.001649168031
20
-21.2084519663503
30
0
41
1
10
266.67503391758
20
-21.1776219852424
30
0
41
1
10
266.511799540965
20
-21.1618162686137
30
0
41
1
10
266.022301666788
20
-21.1132168254427
30
0
41
1
10
265.696709084812
20
-21.0789423607798
30
0
41
1
10
264.720093138969
20
-20.9720500997108
30
0
41
1
10
264.068411720926
20
-20.8956774403898
30
0
41
1
10
262.764629636225
20
-20.732539281324
30
0
41
1
10
262.112548451681
20
-20.6457612221699
30
0
41
1
10
260.808824393364
20
-20.4612605369424
30
0
41
1
10
260.157150328797
20
-20.3635455053172
30
0
41
1
10
258.202296172159
20
-20.0542148427396
30
0
41
1
10
256.899276431952
20
-19.8264049238256
30
0
41
1
10
254.291710769409
20
-19.3290158520186
30
0
41
1
10
252.988738283121
20
-19.0590697743894
30
0
41
1
10
250.380483922821
20
-18.4842715899309
30
0
41
1
10
249.074596859679
20
-18.1796641506229
30
0
41
1
10
246.451888249907
20
-17.5486464852055
30
0
41
1
10
245.13429700156
20
-17.2227529575578
30
0
41
1
10
242.486900239997
20
-16.5592388989905
30
0
41
1
10
241.158458681411
20
-16.2217306917455
30
0
41
1
10
238.490561110678
20
-15.54256519414
30
0
41
1
10
237.151122028372
20
-15.2008664704231
30
0
41
1
10
234.459420330831
20
-14.5214253667909
30
0
41
1
10
233.106474186061
20
-14.1835306814312
30
0
41
1
10
229.031721488346
20
-13.1901738908082
30
0
41
1
10
226.293872265815
20
-12.5557448448012
30
0
41
1
10
222.153232053806
20
-11.673473348622
30
0
41
1
10
220.76703705162
20
-11.3908617893454
30
0
41
1
10
217.987795072215
20
-10.8532727126806
30
0
41
1
10
216.594216229911
20
-10.5981886839144
30
0
41
1
10
213.798884487592
20
-10.118949087797
30
0
41
1
10
212.397162392133
20
-9.8946668680604
30
0
41
1
10
209.586014382767
20
-9.47697204116793
30
0
41
1
10
208.176986423893
20
-9.283545155339
30
0
41
1
10
203.944564456743
20
-8.75082090891004
30
0
41
1
10
201.113828051711
20
-8.4601537726486
30
0
41
1
10
196.851252452347
20
-8.14868436164625
30
0
41
1
10
195.429537431731
20
-8.06584849985745
30
0
41
1
10
192.584558427084
20
-7.94195772810383
30
0
41
1
10
191.161276478899
20
-7.90079598717176
30
0
41
1
10
188.313547784602
20
-7.84923196344175
30
0
41
1
10
186.889144095022
20
-7.83768501973441
30
0
41
1
10
184.039909620652
20
-7.82589084499213
30
0
41
1
10
182.61529609055
20
-7.82525909611243
30
0
41
1
10
178.341458126107
20
-7.82601948329022
30
0
41
1
10
175.492237429172
20
-7.8324727851903
30
0
41
1
10
169.793792664214
20
-7.84103213099056
30
0
41
1
10
166.944569864084
20
-7.844772977584
30
0
41
1
10
158.396900537324
20
-7.85480084654677
30
0
41
1
10
152.698452314639
20
-7.85890147254696
30
0
41
1
10
147
20
-7.857730367361
30
0
0
SPLINE
5
333
100
AcDbEntity
8
1
62
256
6
ByLayer
370
13
48
1
60
0
100
AcDbSpline
70
4
71
3
72
8
73
4
40
0
40
0
40
0
40
0
40
1
40
1
40
1
40
1
41
1
10
37
20
-7.86004506345432
30
0
41
1
10
36.4129340903937
20
-7.86009316715288
30
0
41
1
10
35.8279419142568
20
-7.86102299983401
30
0
41
1
10
35.2449980097523
20
-7.86282424751803
30
0
0
SPLINE
5
334
100
AcDbEntity
8
1
62
256
6
ByLayer
370
13
48
1
60
0
100
AcDbSpline
70
4
71
3
72
16
73
12
40
0
40
0
40
0
40
0
40
0.25
40
0.25
40
0.5
40
0.5
40
0.625
40
0.625
40
0.75
40
0.75
40
1
40
1
40
1
40
1
41
1
10
35.2449980060886
20
-21.9274424149365
30
0
41
1
10
34.8925674234675
20
-21.9569095312632
30
0
41
1
10
34.5441802036054
20
-21.9928825124051
30
0
41
1
10
33.8551226068605
20
-22.0769285391156
30
0
41
1
10
33.5144529808195
20
-22.1250044182938
30
0
41
1
10
33.0091670309018
20
-22.2048965187132
30
0
41
1
10
32.8416935264022
20
-22.2328170312745
30
0
41
1
10
32.508671266403
20
-22.2909278133984
30
0
41
1
10
32.3438938636942
20
-22.3209899948639
30
0
41
1
10
31.8592888574771
20
-22.4126102437052
30
0
41
1
10
31.5472370707239
20
-22.475964694602
30
0
41
1
10
31.2459029489928
20
-22.5392757174271
30
0
0
SPLINE
5
335
100
AcDbEntity
8
1
62
256
6
ByLayer
370
13
48
1
60
0
100
AcDbSpline
70
4
71
3
72
8
73
4
40
0
40
0
40
0
40
0
40
1
40
1
40
1
40
1
41
1
10
286.158762932413
20
1.97040729509371
30
0
41
1
10
285.573655007033
20
2.19732807478934
30
0
41
1
10
284.996676392439
20
2.43580721527923
30
0
41
1
10
284.431134204837
20
2.69348210297446
30
0
0
SPLINE
5
336
100
AcDbEntity
8
1
62
256
6
ByLayer
370
13
48
1
60
0
100
AcDbSpline
70
4
71
3
72
8
73
4
40
0
40
0
40
0
40
0
40
1
40
1
40
1
40
1
41
1
10
292.900809752592
20
15.5992155973896
30
0
41
1
10
292.886940997104
20
15.5724753610669
30
0
41
1
10
292.871597586549
20
15.5484149483095
30
0
41
1
10
292.85566143541
20
15.5269115733368
30
0
0
SPLINE
5
337
100
AcDbEntity
8
1
62
256
6
ByLayer
370
13
48
1
60
0
100
AcDbSpline
70
4
71
3
72
10
73
6
40
0
40
0
40
0
40
0
40
0.5
40
0.5
40
1
40
1
40
1
40
1
41
1
10
296.62223741031
20
7.09235636273752
30
0
41
1
10
296.672552968059
20
7.08981419461358
30
0
41
1
10
296.720980192397
20
7.08241669689178
30
0
41
1
10
296.813185285845
20
7.06263339226516
30
0
41
1
10
296.855975529441
20
7.05063549539864
30
0
41
1
10
296.894599543143
20
7.04049168593025
30
0
0
SPLINE
5
338
100
AcDbEntity
8
1
62
256
6
ByLayer
370
13
48
1
60
0
100
AcDbSpline
70
4
71
1
72
4
73
2
40
0
40
0
40
1
40
1
41
1
10
268.836384460058
20
9.80893005933248
30
0
41
1
10
268.771064718332
20
9.83497801548651
30
0
0
SPLINE
5
339
100
AcDbEntity
8
1
62
256
6
ByLayer
370
13
48
1
60
0
100
AcDbSpline
70
4
71
3
72
17
73
13
40
0
40
0
40
0
40
0
40
0.139680475314754
40
0.279873810890174
40
0.420219937172592
40
0.560356427122958
40
0.633568065904687
40
0.706523232641923
40
0.779797898678724
40
0.853438188839811
40
0.926989373477671
40
1
40
1
40
1
40
1
41
1
10
5.90789999999997
20
-31.25
30
0
41
1
10
7.41755698313077
20
-31.0376903816852
30
0
41
1
10
10.4183966725028
20
-30.5059868384196
30
0
41
1
10
14.8620061859453
20
-29.3843243327846
30
0
41
1
10
19.2174664899388
20
-27.947573358553
30
0
41
1
10
22.7802761174596
20
-26.4723401667995
30
0
41
1
10
25.6009776158321
20
-25.1396371970945
30
0
41
1
10
27.7000006021579
20
-23.9923285036834
30
0
41
1
10
29.9221342080572
20
-23.0827797168365
30
0
41
1
10
32.2358465352319
20
-22.4234211009432
30
0
41
1
10
34.6084393956239
20
-22.0257160356711
30
0
41
1
10
36.201031314573
20
-21.9377688327776
30
0
41
1
10
37
20
-21.9375
30
0
0
SPLINE
5
33A
100
AcDbEntity
8
1
62
256
6
ByLayer
370
13
48
1
60
0
100
AcDbSpline
70
4
71
3
72
17
73
13
40
0
40
0
40
0
40
0
40
0.0796766349100572
40
0.159947920604872
40
0.240226552855628
40
0.319924906619913
40
0.399657769491737
40
0.47961881486999
40
0.559732506962354
40
0.706756243990625
40
0.853650179634034
40
1
40
1
40
1
40
1
41
1
10
37
20
21.9374999999999
30
0
41
1
10
36.1273598716606
20
21.9378812515012
30
0
41
1
10
34.3898704216752
20
22.0419738238785
30
0
41
1
10
31.8085319775061
20
22.5179735964956
30
0
41
1
10
29.3000964937841
20
23.2904902815687
30
0
41
1
10
26.9327075985411
20
24.4035135865987
30
0
41
1
10
24.6274521615737
20
25.6219589116637
30
0
41
1
10
22.2428032073241
20
26.6924213622146
30
0
41
1
10
19.1446722610702
20
27.9552482375716
30
0
41
1
10
15.2826565865339
20
29.2659538796368
30
0
41
1
10
10.632907902487
20
30.4650681738764
30
0
41
1
10
7.48987441592141
20
31.0274978959024
30
0
41
1
10
5.90790000000005
20
31.25
30
0
0
SPLINE
5
33B
100
AcDbEntity
8
1
62
256
6
ByLayer
370
13
48
1
60
0
100
AcDbSpline
70
4
71
2
72
6
73
3
40
0
40
0
40
0
40
1
40
1
40
1
41
1
10
310.821210170497
20
6.85214916326362
30
0
41
1
10
310.889138076597
20
6.92314088086681
30
0
41
1
10
310.958380134285
20
6.97901577114536
30
0
0
SPLINE
5
33C
100
AcDbEntity
8
1
62
256
6
ByLayer
370
13
48
1
60
0
100
AcDbSpline
70
4
71
2
72
6
73
3
40
0
40
0
40
0
40
1
40
1
40
1
41
1
10
293.903732387315
20
6.08521955627231
30
0
41
1
10
293.978435646182
20
6.03688852037254
30
0
41
1
10
294.053412091251
20
5.97338610246416
30
0
0
LINE
5
7F
100
AcDbEntity
8
SK1
62
256
6
ByLayer
370
13
48
1
60
0
100
AcDbLine
10
-0.15
20
-24.746
30
0
11
-0.15
21
24.746
31
0
39
0
210
0
220
0
230
1
0
LINE
5
81
100
AcDbEntity
8
SK1
62
256
6
ByLayer
370
13
48
1
60
0
100
AcDbLine
10
-78.599999
20
-24.996
30
0
11
-78.599999
21
-10.670483
31
0
39
0
210
0
220
0
230
1
0
LINE
5
82
100
AcDbEntity
8
SK1
62
256
6
ByLayer
370
13
48
1
60
0
100
AcDbLine
10
-78.599999
20
10.670483
30
0
11
-78.599999
21
24.996
31
0
39
0
210
0
220
0
230
1
0
LINE
5
83
100
AcDbEntity
8
1
62
256
6
ByLayer
370
18
48
1
60
0
100
AcDbLine
10
301.820955
20
15.563714
30
0
11
301.686268
21
15.556655
31
0
39
0
210
0
220
0
230
1
0
LINE
5
84
100
AcDbEntity
8
1
62
256
6
ByLayer
370
18
48
1
60
0
100
AcDbLine
10
303.554101
20
14.611368
30
0
11
303.534191
21
14.610764
31
0
39
0
210
0
220
0
230
1
0
LINE
5
85
100
AcDbEntity
8
1
62
256
6
ByLayer
370
18
48
1
60
0
100
AcDbLine
10
303.367997
20
13.171785
30
0
11
303.233309
21
13.164727
31
0
39
0
210
0
220
0
230
1
0
LINE
5
86
100
AcDbEntity
8
1
62
256
6
ByLayer
370
18
48
1
60
0
100
AcDbLine
10
303.243793
20
13.147712
30
0
11
303.233309
21
13.164727
31
0
39
0
210
0
220
0
230
1
0
LINE
5
87
100
AcDbEntity
8
1
62
256
6
ByLayer
370
18
48
1
60
0
100
AcDbLine
10
301.810761
20
15.580304
30
0
11
301.675051
21
15.573192
31
0
39
0
210
0
220
0
230
1
0
LINE
5
88
100
AcDbEntity
8
1
62
256
6
ByLayer
370
18
48
1
60
0
100
AcDbLine
10
303.574699
20
13.837822
30
0
11
303.594563
21
13.839303
31
0
39
0
210
0
220
0
230
1
0
LINE
5
89
100
AcDbEntity
8
1
62
256
6
ByLayer
370
18
48
1
60
0
100
AcDbLine
10
303.709386
20
13.844881
30
0
11
303.574699
21
13.837822
31
0
39
0
210
0
220
0
230
1
0
LINE
5
8A
100
AcDbEntity
8
1
62
256
6
ByLayer
370
18
48
1
60
0
100
AcDbLine
10
303.668878
20
14.617823
30
0
11
303.534191
21
14.610764
31
0
39
0
210
0
220
0
230
1
0
LINE
5
8B
100
AcDbEntity
8
1
62
256
6
ByLayer
370
18
48
1
60
0
100
AcDbLine
10
301.962055
20
12.693446
30
0
11
301.826345
21
12.686334
31
0
39
0
210
0
220
0
230
1
0
LINE
5
8C
100
AcDbEntity
8
1
62
256
6
ByLayer
370
18
48
1
60
0
100
AcDbLine
10
301.686268
20
15.556655
30
0
11
301.675051
21
15.573192
31
0
39
0
210
0
220
0
230
1
0
LINE
5
8D
100
AcDbEntity
8
1
62
256
6
ByLayer
370
18
48
1
60
0
100
AcDbLine
10
303.268671
20
15.269617
30
0
11
303.132962
21
15.262505
31
0
39
0
210
0
220
0
230
1
0
LINE
5
8E
100
AcDbEntity
8
1
62
256
6
ByLayer
370
18
48
1
60
0
100
AcDbLine
10
300.854915
20
13.695724
30
0
11
300.7866
21
13.692144
31
0
39
0
210
0
220
0
230
1
0
LINE
5
8F
100
AcDbEntity
8
1
62
256
6
ByLayer
370
18
48
1
60
0
100
AcDbLine
10
301.826345
20
12.686334
30
0
11
301.835771
21
12.703953
31
0
39
0
210
0
220
0
230
1
0
LINE
5
90
100
AcDbEntity
8
1
62
256
6
ByLayer
370
18
48
1
60
0
100
AcDbLine
10
300.814452
20
14.467789
30
0
11
300.746727
21
14.46424
31
0
39
0
210
0
220
0
230
1
0
LINE
5
91
100
AcDbEntity
8
1
62
256
6
ByLayer
370
18
48
1
60
0
100
AcDbLine
10
301.970459
20
12.711011
30
0
11
301.835771
21
12.703953
31
0
39
0
210
0
220
0
230
1
0
LINE
5
92
100
AcDbEntity
8
1
62
256
6
ByLayer
370
18
48
1
60
0
100
AcDbLine
10
303.124314
20
15.244487
30
0
11
303.132962
21
15.262505
31
0
39
0
210
0
220
0
230
1
0
LINE
5
93
100
AcDbEntity
8
1
62
256
6
ByLayer
370
18
48
1
60
0
100
AcDbLine
10
303.379503
20
13.154824
30
0
11
303.243793
21
13.147712
31
0
39
0
210
0
220
0
230
1
0
LINE
5
94
100
AcDbEntity
8
1
62
256
6
ByLayer
370
18
48
1
60
0
100
AcDbLine
10
303.259001
20
15.251546
30
0
11
303.124314
21
15.244487
31
0
39
0
210
0
220
0
230
1
0
LINE
5
95
100
AcDbEntity
8
1
62
256
6
ByLayer
370
18
48
1
60
0
100
AcDbLine
10
310.260181
20
-14.169511
30
0
11
310.22918
21
-14.174394
31
0
39
0
210
0
220
0
230
1
0
LINE
5
96
100
AcDbEntity
8
1
62
256
6
ByLayer
370
18
48
1
60
0
100
AcDbLine
10
310.41142
20
-14.132554
30
0
11
310.355543
21
-14.148487
31
0
39
0
210
0
220
0
230
1
0
LINE
5
97
100
AcDbEntity
8
1
62
256
6
ByLayer
370
18
48
1
60
0
100
AcDbLine
10
310.062624
20
0.467551
30
0
11
310.129268
21
0.458826
31
0
39
0
210
0
220
0
230
1
0
LINE
5
98
100
AcDbEntity
8
1
62
256
6
ByLayer
370
18
48
1
60
0
100
AcDbLine
10
311.558963
20
-7.067805
30
0
11
310.661953
21
-13.843412
31
0
39
0
210
0
220
0
230
1
0
LINE
5
99
100
AcDbEntity
8
1
62
256
6
ByLayer
370
18
48
1
60
0
100
AcDbLine
10
310.420025
20
0.209685
30
0
11
310.436048
21
0.154119
31
0
39
0
210
0
220
0
230
1
0
LINE
5
9A
100
AcDbEntity
8
1
62
256
6
ByLayer
370
18
48
1
60
0
100
AcDbLine
10
310.457189
20
0.059287
30
0
11
311.555958
21
-6.839513
31
0
39
0
210
0
220
0
230
1
0
LINE
5
9B
100
AcDbEntity
8
1
62
256
6
ByLayer
370
13
48
1
60
0
100
AcDbLine
10
292.674471
20
13.699949
30
0
11
293.490372
21
19.934241
31
0
39
0
210
0
220
0
230
1
0
LINE
5
9C
100
AcDbEntity
8
1
62
256
6
ByLayer
370
13
48
1
60
0
100
AcDbLine
10
309.550856
20
14.774447
30
0
11
308.564735
21
21.018532
31
0
39
0
210
0
220
0
230
1
0
LINE
5
9D
100
AcDbEntity
8
1
62
256
6
ByLayer
370
13
48
1
60
0
100
AcDbLine
10
295.874705
20
7.26922
30
0
11
294.888584
21
13.513305
31
0
39
0
210
0
220
0
230
1
0
LINE
5
9E
100
AcDbEntity
8
1
62
256
6
ByLayer
370
13
48
1
60
0
100
AcDbLine
10
295.925485
20
6.947683
30
0
11
295.874705
21
7.26922
31
0
39
0
210
0
220
0
230
1
0
LINE
5
9F
100
AcDbEntity
8
1
62
256
6
ByLayer
370
13
48
1
60
0
100
AcDbLine
10
310.734037
20
21.846468
30
0
11
311.84182
21
14.832024
31
0
39
0
210
0
220
0
230
1
0
LINE
5
A0
100
AcDbEntity
8
1
62
256
6
ByLayer
370
13
48
1
60
0
100
AcDbLine
10
293.715513
20
20.062913
30
0
11
295.627587
21
20.36663
31
0
39
0
210
0
220
0
230
1
0
LINE
5
A1
100
AcDbEntity
8
1
62
256
6
ByLayer
370
13
48
1
60
0
100
AcDbLine
10
309.352147
20
22.425602
30
0
11
309.579956
21
22.43554
31
0
39
0
210
0
220
0
230
1
0
LINE
5
A2
100
AcDbEntity
8
1
62
256
6
ByLayer
370
13
48
1
60
0
100
AcDbLine
10
292.50719
20
13.116377
30
0
11
293.755267
21
6.455095
31
0
39
0
210
0
220
0
230
1
0
LINE
5
A3
100
AcDbEntity
8
1
62
256
6
ByLayer
370
13
48
1
60
0
100
AcDbLine
10
292.451899
20
14.171388
30
0
11
292.433634
21
13.81987
31
0
39
0
210
0
220
0
230
1
0
LINE
5
A4
100
AcDbEntity
8
1
62
256
6
ByLayer
370
13
48
1
60
0
100
AcDbLine
10
294.883972
20
13.513063
30
0
11
295.920873
21
6.947442
31
0
39
0
210
0
220
0
230
1
0
LINE
5
A5
100
AcDbEntity
8
1
62
256
6
ByLayer
370
13
48
1
60
0
100
AcDbLine
10
294.719385
20
13.732821
30
0
11
295.566687
21
20.207047
31
0
39
0
210
0
220
0
230
1
0
LINE
5
A6
100
AcDbEntity
8
1
62
256
6
ByLayer
370
13
48
1
60
0
100
AcDbLine
10
293.883642
20
6.47156
30
0
11
292.775859
21
13.486004
31
0
39
0
210
0
220
0
230
1
0
LINE
5
A7
100
AcDbEntity
8
1
62
256
6
ByLayer
370
13
48
1
60
0
100
AcDbLine
10
295.103721
20
13.545514
30
0
11
296.089842
21
7.301429
31
0
39
0
210
0
220
0
230
1
0
LINE
5
A8
100
AcDbEntity
8
1
62
256
6
ByLayer
370
13
48
1
60
0
100
AcDbLine
10
295.566687
20
20.207047
30
0
11
293.720463
21
19.913789
31
0
39
0
210
0
220
0
230
1
0
LINE
5
A9
100
AcDbEntity
8
1
62
256
6
ByLayer
370
13
48
1
60
0
100
AcDbLine
10
295.361463
20
5.840058
30
0
11
295.129666
21
5.786364
31
0
39
0
210
0
220
0
230
1
0
LINE
5
AA
100
AcDbEntity
8
1
62
256
6
ByLayer
370
13
48
1
60
0
100
AcDbLine
10
293.720463
20
19.913789
30
0
11
292.902834
21
13.666296
31
0
39
0
210
0
220
0
230
1
0
LINE
5
AB
100
AcDbEntity
8
1
62
256
6
ByLayer
370
13
48
1
60
0
100
AcDbLine
10
310.458678
20
7.184228
30
0
11
310.913235
21
8.155624
31
0
39
0
210
0
220
0
230
1
0
LINE
5
AC
100
AcDbEntity
8
1
62
256
6
ByLayer
370
13
48
1
60
0
100
AcDbLine
10
311.675855
20
14.807625
30
0
11
310.568072
21
21.822069
31
0
39
0
210
0
220
0
230
1
0
LINE
5
AD
100
AcDbEntity
8
1
62
256
6
ByLayer
370
13
48
1
60
0
100
AcDbLine
10
311.844484
20
14.631153
30
0
11
311.026855
21
8.38366
31
0
39
0
210
0
220
0
230
1
0
LINE
5
AE
100
AcDbEntity
8
1
62
256
6
ByLayer
370
13
48
1
60
0
100
AcDbLine
10
292.641625
20
15.147111
30
0
11
292.449436
21
13.6786
31
0
39
0
210
0
220
0
230
1
0
LINE
5
AF
100
AcDbEntity
8
1
62
256
6
ByLayer
370
13
48
1
60
0
100
AcDbLine
10
310.902166
20
8.255115
30
0
11
308.990092
21
7.951397
31
0
39
0
210
0
220
0
230
1
0
LINE
5
B0
100
AcDbEntity
8
1
62
256
6
ByLayer
370
13
48
1
60
0
100
AcDbLine
10
311.026855
20
8.38366
30
0
11
311.022243
21
8.383418
31
0
39
0
210
0
220
0
230
1
0
LINE
5
B1
100
AcDbEntity
8
1
62
256
6
ByLayer
370
13
48
1
60
0
100
AcDbLine
10
293.897076
20
21.690358
30
0
11
294.009201
21
21.678908
31
0
39
0
210
0
220
0
230
1
0
LINE
5
B2
100
AcDbEntity
8
1
62
256
6
ByLayer
370
13
48
1
60
0
100
AcDbLine
10
310.570629
20
8.101204
30
0
11
310.913235
21
8.155624
31
0
39
0
210
0
220
0
230
1
0
LINE
5
B3
100
AcDbEntity
8
1
62
256
6
ByLayer
370
13
48
1
60
0
100
AcDbLine
10
310.960626
20
7.996984
30
0
11
310.881235
21
7.251348
31
0
39
0
210
0
220
0
230
1
0
LINE
5
B4
100
AcDbEntity
8
1
62
256
6
ByLayer
370
13
48
1
60
0
100
AcDbLine
10
295.925485
20
6.947683
30
0
11
295.920873
21
6.947442
31
0
39
0
210
0
220
0
230
1
0
LINE
5
B5
100
AcDbEntity
8
1
62
256
6
ByLayer
370
13
48
1
60
0
100
AcDbLine
10
311.839871
20
14.630911
30
0
11
311.022243
21
8.383418
31
0
39
0
210
0
220
0
230
1
0
LINE
5
B6
100
AcDbEntity
8
1
62
256
6
ByLayer
370
13
48
1
60
0
100
AcDbLine
10
295.261534
20
5.892211
30
0
11
295.033111
21
5.882246
31
0
39
0
210
0
220
0
230
1
0
LINE
5
B7
100
AcDbEntity
8
1
62
256
6
ByLayer
370
13
48
1
60
0
100
AcDbLine
10
292.50719
20
13.116377
30
0
11
292.452281
21
13.46406
31
0
39
0
210
0
220
0
230
1
0
LINE
5
B8
100
AcDbEntity
8
1
62
256
6
ByLayer
370
13
48
1
60
0
100
AcDbLine
10
308.119312
20
7.929573
30
0
11
297.181351
21
7.356339
31
0
39
0
210
0
220
0
230
1
0
LINE
5
B9
100
AcDbEntity
8
1
62
256
6
ByLayer
370
13
48
1
60
0
100
AcDbLine
10
309.356146
20
22.425817
30
0
11
309.584568
21
22.435782
31
0
39
0
210
0
220
0
230
1
0
LINE
5
BA
100
AcDbEntity
8
1
62
256
6
ByLayer
370
13
48
1
60
0
100
AcDbLine
10
294.40944
20
21.466612
30
0
11
294.086464
21
21.466816
31
0
39
0
210
0
220
0
230
1
0
LINE
5
BB
100
AcDbEntity
8
1
62
256
6
ByLayer
370
13
48
1
60
0
100
AcDbLine
10
311.844484
20
14.631153
30
0
11
311.839871
21
14.630911
31
0
39
0
210
0
220
0
230
1
0
LINE
5
BC
100
AcDbEntity
8
1
62
256
6
ByLayer
370
13
48
1
60
0
100
AcDbLine
10
311.943208
20
14.618078
30
0
11
311.127307
21
8.383787
31
0
39
0
210
0
220
0
230
1
0
LINE
5
BD
100
AcDbEntity
8
1
62
256
6
ByLayer
370
13
48
1
60
0
100
AcDbLine
10
292.677515
20
13.470383
30
0
11
293.785298
21
6.455938
31
0
39
0
210
0
220
0
230
1
0
LINE
5
BE
100
AcDbEntity
8
1
62
256
6
ByLayer
370
13
48
1
60
0
100
AcDbLine
10
308.887464
20
8.152606
30
0
11
308.875769
21
8.063243
31
0
39
0
210
0
220
0
230
1
0
LINE
5
BF
100
AcDbEntity
8
1
62
256
6
ByLayer
370
13
48
1
60
0
100
AcDbLine
10
308.977417
20
7.950211
30
0
11
308.98548
21
7.951156
31
0
39
0
210
0
220
0
230
1
0
LINE
5
C0
100
AcDbEntity
8
1
62
256
6
ByLayer
370
13
48
1
60
0
100
AcDbLine
10
295.008114
20
6.031136
30
0
11
295.236536
21
6.041101
31
0
39
0
210
0
220
0
230
1
0
LINE
5
C1
100
AcDbEntity
8
1
62
256
6
ByLayer
370
13
48
1
60
0
100
AcDbLine
10
294.888584
20
13.513305
30
0
11
294.883972
21
13.513063
31
0
39
0
210
0
220
0
230
1
0
LINE
5
C2
100
AcDbEntity
8
1
62
256
6
ByLayer
370
13
48
1
60
0
100
AcDbLine
10
295.793014
20
20.494156
30
0
11
293.704444
21
20.162403
31
0
39
0
210
0
220
0
230
1
0
LINE
5
C3
100
AcDbEntity
8
1
62
256
6
ByLayer
370
13
48
1
60
0
100
AcDbLine
10
295.899561
20
6.863399
30
0
11
295.894949
21
6.863158
31
0
39
0
210
0
220
0
230
1
0
LINE
5
C4
100
AcDbEntity
8
1
62
256
6
ByLayer
370
13
48
1
60
0
100
AcDbLine
10
294.885921
20
13.714176
30
0
11
294.881308
21
13.713934
31
0
39
0
210
0
220
0
230
1
0
LINE
5
C5
100
AcDbEntity
8
1
62
256
6
ByLayer
370
13
48
1
60
0
100
AcDbLine
10
292.773196
20
13.686875
30
0
11
293.590825
21
19.934368
31
0
39
0
210
0
220
0
230
1
0
LINE
5
C6
100
AcDbEntity
8
1
62
256
6
ByLayer
370
13
48
1
60
0
100
AcDbLine
10
296.498367
20
20.388454
30
0
11
307.436328
21
20.961689
31
0
39
0
210
0
220
0
230
1
0
LINE
5
C7
100
AcDbEntity
8
1
62
256
6
ByLayer
370
13
48
1
60
0
100
AcDbLine
10
292.451899
20
14.171388
30
0
11
292.531873
21
14.922495
31
0
39
0
210
0
220
0
230
1
0
LINE
5
C8
100
AcDbEntity
8
1
62
256
6
ByLayer
370
13
48
1
60
0
100
AcDbLine
10
310.062897
20
22.436889
30
0
11
310.058284
21
22.436647
31
0
39
0
210
0
220
0
230
1
0
LINE
5
C9
100
AcDbEntity
8
1
62
256
6
ByLayer
370
13
48
1
60
0
100
AcDbLine
10
308.692194
20
21.370344
30
0
11
308.740135
21
21.066784
31
0
39
0
210
0
220
0
230
1
0
LINE
5
CA
100
AcDbEntity
8
1
62
256
6
ByLayer
370
13
48
1
60
0
100
AcDbLine
10
309.62316
20
6.814698
30
0
11
309.812751
21
6.813558
31
0
39
0
210
0
220
0
230
1
0
LINE
5
CB
100
AcDbEntity
8
1
62
256
6
ByLayer
370
13
48
1
60
0
100
AcDbLine
10
308.710781
20
8.197433
30
0
11
309.552758
21
14.630968
31
0
39
0
210
0
220
0
230
1
0
LINE
5
CC
100
AcDbEntity
8
1
62
256
6
ByLayer
370
13
48
1
60
0
100
AcDbLine
10
308.990092
20
7.951397
30
0
11
308.98548
21
7.951156
31
0
39
0
210
0
220
0
230
1
0
LINE
5
CD
100
AcDbEntity
8
1
62
256
6
ByLayer
370
13
48
1
60
0
100
AcDbLine
10
308.824666
20
7.823872
30
0
11
310.570629
21
8.101204
31
0
39
0
210
0
220
0
230
1
0
LINE
5
CE
100
AcDbEntity
8
1
62
256
6
ByLayer
370
13
48
1
60
0
100
AcDbLine
10
309.861397
20
14.583273
30
0
11
309.014095
21
8.109047
31
0
39
0
210
0
220
0
230
1
0
LINE
5
CF
100
AcDbEntity
8
1
62
256
6
ByLayer
370
13
48
1
60
0
100
AcDbLine
10
308.825066
20
21.36872
30
0
11
309.858163
21
14.827187
31
0
39
0
210
0
220
0
230
1
0
LINE
5
D0
100
AcDbEntity
8
1
62
256
6
ByLayer
370
13
48
1
60
0
100
AcDbLine
10
293.605537
20
21.104794
30
0
11
293.462462
21
21.082067
31
0
39
0
210
0
220
0
230
1
0
LINE
5
D1
100
AcDbEntity
8
1
62
256
6
ByLayer
370
13
48
1
60
0
100
AcDbLine
10
309.333819
20
22.499364
30
0
11
309.223505
21
22.476256
31
0
39
0
210
0
220
0
230
1
0
LINE
5
D2
100
AcDbEntity
8
1
62
256
6
ByLayer
370
13
48
1
60
0
100
AcDbLine
10
311.185862
20
8.831229
30
0
11
311.06737
21
7.362384
31
0
39
0
210
0
220
0
230
1
0
LINE
5
D3
100
AcDbEntity
8
1
62
256
6
ByLayer
370
13
48
1
60
0
100
AcDbLine
10
311.940165
20
14.847645
30
0
11
310.832381
21
21.862089
31
0
39
0
210
0
220
0
230
1
0
LINE
5
D4
100
AcDbEntity
8
1
62
256
6
ByLayer
370
13
48
1
60
0
100
AcDbLine
10
295.943795
20
20.122528
30
0
11
295.101819
21
13.688993
31
0
39
0
210
0
220
0
230
1
0
LINE
5
D5
100
AcDbEntity
8
1
62
256
6
ByLayer
370
13
48
1
60
0
100
AcDbLine
10
309.014095
20
8.109047
30
0
11
310.860319
21
8.402305
31
0
39
0
210
0
220
0
230
1
0
LINE
5
D6
100
AcDbEntity
8
1
62
256
6
ByLayer
370
13
48
1
60
0
100
AcDbLine
10
309.256217
20
22.47797
30
0
11
309.488013
21
22.531664
31
0
39
0
210
0
220
0
230
1
0
LINE
5
D7
100
AcDbEntity
8
1
62
256
6
ByLayer
370
13
48
1
60
0
100
AcDbLine
10
310.570629
20
8.101204
30
0
11
310.257101
21
6.817421
31
0
39
0
210
0
220
0
230
1
0
LINE
5
D8
100
AcDbEntity
8
1
62
256
6
ByLayer
370
13
48
1
60
0
100
AcDbLine
10
292.451899
20
14.171388
30
0
11
292.457301
21
14.728305
31
0
39
0
210
0
220
0
230
1
0
LINE
5
D9
100
AcDbEntity
8
1
62
256
6
ByLayer
370
13
48
1
60
0
100
AcDbLine
10
309.356146
20
22.425817
30
0
11
309.351533
21
22.425575
31
0
39
0
210
0
220
0
230
1
0
LINE
5
DA
100
AcDbEntity
8
1
62
256
6
ByLayer
370
13
48
1
60
0
100
AcDbLine
10
310.458678
20
7.184228
30
0
11
310.881235
21
7.251348
31
0
39
0
210
0
220
0
230
1
0
LINE
5
DB
100
AcDbEntity
8
1
62
256
6
ByLayer
370
13
48
1
60
0
100
AcDbLine
10
310.897554
20
8.254873
30
0
11
308.98548
21
7.951156
31
0
39
0
210
0
220
0
230
1
0
LINE
5
DC
100
AcDbEntity
8
1
62
256
6
ByLayer
370
13
48
1
60
0
100
AcDbLine
10
295.445446
20
6.041238
30
0
11
295.440833
21
6.040996
31
0
39
0
210
0
220
0
230
1
0
LINE
5
DD
100
AcDbEntity
8
1
62
256
6
ByLayer
370
13
48
1
60
0
100
AcDbLine
10
309.619794
20
22.436988
30
0
11
309.615182
21
22.436746
31
0
39
0
210
0
220
0
230
1
0
LINE
5
DE
100
AcDbEntity
8
1
62
256
6
ByLayer
370
13
48
1
60
0
100
AcDbLine
10
293.490372
20
19.934241
30
0
11
293.467982
21
20.147575
31
0
39
0
210
0
220
0
230
1
0
LINE
5
DF
100
AcDbEntity
8
1
62
256
6
ByLayer
370
13
48
1
60
0
100
AcDbLine
10
308.917165
20
22.293862
30
0
11
309.075912
21
22.302181
31
0
39
0
210
0
220
0
230
1
0
LINE
5
E0
100
AcDbEntity
8
1
62
256
6
ByLayer
370
13
48
1
60
0
100
AcDbLine
10
292.904926
20
13.508469
30
0
11
294.01271
21
6.494024
31
0
39
0
210
0
220
0
230
1
0
LINE
5
E1
100
AcDbEntity
8
1
62
256
6
ByLayer
370
13
48
1
60
0
100
AcDbLine
10
295.755715
20
6.947374
30
0
11
294.722619
21
13.488906
31
0
39
0
210
0
220
0
230
1
0
LINE
5
E2
100
AcDbEntity
8
1
62
256
6
ByLayer
370
13
48
1
60
0
100
AcDbLine
10
310.734037
20
21.846468
30
0
11
310.729425
21
21.846226
31
0
39
0
210
0
220
0
230
1
0
LINE
5
E3
100
AcDbEntity
8
1
62
256
6
ByLayer
370
13
48
1
60
0
100
AcDbLine
10
309.572668
20
22.284958
30
0
11
309.344245
21
22.274993
31
0
39
0
210
0
220
0
230
1
0
LINE
5
E4
100
AcDbEntity
8
1
62
256
6
ByLayer
370
13
48
1
60
0
100
AcDbLine
10
310.860319
20
8.402305
30
0
11
311.677948
21
14.649798
31
0
39
0
210
0
220
0
230
1
0
LINE
5
E5
100
AcDbEntity
8
1
62
256
6
ByLayer
370
13
48
1
60
0
100
AcDbLine
10
293.605537
20
21.104794
30
0
11
293.704444
21
20.162403
31
0
39
0
210
0
220
0
230
1
0
LINE
5
E6
100
AcDbEntity
8
1
62
256
6
ByLayer
370
13
48
1
60
0
100
AcDbLine
10
310.729425
20
21.846226
30
0
11
311.837208
21
14.831782
31
0
39
0
210
0
220
0
230
1
0
LINE
5
E7
100
AcDbEntity
8
1
62
256
6
ByLayer
370
13
48
1
60
0
100
AcDbLine
10
294.885921
20
13.714176
30
0
11
295.727897
21
20.14771
31
0
39
0
210
0
220
0
230
1
0
LINE
5
E8
100
AcDbEntity
8
1
62
256
6
ByLayer
370
13
48
1
60
0
100
AcDbLine
10
295.737298
20
20.254543
30
0
11
294.881308
21
13.713934
31
0
39
0
210
0
220
0
230
1
0
LINE
5
E9
100
AcDbEntity
8
1
62
256
6
ByLayer
370
13
48
1
60
0
100
AcDbLine
10
295.727897
20
20.14771
30
0
11
295.74191
21
20.254785
31
0
39
0
210
0
220
0
230
1
0
LINE
5
EA
100
AcDbEntity
8
1
62
256
6
ByLayer
370
13
48
1
60
0
100
AcDbLine
10
310.902166
20
8.255115
30
0
11
310.897554
21
8.254873
31
0
39
0
210
0
220
0
230
1
0
LINE
5
EB
100
AcDbEntity
8
1
62
256
6
ByLayer
370
13
48
1
60
0
100
AcDbLine
10
309.223505
20
22.476256
30
0
11
309.256217
21
22.47797
31
0
39
0
210
0
220
0
230
1
0
LINE
5
EC
100
AcDbEntity
8
1
62
256
6
ByLayer
370
13
48
1
60
0
100
AcDbLine
10
310.916159
20
6.963962
30
0
11
310.881235
21
7.251348
31
0
39
0
210
0
220
0
230
1
0
LINE
5
ED
100
AcDbEntity
8
1
62
256
6
ByLayer
370
13
48
1
60
0
100
AcDbLine
10
295.74191
20
20.254785
30
0
11
295.737298
21
20.254543
31
0
39
0
210
0
220
0
230
1
0
LINE
5
EE
100
AcDbEntity
8
1
62
256
6
ByLayer
370
13
48
1
60
0
100
AcDbLine
10
292.744505
20
10.993673
30
0
11
293.483892
21
7.903474
31
0
39
0
210
0
220
0
230
1
0
LINE
5
EF
100
AcDbEntity
8
1
62
256
6
ByLayer
370
13
48
1
60
0
100
AcDbLine
10
309.584568
20
22.435782
30
0
11
309.579956
21
22.43554
31
0
39
0
210
0
220
0
230
1
0
LINE
5
F0
100
AcDbEntity
8
1
62
256
6
ByLayer
370
13
48
1
60
0
100
AcDbLine
10
311.84182
20
14.832024
30
0
11
311.837208
21
14.831782
31
0
39
0
210
0
220
0
230
1
0
LINE
5
F1
100
AcDbEntity
8
SK1
62
256
6
ByLayer
370
13
48
1
60
0
100
AcDbLine
10
-76.600002
20
24.996
30
0
11
-76.600002
21
10.670483
31
0
39
0
210
0
220
0
230
1
0
LINE
5
F2
100
AcDbEntity
8
SK1
62
256
6
ByLayer
370
13
48
1
60
0
100
AcDbLine
10
-76.600002
20
-10.670483
30
0
11
-76.600002
21
-24.996
31
0
39
0
210
0
220
0
230
1
0
LINE
5
F3
100
AcDbEntity
8
SK1
62
256
6
ByLayer
370
13
48
1
60
0
100
AcDbLine
10
-6.5
20
-10.670483
30
0
11
-6.5
21
10.670483
31
0
39
0
210
0
220
0
230
1
0
LINE
5
F4
100
AcDbEntity
8
SK1
62
256
6
ByLayer
370
13
48
1
60
0
100
AcDbLine
10
-79
20
10.670483
30
0
11
-78.599999
21
10.670483
31
0
39
0
210
0
220
0
230
1
0
LINE
5
F5
100
AcDbEntity
8
SK1
62
256
6
ByLayer
370
13
48
1
60
0
100
AcDbLine
10
-76.600002
20
10.670483
30
0
11
-6.5
21
10.670483
31
0
39
0
210
0
220
0
230
1
0
LINE
5
F6
100
AcDbEntity
8
SK1
62
256
6
ByLayer
370
13
48
1
60
0
100
AcDbLine
10
-1.544243
20
-24.783477
30
0
11
-1.544243
21
24.783477
31
0
39
0
210
0
220
0
230
1
0
LINE
5
F7
100
AcDbEntity
8
SK1
62
256
6
ByLayer
370
13
48
1
60
0
100
AcDbLine
10
-77.633813
20
24.639667
30
0
11
-77.633813
21
9.806751
31
0
39
0
210
0
220
0
230
1
0
LINE
5
F8
100
AcDbEntity
8
SK1
62
256
6
ByLayer
370
13
48
1
60
0
100
AcDbLine
10
-77.633813
20
-9.806751
30
0
11
-77.633813
21
-24.639667
31
0
39
0
210
0
220
0
230
1
0
LINE
5
F9
100
AcDbEntity
8
SK1
62
256
6
ByLayer
370
13
48
1
60
0
100
AcDbLine
10
-79
20
-24.996
30
0
11
-79
21
-10.670483
31
0
39
0
210
0
220
0
230
1
0
LINE
5
FA
100
AcDbEntity
8
SK1
62
256
6
ByLayer
370
13
48
1
60
0
100
AcDbLine
10
-79
20
10.670483
30
0
11
-79
21
24.996
31
0
39
0
210
0
220
0
230
1
0
LINE
5
FB
100
AcDbEntity
8
SK1
62
256
6
ByLayer
370
13
48
1
60
0
100
AcDbLine
10
-78.599999
20
-10.670483
30
0
11
-79
21
-10.670483
31
0
39
0
210
0
220
0
230
1
0
LINE
5
FC
100
AcDbEntity
8
SK1
62
256
6
ByLayer
370
13
48
1
60
0
100
AcDbLine
10
-6.5
20
-10.670483
30
0
11
-76.600002
21
-10.670483
31
0
39
0
210
0
220
0
230
1
0
LINE
5
FD
100
AcDbEntity
8
SK1
62
256
6
ByLayer
370
13
48
1
60
0
100
AcDbLine
10
-78.516222
20
24.892544
30
0
11
-78.516222
21
10.425829
31
0
39
0
210
0
220
0
230
1
0
LINE
5
FE
100
AcDbEntity
8
SK1
62
256
6
ByLayer
370
13
48
1
60
0
100
AcDbLine
10
-78.516222
20
-10.425829
30
0
11
-78.516222
21
-24.892544
31
0
39
0
210
0
220
0
230
1
0
LINE
5
FF
100
AcDbEntity
8
SK1
62
256
6
ByLayer
370
13
48
1
60
0
100
AcDbLine
10
-80
20
8.054018
30
0
11
-80
21
-8.054018
31
0
39
0
210
0
220
0
230
1
0
LINE
5
100
100
AcDbEntity
8
SK1
62
256
6
ByLayer
370
13
48
1
60
0
100
AcDbLine
10
-80
20
-23.996
30
0
11
-80
21
-8.054018
31
0
39
0
210
0
220
0
230
1
0
LINE
5
101
100
AcDbEntity
8
SK1
62
256
6
ByLayer
370
13
48
1
60
0
100
AcDbLine
10
-80
20
8.054018
30
0
11
-80
21
23.996
31
0
39
0
210
0
220
0
230
1
0
LINE
5
102
100
AcDbEntity
8
SK1
62
256
6
ByLayer
370
13
48
1
60
0
100
AcDbLine
10
-2
20
-24.996
30
0
11
-2
21
24.996
31
0
39
0
210
0
220
0
230
1
0
LINE
5
103
100
AcDbEntity
8
SK1
62
256
6
ByLayer
370
13
48
1
60
0
100
AcDbLine
10
-1.375195
20
-24.746
30
0
11
-1.375195
21
24.746
31
0
39
0
210
0
220
0
230
1
0
LINE
5
104
100
AcDbEntity
8
1
62
256
6
ByLayer
370
13
48
1
60
0
100
AcDbLine
10
0
20
-4.975942
30
0
11
0
21
4.975942
31
0
39
0
210
0
220
0
230
1
0
LINE
5
105
100
AcDbEntity
8
1
62
256
6
ByLayer
370
13
48
1
60
0
100
AcDbLine
10
147
20
-21.623705
30
0
11
147
21
-21.7125
31
0
39
0
210
0
220
0
230
1
0
LINE
5
106
100
AcDbEntity
8
1
62
256
6
ByLayer
370
13
48
1
60
0
100
AcDbLine
10
310.596044
20
1.136357
30
0
11
310.574265
21
1.139209
31
0
39
0
210
0
220
0
230
1
0
LINE
5
107
100
AcDbEntity
8
1
62
256
6
ByLayer
370
13
48
1
60
0
100
AcDbLine
10
0
20
31.15
30
0
11
0
21
4.975942
31
0
39
0
210
0
220
0
230
1
0
LINE
5
108
100
AcDbEntity
8
1
62
256
6
ByLayer
370
13
48
1
60
0
100
AcDbLine
10
309.716431
20
-21.820789
30
0
11
291.107106
21
-21.820789
31
0
39
0
210
0
220
0
230
1
0
LINE
5
109
100
AcDbEntity
8
1
62
256
6
ByLayer
370
13
48
1
60
0
100
AcDbLine
10
37
20
-21.854175
30
0
11
37
21
-21.9375
31
0
39
0
210
0
220
0
230
1
0
LINE
5
10A
100
AcDbEntity
8
1
62
256
6
ByLayer
370
13
48
1
60
0
100
AcDbLine
10
290.12135
20
10.292188
30
0
11
290.12135
21
13.209902
31
0
39
0
210
0
220
0
230
1
0
LINE
5
10B
100
AcDbEntity
8
1
62
256
6
ByLayer
370
13
48
1
60
0
100
AcDbLine
10
0.1
20
5.567764
30
0
11
5.9079
21
5.567764
31
0
39
0
210
0
220
0
230
1
0
LINE
5
10C
100
AcDbEntity
8
1
62
256
6
ByLayer
370
13
48
1
60
0
100
AcDbLine
10
288.107106
20
21.7125
30
0
11
288.107106
21
21.487616
31
0
39
0
210
0
220
0
230
1
0
LINE
5
10D
100
AcDbEntity
8
1
62
256
6
ByLayer
370
13
48
1
60
0
100
AcDbLine
10
310.131906
20
-0.238095
30
0
11
311.057238
21
-6.047948
31
0
39
0
210
0
220
0
230
1
0
LINE
5
10E
100
AcDbEntity
8
1
62
256
6
ByLayer
370
13
48
1
60
0
100
AcDbLine
10
310.55683
20
6.655397
30
0
11
310.429767
21
6.648738
31
0
39
0
210
0
220
0
230
1
0
LINE
5
10F
100
AcDbEntity
8
1
62
256
6
ByLayer
370
13
48
1
60
0
100
AcDbLine
10
310.496301
20
0.63031
30
0
11
310.485454
21
0.631731
31
0
39
0
210
0
220
0
230
1
0
LINE
5
110
100
AcDbEntity
8
1
62
256
6
ByLayer
370
13
48
1
60
0
100
AcDbLine
10
290.793096
20
6.799451
30
0
11
290.326185
21
6.748686
31
0
39
0
210
0
220
0
230
1
0
LINE
5
111
100
AcDbEntity
8
1
62
256
6
ByLayer
370
13
48
1
60
0
100
AcDbLine
10
288.715927
20
1.632998
30
0
11
289.084841
21
-0.421422
31
0
39
0
210
0
220
0
230
1
0
LINE
5
112
100
AcDbEntity
8
1
62
256
6
ByLayer
370
13
48
1
60
0
100
AcDbLine
10
297.658567
20
7.090628
30
0
11
297.424077
21
7.078339
31
0
39
0
210
0
220
0
230
1
0
LINE
5
113
100
AcDbEntity
8
1
62
256
6
ByLayer
370
13
48
1
60
0
100
AcDbLine
10
309.137102
20
6.480855
30
0
11
310.144638
21
6.533657
31
0
39
0
210
0
220
0
230
1
0
LINE
5
114
100
AcDbEntity
8
1
62
256
6
ByLayer
370
13
48
1
60
0
100
AcDbLine
10
308.598052
20
2.088947
30
0
11
310.060771
21
0.636403
31
0
39
0
210
0
220
0
230
1
0
LINE
5
115
100
AcDbEntity
8
1
62
256
6
ByLayer
370
13
48
1
60
0
100
AcDbLine
10
292.978929
20
9.509286
30
0
11
292.35128
21
13.483542
31
0
39
0
210
0
220
0
230
1
0
LINE
5
116
100
AcDbEntity
8
1
62
256
6
ByLayer
370
13
48
1
60
0
100
AcDbLine
10
310.596044
20
1.136357
30
0
11
310.832055
21
0.869331
31
0
39
0
210
0
220
0
230
1
0
LINE
5
117
100
AcDbEntity
8
1
62
256
6
ByLayer
370
13
48
1
60
0
100
AcDbLine
10
309.716431
20
-21.820789
30
0
11
310.597398
21
-15.166369
31
0
39
0
210
0
220
0
230
1
0
LINE
5
118
100
AcDbEntity
8
1
62
256
6
ByLayer
370
13
48
1
60
0
100
AcDbLine
10
309.292494
20
-4.29548
30
0
11
311.057238
21
-6.047948
31
0
39
0
210
0
220
0
230
1
0
LINE
5
119
100
AcDbEntity
8
1
62
256
6
ByLayer
370
13
48
1
60
0
100
AcDbLine
10
284.431134
20
2.693482
30
0
11
284.759125
21
0.866958
31
0
39
0
210
0
220
0
230
1
0
LINE
5
11A
100
AcDbEntity
8
1
62
256
6
ByLayer
370
13
48
1
60
0
100
AcDbLine
10
311.079658
20
-7.750956
30
0
11
309.379375
21
-6.0625
31
0
39
0
210
0
220
0
230
1
0
LINE
5
11B
100
AcDbEntity
8
1
62
256
6
ByLayer
370
13
48
1
60
0
100
AcDbLine
10
5.9079
20
31.25
30
0
11
5.9079
21
5.567764
31
0
39
0
210
0
220
0
230
1
0
LINE
5
11C
100
AcDbEntity
8
1
62
256
6
ByLayer
370
13
48
1
60
0
100
AcDbLine
10
293.474018
20
19.979094
30
0
11
292.90081
21
15.599216
31
0
39
0
210
0
220
0
230
1
0
LINE
5
11D
100
AcDbEntity
8
1
62
256
6
ByLayer
370
13
48
1
60
0
100
AcDbLine
10
310.605774
20
5.807565
30
0
11
310.55683
21
6.655397
31
0
39
0
210
0
220
0
230
1
0
LINE
5
11E
100
AcDbEntity
8
1
62
256
6
ByLayer
370
13
48
1
60
0
100
AcDbLine
10
310.504087
20
0.621502
30
0
11
310.480432
21
0.624598
31
0
39
0
210
0
220
0
230
1
0
LINE
5
11F
100
AcDbEntity
8
1
62
256
6
ByLayer
370
13
48
1
60
0
100
AcDbLine
10
310.131906
20
-0.238095
30
0
11
308.56867
21
1.314266
31
0
39
0
210
0
220
0
230
1
0
LINE
5
120
100
AcDbEntity
8
1
62
256
6
ByLayer
370
13
48
1
60
0
100
AcDbLine
10
42
20
21.9375
30
0
11
42
21
-7.859653
31
0
39
0
210
0
220
0
230
1
0
LINE
5
121
100
AcDbEntity
8
1
62
256
6
ByLayer
370
13
48
1
60
0
100
AcDbLine
10
297.698223
20
7.183153
30
0
11
297.707447
21
7.183636
31
0
39
0
210
0
220
0
230
1
0
LINE
5
122
100
AcDbEntity
8
1
62
256
6
ByLayer
370
13
48
1
60
0
100
AcDbLine
10
298.144499
20
5.435984
30
0
11
298.582333
21
5.45893
31
0
39
0
210
0
220
0
230
1
0
LINE
5
123
100
AcDbEntity
8
1
62
256
6
ByLayer
370
13
48
1
60
0
100
AcDbLine
10
305.633043
20
7.766971
30
0
11
305.450907
21
7.757426
31
0
39
0
210
0
220
0
230
1
0
LINE
5
124
100
AcDbEntity
8
1
62
256
6
ByLayer
370
13
48
1
60
0
100
AcDbLine
10
42
20
-21.854142
30
0
11
42
21
-21.9375
31
0
39
0
210
0
220
0
230
1
0
LINE
5
125
100
AcDbEntity
8
1
62
256
6
ByLayer
370
13
48
1
60
0
100
AcDbLine
10
303.376628
20
6.178961
30
0
11
309.137102
21
6.480855
31
0
39
0
210
0
220
0
230
1
0
LINE
5
126
100
AcDbEntity
8
1
62
256
6
ByLayer
370
13
48
1
60
0
100
AcDbLine
10
0.1
20
31.25
30
0
11
0.1
21
5.567764
31
0
39
0
210
0
220
0
230
1
0
LINE
5
127
100
AcDbEntity
8
1
62
256
6
ByLayer
370
13
48
1
60
0
100
AcDbLine
10
294.550464
20
21.294937
30
0
11
294.588552
21
21.585968
31
0
39
0
210
0
220
0
230
1
0
LINE
5
128
100
AcDbEntity
8
1
62
256
6
ByLayer
370
13
48
1
60
0
100
AcDbLine
10
288.107106
20
-21.597039
30
0
11
279.884826
21
-21.597039
31
0
39
0
210
0
220
0
230
1
0
LINE
5
129
100
AcDbEntity
8
1
62
256
6
ByLayer
370
13
48
1
60
0
100
AcDbLine
10
310.678841
20
5.512148
30
0
11
310.642943
21
5.510266
31
0
39
0
210
0
220
0
230
1
0
LINE
5
12A
100
AcDbEntity
8
1
62
256
6
ByLayer
370
13
48
1
60
0
100
AcDbLine
10
5.9079
20
-5.567764
30
0
11
5.9079
21
-31.25
31
0
39
0
210
0
220
0
230
1
0
LINE
5
12B
100
AcDbEntity
8
1
62
256
6
ByLayer
370
13
48
1
60
0
100
AcDbLine
10
291.107106
20
21.9375
30
0
11
291.107106
21
21.753195
31
0
39
0
210
0
220
0
230
1
0
LINE
5
12C
100
AcDbEntity
8
1
62
256
6
ByLayer
370
13
48
1
60
0
100
AcDbLine
10
309.137102
20
6.480855
30
0
11
308.598052
21
2.088947
31
0
39
0
210
0
220
0
230
1
0
LINE
5
12D
100
AcDbEntity
8
1
62
256
6
ByLayer
370
13
48
1
60
0
100
AcDbLine
10
298.048334
20
7.401776
30
0
11
300.136758
21
7.511225
31
0
39
0
210
0
220
0
230
1
0
LINE
5
12E
100
AcDbEntity
8
1
62
256
6
ByLayer
370
13
48
1
60
0
100
AcDbLine
10
37.01
20
-12.660916
30
0
11
37.01
21
-21.227443
31
0
39
0
210
0
220
0
230
1
0
LINE
5
12F
100
AcDbEntity
8
1
62
256
6
ByLayer
370
13
48
1
60
0
100
AcDbLine
10
290.298732
20
6.687032
30
0
11
291.928431
21
6.186325
31
0
39
0
210
0
220
0
230
1
0
LINE
5
130
100
AcDbEntity
8
1
62
256
6
ByLayer
370
13
48
1
60
0
100
AcDbLine
10
288.107106
20
-21.597039
30
0
11
288.107106
21
-0.297508
31
0
39
0
210
0
220
0
230
1
0
LINE
5
131
100
AcDbEntity
8
1
62
256
6
ByLayer
370
13
48
1
60
0
100
AcDbLine
10
293.472728
20
20.886185
30
0
11
293.425877
21
21.780155
31
0
39
0
210
0
220
0
230
1
0
LINE
5
132
100
AcDbEntity
8
1
62
256
6
ByLayer
370
13
48
1
60
0
100
AcDbLine
10
290.432035
20
10.26129
30
0
11
291.60749
21
10.916758
31
0
39
0
210
0
220
0
230
1
0
LINE
5
133
100
AcDbEntity
8
1
62
256
6
ByLayer
370
13
48
1
60
0
100
AcDbLine
10
291.60749
20
10.916758
30
0
11
290.12135
21
13.209902
31
0
39
0
210
0
220
0
230
1
0
LINE
5
134
100
AcDbEntity
8
1
62
256
6
ByLayer
370
13
48
1
60
0
100
AcDbLine
10
310.591938
20
6.535062
30
0
11
310.563856
21
6.53359
31
0
39
0
210
0
220
0
230
1
0
LINE
5
135
100
AcDbEntity
8
1
62
256
6
ByLayer
370
13
48
1
60
0
100
AcDbLine
10
301.12676
20
6.061051
30
0
11
301.837377
21
6.098292
31
0
39
0
210
0
220
0
230
1
0
LINE
5
136
100
AcDbEntity
8
1
62
256
6
ByLayer
370
13
48
1
60
0
100
AcDbLine
10
308.56867
20
1.314266
30
0
11
308.671026
21
-0.822665
31
0
39
0
210
0
220
0
230
1
0
LINE
5
137
100
AcDbEntity
8
1
62
256
6
ByLayer
370
13
48
1
60
0
100
AcDbLine
10
291.107106
20
-21.820789
30
0
11
291.107106
21
-0.560541
31
0
39
0
210
0
220
0
230
1
0
LINE
5
138
100
AcDbEntity
8
1
62
256
6
ByLayer
370
13
48
1
60
0
100
AcDbLine
10
0
20
-31.15
30
0
11
0
21
-4.975942
31
0
39
0
210
0
220
0
230
1
0
LINE
5
139
100
AcDbEntity
8
1
62
256
6
ByLayer
370
13
48
1
60
0
100
AcDbLine
10
5.9079
20
-5.567764
30
0
11
0.1
21
-5.567764
31
0
39
0
210
0
220
0
230
1
0
LINE
5
13A
100
AcDbEntity
8
1
62
256
6
ByLayer
370
13
48
1
60
0
100
AcDbLine
10
292.743922
20
15.317384
30
0
11
293.472728
21
20.886185
31
0
39
0
210
0
220
0
230
1
0
LINE
5
13B
100
AcDbEntity
8
1
62
256
6
ByLayer
370
13
48
1
60
0
100
AcDbLine
10
147
20
21.7125
30
0
11
147
21
-7.85773
31
0
39
0
210
0
220
0
230
1
0
LINE
5
13C
100
AcDbEntity
8
1
62
256
6
ByLayer
370
13
48
1
60
0
100
AcDbLine
10
310.597398
20
-15.166369
30
0
11
310.200702
21
-14.839309
31
0
39
0
210
0
220
0
230
1
0
LINE
5
13D
100
AcDbEntity
8
1
62
256
6
ByLayer
370
13
48
1
60
0
100
AcDbLine
10
310.832055
20
0.869331
30
0
11
310.509616
21
0.743049
31
0
39
0
210
0
220
0
230
1
0
LINE
5
13E
100
AcDbEntity
8
1
62
256
6
ByLayer
370
13
48
1
60
0
100
AcDbLine
10
310.09659
20
0.581289
30
0
11
310.06061
21
0.567198
31
0
39
0
210
0
220
0
230
1
0
LINE
5
13F
100
AcDbEntity
8
1
62
256
6
ByLayer
370
13
48
1
60
0
100
AcDbLine
10
300.98218
20
7.054846
30
0
11
308.586596
21
7.453376
31
0
39
0
210
0
220
0
230
1
0
LINE
5
140
100
AcDbEntity
8
1
62
256
6
ByLayer
370
13
48
1
60
0
100
AcDbLine
10
310.828842
20
6.078572
30
0
11
310.678841
21
5.512148
31
0
39
0
210
0
220
0
230
1
0
LINE
5
141
100
AcDbEntity
8
1
62
256
6
ByLayer
370
13
48
1
60
0
100
AcDbLine
10
305.804343
20
7.808251
30
0
11
307.892767
21
7.9177
31
0
39
0
210
0
220
0
230
1
0
LINE
5
142
100
AcDbEntity
8
1
62
256
6
ByLayer
370
13
48
1
60
0
100
AcDbLine
10
310.828842
20
6.078572
30
0
11
310.832055
21
0.869331
31
0
39
0
210
0
220
0
230
1
0
LINE
5
143
100
AcDbEntity
8
1
62
256
6
ByLayer
370
13
48
1
60
0
100
AcDbLine
10
37
20
21.9375
30
0
11
37
21
-7.860045
31
0
39
0
210
0
220
0
230
1
0
LINE
5
144
100
AcDbEntity
8
1
62
256
6
ByLayer
370
13
48
1
60
0
100
AcDbLine
10
308.3471
20
7.741237
30
0
11
297.707447
21
7.183636
31
0
39
0
210
0
220
0
230
1
0
LINE
5
145
100
AcDbEntity
8
1
62
256
6
ByLayer
370
13
48
1
60
0
100
AcDbLine
10
310.496301
20
0.63031
30
0
11
310.504087
21
0.621502
31
0
39
0
210
0
220
0
230
1
0
LINE
5
146
100
AcDbEntity
8
1
62
256
6
ByLayer
370
13
48
1
60
0
100
AcDbLine
10
310.591938
20
6.535062
30
0
11
310.828842
21
6.078572
31
0
39
0
210
0
220
0
230
1
0
LINE
5
147
100
AcDbEntity
8
1
62
256
6
ByLayer
370
13
48
1
60
0
100
AcDbLine
10
297.419656
20
7.068009
30
0
11
296.8946
21
7.040492
31
0
39
0
210
0
220
0
230
1
0
LINE
5
148
100
AcDbEntity
8
1
62
256
6
ByLayer
370
13
48
1
60
0
100
AcDbLine
10
0.1
20
-31.25
30
0
11
0.1
21
-5.567764
31
0
39
0
210
0
220
0
230
1
0
LINE
5
149
100
AcDbEntity
8
1
62
256
6
ByLayer
370
13
48
1
60
0
100
AcDbLine
10
311.079658
20
-7.750956
30
0
11
310.215161
21
-14.280972
31
0
39
0
210
0
220
0
230
1
0
LINE
5
14A
100
AcDbEntity
8
4
62
256
6
ByLayer
370
18
48
0.05
60
0
100
AcDbLine
10
312
20
0
30
0
11
0
21
0
31
0
39
0
210
0
220
0
230
1
0
LINE
5
14C
100
AcDbEntity
8
SK4
62
256
6
ByLayer
370
13
48
0.05
60
0
100
AcDbLine
10
312
20
0
30
0
11
-80
21
0
31
0
39
0
210
0
220
0
230
1
0
LINE
5
14E
100
AcDbEntity
8
SK1
62
256
6
ByLayer
370
13
48
1
60
0
100
AcDbLine
10
-77.633813
20
-24.639667
30
0
11
-76.600002
21
-24.996
31
0
39
0
210
0
220
0
230
1
0
LINE
5
14F
100
AcDbEntity
8
SK1
62
256
6
ByLayer
370
13
48
1
60
0
100
AcDbLine
10
-76.600002
20
24.996
30
0
11
-77.633813
21
24.639667
31
0
39
0
210
0
220
0
230
1
0
LINE
5
150
100
AcDbEntity
8
SK1
62
256
6
ByLayer
370
13
48
1
60
0
100
AcDbLine
10
-78.516222
20
24.892544
30
0
11
-78.599999
21
24.996
31
0
39
0
210
0
220
0
230
1
0
LINE
5
151
100
AcDbEntity
8
SK1
62
256
6
ByLayer
370
13
48
1
60
0
100
AcDbLine
10
-78.599999
20
-24.996
30
0
11
-78.516222
21
-24.892544
31
0
39
0
210
0
220
0
230
1
0
LINE
5
152
100
AcDbEntity
8
SK1
62
256
6
ByLayer
370
13
48
1
60
0
100
AcDbLine
10
-78.599999
20
24.996
30
0
11
-79
21
24.996
31
0
39
0
210
0
220
0
230
1
0
LINE
5
153
100
AcDbEntity
8
SK1
62
256
6
ByLayer
370
13
48
1
60
0
100
AcDbLine
10
-79
20
-24.996
30
0
11
-78.599999
21
-24.996
31
0
39
0
210
0
220
0
230
1
0
LINE
5
154
100
AcDbEntity
8
SK1
62
256
6
ByLayer
370
13
48
1
60
0
100
AcDbLine
10
-80
20
-23.996
30
0
11
-79
21
-24.996
31
0
39
0
210
0
220
0
230
1
0
LINE
5
155
100
AcDbEntity
8
SK1
62
256
6
ByLayer
370
13
48
1
60
0
100
AcDbLine
10
-79
20
24.996
30
0
11
-80
21
23.996
31
0
39
0
210
0
220
0
230
1
0
LINE
5
156
100
AcDbEntity
8
SK1
62
256
6
ByLayer
370
13
48
1
60
0
100
AcDbLine
10
-0.15
20
24.746
30
0
11
-1.375195
21
24.746
31
0
39
0
210
0
220
0
230
1
0
LINE
5
157
100
AcDbEntity
8
SK1
62
256
6
ByLayer
370
13
48
1
60
0
100
AcDbLine
10
-1.375195
20
-24.746
30
0
11
-0.15
21
-24.746
31
0
39
0
210
0
220
0
230
1
0
LINE
5
158
100
AcDbEntity
8
SK1
62
256
6
ByLayer
370
13
48
1
60
0
100
AcDbLine
10
-1.544243
20
24.783477
30
0
11
-2
21
24.996
31
0
39
0
210
0
220
0
230
1
0
LINE
5
159
100
AcDbEntity
8
SK1
62
256
6
ByLayer
370
13
48
1
60
0
100
AcDbLine
10
-2
20
-24.996
30
0
11
-1.544243
21
-24.783477
31
0
39
0
210
0
220
0
230
1
0
LINE
5
15A
100
AcDbEntity
8
SK1
62
256
6
ByLayer
370
13
48
1
60
0
100
AcDbLine
10
-2
20
24.996
30
0
11
-76.600002
21
24.996
31
0
39
0
210
0
220
0
230
1
0
LINE
5
15B
100
AcDbEntity
8
SK1
62
256
6
ByLayer
370
13
48
1
60
0
100
AcDbLine
10
-76.600002
20
-24.996
30
0
11
-2
21
-24.996
31
0
39
0
210
0
220
0
230
1
0
LINE
5
15C
100
AcDbEntity
8
1
62
256
6
ByLayer
370
13
48
1
60
0
100
AcDbLine
10
37
20
-21.9375
30
0
11
42
21
-21.9375
31
0
39
0
210
0
220
0
230
1
0
LINE
5
15D
100
AcDbEntity
8
1
62
256
6
ByLayer
370
13
48
1
60
0
100
AcDbLine
10
42
20
-21.9375
30
0
11
147
21
-21.7125
31
0
39
0
210
0
220
0
230
1
0
LINE
5
15E
100
AcDbEntity
8
1
62
256
6
ByLayer
370
13
48
1
60
0
100
AcDbLine
10
293.173993
20
21.9375
30
0
11
291.107106
21
21.9375
31
0
39
0
210
0
220
0
230
1
0
LINE
5
15F
100
AcDbEntity
8
1
62
256
6
ByLayer
370
13
48
1
60
0
100
AcDbLine
10
291.107106
20
21.9375
30
0
11
288.107106
21
21.7125
31
0
39
0
210
0
220
0
230
1
0
LINE
5
160
100
AcDbEntity
8
1
62
256
6
ByLayer
370
13
48
1
60
0
100
AcDbLine
10
147
20
-21.7125
30
0
11
209.577408
21
-21.7125
31
0
39
0
210
0
220
0
230
1
0
LINE
5
161
100
AcDbEntity
8
1
62
256
6
ByLayer
370
13
48
1
60
0
100
AcDbLine
10
288.107106
20
21.7125
30
0
11
277.146029
21
21.7125
31
0
39
0
210
0
220
0
230
1
0
LINE
5
162
100
AcDbEntity
8
1
62
256
6
ByLayer
370
13
48
1
60
0
100
AcDbLine
10
199.34523
20
21.7125
30
0
11
147
21
21.7125
31
0
39
0
210
0
220
0
230
1
0
LINE
5
163
100
AcDbEntity
8
1
62
256
6
ByLayer
370
13
48
1
60
0
100
AcDbLine
10
42
20
21.9375
30
0
11
37
21
21.9375
31
0
39
0
210
0
220
0
230
1
0
LINE
5
164
100
AcDbEntity
8
1
62
256
6
ByLayer
370
13
48
1
60
0
100
AcDbLine
10
147
20
21.7125
30
0
11
42
21
21.9375
31
0
39
0
210
0
220
0
230
1
0
LINE
5
165
100
AcDbEntity
8
1
62
256
6
ByLayer
370
13
48
1
60
0
100
AcDbLine
10
0.1
20
-31.25
30
0
11
5.9079
21
-31.25
31
0
39
0
210
0
220
0
230
1
0
LINE
5
166
100
AcDbEntity
8
1
62
256
6
ByLayer
370
13
48
1
60
0
100
AcDbLine
10
0
20
-31.15
30
0
11
0.1
21
-31.25
31
0
39
0
210
0
220
0
230
1
0
LINE
5
167
100
AcDbEntity
8
1
62
256
6
ByLayer
370
13
48
1
60
0
100
AcDbLine
10
0.1
20
31.25
30
0
11
0
21
31.15
31
0
39
0
210
0
220
0
230
1
0
LINE
5
168
100
AcDbEntity
8
1
62
256
6
ByLayer
370
13
48
1
60
0
100
AcDbLine
10
5.9079
20
31.25
30
0
11
0.1
21
31.25
31
0
39
0
210
0
220
0
230
1
0
LINE
5
169
100
AcDbEntity
8
1
62
256
6
ByLayer
370
18
48
1
60
0
100
AcDbLine
10
302.328904
20
12.867995
30
0
11
302.204182
21
12.861458
31
0
39
0
210
0
220
0
230
1
0
LINE
5
16A
100
AcDbEntity
8
1
62
256
6
ByLayer
370
18
48
1
60
0
100
AcDbLine
10
302.069124
20
15.438522
30
0
11
302.193846
21
15.445058
31
0
39
0
210
0
220
0
230
1
0
LINE
5
16B
100
AcDbEntity
8
1
62
256
6
ByLayer
370
18
48
1
60
0
100
AcDbLine
10
302.3573
20
11.307642
30
0
11
302.423789
21
11.311127
31
0
39
0
210
0
220
0
230
1
0
LINE
5
16C
100
AcDbEntity
8
1
62
256
6
ByLayer
370
18
48
1
60
0
100
AcDbLine
10
302.125474
20
17.003315
30
0
11
302.058985
21
16.999831
31
0
39
0
210
0
220
0
230
1
0
LINE
5
16D
100
AcDbEntity
8
1
62
256
6
ByLayer
370
13
48
1
60
0
100
AcDbLine
10
310.649065
20
7.331125
30
0
11
311.103622
21
8.302521
31
0
39
0
210
0
220
0
230
1
0
LINE
5
16E
100
AcDbEntity
8
1
62
256
6
ByLayer
370
13
48
1
60
0
100
AcDbLine
10
309.729959
20
14.804679
30
0
11
308.743837
21
21.048764
31
0
39
0
210
0
220
0
230
1
0
LINE
5
16F
100
AcDbEntity
8
1
62
256
6
ByLayer
370
13
48
1
60
0
100
AcDbLine
10
308.890641
20
8.170513
30
0
11
309.732618
21
14.604048
31
0
39
0
210
0
220
0
230
1
0
LINE
5
170
100
AcDbEntity
8
81
62
256
6
ByLayer
370
18
48
1
60
0
100
AcDbLine
10
312
20
0
30
0
11
319
21
0
31
0
39
0
210
0
220
0
230
1
0
LINE
5
171
100
AcDbEntity
8
80
62
256
6
ByLayer
370
18
48
1
60
0
100
AcDbLine
10
0
20
0
30
0
11
-7
21
0
31
0
39
0
210
0
220
0
230
1
0
LINE
5
172
100
AcDbEntity
8
SK2
62
256
6
ByLayer
370
13
48
1
60
0
100
AcDbLine
10
-100.725
20
25
30
0
11
-100.725
21
-25
31
0
39
0
210
0
220
0
230
1
0
LINE
5
174
100
AcDbEntity
8
SK2
62
256
6
ByLayer
370
13
48
1
60
0
100
AcDbLine
10
-81.5875
20
-25
30
0
11
-103.9
21
-25
31
0
39
0
210
0
220
0
230
1
0
LINE
5
175
100
AcDbEntity
8
SK2
62
256
6
ByLayer
370
13
48
1
60
0
100
AcDbLine
10
-81.5875
20
25
30
0
11
-103.9
21
25
31
0
39
0
210
0
220
0
230
1
0
LINE
5
176
100
AcDbEntity
8
1
62
256
6
ByLayer
370
18
48
1
60
1
100
AcDbLine
10
-100.725
20
-25
30
0
11
-101.650575
21
-20.825003
31
0
39
0
210
0
220
0
230
1
0
LINE
5
177
100
AcDbEntity
8
1
62
256
6
ByLayer
370
18
48
1
60
1
100
AcDbLine
10
-101.650575
20
-20.825003
30
0
11
-99.799425
21
-20.824997
31
0
39
0
210
0
220
0
230
1
0
LINE
5
178
100
AcDbEntity
8
1
62
256
6
ByLayer
370
18
48
1
60
1
100
AcDbLine
10
-99.799425
20
-20.824997
30
0
11
-100.725
21
-25
31
0
39
0
210
0
220
0
230
1
0
LINE
5
179
100
AcDbEntity
8
1
62
256
6
ByLayer
370
18
48
1
60
1
100
AcDbLine
10
-100.725
20
25
30
0
11
-99.799425
21
20.825003
31
0
39
0
210
0
220
0
230
1
0
LINE
5
17A
100
AcDbEntity
8
1
62
256
6
ByLayer
370
18
48
1
60
1
100
AcDbLine
10
-99.799425
20
20.825003
30
0
11
-101.650575
21
20.824997
31
0
39
0
210
0
220
0
230
1
0
LINE
5
17B
100
AcDbEntity
8
1
62
256
6
ByLayer
370
18
48
1
60
1
100
AcDbLine
10
-101.650575
20
20.824997
30
0
11
-100.725
21
25
31
0
39
0
210
0
220
0
230
1
0
LINE
5
17C
100
AcDbEntity
8
SK2
62
256
6
ByLayer
370
13
48
1
60
0
100
AcDbLine
10
-110.725
20
-31.25
30
0
11
-110.725
21
31.25
31
0
39
0
210
0
220
0
230
1
0
LINE
5
17D
100
AcDbEntity
8
SK2
62
256
6
ByLayer
370
13
48
1
60
0
100
AcDbLine
10
-1.5875
20
31.25
30
0
11
-113.9
21
31.25
31
0
39
0
210
0
220
0
230
1
0
LINE
5
17E
100
AcDbEntity
8
SK2
62
256
6
ByLayer
370
13
48
1
60
0
100
AcDbLine
10
-1.5875
20
-31.25
30
0
11
-113.9
21
-31.25
31
0
39
0
210
0
220
0
230
1
0
LINE
5
17F
100
AcDbEntity
8
1
62
256
6
ByLayer
370
18
48
1
60
1
100
AcDbLine
10
-110.725
20
31.25
30
0
11
-109.799425
21
27.075003
31
0
39
0
210
0
220
0
230
1
0
LINE
5
180
100
AcDbEntity
8
1
62
256
6
ByLayer
370
18
48
1
60
1
100
AcDbLine
10
-109.799425
20
27.075003
30
0
11
-111.650575
21
27.074997
31
0
39
0
210
0
220
0
230
1
0
LINE
5
181
100
AcDbEntity
8
1
62
256
6
ByLayer
370
18
48
1
60
1
100
AcDbLine
10
-111.650575
20
27.074997
30
0
11
-110.725
21
31.25
31
0
39
0
210
0
220
0
230
1
0
LINE
5
182
100
AcDbEntity
8
1
62
256
6
ByLayer
370
18
48
1
60
1
100
AcDbLine
10
-110.725
20
-31.25
30
0
11
-111.650575
21
-27.075003
31
0
39
0
210
0
220
0
230
1
0
LINE
5
183
100
AcDbEntity
8
1
62
256
6
ByLayer
370
18
48
1
60
1
100
AcDbLine
10
-111.650575
20
-27.075003
30
0
11
-109.799425
21
-27.074997
31
0
39
0
210
0
220
0
230
1
0
LINE
5
184
100
AcDbEntity
8
1
62
256
6
ByLayer
370
18
48
1
60
1
100
AcDbLine
10
-109.799425
20
-27.074997
30
0
11
-110.725
21
-31.25
31
0
39
0
210
0
220
0
230
1
0
LINE
5
185
100
AcDbEntity
8
2
62
256
6
ByLayer
370
13
48
1
60
0
100
AcDbLine
10
338.975
20
22.5
30
0
11
338.975
21
-22.5
31
0
39
0
210
0
220
0
230
1
0
LINE
5
187
100
AcDbEntity
8
2
62
256
6
ByLayer
370
13
48
1
60
0
100
AcDbLine
10
313.5875
20
-22.5
30
0
11
342.15
21
-22.5
31
0
39
0
210
0
220
0
230
1
0
LINE
5
188
100
AcDbEntity
8
2
62
256
6
ByLayer
370
13
48
1
60
0
100
AcDbLine
10
313.5875
20
22.5
30
0
11
342.15
21
22.5
31
0
39
0
210
0
220
0
230
1
0
LINE
5
189
100
AcDbEntity
8
1
62
256
6
ByLayer
370
18
48
1
60
1
100
AcDbLine
10
338.975
20
-22.5
30
0
11
338.049425
21
-18.325003
31
0
39
0
210
0
220
0
230
1
0
LINE
5
18A
100
AcDbEntity
8
1
62
256
6
ByLayer
370
18
48
1
60
1
100
AcDbLine
10
338.049425
20
-18.325003
30
0
11
339.900575
21
-18.324997
31
0
39
0
210
0
220
0
230
1
0
LINE
5
18B
100
AcDbEntity
8
1
62
256
6
ByLayer
370
18
48
1
60
1
100
AcDbLine
10
339.900575
20
-18.324997
30
0
11
338.975
21
-22.5
31
0
39
0
210
0
220
0
230
1
0
LINE
5
18C
100
AcDbEntity
8
1
62
256
6
ByLayer
370
18
48
1
60
1
100
AcDbLine
10
338.975
20
22.5
30
0
11
339.900575
21
18.325003
31
0
39
0
210
0
220
0
230
1
0
LINE
5
18D
100
AcDbEntity
8
1
62
256
6
ByLayer
370
18
48
1
60
1
100
AcDbLine
10
339.900575
20
18.325003
30
0
11
338.049425
21
18.324997
31
0
39
0
210
0
220
0
230
1
0
LINE
5
18E
100
AcDbEntity
8
1
62
256
6
ByLayer
370
18
48
1
60
1
100
AcDbLine
10
338.049425
20
18.324997
30
0
11
338.975
21
22.5
31
0
39
0
210
0
220
0
230
1
0
LINE
5
341
100
AcDbEntity
8
1
62
256
6
ByLayer
370
18
48
1
60
1
100
AcDbLine
10
-100.725
20
-25
30
0
11
-101.650575
21
-20.825003
31
0
39
0
210
0
220
0
230
1
0
LINE
5
342
100
AcDbEntity
8
1
62
256
6
ByLayer
370
18
48
1
60
1
100
AcDbLine
10
-101.650575
20
-20.825003
30
0
11
-99.799425
21
-20.824997
31
0
39
0
210
0
220
0
230
1
0
LINE
5
343
100
AcDbEntity
8
1
62
256
6
ByLayer
370
18
48
1
60
1
100
AcDbLine
10
-99.799425
20
-20.824997
30
0
11
-100.725
21
-25
31
0
39
0
210
0
220
0
230
1
0
LINE
5
345
100
AcDbEntity
8
1
62
256
6
ByLayer
370
18
48
1
60
1
100
AcDbLine
10
-100.725
20
25
30
0
11
-99.799425
21
20.825003
31
0
39
0
210
0
220
0
230
1
0
LINE
5
346
100
AcDbEntity
8
1
62
256
6
ByLayer
370
18
48
1
60
1
100
AcDbLine
10
-99.799425
20
20.825003
30
0
11
-101.650575
21
20.824997
31
0
39
0
210
0
220
0
230
1
0
LINE
5
347
100
AcDbEntity
8
1
62
256
6
ByLayer
370
18
48
1
60
1
100
AcDbLine
10
-101.650575
20
20.824997
30
0
11
-100.725
21
25
31
0
39
0
210
0
220
0
230
1
0
LINE
5
34B
100
AcDbEntity
8
1
62
256
6
ByLayer
370
18
48
1
60
1
100
AcDbLine
10
-110.725
20
31.25
30
0
11
-109.799425
21
27.075003
31
0
39
0
210
0
220
0
230
1
0
LINE
5
34C
100
AcDbEntity
8
1
62
256
6
ByLayer
370
18
48
1
60
1
100
AcDbLine
10
-109.799425
20
27.075003
30
0
11
-111.650575
21
27.074997
31
0
39
0
210
0
220
0
230
1
0
LINE
5
34D
100
AcDbEntity
8
1
62
256
6
ByLayer
370
18
48
1
60
1
100
AcDbLine
10
-111.650575
20
27.074997
30
0
11
-110.725
21
31.25
31
0
39
0
210
0
220
0
230
1
0
LINE
5
34F
100
AcDbEntity
8
1
62
256
6
ByLayer
370
18
48
1
60
1
100
AcDbLine
10
-110.725
20
-31.25
30
0
11
-111.650575
21
-27.075003
31
0
39
0
210
0
220
0
230
1
0
LINE
5
350
100
AcDbEntity
8
1
62
256
6
ByLayer
370
18
48
1
60
1
100
AcDbLine
10
-111.650575
20
-27.075003
30
0
11
-109.799425
21
-27.074997
31
0
39
0
210
0
220
0
230
1
0
LINE
5
351
100
AcDbEntity
8
1
62
256
6
ByLayer
370
18
48
1
60
1
100
AcDbLine
10
-109.799425
20
-27.074997
30
0
11
-110.725
21
-31.25
31
0
39
0
210
0
220
0
230
1
0
LINE
5
355
100
AcDbEntity
8
1
62
256
6
ByLayer
370
18
48
1
60
1
100
AcDbLine
10
338.975
20
-22.5
30
0
11
338.049425
21
-18.325003
31
0
39
0
210
0
220
0
230
1
0
LINE
5
356
100
AcDbEntity
8
1
62
256
6
ByLayer
370
18
48
1
60
1
100
AcDbLine
10
338.049425
20
-18.325003
30
0
11
339.900575
21
-18.324997
31
0
39
0
210
0
220
0
230
1
0
LINE
5
357
100
AcDbEntity
8
1
62
256
6
ByLayer
370
18
48
1
60
1
100
AcDbLine
10
339.900575
20
-18.324997
30
0
11
338.975
21
-22.5
31
0
39
0
210
0
220
0
230
1
0
LINE
5
359
100
AcDbEntity
8
1
62
256
6
ByLayer
370
18
48
1
60
1
100
AcDbLine
10
338.975
20
22.5
30
0
11
339.900575
21
18.325003
31
0
39
0
210
0
220
0
230
1
0
LINE
5
35A
100
AcDbEntity
8
1
62
256
6
ByLayer
370
18
48
1
60
1
100
AcDbLine
10
339.900575
20
18.325003
30
0
11
338.049425
21
18.324997
31
0
39
0
210
0
220
0
230
1
0
LINE
5
35B
100
AcDbEntity
8
1
62
256
6
ByLayer
370
18
48
1
60
1
100
AcDbLine
10
338.049425
20
18.324997
30
0
11
338.975
21
22.5
31
0
39
0
210
0
220
0
230
1
0
MTEXT
5
33D
100
AcDbEntity
8
SK2
62
256
6
ByLayer
370
18
48
1
60
0
100
AcDbMText
10
-102.736672
20
-6.949399
30
0
210
0
220
0
230
1
1
%%c
40
4.5
41
0
44
1.084337
50
90
71
7
72
5
7
iso_b_vert
0
MTEXT
5
340
100
AcDbEntity
8
SK2
62
256
6
ByLayer
370
18
48
1
60
0
100
AcDbMText
10
-102.736672
20
4.265444
30
0
210
0
220
0
230
1
1
\W0.6740;50
40
4.5
41
0
44
1.084337
50
90
71
7
72
5
7
iso_b_vert
0
MTEXT
5
349
100
AcDbEntity
8
SK2
62
256
6
ByLayer
370
18
48
1
60
0
100
AcDbMText
10
-112.736672
20
-9.541655
30
0
210
0
220
0
230
1
1
%%c
40
4.5
41
0
44
1.084337
50
90
71
7
72
5
7
iso_b_vert
0
MTEXT
5
34A
100
AcDbEntity
8
SK2
62
256
6
ByLayer
370
18
48
1
60
0
100
AcDbMText
10
-112.736672
20
1.673189
30
0
210
0
220
0
230
1
1
\W0.7346;62.5
40
4.5
41
0
44
1.084337
50
90
71
7
72
5
7
iso_b_vert
0
MTEXT
5
353
100
AcDbEntity
8
2
62
256
6
ByLayer
370
18
48
1
60
0
100
AcDbMText
10
336.963328
20
-7.186314
30
0
210
0
220
0
230
1
1
%%c
40
4.5
41
0
44
1.084337
50
90
71
7
72
5
7
iso_b_vert
0
MTEXT
5
354
100
AcDbEntity
8
2
62
256
6
ByLayer
370
18
48
1
60
0
100
AcDbMText
10
336.963328
20
4.02853
30
0
210
0
220
0
230
1
1
\W0.7361;45
40
4.5
41
0
44
1.084337
50
90
71
7
72
5
7
iso_b_vert
0
MTEXT
5
35D
100
AcDbEntity
8
SK6
62
256
6
ByLayer
370
18
48
1
60
0
100
AcDbMText
10
9.308916
20
-94.592562
30
0
210
0
220
0
230
1
1
\W0.7723;DS20-D4500L50-06
40
3.5
41
0
44
1.084337
50
0
71
7
72
5
7
iso_b_vert
0
HATCH
5
344
100
AcDbEntity
8
SK2
62
256
6
ByLayer
370
13
48
1
60
0
100
AcDbHatch
10
0
20
0
30
0
210
0
220
0
230
1
2
ANSI31
70
0
71
0
91
1
92
5
93
3
72
1
10
-100.725
20
-24.9999999999999
11
-101.650575216528
21
-20.8250033998275
72
1
10
-101.650575216528
20
-20.8250033998275
11
-99.7994247834721
21
-20.8249966001723
72
1
10
-99.7994247834721
20
-20.8249966001723
11
-100.725
21
-24.9999999999999
97
0
75
0
76
1
52
0
41
0.0062
77
0
78
1
53
45
43
0
44
0
45
-0.0139193969876572
46
0.0139193969876572
79
0
47
0
98
1
10
0
20
0
0
HATCH
5
348
100
AcDbEntity
8
SK2
62
256
6
ByLayer
370
13
48
1
60
0
100
AcDbHatch
10
0
20
0
30
0
210
0
220
0
230
1
2
ANSI31
70
0
71
0
91
1
92
5
93
3
72
1
10
-100.725
20
25.0000000000001
11
-99.7994247834721
21
20.8250033998277
72
1
10
-99.7994247834721
20
20.8250033998277
11
-101.650575216528
21
20.8249966001725
72
1
10
-101.650575216528
20
20.8249966001725
11
-100.725
21
25.0000000000001
97
0
75
0
76
1
52
0
41
0.0062
77
0
78
1
53
45
43
0
44
0
45
-0.0139193969876572
46
0.0139193969876572
79
0
47
0
98
1
10
0
20
0
0
HATCH
5
34E
100
AcDbEntity
8
SK2
62
256
6
ByLayer
370
13
48
1
60
0
100
AcDbHatch
10
0
20
0
30
0
210
0
220
0
230
1
2
ANSI31
70
0
71
0
91
1
92
5
93
3
72
1
10
-110.725
20
31.25
11
-109.799424783472
21
27.0750033998276
72
1
10
-109.799424783472
20
27.0750033998276
11
-111.650575216528
21
27.0749966001724
72
1
10
-111.650575216528
20
27.0749966001724
11
-110.725
21
31.25
97
0
75
0
76
1
52
0
41
0.0062
77
0
78
1
53
45
43
0
44
0
45
-0.0139193969876572
46
0.0139193969876572
79
0
47
0
98
1
10
0
20
0
0
HATCH
5
352
100
AcDbEntity
8
SK2
62
256
6
ByLayer
370
13
48
1
60
0
100
AcDbHatch
10
0
20
0
30
0
210
0
220
0
230
1
2
ANSI31
70
0
71
0
91
1
92
5
93
3
72
1
10
-110.725
20
-31.25
11
-111.650575216528
21
-27.0750033998276
72
1
10
-111.650575216528
20
-27.0750033998276
11
-109.799424783472
21
-27.0749966001724
72
1
10
-109.799424783472
20
-27.0749966001724
11
-110.725
21
-31.25
97
0
75
0
76
1
52
0
41
0.0062
77
0
78
1
53
45
43
0
44
0
45
-0.0139193969876572
46
0.0139193969876572
79
0
47
0
98
1
10
0
20
0
0
HATCH
5
358
100
AcDbEntity
8
2
62
256
6
ByLayer
370
13
48
1
60
0
100
AcDbHatch
10
0
20
0
30
0
210
0
220
0
230
1
2
ANSI31
70
0
71
0
91
1
92
5
93
3
72
1
10
338.975
20
-22.5000000000004
11
338.049424783472
21
-18.325003399828
72
1
10
338.049424783472
20
-18.325003399828
11
339.900575216528
21
-18.3249966001727
72
1
10
339.900575216528
20
-18.3249966001727
11
338.975
21
-22.5000000000004
97
0
75
0
76
1
52
0
41
0.0062
77
0
78
1
53
45
43
0
44
0
45
-0.0139193969876572
46
0.0139193969876572
79
0
47
0
98
1
10
0
20
0
0
HATCH
5
35C
100
AcDbEntity
8
2
62
256
6
ByLayer
370
13
48
1
60
0
100
AcDbHatch
10
0
20
0
30
0
210
0
220
0
230
1
2
ANSI31
70
0
71
0
91
1
92
5
93
3
72
1
10
338.975
20
22.4999999999996
11
339.900575216528
21
18.3250033998272
72
1
10
339.900575216528
20
18.3250033998272
11
338.049424783472
21
18.324996600172
72
1
10
338.049424783472
20
18.324996600172
11
338.975
21
22.4999999999996
97
0
75
0
76
1
52
0
41
0.0062
77
0
78
1
53
45
43
0
44
0
45
-0.0139193969876572
46
0.0139193969876572
79
0
47
0
98
1
10
0
20
0
0
DIMENSION
5
360
100
AcDbEntity
8
2
62
256
6
ByLayer
370
18
48
1
60
0
100
AcDbDimension
2
_U0
10
312
20
-80.112261
30
0
11
156
21
-80.112261
31
0
70
32
71
1
72
1
41
1
210
0
220
0
230
1
3
Standard
100
AcDbAlignedDimension
13
0
23
-31.25
33
0
14
312
24
-22.5
34
0
50
0
100
AcDbRotatedDimension
1001
ACAD
1000
DSTYLE
1002
{
1070
   371
1070
    13
1070
   372
1070
    13
1070
   170
1070
     0
1070
   144
1040
1.0
1070
   277
1070
     2
1070
   284
1070
     8
1070
   278
1070
    46
1070
   146
1040
0.777778
1070
   345
1005
16
1070
   347
1005
16
1070
   346
1005
16
1070
   344
1005
0
1070
   343
1005
0
1070
   172
1070
     1
1070
    76
1070
     0
1070
    75
1070
     0
1070
   282
1070
     0
1070
   281
1070
     0
1070
    71
1070
     0
1070
    74
1070
     0
1070
   279
1070
     0
1070
   173
1070
     1
1070
   340
1005
33E
1070
   271
1070
     1
1070
   272
1070
     2
1070
    77
1070
     1
1070
    73
1070
     1
1070
   171
1070
     3
1070
   274
1070
     4
1070
   177
1070
   150
1070
   176
1070
     9
1070
   178
1070
    43
1070
    78
1070
     8
1070
    48
1040
-0.1
1070
    41
1040
4.175
1070
   147
1040
2.25
1070
    42
1040
1.5875
1070
    44
1040
3.175
1070
   140
1040
4.5
1002
}
1001
ACAD_DSTYLE_DIM_LINETYPE
1070
   380
1005
16
1001
ACAD_DSTYLE_DIM_EXT1_LINETYPE
1070
   381
1005
16
1001
ACAD_DSTYLE_DIM_EXT2_LINETYPE
1070
   382
1005
16
0
DIMENSION
5
379
100
AcDbEntity
8
SK2
62
256
6
ByLayer
370
18
48
1
60
0
100
AcDbDimension
2
_U1
10
0
20
-80.112261
30
0
11
-40
21
-80.112261
31
0
70
32
71
1
72
1
41
1
210
0
220
0
230
1
3
Standard
100
AcDbAlignedDimension
13
-80
23
-25
33
0
14
0
24
-31.25
34
0
50
0
100
AcDbRotatedDimension
1001
ACAD
1000
DSTYLE
1002
{
1070
   371
1070
    13
1070
   372
1070
    13
1070
   170
1070
     0
1070
   144
1040
1.0
1070
   277
1070
     2
1070
   284
1070
     8
1070
   278
1070
    46
1070
   146
1040
0.777778
1070
   345
1005
16
1070
   347
1005
16
1070
   346
1005
16
1070
   344
1005
0
1070
   343
1005
0
1070
   172
1070
     1
1070
    76
1070
     0
1070
    75
1070
     0
1070
   282
1070
     0
1070
   281
1070
     0
1070
    71
1070
     0
1070
    74
1070
     0
1070
   279
1070
     0
1070
   173
1070
     1
1070
   340
1005
33E
1070
   271
1070
     1
1070
   272
1070
     2
1070
    77
1070
     1
1070
    73
1070
     1
1070
   171
1070
     3
1070
   274
1070
     4
1070
   177
1070
   150
1070
   176
1070
     9
1070
   178
1070
    43
1070
    78
1070
     8
1070
    48
1040
-0.1
1070
    41
1040
4.175
1070
   147
1040
2.25
1070
    42
1040
1.5875
1070
    44
1040
3.175
1070
   140
1040
4.5
1002
}
1001
ACAD_DSTYLE_DIM_LINETYPE
1070
   380
1005
16
1001
ACAD_DSTYLE_DIM_EXT1_LINETYPE
1070
   381
1005
16
1001
ACAD_DSTYLE_DIM_EXT2_LINETYPE
1070
   382
1005
16
0
DIMENSION
5
391
100
AcDbEntity
8
SK2
62
256
6
ByLayer
370
18
48
1
60
0
100
AcDbDimension
2
_U2
10
6.4079
20
-70.112261
30
0
11
159.20395
21
-70.112261
31
0
70
32
71
1
72
1
41
1
210
0
220
0
230
1
3
Standard
100
AcDbAlignedDimension
13
312
23
-22.5
33
0
14
6.4079
24
-31.25
34
0
50
0
100
AcDbRotatedDimension
1001
ACAD
1000
DSTYLE
1002
{
1070
   371
1070
    13
1070
   372
1070
    13
1070
   170
1070
     0
1070
   144
1040
1.0
1070
   277
1070
     2
1070
   284
1070
     8
1070
   278
1070
    46
1070
   146
1040
0.777778
1070
   345
1005
16
1070
   347
1005
16
1070
   346
1005
16
1070
   344
1005
0
1070
   343
1005
0
1070
   172
1070
     1
1070
    76
1070
     0
1070
    75
1070
     0
1070
   282
1070
     0
1070
   281
1070
     0
1070
    71
1070
     0
1070
    74
1070
     0
1070
   279
1070
     0
1070
   173
1070
     1
1070
   340
1005
33E
1070
   271
1070
     1
1070
   272
1070
     2
1070
    77
1070
     1
1070
    73
1070
     1
1070
   171
1070
     3
1070
   274
1070
     4
1070
   177
1070
   150
1070
   176
1070
     9
1070
   178
1070
    43
1070
    78
1070
     8
1070
    48
1040
-0.1
1070
    41
1040
4.175
1070
   147
1040
2.25
1070
    42
1040
1.5875
1070
    44
1040
3.175
1070
   140
1040
4.5
1002
}
1001
ACAD_DSTYLE_DIM_LINETYPE
1070
   380
1005
16
1001
ACAD_DSTYLE_DIM_EXT1_LINETYPE
1070
   381
1005
16
1001
ACAD_DSTYLE_DIM_EXT2_LINETYPE
1070
   382
1005
16
0
DIMENSION
5
3A9
100
AcDbEntity
8
SK2
62
256
6
ByLayer
370
18
48
1
60
0
100
AcDbDimension
2
_U3
10
312
20
-60.112261
30
0
11
174.5
21
-60.112261
31
0
70
32
71
1
72
1
41
1
210
0
220
0
230
1
3
Standard
100
AcDbAlignedDimension
13
37
23
-22.5
33
0
14
312
24
-22.5
34
0
50
0
100
AcDbRotatedDimension
1001
ACAD
1000
DSTYLE
1002
{
1070
   371
1070
    13
1070
   372
1070
    13
1070
   170
1070
     0
1070
   144
1040
1.0
1070
   277
1070
     2
1070
   284
1070
     8
1070
   278
1070
    46
1070
   146
1040
0.777778
1070
   345
1005
16
1070
   347
1005
16
1070
   346
1005
16
1070
   344
1005
0
1070
   343
1005
0
1070
   172
1070
     1
1070
    76
1070
     0
1070
    75
1070
     0
1070
   282
1070
     0
1070
   281
1070
     0
1070
    71
1070
     0
1070
    74
1070
     0
1070
   279
1070
     0
1070
   173
1070
     1
1070
   340
1005
33E
1070
   271
1070
     1
1070
   272
1070
     2
1070
    77
1070
     1
1070
    73
1070
     1
1070
   171
1070
     3
1070
   274
1070
     4
1070
   177
1070
   150
1070
   176
1070
     9
1070
   178
1070
    43
1070
    78
1070
     8
1070
    48
1040
-0.1
1070
    41
1040
4.175
1070
   147
1040
2.25
1070
    42
1040
1.5875
1070
    44
1040
3.175
1070
   140
1040
4.5
1002
}
1001
ACAD_DSTYLE_DIM_LINETYPE
1070
   380
1005
16
1001
ACAD_DSTYLE_DIM_EXT1_LINETYPE
1070
   381
1005
16
1001
ACAD_DSTYLE_DIM_EXT2_LINETYPE
1070
   382
1005
16
0
DIMENSION
5
3C1
100
AcDbEntity
8
2
62
256
6
ByLayer
370
18
48
1
60
0
100
AcDbDimension
2
_U4
10
312
20
-50.112261
30
0
11
334.029464
21
-50.112261
31
0
70
32
71
1
72
1
41
1
210
0
220
0
230
1
3
Standard
100
AcDbAlignedDimension
13
310.7234
23
-11.25
33
0
14
312
24
0
34
0
50
0
100
AcDbRotatedDimension
1001
ACAD
1000
DSTYLE
1002
{
1070
   371
1070
    13
1070
   372
1070
    13
1070
   170
1070
     0
1070
   144
1040
1.0
1070
   277
1070
     2
1070
   284
1070
     8
1070
   278
1070
    46
1070
   146
1040
0.777778
1070
   345
1005
16
1070
   347
1005
16
1070
   346
1005
16
1070
   344
1005
0
1070
   343
1005
0
1070
   172
1070
     1
1070
    76
1070
     0
1070
    75
1070
     0
1070
   282
1070
     0
1070
   281
1070
     0
1070
    71
1070
     0
1070
    74
1070
     0
1070
   279
1070
     0
1070
   173
1070
     1
1070
   340
1005
33E
1070
   271
1070
     2
1070
   272
1070
     2
1070
    77
1070
     1
1070
    73
1070
     1
1070
   171
1070
     3
1070
   274
1070
     4
1070
   177
1070
   150
1070
   176
1070
     9
1070
   178
1070
    43
1070
    78
1070
     8
1070
    48
1040
-0.1
1070
    41
1040
4.175
1070
   147
1040
2.25
1070
    42
1040
1.5875
1070
    44
1040
3.175
1070
   140
1040
4.5
1002
}
1001
ACAD_DSTYLE_DIM_LINETYPE
1070
   380
1005
16
1001
ACAD_DSTYLE_DIM_EXT1_LINETYPE
1070
   381
1005
16
1001
ACAD_DSTYLE_DIM_EXT2_LINETYPE
1070
   382
1005
16
0
ENDSEC
0
SECTION
2
OBJECTS
0
DICTIONARY
5
44b
330
0
100
AcDbDictionary
280
0
281
1
3
ACAD_GROUP
350
44c
3
ACAD_MLINESTYLE
350
44d
0
DICTIONARY
5
44c
330
0
100
AcDbDictionary
280
0
281
1
0
DICTIONARY
5
44d
330
0
100
AcDbDictionary
280
0
281
1
3
Standard
350
18
0
MLINESTYLE
5
18
330
44d
100
AcDbMlineStyle
2
Standard
70
0
3

62
256
51
90
52
90
71
2
49
-0.5
62
256
6
ByLayer
49
0.5
62
256
6
ByLayer
0
RASTERVARIABLES
5
439
330

100
AcDbRasterVariables
90
0
70
1
71
1
72
1
0
ENDSEC
0
EOF
