0
SECTION
2
HEADER
9
$ACADVER
1
AC1015
9
$DWGCODEPAGE
3
ANSI_1252
9
$HANDSEED
5
46c
9
$ANGBASE
50
0
9
$ANGDIR
70
0
9
$ATTMODE
70
1
9
$AUNITS
70
0
9
$AUPREC
70
0
9
$CECOLOR
62
256
9
$CELTSCALE
40
1
9
$CELTYPE
6
ByLayer
9
$CELWEIGHT
370
18
9
$CLAYER
8
0
9
$CMLJUST
70
0
9
$CMLSCALE
40
1
9
$CMLSTYLE
2
Standard
9
$DIMSTYLE
2
Standard
9
$TEXTSIZE
40
0.2
9
$TEXTSTYLE
7
Standard
9
$LUNITS
70
2
9
$LUPREC
70
4
9
$EXTNAMES
290
1
9
$INSUNITS
70
4
9
$LTSCALE
40
1
9
$LWDISPLAY
290
1
9
$PDMODE
70
0
9
$PDSIZE
40
0
9
$PLINEGEN
70
0
0
ENDSEC
0
SECTION
2
CLASSES
0
CLASS
1
RASTERVARIABLES
2
AcDbRasterVariables
3
ISM
90
0
280
0
281
0
0
ENDSEC
0
SECTION
2
TABLES
0
TABLE
2
VPORT
5
462
100
AcDbSymbolTable
0
VPORT
5
1
100
AcDbSymbolTableRecord
100
AcDbViewportTableRecord
2
*Active
70
0
10
0
20
0
11
1
21
1
12
-1
22
1
13
0
23
0
14
0.5
24
0.5
15
10
25
10
16
0
26
0
36
1
17
0
27
0
37
0
0
ENDTAB
0
TABLE
2
LTYPE
5
463
100
AcDbSymbolTable
0
LTYPE
5
14
100
AcDbSymbolTableRecord
100
AcDbLinetypeTableRecord
70
0
2
ByBlock
3

72
65
73
0
40
0
0
LTYPE
5
15
100
AcDbSymbolTableRecord
100
AcDbLinetypeTableRecord
70
0
2
ByLayer
3

72
65
73
0
40
0
0
LTYPE
5
16
100
AcDbSymbolTableRecord
100
AcDbLinetypeTableRecord
70
0
2
Continuous
3
Solid line
72
65
73
0
40
0
0
LTYPE
5
6E
100
AcDbSymbolTableRecord
100
AcDbLinetypeTableRecord
70
0
2
CENTER
3
____ _ ____ _ ____ _ ____
72
65
73
4
40
47.5
49
22
74
0
49
-8.5
74
0
49
8.5
74
0
49
-8.5
74
0
0
LTYPE
5
6F
100
AcDbSymbolTableRecord
100
AcDbLinetypeTableRecord
70
0
2
DASHED
3
__ __ __ __ __ __ __ __ __
72
65
73
2
40
25.72
49
12.86
74
0
49
-12.86
74
0
0
ENDTAB
0
TABLE
2
LAYER
5
464
100
AcDbSymbolTable
0
LAYER
5
10
100
AcDbSymbolTableRecord
100
AcDbLayerTableRecord
2
0
70
0
62
7
6
Continuous
290
1
370
-3
390
0
0
LAYER
5
71
100
AcDbSymbolTableRecord
100
AcDbLayerTableRecord
2
1
70
0
62
4
6
Continuous
290
1
370
-3
390
0
0
LAYER
5
73
100
AcDbSymbolTableRecord
100
AcDbLayerTableRecord
2
80
70
0
62
-6
6
Continuous
290
1
370
-3
390
0
0
LAYER
5
75
100
AcDbSymbolTableRecord
100
AcDbLayerTableRecord
2
81
70
0
62
-3
6
Continuous
290
1
370
-3
390
0
0
LAYER
5
15E
100
AcDbSymbolTableRecord
100
AcDbLayerTableRecord
2
4
70
0
62
-2
6
CENTER
290
1
370
-3
390
0
0
LAYER
5
19E
100
AcDbSymbolTableRecord
100
AcDbLayerTableRecord
2
2
70
0
62
7
6
Continuous
290
1
370
-3
390
0
0
LAYER
5
376
100
AcDbSymbolTableRecord
100
AcDbLayerTableRecord
2
Defpoints
70
0
62
7
6
Continuous
290
0
370
-3
390
0
0
LAYER
5
44e
100
AcDbSymbolTableRecord
100
AcDbLayerTableRecord
2
SK1
70
0
62
4
6
Continuous
290
1
370
-3
390
0
0
LAYER
5
44f
100
AcDbSymbolTableRecord
100
AcDbLayerTableRecord
2
SK4
70
0
62
2
6
CENTER
290
1
370
-3
390
0
0
LAYER
5
450
100
AcDbSymbolTableRecord
100
AcDbLayerTableRecord
2
SK2
70
0
62
7
6
Continuous
290
1
370
-3
390
0
0
LAYER
5
451
100
AcDbSymbolTableRecord
100
AcDbLayerTableRecord
2
SK6
70
0
62
5
6
Continuous
290
1
370
-3
390
0
0
ENDTAB
0
TABLE
2
STYLE
5
465
100
AcDbSymbolTable
0
STYLE
5
11
100
AcDbSymbolTableRecord
100
AcDbTextStyleTableRecord
2
Standard
3
txt
70
0
71
0
40
0
41
1
42
0
50
0
0
STYLE
5
351
100
AcDbSymbolTableRecord
100
AcDbTextStyleTableRecord
2
iso_b_vert
3
simplex.shx
70
0
71
0
40
0
41
1
42
0
50
0
0
STYLE
5
352
100
AcDbSymbolTableRecord
100
AcDbTextStyleTableRecord
2
DWGDirectTextStyle
3
simplex
70
0
71
0
40
0
41
1
42
0
50
0
0
ENDTAB
0
TABLE
2
DIMSTYLE
5
466
100
AcDbSymbolTable
100
AcDbDimStyleTable
0
DIMSTYLE
105
27
100
AcDbSymbolTableRecord
100
AcDbDimStyleTableRecord
2
Standard
70
0
3
<>
41
0.18
42
0.0625
44
0.18
140
0.18
147
0.09
73
0
74
0
77
1
271
2
275
0
278
52
280
0
340
11
0
ENDTAB
0
TABLE
2
VIEW
5
467
100
AcDbSymbolTable
0
ENDTAB
0
TABLE
2
UCS
5
468
100
AcDbSymbolTable
0
ENDTAB
0
TABLE
2
APPID
5
469
100
AcDbSymbolTable
0
APPID
5
12
100
AcDbSymbolTableRecord
100
AcDbRegAppTableRecord
2
ACAD
70
0
0
APPID
5
372
100
AcDbSymbolTableRecord
100
AcDbRegAppTableRecord
2
ACAD_DSTYLE_DIMBREAK
70
0
0
APPID
5
40D
100
AcDbSymbolTableRecord
100
AcDbRegAppTableRecord
2
ACAD_DSTYLE_DIM_LINETYPE
70
0
0
APPID
5
40E
100
AcDbSymbolTableRecord
100
AcDbRegAppTableRecord
2
ACAD_DSTYLE_DIM_EXT1_LINETYPE
70
0
0
APPID
5
40F
100
AcDbSymbolTableRecord
100
AcDbRegAppTableRecord
2
ACAD_DSTYLE_DIM_EXT2_LINETYPE
70
0
0
APPID
5
44A
100
AcDbSymbolTableRecord
100
AcDbRegAppTableRecord
2
ACAD_MLEADERVER
70
0
0
ENDTAB
0
TABLE
2
BLOCK_RECORD
5
46a
100
AcDbSymbolTable
0
BLOCK_RECORD
5
1F
100
AcDbSymbolTableRecord
100
AcDbBlockTableRecord
2
*Model_Space
340
0
70
0
0
BLOCK_RECORD
5
1B
100
AcDbSymbolTableRecord
100
AcDbBlockTableRecord
2
*Paper_Space
340
0
70
0
0
BLOCK_RECORD
5
23
100
AcDbSymbolTableRecord
100
AcDbBlockTableRecord
2
*Paper_Space0
340
0
70
0
0
BLOCK_RECORD
5
377
100
AcDbSymbolTableRecord
100
AcDbBlockTableRecord
2
*D1
340
0
70
0
0
BLOCK_RECORD
5
383
100
AcDbSymbolTableRecord
100
AcDbBlockTableRecord
2
_U0
340
0
70
0
0
BLOCK_RECORD
5
38F
100
AcDbSymbolTableRecord
100
AcDbBlockTableRecord
2
*D3
340
0
70
0
0
BLOCK_RECORD
5
39C
100
AcDbSymbolTableRecord
100
AcDbBlockTableRecord
2
_U1
340
0
70
0
0
BLOCK_RECORD
5
3A8
100
AcDbSymbolTableRecord
100
AcDbBlockTableRecord
2
*D5
340
0
70
0
0
BLOCK_RECORD
5
3B4
100
AcDbSymbolTableRecord
100
AcDbBlockTableRecord
2
_U2
340
0
70
0
0
BLOCK_RECORD
5
3C0
100
AcDbSymbolTableRecord
100
AcDbBlockTableRecord
2
*D7
340
0
70
0
0
BLOCK_RECORD
5
3CC
100
AcDbSymbolTableRecord
100
AcDbBlockTableRecord
2
_U3
340
0
70
0
0
BLOCK_RECORD
5
3D8
100
AcDbSymbolTableRecord
100
AcDbBlockTableRecord
2
*D9
340
0
70
0
0
BLOCK_RECORD
5
3E6
100
AcDbSymbolTableRecord
100
AcDbBlockTableRecord
2
_U4
340
0
70
0
0
ENDTAB
0
ENDSEC
0
SECTION
2
BLOCKS
0
BLOCK
5
20
100
AcDbEntity
8
0
100
AcDbBlockBegin
2
*Model_Space
70
0
10
0
20
0
30
0
3
*Model_Space
0
ENDBLK
5
21
100
AcDbEntity
8
0
100
AcDbBlockEnd
0
BLOCK
5
1C
100
AcDbEntity
8
0
100
AcDbBlockBegin
2
*Paper_Space
70
0
10
0
20
0
30
0
3
*Paper_Space
0
ENDBLK
5
1D
100
AcDbEntity
8
0
100
AcDbBlockEnd
0
BLOCK
5
24
100
AcDbEntity
8
0
100
AcDbBlockBegin
2
*Paper_Space0
70
0
10
0
20
0
30
0
3
*Paper_Space0
0
ENDBLK
5
25
100
AcDbEntity
8
0
100
AcDbBlockEnd
0
BLOCK
5
378
100
AcDbEntity
8
0
100
AcDbBlockBegin
2
*D1
70
1
10
0
20
0
30
0
3
*D1
0
LINE
5
37A
100
AcDbEntity
8
0
62
256
6
ByLayer
370
-2
48
1
60
0
100
AcDbLine
10
0
20
-32.8375
30
0
11
0
21
-83.275
31
0
39
0
210
0
220
0
230
1
0
LINE
5
37B
100
AcDbEntity
8
0
62
256
6
ByLayer
370
-2
48
1
60
0
100
AcDbLine
10
176
20
-17.5875
30
0
11
176
21
-83.275
31
0
39
0
210
0
220
0
230
1
0
LINE
5
37C
100
AcDbEntity
8
0
62
256
6
ByLayer
370
-2
48
1
60
0
100
AcDbLine
10
4.175
20
-80.1
30
0
11
171.825
21
-80.1
31
0
39
0
210
0
220
0
230
1
0
SOLID
5
37D
100
AcDbEntity
8
0
62
256
6
ByLayer
370
-1
48
1
60
0
100
AcDbTrace
10
4.175
20
-79.404167
30
0
11
4.175
21
-80.795833
31
0
12
0
22
-80.1
32
0
13
0
23
-80.1
33
0
39
0
210
0
220
0
230
1
0
SOLID
5
37E
100
AcDbEntity
8
0
62
256
6
ByLayer
370
-1
48
1
60
0
100
AcDbTrace
10
171.825
20
-80.795833
30
0
11
171.825
21
-79.404167
31
0
12
176
22
-80.1
32
0
13
176
23
-80.1
33
0
39
0
210
0
220
0
230
1
0
MTEXT
5
37F
100
AcDbEntity
8
0
62
256
6
ByLayer
370
18
48
1
60
0
100
AcDbMText
10
88
20
-70.70625
30
0
210
0
220
0
230
1
1
\A1;176
40
4.5
41
0
44
1
50
0
71
5
72
5
7
iso_b_vert
0
POINT
5
380
100
AcDbEntity
8
Defpoints
62
0
6
ByLayer
370
-1
48
1
60
0
100
AcDbPoint
10
0
20
-31.25
30
0
39
0
210
0
220
0
230
1
50
360
0
POINT
5
381
100
AcDbEntity
8
Defpoints
62
0
6
ByLayer
370
-1
48
1
60
0
100
AcDbPoint
10
176
20
-16
30
0
39
0
210
0
220
0
230
1
50
360
0
POINT
5
382
100
AcDbEntity
8
Defpoints
62
0
6
ByLayer
370
-1
48
1
60
0
100
AcDbPoint
10
176
20
-80.1
30
0
39
0
210
0
220
0
230
1
50
360
0
ENDBLK
5
379
100
AcDbEntity
8
0
100
AcDbBlockEnd
0
BLOCK
5
38A
100
AcDbEntity
8
0
100
AcDbBlockBegin
2
_U0
70
0
10
0
20
0
30
0
3
_U0
0
MTEXT
5
384
100
AcDbEntity
8
2
62
256
6
ByLayer
370
18
48
1
60
0
100
AcDbMText
10
84.431801
20
-78.772328
30
0
210
0
220
0
230
1
1
\W0.6217;176
40
4.5
41
0
44
1.084337
50
0
71
7
72
5
7
iso_b_vert
0
LINE
5
385
100
AcDbEntity
8
2
62
256
6
ByLayer
370
13
48
1
60
0
100
AcDbLine
10
0
20
-32.8375
30
0
11
0
21
-83.275
31
0
39
0
210
0
220
0
230
1
0
LINE
5
386
100
AcDbEntity
8
2
62
256
6
ByLayer
370
13
48
1
60
0
100
AcDbLine
10
176
20
-17.5875
30
0
11
176
21
-83.275
31
0
39
0
210
0
220
0
230
1
0
LINE
5
387
100
AcDbEntity
8
2
62
256
6
ByLayer
370
13
48
1
60
0
100
AcDbLine
10
0
20
-80.1
30
0
11
176
21
-80.1
31
0
39
0
210
0
220
0
230
1
0
SOLID
5
388
100
AcDbEntity
8
2
62
256
6
ByLayer
370
18
48
1
60
0
100
AcDbTrace
10
0
20
-80.1
30
0
11
4.174997
21
-79.174425
31
0
12
4.175003
22
-81.025575
32
0
13
4.175003
23
-81.025575
33
0
39
0
210
0
220
0
230
1
0
SOLID
5
389
100
AcDbEntity
8
2
62
256
6
ByLayer
370
18
48
1
60
0
100
AcDbTrace
10
176
20
-80.1
30
0
11
171.825003
21
-81.025575
31
0
12
171.824997
22
-79.174425
32
0
13
171.824997
23
-79.174425
33
0
39
0
210
0
220
0
230
1
0
ENDBLK
5
38B
100
AcDbEntity
8
0
100
AcDbBlockEnd
0
BLOCK
5
390
100
AcDbEntity
8
0
100
AcDbBlockBegin
2
*D3
70
1
10
0
20
0
30
0
3
*D3
0
LINE
5
392
100
AcDbEntity
8
0
62
256
6
ByLayer
370
-2
48
1
60
0
100
AcDbLine
10
-15
20
-21.5875
30
0
11
-15
21
-83.275
31
0
39
0
210
0
220
0
230
1
0
LINE
5
393
100
AcDbEntity
8
0
62
256
6
ByLayer
370
-2
48
1
60
0
100
AcDbLine
10
0
20
-32.8375
30
0
11
0
21
-83.275
31
0
39
0
210
0
220
0
230
1
0
LINE
5
394
100
AcDbEntity
8
0
62
256
6
ByLayer
370
-2
48
1
60
0
100
AcDbLine
10
-19.175
20
-80.1
30
0
11
-23.35
21
-80.1
31
0
39
0
210
0
220
0
230
1
0
LINE
5
395
100
AcDbEntity
8
0
62
256
6
ByLayer
370
-2
48
1
60
0
100
AcDbLine
10
4.175
20
-80.1
30
0
11
8.35
21
-80.1
31
0
39
0
210
0
220
0
230
1
0
SOLID
5
396
100
AcDbEntity
8
0
62
256
6
ByLayer
370
-1
48
1
60
0
100
AcDbTrace
10
-19.175
20
-80.795833
30
0
11
-19.175
21
-79.404167
31
0
12
-15
22
-80.1
32
0
13
-15
23
-80.1
33
0
39
0
210
0
220
0
230
1
0
SOLID
5
397
100
AcDbEntity
8
0
62
256
6
ByLayer
370
-1
48
1
60
0
100
AcDbTrace
10
4.175
20
-79.404167
30
0
11
4.175
21
-80.795833
31
0
12
0
22
-80.1
32
0
13
0
23
-80.1
33
0
39
0
210
0
220
0
230
1
0
MTEXT
5
398
100
AcDbEntity
8
0
62
256
6
ByLayer
370
18
48
1
60
0
100
AcDbMText
10
-7.5
20
-70.70625
30
0
210
0
220
0
230
1
1
\A1;15
40
4.5
41
0
44
1
50
0
71
5
72
5
7
iso_b_vert
0
POINT
5
399
100
AcDbEntity
8
Defpoints
62
0
6
ByLayer
370
-1
48
1
60
0
100
AcDbPoint
10
-15
20
-20
30
0
39
0
210
0
220
0
230
1
50
360
0
POINT
5
39A
100
AcDbEntity
8
Defpoints
62
0
6
ByLayer
370
-1
48
1
60
0
100
AcDbPoint
10
0
20
-31.25
30
0
39
0
210
0
220
0
230
1
50
360
0
POINT
5
39B
100
AcDbEntity
8
Defpoints
62
0
6
ByLayer
370
-1
48
1
60
0
100
AcDbPoint
10
0
20
-80.1
30
0
39
0
210
0
220
0
230
1
50
360
0
ENDBLK
5
391
100
AcDbEntity
8
0
100
AcDbBlockEnd
0
BLOCK
5
3A3
100
AcDbEntity
8
0
100
AcDbBlockBegin
2
_U1
70
0
10
0
20
0
30
0
3
_U1
0
MTEXT
5
39D
100
AcDbEntity
8
SK2
62
256
6
ByLayer
370
18
48
1
60
0
100
AcDbMText
10
-9.386828
20
-78.772328
30
0
210
0
220
0
230
1
1
\W0.5321;15
40
4.5
41
0
44
1.084337
50
0
71
7
72
5
7
iso_b_vert
0
LINE
5
39E
100
AcDbEntity
8
SK2
62
256
6
ByLayer
370
13
48
1
60
0
100
AcDbLine
10
-15
20
-21.5875
30
0
11
-15
21
-83.275
31
0
39
0
210
0
220
0
230
1
0
LINE
5
39F
100
AcDbEntity
8
SK2
62
256
6
ByLayer
370
13
48
1
60
0
100
AcDbLine
10
0
20
-32.8375
30
0
11
0
21
-83.275
31
0
39
0
210
0
220
0
230
1
0
LINE
5
3A0
100
AcDbEntity
8
SK2
62
256
6
ByLayer
370
13
48
1
60
0
100
AcDbLine
10
-26.25
20
-80.1
30
0
11
11.25
21
-80.1
31
0
39
0
210
0
220
0
230
1
0
SOLID
5
3A1
100
AcDbEntity
8
SK2
62
256
6
ByLayer
370
18
48
1
60
0
100
AcDbTrace
10
-15
20
-80.1
30
0
11
-19.174997
21
-81.025575
31
0
12
-19.175003
22
-79.174425
32
0
13
-19.175003
23
-79.174425
33
0
39
0
210
0
220
0
230
1
0
SOLID
5
3A2
100
AcDbEntity
8
SK2
62
256
6
ByLayer
370
18
48
1
60
0
100
AcDbTrace
10
0
20
-80.1
30
0
11
4.174997
21
-79.174425
31
0
12
4.175003
22
-81.025575
32
0
13
4.175003
23
-81.025575
33
0
39
0
210
0
220
0
230
1
0
ENDBLK
5
3A4
100
AcDbEntity
8
0
100
AcDbBlockEnd
0
BLOCK
5
3A9
100
AcDbEntity
8
0
100
AcDbBlockBegin
2
*D5
70
1
10
0
20
0
30
0
3
*D5
0
LINE
5
3AB
100
AcDbEntity
8
0
62
256
6
ByLayer
370
-2
48
1
60
0
100
AcDbLine
10
176
20
-17.5875
30
0
11
176
21
-73.275
31
0
39
0
210
0
220
0
230
1
0
LINE
5
3AC
100
AcDbEntity
8
0
62
256
6
ByLayer
370
-2
48
1
60
0
100
AcDbLine
10
15.9403
20
-32.8375
30
0
11
15.9403
21
-73.275
31
0
39
0
210
0
220
0
230
1
0
LINE
5
3AD
100
AcDbEntity
8
0
62
256
6
ByLayer
370
-2
48
1
60
0
100
AcDbLine
10
171.825
20
-70.1
30
0
11
20.1153
21
-70.1
31
0
39
0
210
0
220
0
230
1
0
SOLID
5
3AE
100
AcDbEntity
8
0
62
256
6
ByLayer
370
-1
48
1
60
0
100
AcDbTrace
10
171.825
20
-70.795833
30
0
11
171.825
21
-69.404167
31
0
12
176
22
-70.1
32
0
13
176
23
-70.1
33
0
39
0
210
0
220
0
230
1
0
SOLID
5
3AF
100
AcDbEntity
8
0
62
256
6
ByLayer
370
-1
48
1
60
0
100
AcDbTrace
10
20.1153
20
-69.404167
30
0
11
20.1153
21
-70.795833
31
0
12
15.9403
22
-70.1
32
0
13
15.9403
23
-70.1
33
0
39
0
210
0
220
0
230
1
0
MTEXT
5
3B0
100
AcDbEntity
8
0
62
256
6
ByLayer
370
18
48
1
60
0
100
AcDbMText
10
95.97015
20
-60.70625
30
0
210
0
220
0
230
1
1
\A1;160.1
40
4.5
41
0
44
1
50
0
71
5
72
5
7
iso_b_vert
0
POINT
5
3B1
100
AcDbEntity
8
Defpoints
62
0
6
ByLayer
370
-1
48
1
60
0
100
AcDbPoint
10
176
20
-16
30
0
39
0
210
0
220
0
230
1
50
360
0
POINT
5
3B2
100
AcDbEntity
8
Defpoints
62
0
6
ByLayer
370
-1
48
1
60
0
100
AcDbPoint
10
15.9403
20
-31.25
30
0
39
0
210
0
220
0
230
1
50
360
0
POINT
5
3B3
100
AcDbEntity
8
Defpoints
62
0
6
ByLayer
370
-1
48
1
60
0
100
AcDbPoint
10
15.9403
20
-70.1
30
0
39
0
210
0
220
0
230
1
50
360
0
ENDBLK
5
3AA
100
AcDbEntity
8
0
100
AcDbBlockEnd
0
BLOCK
5
3BB
100
AcDbEntity
8
0
100
AcDbBlockBegin
2
_U2
70
0
10
0
20
0
30
0
3
_U2
0
MTEXT
5
3B5
100
AcDbEntity
8
SK2
62
256
6
ByLayer
370
18
48
1
60
0
100
AcDbMText
10
90.371423
20
-68.772328
30
0
210
0
220
0
230
1
1
\W0.6725;160.1
40
4.5
41
0
44
1.084337
50
0
71
7
72
5
7
iso_b_vert
0
LINE
5
3B6
100
AcDbEntity
8
SK2
62
256
6
ByLayer
370
13
48
1
60
0
100
AcDbLine
10
176
20
-17.5875
30
0
11
176
21
-73.275
31
0
39
0
210
0
220
0
230
1
0
LINE
5
3B7
100
AcDbEntity
8
SK2
62
256
6
ByLayer
370
13
48
1
60
0
100
AcDbLine
10
15.9403
20
-32.8375
30
0
11
15.9403
21
-73.275
31
0
39
0
210
0
220
0
230
1
0
LINE
5
3B8
100
AcDbEntity
8
SK2
62
256
6
ByLayer
370
13
48
1
60
0
100
AcDbLine
10
176
20
-70.1
30
0
11
15.9403
21
-70.1
31
0
39
0
210
0
220
0
230
1
0
SOLID
5
3B9
100
AcDbEntity
8
SK2
62
256
6
ByLayer
370
18
48
1
60
0
100
AcDbTrace
10
176
20
-70.1
30
0
11
171.825003
21
-71.025575
31
0
12
171.824997
22
-69.174425
32
0
13
171.824997
23
-69.174425
33
0
39
0
210
0
220
0
230
1
0
SOLID
5
3BA
100
AcDbEntity
8
SK2
62
256
6
ByLayer
370
18
48
1
60
0
100
AcDbTrace
10
15.9403
20
-70.1
30
0
11
20.115297
21
-69.174425
31
0
12
20.115303
22
-71.025575
32
0
13
20.115303
23
-71.025575
33
0
39
0
210
0
220
0
230
1
0
ENDBLK
5
3BC
100
AcDbEntity
8
0
100
AcDbBlockEnd
0
BLOCK
5
3C1
100
AcDbEntity
8
0
100
AcDbBlockBegin
2
*D7
70
1
10
0
20
0
30
0
3
*D7
0
LINE
5
3C3
100
AcDbEntity
8
0
62
256
6
ByLayer
370
-2
48
1
60
0
100
AcDbLine
10
44
20
-17.5875
30
0
11
44
21
-63.275
31
0
39
0
210
0
220
0
230
1
0
LINE
5
3C4
100
AcDbEntity
8
0
62
256
6
ByLayer
370
-2
48
1
60
0
100
AcDbLine
10
176
20
-17.5875
30
0
11
176
21
-63.275
31
0
39
0
210
0
220
0
230
1
0
LINE
5
3C5
100
AcDbEntity
8
0
62
256
6
ByLayer
370
-2
48
1
60
0
100
AcDbLine
10
48.175
20
-60.1
30
0
11
171.825
21
-60.1
31
0
39
0
210
0
220
0
230
1
0
SOLID
5
3C6
100
AcDbEntity
8
0
62
256
6
ByLayer
370
-1
48
1
60
0
100
AcDbTrace
10
48.175
20
-59.404167
30
0
11
48.175
21
-60.795833
31
0
12
44
22
-60.1
32
0
13
44
23
-60.1
33
0
39
0
210
0
220
0
230
1
0
SOLID
5
3C7
100
AcDbEntity
8
0
62
256
6
ByLayer
370
-1
48
1
60
0
100
AcDbTrace
10
171.825
20
-60.795833
30
0
11
171.825
21
-59.404167
31
0
12
176
22
-60.1
32
0
13
176
23
-60.1
33
0
39
0
210
0
220
0
230
1
0
MTEXT
5
3C8
100
AcDbEntity
8
0
62
256
6
ByLayer
370
18
48
1
60
0
100
AcDbMText
10
110
20
-50.70625
30
0
210
0
220
0
230
1
1
\A1;132
40
4.5
41
0
44
1
50
0
71
5
72
5
7
iso_b_vert
0
POINT
5
3C9
100
AcDbEntity
8
Defpoints
62
0
6
ByLayer
370
-1
48
1
60
0
100
AcDbPoint
10
44
20
-16
30
0
39
0
210
0
220
0
230
1
50
360
0
POINT
5
3CA
100
AcDbEntity
8
Defpoints
62
0
6
ByLayer
370
-1
48
1
60
0
100
AcDbPoint
10
176
20
-16
30
0
39
0
210
0
220
0
230
1
50
360
0
POINT
5
3CB
100
AcDbEntity
8
Defpoints
62
0
6
ByLayer
370
-1
48
1
60
0
100
AcDbPoint
10
176
20
-60.1
30
0
39
0
210
0
220
0
230
1
50
360
0
ENDBLK
5
3C2
100
AcDbEntity
8
0
100
AcDbBlockEnd
0
BLOCK
5
3D3
100
AcDbEntity
8
0
100
AcDbBlockBegin
2
_U3
70
0
10
0
20
0
30
0
3
_U3
0
MTEXT
5
3CD
100
AcDbEntity
8
SK2
62
256
6
ByLayer
370
18
48
1
60
0
100
AcDbMText
10
106.431801
20
-58.772328
30
0
210
0
220
0
230
1
1
\W0.6217;132
40
4.5
41
0
44
1.084337
50
0
71
7
72
5
7
iso_b_vert
0
LINE
5
3CE
100
AcDbEntity
8
SK2
62
256
6
ByLayer
370
13
48
1
60
0
100
AcDbLine
10
44
20
-17.5875
30
0
11
44
21
-63.275
31
0
39
0
210
0
220
0
230
1
0
LINE
5
3CF
100
AcDbEntity
8
SK2
62
256
6
ByLayer
370
13
48
1
60
0
100
AcDbLine
10
176
20
-17.5875
30
0
11
176
21
-63.275
31
0
39
0
210
0
220
0
230
1
0
LINE
5
3D0
100
AcDbEntity
8
SK2
62
256
6
ByLayer
370
13
48
1
60
0
100
AcDbLine
10
44
20
-60.1
30
0
11
176
21
-60.1
31
0
39
0
210
0
220
0
230
1
0
SOLID
5
3D1
100
AcDbEntity
8
SK2
62
256
6
ByLayer
370
18
48
1
60
0
100
AcDbTrace
10
44
20
-60.1
30
0
11
48.174997
21
-59.174425
31
0
12
48.175003
22
-61.025575
32
0
13
48.175003
23
-61.025575
33
0
39
0
210
0
220
0
230
1
0
SOLID
5
3D2
100
AcDbEntity
8
SK2
62
256
6
ByLayer
370
18
48
1
60
0
100
AcDbTrace
10
176
20
-60.1
30
0
11
171.825003
21
-61.025575
31
0
12
171.824997
22
-59.174425
32
0
13
171.824997
23
-59.174425
33
0
39
0
210
0
220
0
230
1
0
ENDBLK
5
3D4
100
AcDbEntity
8
0
100
AcDbBlockEnd
0
BLOCK
5
3D9
100
AcDbEntity
8
0
100
AcDbBlockBegin
2
*D9
70
1
10
0
20
0
30
0
3
*D9
0
LINE
5
3DB
100
AcDbEntity
8
0
62
256
6
ByLayer
370
-2
48
1
60
0
100
AcDbLine
10
175.1684
20
-9.5875
30
0
11
175.1684
21
-53.275
31
0
39
0
210
0
220
0
230
1
0
LINE
5
3DC
100
AcDbEntity
8
0
62
256
6
ByLayer
370
-2
48
1
60
0
100
AcDbLine
10
176
20
-1.5875
30
0
11
176
21
-53.275
31
0
39
0
210
0
220
0
230
1
0
LINE
5
3DD
100
AcDbEntity
8
0
62
256
6
ByLayer
370
-2
48
1
60
0
100
AcDbLine
10
176
20
-50.1
30
0
11
212.351786
21
-50.1
31
0
39
0
210
0
220
0
230
1
0
LINE
5
3DE
100
AcDbEntity
8
0
62
256
6
ByLayer
370
-2
48
1
60
0
100
AcDbLine
10
170.9934
20
-50.1
30
0
11
166.8184
21
-50.1
31
0
39
0
210
0
220
0
230
1
0
LINE
5
3DF
100
AcDbEntity
8
0
62
256
6
ByLayer
370
-2
48
1
60
0
100
AcDbLine
10
180.175
20
-50.1
30
0
11
184.35
21
-50.1
31
0
39
0
210
0
220
0
230
1
0
SOLID
5
3E0
100
AcDbEntity
8
0
62
256
6
ByLayer
370
-1
48
1
60
0
100
AcDbTrace
10
170.9934
20
-50.795833
30
0
11
170.9934
21
-49.404167
31
0
12
175.1684
22
-50.1
32
0
13
175.1684
23
-50.1
33
0
39
0
210
0
220
0
230
1
0
SOLID
5
3E1
100
AcDbEntity
8
0
62
256
6
ByLayer
370
-1
48
1
60
0
100
AcDbTrace
10
180.175
20
-49.404167
30
0
11
180.175
21
-50.795833
31
0
12
176
22
-50.1
32
0
13
176
23
-50.1
33
0
39
0
210
0
220
0
230
1
0
MTEXT
5
3E2
100
AcDbEntity
8
0
62
256
6
ByLayer
370
18
48
1
60
0
100
AcDbMText
10
198.350893
20
-40.70625
30
0
210
0
220
0
230
1
1
\A1;0.83
40
4.5
41
0
44
1
50
0
71
5
72
5
7
iso_b_vert
0
POINT
5
3E3
100
AcDbEntity
8
Defpoints
62
0
6
ByLayer
370
-1
48
1
60
0
100
AcDbPoint
10
175.1684
20
-8
30
0
39
0
210
0
220
0
230
1
50
360
0
POINT
5
3E4
100
AcDbEntity
8
Defpoints
62
0
6
ByLayer
370
-1
48
1
60
0
100
AcDbPoint
10
176
20
0
30
0
39
0
210
0
220
0
230
1
50
360
0
POINT
5
3E5
100
AcDbEntity
8
Defpoints
62
0
6
ByLayer
370
-1
48
1
60
0
100
AcDbPoint
10
176
20
-50.1
30
0
39
0
210
0
220
0
230
1
50
360
0
ENDBLK
5
3DA
100
AcDbEntity
8
0
100
AcDbBlockEnd
0
BLOCK
5
3ED
100
AcDbEntity
8
0
100
AcDbBlockBegin
2
_U4
70
0
10
0
20
0
30
0
3
_U4
0
MTEXT
5
3E7
100
AcDbEntity
8
2
62
256
6
ByLayer
370
18
48
1
60
0
100
AcDbMText
10
188.351
20
-48.772328
30
0
210
0
220
0
230
1
1
\W0.7346;0.83
40
4.5
41
0
44
1.084337
50
0
71
7
72
5
7
iso_b_vert
0
LINE
5
3E8
100
AcDbEntity
8
2
62
256
6
ByLayer
370
13
48
1
60
0
100
AcDbLine
10
175.1684
20
-9.5875
30
0
11
175.1684
21
-53.275
31
0
39
0
210
0
220
0
230
1
0
LINE
5
3E9
100
AcDbEntity
8
2
62
256
6
ByLayer
370
13
48
1
60
0
100
AcDbLine
10
176
20
-1.5875
30
0
11
176
21
-53.275
31
0
39
0
210
0
220
0
230
1
0
LINE
5
3EA
100
AcDbEntity
8
2
62
256
6
ByLayer
370
13
48
1
60
0
100
AcDbLine
10
198.673869
20
-50.1
30
0
11
163.9184
21
-50.1
31
0
39
0
210
0
220
0
230
1
0
SOLID
5
3EB
100
AcDbEntity
8
2
62
256
6
ByLayer
370
18
48
1
60
0
100
AcDbTrace
10
175.1684
20
-50.1
30
0
11
170.993403
21
-51.025575
31
0
12
170.993397
22
-49.174425
32
0
13
170.993397
23
-49.174425
33
0
39
0
210
0
220
0
230
1
0
SOLID
5
3EC
100
AcDbEntity
8
2
62
256
6
ByLayer
370
18
48
1
60
0
100
AcDbTrace
10
176
20
-50.1
30
0
11
180.174997
21
-49.174425
31
0
12
180.175003
22
-51.025575
32
0
13
180.175003
23
-51.025575
33
0
39
0
210
0
220
0
230
1
0
ENDBLK
5
3EE
100
AcDbEntity
8
0
100
AcDbBlockEnd
0
ENDSEC
0
SECTION
2
ENTITIES
0
ARC
5
1A7
100
AcDbEntity
8
SK1
62
256
6
ByLayer
370
13
48
1
60
0
100
AcDbCircle
39
0
10
-1.3
20
20.4
30
0
40
0.600000000000001
210
0
220
0
230
1
100
AcDbArc
50
270
51
300.00093
0
ARC
5
1A8
100
AcDbEntity
8
SK1
62
256
6
ByLayer
370
13
48
1
60
0
100
AcDbCircle
39
0
10
-1.3
20
-20.4
30
0
40
0.600000000000001
210
0
220
0
230
1
100
AcDbArc
50
59.99907
51
90
0
ARC
5
1A9
100
AcDbEntity
8
1
62
256
6
ByLayer
370
13
48
1
60
0
100
AcDbCircle
39
0
10
5.5
20
-28.5
30
0
40
0.5
210
0
220
0
230
1
100
AcDbArc
50
90
51
180
0
ARC
5
1AA
100
AcDbEntity
8
1
62
256
6
ByLayer
370
13
48
1
60
0
100
AcDbCircle
39
0
10
5.5
20
28.5
30
0
40
0.5
210
0
220
0
230
1
100
AcDbArc
50
180
51
270
0
ARC
5
1AB
100
AcDbEntity
8
1
62
256
6
ByLayer
370
13
48
1
60
0
100
AcDbCircle
39
0
10
172.378455
20
14.90921
30
0
40
0.15
210
0
220
0
230
1
100
AcDbArc
50
8.974534
51
93
0
ARC
5
1AC
100
AcDbEntity
8
1
62
256
6
ByLayer
370
13
48
1
60
0
100
AcDbCircle
39
0
10
172.45632
20
6.88349
30
0
40
0.15
210
0
220
0
230
1
100
AcDbArc
50
273
51
352.543899
0
ARC
5
1AD
100
AcDbEntity
8
1
62
256
6
ByLayer
370
13
48
1
60
0
100
AcDbCircle
39
0
10
164.127795
20
14.329283
30
0
40
0.15
210
0
220
0
230
1
100
AcDbArc
50
76.216353
51
93
0
ARC
5
1AE
100
AcDbEntity
8
1
62
256
6
ByLayer
370
13
48
1
60
0
100
AcDbCircle
39
0
10
164.20566
20
6.303564
30
0
40
0.15
210
0
220
0
230
1
100
AcDbArc
50
273
51
302.692275
0
ELLIPSE
5
1AF
100
AcDbEntity
8
1
62
256
6
ByLayer
370
18
48
1
60
0
100
AcDbEllipse
10
168.284665
20
10.605999
30
0
11
0.0674636643949736
21
-1.28728340177538
31
0
210
0
220
0
230
1
40
0.995725
41
-1.5707963267949
42
-0.523598775598306
0
ELLIPSE
5
1B0
100
AcDbEntity
8
1
62
256
6
ByLayer
370
18
48
1
60
0
100
AcDbEllipse
10
168.173972
20
10.600198
30
0
11
-0.0520428748879704
21
0.993037209359949
31
0
210
0
220
0
230
1
40
0.995725
41
-3.03985061808158
42
-2.09439510239319
0
ELLIPSE
5
1B1
100
AcDbEntity
8
1
62
256
6
ByLayer
370
18
48
1
60
0
100
AcDbEllipse
10
168.173972
20
10.600198
30
0
11
0.0520428748879887
21
-0.993037209359948
31
0
210
0
220
0
230
1
40
0.995725
41
2.09439510239319
42
-3.14159265358976
0
ELLIPSE
5
1B2
100
AcDbEntity
8
1
62
256
6
ByLayer
370
18
48
1
60
0
100
AcDbEllipse
10
168.229319
20
10.603099
30
0
11
-0.115139103734447
21
2.19698497646006
31
0
210
0
220
0
230
1
40
0.995725
41
9.25483807495589E-05
42
3.14158688710877
0
ELLIPSE
5
1B3
100
AcDbEntity
8
1
62
256
6
ByLayer
370
18
48
1
60
0
100
AcDbEllipse
10
168.284665
20
10.605999
30
0
11
0.0674636643949736
21
-1.28728340177538
31
0
210
0
220
0
230
1
40
0.995725
41
0.523598775598304
42
1.5707963267949
0
ELLIPSE
5
1B4
100
AcDbEntity
8
1
62
256
6
ByLayer
370
18
48
1
60
0
100
AcDbEllipse
10
169.127261
20
11.221791
30
0
11
-0.163762418273624
21
0.253836478325364
31
0
210
0
220
0
230
1
40
0.486055
41
0.286273040550171
42
1.57315770111344
0
ELLIPSE
5
1B5
100
AcDbEntity
8
1
62
256
6
ByLayer
370
18
48
1
60
0
100
AcDbEllipse
10
167.554568
20
11.557878
30
0
11
-0.25230514295617
21
-0.164933569732259
31
0
210
0
220
0
230
1
40
0.488142
41
2.97834174884802
42
-2.53030183438404
0
ELLIPSE
5
1B6
100
AcDbEntity
8
1
62
256
6
ByLayer
370
18
48
1
60
0
100
AcDbEllipse
10
168.11422
20
11.740334
30
0
11
-0.300694491848651
21
-0.0157587305605129
31
0
210
0
220
0
230
1
40
0.489195
41
0.283911666233663
42
1.5707963267949
0
ELLIPSE
5
1B7
100
AcDbEntity
8
1
62
256
6
ByLayer
370
18
48
1
60
0
100
AcDbEllipse
10
168.173972
20
10.600198
30
0
11
0.0520428748879887
21
-0.993037209359948
31
0
210
0
220
0
230
1
40
0.995725
41
1.0471975511966
42
2.09439510239319
0
ELLIPSE
5
1B8
100
AcDbEntity
8
1
62
256
6
ByLayer
370
18
48
1
60
0
100
AcDbEllipse
10
168.284665
20
10.605999
30
0
11
-0.0732703387401025
21
1.3980813486564
31
0
210
0
220
0
230
1
40
0.995725
41
0
42
6.28318530717959
0
ELLIPSE
5
1B9
100
AcDbEntity
8
1
62
256
6
ByLayer
370
18
48
1
60
0
100
AcDbEllipse
10
167.658066
20
9.583019
30
0
11
-0.26816324156931
21
0.137656977512226
31
0
210
0
220
0
230
1
40
0.488142
41
2.5323572018462
42
-2.97834174884826
0
ELLIPSE
5
1BA
100
AcDbEntity
8
1
62
256
6
ByLayer
370
18
48
1
60
0
100
AcDbEllipse
10
168.284665
20
10.605999
30
0
11
0.0674636643949736
21
-1.28728340177538
31
0
210
0
220
0
230
1
40
0.995725
41
1.5707963267949
42
2.61799387799147
0
ELLIPSE
5
1BB
100
AcDbEntity
8
1
62
256
6
ByLayer
370
18
48
1
60
0
100
AcDbEllipse
10
168.689879
20
11.617377
30
0
11
-0.268163241569296
21
0.137656977512251
31
0
210
0
220
0
230
1
40
0.488142
41
2.98309743473639
42
-0.609236363569777
0
ELLIPSE
5
1BC
100
AcDbEntity
8
1
62
256
6
ByLayer
370
18
48
1
60
0
100
AcDbEllipse
10
168.256068
20
10.604501
30
0
11
-0.115139103734447
21
2.19698497646006
31
0
210
0
220
0
230
1
40
0.995725
41
0
42
6.28318530717959
0
ELLIPSE
5
1BD
100
AcDbEntity
8
1
62
256
6
ByLayer
370
18
48
1
60
0
100
AcDbEllipse
10
168.173972
20
10.600198
30
0
11
0.0520428748879887
21
-0.993037209359948
31
0
210
0
220
0
230
1
40
0.995725
41
-3.14159265358976
42
-2.34675324447645
0
ELLIPSE
5
1BE
100
AcDbEntity
8
1
62
256
6
ByLayer
370
18
48
1
60
0
100
AcDbEllipse
10
168.284665
20
10.605999
30
0
11
0.0674636643949736
21
-1.28728340177538
31
0
210
0
220
0
230
1
40
0.995725
41
-0.523598775598306
42
0.523598775598304
0
ELLIPSE
5
1BF
100
AcDbEntity
8
1
62
256
6
ByLayer
370
18
48
1
60
0
100
AcDbEllipse
10
168.284665
20
10.605999
30
0
11
0.0674636643949736
21
-1.28728340177538
31
0
210
0
220
0
230
1
40
0.995725
41
2.61799387799147
42
-2.61799387799152
0
ELLIPSE
5
1C0
100
AcDbEntity
8
1
62
256
6
ByLayer
370
18
48
1
60
0
100
AcDbEllipse
10
168.793376
20
9.642518
30
0
11
-0.252305142956175
21
-0.164933569732256
31
0
210
0
220
0
230
1
40
0.488142
41
0.611291729660617
42
-2.98309743473647
0
ELLIPSE
5
1C1
100
AcDbEntity
8
1
62
256
6
ByLayer
370
18
48
1
60
0
100
AcDbEllipse
10
169.309283
20
10.659697
30
0
11
-0.0158263931678691
21
0.301985571309794
31
0
210
0
220
0
230
1
40
0.485021
41
-2.87073611965638
42
0.1608730617975
0
ELLIPSE
5
1C2
100
AcDbEntity
8
1
62
256
6
ByLayer
370
18
48
1
60
0
100
AcDbEllipse
10
168.284665
20
10.605999
30
0
11
0.0674636643949736
21
-1.28728340177538
31
0
210
0
220
0
230
1
40
0.995725
41
-2.61799387799152
42
-1.5707963267949
0
ELLIPSE
5
1C3
100
AcDbEntity
8
1
62
256
6
ByLayer
370
18
48
1
60
0
100
AcDbEllipse
10
169.187013
20
10.081656
30
0
11
-0.136332173607593
21
-0.26956376945849
31
0
210
0
220
0
230
1
40
0.486055
41
-1.57315770112749
42
-0.286273040550753
0
ELLIPSE
5
1C4
100
AcDbEntity
8
1
62
256
6
ByLayer
370
18
48
1
60
0
100
AcDbEllipse
10
168.173972
20
10.600198
30
0
11
0.0520428748879887
21
-0.993037209359948
31
0
210
0
220
0
230
1
40
0.995725
41
-0.775433507918405
42
0
0
ELLIPSE
5
1C5
100
AcDbEntity
8
1
62
256
6
ByLayer
370
18
48
1
60
0
100
AcDbEllipse
10
168.233724
20
9.460063
30
0
11
-0.300694491847938
21
-0.0157587305607068
31
0
210
0
220
0
230
1
40
0.489195
41
-1.5707963267949
42
-0.283911666234208
0
ELLIPSE
5
1C6
100
AcDbEntity
8
1
62
256
6
ByLayer
370
18
48
1
60
0
100
AcDbEllipse
10
169.127261
20
11.221791
30
0
11
-0.163762418274633
21
0.253836478326431
31
0
210
0
220
0
230
1
40
0.486055
41
1.57315770111117
42
2.86004236167034
0
ELLIPSE
5
1C7
100
AcDbEntity
8
1
62
256
6
ByLayer
370
18
48
1
60
0
100
AcDbEllipse
10
169.187013
20
10.081656
30
0
11
-0.136332173611984
21
-0.269563769461437
31
0
210
0
220
0
230
1
40
0.486055
41
-2.86004236167077
42
-1.5731577011093
0
ELLIPSE
5
1C8
100
AcDbEntity
8
1
62
256
6
ByLayer
370
18
48
1
60
0
100
AcDbEllipse
10
168.173972
20
10.600198
30
0
11
0.0520428748879887
21
-0.993037209359948
31
0
210
0
220
0
230
1
40
0.995725
41
-1.89506805366495
42
-1.23040823937595
0
ELLIPSE
5
1C9
100
AcDbEntity
8
1
62
256
6
ByLayer
370
18
48
1
60
0
100
AcDbEllipse
10
169.421392
20
-3.761628
30
0
11
1.5
21
0
31
0
210
0
220
0
230
1
40
0.994968
41
0.380231066004567
42
-3.14159225941494
0
ELLIPSE
5
1CA
100
AcDbEntity
8
1
62
256
6
ByLayer
370
18
48
1
60
0
100
AcDbEllipse
10
169.421392
20
-3.73157
30
0
11
-1.2
21
1.21276686609884E-15
31
0
210
0
220
0
230
1
40
0.994968
41
3.14159237772621
42
-3.71945973681287E-16
0
ELLIPSE
5
1CB
100
AcDbEntity
8
1
62
256
6
ByLayer
370
18
48
1
60
0
100
AcDbEllipse
10
169.421392
20
-3.73157
30
0
11
-1.2
21
1.21276686609884E-15
31
0
210
0
220
0
230
1
40
0.994968
41
0
42
0.433343079651207
0
ELLIPSE
5
1CC
100
AcDbEntity
8
1
62
256
6
ByLayer
370
18
48
1
60
0
100
AcDbEllipse
10
169.421392
20
-3.73157
30
0
11
-1.2
21
1.21276686609884E-15
31
0
210
0
220
0
230
1
40
0.994968
41
3.11282766763693
42
-3.14159209190532
0
ELLIPSE
5
1CD
100
AcDbEntity
8
1
62
256
6
ByLayer
370
13
48
1
60
0
100
AcDbEllipse
10
162.330271
20
14.800814
30
0
11
-0.0435995590923929
21
-0.257560367418581
31
0
210
0
220
0
230
1
40
0.953152
41
-2.83905801138107
42
-1.8662206561493
0
ELLIPSE
5
1CE
100
AcDbEntity
8
1
62
256
6
ByLayer
370
13
48
1
60
0
100
AcDbEllipse
10
174.690921
20
11.088977
30
0
11
0.148163665863163
21
0.0233993187505352
31
0
210
0
220
0
230
1
40
0.009655
41
0.0919985744711225
42
1.66279490126875
0
ELLIPSE
5
1CF
100
AcDbEntity
8
1
62
256
6
ByLayer
370
13
48
1
60
0
100
AcDbEllipse
10
168.089779
20
14.46609
30
0
11
0.00785039343644239
21
-0.149794430213186
31
0
210
0
220
0
230
1
40
0.092371
41
1.5707963267949
42
3.14159265358979
0
ELLIPSE
5
1D0
100
AcDbEntity
8
1
62
256
6
ByLayer
370
13
48
1
60
0
100
AcDbEllipse
10
173.063549
20
15.707812
30
0
11
0.0104671912485899
21
-0.199725906950916
31
0
210
0
220
0
230
1
40
0.995725
41
3.13286600733052
42
-1.98892518297706
0
ELLIPSE
5
1D1
100
AcDbEntity
8
1
62
256
6
ByLayer
370
13
48
1
60
0
100
AcDbEllipse
10
172.45632
20
6.88349
30
0
11
0.0357384400710702
21
0.145680348370281
31
0
210
0
220
0
230
1
40
0.088467
41
-3.1149166932422
42
-1.54412036644888
0
ELLIPSE
5
1D2
100
AcDbEntity
8
1
62
256
6
ByLayer
370
13
48
1
60
0
100
AcDbEllipse
10
173.260081
20
14.014607
30
0
11
-0.0915879234251287
21
1.74760168582051
31
0
210
0
220
0
230
1
40
0.995725
41
-0.0329142076267572
42
-0.00872664626000391
0
ELLIPSE
5
1D3
100
AcDbEntity
8
1
62
256
6
ByLayer
370
13
48
1
60
0
100
AcDbEllipse
10
163.009644
20
5.897527
30
0
11
0.0314015737457697
21
-0.599177720852747
31
0
210
0
220
0
230
1
40
0.995725
41
-1.46607657167542
42
-0.0718055474929928
0
ELLIPSE
5
1D4
100
AcDbEntity
8
1
62
256
6
ByLayer
370
13
48
1
60
0
100
AcDbEllipse
10
173.415625
20
7.016949
30
0
11
0.465790010562249
21
-8.88780285931571
31
0
210
0
220
0
230
1
40
0.995725
41
3.06978710609712
42
3.10867844596314
0
ELLIPSE
5
1D5
100
AcDbEntity
8
1
62
256
6
ByLayer
370
13
48
1
60
0
100
AcDbEllipse
10
172.985063
20
10.923612
30
0
11
0.148731686424787
21
-0.0194649801756591
31
0
210
0
220
0
230
1
40
0.016833
41
5.34640114195509E-05
42
1.47983423648428
0
ELLIPSE
5
1D6
100
AcDbEntity
8
1
62
256
6
ByLayer
370
13
48
1
60
0
100
AcDbEllipse
10
164.123589
20
10.216285
30
0
11
0.0444855628065069
21
-0.848835104541388
31
0
210
0
220
0
230
1
40
0.995725
41
-1.75405589825428
42
-1.46607657167519
0
ELLIPSE
5
1D7
100
AcDbEntity
8
1
62
256
6
ByLayer
370
13
48
1
60
0
100
AcDbEllipse
10
173.411012
20
7.016707
30
0
11
0.465790010562249
21
-8.88780285931571
31
0
210
0
220
0
230
1
40
0.995725
41
3.06978710609697
42
3.10867844596299
0
ELLIPSE
5
1D8
100
AcDbEntity
8
1
62
256
6
ByLayer
370
13
48
1
60
0
100
AcDbEllipse
10
174.174812
20
7.003177
30
0
11
0.148731686424787
21
-0.0194649801756591
31
0
210
0
220
0
230
1
40
0.016833
41
-1.66175841710585
42
-0.0909620903109282
0
ELLIPSE
5
1D9
100
AcDbEntity
8
1
62
256
6
ByLayer
370
13
48
1
60
0
100
AcDbEllipse
10
162.991195
20
5.896561
30
0
11
-0.023551180309319
21
0.449383290639562
31
0
210
0
220
0
230
1
40
0.995725
41
1.67551608191454
42
3.06978710609702
0
ELLIPSE
5
1DA
100
AcDbEntity
8
1
62
256
6
ByLayer
370
13
48
1
60
0
100
AcDbEllipse
10
163.601144
20
10.131335
30
0
11
-0.148163665863161
21
-0.0233993187505466
31
0
210
0
220
0
230
1
40
0.009655
41
0.0919985744748214
42
1.66279490126819
0
ELLIPSE
5
1DB
100
AcDbEntity
8
1
62
256
6
ByLayer
370
13
48
1
60
0
100
AcDbEllipse
10
162.331131
20
10.193851
30
0
11
0.0314015737457691
21
-0.599177720852735
31
0
210
0
220
0
230
1
40
0.995725
41
-1.75405589825451
42
-1.46607657167546
0
ELLIPSE
5
1DC
100
AcDbEntity
8
1
62
256
6
ByLayer
370
13
48
1
60
0
100
AcDbEllipse
10
174.174812
20
7.003177
30
0
11
-0.0222321776354173
21
0.148343285246037
31
0
210
0
220
0
230
1
40
0.091945
41
1.56190521945488
42
3.1327015462504
0
ELLIPSE
5
1DD
100
AcDbEntity
8
1
62
256
6
ByLayer
370
13
48
1
60
0
100
AcDbEllipse
10
162.40337
20
14.19897
30
0
11
-0.0435995590933615
21
-0.257560367418342
31
0
210
0
220
0
230
1
40
0.953152
41
-2.83905801137792
42
-1.5313965045117
0
ELLIPSE
5
1DE
100
AcDbEntity
8
1
62
256
6
ByLayer
370
13
48
1
60
0
100
AcDbEllipse
10
173.556022
20
15.314279
30
0
11
-0.023551180309319
21
0.449383290639562
31
0
210
0
220
0
230
1
40
0.995725
41
-1.46607657167526
42
-0.0718055474927689
0
ELLIPSE
5
1DF
100
AcDbEntity
8
1
62
256
6
ByLayer
370
13
48
1
60
0
100
AcDbEllipse
10
172.74058
20
6.788229
30
0
11
-0.15730325298644
21
-0.0460731444179219
31
0
210
0
220
0
230
1
40
0.019548
41
-1.48844818370303
42
-0.271753093932703
0
ELLIPSE
5
1E0
100
AcDbEntity
8
1
62
256
6
ByLayer
370
13
48
1
60
0
100
AcDbEllipse
10
172.423629
20
10.994555
30
0
11
0.0444855628065069
21
-0.848835104541388
31
0
210
0
220
0
230
1
40
0.995725
41
1.38753675533551
42
1.67551608191457
0
ELLIPSE
5
1E1
100
AcDbEntity
8
1
62
256
6
ByLayer
370
13
48
1
60
0
100
AcDbEllipse
10
164.127795
20
14.329283
30
0
11
0.148731686424787
21
-0.0194649801756591
31
0
210
0
220
0
230
1
40
0.016833
41
1.47983423648548
42
3.05063056327569
0
ELLIPSE
5
1E2
100
AcDbEntity
8
1
62
256
6
ByLayer
370
13
48
1
60
0
100
AcDbEllipse
10
173.273391
20
11.12806
30
0
11
0.148163665863163
21
0.0233993187505352
31
0
210
0
220
0
230
1
40
0.009655
41
1.66279490126875
42
2.86108759533226
0
ELLIPSE
5
1E3
100
AcDbEntity
8
1
62
256
6
ByLayer
370
13
48
1
60
0
100
AcDbEllipse
10
168.494336
20
6.746684
30
0
11
0.00785039343644239
21
-0.149794430213186
31
0
210
0
220
0
230
1
40
0.092371
41
0
42
1.5707963267949
0
ELLIPSE
5
1E4
100
AcDbEntity
8
1
62
256
6
ByLayer
370
13
48
1
60
0
100
AcDbEllipse
10
163.298266
20
10.328144
30
0
11
-0.148731686424787
21
0.0194649801756622
31
0
210
0
220
0
230
1
40
0.016833
41
1.47983423648428
42
3.05063056327851
0
ELLIPSE
5
1E5
100
AcDbEntity
8
1
62
256
6
ByLayer
370
13
48
1
60
0
100
AcDbEllipse
10
163.834311
20
14.424061
30
0
11
-0.0435852065149538
21
-0.158111345855037
31
0
210
0
220
0
230
1
40
0.080185
41
-3.11490714533872
42
-1.54411081848162
0
ELLIPSE
5
1E6
100
AcDbEntity
8
1
62
256
6
ByLayer
370
13
48
1
60
0
100
AcDbEllipse
10
163.305585
20
7.1972
30
0
11
0.0994383168616036
21
-1.89739611603369
31
0
210
0
220
0
230
1
40
0.995725
41
-0.0329142076269398
42
-0.00872664626017139
0
ELLIPSE
5
1E7
100
AcDbEntity
8
1
62
256
6
ByLayer
370
13
48
1
60
0
100
AcDbEllipse
10
173.239644
20
15.764988
30
0
11
-0.00289548769282006
21
0.149972051232957
31
0
210
0
220
0
230
1
40
0.092321
41
0.00305279796464599
42
1.57384912475832
0
ELLIPSE
5
1E8
100
AcDbEntity
8
1
62
256
6
ByLayer
370
13
48
1
60
0
100
AcDbEllipse
10
164.127795
20
14.329283
30
0
11
0.00785039343644239
21
-0.149794430213186
31
0
210
0
220
0
230
1
40
0.995725
41
-3.14158987498268
42
-1.75405589825451
0
ELLIPSE
5
1E9
100
AcDbEntity
8
1
62
256
6
ByLayer
370
13
48
1
60
0
100
AcDbEllipse
10
174.179424
20
7.003419
30
0
11
0.00785039343644254
21
-0.149794430213189
31
0
210
0
220
0
230
1
40
0.995725
41
0.0959931088599133
42
1.38753675533529
0
ELLIPSE
5
1EA
100
AcDbEntity
8
1
62
256
6
ByLayer
370
13
48
1
60
0
100
AcDbEllipse
10
172.45632
20
6.88349
30
0
11
0.00785039343644239
21
-0.149794430213186
31
0
210
0
220
0
230
1
40
0.995725
41
-0.291747532449706
42
4.93512775475888E-06
0
ELLIPSE
5
1EB
100
AcDbEntity
8
1
62
256
6
ByLayer
370
13
48
1
60
0
100
AcDbEllipse
10
172.061997
20
5.261365
30
0
11
-0.0732703387401028
21
1.3980813486564
31
0
210
0
220
0
230
1
40
0.995725
41
-0.499480957373622
42
1.42718669463978E-13
0
ELLIPSE
5
1EC
100
AcDbEntity
8
1
62
256
6
ByLayer
370
13
48
1
60
0
100
AcDbEllipse
10
163.892282
20
14.483305
30
0
11
0.00523359562429431
21
-0.0998629534754456
31
0
210
0
220
0
230
1
40
0.995725
41
1.38753675533574
42
3.14158141713674
0
ELLIPSE
5
1ED
100
AcDbEntity
8
1
62
256
6
ByLayer
370
13
48
1
60
0
100
AcDbEllipse
10
163.287136
20
7.196233
30
0
11
-0.0915879234251287
21
1.74760168582051
31
0
210
0
220
0
230
1
40
0.995725
41
3.108678445963
42
3.13286600732977
0
ELLIPSE
5
1EE
100
AcDbEntity
8
1
62
256
6
ByLayer
370
13
48
1
60
0
100
AcDbEllipse
10
174.012408
20
15.3853
30
0
11
0.148163665863163
21
0.0233993187505352
31
0
210
0
220
0
230
1
40
0.009655
41
0.0919985744785204
42
1.66279490126838
0
ELLIPSE
5
1EF
100
AcDbEntity
8
1
62
256
6
ByLayer
370
13
48
1
60
0
100
AcDbEllipse
10
172.378455
20
14.90921
30
0
11
0.00785039343644239
21
-0.149794430213186
31
0
210
0
220
0
230
1
40
0.995725
41
3.14157761346933
42
-2.62520629028367
0
ELLIPSE
5
1F0
100
AcDbEntity
8
1
62
256
6
ByLayer
370
13
48
1
60
0
100
AcDbEllipse
10
161.882257
20
10.252445
30
0
11
-0.148731686424787
21
0.0194649801756622
31
0
210
0
220
0
230
1
40
0.016833
41
0.263181912491081
42
1.47983423648447
0
ELLIPSE
5
1F1
100
AcDbEntity
8
1
62
256
6
ByLayer
370
13
48
1
60
0
100
AcDbEllipse
10
163.989482
20
6.047118
30
0
11
0.00523359562429424
21
-0.0998629534754443
31
0
210
0
220
0
230
1
40
0.995725
41
0.715943825888253
42
1.67551608191563
0
ELLIPSE
5
1F2
100
AcDbEntity
8
1
62
256
6
ByLayer
370
13
48
1
60
0
100
AcDbEllipse
10
164.155874
20
10.217977
30
0
11
-0.0287847759336119
21
0.549246244115016
31
0
210
0
220
0
230
1
40
0.995725
41
1.38753675533553
42
1.67551608191458
0
ELLIPSE
5
1F3
100
AcDbEntity
8
1
62
256
6
ByLayer
370
13
48
1
60
0
100
AcDbEllipse
10
162.562483
20
5.82699
30
0
11
-0.148163665863161
21
-0.0233993187505466
31
0
210
0
220
0
230
1
40
0.009655
41
-1.47879775232128
42
-0.264793552090075
0
ELLIPSE
5
1F4
100
AcDbEntity
8
1
62
256
6
ByLayer
370
13
48
1
60
0
100
AcDbEllipse
10
171.765652
20
16.33102
30
0
11
-1.60309753832311
21
-1.23531610952165
31
0
210
0
220
0
230
1
40
0.479612
41
1.73694104182631
42
1.75989195268773
0
ELLIPSE
5
1F5
100
AcDbEntity
8
1
62
256
6
ByLayer
370
13
48
1
60
0
100
AcDbEllipse
10
171.689144
20
5.241825
30
0
11
-1.11484466981617
21
-1.17454029853105
31
0
210
0
220
0
230
1
40
0.721129
41
2.66179706890152
42
-2.99115251877756
0
ELLIPSE
5
1F6
100
AcDbEntity
8
1
62
256
6
ByLayer
370
13
48
1
60
0
100
AcDbEllipse
10
163.168491
20
14.195825
30
0
11
0.465790010562249
21
-8.88780285931571
31
0
210
0
220
0
230
1
40
0.995725
41
-0.0718055474929865
42
-0.0329142076269612
0
ELLIPSE
5
1F7
100
AcDbEntity
8
1
62
256
6
ByLayer
370
13
48
1
60
0
100
AcDbEllipse
10
172.590021
20
15.165414
30
0
11
0.00523359562429424
21
-0.0998629534754443
31
0
210
0
220
0
230
1
40
0.995725
41
-2.42564882770196
42
-1.46607657167502
0
ELLIPSE
5
1F8
100
AcDbEntity
8
1
62
256
6
ByLayer
370
13
48
1
60
0
100
AcDbEllipse
10
171.683797
20
5.241544
30
0
11
0.0732703387401288
21
-1.3980813486564
31
0
210
0
220
0
230
1
40
0.995725
41
2.14406686543244
42
2.81284824856037
0
ELLIPSE
5
1F9
100
AcDbEntity
8
1
62
256
6
ByLayer
370
13
48
1
60
0
100
AcDbEllipse
10
172.68722
20
6.729226
30
0
11
0.00523359562429431
21
-0.0998629534754456
31
0
210
0
220
0
230
1
40
0.995725
41
-1.75405589825376
42
0.0959931088602276
0
ELLIPSE
5
1FA
100
AcDbEntity
8
1
62
256
6
ByLayer
370
13
48
1
60
0
100
AcDbEllipse
10
163.8609
20
15.916747
30
0
11
-1.72343646419275
21
1.06097782117855
31
0
210
0
220
0
230
1
40
0.479611
41
1.38170130305095
42
1.40465226954043
0
ELLIPSE
5
1FB
100
AcDbEntity
8
1
62
256
6
ByLayer
370
13
48
1
60
0
100
AcDbEllipse
10
172.442077
20
10.995522
30
0
11
0.0366351693700645
21
-0.699040674328202
31
0
210
0
220
0
230
1
40
0.995725
41
1.38753675533552
42
1.6755160819146
0
ELLIPSE
5
1FC
100
AcDbEntity
8
1
62
256
6
ByLayer
370
13
48
1
60
0
100
AcDbEllipse
10
163.3015
20
10.08423
30
0
11
-0.148163665863161
21
-0.0233993187505466
31
0
210
0
220
0
230
1
40
0.009655
41
-3.04959407911743
42
-1.4787977523216
0
ELLIPSE
5
1FD
100
AcDbEntity
8
1
62
256
6
ByLayer
370
13
48
1
60
0
100
AcDbEllipse
10
163.896895
20
14.483547
30
0
11
0.00523359562429431
21
-0.0998629534754456
31
0
210
0
220
0
230
1
40
0.995725
41
1.38753675533574
42
-3.04559954473019
0
ELLIPSE
5
1FE
100
AcDbEntity
8
1
62
256
6
ByLayer
370
13
48
1
60
0
100
AcDbEllipse
10
171.477292
20
16.315914
30
0
11
-1.25140277681809
21
-1.09295639774554
31
0
210
0
220
0
230
1
40
0.728886
41
1.24780201390432
42
1.87803773341156
0
ELLIPSE
5
1FF
100
AcDbEntity
8
1
62
256
6
ByLayer
370
13
48
1
60
0
100
AcDbEllipse
10
171.482638
20
16.316194
30
0
11
-0.0732703387401025
21
1.3980813486564
31
0
210
0
220
0
230
1
40
0.995725
41
-3.14159265358965
42
-1.98892518297744
0
ELLIPSE
5
200
100
AcDbEntity
8
1
62
256
6
ByLayer
370
13
48
1
60
0
100
AcDbEllipse
10
173.569859
20
15.315004
30
0
11
0.0314015737457697
21
-0.599177720852747
31
0
210
0
220
0
230
1
40
0.995725
41
1.67551608191452
42
3.06978710609694
0
ELLIPSE
5
201
100
AcDbEntity
8
1
62
256
6
ByLayer
370
13
48
1
60
0
100
AcDbEllipse
10
172.455914
20
10.996247
30
0
11
-0.0287847759336119
21
0.549246244115016
31
0
210
0
220
0
230
1
40
0.995725
41
-1.75405589825426
42
-1.46607657167522
0
ELLIPSE
5
202
100
AcDbEntity
8
1
62
256
6
ByLayer
370
13
48
1
60
0
100
AcDbEllipse
10
172.45632
20
6.88349
30
0
11
-0.148731686424787
21
0.0194649801756622
31
0
210
0
220
0
230
1
40
0.016833
41
-3.14153918965928
42
-1.6617584171068
0
ELLIPSE
5
203
100
AcDbEntity
8
1
62
256
6
ByLayer
370
13
48
1
60
0
100
AcDbEllipse
10
163.515935
20
5.506744
30
0
11
0.0159614234594796
21
-0.304562102761011
31
0
210
0
220
0
230
1
40
0.995725
41
0.174532925199074
42
1.15266747061211
0
ELLIPSE
5
204
100
AcDbEntity
8
1
62
256
6
ByLayer
370
13
48
1
60
0
100
AcDbEllipse
10
163.502117
20
5.503995
30
0
11
-0.00261679781214659
21
0.0499314767377297
31
0
210
0
220
0
230
1
40
0.995725
41
3.13286600732881
42
-1.98892518297721
0
ELLIPSE
5
205
100
AcDbEntity
8
1
62
256
6
ByLayer
370
13
48
1
60
0
100
AcDbEllipse
10
164.127795
20
14.329283
30
0
11
-0.0357384400710636
21
-0.145680348370283
31
0
210
0
220
0
230
1
40
0.088467
41
1.59747228714054
42
-3.11491669324434
0
ELLIPSE
5
206
100
AcDbEntity
8
1
62
256
6
ByLayer
370
13
48
1
60
0
100
AcDbEllipse
10
163.834311
20
14.424061
30
0
11
-0.157303252989443
21
-0.0460731444188191
31
0
210
0
220
0
230
1
40
0.019548
41
-3.05924451048642
42
-1.48844818371104
0
ELLIPSE
5
207
100
AcDbEntity
8
1
62
256
6
ByLayer
370
13
48
1
60
0
100
AcDbEllipse
10
163.994094
20
6.047359
30
0
11
0.00523359562429424
21
-0.0998629534754443
31
0
210
0
220
0
230
1
40
0.995725
41
0.715943825887308
42
1.67551608191449
0
ELLIPSE
5
208
100
AcDbEntity
8
1
62
256
6
ByLayer
370
13
48
1
60
0
100
AcDbEllipse
10
172.378455
20
14.90921
30
0
11
-0.0810190291751486
21
0.126237541609128
31
0
210
0
220
0
230
1
40
0.080326
41
-1.61656729692019
42
-0.0457709700942524
0
ELLIPSE
5
209
100
AcDbEntity
8
1
62
256
6
ByLayer
370
13
48
1
60
0
100
AcDbEllipse
10
173.397176
20
7.015982
30
0
11
-0.457939617125644
21
8.73800842910253
31
0
210
0
220
0
230
1
40
0.995725
41
-0.0718055474928278
42
-0.0329142076268006
0
ELLIPSE
5
20A
100
AcDbEntity
8
1
62
256
6
ByLayer
370
13
48
1
60
0
100
AcDbEllipse
10
165.083028
20
4.895613
30
0
11
0.0863543278008665
21
-1.64773873234505
31
0
210
0
220
0
230
1
40
0.995725
41
-2.40979222099122
42
-1.98892518297756
0
ELLIPSE
5
20B
100
AcDbEntity
8
1
62
256
6
ByLayer
370
13
48
1
60
0
100
AcDbEllipse
10
163.562451
20
5.486827
30
0
11
-0.140162345718413
21
0.0534276786199064
31
0
210
0
220
0
230
1
40
0.037507
41
1.48622321389585
42
3.05701954069036
0
ELLIPSE
5
20C
100
AcDbEntity
8
1
62
256
6
ByLayer
370
13
48
1
60
0
100
AcDbEllipse
10
164.20566
20
6.303564
30
0
11
0.148163665863163
21
0.0233993187505352
31
0
210
0
220
0
230
1
40
0.009655
41
-3.04959407911989
42
-1.47879775232028
0
ELLIPSE
5
20D
100
AcDbEntity
8
1
62
256
6
ByLayer
370
13
48
1
60
0
100
AcDbEllipse
10
165.101477
20
4.89658
30
0
11
-0.0732703387401025
21
1.3980813486564
31
0
210
0
220
0
230
1
40
0.995725
41
0
42
1.15266747061206
0
ELLIPSE
5
20E
100
AcDbEntity
8
1
62
256
6
ByLayer
370
13
48
1
60
0
100
AcDbEllipse
10
171.104438
20
16.296373
30
0
11
0.0732703387401288
21
-1.3980813486564
31
0
210
0
220
0
230
1
40
0.995725
41
0
42
0.499480957373881
0
ELLIPSE
5
20F
100
AcDbEntity
8
1
62
256
6
ByLayer
370
13
48
1
60
0
100
AcDbEllipse
10
174.234536
20
11.017956
30
0
11
-0.0235511803093184
21
0.44938329063955
31
0
210
0
220
0
230
1
40
0.995725
41
-1.75405589825432
42
-1.46607657167532
0
ELLIPSE
5
210
100
AcDbEntity
8
1
62
256
6
ByLayer
370
13
48
1
60
0
100
AcDbEllipse
10
162.312682
20
10.192884
30
0
11
-0.0235511803093184
21
0.44938329063955
31
0
210
0
220
0
230
1
40
0.995725
41
1.38753675533541
42
1.67551608191454
0
ELLIPSE
5
211
100
AcDbEntity
8
1
62
256
6
ByLayer
370
13
48
1
60
0
100
AcDbEllipse
10
163.599052
20
10.289162
30
0
11
-0.148731686424787
21
0.0194649801756622
31
0
210
0
220
0
230
1
40
0.016833
41
-1.66175841710551
42
-0.0909620903112785
0
ELLIPSE
5
212
100
AcDbEntity
8
1
62
256
6
ByLayer
370
13
48
1
60
0
100
AcDbEllipse
10
164.149264
20
15.931868
30
0
11
-1.35879251417789
21
0.956161859076891
31
0
210
0
220
0
230
1
40
0.728886
41
1.26355492018813
42
1.89379063967904
0
ELLIPSE
5
213
100
AcDbEntity
8
1
62
256
6
ByLayer
370
13
48
1
60
0
100
AcDbEllipse
10
173.875644
20
6.392139
30
0
11
-0.0435995590664626
21
-0.257560367426094
31
0
210
0
220
0
230
1
40
0.953152
41
0.302534642112081
42
1.26887668584219
0
ELLIPSE
5
214
100
AcDbEntity
8
1
62
256
6
ByLayer
370
13
48
1
60
0
100
AcDbEllipse
10
172.378455
20
14.90921
30
0
11
-0.148163665863161
21
-0.0233993187505466
31
0
210
0
220
0
230
1
40
0.009655
41
1.66279490126838
42
3.14137689880365
0
ELLIPSE
5
215
100
AcDbEntity
8
1
62
256
6
ByLayer
370
13
48
1
60
0
100
AcDbEllipse
10
174.252984
20
11.018923
30
0
11
0.0314015737457691
21
-0.599177720852735
31
0
210
0
220
0
230
1
40
0.995725
41
1.38753675533562
42
1.67551608191466
0
ELLIPSE
5
216
100
AcDbEntity
8
1
62
256
6
ByLayer
370
13
48
1
60
0
100
AcDbEllipse
10
174.174812
20
7.003177
30
0
11
0.00785039343644254
21
-0.149794430213189
31
0
210
0
220
0
230
1
40
0.995725
41
0.0959931088602803
42
1.38753675533529
0
ELLIPSE
5
217
100
AcDbEntity
8
1
62
256
6
ByLayer
370
13
48
1
60
0
100
AcDbEllipse
10
162.99642
20
5.447378
30
0
11
-0.00296274426889946
21
-0.149970737633703
31
0
210
0
220
0
230
1
40
0.092133
41
-1.56414094857583
42
-0.0696259705240914
0
ELLIPSE
5
218
100
AcDbEntity
8
1
62
256
6
ByLayer
370
13
48
1
60
0
100
AcDbEllipse
10
163.520566
20
5.504962
30
0
11
0.0104671912485899
21
-0.199725906950916
31
0
210
0
220
0
230
1
40
0.995725
41
-0.0087266462596988
42
1.15266747061242
0
ELLIPSE
5
219
100
AcDbEntity
8
1
62
256
6
ByLayer
370
13
48
1
60
0
100
AcDbEllipse
10
163.335247
20
5.447302
30
0
11
0.0028954876928196
21
-0.149972051232957
31
0
210
0
220
0
230
1
40
0.092321
41
-1.56774352883166
42
-0.0454726900834457
0
ELLIPSE
5
21A
100
AcDbEntity
8
1
62
256
6
ByLayer
370
13
48
1
60
0
100
AcDbEllipse
10
165.096865
20
4.896338
30
0
11
-0.0785039343643966
21
1.49794430213187
31
0
210
0
220
0
230
1
40
0.995725
41
0.715943825887382
42
1.15266747061224
0
ELLIPSE
5
21B
100
AcDbEntity
8
1
62
256
6
ByLayer
370
13
48
1
60
0
100
AcDbEllipse
10
163.150042
20
14.194858
30
0
11
-0.457939617125644
21
8.73800842910253
31
0
210
0
220
0
230
1
40
0.995725
41
3.06978710609697
42
3.10867844596299
0
ELLIPSE
5
21C
100
AcDbEntity
8
1
62
256
6
ByLayer
370
13
48
1
60
0
100
AcDbEllipse
10
171.482638
20
16.316194
30
0
11
-0.0785039343643966
21
1.49794430213187
31
0
210
0
220
0
230
1
40
0.995725
41
-2.4256488277023
42
-1.98892518297742
0
ELLIPSE
5
21D
100
AcDbEntity
8
1
62
256
6
ByLayer
370
13
48
1
60
0
100
AcDbEllipse
10
171.46419
20
16.315227
30
0
11
0.0863543278008665
21
-1.64773873234505
31
0
210
0
220
0
230
1
40
0.995725
41
0.731800432598575
42
1.15266747061225
0
ELLIPSE
5
21E
100
AcDbEntity
8
1
62
256
6
ByLayer
370
13
48
1
60
0
100
AcDbEllipse
10
164.522118
20
15.951409
30
0
11
-0.0732703387401028
21
1.3980813486564
31
0
210
0
220
0
230
1
40
0.995725
41
2.6421116962159
42
3.14159265358961
0
ELLIPSE
5
21F
100
AcDbEntity
8
1
62
256
6
ByLayer
370
13
48
1
60
0
100
AcDbEllipse
10
163.515954
20
5.50472
30
0
11
0.0104671912485899
21
-0.199725906950916
31
0
210
0
220
0
230
1
40
0.995725
41
0.0114005952937098
42
1.15266747061227
0
ELLIPSE
5
220
100
AcDbEntity
8
1
62
256
6
ByLayer
370
13
48
1
60
0
100
AcDbEllipse
10
173.0451
20
15.706845
30
0
11
-0.00261679781214659
21
0.0499314767377297
31
0
210
0
220
0
230
1
40
0.995725
41
-0.00872664625984027
42
1.15266747061259
0
ELLIPSE
5
221
100
AcDbEntity
8
1
62
256
6
ByLayer
370
13
48
1
60
0
100
AcDbEllipse
10
174.180745
20
7.013804
30
0
11
-0.043599559083845
21
-0.257560367421167
31
0
210
0
220
0
230
1
40
0.953152
41
0.302534642176062
42
1.61019614903763
0
ELLIPSE
5
222
100
AcDbEntity
8
1
62
256
6
ByLayer
370
13
48
1
60
0
100
AcDbEllipse
10
162.85771
20
15.170921
30
0
11
-0.375441693983459
21
0.231127675660094
31
0
210
0
220
0
230
1
40
0.479615
41
-1.75989333430585
42
-0.781758788887698
0
ELLIPSE
5
223
100
AcDbEntity
8
1
62
256
6
ByLayer
370
13
48
1
60
0
100
AcDbEllipse
10
168.244534
20
10.603896
30
0
11
0.121012447123762
21
-2.30905504448475
31
0
210
0
220
0
230
1
40
0.995725
41
-0.853733359343726
42
0
0
ELLIPSE
5
224
100
AcDbEntity
8
1
62
256
6
ByLayer
370
13
48
1
60
0
100
AcDbEllipse
10
168.244534
20
10.603896
30
0
11
0.121012447123762
21
-2.30905504448475
31
0
210
0
220
0
230
1
40
0.995725
41
0
42
-2.28787047023637
0
ELLIPSE
5
225
100
AcDbEntity
8
1
62
256
6
ByLayer
370
13
48
1
60
0
100
AcDbEllipse
10
162.404691
20
14.209355
30
0
11
0.00785039343644254
21
-0.149794430213189
31
0
210
0
220
0
230
1
40
0.995725
41
-3.04559954473025
42
-1.7540558982547
0
ELLIPSE
5
226
100
AcDbEntity
8
1
62
256
6
ByLayer
370
13
48
1
60
0
100
AcDbEllipse
10
174.248372
20
11.018681
30
0
11
0.0314015737457691
21
-0.599177720852735
31
0
210
0
220
0
230
1
40
0.995725
41
1.38753675533543
42
1.67551608191452
0
ELLIPSE
5
227
100
AcDbEntity
8
1
62
256
6
ByLayer
370
13
48
1
60
0
100
AcDbEllipse
10
173.578471
20
15.764912
30
0
11
0.0029627442688992
21
0.149970737633703
31
0
210
0
220
0
230
1
40
0.092133
41
0.00665537821600897
42
1.57745170501396
0
ELLIPSE
5
228
100
AcDbEntity
8
1
62
256
6
ByLayer
370
13
48
1
60
0
100
AcDbEllipse
10
165.101477
20
4.89658
30
0
11
-0.0785039343643966
21
1.49794430213187
31
0
210
0
220
0
230
1
40
0.995725
41
0.715943825887212
42
1.15266747061208
0
ELLIPSE
5
229
100
AcDbEntity
8
1
62
256
6
ByLayer
370
13
48
1
60
0
100
AcDbEllipse
10
164.137425
20
10.21701
30
0
11
-0.0366351693700516
21
0.699040674328203
31
0
210
0
220
0
230
1
40
0.995725
41
1.38753675533552
42
1.6755160819146
0
ELLIPSE
5
22A
100
AcDbEntity
8
1
62
256
6
ByLayer
370
13
48
1
60
0
100
AcDbEllipse
10
162.400079
20
14.209113
30
0
11
0.022232177635432
21
-0.148343285246035
31
0
210
0
220
0
230
1
40
0.091945
41
-3.05448529856751
42
-1.57968743413529
0
ELLIPSE
5
22B
100
AcDbEntity
8
1
62
256
6
ByLayer
370
13
48
1
60
0
100
AcDbEllipse
10
173.27853
20
14.015574
30
0
11
0.0994383168616036
21
-1.89739611603369
31
0
210
0
220
0
230
1
40
0.995725
41
3.10867844596317
42
3.13286600732995
0
ELLIPSE
5
22C
100
AcDbEntity
8
1
62
256
6
ByLayer
370
13
48
1
60
0
100
AcDbEllipse
10
173.056754
20
15.757522
30
0
11
-0.00653729335064164
21
0.149857478277354
31
0
210
0
220
0
230
1
40
0.092367
41
0.000809536043604682
42
1.57160586284002
0
ELLIPSE
5
22D
100
AcDbEntity
8
1
62
256
6
ByLayer
370
13
48
1
60
0
100
AcDbEllipse
10
172.841311
20
15.69414
30
0
11
-0.349225564348102
21
-0.269105877392179
31
0
210
0
220
0
230
1
40
0.479615
41
-2.35983386470017
42
-1.38169931929244
0
ELLIPSE
5
22E
100
AcDbEntity
8
1
62
256
6
ByLayer
370
13
48
1
60
0
100
AcDbEllipse
10
172.74058
20
6.788229
30
0
11
-0.0435852065197051
21
-0.158111345872573
31
0
210
0
220
0
230
1
40
0.080185
41
-1.54411081848215
42
0.0266855082519659
0
ELLIPSE
5
22F
100
AcDbEntity
8
1
62
256
6
ByLayer
370
13
48
1
60
0
100
AcDbEllipse
10
174.692633
20
10.959845
30
0
11
0.148731686424787
21
-0.0194649801756591
31
0
210
0
220
0
230
1
40
0.016833
41
-1.6617584171057
42
-0.0909620903084588
0
ELLIPSE
5
230
100
AcDbEntity
8
1
62
256
6
ByLayer
370
13
48
1
60
0
100
AcDbEllipse
10
162.400079
20
14.209113
30
0
11
-0.148731686424787
21
0.0194649801756622
31
0
210
0
220
0
230
1
40
0.016833
41
-0.090962090305622
42
1.4798342364841
0
ELLIPSE
5
231
100
AcDbEntity
8
1
62
256
6
ByLayer
370
13
48
1
60
0
100
AcDbEllipse
10
163.518137
20
5.454768
30
0
11
0.00653729335064122
21
-0.149857478277354
31
0
210
0
220
0
230
1
40
0.092367
41
-1.56998679074958
42
-0.0232440763764856
0
ELLIPSE
5
232
100
AcDbEntity
8
1
62
256
6
ByLayer
370
13
48
1
60
0
100
AcDbEllipse
10
173.06818
20
15.706029
30
0
11
0.0159614234594796
21
-0.304562102761011
31
0
210
0
220
0
230
1
40
0.995725
41
-2.96705972839037
42
-1.98892518297727
0
ELLIPSE
5
233
100
AcDbEntity
8
1
62
256
6
ByLayer
370
13
48
1
60
0
100
AcDbEllipse
10
164.20566
20
6.303564
30
0
11
0.0810190291751473
21
-0.126237541609129
31
0
210
0
220
0
230
1
40
0.080326
41
2.03172897797336E-05
42
1.52502535666884
0
ELLIPSE
5
234
100
AcDbEntity
8
1
62
256
6
ByLayer
370
13
48
1
60
0
100
AcDbEllipse
10
173.276625
20
10.884146
30
0
11
0.148731686424787
21
-0.0194649801756591
31
0
210
0
220
0
230
1
40
0.016833
41
-2.86301658541922
42
-1.6617584171057
0
ELLIPSE
5
235
100
AcDbEntity
8
1
62
256
6
ByLayer
370
13
48
1
60
0
100
AcDbEllipse
10
172.982971
20
11.081439
30
0
11
0.148163665863163
21
0.0233993187505352
31
0
210
0
220
0
230
1
40
0.009655
41
-1.47879775232123
42
-0.00021575477019495
0
ELLIPSE
5
236
100
AcDbEntity
8
1
62
256
6
ByLayer
370
13
48
1
60
0
100
AcDbEllipse
10
173.273918
20
14.015332
30
0
11
0.0994383168616036
21
-1.89739611603369
31
0
210
0
220
0
230
1
40
0.995725
41
3.10867844596303
42
3.1328660073298
0
ELLIPSE
5
237
100
AcDbEntity
8
1
62
256
6
ByLayer
370
13
48
1
60
0
100
AcDbEllipse
10
173.012439
20
15.725463
30
0
11
0.140162345718414
21
-0.0534276786199045
31
0
210
0
220
0
230
1
40
0.037507
41
-2.88911434935906
42
-1.65536943969377
0
ELLIPSE
5
238
100
AcDbEntity
8
1
62
256
6
ByLayer
370
13
48
1
60
0
100
AcDbEllipse
10
163.377372
20
5.448627
30
0
11
0.00653729335064122
21
-0.149857478277354
31
0
210
0
220
0
230
1
40
0.092367
41
-1.56998679074977
42
-0.0250600894878875
0
ELLIPSE
5
239
100
AcDbEntity
8
1
62
256
6
ByLayer
370
13
48
1
60
0
100
AcDbEllipse
10
164.20566
20
6.303564
30
0
11
0.00785039343644239
21
-0.149794430213186
31
0
210
0
220
0
230
1
40
0.995725
41
-1.46607657167532
42
-1.55852542762222E-05
0
ELLIPSE
5
23A
100
AcDbEntity
8
1
62
256
6
ByLayer
370
13
48
1
60
0
100
AcDbEllipse
10
161.883969
20
10.123314
30
0
11
-0.148163665863161
21
-0.0233993187505466
31
0
210
0
220
0
230
1
40
0.009655
41
-1.47879775232142
42
-0.264819008250051
0
ELLIPSE
5
23B
100
AcDbEntity
8
1
62
256
6
ByLayer
370
13
48
1
60
0
100
AcDbEllipse
10
173.574471
20
15.315246
30
0
11
0.0314015737457697
21
-0.599177720852747
31
0
210
0
220
0
230
1
40
0.995725
41
1.67551608191466
42
3.06978710609714
0
ELLIPSE
5
23C
100
AcDbEntity
8
1
62
256
6
ByLayer
370
13
48
1
60
0
100
AcDbEllipse
10
168.305894
20
10.607112
30
0
11
0.123446836077652
21
-2.35550595286506
31
0
210
0
220
0
230
1
40
0.995725
41
0
42
6.28318530717959
0
ELLIPSE
5
23D
100
AcDbEntity
8
1
62
256
6
ByLayer
370
13
48
1
60
0
100
AcDbEllipse
10
164.142038
20
10.217252
30
0
11
0.0366351693700645
21
-0.699040674328202
31
0
210
0
220
0
230
1
40
0.995725
41
-1.75405589825427
42
-1.4660765716752
0
ELLIPSE
5
23E
100
AcDbEntity
8
1
62
256
6
ByLayer
370
13
48
1
60
0
100
AcDbEllipse
10
173.197519
20
15.763663
30
0
11
-0.00653729335064164
21
0.149857478277354
31
0
210
0
220
0
230
1
40
0.092367
41
0.000809536043604682
42
1.57160586284002
0
ELLIPSE
5
23F
100
AcDbEntity
8
1
62
256
6
ByLayer
370
13
48
1
60
0
100
AcDbEllipse
10
170.228179
20
-4.294324
30
0
11
-4.02199070417721
21
-0.0182956206404927
31
0
210
0
220
0
230
1
40
0.989518
41
3.0068990385298
42
-2.98986292439161
0
ELLIPSE
5
240
100
AcDbEntity
8
1
62
256
6
ByLayer
370
13
48
1
60
0
100
AcDbEllipse
10
163.269662
20
6.753254
30
0
11
0.0994383168616036
21
-1.89739611603369
31
0
210
0
220
0
230
1
40
0.995725
41
-2.11405734037292
42
-1.14205879262468
0
ELLIPSE
5
241
100
AcDbEntity
8
1
62
256
6
ByLayer
370
13
48
1
60
0
100
AcDbEllipse
10
161.161853
20
7.885124
30
0
11
-0.0261679781214654
21
0.499314767377287
31
0
210
0
220
0
230
1
40
0.995725
41
-2.11405734037293
42
-1.46607657167532
0
ELLIPSE
5
242
100
AcDbEntity
8
1
62
256
6
ByLayer
370
13
48
1
60
0
100
AcDbEllipse
10
169.260002
20
-4.067752
30
0
11
1.5
21
0
31
0
210
0
220
0
230
1
40
0.994968
41
2.54233405363641
42
2.85079902986258
0
ELLIPSE
5
243
100
AcDbEntity
8
1
62
256
6
ByLayer
370
13
48
1
60
0
100
AcDbEllipse
10
162.63861
20
6.720182
30
0
11
-1.67600862631073
21
1.35038952616284
31
0
210
0
220
0
230
1
40
0.775936
41
3.13680032661928
42
-2.87148936643994
0
ELLIPSE
5
244
100
AcDbEntity
8
1
62
256
6
ByLayer
370
13
48
1
60
0
100
AcDbEllipse
10
162.257589
20
12.442324
30
0
11
-0.143594274769599
21
2.73994198446849
31
0
210
0
220
0
230
1
40
0.016833
41
0.316464450541532
42
0.873832985563899
0
ELLIPSE
5
245
100
AcDbEntity
8
1
62
256
6
ByLayer
370
13
48
1
60
0
100
AcDbEllipse
10
164.367299
20
6.339404
30
0
11
0.0261679781214745
21
-0.499314767377285
31
0
210
0
220
0
230
1
40
0.092371
41
-1.00824769397879
42
-0.529775189941491
0
ELLIPSE
5
246
100
AcDbEntity
8
1
62
256
6
ByLayer
370
13
48
1
60
0
100
AcDbEllipse
10
162.95314
20
14.787999
30
0
11
0.523359562429493
21
-9.98629534754574
31
0
210
0
220
0
230
1
40
0.995725
41
0.0127082648801515
42
0.202757981337676
0
ELLIPSE
5
247
100
AcDbEntity
8
1
62
256
6
ByLayer
370
13
48
1
60
0
100
AcDbEllipse
10
169.260002
20
-3.601844
30
0
11
-1.6
21
1.61702248813178E-15
31
0
210
0
220
0
230
1
40
0.994968
41
-2.92688437821523
42
-0.209799739622743
0
ELLIPSE
5
248
100
AcDbEntity
8
1
62
256
6
ByLayer
370
13
48
1
60
0
100
AcDbEllipse
10
165.270547
20
5.806675
30
0
11
-0.318392676635743
21
-0.395166625589988
31
0
210
0
220
0
230
1
40
0.966608
41
-2.16350494070269
42
-1.30988000459572
0
ELLIPSE
5
249
100
AcDbEntity
8
1
62
256
6
ByLayer
370
13
48
1
60
0
100
AcDbEllipse
10
165.216637
20
6.078891
30
0
11
0.253178718722045
21
-0.96741952450127
31
0
210
0
220
0
230
1
40
0.090478
41
-1.5894748306686
42
-0.0186785038732806
0
ELLIPSE
5
24A
100
AcDbEntity
8
1
62
256
6
ByLayer
370
13
48
1
60
0
100
AcDbEllipse
10
162.905298
20
6.734159
30
0
11
0.0994383168616036
21
-1.89739611603369
31
0
210
0
220
0
230
1
40
0.995725
41
-3.56751191154761E-05
42
0.983836204116054
0
ELLIPSE
5
24B
100
AcDbEntity
8
1
62
256
6
ByLayer
370
13
48
1
60
0
100
AcDbEllipse
10
137.701457
20
0
30
0
11
-168.395655632211
21
0.0763936463499581
31
0
210
0
220
0
230
1
40
0.092638
41
-1.77638398821119
42
-1.72060866345025
0
ELLIPSE
5
24C
100
AcDbEntity
8
1
62
256
6
ByLayer
370
13
48
1
60
0
100
AcDbEllipse
10
185.942941
20
8.6E-05
30
0
11
-168.395176171233
21
0.0763806399141033
31
0
210
0
220
0
230
1
40
0.092638
41
-1.42875106401305
42
-1.41757107135134
0
ELLIPSE
5
24D
100
AcDbEntity
8
1
62
256
6
ByLayer
370
13
48
1
60
0
100
AcDbEllipse
10
156
20
4.545126
30
0
11
-2
21
2.02127811016473E-15
31
0
210
0
220
0
230
1
40
0.756597
41
-3.09883840129323
42
-1.70091352004105
0
ELLIPSE
5
24E
100
AcDbEntity
8
1
62
256
6
ByLayer
370
13
48
1
60
0
100
AcDbEllipse
10
174.044863
20
5.533014
30
0
11
-0.00926282566638695
21
0.500197560261415
31
0
210
0
220
0
230
1
40
0.105082
41
1.92341986417987
42
-2.78896911622035
0
ELLIPSE
5
24F
100
AcDbEntity
8
1
62
256
6
ByLayer
370
13
48
1
60
0
100
AcDbEllipse
10
161.780932
20
8.02224
30
0
11
0.493878886210541
21
0.0779977291684506
31
0
210
0
220
0
230
1
40
0.009655
41
1.66279490126863
42
1.8441982341361
0
ELLIPSE
5
250
100
AcDbEntity
8
1
62
256
6
ByLayer
370
13
48
1
60
0
100
AcDbEllipse
10
161.46073
20
5.607011
30
0
11
-3.96879667260159
21
-0.70490665234914
31
0
210
0
220
0
230
1
40
0.015321
41
-3.01817314085882
42
-2.75435719868757
0
ELLIPSE
5
251
100
AcDbEntity
8
1
62
256
6
ByLayer
370
13
48
1
60
0
100
AcDbEllipse
10
167.407439
20
6.419351
30
0
11
0.0523359562429493
21
-0.998629534754574
31
0
210
0
220
0
230
1
40
0.092371
41
-1.36943840600464
42
0
0
ELLIPSE
5
252
100
AcDbEntity
8
1
62
256
6
ByLayer
370
13
48
1
60
0
100
AcDbEllipse
10
177.32157
20
0
30
0
11
-31.1613281237038
21
12.9356479158238
31
0
210
0
220
0
230
1
40
0.270523
41
0.887199188405232
42
0.914335549325547
0
ELLIPSE
5
253
100
AcDbEntity
8
1
62
256
6
ByLayer
370
13
48
1
60
0
100
AcDbEllipse
10
173.241253
20
-9.256246
30
0
11
-0.238136344684778
21
-1.98672641029973
31
0
210
0
220
0
230
1
40
0.117533
41
0
42
6.28318530717959
0
ELLIPSE
5
254
100
AcDbEntity
8
1
62
256
6
ByLayer
370
13
48
1
60
0
100
AcDbEllipse
10
156
20
3.885052
30
0
11
-2.89229616345071
21
1.02833423441114
31
0
210
0
220
0
230
1
40
0.774682
41
1.61169299827992
42
1.66492496542905
0
ELLIPSE
5
255
100
AcDbEntity
8
1
62
256
6
ByLayer
370
13
48
1
60
0
100
AcDbEllipse
10
166.730839
20
5.883206
30
0
11
-3.96879667313364
21
-0.704906652444928
31
0
210
0
220
0
230
1
40
0.015321
41
-3.01817314107565
42
-2.75435719871468
0
ELLIPSE
5
256
100
AcDbEntity
8
1
62
256
6
ByLayer
370
13
48
1
60
0
100
AcDbEllipse
10
162.722322
20
0
30
0
11
-0.824648102068623
21
15.5998129369941
31
0
210
0
220
0
230
1
40
0.092638
41
-0.142045691629788
42
-0.00489871182789825
0
ELLIPSE
5
257
100
AcDbEntity
8
1
62
256
6
ByLayer
370
13
48
1
60
0
100
AcDbEllipse
10
175.241707
20
0
30
0
11
-1.90515203661268
21
-15.5984362579929
31
0
210
0
220
0
230
1
40
0.115936
41
-1.31874406477928
42
-0.0791531705663738
0
ELLIPSE
5
258
100
AcDbEntity
8
1
62
256
6
ByLayer
370
13
48
1
60
0
100
AcDbEllipse
10
173.964617
20
0.059974
30
0
11
-0.010418116134677
21
0.505574965697467
31
0
210
0
220
0
230
1
40
0.10238
41
-0.115071948581594
42
0.319026111748808
0
ELLIPSE
5
259
100
AcDbEntity
8
1
62
256
6
ByLayer
370
13
48
1
60
0
100
AcDbEllipse
10
177.629742
20
0.365661
30
0
11
-4.021990710252
21
-0.0182956473475891
31
0
210
0
220
0
230
1
40
0.989518
41
0.0196091055434229
42
0.15172972251728
0
ELLIPSE
5
25A
100
AcDbEntity
8
1
62
256
6
ByLayer
370
13
48
1
60
0
100
AcDbEllipse
10
163.104894
20
6.744619
30
0
11
-1.2098921562866
21
-1.50163318479354
31
0
210
0
220
0
230
1
40
0.966608
41
1.63127555099992
42
1.83171264067276
0
ELLIPSE
5
25B
100
AcDbEntity
8
1
62
256
6
ByLayer
370
13
48
1
60
0
100
AcDbEllipse
10
161.675743
20
7.394416
30
0
11
0.441399848022376
21
-0.234874805302364
31
0
210
0
220
0
230
1
40
0.047749
41
-1.92593779008522
42
-1.65004130108368
0
ELLIPSE
5
25C
100
AcDbEntity
8
1
62
256
6
ByLayer
370
13
48
1
60
0
100
AcDbEllipse
10
156
20
3.618392
30
0
11
-0.295942716006314
21
8.49563625280046
31
0
210
0
220
0
230
1
40
0.3514
41
-0.538513969116134
42
-0.424676545341071
0
ELLIPSE
5
25D
100
AcDbEntity
8
1
62
256
6
ByLayer
370
13
48
1
60
0
100
AcDbEllipse
10
174.072726
20
-0.38238
30
0
11
-0.0208362322742519
21
1.01114993155069
31
0
210
0
220
0
230
1
40
0.10238
41
-0.115071948572832
42
0.482265126702231
0
ELLIPSE
5
25E
100
AcDbEntity
8
1
62
256
6
ByLayer
370
13
48
1
60
0
100
AcDbEllipse
10
167.983134
20
-4.565574
30
0
11
-0.523359562429308
21
9.98629534754575
31
0
210
0
220
0
230
1
40
0.995725
41
0
42
0.202757981337671
0
ELLIPSE
5
25F
100
AcDbEntity
8
1
62
256
6
ByLayer
370
13
48
1
60
0
100
AcDbEllipse
10
163.248187
20
9.994533
30
0
11
0.0994383168616036
21
-1.89739611603369
31
0
210
0
220
0
230
1
40
0.995725
41
-2.08866466956344
42
-1.46607657167528
0
ELLIPSE
5
260
100
AcDbEntity
8
1
62
256
6
ByLayer
370
13
48
1
60
0
100
AcDbEllipse
10
162.860896
20
14.783164
30
0
11
-0.471023606186377
21
8.98766581279117
31
0
210
0
220
0
230
1
40
0.995725
41
-2.94972861319054
42
-2.93883467225212
0
ELLIPSE
5
261
100
AcDbEntity
8
1
62
256
6
ByLayer
370
13
48
1
60
0
100
AcDbEllipse
10
162.860896
20
14.783164
30
0
11
-0.471023606186377
21
8.98766581279117
31
0
210
0
220
0
230
1
40
0.995725
41
2.79252680319577
42
2.947019194935
0
ELLIPSE
5
262
100
AcDbEntity
8
1
62
256
6
ByLayer
370
13
48
1
60
0
100
AcDbEllipse
10
343.691559
20
-0.070952
30
0
11
-274.006041165413
21
0.123950384379596
31
0
210
0
220
0
230
1
40
0.075746
41
-0.837245620369047
42
-0.822406621975884
0
ELLIPSE
5
263
100
AcDbEntity
8
1
62
256
6
ByLayer
370
13
48
1
60
0
100
AcDbEllipse
10
169.545623
20
8.233742
30
0
11
-1.20989217018453
21
-1.50163317828391
31
0
210
0
220
0
230
1
40
0.966608
41
0.713732916183719
42
1.12487077848888
0
ELLIPSE
5
264
100
AcDbEntity
8
1
62
256
6
ByLayer
370
13
48
1
60
0
100
AcDbEllipse
10
176.590129
20
1.347729
30
0
11
-3.87911053800195
21
-1.35894483108695
31
0
210
0
220
0
230
1
40
0.865323
41
-0.379438733706175
42
-0.231886664362468
0
ELLIPSE
5
265
100
AcDbEntity
8
1
62
256
6
ByLayer
370
13
48
1
60
0
100
AcDbEllipse
10
165.470567
20
5.817158
30
0
11
-0.0261679781214654
21
0.499314767377287
31
0
210
0
220
0
230
1
40
0.995725
41
0.927295218001653
42
1.03457864254511
0
ELLIPSE
5
266
100
AcDbEntity
8
1
62
256
6
ByLayer
370
13
48
1
60
0
100
AcDbEllipse
10
185.943062
20
8E-06
30
0
11
-166.668473149409
21
0.075608542003527
31
0
210
0
220
0
230
1
40
0.092638
41
-1.39772602634204
42
-1.38246746752329
0
ELLIPSE
5
267
100
AcDbEntity
8
1
62
256
6
ByLayer
370
13
48
1
60
0
100
AcDbEllipse
10
173.910051
20
0
30
0
11
-2.64287061534375
21
15.5983291590543
31
0
210
0
220
0
230
1
40
0.086386
41
1.60562212707449
42
1.71745156691043
0
ELLIPSE
5
268
100
AcDbEntity
8
1
62
256
6
ByLayer
370
13
48
1
60
0
100
AcDbEllipse
10
173.65259
20
7.748018
30
0
11
-0.0581240001212048
21
1.89943471753342
31
0
210
0
220
0
230
1
40
0.530012
41
3.09934576086852
42
-3.13005364175814
0
ELLIPSE
5
269
100
AcDbEntity
8
1
62
256
6
ByLayer
370
13
48
1
60
0
100
AcDbEllipse
10
169.565403
20
-4.48265
30
0
11
-7.82823022542036
21
6.99149993597649
31
0
210
0
220
0
230
1
40
0.903871
41
-0.738971481915348
42
-0.696098155099663
0
ELLIPSE
5
26A
100
AcDbEntity
8
1
62
256
6
ByLayer
370
13
48
1
60
0
100
AcDbEllipse
10
170.540655
20
6.08287
30
0
11
-0.318392690004997
21
-0.395166612494799
31
0
210
0
220
0
230
1
40
0.966608
41
-2.16350490414068
42
-2.01672183736503
0
ELLIPSE
5
26B
100
AcDbEntity
8
1
62
256
6
ByLayer
370
13
48
1
60
0
100
AcDbEllipse
10
173.604802
20
6.744141
30
0
11
-0.0185256513307172
21
1.0003951204296
31
0
210
0
220
0
230
1
40
0.105082
41
-3.13803496661588
42
-2.68074514767682
0
ELLIPSE
5
26C
100
AcDbEntity
8
1
62
256
6
ByLayer
370
13
48
1
60
0
100
AcDbEllipse
10
590.256052
20
0
30
0
11
-657.126719409954
21
11.542908417038
31
0
210
0
220
0
230
1
40
0.015969
41
0.857720339443832
42
0.882427633930729
0
ELLIPSE
5
26D
100
AcDbEntity
8
1
62
256
6
ByLayer
370
13
48
1
60
0
100
AcDbEllipse
10
3.5
20
-25.168186
30
0
11
-0.5
21
5.05319527541181E-16
31
0
210
0
220
0
230
1
40
0.5
41
1.5707963267949
42
3.14159265358979
0
ELLIPSE
5
26E
100
AcDbEntity
8
1
62
256
6
ByLayer
370
13
48
1
60
0
100
AcDbEllipse
10
169.260002
20
-3.601844
30
0
11
1.49999999999995
21
0
31
0
210
0
220
0
230
1
40
0.994968
41
0.0638134706366261
42
3.07267411640818
0
ELLIPSE
5
26F
100
AcDbEntity
8
1
62
256
6
ByLayer
370
13
48
1
60
0
100
AcDbEllipse
10
160.751367
20
7.863611
30
0
11
0.0523359562429493
21
-0.998629534754574
31
0
210
0
220
0
230
1
40
0.995725
41
1.02753531321686
42
1.6755160819145
0
ELLIPSE
5
270
100
AcDbEntity
8
1
62
256
6
ByLayer
370
13
48
1
60
0
100
AcDbEllipse
10
162.859176
20
6.731742
30
0
11
-0.0732703387401028
21
1.3980813486564
31
0
210
0
220
0
230
1
40
0.995725
41
1.02753531321686
42
2.82647361116649
0
ELLIPSE
5
271
100
AcDbEntity
8
1
62
256
6
ByLayer
370
13
48
1
60
0
100
AcDbEllipse
10
174.112078
20
-1.39346
30
0
11
-1.53010162138016
21
2.39396953821879
31
0
210
0
220
0
230
1
40
0.396014
41
-0.919504360184037
42
-0.760048686680058
0
ELLIPSE
5
272
100
AcDbEntity
8
1
62
256
6
ByLayer
370
13
48
1
60
0
100
AcDbEllipse
10
167.89089
20
-4.570408
30
0
11
0.575695518672441
21
-10.9849248823003
31
0
210
0
220
0
230
1
40
0.995725
41
-2.95061001926911
42
-2.93883467225212
0
ELLIPSE
5
273
100
AcDbEntity
8
1
62
256
6
ByLayer
370
13
48
1
60
0
100
AcDbEllipse
10
160.334937
20
6.181945
30
0
11
-0.29369042064903
21
-0.95590058940195
31
0
210
0
220
0
230
1
40
0.0868
41
-1.53907871771946
42
-0.312754860122478
0
ELLIPSE
5
274
100
AcDbEntity
8
1
62
256
6
ByLayer
370
13
48
1
60
0
100
AcDbEllipse
10
173.735462
20
-8.890401
30
0
11
-0.0643376400914236
21
-0.516044089113134
31
0
210
0
220
0
230
1
40
0.112451
41
-1.63756713849618
42
-0.0667708116970755
0
POINT
5
70
100
AcDbEntity
8
1
62
256
6
ByLayer
370
18
48
1
60
0
100
AcDbPoint
10
0
20
0
30
0
39
0
210
0
220
0
230
1
50
360
0
POINT
5
72
100
AcDbEntity
8
80
62
256
6
ByLayer
370
18
48
1
60
0
100
AcDbPoint
10
0
20
0
30
0
39
0
210
0
220
0
230
1
50
360
0
POINT
5
74
100
AcDbEntity
8
81
62
256
6
ByLayer
370
18
48
1
60
0
100
AcDbPoint
10
176
20
0
30
0
39
0
210
0
220
0
230
1
50
360
0
POINT
5
76
100
AcDbEntity
8
1
62
256
6
ByLayer
370
18
48
1
60
1
100
AcDbPoint
10
0
20
-31.25
30
0
39
0
210
0
220
0
230
1
50
360
0
POINT
5
77
100
AcDbEntity
8
1
62
256
6
ByLayer
370
18
48
1
60
1
100
AcDbPoint
10
176
20
-16
30
0
39
0
210
0
220
0
230
1
50
360
0
POINT
5
78
100
AcDbEntity
8
1
62
256
6
ByLayer
370
18
48
1
60
1
100
AcDbPoint
10
-15
20
-20
30
0
39
0
210
0
220
0
230
1
50
360
0
POINT
5
79
100
AcDbEntity
8
1
62
256
6
ByLayer
370
18
48
1
60
1
100
AcDbPoint
10
0
20
-31.25
30
0
39
0
210
0
220
0
230
1
50
360
0
POINT
5
7A
100
AcDbEntity
8
1
62
256
6
ByLayer
370
18
48
1
60
1
100
AcDbPoint
10
176
20
-16
30
0
39
0
210
0
220
0
230
1
50
360
0
POINT
5
7B
100
AcDbEntity
8
1
62
256
6
ByLayer
370
18
48
1
60
1
100
AcDbPoint
10
15.9403
20
-31.25
30
0
39
0
210
0
220
0
230
1
50
360
0
POINT
5
7C
100
AcDbEntity
8
1
62
256
6
ByLayer
370
18
48
1
60
1
100
AcDbPoint
10
44
20
-16
30
0
39
0
210
0
220
0
230
1
50
360
0
POINT
5
7D
100
AcDbEntity
8
1
62
256
6
ByLayer
370
18
48
1
60
1
100
AcDbPoint
10
176
20
-16
30
0
39
0
210
0
220
0
230
1
50
360
0
POINT
5
7E
100
AcDbEntity
8
1
62
256
6
ByLayer
370
18
48
1
60
1
100
AcDbPoint
10
175.1684
20
-8
30
0
39
0
210
0
220
0
230
1
50
360
0
SPLINE
5
275
100
AcDbEntity
8
SK1
62
256
6
ByLayer
370
13
48
1
60
0
100
AcDbSpline
70
4
71
3
72
8
73
4
40
0
40
0
40
0
40
0
40
1
40
1
40
1
40
1
41
1
10
-0.5
20
-4.071
30
0
41
1
10
-0.666678464072504
20
-4.071
30
0
41
1
10
-0.833345333791215
20
-4.071
30
0
41
1
10
-1
20
-4.071
30
0
0
SPLINE
5
276
100
AcDbEntity
8
SK1
62
256
6
ByLayer
370
13
48
1
60
0
100
AcDbSpline
70
4
71
3
72
8
73
4
40
0
40
0
40
0
40
0
40
1
40
1
40
1
40
1
41
1
10
-0.999999999999986
20
4.071
30
0
41
1
10
-0.8333453337912
20
4.071
30
0
41
1
10
-0.666678464072504
20
4.071
30
0
41
1
10
-0.5
20
4.071
30
0
0
SPLINE
5
277
100
AcDbEntity
8
SK1
62
256
6
ByLayer
370
13
48
1
60
0
100
AcDbSpline
70
4
71
3
72
8
73
4
40
0
40
0
40
0
40
0
40
1
40
1
40
1
40
1
41
1
10
-0.500000000000043
20
-28.8681684146396
30
0
41
1
10
-0.666678466824436
20
-28.722579966043
30
0
41
1
10
-0.83334532788767
20
-28.5769815514549
30
0
41
1
10
-1.00000000000003
20
-28.43137267453
30
0
0
SPLINE
5
278
100
AcDbEntity
8
SK1
62
256
6
ByLayer
370
13
48
1
60
0
100
AcDbSpline
70
4
71
3
72
8
73
4
40
0
40
0
40
0
40
0
40
1
40
1
40
1
40
1
41
1
10
-1.00000000000003
20
-24.36037267453
30
0
41
1
10
-0.83334532788767
20
-24.5059815514549
30
0
41
1
10
-0.666678466824422
20
-24.6515799660429
30
0
41
1
10
-0.500000000000028
20
-24.7971684146396
30
0
0
SPLINE
5
279
100
AcDbEntity
8
1
62
256
6
ByLayer
370
18
48
1
60
0
100
AcDbSpline
70
4
71
3
72
18
73
14
40
0
40
0
40
0
40
0
40
0.125000000000032
40
0.125000000000032
40
0.250000000000065
40
0.250000000000065
40
0.375000000000097
40
0.375000000000097
40
0.500000000000129
40
0.500000000000129
40
0.750000000000065
40
0.750000000000065
40
1
40
1
40
1
40
1
41
1
10
167.421809243296
20
11.3810064606279
30
0
41
1
10
167.411198578568
20
11.390169803561
30
0
41
1
10
167.403393700063
20
11.4024123068364
30
0
41
1
10
167.395762445261
20
11.4311570445683
30
0
41
1
10
167.395996741983
20
11.4470579441133
30
0
41
1
10
167.401958855259
20
11.4783437243948
30
0
41
1
10
167.407636723502
20
11.4939432837344
30
0
41
1
10
167.421773490612
20
11.5234434103533
30
0
41
1
10
167.430348021104
20
11.5376489653283
30
0
41
1
10
167.459007280844
20
11.578594740581
30
0
41
1
10
167.481716909476
20
11.6033887124005
30
0
41
1
10
167.530913963933
20
11.6486290601191
30
0
41
1
10
167.557439705849
20
11.6690330423324
30
0
41
1
10
167.585349807301
20
11.6872318586075
30
0
0
SPLINE
5
27A
100
AcDbEntity
8
1
62
256
6
ByLayer
370
18
48
1
60
0
100
AcDbSpline
70
4
71
3
72
18
73
14
40
0
40
0
40
0
40
0
40
0.125
40
0.125
40
0.25
40
0.25
40
0.375
40
0.375
40
0.5
40
0.5
40
0.75
40
0.75
40
1
40
1
40
1
40
1
41
1
10
169.133488779543
20
9.83025685382694
30
0
41
1
10
169.145654502982
20
9.8211750080676
30
0
41
1
10
169.155008776265
20
9.80901370513169
30
0
41
1
10
169.165414795781
20
9.78041438665653
30
0
41
1
10
169.166359227803
20
9.76457526166743
30
0
41
1
10
169.162324506021
20
9.73339049169388
30
0
41
1
10
169.157416051923
20
9.71783125564099
30
0
41
1
10
169.144532914574
20
9.68839682897385
30
0
41
1
10
169.136456611345
20
9.67421738498334
30
0
41
1
10
169.109040728908
20
9.63333677237392
30
0
41
1
10
169.08682568995
20
9.60856872090082
30
0
41
1
10
169.038273688219
20
9.56336217896316
30
0
41
1
10
169.011890279861
20
9.54296565613558
30
0
41
1
10
168.983980178409
20
9.52476683986049
30
0
0
SPLINE
5
27B
100
AcDbEntity
8
1
62
256
6
ByLayer
370
18
48
1
60
0
100
AcDbSpline
70
4
71
3
72
8
73
4
40
0
40
0
40
0
40
0
40
1
40
1
40
1
40
1
41
1
10
168.507689300453
20
11.7196371182772
30
0
41
1
10
168.511138656602
20
11.7255464615735
30
0
41
1
10
168.514587680297
20
11.7314548345643
30
0
41
1
10
168.518036387282
20
11.7373622842401
30
0
0
SPLINE
5
27C
100
AcDbEntity
8
1
62
256
6
ByLayer
370
18
48
1
60
0
100
AcDbSpline
70
4
71
3
72
18
73
14
40
0
40
0
40
0
40
0
40
0.125000000000043
40
0.125000000000043
40
0.250000000000086
40
0.250000000000086
40
0.500000000000058
40
0.500000000000058
40
0.75000000000003
40
0.75000000000003
40
0.875000000000015
40
0.875000000000015
40
1
40
1
40
1
40
1
41
1
10
167.930375675393
20
11.6893813932379
30
0
41
1
10
167.942766804601
20
11.6689415799701
30
0
41
1
10
167.962085480452
20
11.6535005568564
30
0
41
1
10
168.005690986111
20
11.6288299533275
30
0
41
1
10
168.029991944115
20
11.6197885462728
30
0
41
1
10
168.10614379143
20
11.5996284495417
30
0
41
1
10
168.161403710381
20
11.5953026943562
30
0
41
1
10
168.272488474516
20
11.6011273318878
30
0
41
1
10
168.328286587949
20
11.6112694420291
30
0
41
1
10
168.405800712429
20
11.6395082456172
30
0
41
1
10
168.430636604812
20
11.6511469355761
30
0
41
1
10
168.475167412091
20
11.6803939580793
30
0
41
1
10
168.494984074838
20
11.6978708707268
30
0
41
1
10
168.507689300453
20
11.7196371182771
30
0
0
SPLINE
5
27D
100
AcDbEntity
8
1
62
256
6
ByLayer
370
18
48
1
60
0
100
AcDbSpline
70
4
71
3
72
18
73
14
40
0
40
0
40
0
40
0
40
0.12499999999997
40
0.12499999999997
40
0.249999999999939
40
0.249999999999939
40
0.499999999999959
40
0.499999999999959
40
0.74999999999998
40
0.74999999999998
40
0.87499999999999
40
0.87499999999999
40
1
40
1
40
1
40
1
41
1
10
167.169024144456
20
10.8467588426688
30
0
41
1
10
167.192155847014
20
10.848367258315
30
0
41
1
10
167.214517263113
20
10.8583794500356
30
0
41
1
10
167.256531905412
20
10.8855761407591
30
0
41
1
10
167.276035175987
20
10.9028589609318
30
0
41
1
10
167.330419193954
20
10.9606213954974
30
0
41
1
10
167.361401693526
20
11.0070685963458
30
0
41
1
10
167.411878292963
20
11.1065959898362
30
0
41
1
10
167.431365898532
20
11.1596492235384
30
0
41
1
10
167.446789692288
20
11.2395745689528
30
0
41
1
10
167.449596852286
20
11.2663256148076
30
0
41
1
10
167.447667994542
20
11.3180758277911
30
0
41
1
10
167.443102963867
20
11.3431200201788
30
0
41
1
10
167.431366227079
20
11.3640016634336
30
0
0
SPLINE
5
27E
100
AcDbEntity
8
1
62
256
6
ByLayer
370
18
48
1
60
0
100
AcDbSpline
70
4
71
3
72
8
73
4
40
0
40
0
40
0
40
0
40
1
40
1
40
1
40
1
41
1
10
167.431366227079
20
11.3640016634336
30
0
41
1
10
167.428179807063
20
11.369670844504
30
0
41
1
10
167.42499415838
20
11.3753390952171
30
0
41
1
10
167.421809243296
20
11.381006460628
30
0
0
SPLINE
5
27F
100
AcDbEntity
8
1
62
256
6
ByLayer
370
18
48
1
60
0
100
AcDbSpline
70
4
71
3
72
8
73
4
40
0
40
0
40
0
40
0
40
1
40
1
40
1
40
1
41
1
10
168.045560769536
20
9.49151886751682
30
0
41
1
10
168.042793701416
20
9.48564528142091
30
0
41
1
10
168.040027334874
20
9.4797726849755
30
0
41
1
10
168.037261635556
20
9.47390103021476
30
0
0
SPLINE
5
280
100
AcDbEntity
8
1
62
256
6
ByLayer
370
18
48
1
60
0
100
AcDbSpline
70
4
71
3
72
18
73
14
40
0
40
0
40
0
40
0
40
0.124999999999986
40
0.124999999999986
40
0.249999999999971
40
0.249999999999971
40
0.499999999999944
40
0.499999999999944
40
0.749999999999917
40
0.749999999999917
40
0.874999999999958
40
0.874999999999958
40
1
40
1
40
1
40
1
41
1
10
168.622874394596
20
9.52177459255606
30
0
41
1
10
168.607971484701
20
9.542082768976
30
0
41
1
10
168.586431726572
20
9.55740739009985
30
0
41
1
10
168.538992784849
20
9.5818770917576
30
0
41
1
10
168.513098739762
20
9.59083500865611
30
0
41
1
10
168.433107711456
20
9.61079390243717
30
0
41
1
10
168.376541615213
20
9.61505120377151
30
0
41
1
10
168.265457357608
20
9.60922659278606
30
0
41
1
10
168.210964897123
20
9.59915290901628
30
0
41
1
10
168.137293777499
20
9.57111550877846
30
0
41
1
10
168.114053950174
20
9.55956046504485
30
0
41
1
10
168.07335018412
20
9.53051400927345
30
0
41
1
10
168.055752881699
20
9.51315340837203
30
0
41
1
10
168.045560769536
20
9.49151886751682
30
0
0
SPLINE
5
281
100
AcDbEntity
8
1
62
256
6
ByLayer
370
18
48
1
60
0
100
AcDbSpline
70
4
71
3
72
16
73
12
40
0
40
0
40
0
40
0
40
0.250000000000014
40
0.250000000000014
40
0.500000000000029
40
0.500000000000029
40
0.750000000000043
40
0.750000000000043
40
0.875000000000022
40
0.875000000000022
40
1
40
1
40
1
40
1
41
1
10
167.702200301698
20
9.45759160299238
30
0
41
1
10
167.672526709226
20
9.47278053704267
30
0
41
1
10
167.643980599616
20
9.49032386019942
30
0
41
1
10
167.59033484431
20
9.53017367020072
30
0
41
1
10
167.565097937388
20
9.55252708438618
30
0
41
1
10
167.521477637158
20
9.6027471171362
30
0
41
1
10
167.502505785125
20
9.63102671768195
30
0
41
1
10
167.488739742412
20
9.67685768540744
30
0
41
1
10
167.486901891103
20
9.69271120987401
30
0
41
1
10
167.491490909957
20
9.72181614853284
30
0
41
1
10
167.497956083189
20
9.73482728224346
30
0
41
1
10
167.507546359749
20
9.74504482236344
30
0
0
SPLINE
5
282
100
AcDbEntity
8
1
62
256
6
ByLayer
370
18
48
1
60
0
100
AcDbSpline
70
4
71
3
72
16
73
12
40
0
40
0
40
0
40
0
40
0.24999999999995
40
0.24999999999995
40
0.4999999999999
40
0.4999999999999
40
0.74999999999985
40
0.74999999999985
40
0.874999999999925
40
0.874999999999925
40
1
40
1
40
1
40
1
41
1
10
168.983980178409
20
9.52476683986049
30
0
41
1
10
168.956056816916
20
9.50655937735942
30
0
41
1
10
168.926627545576
20
9.49057080019642
30
0
41
1
10
168.865285214373
20
9.46412637870353
30
0
41
1
10
168.83326470473
20
9.45357217074357
30
0
41
1
10
168.767712833547
20
9.4414625061103
30
0
41
1
10
168.733534867585
20
9.43959644806154
30
0
41
1
10
168.686343807546
20
9.45178059319957
30
0
41
1
10
168.671430331444
20
9.45861615801505
30
0
41
1
10
168.647873959631
20
9.47833170399929
30
0
41
1
10
168.639461200585
20
9.49111889609975
30
0
41
1
10
168.63501758336
20
9.50522809199236
30
0
0
SPLINE
5
283
100
AcDbEntity
8
1
62
256
6
ByLayer
370
18
48
1
60
0
100
AcDbSpline
70
4
71
3
72
8
73
4
40
0
40
0
40
0
40
0
40
1
40
1
40
1
40
1
41
1
10
168.63501758336
20
9.50522809199236
30
0
41
1
10
168.630970272116
20
9.51074269199933
30
0
41
1
10
168.626922549384
20
9.51625817715811
30
0
41
1
10
168.622874394596
20
9.52177459255606
30
0
0
SPLINE
5
284
100
AcDbEntity
8
1
62
256
6
ByLayer
370
18
48
1
60
0
100
AcDbSpline
70
4
71
3
72
8
73
4
40
0
40
0
40
0
40
0
40
1
40
1
40
1
40
1
41
1
10
169.047751663089
20
11.4662184920914
30
0
41
1
10
169.044493588633
20
11.4602134639068
30
0
41
1
10
169.041235227649
20
11.4542074969574
30
0
41
1
10
169.037976565932
20
11.4482005434661
30
0
0
SPLINE
5
285
100
AcDbEntity
8
1
62
256
6
ByLayer
370
18
48
1
60
0
100
AcDbSpline
70
4
71
3
72
8
73
4
40
0
40
0
40
0
40
0
40
1
40
1
40
1
40
1
41
1
10
167.507546359749
20
9.74504482236344
30
0
41
1
10
167.510121426538
20
9.75101405563302
30
0
41
1
10
167.512697130368
20
9.75698424603704
30
0
41
1
10
167.515273504057
20
9.76295544232784
30
0
0
SPLINE
5
286
100
AcDbEntity
8
1
62
256
6
ByLayer
370
18
48
1
60
0
100
AcDbSpline
70
4
71
3
72
16
73
12
40
0
40
0
40
0
40
0
40
0.249999999999953
40
0.249999999999953
40
0.499999999999906
40
0.499999999999906
40
0.74999999999986
40
0.74999999999986
40
0.87499999999993
40
0.87499999999993
40
1
40
1
40
1
40
1
41
1
10
167.585349807301
20
11.6872318586075
30
0
41
1
10
167.613273168794
20
11.7054393211085
30
0
41
1
10
167.64255975738
20
11.7214204205853
30
0
41
1
10
167.703256733103
20
11.7478310204306
30
0
41
1
10
167.734780417254
20
11.7583591908698
30
0
41
1
10
167.798676311982
20
11.7703820694545
30
0
41
1
10
167.831708063327
20
11.7721880569406
30
0
41
1
10
167.875998166375
20
11.7598518790889
30
0
41
1
10
167.889723610366
20
11.7529540521488
30
0
41
1
10
167.910528219616
20
11.7330942923995
30
0
41
1
10
167.917391162702
20
11.7202258778863
30
0
41
1
10
167.920280439479
20
11.7060352224625
30
0
0
SPLINE
5
287
100
AcDbEntity
8
1
62
256
6
ByLayer
370
18
48
1
60
0
100
AcDbSpline
70
4
71
3
72
18
73
14
40
0
40
0
40
0
40
0
40
0.12500000000003
40
0.12500000000003
40
0.25000000000006
40
0.25000000000006
40
0.50000000000003
40
0.50000000000003
40
0.75
40
0.75
40
0.875
40
0.875
40
1
40
1
40
1
40
1
41
1
10
169.352948108369
20
10.9612134477405
30
0
41
1
10
169.327235094157
20
10.960262453998
30
0
41
1
10
169.301701282791
20
10.9677825019524
30
0
41
1
10
169.253192109841
20
10.9902804291916
30
0
41
1
10
169.230376927867
20
11.0053722222188
30
0
41
1
10
169.166362439072
20
11.0570188558848
30
0
41
1
10
169.129364584134
20
11.0999753741642
30
0
41
1
10
169.068759956871
20
11.193814283142
30
0
41
1
10
169.045314202648
20
11.2444047753481
30
0
41
1
10
169.025550369985
20
11.3220294772593
30
0
41
1
10
169.021526036784
20
11.3485549503662
30
0
41
1
10
169.021799084174
20
11.4001662249393
30
0
41
1
10
169.025904131447
20
11.4259464530513
30
0
41
1
10
169.037976565932
20
11.4482005434661
30
0
0
SPLINE
5
288
100
AcDbEntity
8
1
62
256
6
ByLayer
370
18
48
1
60
0
100
AcDbSpline
70
4
71
3
72
18
73
14
40
0
40
0
40
0
40
0
40
0.125
40
0.125
40
0.25
40
0.25
40
0.375
40
0.375
40
0.5
40
0.5
40
0.75
40
0.75
40
1
40
1
40
1
40
1
41
1
10
168.037261635556
20
9.47390103021476
30
0
41
1
10
168.035870871567
20
9.45947943986531
30
0
41
1
10
168.030416456194
20
9.44596196225561
30
0
41
1
10
168.011591526249
20
9.42386605763815
30
0
41
1
10
167.998673164836
20
9.41565928328254
30
0
41
1
10
167.970200185761
20
9.40445150662299
30
0
41
1
10
167.954501471476
20
9.40129159851332
30
0
41
1
10
167.922957164478
20
9.39835216190602
30
0
41
1
10
167.906801535106
20
9.39851528285934
30
0
41
1
10
167.858112348862
20
9.40249206969273
30
0
41
1
10
167.82575002766
20
9.40966015479779
30
0
41
1
10
167.762618203424
20
9.42959020054849
30
0
41
1
10
167.731859802993
20
9.4424098817515
30
0
41
1
10
167.702200301698
20
9.45759160299238
30
0
0
SPLINE
5
289
100
AcDbEntity
8
1
62
256
6
ByLayer
370
18
48
1
60
0
100
AcDbSpline
70
4
71
3
72
18
73
14
40
0
40
0
40
0
40
0
40
0.124999999999997
40
0.124999999999997
40
0.249999999999995
40
0.249999999999995
40
0.499999999999996
40
0.499999999999996
40
0.749999999999998
40
0.749999999999998
40
0.874999999999999
40
0.874999999999999
40
1
40
1
40
1
40
1
41
1
10
167.515273504057
20
9.76295544232784
30
0
41
1
10
167.524758187063
20
9.78493785281793
30
0
41
1
10
167.526690386173
20
9.81033286665726
30
0
41
1
10
167.523182804781
20
9.86209970997416
30
0
41
1
10
167.51758857381
20
9.88838219212343
30
0
41
1
10
167.493901153967
20
9.96620412194514
30
0
41
1
10
167.468970645942
20
10.0169428510534
30
0
41
1
10
167.40836273451
20
10.1106456202853
30
0
41
1
10
167.372705053119
20
10.153590957032
30
0
41
1
10
167.312536224823
20
10.2053782005334
30
0
41
1
10
167.291305524967
20
10.220532379542
30
0
41
1
10
167.246759380557
20
10.2431358533882
30
0
41
1
10
167.223487367298
20
10.2507612890014
30
0
41
1
10
167.20030196162
20
10.2499425380535
30
0
0
SPLINE
5
28A
100
AcDbEntity
8
1
62
256
6
ByLayer
370
18
48
1
60
0
100
AcDbSpline
70
4
71
3
72
8
73
4
40
0
40
0
40
0
40
0
40
1
40
1
40
1
40
1
41
1
10
167.20030196162
20
10.2499425380535
30
0
41
1
10
167.19400732947
20
10.2497202544277
30
0
41
1
10
167.187713985668
20
10.2494980204226
30
0
41
1
10
167.181421867433
20
10.2492758336153
30
0
0
SPLINE
5
28B
100
AcDbEntity
8
1
62
256
6
ByLayer
370
18
48
1
60
0
100
AcDbSpline
70
4
71
3
72
18
73
14
40
0
40
0
40
0
40
0
40
0.125
40
0.125
40
0.249999999999999
40
0.249999999999999
40
0.374999999999999
40
0.374999999999999
40
0.499999999999999
40
0.499999999999999
40
0.749999999999999
40
0.749999999999999
40
1
40
1
40
1
40
1
41
1
10
168.518036387282
20
11.7373622842401
30
0
41
1
10
168.520982209983
20
11.7518653717633
30
0
41
1
10
168.527986020134
20
11.7654640497125
30
0
41
1
10
168.549585714793
20
11.7877053735867
30
0
41
1
10
168.56368280495
20
11.7959739224982
30
0
41
1
10
168.594083175519
20
11.8072827094657
30
0
41
1
10
168.610551303949
20
11.8104829408621
30
0
41
1
10
168.643349240708
20
11.8134880774212
30
0
41
1
10
168.660003097343
20
11.8133510674523
30
0
41
1
10
168.70993566089
20
11.8094394432622
30
0
41
1
10
168.742792571765
20
11.8022972785035
30
0
41
1
10
168.806569448727
20
11.7824010385338
30
0
41
1
10
168.837470182717
20
11.7695888167164
30
0
41
1
10
168.867129684012
20
11.7544070954756
30
0
0
SPLINE
5
28C
100
AcDbEntity
8
1
62
256
6
ByLayer
370
18
48
1
60
0
100
AcDbSpline
70
4
71
3
72
8
73
4
40
0
40
0
40
0
40
0
40
1
40
1
40
1
40
1
41
1
10
167.150177787809
20
10.8454483875985
30
0
41
1
10
167.156458662008
20
10.8458851234036
30
0
41
1
10
167.162740759993
20
10.8463219403761
30
0
41
1
10
167.169024144456
20
10.8467588426688
30
0
0
SPLINE
5
28D
100
AcDbEntity
8
1
62
256
6
ByLayer
370
18
48
1
60
0
100
AcDbSpline
70
4
71
3
72
16
73
12
40
0
40
0
40
0
40
0
40
0.249999999999967
40
0.249999999999967
40
0.499999999999933
40
0.499999999999933
40
0.7499999999999
40
0.7499999999999
40
0.87499999999995
40
0.87499999999995
40
1
40
1
40
1
40
1
41
1
10
167.002885116144
20
10.5388241123659
30
0
41
1
10
167.001134885165
20
10.5722205089172
30
0
41
1
10
167.001946705518
20
10.6057486703938
30
0
41
1
10
167.009320603676
20
10.6720259910643
30
0
41
1
10
167.01585579365
20
10.7049205944493
30
0
41
1
10
167.036959376375
20
10.7672068988083
30
0
41
1
10
167.051592382996
20
10.7973225221215
30
0
41
1
10
167.083566921827
20
10.8308933283521
30
0
41
1
10
167.096048530565
20
10.8398801569409
30
0
41
1
10
167.122818039949
20
10.849197442733
30
0
41
1
10
167.136921064247
20
10.8493807731367
30
0
41
1
10
167.150177787809
20
10.8454483875985
30
0
0
SPLINE
5
28E
100
AcDbEntity
8
1
62
256
6
ByLayer
370
18
48
1
60
0
100
AcDbSpline
70
4
71
3
72
8
73
4
40
0
40
0
40
0
40
0
40
1
40
1
40
1
40
1
41
1
10
169.12188384291
20
9.8471543223603
30
0
41
1
10
169.125752550955
20
9.84152089849042
30
0
41
1
10
169.129620856791
20
9.83588842432272
30
0
41
1
10
169.133488779543
20
9.83025685382694
30
0
0
SPLINE
5
28F
100
AcDbEntity
8
1
62
256
6
ByLayer
370
18
48
1
60
0
100
AcDbSpline
70
4
71
3
72
20
73
16
40
0
40
0
40
0
40
0
40
0.124999999999988
40
0.124999999999988
40
0.249999999999976
40
0.249999999999976
40
0.374999999999963
40
0.374999999999963
40
0.499999999999951
40
0.499999999999951
40
0.749999999999976
40
0.749999999999976
40
0.874999999999988
40
0.874999999999988
40
1
40
1
40
1
40
1
41
1
10
169.12188384291
20
9.84715432236032
30
0
41
1
10
169.107578694831
20
9.86798478093263
30
0
41
1
10
169.100775493391
20
9.89312593159249
30
0
41
1
10
169.095085344049
20
9.94483192927336
30
0
41
1
10
169.096328963388
20
9.97132905629115
30
0
41
1
10
169.104071236588
20
10.0244000078574
30
0
41
1
10
169.110677638651
20
10.0510236747085
30
0
41
1
10
169.127839422325
20
10.1027452071827
30
0
41
1
10
169.138454341343
20
10.1281242976591
30
0
41
1
10
169.176284258779
20
10.2028874247041
30
0
41
1
10
169.208572417961
20
10.2495063145012
30
0
41
1
10
169.266978354894
20
10.3077056444395
30
0
41
1
10
169.288143853066
20
10.3251220630587
30
0
41
1
10
169.333951305111
20
10.3525034798786
30
0
41
1
10
169.358542216391
20
10.362654361081
30
0
41
1
10
169.384225925534
20
10.3643971431252
30
0
0
SPLINE
5
290
100
AcDbEntity
8
1
62
256
6
ByLayer
370
18
48
1
60
0
100
AcDbSpline
70
4
71
3
72
16
73
12
40
0
40
0
40
0
40
0
40
0.249999999999997
40
0.249999999999997
40
0.499999999999994
40
0.499999999999994
40
0.749999999999991
40
0.749999999999991
40
0.874999999999996
40
0.874999999999996
40
1
40
1
40
1
40
1
41
1
10
168.867129684012
20
11.7544070954756
30
0
41
1
10
168.896803276484
20
11.7392181614253
30
0
41
1
10
168.92520670334
20
11.7216673605823
30
0
41
1
10
168.978207103165
20
11.6817837289334
30
0
41
1
10
169.002947184595
20
11.6594042772272
30
0
41
1
10
169.04491150837
20
11.6090974584286
30
0
41
1
10
169.062737145787
20
11.5807577873202
30
0
41
1
10
169.073602231508
20
11.534774786881
30
0
41
1
10
169.074252050706
20
11.5188590002898
30
0
41
1
10
169.066911269291
20
11.489609847866
30
0
41
1
10
169.058896280098
20
11.4765174917426
30
0
41
1
10
169.047751663089
20
11.4662184920914
30
0
0
SPLINE
5
291
100
AcDbEntity
8
1
62
256
6
ByLayer
370
18
48
1
60
0
100
AcDbSpline
70
4
71
3
72
8
73
4
40
0
40
0
40
0
40
0
40
1
40
1
40
1
40
1
41
1
10
169.384225925534
20
10.3643971431252
30
0
41
1
10
169.391191598025
20
10.3648698026182
30
0
41
1
10
169.398156353163
20
10.3653423961362
30
0
41
1
10
169.40512023503
20
10.3658149268563
30
0
0
SPLINE
5
292
100
AcDbEntity
8
1
62
256
6
ByLayer
370
18
48
1
60
0
100
AcDbSpline
70
4
71
3
72
16
73
12
40
0
40
0
40
0
40
0
40
0.124999999999997
40
0.124999999999997
40
0.249999999999993
40
0.249999999999993
40
0.499999999999995
40
0.499999999999995
40
0.749999999999998
40
0.749999999999998
40
1
40
1
40
1
40
1
41
1
10
169.40512023503
20
10.3658149268563
30
0
41
1
10
169.419925872764
20
10.3619654116991
30
0
41
1
10
169.435670635602
20
10.3622529831443
30
0
41
1
10
169.465051405378
20
10.3716760404974
30
0
41
1
10
169.478703322057
20
10.3806656391892
30
0
41
1
10
169.513848005184
20
10.4146612144909
30
0
41
1
10
169.529408632274
20
10.444577517102
30
0
41
1
10
169.552215841661
20
10.5070856616234
30
0
41
1
10
169.55922236439
20
10.539931306236
30
0
41
1
10
169.567243497815
20
10.6062750788372
30
0
41
1
10
169.568194889062
20
10.639782224894
30
0
41
1
10
169.566444869566
20
10.6731745861021
30
0
0
SPLINE
5
293
100
AcDbEntity
8
1
62
256
6
ByLayer
370
18
48
1
60
0
100
AcDbSpline
70
4
71
3
72
8
73
4
40
0
40
0
40
0
40
0
40
1
40
1
40
1
40
1
41
1
10
169.373876155406
20
10.9619874808396
30
0
41
1
10
169.366901029503
20
10.9617294991171
30
0
41
1
10
169.359925028548
20
10.9614714885667
30
0
41
1
10
169.352948108369
20
10.9612134477405
30
0
0
SPLINE
5
294
100
AcDbEntity
8
1
62
256
6
ByLayer
370
18
48
1
60
0
100
AcDbSpline
70
4
71
3
72
18
73
14
40
0
40
0
40
0
40
0
40
0.124999999999979
40
0.124999999999979
40
0.249999999999957
40
0.249999999999957
40
0.374999999999936
40
0.374999999999936
40
0.499999999999915
40
0.499999999999915
40
0.749999999999957
40
0.749999999999957
40
1
40
1
40
1
40
1
41
1
10
167.181421867433
20
10.2492758336153
30
0
41
1
10
167.16864290936
20
10.243976837612
30
0
41
1
10
167.154608918093
20
10.242661263108
30
0
41
1
10
167.126765350989
20
10.2492373865941
30
0
41
1
10
167.113491921926
20
10.2569006245054
30
0
41
1
10
167.09001736038
20
10.2769281229735
30
0
41
1
10
167.079611807266
20
10.28934761256
30
0
41
1
10
167.061577452497
20
10.3158754525957
30
0
41
1
10
167.053747239986
20
10.3302310730318
30
0
41
1
10
167.033095624829
20
10.3751210537962
30
0
41
1
10
167.023195637424
20
10.4070701505477
30
0
41
1
10
167.008938341281
20
10.4722236411264
30
0
41
1
10
167.004634515987
20
10.5054435748499
30
0
41
1
10
167.002885116144
20
10.5388241123659
30
0
0
SPLINE
5
295
100
AcDbEntity
8
1
62
256
6
ByLayer
370
18
48
1
60
0
100
AcDbSpline
70
4
71
3
72
16
73
12
40
0
40
0
40
0
40
0
40
0.249999999999962
40
0.249999999999962
40
0.499999999999924
40
0.499999999999924
40
0.749999999999887
40
0.749999999999887
40
0.874999999999943
40
0.874999999999943
40
1
40
1
40
1
40
1
41
1
10
169.566444869566
20
10.6731745861021
30
0
41
1
10
169.564694638586
20
10.7065709826534
30
0
41
1
10
169.560239935521
20
10.7398231373331
30
0
41
1
10
169.545333210389
20
10.8049327800159
30
0
41
1
10
169.534898573036
20
10.8369380324358
30
0
41
1
10
169.505743929812
20
10.8965904147822
30
0
41
1
10
169.486896929891
20
10.9249514253021
30
0
41
1
10
169.448687489152
20
10.9548440450223
30
0
41
1
10
169.43414684448
20
10.9624146973186
30
0
41
1
10
169.403798297141
20
10.9687385526008
30
0
41
1
10
169.38820355148
20
10.9673654888314
30
0
41
1
10
169.373876155406
20
10.9619874808396
30
0
0
SPLINE
5
296
100
AcDbEntity
8
1
62
256
6
ByLayer
370
18
48
1
60
0
100
AcDbSpline
70
4
71
3
72
8
73
4
40
0
40
0
40
0
40
0
40
1
40
1
40
1
40
1
41
1
10
167.920280439479
20
11.7060352224625
30
0
41
1
10
167.923644743055
20
11.7004848275405
30
0
41
1
10
167.927009808634
20
11.6949335658363
30
0
41
1
10
167.930375675393
20
11.6893813932379
30
0
0
SPLINE
5
297
100
AcDbEntity
8
1
62
256
6
ByLayer
370
18
48
1
60
0
100
AcDbSpline
70
4
71
2
72
6
73
3
40
0
40
0
40
0
40
1
40
1
40
1
41
1
10
173.649549510594
20
-8.84580015342976
30
0
41
1
10
173.691836235368
20
-8.83913629772897
30
0
41
1
10
173.732991534137
20
-8.82739459129508
30
0
0
SPLINE
5
298
100
AcDbEntity
8
1
62
256
6
ByLayer
370
18
48
1
60
0
100
AcDbSpline
70
4
71
3
72
12
73
8
40
0
40
0
40
0
40
0
40
0.500000000000005
40
0.500000000000005
40
0.750000000000002
40
0.750000000000002
40
1
40
1
40
1
40
1
41
1
10
174.413273379711
20
-9.02920277236194
30
0
41
1
10
174.404397677024
20
-9.096012562928
30
0
41
1
10
174.375383361486
20
-9.15989943643146
30
0
41
1
10
174.309280513546
20
-9.23677307201473
30
0
41
1
10
174.283462940772
20
-9.25930006929212
30
0
41
1
10
174.226400569049
20
-9.29530715216211
30
0
41
1
10
174.195022542256
20
-9.30812292118591
30
0
41
1
10
174.162740752765
20
-9.31849337576119
30
0
0
SPLINE
5
299
100
AcDbEntity
8
1
62
256
6
ByLayer
370
18
48
1
60
0
100
AcDbSpline
70
4
71
1
72
4
73
2
40
0
40
0
40
1
40
1
41
1
10
174.971155556904
20
-4.81295030988022
30
0
41
1
10
174.994052437896
20
-4.63990642952132
30
0
0
SPLINE
5
29A
100
AcDbEntity
8
1
62
256
6
ByLayer
370
18
48
1
60
0
100
AcDbSpline
70
4
71
1
72
4
73
2
40
0
40
0
40
1
40
1
41
1
10
174.965983004709
20
-4.28023207188207
30
0
41
1
10
174.920144732383
20
-3.99227699025823
30
0
0
SPLINE
5
29B
100
AcDbEntity
8
1
62
256
6
ByLayer
370
18
48
1
60
0
100
AcDbSpline
70
4
71
1
72
4
73
2
40
0
40
0
40
1
40
1
41
1
10
174.994052437896
20
-4.63990642952135
30
0
41
1
10
174.659096192813
20
-4.37374184659114
30
0
0
SPLINE
5
29C
100
AcDbEntity
8
1
62
256
6
ByLayer
370
18
48
1
60
0
100
AcDbSpline
70
4
71
3
72
12
73
8
40
0
40
0
40
0
40
0
40
0.5
40
0.5
40
0.75
40
0.75
40
1
40
1
40
1
40
1
41
1
10
173.916980973734
20
0.410524537107591
30
0
41
1
10
173.984128716565
20
0.401693549449391
30
0
41
1
10
174.048336330362
20
0.372822874081891
30
0
41
1
10
174.125602523983
20
0.307056407862547
30
0
41
1
10
174.148243796892
20
0.281369094533801
30
0
41
1
10
174.184433679039
20
0.224594556871324
30
0
41
1
10
174.197314852928
20
0.193375015021218
30
0
41
1
10
174.207738400034
20
0.161256313361918
30
0
0
SPLINE
5
29D
100
AcDbEntity
8
1
62
256
6
ByLayer
370
18
48
1
60
0
100
AcDbSpline
70
4
71
3
72
25
73
21
40
0
40
0
40
0
40
0
40
0.0038367575760067
40
0.0342874275254834
40
0.0647380974749601
40
0.125639437373914
40
0.247442117171821
40
0.369244796969728
40
0.483434809280265
40
0.491047476767634
40
0.506272811742373
40
0.521498146717111
40
0.551948816666588
40
0.612850156565542
40
0.734652836363448
40
0.856455516161356
40
0.917356856060309
40
0.947807526009786
40
0.978258195959262
40
1
40
1
40
1
40
1
41
1
10
173.689116580769
20
-8.64812819408604
30
0
41
1
10
173.701426881252
20
-8.64294280033155
30
0
41
1
10
173.809655662427
20
-8.59066701806444
30
0
41
1
10
173.975541301076
20
-8.37523795356586
30
0
41
1
10
173.981358764398
20
-7.97963563656992
30
0
41
1
10
174.086062367448
20
-7.3676321148651
30
0
41
1
10
174.192380929303
20
-6.47208452840823
30
0
41
1
10
174.333527358383
20
-5.42667725627899
30
0
41
1
10
174.429556243029
20
-4.71439067008811
30
0
41
1
10
174.484053784466
20
-4.30279857686352
30
0
41
1
10
174.477306862192
20
-4.17080814365326
30
0
41
1
10
174.434606473146
20
-3.988507256482
30
0
41
1
10
174.394172135388
20
-3.68176760039393
30
0
41
1
10
174.289661233786
20
-3.05917662115115
30
0
41
1
10
174.152037492598
20
-2.17188732176777
30
0
41
1
10
174.007277259399
20
-1.28573513206143
30
0
41
1
10
173.913494179807
20
-0.66141826571635
30
0
41
1
10
173.848660152185
20
-0.316157358254998
30
0
41
1
10
173.838269803071
20
-0.0186873132753931
30
0
41
1
10
173.687734066224
20
0.122214470089204
30
0
41
1
10
173.618324585047
20
0.16471321086388
30
0
0
SPLINE
5
29E
100
AcDbEntity
8
1
62
256
6
ByLayer
370
18
48
1
60
0
100
AcDbSpline
70
4
71
1
72
4
73
2
40
0
40
0
40
1
40
1
41
1
10
174.656466628292
20
-4.17388021922574
30
0
41
1
10
174.991422873352
20
-4.44004480215673
30
0
0
SPLINE
5
29F
100
AcDbEntity
8
1
62
256
6
ByLayer
370
18
48
1
60
0
100
AcDbSpline
70
4
71
3
72
12
73
8
40
0
40
0
40
0
40
0
40
0.447857531303818
40
0.447857531303818
40
0.72377146542712
40
0.72377146542712
40
1
40
1
40
1
40
1
41
1
10
173.721437291771
20
-9.43899112257517
30
0
41
1
10
173.734044561807
20
-9.4370039633985
30
0
41
1
10
173.746602075145
20
-9.43467389420383
30
0
41
1
10
173.766771259239
20
-9.43035908457441
30
0
41
1
10
173.774434359022
20
-9.42858451345683
30
0
41
1
10
173.789702544755
20
-9.42477757175641
30
0
41
1
10
173.797309725089
20
-9.42274436901499
30
0
41
1
10
173.804879315315
20
-9.420584809319
30
0
0
SPLINE
5
2A0
100
AcDbEntity
8
1
62
256
6
ByLayer
370
18
48
1
60
0
100
AcDbSpline
70
4
71
1
72
4
73
2
40
0
40
0
40
1
40
1
41
1
10
173.721437291771
20
-9.43896054527931
30
0
41
1
10
173.649549510594
20
-8.84580015342974
30
0
0
SPLINE
5
2A1
100
AcDbEntity
8
1
62
256
6
ByLayer
370
18
48
1
60
0
100
AcDbSpline
70
4
71
3
72
8
73
4
40
0
40
0
40
0
40
0
40
1
40
1
40
1
40
1
41
1
10
173.804879315315
20
-9.42055498314647
30
0
41
1
10
173.777442449455
20
-9.42838278743409
30
0
41
1
10
173.749628441607
20
-9.43451797481171
30
0
41
1
10
173.721437291771
20
-9.43896054527934
30
0
0
SPLINE
5
2A2
100
AcDbEntity
8
1
62
256
6
ByLayer
370
18
48
1
60
0
100
AcDbSpline
70
4
71
3
72
8
73
4
40
0
40
0
40
0
40
0
40
1
40
1
40
1
40
1
41
1
10
174.992539096747
20
-4.43990495515831
30
0
41
1
10
174.996741037133
20
-4.47310896128107
30
0
41
1
10
174.999578584933
20
-4.5064116514298
30
0
41
1
10
175.000018935768
20
-4.53988077831062
30
0
0
SPLINE
5
2A3
100
AcDbEntity
8
1
62
256
6
ByLayer
370
18
48
1
60
0
100
AcDbSpline
70
4
71
1
72
4
73
2
40
0
40
0
40
1
40
1
41
1
10
174.857198359721
20
-5.6741853227646
30
0
41
1
10
174.930906681505
20
-5.11713242018126
30
0
0
SPLINE
5
2A4
100
AcDbEntity
8
1
62
256
6
ByLayer
370
18
48
1
60
0
100
AcDbSpline
70
4
71
1
72
4
73
2
40
0
40
0
40
1
40
1
41
1
10
173.916980973734
20
0.410565334690574
30
0
41
1
10
173.610555673285
20
0.450703983069531
30
0
0
SPLINE
5
2A5
100
AcDbEntity
8
1
62
256
6
ByLayer
370
18
48
1
60
0
100
AcDbSpline
70
4
71
2
72
12
73
9
40
0
40
0
40
0
40
0.25
40
0.5
40
0.5
40
0.75
40
0.75
40
0.875
40
1
40
1
40
1
41
1
10
173.862428873925
20
-8.79046580471652
30
0
41
1
10
173.910912994075
20
-8.7766331677943
30
0
41
1
10
173.996642972696
20
-8.72249500275257
30
0
41
1
10
174.030908499561
20
-8.68325850778982
30
0
41
1
10
174.063678838662
20
-8.64573411045114
30
0
41
1
10
174.085245532825
20
-8.59836269729735
30
0
41
1
10
174.095261477024
20
-8.57636259717899
30
0
41
1
10
174.109544458848
20
-8.5269959312792
30
0
41
1
10
174.112961500883
20
-8.50117153130594
30
0
0
SPLINE
5
2A6
100
AcDbEntity
8
1
62
256
6
ByLayer
370
18
48
1
60
0
100
AcDbSpline
70
4
71
3
72
8
73
4
40
0
40
0
40
0
40
0
40
1
40
1
40
1
40
1
41
1
10
174.310353515991
20
-0.194767162142881
30
0
41
1
10
174.318220910659
20
-0.222065959825983
30
0
41
1
10
174.324387127741
20
-0.249740001701525
30
0
41
1
10
174.328852167239
20
-0.277789287769536
30
0
0
SPLINE
5
2A7
100
AcDbEntity
8
1
62
256
6
ByLayer
370
18
48
1
60
0
100
AcDbSpline
70
4
71
1
72
4
73
2
40
0
40
0
40
1
40
1
41
1
10
173.986088689999
20
0.0042341464953495
30
0
41
1
10
174.310353515991
20
-0.194767162142824
30
0
0
SPLINE
5
2A8
100
AcDbEntity
8
1
62
256
6
ByLayer
370
18
48
1
60
0
100
AcDbSpline
70
4
71
1
72
4
73
2
40
0
40
0
40
1
40
1
41
1
10
174.207738400034
20
0.161293440931559
30
0
41
1
10
173.948973130088
20
0.133020130142597
30
0
0
SPLINE
5
2A9
100
AcDbEntity
8
1
62
256
6
ByLayer
370
18
48
1
60
0
100
AcDbSpline
70
4
71
1
72
4
73
2
40
0
40
0
40
1
40
1
41
1
10
174.413273379711
20
-9.02916197477899
30
0
41
1
10
174.857198359721
20
-5.6741853227646
30
0
0
SPLINE
5
2AA
100
AcDbEntity
8
1
62
256
6
ByLayer
370
18
48
1
60
0
100
AcDbSpline
70
4
71
1
72
4
73
2
40
0
40
0
40
1
40
1
41
1
10
174.162740752765
20
-9.3184562481913
30
0
41
1
10
173.862428873925
20
-8.79046580471675
30
0
0
SPLINE
5
2AB
100
AcDbEntity
8
1
62
256
6
ByLayer
370
18
48
1
60
0
100
AcDbSpline
70
4
71
1
72
4
73
2
40
0
40
0
40
1
40
1
41
1
10
174.328852167239
20
-0.277789287769593
30
0
41
1
10
174.004587341271
20
-0.0787879791325565
30
0
0
SPLINE
5
2AC
100
AcDbEntity
8
1
62
256
6
ByLayer
370
18
48
1
60
0
100
AcDbSpline
70
4
71
1
72
4
73
2
40
0
40
0
40
1
40
1
41
1
10
174.835476397206
20
-3.4603922544398
30
0
41
1
10
174.328852167238
20
-0.277789287769536
30
0
0
SPLINE
5
2AD
100
AcDbEntity
8
1
62
256
6
ByLayer
370
18
48
1
60
0
100
AcDbSpline
70
4
71
1
72
4
73
2
40
0
40
0
40
1
40
1
41
1
10
174.991422873352
20
-4.44004480215673
30
0
41
1
10
174.965983004709
20
-4.28023207188207
30
0
0
SPLINE
5
2AE
100
AcDbEntity
8
1
62
256
6
ByLayer
370
18
48
1
60
0
100
AcDbSpline
70
4
71
1
72
4
73
2
40
0
40
0
40
1
40
1
41
1
10
174.930906681505
20
-5.11713242018126
30
0
41
1
10
174.971155556904
20
-4.81295030988022
30
0
0
SPLINE
5
2AF
100
AcDbEntity
8
1
62
256
6
ByLayer
370
18
48
1
60
0
100
AcDbSpline
70
4
71
1
72
4
73
2
40
0
40
0
40
1
40
1
41
1
10
173.732991534137
20
-8.8273945912951
30
0
41
1
10
173.804879315315
20
-9.42055498314647
30
0
0
SPLINE
5
2B0
100
AcDbEntity
8
1
62
256
6
ByLayer
370
18
48
1
60
0
100
AcDbSpline
70
4
71
3
72
10
73
6
40
0
40
0
40
0
40
0
40
0.176079546805526
40
0.176079546805526
40
1
40
1
40
1
40
1
41
1
10
173.804879315301
20
-9.42058480932283
30
0
41
1
10
173.826012766795
20
-9.41455555955659
30
0
41
1
10
173.847146218002
20
-9.40852665249938
30
0
41
1
10
173.967168396354
20
-9.37428751129266
30
0
41
1
10
174.066057132109
20
-9.34607386651695
30
0
41
1
10
174.164945857301
20
-9.31786433401518
30
0
0
SPLINE
5
2B1
100
AcDbEntity
8
1
62
256
6
ByLayer
370
18
48
1
60
0
100
AcDbSpline
70
4
71
1
72
4
73
2
40
0
40
0
40
1
40
1
41
1
10
174.920144732383
20
-3.99227699025823
30
0
41
1
10
174.835476397206
20
-3.4603922544398
30
0
0
SPLINE
5
2B2
100
AcDbEntity
8
1
62
256
6
ByLayer
370
18
48
1
60
0
100
AcDbSpline
70
4
71
3
72
8
73
4
40
0
40
0
40
0
40
0
40
1
40
1
40
1
40
1
41
1
10
175.000018935768
20
-4.53988077831062
30
0
41
1
10
175.000459324616
20
-4.57335279497664
30
0
41
1
10
174.998577737502
20
-4.6067229496542
30
0
41
1
10
174.995333121254
20
-4.64002994164346
30
0
0
SPLINE
5
2B3
100
AcDbEntity
8
1
62
256
6
ByLayer
370
18
48
1
60
0
100
AcDbSpline
70
4
71
2
72
6
73
3
40
0
40
0
40
0
40
1
40
1
40
1
41
1
10
174.659096192813
20
-4.37374184659097
30
0
41
1
10
174.672343970833
20
-4.27362135782292
30
0
41
1
10
174.656466628293
20
-4.17388021922588
30
0
0
SPLINE
5
2B4
100
AcDbEntity
8
1
62
256
6
ByLayer
370
18
48
1
60
0
100
AcDbSpline
70
4
71
2
72
6
73
3
40
0
40
0
40
0
40
1
40
1
40
1
41
1
10
174.004587341271
20
-0.0787879791326134
30
0
41
1
10
173.997889782034
20
-0.0367140502076779
30
0
41
1
10
173.986088689999
20
0.0042341464954063
30
0
0
SPLINE
5
2B5
100
AcDbEntity
8
1
62
256
6
ByLayer
370
18
48
1
60
0
100
AcDbSpline
70
4
71
1
72
4
73
2
40
0
40
0
40
1
40
1
41
1
10
174.112961500883
20
-8.50117153130546
30
0
41
1
10
174.413273379711
20
-9.02916197477896
30
0
0
SPLINE
5
2B6
100
AcDbEntity
8
1
62
256
6
ByLayer
370
18
48
1
60
0
100
AcDbSpline
70
4
71
2
72
12
73
9
40
0
40
0
40
0
40
0.25
40
0.5
40
0.5
40
0.75
40
0.75
40
0.875
40
1
40
1
40
1
41
1
10
173.948973130088
20
0.133020130142597
30
0
41
1
10
173.935070532351
20
0.181260267942235
30
0
41
1
10
173.880658554722
20
0.266558835170343
30
0
41
1
10
173.841223614798
20
0.300651930650759
30
0
41
1
10
173.803509431707
20
0.333257362471954
30
0
41
1
10
173.75589842992
20
0.354715528462123
30
0
41
1
10
173.733787060712
20
0.364681070309899
30
0
41
1
10
173.684170714865
20
0.378892177143854
30
0
41
1
10
173.658215703782
20
0.382292023899424
30
0
0
SPLINE
5
2B7
100
AcDbEntity
8
1
62
256
6
ByLayer
370
18
48
1
60
0
100
AcDbSpline
70
4
71
3
72
24
73
20
40
0
40
0
40
0
40
0
40
0.0129302221120735
40
0.044621925920345
40
0.108005333536888
40
0.234772148769974
40
0.36153896400306
40
0.480382853284078
40
0.488305779236146
40
0.504151631140282
40
0.519997483044418
40
0.551689186852689
40
0.615072594469232
40
0.741839409702318
40
0.868606224935404
40
0.931989632551947
40
0.963681336360218
40
0.99537304016849
40
1
40
1
40
1
40
1
41
1
10
173.757984987457
20
-8.39655346486958
30
0
41
1
10
173.777639582466
20
-8.36864041800618
30
0
41
1
10
173.832150723813
20
-8.26115596828873
30
0
41
1
10
173.836648910492
20
-7.95526782181813
30
0
41
1
10
173.942607586122
20
-7.335928269481
30
0
41
1
10
174.048628030398
20
-6.44289180125699
30
0
41
1
10
174.189926535516
20
-5.39635817122183
30
0
41
1
10
174.285930852625
20
-4.68425381277348
30
0
41
1
10
174.338681108231
20
-4.28585807691545
30
0
41
1
10
174.333262296878
20
-4.17984955495717
30
0
41
1
10
174.291877141794
20
-4.00316379971966
30
0
41
1
10
174.250844119403
20
-3.69188245138506
30
0
41
1
10
174.146604232353
20
-3.0709059564924
30
0
41
1
10
174.008932259486
20
-2.18330569729363
30
0
41
1
10
173.86411676749
20
-1.29681523994245
30
0
41
1
10
173.770586250157
20
-0.674179688380434
30
0
41
1
10
173.704236751654
20
-0.320848437753625
30
0
41
1
10
173.697450290122
20
-0.126555734498538
30
0
41
1
10
173.649244420523
20
-0.0466846476437581
30
0
41
1
10
173.642455294637
20
-0.036922451755629
30
0
0
SPLINE
5
2B8
100
AcDbEntity
8
1
62
256
6
ByLayer
370
18
48
1
60
0
100
AcDbSpline
70
4
71
1
72
4
73
2
40
0
40
0
40
1
40
1
41
1
10
173.658215703782
20
0.382292023899481
30
0
41
1
10
173.916980973734
20
0.410565334690574
30
0
0
SPLINE
5
2B9
100
AcDbEntity
8
1
62
256
6
ByLayer
370
13
48
1
60
0
100
AcDbSpline
70
4
71
3
72
18
73
14
40
0
40
0
40
0
40
0
40
0.500000000000011
40
0.500000000000011
40
0.750000000000016
40
0.750000000000016
40
0.875000000000019
40
0.875000000000019
40
0.906250000000014
40
0.906250000000014
40
0.937500000000009
40
0.937500000000009
40
1
40
1
40
1
40
1
41
1
10
168.502186403918
20
6.5968891941526
30
0
41
1
10
169.155145290055
20
6.63110931933818
30
0
41
1
10
169.808104592982
20
6.66532149207094
30
0
41
1
10
170.787542927417
20
6.71665158003057
30
0
41
1
10
171.114021658616
20
6.73378154773729
30
0
41
1
10
171.60374034485
20
6.75944277868604
30
0
41
1
10
171.766981189905
20
6.76791384021777
30
0
41
1
10
171.971027287072
20
6.77882226214717
30
0
41
1
10
172.01183621206
20
6.78102292217812
30
0
41
1
10
172.093514468663
20
6.7815313077372
30
0
41
1
10
172.134380073341
20
6.78007921745271
30
0
41
1
10
172.25705390268
20
6.77075965767034
30
0
41
1
10
172.338939691707
20
6.75789351461836
30
0
41
1
10
172.420937975078
20
6.73777761862436
30
0
0
SPLINE
5
2BA
100
AcDbEntity
8
1
62
256
6
ByLayer
370
13
48
1
60
0
100
AcDbSpline
70
4
71
3
72
8
73
4
40
0
40
0
40
0
40
0
40
1
40
1
40
1
40
1
41
1
10
162.129208363791
20
15.4179474830742
30
0
41
1
10
162.228705856269
20
15.4298130511707
30
0
41
1
10
162.328401634241
20
15.43999498832
30
0
41
1
10
162.428283576747
20
15.4485962129178
30
0
0
SPLINE
5
2BB
100
AcDbEntity
8
1
62
256
6
ByLayer
370
13
48
1
60
0
100
AcDbSpline
70
4
71
3
72
9
73
5
40
0
40
0
40
0
40
0
40
0.5
40
1
40
1
40
1
40
1
41
1
10
163.344755042037
20
5.19759283051692
30
0
41
1
10
163.376260466535
20
5.19820110097891
30
0
41
1
10
163.439217868987
20
5.20121832362867
30
0
41
1
10
163.502181985316
20
5.20387476391554
30
0
41
1
10
163.533663204484
20
5.20524808186471
30
0
0
SPLINE
5
2BC
100
AcDbEntity
8
1
62
256
6
ByLayer
370
13
48
1
60
0
100
AcDbSpline
70
4
71
2
72
6
73
3
40
0
40
0
40
0
40
1
40
1
40
1
41
0.999101602263623
10
161.48385390693
20
10.2495839428799
30
0
41
0.99798778665763
10
161.47636267655
20
10.286005676665
30
0
41
1
10
161.472966170639
20
10.3230377470587
30
0
0
SPLINE
5
2BD
100
AcDbEntity
8
1
62
256
6
ByLayer
370
13
48
1
60
0
100
AcDbSpline
70
4
71
2
72
6
73
3
40
0
40
0
40
0
40
1
40
1
40
1
41
1
10
161.634176859129
20
10.1848443860651
30
0
41
0.997409491337352
10
161.634846131443
20
10.134365519087
30
0
41
1
10
161.642720982206
20
10.0845022401737
30
0
0
SPLINE
5
2BE
100
AcDbEntity
8
1
62
256
6
ByLayer
370
13
48
1
60
0
100
AcDbSpline
70
4
71
3
72
20
73
16
40
0
40
0
40
0
40
0
40
0.0625
40
0.0625
40
0.125
40
0.125
40
0.15625
40
0.15625
40
0.1875
40
0.1875
40
0.25
40
0.25
40
0.5
40
0.5
40
1
40
1
40
1
40
1
41
1
10
172.29798489672
20
15.035612893034
30
0
41
1
10
172.223688174343
20
14.987929389053
30
0
41
1
10
172.145567435505
20
14.9468368944961
30
0
41
1
10
171.98145189308
20
14.8782235088222
30
0
41
1
10
171.896119098678
20
14.8512580625558
30
0
41
1
10
171.766997562215
20
14.8225983749469
30
0
41
1
10
171.723598254609
20
14.8149115765379
30
0
41
1
10
171.636072678163
20
14.8033195851509
30
0
41
1
10
171.591868338423
20
14.7998205119601
30
0
41
1
10
171.458574302205
20
14.7928658988777
30
0
41
1
10
171.369718152072
20
14.7881873304771
30
0
41
1
10
170.925421617826
20
14.7649157191034
30
0
41
1
10
170.569985628587
20
14.7462748054544
30
0
41
1
10
169.503675546228
20
14.6903924127236
30
0
41
1
10
168.79280204434
20
14.6531396528554
30
0
41
1
10
168.081928675287
20
14.6158843582319
30
0
0
SPLINE
5
2BF
100
AcDbEntity
8
1
62
256
6
ByLayer
370
13
48
1
60
0
100
AcDbSpline
70
4
71
3
72
19
73
15
40
0
40
0
40
0
40
0
40
0.499999999999948
40
0.499999999999948
40
0.749999999999932
40
0.749999999999932
40
0.812499999999939
40
0.812499999999939
40
0.874999999999945
40
0.874999999999945
40
0.906249999999959
40
0.906249999999959
40
0.937499999999973
40
1
40
1
40
1
40
1
41
1
10
168.103615668238
20
14.4668150734721
30
0
41
1
10
167.442392599646
20
14.4321618408364
30
0
41
1
10
166.781169083779
20
14.3975171399011
30
0
41
1
10
165.789334522221
20
14.3455365092751
30
0
41
1
10
165.458724173495
20
14.328187287692
30
0
41
1
10
165.045459358945
20
14.3065365841947
30
0
41
1
10
164.962806057262
20
14.3022129034807
30
0
41
1
10
164.797499735696
20
14.2935601684908
30
0
41
1
10
164.714819130489
20
14.2887721592097
30
0
41
1
10
164.590910548855
20
14.2828954232155
30
0
41
1
10
164.549666058916
20
14.2817297132417
30
0
41
1
10
164.46745221123
20
14.2831370828528
30
0
41
1
10
164.344470464573
20
14.2898551687134
30
0
41
1
10
164.222489440671
20
14.3101721423127
30
0
41
1
10
164.141631736097
20
14.3300082304435
30
0
0
SPLINE
5
2C0
100
AcDbEntity
8
1
62
256
6
ByLayer
370
13
48
1
60
0
100
AcDbSpline
70
4
71
3
72
9
73
5
40
0
40
0
40
0
40
0
40
0.5
40
1
40
1
40
1
40
1
41
1
10
162.428283576747
20
15.4485962129178
30
0
41
1
10
162.459679992809
20
15.4512844882323
30
0
41
1
10
162.522607893671
20
15.4548646347737
30
0
41
1
10
162.585504759604
20
15.4588042890655
30
0
41
1
10
162.616957072174
20
15.4607291777572
30
0
0
SPLINE
5
2C1
100
AcDbEntity
8
1
62
256
6
ByLayer
370
13
48
1
60
0
100
AcDbSpline
70
4
71
2
72
6
73
3
40
0
40
0
40
0
40
1
40
1
40
1
41
1
10
161.471076669518
20
10.4185764267883
30
0
41
0.997409491337351
10
161.468590998658
20
10.3707402039438
30
0
41
1
10
161.472966170639
20
10.3230377470587
30
0
0
SPLINE
5
2C2
100
AcDbEntity
8
1
62
256
6
ByLayer
370
13
48
1
60
0
100
AcDbSpline
70
4
71
3
72
18
73
14
40
0
40
0
40
0
40
0
40
0.125000000000007
40
0.125000000000007
40
0.187500000000011
40
0.187500000000011
40
0.218750000000012
40
0.218750000000012
40
0.250000000000014
40
0.250000000000014
40
0.500000000000009
40
0.500000000000009
40
1
40
1
40
1
40
1
41
1
10
172.392291709034
20
14.9099349348756
30
0
41
1
10
172.237899206314
20
14.8108461018481
30
0
41
1
10
172.071960492667
20
14.7392003719729
30
0
41
1
10
171.805508280919
20
14.6734307970245
30
0
41
1
10
171.715533648589
20
14.6588725915463
30
0
41
1
10
171.580300854786
20
14.6484116601992
30
0
41
1
10
171.535109391343
20
14.6466575710209
30
0
41
1
10
171.444807466165
20
14.6419166498994
30
0
41
1
10
171.399656236406
20
14.6395502553273
30
0
41
1
10
170.993294375196
20
14.6182647783962
30
0
41
1
10
170.632085198094
20
14.5993235626926
30
0
41
1
10
169.548455484668
20
14.5425331246611
30
0
41
1
10
168.826035494107
20
14.504675492256
30
0
41
1
10
168.103615668238
20
14.4668150734721
30
0
0
SPLINE
5
2C3
100
AcDbEntity
8
1
62
256
6
ByLayer
370
13
48
1
60
0
100
AcDbSpline
70
4
71
1
72
4
73
2
40
0
40
0
40
1
40
1
41
1
10
162.772218038223
20
15.2774684705809
30
0
41
1
10
162.616957072174
20
15.4607291777572
30
0
0
SPLINE
5
2C4
100
AcDbEntity
8
1
62
256
6
ByLayer
370
13
48
1
60
0
100
AcDbSpline
70
4
71
2
72
6
73
3
40
0
40
0
40
0
40
1
40
1
40
1
41
1
10
174.949938220076
20
11.0279291663193
30
0
41
0.997409491337352
10
174.949268947762
20
11.0784080332975
30
0
41
1
10
174.941394096999
20
11.1282713122108
30
0
0
SPLINE
5
2C5
100
AcDbEntity
8
1
62
256
6
ByLayer
370
13
48
1
60
0
100
AcDbSpline
70
4
71
3
72
10
73
6
40
0
40
0
40
0
40
0
40
0.5
40
0.5
40
1
40
1
40
1
40
1
41
1
10
164.087825906564
20
6.06273881418511
30
0
41
1
10
164.084146470249
20
6.0625459830988
30
0
41
1
10
164.063823406234
20
6.0626129388007
30
0
41
1
10
164.002596517335
20
6.06313015968564
30
0
41
1
10
163.961685922196
20
6.06356951837879
30
0
41
1
10
163.922454136475
20
6.06402895347014
30
0
0
SPLINE
5
2C6
100
AcDbEntity
8
1
62
256
6
ByLayer
370
13
48
1
60
0
100
AcDbSpline
70
4
71
3
72
24
73
20
40
0
40
0
40
0
40
0
40
0.0312500000000009
40
0.0312500000000009
40
0.0625000000000019
40
0.0625000000000019
40
0.125000000000002
40
0.125000000000002
40
0.187500000000002
40
0.187500000000002
40
0.250000000000002
40
0.250000000000002
40
0.375000000000002
40
0.375000000000002
40
0.500000000000002
40
0.500000000000002
40
0.750000000000001
40
0.750000000000001
40
1
40
1
40
1
40
1
41
1
10
174.385566134791
20
6.42117475652782
30
0
41
1
10
174.38455520486
20
6.40760592449695
30
0
41
1
10
174.383294425882
20
6.3931343462819
30
0
41
1
10
174.380125140457
20
6.36367692997774
30
0
41
1
10
174.378228376403
20
6.34903659160503
30
0
41
1
10
174.372467944692
20
6.30994626758371
30
0
41
1
10
174.368571327169
20
6.28935585433641
30
0
41
1
10
174.361207102296
20
6.25477361785366
30
0
41
1
10
174.357735528082
20
6.24082858658343
30
0
41
1
10
174.351033280241
20
6.21619723141143
30
0
41
1
10
174.347794106396
20
6.20556174859107
30
0
41
1
10
174.338366494172
20
6.17694339567515
30
0
41
1
10
174.332420747642
20
6.16200129754316
30
0
41
1
10
174.321016550459
20
6.13675056298661
30
0
41
1
10
174.315547000787
20
6.1265263825191
30
0
41
1
10
174.299600554885
20
6.1006263255583
30
0
41
1
10
174.28957680997
20
6.08962946875783
30
0
41
1
10
174.27019681169
20
6.07452794778644
30
0
41
1
10
174.260878211289
20
6.07054282739679
30
0
41
1
10
174.251817801024
20
6.06890348347633
30
0
0
SPLINE
5
2C7
100
AcDbEntity
8
1
62
256
6
ByLayer
370
13
48
1
60
0
100
AcDbSpline
70
4
71
1
72
4
73
2
40
0
40
0
40
1
40
1
41
1
10
161.64005774503
20
10.2853729355481
30
0
41
1
10
161.486284092466
20
10.270784138449
30
0
0
SPLINE
5
2C8
100
AcDbEntity
8
1
62
256
6
ByLayer
370
13
48
1
60
0
100
AcDbSpline
70
4
71
3
72
8
73
4
40
0
40
0
40
0
40
0
40
1
40
1
40
1
40
1
41
1
10
173.714141060928
20
5.9168427703743
30
0
41
1
10
173.646799466706
20
5.91276893815976
30
0
41
1
10
173.582265530411
20
5.9112382931406
30
0
41
1
10
173.518996061901
20
5.91041487961516
30
0
0
SPLINE
5
2C9
100
AcDbEntity
8
1
62
256
6
ByLayer
370
13
48
1
60
0
100
AcDbSpline
70
4
71
1
72
4
73
2
40
0
40
0
40
1
40
1
41
1
10
161.480703828068
20
10.1753944480175
30
0
41
1
10
161.634176859129
20
10.1848443860651
30
0
0
SPLINE
5
2CA
100
AcDbEntity
8
1
62
256
6
ByLayer
370
13
48
1
60
0
100
AcDbSpline
70
4
71
3
72
22
73
18
40
0
40
0
40
0
40
0
40
0.125
40
0.125
40
0.25
40
0.25
40
0.375
40
0.375
40
0.5
40
0.5
40
0.625
40
0.625
40
0.75
40
0.75
40
0.875
40
0.875
40
1
40
1
40
1
40
1
41
1
10
174.26288068389
20
15.424594452868
30
0
41
1
10
174.255906222636
20
15.4714515416467
30
0
41
1
10
174.244481501935
20
15.517000475483
30
0
41
1
10
174.211895892634
20
15.6052363940235
30
0
41
1
10
174.190618462193
20
15.6478329208543
30
0
41
1
10
174.140957253608
20
15.7269097123374
30
0
41
1
10
174.112408855354
20
15.7639051393518
30
0
41
1
10
174.046982996344
20
15.8321989198781
30
0
41
1
10
174.011309672037
20
15.8624938364801
30
0
41
1
10
173.934825669156
20
15.9158137242506
30
0
41
1
10
173.89335433036
20
15.9389147404059
30
0
41
1
10
173.807167368572
20
15.9758633191742
30
0
41
1
10
173.762785976024
20
15.9900432518348
30
0
41
1
10
173.671368725433
20
16.0095521826223
30
0
41
1
10
173.62409205138
20
16.0143691578889
30
0
41
1
10
173.53024578232
20
16.0163404424622
30
0
41
1
10
173.483314595617
20
16.0166826012686
30
0
41
1
10
173.436380679436
20
16.0168066357353
30
0
0
SPLINE
5
2CB
100
AcDbEntity
8
1
62
256
6
ByLayer
370
13
48
1
60
0
100
AcDbSpline
70
4
71
2
72
6
73
3
40
0
40
0
40
0
40
1
40
1
40
1
41
0.999101602263097
10
161.483853906926
20
10.2495839428969
30
0
41
0.997987786658106
10
161.480210822155
20
10.2125786843894
30
0
41
1
10
161.480703828068
20
10.1753944480175
30
0
0
SPLINE
5
2CC
100
AcDbEntity
8
1
62
256
6
ByLayer
370
13
48
1
60
0
100
AcDbSpline
70
4
71
3
72
19
73
15
40
0
40
0
40
0
40
0
40
0.499999999999959
40
0.499999999999959
40
0.749999999999938
40
0.749999999999938
40
0.812499999999943
40
0.812499999999943
40
0.874999999999948
40
0.874999999999948
40
0.906249999999961
40
0.906249999999961
40
0.937499999999974
40
1
40
1
40
1
40
1
41
1
10
168.508172609997
20
6.7474087698192
30
0
41
1
10
169.169395678589
20
6.78206200245486
30
0
41
1
10
169.830619194456
20
6.81670670339022
30
0
41
1
10
170.822453756014
20
6.86868733401622
30
0
41
1
10
171.15306410474
20
6.88603655559939
30
0
41
1
10
171.56632891929
20
6.90768725909663
30
0
41
1
10
171.648982220972
20
6.91201093981061
30
0
41
1
10
171.814288542539
20
6.92066367480049
30
0
41
1
10
171.896969147745
20
6.92545168408159
30
0
41
1
10
172.02087772938
20
6.93132842007583
30
0
41
1
10
172.062122219319
20
6.93249413004961
30
0
41
1
10
172.144336067005
20
6.93108676043849
30
0
41
1
10
172.267317813662
20
6.92436867457789
30
0
41
1
10
172.389298837564
20
6.90405170097867
30
0
41
1
10
172.470156542138
20
6.88421561284787
30
0
0
SPLINE
5
2CD
100
AcDbEntity
8
1
62
256
6
ByLayer
370
13
48
1
60
0
100
AcDbSpline
70
4
71
3
72
10
73
6
40
0
40
0
40
0
40
0
40
0.5
40
0.5
40
1
40
1
40
1
40
1
41
1
10
172.51619757302
20
15.2370962360836
30
0
41
1
10
172.512519574332
20
15.2369034803401
30
0
41
1
10
172.522268411081
20
15.2266579720356
30
0
41
1
10
172.562363626921
20
15.1930032210539
30
0
41
1
10
172.592799621653
20
15.1696505502036
30
0
41
1
10
172.624763344023
20
15.1468108777053
30
0
0
SPLINE
5
2CE
100
AcDbEntity
8
1
62
256
6
ByLayer
370
13
48
1
60
0
100
AcDbSpline
70
4
71
3
72
20
73
16
40
0
40
0
40
0
40
0
40
0.0625000000000145
40
0.0625000000000145
40
0.125000000000029
40
0.125000000000029
40
0.156250000000036
40
0.156250000000036
40
0.187500000000043
40
0.187500000000043
40
0.250000000000039
40
0.250000000000039
40
0.500000000000019
40
0.500000000000019
40
1
40
1
40
1
40
1
41
1
10
164.286130182483
20
6.17716065934994
30
0
41
1
10
164.36042690486
20
6.22484416333089
30
0
41
1
10
164.438547643699
20
6.26593665788775
30
0
41
1
10
164.602663186123
20
6.33455004356182
30
0
41
1
10
164.687995980525
20
6.36151548982821
30
0
41
1
10
164.817117516988
20
6.39017517743719
30
0
41
1
10
164.860516824594
20
6.39786197584627
30
0
41
1
10
164.94804240104
20
6.40945396723339
30
0
41
1
10
164.99224674078
20
6.4129530404243
30
0
41
1
10
165.125540776998
20
6.41990765350664
30
0
41
1
10
165.214396927131
20
6.42458622190725
30
0
41
1
10
165.658693461375
20
6.44785783328095
30
0
41
1
10
166.014129450614
20
6.46649874692991
30
0
41
1
10
167.080439532971
20
6.52238113966064
30
0
41
1
10
167.791313034866
20
6.55963389952913
30
0
41
1
10
168.502186403918
20
6.5968891941526
30
0
0
SPLINE
5
2CF
100
AcDbEntity
8
1
62
256
6
ByLayer
370
13
48
1
60
0
100
AcDbSpline
70
4
71
3
72
12
73
8
40
0
40
0
40
0
40
0
40
0.026090667724149
40
0.026090667724149
40
0.70831855631275
40
0.70831855631275
40
1
40
1
40
1
40
1
41
1
10
174.168478787019
20
5.97693931471758
30
0
41
1
10
174.167037654276
20
5.97540913156277
30
0
41
1
10
174.16559033251
20
5.97388630534294
30
0
41
1
10
174.12613330843
20
5.93274747948391
30
0
41
1
10
174.084023657468
20
5.89767614150242
30
0
41
1
10
174.017367594158
20
5.85486396519917
30
0
41
1
10
173.996913795177
20
5.84313778344676
30
0
41
1
10
173.975998984966
20
5.83248603575635
30
0
0
SPLINE
5
2D0
100
AcDbEntity
8
1
62
256
6
ByLayer
370
13
48
1
60
0
100
AcDbSpline
70
4
71
2
72
6
73
3
40
0
40
0
40
0
40
1
40
1
40
1
41
1
10
161.634176859129
20
10.1848443860651
30
0
41
0.997409491337352
10
161.633507586814
20
10.2353232530421
30
0
41
1
10
161.64005774503
20
10.2853729355481
30
0
0
SPLINE
5
2D1
100
AcDbEntity
8
1
62
256
6
ByLayer
370
13
48
1
60
0
100
AcDbSpline
70
4
71
1
72
4
73
2
40
0
40
0
40
1
40
1
41
1
10
162.428283576747
20
15.4485962129178
30
0
41
1
10
162.578368608756
20
15.2768491647922
30
0
0
SPLINE
5
2D2
100
AcDbEntity
8
1
62
256
6
ByLayer
370
13
48
1
60
0
100
AcDbSpline
70
4
71
3
72
18
73
14
40
0
40
0
40
0
40
0
40
0.125000000000002
40
0.125000000000002
40
0.187500000000004
40
0.187500000000004
40
0.218750000000004
40
0.218750000000004
40
0.250000000000005
40
0.250000000000005
40
0.50000000000001
40
0.50000000000001
40
1
40
1
40
1
40
1
41
1
10
164.219496569201
20
6.30428890841571
30
0
41
1
10
164.373889071921
20
6.40337774144322
30
0
41
1
10
164.539827785568
20
6.47502347131845
30
0
41
1
10
164.806279997316
20
6.5407930462668
30
0
41
1
10
164.896254629646
20
6.55535125174501
30
0
41
1
10
165.031487423449
20
6.56581218309216
30
0
41
1
10
165.076678886892
20
6.56756627227045
30
0
41
1
10
165.16698081207
20
6.57230719339188
30
0
41
1
10
165.212132041829
20
6.57467358796401
30
0
41
1
10
165.618493903039
20
6.59595906489511
30
0
41
1
10
165.979703080141
20
6.61490028059876
30
0
41
1
10
167.063332793567
20
6.6716907186302
30
0
41
1
10
167.785752784127
20
6.70954835103535
30
0
41
1
10
168.508172609996
20
6.7474087698192
30
0
0
SPLINE
5
2D3
100
AcDbEntity
8
1
62
256
6
ByLayer
370
13
48
1
60
0
100
AcDbSpline
70
4
71
1
72
4
73
2
40
0
40
0
40
1
40
1
41
1
10
161.402110841915
20
10.2217062964053
30
0
41
1
10
161.482126938165
20
10.2282349918985
30
0
0
SPLINE
5
2D4
100
AcDbEntity
8
1
62
256
6
ByLayer
370
13
48
1
60
0
100
AcDbSpline
70
4
71
2
72
6
73
3
40
0
40
0
40
0
40
1
40
1
40
1
41
1
10
174.949938220076
20
11.0279291663193
30
0
41
0.997409491337352
10
174.95060749239
20
10.9774502993424
30
0
41
1
10
174.944057334174
20
10.9274006168364
30
0
0
SPLINE
5
2D5
100
AcDbEntity
8
1
62
256
6
ByLayer
370
13
48
1
60
0
100
AcDbSpline
70
4
71
3
72
9
73
5
40
0
40
0
40
0
40
0
40
0.5
40
1
40
1
40
1
40
1
41
1
10
173.239360037168
20
16.0151807218676
30
0
41
1
10
173.20785461267
20
16.0145724514056
30
0
41
1
10
173.144897210217
20
16.0115552287559
30
0
41
1
10
173.081933093889
20
16.008898788469
30
0
41
1
10
173.05045187472
20
16.0075254705198
30
0
0
SPLINE
5
2D6
100
AcDbEntity
8
1
62
256
6
ByLayer
370
13
48
1
60
0
100
AcDbSpline
70
4
71
3
72
22
73
18
40
0
40
0
40
0
40
0
40
0.0423257326360142
40
0.0423257326360142
40
0.0846514652720286
40
0.0846514652720286
40
0.169302930544077
40
0.169302930544077
40
0.253954395816126
40
0.253954395816126
40
0.338605861088175
40
0.338605861088175
40
0.507908791632272
40
0.507908791632272
40
0.677211722176369
40
0.677211722176369
40
1
40
1
40
1
40
1
41
1
10
162.291203216193
20
5.78733605412094
30
0
41
1
10
162.293626937306
20
5.77394722452397
30
0
41
1
10
162.296393501436
20
5.75968671041741
30
0
41
1
10
162.302624563642
20
5.73072194545722
30
0
41
1
10
162.306041269096
20
5.71636007422177
30
0
41
1
10
162.315856196058
20
5.67808602016009
30
0
41
1
10
162.321883751757
20
5.65801571079245
30
0
41
1
10
162.332822462671
20
5.62439269052854
30
0
41
1
10
162.337732671927
20
5.61088692991666
30
0
41
1
10
162.346972881858
20
5.58709108355279
30
0
41
1
10
162.351306021845
20
5.57685244888427
30
0
41
1
10
162.363673421075
20
5.54937632411816
30
0
41
1
10
162.371148470738
20
5.53513758011073
30
0
41
1
10
162.385129615016
20
5.51121723492665
30
0
41
1
10
162.391637919795
20
5.50162078721144
30
0
41
1
10
162.409626097742
20
5.47827973637328
30
0
41
1
10
162.420281114024
20
5.46857798357951
30
0
41
1
10
162.430283075878
20
5.4620770300665
30
0
0
SPLINE
5
2D7
100
AcDbEntity
8
1
62
256
6
ByLayer
370
13
48
1
60
0
100
AcDbSpline
70
4
71
3
72
8
73
4
40
0
40
0
40
0
40
0
40
1
40
1
40
1
40
1
41
1
10
173.436380679436
20
16.0168066357353
30
0
41
1
10
173.370716085436
20
16.0169801706448
30
0
41
1
10
173.305042270993
20
16.0164168606448
30
0
41
1
10
173.239360037168
20
16.0151807218676
30
0
0
SPLINE
5
2D8
100
AcDbEntity
8
1
62
256
6
ByLayer
370
13
48
1
60
0
100
AcDbSpline
70
4
71
3
72
10
73
6
40
0
40
0
40
0
40
0
40
0.5
40
0.5
40
1
40
1
40
1
40
1
41
1
10
164.058693106508
20
5.97519388599866
30
0
41
1
10
164.055015107821
20
5.97500113025524
30
0
41
1
10
164.038071249644
20
5.98486956346483
30
0
41
1
10
163.987798400892
20
6.01799092730721
30
0
41
1
10
163.954417858845
20
6.04118928097179
30
0
41
1
10
163.922454136475
20
6.06402895347014
30
0
0
SPLINE
5
2D9
100
AcDbEntity
8
1
62
256
6
ByLayer
370
13
48
1
60
0
100
AcDbSpline
70
4
71
3
72
26
73
22
40
0
40
0
40
0
40
0
40
0.250000000000086
40
0.250000000000086
40
0.375000000000091
40
0.375000000000091
40
0.500000000000096
40
0.500000000000096
40
0.625000000000101
40
0.625000000000101
40
0.687500000000046
40
0.687500000000046
40
0.749999999999991
40
0.749999999999991
40
0.812499999999935
40
0.812499999999935
40
0.843749999999907
40
0.843749999999907
40
0.87499999999988
40
0.87499999999988
40
1
40
1
40
1
40
1
41
1
10
174.251817801023
20
6.06890348347619
30
0
41
1
10
174.223795642026
20
6.05110534929912
30
0
41
1
10
174.192888271069
20
6.0331032889172
30
0
41
1
10
174.140215249409
20
6.00668556003271
30
0
41
1
10
174.121545822828
20
5.99795500020133
30
0
41
1
10
174.080937231165
20
5.98071548929448
30
0
41
1
10
174.058916644441
20
5.97218337270886
30
0
41
1
10
174.011647663691
20
5.95606238896193
30
0
41
1
10
173.986087341761
20
5.94838398341813
30
0
41
1
10
173.945031955939
20
5.93890043793877
30
0
41
1
10
173.930796552362
20
5.93608366258172
30
0
41
1
10
173.902896582898
20
5.93157939141838
30
0
41
1
10
173.889021149349
20
5.9298296607231
30
0
41
1
10
173.861386001923
20
5.92709504111443
30
0
41
1
10
173.847960705126
20
5.92610252315254
30
0
41
1
10
173.828349195546
20
5.92511671685347
30
0
41
1
10
173.821974035949
20
5.92493977177747
30
0
41
1
10
173.8088611931
20
5.92425688539993
30
0
41
1
10
173.802059264687
20
5.92369476229956
30
0
41
1
10
173.767173348785
20
5.92009648675094
30
0
41
1
10
173.740630053555
20
5.91844522295565
30
0
41
1
10
173.714141060928
20
5.9168427703743
30
0
0
SPLINE
5
2DA
100
AcDbEntity
8
1
62
256
6
ByLayer
370
13
48
1
60
0
100
AcDbSpline
70
4
71
3
72
18
73
14
40
0
40
0
40
0
40
0
40
0.50000000000001
40
0.50000000000001
40
0.750000000000016
40
0.750000000000016
40
0.875000000000018
40
0.875000000000018
40
0.906250000000014
40
0.906250000000014
40
0.937500000000009
40
0.937500000000009
40
1
40
1
40
1
40
1
41
1
10
168.081928675287
20
14.6158843582319
30
0
41
1
10
167.42896978915
20
14.5816642330463
30
0
41
1
10
166.776010486223
20
14.5474520603136
30
0
41
1
10
165.796572151788
20
14.4961219723539
30
0
41
1
10
165.470093420589
20
14.4789920046472
30
0
41
1
10
164.980374734355
20
14.4533307736985
30
0
41
1
10
164.8171338893
20
14.4448597121668
30
0
41
1
10
164.613087792133
20
14.4339512902373
30
0
41
1
10
164.572278867145
20
14.4317506302064
30
0
41
1
10
164.490600610542
20
14.4312422446473
30
0
41
1
10
164.449735005864
20
14.4326943349318
30
0
41
1
10
164.327061176525
20
14.4420138947142
30
0
41
1
10
164.245175387498
20
14.4548800377662
30
0
41
1
10
164.163177104127
20
14.4749959337601
30
0
0
SPLINE
5
2DB
100
AcDbEntity
8
1
62
256
6
ByLayer
370
13
48
1
60
0
100
AcDbSpline
70
4
71
3
72
10
73
6
40
0
40
0
40
0
40
0
40
0.5
40
0.5
40
1
40
1
40
1
40
1
41
1
10
162.578368608756
20
15.2768491647922
30
0
41
1
10
162.611909893017
20
15.278144548284
30
0
41
1
10
162.643688653344
20
15.277715901725
30
0
41
1
10
162.707832046317
20
15.2774912412224
30
0
41
1
10
162.740069334291
20
15.2775168117146
30
0
41
1
10
162.772218038223
20
15.2774684705809
30
0
0
SPLINE
5
2DC
100
AcDbEntity
8
1
62
256
6
ByLayer
370
13
48
1
60
0
100
AcDbSpline
70
4
71
2
72
6
73
3
40
0
40
0
40
0
40
1
40
1
40
1
41
1
10
161.488811189207
20
10.0801816325233
30
0
41
0.997409491337351
10
161.481338888249
20
10.1274959801787
30
0
41
1
10
161.480703828068
20
10.1753944480175
30
0
0
SPLINE
5
2DD
100
AcDbEntity
8
1
62
256
6
ByLayer
370
13
48
1
60
0
100
AcDbSpline
70
4
71
1
72
4
73
2
40
0
40
0
40
1
40
1
41
1
10
161.410458367559
20
10.4164100665794
30
0
41
1
10
161.471076669518
20
10.4185764267883
30
0
0
SPLINE
5
2DE
100
AcDbEntity
8
1
62
256
6
ByLayer
370
13
48
1
60
0
100
AcDbSpline
70
4
71
3
72
10
73
6
40
0
40
0
40
0
40
0
40
0.5
40
0.5
40
1
40
1
40
1
40
1
41
1
10
173.518996061901
20
5.91041487961516
30
0
41
1
10
173.487757704804
20
5.90924018742191
30
0
41
1
10
173.459182863701
20
5.90983674427241
30
0
41
1
10
173.401111058642
20
5.91037960321432
30
0
41
1
10
173.371839773038
20
5.91050947431975
30
0
41
1
10
173.34269449381
20
5.91071521827234
30
0
0
SPLINE
5
2DF
100
AcDbEntity
8
1
62
256
6
ByLayer
370
13
48
1
60
0
100
AcDbSpline
70
4
71
3
72
22
73
18
40
0
40
0
40
0
40
0
40
0.124999999999969
40
0.124999999999969
40
0.249999999999939
40
0.249999999999939
40
0.374999999999908
40
0.374999999999908
40
0.499999999999877
40
0.499999999999877
40
0.624999999999847
40
0.624999999999847
40
0.687499999999862
40
0.687499999999862
40
0.749999999999877
40
0.749999999999877
40
1
40
1
40
1
40
1
41
1
10
162.321234395315
20
5.78817909951653
30
0
41
1
10
162.329428590623
20
5.73312737250751
30
0
41
1
10
162.343793166726
20
5.6798894305669
30
0
41
1
10
162.386037207804
20
5.57738625184814
30
0
41
1
10
162.413473761906
20
5.52918006854981
30
0
41
1
10
162.478045712819
20
5.44053224842332
30
0
41
1
10
162.516394928898
20
5.39957048340449
30
0
41
1
10
162.600269395074
20
5.32870254746643
30
0
41
1
10
162.645814318026
20
5.29822499104776
30
0
41
1
10
162.744958131236
20
5.24833479179563
30
0
41
1
10
162.796572635995
20
5.22963256394104
30
0
41
1
10
162.876536323224
20
5.21047494244149
30
0
41
1
10
162.903704809815
20
5.20560659319929
30
0
41
1
10
162.958767460041
20
5.19912045231109
30
0
41
1
10
162.986322407176
20
5.19776511848775
30
0
41
1
10
163.124151950082
20
5.19536832926627
30
0
41
1
10
163.23444143501
20
5.19551672988274
30
0
41
1
10
163.344755042037
20
5.19759283051692
30
0
0
SPLINE
5
2E0
100
AcDbEntity
8
1
62
256
6
ByLayer
370
13
48
1
60
0
100
AcDbSpline
70
4
71
3
72
10
73
6
40
0
40
0
40
0
40
0
40
0.381117757358482
40
0.381117757358482
40
1
40
1
40
1
40
1
41
1
10
172.490016134427
20
15.1492274672408
30
0
41
1
10
172.49530228392
20
15.1490053068228
30
0
41
1
10
172.506319906248
20
15.1487126526953
30
0
41
1
10
172.547565680876
20
15.1478639976058
30
0
41
1
10
172.585531558302
20
15.1472703127966
30
0
41
1
10
172.624763344023
20
15.1468108777053
30
0
0
SPLINE
5
2E1
100
AcDbEntity
8
1
62
256
6
ByLayer
370
13
48
1
60
0
100
AcDbSpline
70
4
71
3
72
18
73
14
40
0
40
0
40
0
40
0
40
0.0427228815680847
40
0.0427228815680847
40
0.282042161176187
40
0.282042161176187
40
0.341871981078128
40
0.341871981078128
40
0.401701800980069
40
0.401701800980069
40
0.521361440784124
40
0.521361440784124
40
1
40
1
40
1
40
1
41
1
10
162.119099469535
20
15.2447237906894
30
0
41
1
10
162.12521880939
20
15.2461633045874
30
0
41
1
10
162.131481034923
20
15.247524416656
30
0
41
1
10
162.173767885224
20
15.2559011941123
30
0
41
1
10
162.212124101188
20
15.259517757894
30
0
41
1
10
162.257811285124
20
15.261431042808
30
0
41
1
10
162.266940440948
20
15.261795519512
30
0
41
1
10
162.285738982703
20
15.2634563519224
30
0
41
1
10
162.295320894919
20
15.2646005783006
30
0
41
1
10
162.323413234783
20
15.2669106060145
30
0
41
1
10
162.341876878221
20
15.2679960237887
30
0
41
1
10
162.434405978617
20
15.2737854473579
30
0
41
1
10
162.506882188091
20
15.2756866031563
30
0
41
1
10
162.578368608756
20
15.2768491647922
30
0
0
SPLINE
5
2E2
100
AcDbEntity
8
1
62
256
6
ByLayer
370
13
48
1
60
0
100
AcDbSpline
70
4
71
1
72
4
73
2
40
0
40
0
40
1
40
1
41
1
10
162.321234395315
20
5.78817909951653
30
0
41
1
10
162.291203216193
20
5.78733605412094
30
0
0
SPLINE
5
2E3
100
AcDbEntity
8
1
62
256
6
ByLayer
370
13
48
1
60
0
100
AcDbSpline
70
4
71
1
72
4
73
2
40
0
40
0
40
1
40
1
41
1
10
161.642720982206
20
10.0845022401737
30
0
41
1
10
161.488811189207
20
10.0801816325233
30
0
0
SPLINE
5
2E4
100
AcDbEntity
8
1
62
256
6
ByLayer
370
13
48
1
60
0
100
AcDbSpline
70
4
71
2
72
6
73
3
40
0
40
0
40
0
40
1
40
1
40
1
41
1
10
161.486284092466
20
10.270784138449
30
0
41
0.999421704679246
10
161.484899400531
20
10.2602037235325
30
0
41
0.999101602263097
10
161.483853906926
20
10.2495839428969
30
0
0
SPLINE
5
2E5
100
AcDbEntity
8
1
62
256
6
ByLayer
370
13
48
1
60
0
100
AcDbSpline
70
4
71
3
72
12
73
8
40
0
40
0
40
0
40
0
40
0.25
40
0.25
40
0.5
40
0.5
40
1
40
1
40
1
40
1
41
1
10
159.338600357262
20
6.45488321617549
30
0
41
1
10
159.349925920426
20
6.52893664632188
30
0
41
1
10
159.3586791021
20
6.60349236154045
30
0
41
1
10
159.370198083016
20
6.75377289260686
30
0
41
1
10
159.372947866102
20
6.82981395206147
30
0
41
1
10
159.370573566426
20
7.05635309952163
30
0
41
1
10
159.355192218901
20
7.20592678188481
30
0
41
1
10
159.321343683035
20
7.35355662429652
30
0
0
SPLINE
5
2E6
100
AcDbEntity
8
1
62
256
6
ByLayer
370
13
48
1
60
0
100
AcDbSpline
70
4
71
3
72
10
73
6
40
0
40
0
40
0
40
0
40
0.438971961132649
40
0.438971961132649
40
1
40
1
40
1
40
1
41
1
10
164.238218781882
20
5.95990263873534
30
0
41
1
10
164.258440454342
20
5.95233273086632
30
0
41
1
10
164.27800131539
20
5.94458318426896
30
0
41
1
10
164.321206720505
20
5.92687468615352
30
0
41
1
10
164.34468643585
20
5.91680356490315
30
0
41
1
10
164.366572304021
20
5.90731330801441
30
0
0
SPLINE
5
2E7
100
AcDbEntity
8
1
62
256
6
ByLayer
370
13
48
1
60
0
100
AcDbSpline
70
4
71
3
72
20
73
16
40
0
40
0
40
0
40
0
40
0.250000000000054
40
0.250000000000054
40
0.375000000000045
40
0.375000000000045
40
0.500000000000036
40
0.500000000000036
40
0.625000000000027
40
0.625000000000027
40
0.750000000000018
40
0.750000000000018
40
0.875000000000009
40
0.875000000000009
40
1
40
1
40
1
40
1
41
1
10
158.727419872277
20
4.80001576752431
30
0
41
1
10
158.686726884261
20
4.73692261320366
30
0
41
1
10
158.638937342897
20
4.67983102755124
30
0
41
1
10
158.553436956804
20
4.60839283271349
30
0
41
1
10
158.523327159003
20
4.58762056102267
30
0
41
1
10
158.459446976551
20
4.55309652729258
30
0
41
1
10
158.425356767367
20
4.53938135469093
30
0
41
1
10
158.356970362407
20
4.52137075867162
30
0
41
1
10
158.322157735524
20
4.51679044808313
30
0
41
1
10
158.251997894916
20
4.51656147638894
30
0
41
1
10
158.217867398985
20
4.52087155795272
30
0
41
1
10
158.151120409939
20
4.53663317329432
30
0
41
1
10
158.118600678477
20
4.54813009148785
30
0
41
1
10
158.056715403552
20
4.57573734004473
30
0
41
1
10
158.027017390149
20
4.59192496381041
30
0
41
1
10
157.998172352336
20
4.60980130791896
30
0
0
SPLINE
5
2E8
100
AcDbEntity
8
1
62
256
6
ByLayer
370
13
48
1
60
0
100
AcDbSpline
70
4
71
3
72
8
73
4
40
0
40
0
40
0
40
0
40
1
40
1
40
1
40
1
41
1
10
42.5825766578679
20
-14.9937613928489
30
0
41
1
10
42.5825766670448
20
-15.1825101797016
30
0
41
1
10
42.5825766763836
20
-15.3712589664362
30
0
41
1
10
42.5825766858841
20
-15.5600077530531
30
0
0
SPLINE
5
2E9
100
AcDbEntity
8
1
62
256
6
ByLayer
370
13
48
1
60
0
100
AcDbSpline
70
4
71
3
72
10
73
6
40
0
40
0
40
0
40
0
40
0.5
40
0.5
40
1
40
1
40
1
40
1
41
1
10
166.492073335453
20
6.37137895060684
30
0
41
1
10
166.527060981318
20
6.37321257542896
30
0
41
1
10
166.562435076728
20
6.37128718511607
30
0
41
1
10
166.631143639201
20
6.36056554141697
30
0
41
1
10
166.664286883062
20
6.35187953609318
30
0
41
1
10
166.696176937944
20
6.34035171940712
30
0
0
SPLINE
5
2EA
100
AcDbEntity
8
1
62
256
6
ByLayer
370
13
48
1
60
0
100
AcDbSpline
70
4
71
3
72
20
73
16
40
0
40
0
40
0
40
0
40
0.125000000000007
40
0.125000000000007
40
0.250000000000013
40
0.250000000000013
40
0.49999999999998
40
0.49999999999998
40
0.624999999999985
40
0.624999999999985
40
0.74999999999999
40
0.74999999999999
40
0.874999999999995
40
0.874999999999995
40
1
40
1
40
1
40
1
41
1
10
173.668144156956
20
5.84897716059564
30
0
41
1
10
173.598353321185
20
5.84905496500804
30
0
41
1
10
173.529411715606
20
5.85286591666937
30
0
41
1
10
173.392700921814
20
5.86734125328846
30
0
41
1
10
173.324991014487
20
5.87806335804686
30
0
41
1
10
173.12825456863
20
5.91904610496528
30
0
41
1
10
173.003035104274
20
5.95815436412968
30
0
41
1
10
172.820002348784
20
6.03551138536577
30
0
41
1
10
172.759700022827
20
6.06457667643815
30
0
41
1
10
172.642748744808
20
6.12848353648133
30
0
41
1
10
172.585844708999
20
6.16341259839547
30
0
41
1
10
172.475098822449
20
6.23970971217554
30
0
41
1
10
172.421257178894
20
6.28107138301331
30
0
41
1
10
172.31674334717
20
6.37114004402065
30
0
41
1
10
172.266374529691
20
6.4196410346359
30
0
41
1
10
172.21878387269
20
6.47122866326063
30
0
0
SPLINE
5
2EB
100
AcDbEntity
8
1
62
256
6
ByLayer
370
13
48
1
60
0
100
AcDbSpline
70
4
71
3
72
26
73
22
40
0
40
0
40
0
40
0
40
0.236924725225009
40
0.236924725225009
40
0.473849450450017
40
0.473849450450017
40
0.592311813062522
40
0.592311813062522
40
0.710774175675026
40
0.710774175675026
40
0.770005356981278
40
0.770005356981278
40
0.829236538287531
40
0.829236538287531
40
0.888467719593783
40
0.888467719593783
40
0.947698900900035
40
0.947698900900035
40
0.977314491553161
40
0.977314491553161
40
1
40
1
40
1
40
1
41
1
10
154.606126840908
20
14.931938886112
30
0
41
1
10
152.412625585623
20
15.1116010977025
30
0
41
1
10
150.222432931515
20
15.1990353146722
30
0
41
1
10
145.83550073278
20
15.1906147453803
30
0
41
1
10
143.648551373078
20
15.0947576494553
30
0
41
1
10
140.369587819007
20
14.8116423503433
30
0
41
1
10
139.276739541108
20
14.693974087634
30
0
41
1
10
137.089483617897
20
14.4116738727674
30
0
41
1
10
135.995046934739
20
14.2467363166111
30
0
41
1
10
134.350889594361
20
13.9657157655111
30
0
41
1
10
133.802206199338
20
13.8664090396554
30
0
41
1
10
132.705859108431
20
13.6577242349026
30
0
41
1
10
132.15798866985
20
13.5484731221424
30
0
41
1
10
131.06255503876
20
13.3226316890072
30
0
41
1
10
130.514992204309
20
13.2060445475511
30
0
41
1
10
129.42004571563
20
12.9676391521465
30
0
41
1
10
128.872746005424
20
12.845903106697
30
0
41
1
10
128.050159842348
20
12.6549136426161
30
0
41
1
10
127.77568580582
20
12.5898696699789
30
0
41
1
10
127.290158319385
20
12.472128505661
30
0
41
1
10
127.079272030954
20
12.4200523277871
30
0
41
1
10
126.868170055221
20
12.36734138215
30
0
0
SPLINE
5
2EC
100
AcDbEntity
8
1
62
256
6
ByLayer
370
13
48
1
60
0
100
AcDbSpline
70
4
71
3
72
14
73
10
40
0
40
0
40
0
40
0
40
0.302712583163973
40
0.302712583163973
40
0.454068874745959
40
0.454068874745959
40
0.605425166327946
40
0.605425166327946
40
1
40
1
40
1
40
1
41
1
10
15.7126405767906
20
-20.7205628329806
30
0
41
1
10
15.910841480703
20
-20.1493772873509
30
0
41
1
10
16.1320777567412
20
-19.583183500027
30
0
41
1
10
16.4984528385798
20
-18.7412673921862
30
0
41
1
10
16.626502786356
20
-18.4615389083329
30
0
41
1
10
16.8932668220907
20
-17.9065682937196
30
0
41
1
10
17.0319825592466
20
-17.6312814340238
30
0
41
1
10
17.5514830740022
20
-16.6462241049397
30
0
41
1
10
17.9630039729809
20
-15.949008798942
30
0
41
1
10
18.4112068175331
20
-15.2668683896691
30
0
0
SPLINE
5
2ED
100
AcDbEntity
8
1
62
256
6
ByLayer
370
13
48
1
60
0
100
AcDbSpline
70
4
71
3
72
14
73
10
40
0
40
0
40
0
40
0
40
0.25
40
0.25
40
0.5
40
0.5
40
0.75
40
0.75
40
1
40
1
40
1
40
1
41
1
10
159.38243527398
20
5.74606249314203
30
0
41
1
10
159.367962496592
20
5.79500755337838
30
0
41
1
10
159.355825929168
20
5.84710750312152
30
0
41
1
10
159.33637433629
20
5.95797976374365
30
0
41
1
10
159.329102182712
20
6.01701524836724
30
0
41
1
10
159.320559574767
20
6.13706533123471
30
0
41
1
10
159.319146446394
20
6.19865653672807
30
0
41
1
10
159.323187637114
20
6.32518699910275
30
0
41
1
10
159.328728879926
20
6.390337484832
30
0
41
1
10
159.338600357261
20
6.45488321617555
30
0
0
SPLINE
5
2EE
100
AcDbEntity
8
1
62
256
6
ByLayer
370
13
48
1
60
0
100
AcDbSpline
70
4
71
3
72
8
73
4
40
0
40
0
40
0
40
0
40
1
40
1
40
1
40
1
41
1
10
173.608879155438
20
0.269333307033634
30
0
41
1
10
173.608381300351
20
0.289761924747324
30
0
41
1
10
173.608156945199
20
0.310308364669027
30
0
41
1
10
173.608208705443
20
0.330411737757316
30
0
0
SPLINE
5
2EF
100
AcDbEntity
8
1
62
256
6
ByLayer
370
13
48
1
60
0
100
AcDbSpline
70
4
71
3
72
8
73
4
40
0
40
0
40
0
40
0
40
1
40
1
40
1
40
1
41
1
10
156.598079563488
20
7.11568577311238
30
0
41
1
10
156.724803467139
20
8.54681328807095
30
0
41
1
10
156.846404827344
20
9.97529671544348
30
0
41
1
10
156.960869827343
20
11.4019039923171
30
0
0
SPLINE
5
2F0
100
AcDbEntity
8
1
62
256
6
ByLayer
370
13
48
1
60
0
100
AcDbSpline
70
4
71
3
72
12
73
8
40
0
40
0
40
0
40
0
40
0.37895941181954
40
0.37895941181954
40
0.757918823639079
40
0.757918823639079
40
1
40
1
40
1
40
1
41
1
10
161.689016925911
20
11.1286313004788
30
0
41
1
10
161.66877855581
20
11.09909618796
30
0
41
1
10
161.650097724775
20
11.0696704773258
30
0
41
1
10
161.615916730752
20
11.0116364081169
30
0
41
1
10
161.600406384158
20
10.982978381879
30
0
41
1
10
161.578511891069
20
10.9388201466057
30
0
41
1
10
161.570726791833
20
10.9220304772275
30
0
41
1
10
161.564188981344
20
10.9067792137295
30
0
0
SPLINE
5
2F1
100
AcDbEntity
8
1
62
256
6
ByLayer
370
13
48
1
60
0
100
AcDbSpline
70
4
71
3
72
8
73
4
40
0
40
0
40
0
40
0
40
1
40
1
40
1
40
1
41
1
10
156.259500692173
20
6.04552726077611
30
0
41
1
10
156.259805821692
20
6.04682796414252
30
0
41
1
10
156.260150271776
20
6.04812390883376
30
0
41
1
10
156.260533221947
20
6.04941520566766
30
0
0
SPLINE
5
2F2
100
AcDbEntity
8
1
62
256
6
ByLayer
370
13
48
1
60
0
100
AcDbSpline
70
2053
71
3
72
89
73
85
40
0
40
0
40
0
40
0
40
0.0312500000000092
40
0.0312500000000092
40
0.0468750000000178
40
0.0468750000000178
40
0.0625000000000264
40
0.0625000000000264
40
0.0937500000000362
40
0.0937500000000362
40
0.109375000000041
40
0.109375000000041
40
0.125000000000046
40
0.125000000000046
40
0.156250000000056
40
0.156250000000056
40
0.187500000000065
40
0.187500000000065
40
0.20312500000007
40
0.20312500000007
40
0.218750000000075
40
0.218750000000075
40
0.250000000000086
40
0.250000000000086
40
0.281250000000097
40
0.281250000000097
40
0.312500000000109
40
0.312500000000109
40
0.328125000000114
40
0.328125000000114
40
0.34375000000012
40
0.34375000000012
40
0.375000000000131
40
0.375000000000131
40
0.406250000000142
40
0.406250000000142
40
0.421875000000148
40
0.421875000000148
40
0.437500000000153
40
0.437500000000153
40
0.468750000000157
40
0.468750000000157
40
0.500000000000161
40
0.500000000000161
40
0.531250000000164
40
0.531250000000164
40
0.546875000000162
40
0.546875000000162
40
0.56250000000016
40
0.578125000000158
40
0.578125000000158
40
0.593750000000156
40
0.593750000000156
40
0.625000000000152
40
0.625000000000152
40
0.640625000000147
40
0.640625000000147
40
0.656250000000143
40
0.656250000000143
40
0.687500000000129
40
0.687500000000129
40
0.718750000000115
40
0.718750000000115
40
0.750000000000102
40
0.750000000000102
40
0.781250000000088
40
0.781250000000088
40
0.79687500000008
40
0.79687500000008
40
0.812500000000073
40
0.812500000000073
40
0.843750000000061
40
0.843750000000061
40
0.875000000000049
40
0.875000000000049
40
0.906250000000037
40
0.906250000000037
40
0.921875000000031
40
0.921875000000031
40
0.937500000000025
40
0.937500000000025
40
0.968750000000012
40
0.968750000000012
40
1
40
1
40
1
40
1
41
1
10
169.260001889744
20
-1.27834792149727
30
0
41
1
10
169.368112434992
20
-1.27834792149727
30
0
41
1
10
169.474341696506
20
-1.28933756763928
30
0
41
1
10
169.63098007831
20
-1.32161796165758
30
0
41
1
10
169.682738391758
20
-1.33503138591928
30
0
41
1
10
169.785322991682
20
-1.36729595303595
30
0
41
1
10
169.836098257236
20
-1.38617387198832
30
0
41
1
10
169.983549359889
20
-1.4496680324487
30
0
41
1
10
170.076599108788
20
-1.50142014270512
30
0
41
1
10
170.208333821342
20
-1.59307587120236
30
0
41
1
10
170.251151590109
20
-1.62619033573634
30
0
41
1
10
170.332556357088
20
-1.69598234570009
30
0
41
1
10
170.371227769907
20
-1.73267528661952
30
0
41
1
10
170.481328668273
20
-1.84797152906867
30
0
41
1
10
170.546991520986
20
-1.93188951058676
30
0
41
1
10
170.661876310594
20
-2.11323002457965
30
0
41
1
10
170.709429034074
20
-2.20794998566365
30
0
41
1
10
170.766757571771
20
-2.35570473709708
30
0
41
1
10
170.783516434461
20
-2.40590937353656
30
0
41
1
10
170.812273803867
20
-2.50824098839413
30
0
41
1
10
170.824234727384
20
-2.5603635592187
30
0
41
1
10
170.852301307958
20
-2.71635168810704
30
0
41
1
10
170.860995942801
20
-2.82091436022495
30
0
41
1
10
170.858829370839
20
-3.03112803975509
30
0
41
1
10
170.84768172261
20
-3.1371426920642
30
0
41
1
10
170.806629626367
20
-3.34199735553261
30
0
41
1
10
170.776801787333
20
-3.44189943332512
30
0
41
1
10
170.717829908154
20
-3.58794096061024
30
0
41
1
10
170.695713798187
20
-3.6360581722337
30
0
41
1
10
170.647547247927
20
-3.72906293733556
30
0
41
1
10
170.621408763234
20
-3.77420001690351
30
0
41
1
10
170.53688408644
20
-3.90557790492565
30
0
41
1
10
170.472454871968
20
-3.98782747586833
30
0
41
1
10
170.326248058636
20
-4.14103201264618
30
0
41
1
10
170.246449010804
20
-4.20981878849565
30
0
41
1
10
170.117774683341
20
-4.3004972506447
30
0
41
1
10
170.073322987259
20
-4.32868092564402
30
0
41
1
10
169.981171684664
20
-4.38081843943201
30
0
41
1
10
169.933167568504
20
-4.40489927737298
30
0
41
1
10
169.786359513731
20
-4.46933987073746
30
0
41
1
10
169.685408500004
20
-4.50187277476923
30
0
41
1
10
169.477317963174
20
-4.54610281510108
30
0
41
1
10
169.368832213146
20
-4.55766108058251
30
0
41
1
10
169.154960845289
20
-4.5579236964808
30
0
41
1
10
169.048928207131
20
-4.54704693049294
30
0
41
1
10
168.891241680772
20
-4.51409066899171
30
0
41
1
10
168.838939568547
20
-4.50027293958755
30
0
41
1
10
168.737270133452
20
-4.46774911120318
30
0
41
1
10
168.637884442738
20
-4.43022172011675
30
0
41
1
10
168.542926396771
20
-4.38296027348585
30
0
41
1
10
168.45017805388
20
-4.33082051614423
30
0
41
1
10
168.40480915371
20
-4.3022073369047
30
0
41
1
10
168.27480306966
20
-4.2109069038882
30
0
41
1
10
168.195235977017
20
-4.14233672687911
30
0
41
1
10
168.086067098746
20
-4.02830788341862
30
0
41
1
10
168.051229285805
20
-3.98820657099608
30
0
41
1
10
167.986028131768
20
-3.90544030971745
30
0
41
1
10
167.955629580074
20
-3.86278645552972
30
0
41
1
10
167.870800774893
20
-3.7311234664088
30
0
41
1
10
167.822676749969
20
-3.63844745555113
30
0
41
1
10
167.743546946924
20
-3.44301776579962
30
0
41
1
10
167.713515335844
20
-3.34249004769453
30
0
41
1
10
167.672444686203
20
-3.13796509463171
30
0
41
1
10
167.661270671702
20
-3.0329980263445
30
0
41
1
10
167.658937521243
20
-2.82147656151849
30
0
41
1
10
167.66767873665
20
-2.71689310633312
30
0
41
1
10
167.695477657824
20
-2.5617816407169
30
0
41
1
10
167.707208234894
20
-2.51037402615407
30
0
41
1
10
167.735775009977
20
-2.40817939278418
30
0
41
1
10
167.752704271231
20
-2.35722110147947
30
0
41
1
10
167.810222227311
20
-2.20862373637786
30
0
41
1
10
167.857688257655
20
-2.11420739265384
30
0
41
1
10
167.970985860197
20
-1.93481010640642
30
0
41
1
10
168.037668069074
20
-1.84915671227617
30
0
41
1
10
168.184613613232
20
-1.69501763889599
30
0
41
1
10
168.265180533253
20
-1.62568050468906
30
0
41
1
10
168.396942304312
20
-1.53362279424024
30
0
41
1
10
168.442917603284
20
-1.50484513062932
30
0
41
1
10
168.536585144957
20
-1.45263846535488
30
0
41
1
10
168.584462666928
20
-1.42905127826515
30
0
41
1
10
168.731170102093
20
-1.36571124277924
30
0
41
1
10
168.833431050196
20
-1.33322373149196
30
0
41
1
10
169.044896457697
20
-1.28934913389804
30
0
41
1
10
169.151891344495
20
-1.27834792149727
30
0
41
1
10
169.260001889744
20
-1.27834792149727
30
0
0
SPLINE
5
2F3
100
AcDbEntity
8
1
62
256
6
ByLayer
370
13
48
1
60
0
100
AcDbSpline
70
4
71
3
72
10
73
6
40
0
40
0
40
0
40
0
40
0.30435240078523
40
0.30435240078523
40
1
40
1
40
1
40
1
41
1
10
154.86014633949
20
1.66325842332745
30
0
41
1
10
154.864966587018
20
1.67085581831955
30
0
41
1
10
154.869786771285
20
1.67845332276005
30
0
41
1
10
154.885624070854
20
1.70341653585061
30
0
41
1
10
154.896640915421
20
1.72078270659114
30
0
41
1
10
154.907657413621
20
1.73814944861874
30
0
0
SPLINE
5
2F4
100
AcDbEntity
8
1
62
256
6
ByLayer
370
13
48
1
60
0
100
AcDbSpline
70
4
71
3
72
8
73
4
40
0
40
0
40
0
40
0
40
1
40
1
40
1
40
1
41
1
10
158.727419872277
20
4.80001576752542
30
0
41
1
10
158.952483040277
20
5.11851226019465
30
0
41
1
10
159.167490168059
20
5.4363761908956
30
0
41
1
10
159.382435273983
20
5.74606249314436
30
0
0
SPLINE
5
2F5
100
AcDbEntity
8
1
62
256
6
ByLayer
370
13
48
1
60
0
100
AcDbSpline
70
4
71
3
72
24
73
20
40
0
40
0
40
0
40
0
40
0.0625000000000004
40
0.0625000000000004
40
0.125000000000001
40
0.125000000000001
40
0.250000000000001
40
0.250000000000001
40
0.3125
40
0.3125
40
0.375
40
0.375
40
0.5
40
0.5
40
0.625
40
0.625
40
0.75
40
0.75
40
1
40
1
40
1
40
1
41
1
10
95.8
20
-15.4154594774742
30
0
41
1
10
94.8072623459319
20
-15.4138744558267
30
0
41
1
10
93.8136880470285
20
-15.4126535975073
30
0
41
1
10
91.8251502499186
20
-15.4119246874455
30
0
41
1
10
90.830198028534
20
-15.4123872056915
30
0
41
1
10
87.8438398247835
20
-15.4162531790489
30
0
41
1
10
85.8510395446356
20
-15.4221439590443
30
0
41
1
10
82.8628026836137
20
-15.4327728742559
30
0
41
1
10
81.8667284589208
20
-15.4365976306262
30
0
41
1
10
79.8745795053295
20
-15.4442099071805
30
0
41
1
10
78.8785040510081
20
-15.447955248468
30
0
41
1
10
75.8902730375519
20
-15.4589143340459
30
0
41
1
10
73.8981137686868
20
-15.4659077436422
30
0
41
1
10
69.9137886498601
20
-15.4795137386728
30
0
41
1
10
67.9216230084572
20
-15.4861376354047
30
0
41
1
10
63.9372931047343
20
-15.4994656417313
30
0
41
1
10
61.9451291179773
20
-15.5061857040039
30
0
41
1
10
55.9686413719055
20
-15.5265892360913
30
0
41
1
10
51.9843244814019
20
-15.540640044132
30
0
41
1
10
48
20
-15.5543160006184
30
0
0
SPLINE
5
2F6
100
AcDbEntity
8
1
62
256
6
ByLayer
370
13
48
1
60
0
100
AcDbSpline
70
4
71
3
72
10
73
6
40
0
40
0
40
0
40
0
40
0.486652987408159
40
0.486652987408159
40
1
40
1
40
1
40
1
41
1
10
142.868948087416
20
6.82862958694904
30
0
41
1
10
145.073181385776
20
6.95339447536733
30
0
41
1
10
147.276899418457
20
7.03599854218558
30
0
41
1
10
151.807804993961
20
7.11525694226321
30
0
41
1
10
154.134254580271
20
7.10685917954777
30
0
41
1
10
156.460826418944
20
7.04757127239733
30
0
0
SPLINE
5
2F7
100
AcDbEntity
8
1
62
256
6
ByLayer
370
13
48
1
60
0
100
AcDbSpline
70
4
71
3
72
14
73
10
40
0
40
0
40
0
40
0
40
0.25
40
0.25
40
0.5
40
0.5
40
0.75
40
0.75
40
1
40
1
40
1
40
1
41
1
10
42.5825766578679
20
-14.9937613928489
30
0
41
1
10
42.3583181216595
20
-14.9941344021269
30
0
41
1
10
42.1380993124212
20
-15.0126952052895
30
0
41
1
10
41.7051296129896
20
-15.0834391265238
30
0
41
1
10
41.4923822379023
20
-15.1356380704228
30
0
41
1
10
41.0741786260873
20
-15.2728623652154
30
0
41
1
10
40.8744890165763
20
-15.3559826941958
30
0
41
1
10
40.4923946153541
20
-15.5470251796203
30
0
41
1
10
40.3098295852017
20
-15.6550336583775
30
0
41
1
10
40.135029113334
20
-15.7744729227526
30
0
0
SPLINE
5
2F8
100
AcDbEntity
8
1
62
256
6
ByLayer
370
13
48
1
60
0
100
AcDbSpline
70
4
71
3
72
8
73
4
40
0
40
0
40
0
40
0
40
1
40
1
40
1
40
1
41
1
10
154.927410283275
20
1.63424738404791
30
0
41
1
10
155.067863150105
20
1.60570589753911
30
0
41
1
10
155.19786271673
20
1.59913056908798
30
0
41
1
10
155.322286338898
20
1.60427231322581
30
0
0
SPLINE
5
2F9
100
AcDbEntity
8
1
62
256
6
ByLayer
370
13
48
1
60
0
100
AcDbSpline
70
4
71
3
72
8
73
4
40
0
40
0
40
0
40
0
40
1
40
1
40
1
40
1
41
1
10
173.61149616152
20
0.492290864639699
30
0
41
1
10
173.720725548802
20
0.519398162704448
30
0
41
1
10
173.829383923533
20
0.534529354041439
30
0
41
1
10
173.938489834123
20
0.53970425290629
30
0
0
SPLINE
5
2FA
100
AcDbEntity
8
1
62
256
6
ByLayer
370
13
48
1
60
0
100
AcDbSpline
70
4
71
3
72
24
73
20
40
0
40
0
40
0
40
0
40
0.127469766954581
40
0.127469766954581
40
0.191204650431871
40
0.191204650431871
40
0.254939533909162
40
0.254939533909162
40
0.509879067818327
40
0.509879067818327
40
0.637348834772908
40
0.637348834772908
40
0.701083718250197
40
0.701083718250197
40
0.764818601727486
40
0.764818601727486
40
0.892288368682063
40
0.892288368682063
40
1
40
1
40
1
40
1
41
1
10
154.746676788277
20
15.1809707744826
30
0
41
1
10
153.548442307984
20
15.2794969018439
30
0
41
1
10
152.350737363046
20
15.3501687528235
30
0
41
1
10
150.553117994401
20
15.4137192469994
30
0
41
1
10
149.953469953729
20
15.4278316627784
30
0
41
1
10
148.754937062569
20
15.441826949121
30
0
41
1
10
148.156164881952
20
15.4417163755389
30
0
41
1
10
145.16404281592
20
15.4057877519957
30
0
41
1
10
142.775709770353
20
15.2638617831756
30
0
41
1
10
139.189243653135
20
14.8851690172066
30
0
41
1
10
137.993135529406
20
14.7312932655977
30
0
41
1
10
136.196699076288
20
14.4593108140555
30
0
41
1
10
135.59728394
20
14.3617472815067
30
0
41
1
10
134.39996423419
20
14.1536153059684
30
0
41
1
10
133.8017750588
20
14.0429925565442
30
0
41
1
10
132.007904661631
20
13.6922152580211
30
0
41
1
10
130.812712369503
20
13.4331937845358
30
0
41
1
10
128.602127712751
20
12.9185135508676
30
0
41
1
10
127.587549750694
20
12.6686273799989
30
0
41
1
10
126.569017973834
20
12.4084000802087
30
0
0
SPLINE
5
2FB
100
AcDbEntity
8
1
62
256
6
ByLayer
370
13
48
1
60
0
100
AcDbSpline
70
4
71
3
72
8
73
4
40
0
40
0
40
0
40
0
40
1
40
1
40
1
40
1
41
1
10
48
20
-15.5543160006185
30
0
41
1
10
46.3333326130986
20
-15.5543325435474
30
0
41
1
10
44.6666657725006
20
-15.5542791415805
30
0
41
1
10
43
20
-15.5540879478931
30
0
0
SPLINE
5
2FC
100
AcDbEntity
8
1
62
256
6
ByLayer
370
13
48
1
60
0
100
AcDbSpline
70
4
71
3
72
20
73
16
40
0
40
0
40
0
40
0
40
0.125
40
0.125
40
0.249999999999999
40
0.249999999999999
40
0.374999999999999
40
0.374999999999999
40
0.499999999999998
40
0.499999999999998
40
0.624999999999998
40
0.624999999999998
40
0.749999999999997
40
0.749999999999997
40
1
40
1
40
1
40
1
41
1
10
3.99999999999997
20
-28.671515774934
30
0
41
1
10
3.99999999999997
20
-28.6846958371704
30
0
41
1
10
3.99678089345187
20
-28.6976096368706
30
0
41
1
10
3.98417021302268
20
-28.7229318862573
30
0
41
1
10
3.97463125273031
20
-28.7354671452441
30
0
41
1
10
3.9496846666206
20
-28.759332763577
30
0
41
1
10
3.93441471590089
20
-28.7706170121705
30
0
41
1
10
3.89832966838667
20
-28.7919224597979
30
0
41
1
10
3.87729497403694
20
-28.8019976380366
30
0
41
1
10
3.8312862589714
20
-28.8200342413541
30
0
41
1
10
3.80617472999899
20
-28.8281090591321
30
0
41
1
10
3.75163574759752
20
-28.8423541642692
30
0
41
1
10
3.72246038743286
20
-28.8484259972568
30
0
41
1
10
3.63211811691132
20
-28.8630086139508
30
0
41
1
10
3.56628454349328
20
-28.8681684146396
30
0
41
1
10
3.49999999999997
20
-28.8681684146396
30
0
0
SPLINE
5
2FD
100
AcDbEntity
8
1
62
256
6
ByLayer
370
13
48
1
60
0
100
AcDbSpline
70
4
71
3
72
8
73
4
40
0
40
0
40
0
40
0
40
1
40
1
40
1
40
1
41
1
10
154.927410283275
20
1.63424738404825
30
0
41
1
10
154.90488265555
20
1.64360554244968
30
0
41
1
10
154.882461092016
20
1.65327521670534
30
0
41
1
10
154.860146339489
20
1.66325842332799
30
0
0
SPLINE
5
2FE
100
AcDbEntity
8
1
62
256
6
ByLayer
370
13
48
1
60
0
100
AcDbSpline
70
4
71
3
72
10
73
6
40
0
40
0
40
0
40
0
40
0.5
40
0.5
40
1
40
1
40
1
40
1
41
1
10
157.248385861136
20
0.308404792855299
30
0
41
1
10
157.670309493265
20
0.124487281019725
30
0
41
1
10
158.100703452158
20
-0.0231750968602285
30
0
41
1
10
158.978110336384
20
-0.245946163319758
30
0
41
1
10
159.425106400408
20
-0.321131291735071
30
0
41
1
10
159.880987396674
20
-0.357132796677831
30
0
0
SPLINE
5
2FF
100
AcDbEntity
8
1
62
256
6
ByLayer
370
13
48
1
60
0
100
AcDbSpline
70
4
71
3
72
8
73
4
40
0
40
0
40
0
40
0
40
1
40
1
40
1
40
1
41
1
10
161.740525732182
20
11.2228613929316
30
0
41
1
10
161.725786317611
20
11.1879699362646
30
0
41
1
10
161.708175011282
20
11.1565898862858
30
0
41
1
10
161.689016925911
20
11.1286313004788
30
0
0
SPLINE
5
300
100
AcDbEntity
8
1
62
256
6
ByLayer
370
13
48
1
60
0
100
AcDbSpline
70
4
71
3
72
12
73
8
40
0
40
0
40
0
40
0
40
0.023824668157346
40
0.023824668157346
40
0.476984680831546
40
0.476984680831546
40
1
40
1
40
1
40
1
41
1
10
43.45
20
-14.9794039098725
30
0
41
1
10
43.45
20
-14.9287879217051
30
0
41
1
10
43.45
20
-14.8781719336167
30
0
41
1
10
43.45
20
-13.8648083590969
30
0
41
1
10
43.45
20
-12.9020608011614
30
0
41
1
10
43.45
20
-10.8281567440373
30
0
41
1
10
43.45
20
-9.71700025438616
30
0
41
1
10
43.45
20
-8.60584380322049
30
0
0
SPLINE
5
301
100
AcDbEntity
8
1
62
256
6
ByLayer
370
13
48
1
60
0
100
AcDbSpline
70
4
71
3
72
52
73
48
40
0
40
0
40
0
40
0
40
0.0077790887329974
40
0.0077790887329974
40
0.0276235069583373
40
0.0276235069583373
40
0.0474679251836771
40
0.0474679251836771
40
0.0871567616343576
40
0.0871567616343576
40
0.126845598085038
40
0.126845598085038
40
0.146690016310378
40
0.146690016310378
40
0.166534434535719
40
0.166534434535719
40
0.206223270986399
40
0.206223270986399
40
0.24591210743708
40
0.24591210743708
40
0.28560094388776
40
0.28560094388776
40
0.3054453621131
40
0.3054453621131
40
0.32528978033844
40
0.32528978033844
40
0.364978616789121
40
0.364978616789121
40
0.404667453239801
40
0.404667453239801
40
0.444356289690481
40
0.444356289690481
40
0.484045126141161
40
0.484045126141161
40
0.523733962591841
40
0.523733962591841
40
0.563422799042521
40
0.563422799042521
40
0.603111635493201
40
0.603111635493201
40
0.682489308394561
40
0.682489308394561
40
0.76186698129592
40
0.76186698129592
40
0.84124465419728
40
0.84124465419728
40
1
40
1
40
1
40
1
41
1
10
130.526070826993
20
-12.6499074373213
30
0
41
1
10
130.315188747205
20
-12.6986102366633
30
0
41
1
10
130.104314005065
20
-12.7466462786084
30
0
41
1
10
129.355489819486
20
-12.9148594002004
30
0
41
1
10
128.81750518837
20
-13.031142442734
30
0
41
1
10
127.740818311432
20
-13.2525597502376
30
0
41
1
10
127.202144562213
20
-13.3575171912717
30
0
41
1
10
125.583630847762
20
-13.6538029062933
30
0
41
1
10
124.501073467944
20
-13.8268956512874
30
0
41
1
10
122.319360702665
20
-14.1379023289523
30
0
41
1
10
121.220560419686
20
-14.2762406271479
30
0
41
1
10
119.55850556599
20
-14.4489460723456
30
0
41
1
10
119.002111505588
20
-14.5007470690733
30
0
41
1
10
117.887682045167
20
-14.5943656559982
30
0
41
1
10
117.3292833766
20
-14.6362237430705
30
0
41
1
10
115.650677897416
20
-14.749722854436
30
0
41
1
10
114.52707837287
20
-14.8093590335357
30
0
41
1
10
112.270915603164
20
-14.90326796082
30
0
41
1
10
111.13835838725
20
-14.9374360671901
30
0
41
1
10
108.86430289061
20
-14.9883400177237
30
0
41
1
10
107.722833677734
20
-15.0058511045279
30
0
41
1
10
106.003123251902
20
-15.0234516934625
30
0
41
1
10
105.428632286162
20
-15.0278488508793
30
0
41
1
10
104.276977337392
20
-15.0340727697731
30
0
41
1
10
103.699581858114
20
-15.0358988112431
30
0
41
1
10
101.966535453803
20
-15.0379566860517
30
0
41
1
10
100.809136273893
20
-15.0345491241526
30
0
41
1
10
98.4900339597254
20
-15.0238204770181
30
0
41
1
10
97.3283487216766
20
-15.0162852691769
30
0
41
1
10
95.0006047585964
20
-15.0008062697263
30
0
41
1
10
93.8344572484298
20
-14.9929211777457
30
0
41
1
10
91.4982844900504
20
-14.9831771908731
30
0
41
1
10
90.3283276360971
20
-14.9805523133442
30
0
41
1
10
87.9858748515516
20
-14.9785341386043
30
0
41
1
10
86.8134867609637
20
-14.9792327932032
30
0
41
1
10
84.4695136360732
20
-14.981922168981
30
0
41
1
10
83.2975275344453
20
-14.9838100879776
30
0
41
1
10
80.9535556663623
20
-14.9863472463626
30
0
41
1
10
79.7815698722982
20
-14.9868113887127
30
0
41
1
10
76.2656122514971
20
-14.985577954297
30
0
41
1
10
73.921640342157
20
-14.9820440567548
30
0
41
1
10
69.2336958327549
20
-14.9778996629073
30
0
41
1
10
66.8897232615502
20
-14.9768215099174
30
0
41
1
10
62.201778413978
20
-14.9770124925152
30
0
41
1
10
59.8578061879964
20
-14.9781327768908
30
0
41
1
10
52.8258894954344
20
-14.9801347315776
30
0
41
1
10
48.1379450376478
20
-14.9799442893954
30
0
41
1
10
43.45
20
-14.9794039098726
30
0
0
SPLINE
5
302
100
AcDbEntity
8
1
62
256
6
ByLayer
370
13
48
1
60
0
100
AcDbSpline
70
4
71
3
72
8
73
4
40
0
40
0
40
0
40
0
40
1
40
1
40
1
40
1
41
1
10
155.5312085897
20
1.21706495908501
30
0
41
1
10
156.069187509284
20
0.849839131614743
30
0
41
1
10
156.640620695316
20
0.544952207005508
30
0
41
1
10
157.248385861136
20
0.308404792855299
30
0
0
SPLINE
5
303
100
AcDbEntity
8
1
62
256
6
ByLayer
370
13
48
1
60
0
100
AcDbSpline
70
4
71
3
72
8
73
4
40
0
40
0
40
0
40
0
40
1
40
1
40
1
40
1
41
1
10
172.272363248246
20
6.48046503771423
30
0
41
1
10
172.261472500321
20
6.46768069350955
30
0
41
1
10
172.250627479496
20
6.45525581540372
30
0
41
1
10
172.239795201118
20
6.44321129597125
30
0
0
SPLINE
5
304
100
AcDbEntity
8
1
62
256
6
ByLayer
370
13
48
1
60
0
100
AcDbSpline
70
4
71
3
72
36
73
32
40
0
40
0
40
0
40
0
40
0.0363884952101123
40
0.14263460722492
40
0.258219049731576
40
0.383291891078607
40
0.517841455998123
40
0.531261382523746
40
0.545252496310185
40
0.559816753201397
40
0.5749560311525
40
0.590672117701818
40
0.606966695991515
40
0.623841329445707
40
0.641297445194883
40
0.659336316322067
40
0.67795904299814
40
0.69716653256949
40
0.716959478660356
40
0.737338339353831
40
0.758303314519371
40
0.779854322360388
40
0.801990975262795
40
0.824712555034131
40
0.848017987633065
40
0.871905817500241
40
0.896374181613899
40
0.921420783407214
40
0.947042866698663
40
0.973237189802154
40
1
40
1
40
1
40
1
41
1
10
40.7983433686202
20
-5.77925564378737
30
0
41
1
10
40.8161796259518
20
-5.81436664938445
30
0
41
1
10
40.8877005375963
20
-5.9526524859655
30
0
41
1
10
41.0283226466345
20
-6.20733576964565
30
0
41
1
10
41.240712429878
20
-6.55462924959735
30
0
41
1
10
41.4960535239571
20
-6.931363135146
30
0
41
1
10
41.6994589067379
20
-7.20265693868456
30
0
41
1
10
41.8243871321561
20
-7.36110747523844
30
0
41
1
10
41.8569331630009
20
-7.40209215152811
30
0
41
1
10
41.891018553098
20
-7.44462963480959
30
0
41
1
10
41.9266752332715
20
-7.48869432878791
30
0
41
1
10
41.9639385595577
20
-7.53425198859981
30
0
41
1
10
42.0028409781015
20
-7.58126679411958
30
0
41
1
10
42.0434133704387
20
-7.62969910170975
30
0
41
1
10
42.0856841943131
20
-7.67950584370246
30
0
41
1
10
42.1296792254626
20
-7.73064018027858
30
0
41
1
10
42.1754211060937
20
-7.78305136704748
30
0
41
1
10
42.2229289251634
20
-7.83668456769863
30
0
41
1
10
42.2722177677184
20
-7.8914806898122
30
0
41
1
10
42.3232982520479
20
-7.94737622405893
30
0
41
1
10
42.3761760506277
20
-8.0043030929796
30
0
41
1
10
42.4308513979467
20
-8.06218851493921
30
0
41
1
10
42.4873185850823
20
-8.12095486334465
30
0
41
1
10
42.5455654482037
20
-8.18051960857488
30
0
41
1
10
42.6055728329908
20
-8.24079501127443
30
0
41
1
10
42.6673141156309
20
-8.30168886088646
30
0
41
1
10
42.7307544804145
20
-8.36310125631272
30
0
41
1
10
42.7958511288457
20
-8.42493679891291
30
0
41
1
10
42.862549893836
20
-8.48705732257915
30
0
41
1
10
42.9307957585453
20
-8.54946435505309
30
0
41
1
10
42.9767674198244
20
-8.59044734961262
30
0
41
1
10
43
20
-8.61115882012396
30
0
0
SPLINE
5
305
100
AcDbEntity
8
1
62
256
6
ByLayer
370
13
48
1
60
0
100
AcDbSpline
70
4
71
3
72
8
73
4
40
0
40
0
40
0
40
0
40
1
40
1
40
1
40
1
41
1
10
154.606126840918
20
14.9319388861064
30
0
41
1
10
154.65333314174
20
15.0147385708755
30
0
41
1
10
154.700179535589
20
15.0977513248333
30
0
41
1
10
154.746676788277
20
15.1809707744912
30
0
0
SPLINE
5
306
100
AcDbEntity
8
1
62
256
6
ByLayer
370
13
48
1
60
0
100
AcDbSpline
70
4
71
3
72
12
73
8
40
0
40
0
40
0
40
0
40
0.0638589131186468
40
0.0638589131186468
40
0.908827223225795
40
0.908827223225795
40
1
40
1
40
1
40
1
41
1
10
162.399670661604
20
15.404525441425
30
0
41
1
10
162.393781850592
20
15.4045675888004
30
0
41
1
10
162.387894679783
20
15.4046163266683
30
0
41
1
10
162.304145679578
20
15.4054041420147
30
0
41
1
10
162.227714293144
20
15.4072656560086
30
0
41
1
10
162.144596412143
20
15.4105052813134
30
0
41
1
10
162.136508923708
20
15.4108338852604
30
0
41
1
10
162.128433018123
20
15.4111752597387
30
0
0
SPLINE
5
307
100
AcDbEntity
8
1
62
256
6
ByLayer
370
13
48
1
60
0
100
AcDbSpline
70
4
71
3
72
42
73
38
40
0
40
0
40
0
40
0
40
0.124999999999999
40
0.124999999999999
40
0.187499999999998
40
0.187499999999998
40
0.218749999999998
40
0.218749999999998
40
0.249999999999997
40
0.249999999999997
40
0.374999999999998
40
0.374999999999998
40
0.406249999999998
40
0.406249999999998
40
0.437499999999999
40
0.437499999999999
40
0.5
40
0.5
40
0.562500000000002
40
0.562500000000002
40
0.593750000000003
40
0.593750000000003
40
0.625000000000003
40
0.625000000000003
40
0.687500000000002
40
0.687500000000002
40
0.718750000000002
40
0.718750000000002
40
0.750000000000002
40
0.750000000000002
40
0.875000000000001
40
0.875000000000001
40
0.90625
40
0.90625
40
0.9375
40
0.9375
40
1
40
1
40
1
40
1
41
1
10
21.0616320875768
20
-14.2202870408872
30
0
41
1
10
20.6233106642661
20
-14.3344053718947
30
0
41
1
10
20.1918802435567
20
-14.4754602114306
30
0
41
1
10
19.5550032272219
20
-14.7270991795703
30
0
41
1
10
19.3444371807128
20
-14.8177114777542
30
0
41
1
10
19.0313241087906
20
-14.9642698272526
30
0
41
1
10
18.9274102786949
20
-15.0149004046502
30
0
41
1
10
18.7205382023137
20
-15.1198700238556
30
0
41
1
10
18.6174074717235
20
-15.1743130856241
30
0
41
1
10
18.1097727317254
20
-15.4531680125042
30
0
41
1
10
17.7249836620181
20
-15.6990341249494
30
0
41
1
10
17.2741205188756
20
-16.0388287172233
30
0
41
1
10
17.1854771510365
20
-16.1084361854241
30
0
41
1
10
17.0114434517043
20
-16.2511664740781
30
0
41
1
10
16.9258194399887
20
-16.3245424717113
30
0
41
1
10
16.6770204241163
20
-16.5475247141409
30
0
41
1
10
16.521195227476
20
-16.7003931024128
30
0
41
1
10
16.2304980892256
20
-17.0149994855334
30
0
41
1
10
16.0956148915839
20
-17.1767324997305
30
0
41
1
10
15.9104408770574
20
-17.4266453804823
30
0
41
1
10
15.8513530135388
20
-17.5115420355685
30
0
41
1
10
15.7406206112668
20
-17.6818487839946
30
0
41
1
10
15.6889758698792
20
-17.7671843762916
30
0
41
1
10
15.5452607209307
20
-18.0237606377164
30
0
41
1
10
15.4644033904858
20
-18.1955759451909
30
0
41
1
10
15.3664450500471
20
-18.4545416792574
30
0
41
1
10
15.3376937527184
20
-18.5410714556011
30
0
41
1
10
15.2883337627813
20
-18.7145737591411
30
0
41
1
10
15.2676719606715
20
-18.8018370466807
30
0
41
1
10
15.1865553934943
20
-19.2360765656005
30
0
41
1
10
15.1933785154377
20
-19.565947177245
30
0
41
1
10
15.292149813242
20
-19.9564264103683
30
0
41
1
10
15.3165448240485
20
-20.0334484045542
30
0
41
1
10
15.3735421247802
20
-20.1823880868535
30
0
41
1
10
15.406223303405
20
-20.2546854536574
30
0
41
1
10
15.5165277984601
20
-20.4652210814534
30
0
41
1
10
15.6064101879688
20
-20.5971122186723
30
0
41
1
10
15.7126405767906
20
-20.7205628329806
30
0
0
SPLINE
5
308
100
AcDbEntity
8
1
62
256
6
ByLayer
370
13
48
1
60
0
100
AcDbSpline
70
4
71
3
72
8
73
4
40
0
40
0
40
0
40
0
40
1
40
1
40
1
40
1
41
1
10
164.577177362957
20
5.60196296882347
30
0
41
1
10
164.594041978989
20
5.62325932936841
30
0
41
1
10
164.610619193222
20
5.64526617364962
30
0
41
1
10
164.626860490697
20
5.66802786897773
30
0
0
SPLINE
5
309
100
AcDbEntity
8
1
62
256
6
ByLayer
370
13
48
1
60
0
100
AcDbSpline
70
4
71
3
72
18
73
14
40
0
40
0
40
0
40
0
40
0.249999999999952
40
0.249999999999952
40
0.374999999999938
40
0.374999999999938
40
0.499999999999924
40
0.499999999999924
40
0.749999999999962
40
0.749999999999962
40
0.874999999999981
40
0.874999999999981
40
1
40
1
40
1
40
1
41
1
10
165.047897987271
20
6.09541845851373
30
0
41
1
10
165.042577437435
20
6.09513962031224
30
0
41
1
10
165.043841381656
20
6.10539807244433
30
0
41
1
10
165.059106477314
20
6.13381640330908
30
0
41
1
10
165.066465131787
20
6.14532091208358
30
0
41
1
10
165.086407390975
20
6.17081927166237
30
0
41
1
10
165.099258471744
20
6.18506405655856
30
0
41
1
10
165.145341733345
20
6.22753106530604
30
0
41
1
10
165.187529427411
20
6.25622380443323
30
0
41
1
10
165.260818392806
20
6.28740907331419
30
0
41
1
10
165.287330506592
20
6.29608705559153
30
0
41
1
10
165.341475229366
20
6.3085685936463
30
0
41
1
10
165.369340552734
20
6.31252341600083
30
0
41
1
10
165.398008897068
20
6.31404142661429
30
0
0
SPLINE
5
30A
100
AcDbEntity
8
1
62
256
6
ByLayer
370
13
48
1
60
0
100
AcDbSpline
70
4
71
3
72
16
73
12
40
0
40
0
40
0
40
0
40
0.249999999999995
40
0.249999999999995
40
0.49999999999999
40
0.49999999999999
40
0.624999999999992
40
0.624999999999992
40
0.749999999999995
40
0.749999999999995
40
1
40
1
40
1
40
1
41
1
10
160.550863319957
20
5.08457909363074
30
0
41
1
10
161.019989998966
20
4.97573142771682
30
0
41
1
10
161.483417371418
20
4.90068958498694
30
0
41
1
10
162.399394587859
20
4.80811543663378
30
0
41
1
10
162.851927846255
20
4.79067108001095
30
0
41
1
10
163.522096237969
20
4.80313791278345
30
0
41
1
10
163.744500926866
20
4.81380065641827
30
0
41
1
10
164.183294942074
20
4.84721567017903
30
0
41
1
10
164.399791158733
20
4.86993735501929
30
0
41
1
10
165.040677356243
20
4.95481281712884
30
0
41
1
10
165.456493655625
20
5.03364414263271
30
0
41
1
10
165.860734530262
20
5.13178766186812
30
0
0
SPLINE
5
30B
100
AcDbEntity
8
1
62
256
6
ByLayer
370
13
48
1
60
0
100
AcDbSpline
70
4
71
3
72
14
73
10
40
0
40
0
40
0
40
0
40
0.12499999999998
40
0.12499999999998
40
0.24999999999996
40
0.24999999999996
40
0.5
40
0.5
40
1
40
1
40
1
40
1
41
1
10
169.761993817159
20
6.34247375228557
30
0
41
1
10
169.792113769768
20
6.34405227211397
30
0
41
1
10
169.822818960288
20
6.3464769040236
30
0
41
1
10
169.883573711223
20
6.35293437201989
30
0
41
1
10
169.913939134247
20
6.35698754123135
30
0
41
1
10
170.004478065703
20
6.37154811979579
30
0
41
1
10
170.064217497994
20
6.38445218317969
30
0
41
1
10
170.242069107209
20
6.43289711915685
30
0
41
1
10
170.358762182606
20
6.47791810459125
30
0
41
1
10
170.475090701798
20
6.53839619787286
30
0
0
SPLINE
5
30C
100
AcDbEntity
8
1
62
256
6
ByLayer
370
13
48
1
60
0
100
AcDbSpline
70
4
71
3
72
45
73
41
40
0
40
0
40
0
40
0
40
0.0312499999999992
40
0.0312499999999992
40
0.0624999999999984
40
0.0937499999999976
40
0.0937499999999976
40
0.124999999999997
40
0.124999999999997
40
0.249999999999996
40
0.249999999999996
40
0.312499999999996
40
0.312499999999996
40
0.343749999999995
40
0.343749999999995
40
0.374999999999995
40
0.374999999999995
40
0.437499999999995
40
0.437499999999995
40
0.468749999999995
40
0.468749999999995
40
0.499999999999995
40
0.499999999999995
40
0.562499999999995
40
0.562499999999995
40
0.593749999999995
40
0.593749999999995
40
0.624999999999995
40
0.624999999999995
40
0.687499999999996
40
0.687499999999996
40
0.749999999999997
40
0.749999999999997
40
0.812499999999998
40
0.812499999999998
40
0.874999999999998
40
0.874999999999998
40
0.937499999999999
40
0.937499999999999
40
1
40
1
40
1
40
1
41
1
10
154.86014633949
20
1.66325842332739
30
0
41
1
10
154.257406767528
20
1.93291293458517
30
0
41
1
10
153.655280013909
20
2.20251080654512
30
0
41
1
10
152.450694375249
20
2.73814622034206
30
0
41
1
10
151.246198716929
20
3.27116000838757
30
0
41
1
10
150.041399513813
20
3.79788672497901
30
0
41
1
10
148.836196705969
20
4.32092554332766
30
0
41
1
10
148.233149776697
20
4.58070461421133
30
0
41
1
10
145.219284922961
20
5.86768062122479
30
0
41
1
10
142.816144996352
20
6.85758225446378
30
0
41
1
10
139.210584657818
20
8.25748292077878
30
0
41
1
10
138.008603372488
20
8.7099898940852
30
0
41
1
10
136.203751000211
20
9.36428584877572
30
0
41
1
10
135.60181832739
20
9.57830451729745
30
0
41
1
10
134.397023373157
20
9.99761701611445
30
0
41
1
10
133.793865735269
20
10.20299840929
30
0
41
1
10
131.986614035478
20
10.8041564816025
30
0
41
1
10
130.783773328412
20
11.1853015405491
30
0
41
1
10
128.981461050531
20
11.7258408482578
30
0
41
1
10
128.38104221647
20
11.9008592922083
30
0
41
1
10
127.180591259815
20
12.2400374647852
30
0
41
1
10
126.580496682245
20
12.4040951038573
30
0
41
1
10
124.778792646839
20
12.8773285760848
30
0
41
1
10
123.575799400467
20
13.1673866034915
30
0
41
1
10
121.76024259251
20
13.5572282891778
30
0
41
1
10
121.153221416338
20
13.6796946188997
30
0
41
1
10
119.933877693401
20
13.9088917864958
30
0
41
1
10
119.321704398535
20
14.0155623780669
30
0
41
1
10
117.479444415101
20
14.310598888102
30
0
41
1
10
116.241406949967
20
14.4737418444937
30
0
41
1
10
113.747283649322
20
14.7494777330455
30
0
41
1
10
112.491254312477
20
14.862127450291
30
0
41
1
10
109.964384161351
20
15.0502836726058
30
0
41
1
10
108.692891270398
20
15.1258533349931
30
0
41
1
10
106.142048431092
20
15.2490525823636
30
0
41
1
10
104.86308310793
20
15.2961992813356
30
0
41
1
10
102.29469845137
20
15.3670986745658
30
0
41
1
10
101.00517069968
20
15.3908526560084
30
0
41
1
10
98.4125591754158
20
15.4226987382075
30
0
41
1
10
97.1096965407039
20
15.430966132779
30
0
41
1
10
95.8
20
15.4353745496582
30
0
0
SPLINE
5
30D
100
AcDbEntity
8
1
62
256
6
ByLayer
370
13
48
1
60
0
100
AcDbSpline
70
4
71
3
72
14
73
10
40
0
40
0
40
0
40
0
40
0.499999999999999
40
0.499999999999999
40
0.625000000000001
40
0.625000000000001
40
0.750000000000003
40
0.750000000000003
40
1
40
1
40
1
40
1
41
1
10
42.5825766858841
20
-15.5600077530556
30
0
41
1
10
42.1520464229006
20
-15.5722707284067
30
0
41
1
10
41.7309239137718
20
-15.599119228747
30
0
41
1
10
41.2158103696937
20
-15.6467260322736
30
0
41
1
10
41.1133601394633
20
-15.6569325257438
30
0
41
1
10
40.9096254506042
20
-15.6785338382491
30
0
41
1
10
40.8085345281581
20
-15.6899127482097
30
0
41
1
10
40.5113645547884
20
-15.724948798247
30
0
41
1
10
40.319928710405
20
-15.7496681819123
30
0
41
1
10
40.135029113334
20
-15.7744729227526
30
0
0
SPLINE
5
30E
100
AcDbEntity
8
1
62
256
6
ByLayer
370
13
48
1
60
0
100
AcDbSpline
70
4
71
3
72
10
73
6
40
0
40
0
40
0
40
0
40
0.864304243500302
40
0.864304243500302
40
1
40
1
40
1
40
1
41
1
10
95.8
20
15.4353745496582
30
0
41
1
10
94.8117137812944
20
15.4419707742504
30
0
41
1
10
93.8218240786891
20
15.4463965628339
30
0
41
1
10
92.6746788352195
20
15.4504609440554
30
0
41
1
10
92.5189775765454
20
15.4509901257164
30
0
41
1
10
92.363238505714
20
15.4515000001431
30
0
0
SPLINE
5
30F
100
AcDbEntity
8
1
62
256
6
ByLayer
370
13
48
1
60
0
100
AcDbSpline
70
4
71
3
72
24
73
20
40
0
40
0
40
0
40
0
40
0.082030542519698
40
0.082030542519698
40
0.164061085039396
40
0.164061085039396
40
0.328122170078794
40
0.328122170078794
40
0.492183255118191
40
0.492183255118191
40
0.656244340157589
40
0.656244340157589
40
0.738274882677288
40
0.738274882677288
40
0.820305425196987
40
0.820305425196987
40
0.984366510236384
40
0.984366510236384
40
1
40
1
40
1
40
1
41
1
10
43.01
20
-8.60584380322049
30
0
41
1
10
43.01
20
-8.52659719124026
30
0
41
1
10
43.01
20
-8.44537923435149
30
0
41
1
10
43.01
20
-8.27896220851446
30
0
41
1
10
43.01
20
-8.1939065135897
30
0
41
1
10
43.01
20
-7.93639329508875
30
0
41
1
10
43.01
20
-7.7604792052052
30
0
41
1
10
43.01
20
-7.40021390671328
30
0
41
1
10
43.01
20
-7.2145540901704
30
0
41
1
10
43.01
20
-6.84908169087936
30
0
41
1
10
43.01
20
-6.66769090804817
30
0
41
1
10
43.01
20
-6.39764648228845
30
0
41
1
10
43.01
20
-6.30751492104301
30
0
41
1
10
43.01
20
-6.13097700169419
30
0
41
1
10
43.01
20
-6.04444806045427
30
0
41
1
10
43.01
20
-5.78990459428545
30
0
41
1
10
43.01
20
-5.62691898479889
30
0
41
1
10
43.01
20
-5.45595794832892
30
0
41
1
10
43.01
20
-5.44114983699208
30
0
41
1
10
43.01
20
-5.42641780321773
30
0
0
SPLINE
5
310
100
AcDbEntity
8
1
62
256
6
ByLayer
370
13
48
1
60
0
100
AcDbSpline
70
4
71
3
72
12
73
8
40
0
40
0
40
0
40
0
40
0.25
40
0.25
40
0.5
40
0.5
40
1
40
1
40
1
40
1
41
1
10
157.577610376451
20
7.13074747203436
30
0
41
1
10
157.734462905754
20
7.13185073519574
30
0
41
1
10
157.886359038207
20
7.13992732506725
30
0
41
1
10
158.184444675866
20
7.16492109596732
30
0
41
1
10
158.330573281958
20
7.18187547672918
30
0
41
1
10
158.763267227042
20
7.24198654359361
30
0
41
1
10
159.044269902612
20
7.2942025823167
30
0
41
1
10
159.321343683049
20
7.35355662430089
30
0
0
SPLINE
5
311
100
AcDbEntity
8
1
62
256
6
ByLayer
370
13
48
1
60
0
100
AcDbSpline
70
4
71
3
72
10
73
6
40
0
40
0
40
0
40
0
40
0.5
40
0.5
40
1
40
1
40
1
40
1
41
1
10
165.860734530262
20
5.13178766186815
30
0
41
1
10
166.175827649792
20
5.2082874657666
30
0
41
1
10
166.479774699244
20
5.26799084567702
30
0
41
1
10
167.063882172502
20
5.36153697067562
30
0
41
1
10
167.34401554193
20
5.39533425165672
30
0
41
1
10
167.610598502115
20
5.41942421160107
30
0
0
SPLINE
5
312
100
AcDbEntity
8
1
62
256
6
ByLayer
370
13
48
1
60
0
100
AcDbSpline
70
4
71
3
72
10
73
6
40
0
40
0
40
0
40
0
40
0.5
40
0.5
40
1
40
1
40
1
40
1
41
1
10
156.598146846847
20
7.11566465761038
30
0
41
1
10
156.698481737785
20
7.1176115845908
30
0
41
1
10
156.798607017317
20
7.11582995390373
30
0
41
1
10
156.993820768736
20
7.10481107016631
30
0
41
1
10
157.089424515898
20
7.0956042494411
30
0
41
1
10
157.183049323061
20
7.08267194615692
30
0
0
SPLINE
5
313
100
AcDbEntity
8
1
62
256
6
ByLayer
370
13
48
1
60
0
100
AcDbSpline
70
4
71
3
72
8
73
4
40
0
40
0
40
0
40
0
40
1
40
1
40
1
40
1
41
1
10
43.45
20
-14.9794033718699
30
0
41
1
10
43.3033333043167
20
-14.979618062083
30
0
41
1
10
43.1566666353647
20
-14.9798466594083
30
0
41
1
10
43.01
20
-14.9800897491011
30
0
0
SPLINE
5
314
100
AcDbEntity
8
1
62
256
6
ByLayer
370
13
48
1
60
0
100
AcDbSpline
70
4
71
3
72
44
73
40
40
0
40
0
40
0
40
0
40
0.125000000000022
40
0.125000000000022
40
0.250000000000044
40
0.250000000000044
40
0.281250000000047
40
0.281250000000047
40
0.312500000000051
40
0.312500000000051
40
0.375000000000052
40
0.375000000000052
40
0.406250000000053
40
0.406250000000053
40
0.437500000000054
40
0.437500000000054
40
0.50000000000005
40
0.50000000000005
40
0.562500000000045
40
0.562500000000045
40
0.593750000000043
40
0.593750000000043
40
0.625000000000041
40
0.625000000000041
40
0.687500000000033
40
0.687500000000033
40
0.750000000000025
40
0.750000000000025
40
0.781250000000022
40
0.781250000000022
40
0.812500000000019
40
0.812500000000019
40
0.875000000000012
40
0.875000000000012
40
0.906250000000009
40
0.906250000000009
40
0.937500000000006
40
0.937500000000006
40
1
40
1
40
1
40
1
41
1
10
159.669489886962
20
1.01599314751721
30
0
41
1
10
160.188349705887
20
0.958088940640891
30
0
41
1
10
160.707996456373
20
0.919860278723178
30
0
41
1
10
161.749327027082
20
0.894335538107072
30
0
41
1
10
162.271002591043
20
0.906833029195298
30
0
41
1
10
162.924789687655
20
0.964775786977583
30
0
41
1
10
163.055726687568
20
0.978531411200152
30
0
41
1
10
163.314785077179
20
1.01028581017422
30
0
41
1
10
163.44326755374
20
1.02831122189718
30
0
41
1
10
163.82544358213
20
1.08910145514386
30
0
41
1
10
164.07587719797
20
1.13855674415095
30
0
41
1
10
164.444310854069
20
1.22755087319632
30
0
41
1
10
164.565916732129
20
1.25968934076081
30
0
41
1
10
164.806562206513
20
1.32923313529241
30
0
41
1
10
164.925957668804
20
1.36676181575723
30
0
41
1
10
165.277460002544
20
1.48695833730702
30
0
41
1
10
165.50101387171
20
1.57648318890477
30
0
41
1
10
165.925712433204
20
1.77505870318871
30
0
41
1
10
166.126870273651
20
1.88409790950953
30
0
41
1
10
166.410407718506
20
2.06351434754615
30
0
41
1
10
166.501877878977
20
2.12597069570319
30
0
41
1
10
166.678358486581
20
2.25651194068109
30
0
41
1
10
166.763293042952
20
2.32461387270581
30
0
41
1
10
167.002902669016
20
2.53336821487861
30
0
41
1
10
167.144328347259
20
2.67976999958691
30
0
41
1
10
167.390473278825
20
2.98706892827408
30
0
41
1
10
167.49520459489
20
3.14796130867819
30
0
41
1
10
167.623153566601
20
3.40081041912933
30
0
41
1
10
167.660494016414
20
3.48622730376212
30
0
41
1
10
167.724269199815
20
3.6578830559076
30
0
41
1
10
167.750815881171
20
3.74434140802791
30
0
41
1
10
167.814824450785
20
4.00556170604207
30
0
41
1
10
167.836721728204
20
4.18216100056958
30
0
41
1
10
167.838668324873
20
4.45070750046446
30
0
41
1
10
167.834098093887
20
4.54071463673677
30
0
41
1
10
167.815040881516
20
4.71900717575568
30
0
41
1
10
167.800565869329
20
4.80766143704656
30
0
41
1
10
167.74296083236
20
5.07221376720065
30
0
41
1
10
167.685701747395
20
5.24670644925803
30
0
41
1
10
167.610598502115
20
5.41942421160107
30
0
0
SPLINE
5
315
100
AcDbEntity
8
1
62
256
6
ByLayer
370
13
48
1
60
0
100
AcDbSpline
70
4
71
3
72
10
73
6
40
0
40
0
40
0
40
0
40
0.5
40
0.5
40
1
40
1
40
1
40
1
41
1
10
159.38243527398
20
5.74606249314047
30
0
41
1
10
159.481518625319
20
5.65109438797802
30
0
41
1
10
159.585402023547
20
5.56573193765925
30
0
41
1
10
159.801409667248
20
5.41099324000359
30
0
41
1
10
159.913723978207
20
5.34159177560295
30
0
41
1
10
160.029964447276
20
5.28025868421821
30
0
0
SPLINE
5
316
100
AcDbEntity
8
1
62
256
6
ByLayer
370
13
48
1
60
0
100
AcDbSpline
70
4
71
3
72
12
73
8
40
0
40
0
40
0
40
0
40
0.5
40
0.5
40
0.75
40
0.75
40
1
40
1
40
1
40
1
41
1
10
40.1122274080687
20
-6.08705992582884
30
0
41
1
10
40.48732102664
20
-5.87489370991131
30
0
41
1
10
40.884001739432
20
-5.71305213593143
30
0
41
1
10
41.5120286527487
20
-5.54720240858231
30
0
41
1
10
41.7241343474956
20
-5.50570802331762
30
0
41
1
10
42.1507777019345
20
-5.45039542541909
30
0
41
1
10
42.3658025945257
20
-5.43644678216546
30
0
41
1
10
42.5825768782507
20
-5.43653851520349
30
0
0
SPLINE
5
317
100
AcDbEntity
8
1
62
256
6
ByLayer
370
13
48
1
60
0
100
AcDbSpline
70
4
71
3
72
10
73
6
40
0
40
0
40
0
40
0
40
0.5
40
0.5
40
1
40
1
40
1
40
1
41
1
10
167.327525578925
20
6.21488867818462
30
0
41
1
10
166.981444929113
20
6.19675135987515
30
0
41
1
10
166.635043947178
20
6.17859725367049
30
0
41
1
10
165.942044601964
20
6.14227869694321
30
0
41
1
10
165.595438408281
20
6.12411383604658
30
0
41
1
10
165.24937704339
20
6.10597752841699
30
0
0
SPLINE
5
318
100
AcDbEntity
8
1
62
256
6
ByLayer
370
13
48
1
60
0
100
AcDbSpline
70
4
71
3
72
18
73
14
40
0
40
0
40
0
40
0
40
0.125
40
0.125
40
0.25
40
0.25
40
0.375
40
0.375
40
0.5
40
0.5
40
0.75
40
0.75
40
1
40
1
40
1
40
1
41
1
10
3.5
20
4.071
30
0
41
1
10
3.53313786373266
20
4.071
30
0
41
1
10
3.56571437152503
20
4.06773825503476
30
0
41
1
10
3.62979178235618
20
4.0549642196203
30
0
41
1
10
3.66163009287776
20
4.0452922126251
30
0
41
1
10
3.72224769381357
20
4.02009169717891
30
0
41
1
10
3.75098493959378
20
4.0046780359489
30
0
41
1
10
3.80534965726009
20
3.9682803362596
30
0
41
1
10
3.83103465192988
20
3.94713512033869
30
0
41
1
10
3.90005538657958
20
3.87792338749412
30
0
41
1
10
3.93715614492459
20
3.82221744830628
30
0
41
1
10
3.98681993674636
20
3.70223281055104
30
0
41
1
10
4
20
3.63682791353096
30
0
41
1
10
4
20
3.571
30
0
0
SPLINE
5
319
100
AcDbEntity
8
1
62
256
6
ByLayer
370
13
48
1
60
0
100
AcDbSpline
70
4
71
3
72
8
73
4
40
0
40
0
40
0
40
0
40
1
40
1
40
1
40
1
41
1
10
164.309577534668
20
5.36357596874532
30
0
41
1
10
164.300819609977
20
5.35284261547787
30
0
41
1
10
164.294862370822
20
5.34489031879713
30
0
41
1
10
164.292144673411
20
5.33985196373644
30
0
0
SPLINE
5
31A
100
AcDbEntity
8
1
62
256
6
ByLayer
370
13
48
1
60
0
100
AcDbSpline
70
4
71
3
72
16
73
12
40
0
40
0
40
0
40
0
40
0.0388011731203767
40
0.0388011731203767
40
0.199000977600333
40
0.199000977600333
40
0.35920078208029
40
0.35920078208029
40
0.679600391040145
40
0.679600391040145
40
1
40
1
40
1
40
1
41
1
10
164.292155225694
20
5.33344981972689
30
0
41
1
10
164.292829188477
20
5.33342203100312
30
0
41
1
10
164.293700345813
20
5.33357345508901
30
0
41
1
10
164.299152660372
20
5.33523836930266
30
0
41
1
10
164.306964937093
20
5.33966540939039
30
0
41
1
10
164.327480828188
20
5.35354361994911
30
0
41
1
10
164.340362351747
20
5.36310317712253
30
0
41
1
10
164.384402765885
20
5.39837035087768
30
0
41
1
10
164.419896225754
20
5.42971973562206
30
0
41
1
10
164.497241845207
20
5.50723138250234
30
0
41
1
10
164.537224154111
20
5.55151071192671
30
0
41
1
10
164.577177362957
20
5.60196296882376
30
0
0
SPLINE
5
31B
100
AcDbEntity
8
1
62
256
6
ByLayer
370
13
48
1
60
0
100
AcDbSpline
70
4
71
3
72
8
73
4
40
0
40
0
40
0
40
0
40
1
40
1
40
1
40
1
41
1
10
154.606126840921
20
14.9319388861109
30
0
41
1
10
155.273235713474
20
13.6785157278411
30
0
41
1
10
156.0484519566
20
12.4954541458026
30
0
41
1
10
156.960851720599
20
11.4016783239354
30
0
0
SPLINE
5
31C
100
AcDbEntity
8
1
62
256
6
ByLayer
370
13
48
1
60
0
100
AcDbSpline
70
4
71
3
72
16
73
12
40
0
40
0
40
0
40
0
40
0.249999999999997
40
0.249999999999997
40
0.499999999999993
40
0.499999999999993
40
0.624999999999998
40
0.624999999999998
40
0.750000000000003
40
0.750000000000003
40
1
40
1
40
1
40
1
41
1
10
156.260533221947
20
6.04941520566771
30
0
41
1
10
156.280369112645
20
6.11630125184186
30
0
41
1
10
156.298782079136
20
6.19020479379469
30
0
41
1
10
156.334429919786
20
6.35221068036313
30
0
41
1
10
156.350829707479
20
6.43672699590314
30
0
41
1
10
156.37448698167
20
6.56826710625805
30
0
41
1
10
156.382255951182
20
6.61318522726091
30
0
41
1
10
156.39733405637
20
6.70208664120318
30
0
41
1
10
156.404686871575
20
6.74633139718676
30
0
41
1
10
156.426906012655
20
6.87832932089293
30
0
41
1
10
156.441353306291
20
6.96639062123609
30
0
41
1
10
156.460826418944
20
7.04757127239728
30
0
0
SPLINE
5
31D
100
AcDbEntity
8
1
62
256
6
ByLayer
370
13
48
1
60
0
100
AcDbSpline
70
4
71
3
72
18
73
14
40
0
40
0
40
0
40
0
40
0.124999999999998
40
0.124999999999998
40
0.249999999999996
40
0.249999999999996
40
0.374999999999994
40
0.374999999999994
40
0.499999999999991
40
0.499999999999991
40
0.749999999999996
40
0.749999999999996
40
1
40
1
40
1
40
1
41
1
10
3.49999999999997
20
-24.7971684146396
30
0
41
1
10
3.53313786373262
20
-24.7971684146396
30
0
41
1
10
3.565714371525
20
-24.7991708649535
30
0
41
1
10
3.62979178235615
20
-24.8070079171001
30
0
41
1
10
3.66163009287773
20
-24.8129404212305
30
0
41
1
10
3.72224769381353
20
-24.8283807660819
30
0
41
1
10
3.75098493959375
20
-24.8378182632163
30
0
41
1
10
3.80534965726007
20
-24.8600713287164
30
0
41
1
10
3.83103465192985
20
-24.8729848039646
30
0
41
1
10
3.90005538657954
20
-24.915177279341
30
0
41
1
10
3.93715614492456
20
-24.9490402765773
30
0
41
1
10
3.98681993674631
20
-25.0216340711904
30
0
41
1
10
3.99999999999997
20
-25.0610443716919
30
0
41
1
10
3.99999999999997
20
-25.100515774934
30
0
0
SPLINE
5
31E
100
AcDbEntity
8
1
62
256
6
ByLayer
370
13
48
1
60
0
100
AcDbSpline
70
4
71
3
72
28
73
24
40
0
40
0
40
0
40
0
40
0.113460945052964
40
0.113460945052964
40
0.226921890105929
40
0.226921890105929
40
0.340382835158893
40
0.340382835158893
40
0.39711330768538
40
0.39711330768538
40
0.453843780211867
40
0.453843780211867
40
0.680765670317805
40
0.680765670317805
40
0.737496142844287
40
0.737496142844287
40
0.794226615370769
40
0.794226615370769
40
0.907687560423725
40
0.907687560423725
40
0.964418032950207
40
0.964418032950207
40
1
40
1
40
1
40
1
41
1
10
156.131606944767
20
5.53466261481174
30
0
41
1
10
155.812461890253
20
5.60803489959457
30
0
41
1
10
155.490185430615
20
5.66798868958457
30
0
41
1
10
154.839982760003
20
5.76545065843587
30
0
41
1
10
154.512047803023
20
5.80291679110096
30
0
41
1
10
153.850481953944
20
5.85741759962372
30
0
41
1
10
153.516848606731
20
5.87443435757766
30
0
41
1
10
153.011739989182
20
5.88510984524709
30
0
41
1
10
152.842590520725
20
5.88618399284965
30
0
41
1
10
152.502624520489
20
5.88334237970577
30
0
41
1
10
152.331418118299
20
5.87940855692349
30
0
41
1
10
151.476552988567
20
5.84729387752995
30
0
41
1
10
150.7970039068
20
5.78258358798931
30
0
41
1
10
149.953000316971
20
5.65218048062818
30
0
41
1
10
149.784475260625
20
5.62358719912686
30
0
41
1
10
149.447996583128
20
5.56117286174322
30
0
41
1
10
149.279489460846
20
5.52722617966467
30
0
41
1
10
148.779933910773
20
5.41819503821256
30
0
41
1
10
148.45471946452
20
5.33607551861615
30
0
41
1
10
147.98033286769
20
5.19771449982733
30
0
41
1
10
147.824454547817
20
5.14904742328872
30
0
41
1
10
147.574879680851
20
5.06531872155915
30
0
41
1
10
147.479390131392
20
5.03183937161532
30
0
41
1
10
147.385398495554
20
4.99732819642568
30
0
0
SPLINE
5
31F
100
AcDbEntity
8
1
62
256
6
ByLayer
370
13
48
1
60
0
100
AcDbSpline
70
4
71
3
72
8
73
4
40
0
40
0
40
0
40
0
40
1
40
1
40
1
40
1
41
1
10
154.907657413621
20
1.73814944861863
30
0
41
1
10
154.867295295355
20
1.75460288450049
30
0
41
1
10
154.827145821333
20
1.77162828367005
30
0
41
1
10
154.787210671327
20
1.78923228665644
30
0
0
SPLINE
5
320
100
AcDbEntity
8
1
62
256
6
ByLayer
370
13
48
1
60
0
100
AcDbSpline
70
4
71
3
72
8
73
4
40
0
40
0
40
0
40
0
40
1
40
1
40
1
40
1
41
1
10
160.248385861136
20
-15.5321331096616
30
0
41
1
10
159.248385860405
20
-15.4790668416479
30
0
41
1
10
158.248385860398
20
-15.4260005601427
30
0
41
1
10
157.248385861136
20
-15.3729342647221
30
0
0
SPLINE
5
321
100
AcDbEntity
8
1
62
256
6
ByLayer
370
13
48
1
60
0
100
AcDbSpline
70
4
71
3
72
30
73
26
40
0
40
0
40
0
40
0
40
0.249999999999999
40
0.249999999999999
40
0.374999999999999
40
0.374999999999999
40
0.437499999999999
40
0.437499999999999
40
0.499999999999999
40
0.499999999999999
40
0.624999999999998
40
0.624999999999998
40
0.656249999999999
40
0.656249999999999
40
0.687499999999999
40
0.687499999999999
40
0.75
40
0.75
40
0.875
40
0.875
40
0.9375
40
0.9375
40
0.96875
40
0.96875
40
1
40
1
40
1
40
1
41
1
10
21.0587745651391
20
-25.3119335308668
30
0
41
1
10
22.7960866648965
20
-24.7819593979909
30
0
41
1
10
24.466250527187
20
-24.1384257197171
30
0
41
1
10
26.8726204096388
20
-23.0059085496336
30
0
41
1
10
27.6581825553349
20
-22.6003949952303
30
0
41
1
10
28.8111490041381
20
-21.9492080578564
30
0
41
1
10
29.1912361947703
20
-21.724983680787
30
0
41
1
10
29.9427800029935
20
-21.2619391012318
30
0
41
1
10
30.3142934354634
20
-21.0230626370666
30
0
41
1
10
31.4122727546906
20
-20.2863167094365
30
0
41
1
10
32.1233442189284
20
-19.7677069503756
30
0
41
1
10
32.9849770325697
20
-19.0837424426844
30
0
41
1
10
33.1548362156423
20
-18.9437116716436
30
0
41
1
10
33.5024355205194
20
-18.6739920528705
30
0
41
1
10
33.6791327647513
20
-18.5429346676781
30
0
41
1
10
34.2178282011338
20
-18.1610528985291
30
0
41
1
10
34.5884095938967
20
-17.921491995421
30
0
41
1
10
35.7345462985529
20
-17.2479415834265
30
0
41
1
10
36.5441138838914
20
-16.8585853771821
30
0
41
1
10
37.8331265564132
20
-16.3725268811367
30
0
41
1
10
38.2753284137693
20
-16.2269513999884
30
0
41
1
10
38.9592320042327
20
-16.0356220059293
30
0
41
1
10
39.1906414161344
20
-15.9763617836565
30
0
41
1
10
39.660758784265
20
-15.8674190034305
30
0
41
1
10
39.8977245345852
20
-15.8181678996726
30
0
41
1
10
40.135029113334
20
-15.7744729227526
30
0
0
SPLINE
5
322
100
AcDbEntity
8
1
62
256
6
ByLayer
370
13
48
1
60
0
100
AcDbSpline
70
4
71
3
72
8
73
4
40
0
40
0
40
0
40
0
40
1
40
1
40
1
40
1
41
1
10
160.029964447276
20
5.2802586842181
30
0
41
1
10
160.197579790813
20
5.19181816720211
30
0
41
1
10
160.370866556364
20
5.12634228567629
30
0
41
1
10
160.550863319957
20
5.08457909363068
30
0
0
SPLINE
5
323
100
AcDbEntity
8
1
62
256
6
ByLayer
370
13
48
1
60
0
100
AcDbSpline
70
4
71
3
72
8
73
4
40
0
40
0
40
0
40
0
40
1
40
1
40
1
40
1
41
1
10
157.321538252174
20
1.58874309803358
30
0
41
1
10
157.538952500875
20
1.50476825262444
30
0
41
1
10
157.758796842696
20
1.42629770511087
30
0
41
1
10
157.981296683095
20
1.35382916759909
30
0
0
SPLINE
5
324
100
AcDbEntity
8
1
62
256
6
ByLayer
370
13
48
1
60
0
100
AcDbSpline
70
4
71
3
72
14
73
10
40
0
40
0
40
0
40
0
40
0.0127321910428058
40
0.0127321910428058
40
0.341821460695204
40
0.341821460695204
40
0.670910730347602
40
0.670910730347602
40
1
40
1
40
1
40
1
41
1
10
43.4499014622011
20
-5.43506581609262
30
0
41
1
10
43.4498980579658
20
-5.44698200024916
30
0
41
1
10
43.4498947101987
20
-5.45895324141279
30
0
41
1
10
43.4498063612168
20
-5.78179545402438
30
0
41
1
10
43.4497593921477
20
-6.12850866163183
30
0
41
1
10
43.4497478171842
20
-6.84807147732715
30
0
41
1
10
43.4497832147491
20
-7.22070604434487
30
0
41
1
10
43.4499317187295
20
-7.94261201443433
30
0
41
1
10
43.4500447807645
20
-8.29166767618517
30
0
41
1
10
43.4501892086941
20
-8.60584373907358
30
0
0
SPLINE
5
325
100
AcDbEntity
8
1
62
256
6
ByLayer
370
13
48
1
60
0
100
AcDbSpline
70
4
71
3
72
12
73
8
40
0
40
0
40
0
40
0
40
0.455411926325713
40
0.455411926325713
40
0.727705963162857
40
0.727705963162857
40
1
40
1
40
1
40
1
41
1
10
142.68256152597
20
6.89362689210398
30
0
41
1
10
144.521950744161
20
6.1678909558517
30
0
41
1
10
146.357793995312
20
5.41409173910642
30
0
41
1
10
149.291605433088
20
4.17728030586932
30
0
41
1
10
150.389446560335
20
3.70726708898678
30
0
41
1
10
152.58672023104
20
2.75599149704394
30
0
41
1
10
153.686169306939
20
2.27463803189127
30
0
41
1
10
154.787047814578
20
1.78930408004621
30
0
0
SPLINE
5
326
100
AcDbEntity
8
1
62
256
6
ByLayer
370
13
48
1
60
0
100
AcDbSpline
70
4
71
3
72
16
73
12
40
0
40
0
40
0
40
0
40
0.250000000000016
40
0.250000000000016
40
0.500000000000032
40
0.500000000000032
40
0.625000000000024
40
0.625000000000024
40
0.750000000000016
40
0.750000000000016
40
1
40
1
40
1
40
1
41
1
10
155.478740522061
20
1.55770852039188
30
0
41
1
10
155.641121828115
20
1.51301317481389
30
0
41
1
10
155.801768214706
20
1.48139697620582
30
0
41
1
10
156.120045362026
20
1.44171517866619
30
0
41
1
10
156.277668260395
20
1.43367809136112
30
0
41
1
10
156.511706590646
20
1.43875783007411
30
0
41
1
10
156.589598527855
20
1.44335129824438
30
0
41
1
10
156.742950426528
20
1.4581359006736
30
0
41
1
10
156.818332204745
20
1.46829229683326
30
0
41
1
10
157.040632891854
20
1.50666436166782
30
0
41
1
10
157.183727605985
20
1.54275376478029
30
0
41
1
10
157.321538252174
20
1.58874309803363
30
0
0
SPLINE
5
327
100
AcDbEntity
8
1
62
256
6
ByLayer
370
13
48
1
60
0
100
AcDbSpline
70
4
71
3
72
8
73
4
40
0
40
0
40
0
40
0
40
1
40
1
40
1
40
1
41
1
10
164.36657230402
20
5.9073133080125
30
0
41
1
10
164.395507632392
20
5.89476622981218
30
0
41
1
10
164.421827329259
20
5.88288082413425
30
0
41
1
10
164.446104162958
20
5.87304275575411
30
0
0
SPLINE
5
328
100
AcDbEntity
8
1
62
256
6
ByLayer
370
13
48
1
60
0
100
AcDbSpline
70
4
71
3
72
10
73
6
40
0
40
0
40
0
40
0
40
0.5
40
0.5
40
1
40
1
40
1
40
1
41
1
10
157.998172352336
20
4.60980130791995
30
0
41
1
10
157.706929422913
20
4.79029539703569
30
0
41
1
10
157.403841626415
20
4.95506666002527
30
0
41
1
10
156.780148022083
20
5.26135585234115
30
0
41
1
10
156.459474652424
20
5.40278410038815
30
0
41
1
10
156.13160694477
20
5.53466261481006
30
0
0
SPLINE
5
329
100
AcDbEntity
8
1
62
256
6
ByLayer
370
13
48
1
60
0
100
AcDbSpline
70
4
71
3
72
12
73
8
40
0
40
0
40
0
40
0
40
0.249999999999999
40
0.249999999999999
40
0.499999999999997
40
0.499999999999997
40
1
40
1
40
1
40
1
41
1
10
156.46082641894
20
7.04757127238713
30
0
41
1
10
156.463929528837
20
7.06050769846158
30
0
41
1
10
156.472140179255
20
7.07178810471419
30
0
41
1
10
156.492294700564
20
7.08923116318056
30
0
41
1
10
156.504351121229
20
7.09581594197022
30
0
41
1
10
156.542098611571
20
7.11086171405827
30
0
41
1
10
156.569952759951
20
7.11511709633882
30
0
41
1
10
156.598077574669
20
7.11566331284882
30
0
0
SPLINE
5
32A
100
AcDbEntity
8
1
62
256
6
ByLayer
370
13
48
1
60
0
100
AcDbSpline
70
4
71
3
72
38
73
34
40
0
40
0
40
0
40
0
40
0.0625
40
0.0625
40
0.125
40
0.125
40
0.1875
40
0.1875
40
0.25
40
0.25
40
0.3125
40
0.3125
40
0.375
40
0.375
40
0.4375
40
0.4375
40
0.5
40
0.5
40
0.5625
40
0.5625
40
0.625
40
0.625
40
0.6875
40
0.6875
40
0.75
40
0.75
40
0.8125
40
0.8125
40
0.875
40
0.875
40
0.9375
40
0.9375
40
1
40
1
40
1
40
1
41
1
10
165.012093360424
20
6.01218051442027
30
0
41
1
10
164.975848746627
20
5.92563917313271
30
0
41
1
10
164.933931611619
20
5.84185504751821
30
0
41
1
10
164.840073077371
20
5.68258838820745
30
0
41
1
10
164.789166854138
20
5.60866674301548
30
0
41
1
10
164.679703807054
20
5.4705174823458
30
0
41
1
10
164.62076119126
20
5.40595349315447
30
0
41
1
10
164.496759059153
20
5.28758710018025
30
0
41
1
10
164.432311322255
20
5.2342421936022
30
0
41
1
10
164.298220879817
20
5.13779364406426
30
0
41
1
10
164.228598196968
20
5.09470154007232
30
0
41
1
10
164.083067142324
20
5.01823382998126
30
0
41
1
10
164.007007782029
20
4.98485617926994
30
0
41
1
10
163.849471640508
20
4.92911760679078
30
0
41
1
10
163.767423111479
20
4.90642347453226
30
0
41
1
10
163.59254545557
20
4.87252610727407
30
0
41
1
10
163.501655772958
20
4.86176688524768
30
0
41
1
10
163.311348430877
20
4.85416214371472
30
0
41
1
10
163.217719110361
20
4.8574902177487
30
0
41
1
10
163.032264275725
20
4.87666639307625
30
0
41
1
10
162.943283063464
20
4.89219979379416
30
0
41
1
10
162.769547163328
20
4.93398939883721
30
0
41
1
10
162.684792691277
20
4.96029744422367
30
0
41
1
10
162.518211184302
20
5.02422398260154
30
0
41
1
10
162.437678327544
20
5.0613724213394
30
0
41
1
10
162.28185141525
20
5.14623001747108
30
0
41
1
10
162.206499530465
20
5.19395693503967
30
0
41
1
10
162.060884473371
20
5.30127799661938
30
0
41
1
10
161.990681919601
20
5.36099668986347
30
0
41
1
10
161.8600856117
20
5.48996562541427
30
0
41
1
10
161.799102832174
20
5.55958662378623
30
0
41
1
10
161.686541933361
20
5.7107537174584
30
0
41
1
10
161.636078652721
20
5.79100832963604
30
0
41
1
10
161.592713141589
20
5.87441160198318
30
0
0
SPLINE
5
32B
100
AcDbEntity
8
1
62
256
6
ByLayer
370
13
48
1
60
0
100
AcDbSpline
70
4
71
3
72
56
73
52
40
0
40
0
40
0
40
0
40
0.031250000000002
40
0.031250000000002
40
0.0625000000000039
40
0.0625000000000039
40
0.0937500000000059
40
0.0937500000000059
40
0.125000000000008
40
0.125000000000008
40
0.140625000000009
40
0.140625000000009
40
0.156250000000011
40
0.156250000000011
40
0.171875000000013
40
0.171875000000013
40
0.187500000000014
40
0.187500000000014
40
0.195312500000015
40
0.195312500000015
40
0.203125000000016
40
0.203125000000016
40
0.218750000000016
40
0.218750000000016
40
0.250000000000016
40
0.250000000000016
40
0.281250000000016
40
0.281250000000016
40
0.312500000000015
40
0.312500000000015
40
0.375000000000015
40
0.375000000000015
40
0.437500000000014
40
0.437500000000014
40
0.500000000000013
40
0.500000000000013
40
0.531250000000013
40
0.531250000000013
40
0.562500000000013
40
0.562500000000013
40
0.625000000000011
40
0.625000000000011
40
0.750000000000008
40
0.750000000000008
40
0.781250000000007
40
0.781250000000007
40
0.812500000000006
40
0.812500000000006
40
0.875000000000004
40
0.875000000000004
40
1
40
1
40
1
40
1
41
1
10
156.599927065005
20
-15.3729342647223
30
0
41
1
10
155.938133832122
20
-15.3619918675137
30
0
41
1
10
155.273987852373
20
-15.3517091548949
30
0
41
1
10
153.94233975494
20
-15.3332718642072
30
0
41
1
10
153.274845723702
20
-15.3251008336625
30
0
41
1
10
151.9387005946
20
-15.3093830851861
30
0
41
1
10
151.270040253516
20
-15.3018354606788
30
0
41
1
10
149.933807319332
20
-15.2847640195712
30
0
41
1
10
149.26628681567
20
-15.2752177138756
30
0
41
1
10
148.268444689012
20
-15.2553654742313
30
0
41
1
10
147.936535253814
20
-15.2478084459946
30
0
41
1
10
147.277991982687
20
-15.2300029418621
30
0
41
1
10
146.950982419328
20
-15.2197552041326
30
0
41
1
10
146.302674714903
20
-15.1954592020733
30
0
41
1
10
145.981379219565
20
-15.1814147842902
30
0
41
1
10
145.345885533158
20
-15.1479641579427
30
0
41
1
10
145.031573600253
20
-15.1286390395834
30
0
41
1
10
144.567314296996
20
-15.0935401739246
30
0
41
1
10
144.413876853176
20
-15.0807411108646
30
0
41
1
10
144.109115633229
20
-15.053030994404
30
0
41
1
10
143.957571906015
20
-15.0382541195199
30
0
41
1
10
143.503343233341
20
-14.992386136449
30
0
41
1
10
143.200888690599
20
-14.9598945903899
30
0
41
1
10
142.293064841667
20
-14.8577157883445
30
0
41
1
10
141.687840107207
20
-14.7829273079235
30
0
41
1
10
140.477423762532
20
-14.6198800625824
30
0
41
1
10
139.872202581785
20
-14.5315360836709
30
0
41
1
10
138.663652903505
20
-14.3415289955026
30
0
41
1
10
138.060019231873
20
-14.2398894414253
30
0
41
1
10
136.249755268104
20
-13.9162444705985
30
0
41
1
10
135.043741552768
20
-13.6754077994725
30
0
41
1
10
132.626654656995
20
-13.1529071859844
30
0
41
1
10
131.415604800542
20
-12.8712325048866
30
0
41
1
10
128.982238713707
20
-12.2796233216866
30
0
41
1
10
127.75989939754
20
-11.9697370002235
30
0
41
1
10
125.913684533002
20
-11.4952018484543
30
0
41
1
10
125.295800405579
20
-11.3353607097478
30
0
41
1
10
124.057488873924
20
-11.0147482092459
30
0
41
1
10
123.437071803588
20
-10.8539690784348
30
0
41
1
10
121.571493152698
20
-10.3727193522237
30
0
41
1
10
120.322003049587
20
-10.0533159076933
30
0
41
1
10
116.551839118595
20
-9.12033469693731
30
0
41
1
10
114.009371025889
20
-8.53277825478389
30
0
41
1
10
110.791969331386
20
-7.8805384479432
30
0
41
1
10
110.146701843188
20
-7.75423977160648
30
0
41
1
10
108.854886869487
20
-7.51049878329627
30
0
41
1
10
108.208030844395
20
-7.3929922286884
30
0
41
1
10
106.264711890591
20
-7.05366309517035
30
0
41
1
10
104.965507148747
20
-6.84500270376387
30
0
41
1
10
101.057492074472
20
-6.27254879181322
30
0
41
1
10
98.4380625005898
20
-5.96354769562922
30
0
41
1
10
95.8
20
-5.76213819252465
30
0
0
SPLINE
5
32C
100
AcDbEntity
8
1
62
256
6
ByLayer
370
13
48
1
60
0
100
AcDbSpline
70
4
71
3
72
14
73
10
40
0
40
0
40
0
40
0
40
0.49999999999991
40
0.49999999999991
40
0.74999999999991
40
0.74999999999991
40
0.874999999999955
40
0.874999999999955
40
1
40
1
40
1
40
1
41
1
10
166.696176937944
20
6.34035171940712
30
0
41
1
10
166.827567025017
20
6.29285600816698
30
0
41
1
10
166.95910403268
20
6.26084421013701
30
0
41
1
10
167.15817792194
20
6.23215310249006
30
0
41
1
10
167.22482140966
20
6.22587248728325
30
0
41
1
10
167.32538096415
20
6.22132695599157
30
0
41
1
10
167.359033671345
20
6.2206288348188
30
0
41
1
10
167.426201740351
20
6.22087551773518
30
0
41
1
10
167.460064915309
20
6.22183477047219
30
0
41
1
10
167.493194820444
20
6.22357103522819
30
0
0
SPLINE
5
32D
100
AcDbEntity
8
1
62
256
6
ByLayer
370
13
48
1
60
0
100
AcDbSpline
70
4
71
3
72
22
73
18
40
0
40
0
40
0
40
0
40
0.125000000000001
40
0.125000000000001
40
0.250000000000001
40
0.250000000000001
40
0.312500000000001
40
0.312500000000001
40
0.375000000000001
40
0.375000000000001
40
0.500000000000001
40
0.500000000000001
40
0.625000000000001
40
0.625000000000001
40
0.75
40
0.75
40
1
40
1
40
1
40
1
41
1
10
95.8
20
-5.76213819252465
30
0
41
1
10
93.8140878214956
20
-5.610919505
30
0
41
1
10
91.8252761030398
20
-5.51833364679877
30
0
41
1
10
87.8437298374486
20
-5.41461597929737
30
0
41
1
10
85.8509700123772
20
-5.40508318345667
30
0
41
1
10
82.8627357111673
20
-5.41027731309711
30
0
41
1
10
81.866657154838
20
-5.41513836393352
30
0
41
1
10
79.8745002213917
20
-5.42356588637179
30
0
41
1
10
78.8784218084683
20
-5.42738992549621
30
0
41
1
10
75.8901868415729
20
-5.43700637320524
30
0
41
1
10
73.8980306056437
20
-5.44065626710693
30
0
41
1
10
69.9137192173937
20
-5.44075137889942
30
0
41
1
10
67.9215665545556
20
-5.43798507950592
30
0
41
1
10
63.9372605528428
20
-5.43395544347084
30
0
41
1
10
61.9451059328163
20
-5.43269955555945
30
0
41
1
10
55.9686347868259
20
-5.43236637299853
30
0
41
1
10
51.9843155938553
20
-5.43843918769048
30
0
41
1
10
48
20
-5.4396510246481
30
0
0
SPLINE
5
32E
100
AcDbEntity
8
1
62
256
6
ByLayer
370
13
48
1
60
0
100
AcDbSpline
70
4
71
3
72
8
73
4
40
0
40
0
40
0
40
0
40
1
40
1
40
1
40
1
41
1
10
43.01
20
-14.9930505159093
30
0
41
1
10
42.8675255511648
20
-14.9932868299831
30
0
41
1
10
42.7250511052027
20
-14.9935244150659
30
0
41
1
10
42.5825766578679
20
-14.9937613928489
30
0
0
SPLINE
5
32F
100
AcDbEntity
8
1
62
256
6
ByLayer
370
13
48
1
60
0
100
AcDbSpline
70
4
71
1
72
4
73
2
40
0
40
0
40
1
40
1
41
1
10
43.01
20
-14.9890024561822
30
0
41
1
10
43.01
20
-8.61115882012379
30
0
0
SPLINE
5
330
100
AcDbEntity
8
1
62
256
6
ByLayer
370
13
48
1
60
0
100
AcDbSpline
70
4
71
3
72
16
73
12
40
0
40
0
40
0
40
0
40
0.249999999999994
40
0.249999999999994
40
0.499999999999988
40
0.499999999999988
40
0.624999999999988
40
0.624999999999988
40
0.749999999999989
40
0.749999999999989
40
1
40
1
40
1
40
1
41
1
10
173.608208705443
20
0.330411737757316
30
0
41
1
10
173.608368108647
20
0.392323001185901
30
0
41
1
10
173.609606776751
20
0.45126991359254
30
0
41
1
10
173.61428527161
20
0.559871628965766
30
0
41
1
10
173.617640583933
20
0.607641687323337
30
0
41
1
10
173.624155050772
20
0.667292832634644
30
0
41
1
10
173.626523201049
20
0.684682665665633
30
0
41
1
10
173.631648328214
20
0.714531582403708
30
0
41
1
10
173.634433452489
20
0.72707865616357
30
0
41
1
10
173.643218590235
20
0.756019306213631
30
0
41
1
10
173.649579048164
20
0.763776217890097
30
0
41
1
10
173.656218686547
20
0.759161909582332
30
0
0
SPLINE
5
331
100
AcDbEntity
8
1
62
256
6
ByLayer
370
13
48
1
60
0
100
AcDbSpline
70
4
71
3
72
26
73
22
40
0
40
0
40
0
40
0
40
0.0865026021245724
40
0.0865026021245724
40
0.188002312999621
40
0.188002312999621
40
0.289502023874669
40
0.289502023874669
40
0.340251879312193
40
0.340251879312193
40
0.391001734749717
40
0.391001734749717
40
0.594001156499811
40
0.594001156499811
40
0.695500867374859
40
0.695500867374859
40
0.797000578249906
40
0.797000578249906
40
0.898500289124953
40
0.898500289124953
40
1
40
1
40
1
40
1
41
1
10
131.088632872342
20
-12.7851203370464
30
0
41
1
10
130.116601521367
20
-13.0256994120247
30
0
41
1
10
129.14512947817
20
-13.2513551508871
30
0
41
1
10
127.030384726489
20
-13.7043096546936
30
0
41
1
10
125.886253427499
20
-13.9246931955748
30
0
41
1
10
123.583210528349
20
-14.3117861343153
30
0
41
1
10
122.423841225172
20
-14.4781914515272
30
0
41
1
10
120.668564581213
20
-14.6900896857252
30
0
41
1
10
120.080866971863
20
-14.7544577691697
30
0
41
1
10
118.902648038919
20
-14.8714952883146
30
0
41
1
10
118.31181769801
20
-14.9242673486343
30
0
41
1
10
115.349454496014
20
-15.1631734587107
30
0
41
1
10
112.953668952095
20
-15.275814175096
30
0
41
1
10
109.323973696053
20
-15.3784893819047
30
0
41
1
10
108.107382168466
20
-15.4014606277056
30
0
41
1
10
105.668238925767
20
-15.431078125498
30
0
41
1
10
104.445089572686
20
-15.4377364082878
30
0
41
1
10
101.990337620083
20
-15.4412665428501
30
0
41
1
10
100.758655270923
20
-15.438185374632
30
0
41
1
10
98.2861822430834
20
-15.4283925096908
30
0
41
1
10
97.045418330873
20
-15.4216902669222
30
0
41
1
10
95.8
20
-15.4154594774742
30
0
0
SPLINE
5
332
100
AcDbEntity
8
1
62
256
6
ByLayer
370
13
48
1
60
0
100
AcDbSpline
70
4
71
3
72
34
73
30
40
0
40
0
40
0
40
0
40
0.0625000000000009
40
0.0625000000000009
40
0.0937500000000013
40
0.0937500000000013
40
0.125000000000002
40
0.125000000000002
40
0.250000000000004
40
0.250000000000004
40
0.281250000000004
40
0.281250000000004
40
0.312500000000005
40
0.312500000000005
40
0.343750000000005
40
0.343750000000005
40
0.359375000000005
40
0.359375000000005
40
0.375000000000005
40
0.375000000000005
40
0.500000000000004
40
0.500000000000004
40
0.625000000000004
40
0.625000000000004
40
0.687500000000003
40
0.687500000000003
40
0.750000000000003
40
0.750000000000003
40
1
40
1
40
1
40
1
41
1
10
40.1122274080687
20
-6.0870599258287
30
0
41
1
10
39.6639942482485
20
-6.15805714999951
30
0
41
1
10
39.2197117867527
20
-6.24544509326819
30
0
41
1
10
38.559233646707
20
-6.40119400826933
30
0
41
1
10
38.3394797575085
20
-6.45739621057362
30
0
41
1
10
37.9053399594131
20
-6.57717016971029
30
0
41
1
10
37.6910305276998
20
-6.64068950619
30
0
41
1
10
36.6328624477147
20
-6.97589102960492
30
0
41
1
10
35.8287633344943
20
-7.29989074268454
30
0
41
1
10
34.8739140066933
20
-7.7710440953048
30
0
41
1
10
34.685480966863
20
-7.86861284426146
30
0
41
1
10
34.313710612819
20
-8.07045554528719
30
0
41
1
10
34.1301793764485
20
-8.17485128059673
30
0
41
1
10
33.7697505992911
20
-8.38951951942232
30
0
41
1
10
33.5927395493829
20
-8.49984258706911
30
0
41
1
10
33.3320155574726
20
-8.66979901741036
30
0
41
1
10
33.2459066831621
20
-8.72719680079888
30
0
41
1
10
33.075289406116
20
-8.84348572409522
30
0
41
1
10
32.9907931399661
20
-8.90238818832131
30
0
41
1
10
32.2234176395047
20
-9.4260636681924
30
0
41
1
10
31.5173334722384
20
-9.86918479169933
30
0
41
1
10
30.058137744614
20
-10.71154705661
30
0
41
1
10
29.3050223617179
20
-11.1107846313074
30
0
41
1
10
28.1399373316439
20
-11.6765990600992
30
0
41
1
10
27.7451315400446
20
-11.8599231759627
30
0
41
1
10
26.9461351288282
20
-12.2143063053328
30
0
41
1
10
26.5426482179674
20
-12.3850779466527
30
0
41
1
10
24.5055426621489
20
-13.2072751719957
30
0
41
1
10
22.8133131426665
20
-13.7643650508249
30
0
41
1
10
21.0587018269006
20
-14.2210498292117
30
0
0
SPLINE
5
333
100
AcDbEntity
8
1
62
256
6
ByLayer
370
13
48
1
60
0
100
AcDbSpline
70
4
71
3
72
20
73
16
40
0
40
0
40
0
40
0
40
0.125000000000001
40
0.125000000000001
40
0.250000000000002
40
0.250000000000002
40
0.375000000000003
40
0.375000000000003
40
0.500000000000004
40
0.500000000000004
40
0.625000000000003
40
0.625000000000003
40
0.750000000000003
40
0.750000000000003
40
1
40
1
40
1
40
1
41
1
10
4
20
-3.571
30
0
41
1
10
4
20
-3.60391847015117
30
0
41
1
10
3.9967808934519
20
-3.63628658749522
30
0
41
1
10
3.98417021302271
20
-3.69996821091718
30
0
41
1
10
3.97463125273033
20
-3.73160337694856
30
0
41
1
10
3.94968466662063
20
-3.79202482069201
30
0
41
1
10
3.93441471590091
20
-3.82069145743844
30
0
41
1
10
3.89832966838669
20
-3.87496618988294
30
0
41
1
10
3.87729497403697
20
-3.90071402844961
30
0
41
1
10
3.83128625897143
20
-3.9469152199722
30
0
41
1
10
3.80617472999902
20
-3.96765672246548
30
0
41
1
10
3.75163574759755
20
-4.00431163300567
30
0
41
1
10
3.72246038743289
20
-4.01997188035244
30
0
41
1
10
3.63211811691134
20
-4.05762336203659
30
0
41
1
10
3.56628454349331
20
-4.071
30
0
41
1
10
3.5
20
-4.071
30
0
0
SPLINE
5
334
100
AcDbEntity
8
1
62
256
6
ByLayer
370
13
48
1
60
0
100
AcDbSpline
70
4
71
2
72
12
73
9
40
0
40
0
40
0
40
0.285577835952181
40
0.285577835952181
40
0.571155671904361
40
0.571155671904361
40
0.856733507856542
40
0.856733507856542
40
1
40
1
40
1
41
1
10
42.9999999999993
20
-8.61115882012396
30
0
41
1
10
38.7729940045046
20
-9.553819898841
30
0
41
1
10
35.0077480679431
20
-11.4000141153709
30
0
41
1
10
31.1272999428889
20
-13.3026948450557
30
0
41
1
10
28.0184144757496
20
-16.0191540753989
30
0
41
1
10
24.9242436396863
20
-18.7227560629039
30
0
41
1
10
22.8199321381713
20
-22.0341048968557
30
0
41
1
10
21.805156711865
20
-23.6309575596878
30
0
41
1
10
21.0591266254268
20
-25.311140596923
30
0
0
SPLINE
5
335
100
AcDbEntity
8
1
62
256
6
ByLayer
370
13
48
1
60
0
100
AcDbSpline
70
4
71
3
72
10
73
6
40
0
40
0
40
0
40
0
40
0.5
40
0.5
40
1
40
1
40
1
40
1
41
1
10
170.475090701798
20
6.53839619787283
30
0
41
1
10
170.503274804131
20
6.55304884523559
30
0
41
1
10
170.534371923656
20
6.56528945948733
30
0
41
1
10
170.599446419352
20
6.58293055719125
30
0
41
1
10
170.633185713393
20
6.58838645050355
30
0
41
1
10
170.668117385257
20
6.59023610906104
30
0
0
SPLINE
5
336
100
AcDbEntity
8
1
62
256
6
ByLayer
370
13
48
1
60
0
100
AcDbSpline
70
4
71
3
72
22
73
18
40
0
40
0
40
0
40
0
40
0.250000000000005
40
0.250000000000005
40
0.375000000000007
40
0.375000000000007
40
0.50000000000001
40
0.50000000000001
40
0.625000000000012
40
0.625000000000012
40
0.750000000000015
40
0.750000000000015
40
0.875000000000017
40
0.875000000000017
40
0.937500000000009
40
0.937500000000009
40
1
40
1
40
1
40
1
41
1
10
158.727419872286
20
4.8000157675198
30
0
41
1
10
158.723271285096
20
5.00692837088556
30
0
41
1
10
158.683677344006
20
5.21336157454536
30
0
41
1
10
158.572453639518
20
5.52487637595542
30
0
41
1
10
158.527156074384
20
5.62756512220665
30
0
41
1
10
158.422334192921
20
5.82982762938954
30
0
41
1
10
158.362742673258
20
5.92980231041122
30
0
41
1
10
158.229091278707
20
6.12801985078309
30
0
41
1
10
158.154292036864
20
6.22696402232862
30
0
41
1
10
157.992641699098
20
6.41779610054996
30
0
41
1
10
157.905819266113
20
6.50982713098296
30
0
41
1
10
157.720330652156
20
6.68762228105075
30
0
41
1
10
157.62177799111
20
6.77357675314363
30
0
41
1
10
157.463738058924
20
6.89649642086593
30
0
41
1
10
157.409052797604
20
6.93658050212969
30
0
41
1
10
157.297728592335
20
7.01262102393949
30
0
41
1
10
157.24096401074
20
7.04868731243761
30
0
41
1
10
157.18304932306
20
7.08267194615578
30
0
0
SPLINE
5
337
100
AcDbEntity
8
1
62
256
6
ByLayer
370
13
48
1
60
0
100
AcDbSpline
70
4
71
3
72
8
73
4
40
0
40
0
40
0
40
0
40
1
40
1
40
1
40
1
41
1
10
165.029798881808
20
6.04985287684897
30
0
41
1
10
165.023368020813
20
6.03755977558799
30
0
41
1
10
165.017452037299
20
6.02497543856819
30
0
41
1
10
165.012093360424
20
6.01218051442029
30
0
0
SPLINE
5
338
100
AcDbEntity
8
1
62
256
6
ByLayer
370
13
48
1
60
0
100
AcDbSpline
70
4
71
3
72
8
73
4
40
0
40
0
40
0
40
0
40
1
40
1
40
1
40
1
41
1
10
159.880987396674
20
-0.35713279667749
30
0
41
1
10
160.003452508646
20
-0.366804023094232
30
0
41
1
10
160.125918667473
20
-0.376467548890616
30
0
41
1
10
160.248385861136
20
-0.386123438837899
30
0
0
SPLINE
5
339
100
AcDbEntity
8
1
62
256
6
ByLayer
370
13
48
1
60
0
100
AcDbSpline
70
4
71
3
72
8
73
4
40
0
40
0
40
0
40
0
40
1
40
1
40
1
40
1
41
1
10
48
20
-5.4396510246481
30
0
41
1
10
46.3333325833663
20
-5.43995414259931
30
0
41
1
10
44.6666657314274
20
-5.43934602547424
30
0
41
1
10
43
20
-5.43692937916958
30
0
0
SPLINE
5
33A
100
AcDbEntity
8
1
62
256
6
ByLayer
370
13
48
1
60
0
100
AcDbSpline
70
4
71
1
72
4
73
2
40
0
40
0
40
1
40
1
41
1
10
43.4499999999788
20
-8.60584380513163
30
0
41
1
10
42.9999999999787
20
-8.60584380513163
30
0
0
SPLINE
5
33B
100
AcDbEntity
8
1
62
256
6
ByLayer
370
13
48
1
60
0
100
AcDbSpline
70
4
71
3
72
18
73
14
40
0
40
0
40
0
40
0
40
0.250000000000059
40
0.250000000000059
40
0.500000000000118
40
0.500000000000118
40
0.625000000000089
40
0.625000000000089
40
0.750000000000059
40
0.750000000000059
40
0.875000000000029
40
0.875000000000029
40
1
40
1
40
1
40
1
41
1
10
171.76218182354
20
6.64757363304818
30
0
41
1
10
171.810129052733
20
6.6500864408529
30
0
41
1
10
171.85871114672
20
6.64546317596449
30
0
41
1
10
171.950597047392
20
6.62413314297999
30
0
41
1
10
171.994591670394
20
6.60712934508666
30
0
41
1
10
172.05179742161
20
6.57783274492934
30
0
41
1
10
172.069770234266
20
6.56729668372168
30
0
41
1
10
172.101903050116
20
6.54667942436726
30
0
41
1
10
172.116242468164
20
6.53652731892007
30
0
41
1
10
172.141913882884
20
6.51741243300657
30
0
41
1
10
172.153146526484
20
6.50852217606587
30
0
41
1
10
172.172186498432
20
6.4933759615088
30
0
41
1
10
172.180144436367
20
6.48700288515707
30
0
41
1
10
172.186754930878
20
6.48206725187242
30
0
0
SPLINE
5
33C
100
AcDbEntity
8
1
62
256
6
ByLayer
370
13
48
1
60
0
100
AcDbSpline
70
4
71
3
72
8
73
4
40
0
40
0
40
0
40
0
40
1
40
1
40
1
40
1
41
1
10
155.322286338898
20
1.60427231322581
30
0
41
1
10
155.180794488271
20
1.638514254532
30
0
41
1
10
155.042584229552
20
1.68314713927475
30
0
41
1
10
154.907657413621
20
1.73814944861869
30
0
0
SPLINE
5
33D
100
AcDbEntity
8
1
62
256
6
ByLayer
370
13
48
1
60
0
100
AcDbSpline
70
4
71
3
72
30
73
26
40
0
40
0
40
0
40
0
40
0.0520078963737438
40
0.0520078963737438
40
0.10467412435298
40
0.10467412435298
40
0.157340352332216
40
0.157340352332216
40
0.210006580311452
40
0.210006580311452
40
0.262672808290688
40
0.262672808290688
40
0.368005264249161
40
0.368005264249161
40
0.420671492228397
40
0.420671492228397
40
0.473337720207634
40
0.473337720207634
40
0.578670176166107
40
0.578670176166107
40
0.684002632124581
40
0.684002632124581
40
0.789335088083054
40
0.789335088083054
40
1
40
1
40
1
40
1
41
1
10
111.015939524744
20
-7.94263024495987
30
0
41
1
10
109.856462833313
20
-8.02404781567802
30
0
41
1
10
108.695145557461
20
-8.09878511388186
30
0
41
1
10
106.353646051472
20
-8.23410292533367
30
0
41
1
10
105.173381000078
20
-8.29430672944395
30
0
41
1
10
102.807816733117
20
-8.39631290428471
30
0
41
1
10
101.621626140935
20
-8.43769562945673
30
0
41
1
10
99.2490672980923
20
-8.50241305656766
30
0
41
1
10
98.0626378627344
20
-8.52629091772695
30
0
41
1
10
95.6894720013534
20
-8.56279112321906
30
0
41
1
10
94.5027323646322
20
-8.57547746147378
30
0
41
1
10
90.9420717351391
20
-8.60373163367353
30
0
41
1
10
88.5677378326578
20
-8.6089255918323
30
0
41
1
10
85.0059131921001
20
-8.60973011646854
30
0
41
1
10
83.8185842112289
20
-8.60882029858266
30
0
41
1
10
81.443900831774
20
-8.60670459680927
30
0
41
1
10
80.2565497199678
20
-8.60561268003852
30
0
41
1
10
76.6945535484901
20
-8.60388781737637
30
0
41
1
10
74.319939101144
20
-8.60412551605825
30
0
41
1
10
69.570736848282
20
-8.60492464595387
30
0
41
1
10
67.1961496666163
20
-8.60557113595175
30
0
41
1
10
62.4469454973741
20
-8.60651535029447
30
0
41
1
10
60.0723305593874
20
-8.60682381802457
30
0
41
1
10
52.9484630419867
20
-8.60633225188724
30
0
41
1
10
48.1991886994998
20
-8.60423364900919
30
0
41
1
10
43.4499999999999
20
-8.60584380322049
30
0
0
SPLINE
5
33E
100
AcDbEntity
8
1
62
256
6
ByLayer
370
13
48
1
60
0
100
AcDbSpline
70
4
71
3
72
8
73
4
40
0
40
0
40
0
40
0
40
1
40
1
40
1
40
1
41
1
10
157.27701952523
20
7.09473129180043
30
0
41
1
10
157.246560278773
20
7.0876732648353
30
0
41
1
10
157.215155136332
20
7.08386700546407
30
0
41
1
10
157.183049323061
20
7.0826719461576
30
0
0
SPLINE
5
33F
100
AcDbEntity
8
1
62
256
6
ByLayer
370
13
48
1
60
0
100
AcDbSpline
70
4
71
3
72
42
73
38
40
0
40
0
40
0
40
0
40
0.0624999999999991
40
0.0624999999999991
40
0.0937499999999989
40
0.0937499999999989
40
0.124999999999999
40
0.124999999999999
40
0.187499999999999
40
0.187499999999999
40
0.249999999999999
40
0.249999999999999
40
0.3125
40
0.3125
40
0.375
40
0.375
40
0.4375
40
0.4375
40
0.5
40
0.5
40
0.531250000000001
40
0.531250000000001
40
0.562500000000001
40
0.562500000000001
40
0.625000000000001
40
0.625000000000001
40
0.656250000000001
40
0.656250000000001
40
0.687500000000001
40
0.687500000000001
40
0.750000000000001
40
0.750000000000001
40
0.8125
40
0.8125
40
0.875
40
0.875
40
1
40
1
40
1
40
1
41
1
10
15.7124208419266
20
-23.5239275405403
30
0
41
1
10
15.6066080570594
20
-23.649347587343
30
0
41
1
10
15.5170529187886
20
-23.7732821816683
30
0
41
1
10
15.4070742630782
20
-23.9569199587537
30
0
41
1
10
15.3744722078338
20
-24.0177528696808
30
0
41
1
10
15.3175597572865
20
-24.1386337525346
30
0
41
1
10
15.2931692380024
20
-24.1989393974692
30
0
41
1
10
15.2336128022945
20
-24.3766151282563
30
0
41
1
10
15.2120004422301
20
-24.4901657325911
30
0
41
1
10
15.2043629465854
20
-24.7076706233953
30
0
41
1
10
15.2184239234898
20
-24.8117366643791
30
0
41
1
10
15.2824121434671
20
-25.0095342521701
30
0
41
1
10
15.3315541376001
20
-25.1008637475453
30
0
41
1
10
15.4615791893867
20
-25.2694057914566
30
0
41
1
10
15.542480357792
20
-25.346611150002
30
0
41
1
10
15.735529529416
20
-25.4870200940856
30
0
41
1
10
15.8458466566044
20
-25.5489040832999
30
0
41
1
10
16.0904262305815
20
-25.6566746810006
30
0
41
1
10
16.2249025073804
20
-25.7026828919233
30
0
41
1
10
16.4440662041883
20
-25.7603168514529
30
0
41
1
10
16.5202125119599
20
-25.777647316419
30
0
41
1
10
16.6763710877262
20
-25.8081852143597
30
0
41
1
10
16.756566533687
20
-25.8214517106846
30
0
41
1
10
17.0031792248761
20
-25.8555164298427
30
0
41
1
10
17.1757220978128
20
-25.8705252407574
30
0
41
1
10
17.4459813882698
20
-25.8821009405088
30
0
41
1
10
17.5379689230053
20
-25.8841386284372
30
0
41
1
10
17.7256535681876
20
-25.8846328708216
30
0
41
1
10
17.8214581775206
20
-25.8830764285743
30
0
41
1
10
18.111348304257
20
-25.8732231431458
30
0
41
1
10
18.3088248945065
20
-25.8597838547933
30
0
41
1
10
18.7115476577833
20
-25.8200708062263
30
0
41
1
10
18.9168036268418
20
-25.7937861393223
30
0
41
1
10
19.3347902281064
20
-25.7287344638128
30
0
41
1
10
19.5482859435519
20
-25.6897836489727
30
0
41
1
10
20.190954318157
20
-25.5560921825486
30
0
41
1
10
20.6240323113296
20
-25.4445910602373
30
0
41
1
10
21.061650239623
20
-25.3110561714061
30
0
0
SPLINE
5
340
100
AcDbEntity
8
1
62
256
6
ByLayer
370
13
48
1
60
0
100
AcDbSpline
70
4
71
3
72
10
73
6
40
0
40
0
40
0
40
0
40
0.5
40
0.5
40
1
40
1
40
1
40
1
41
1
10
157.277019525222
20
7.09473129181742
30
0
41
1
10
157.326067157273
20
7.10483629951594
30
0
41
1
10
157.37556210302
20
7.11367586006941
30
0
41
1
10
157.475799230324
20
7.12682842909652
30
0
41
1
10
157.526274906187
20
7.1313098181358
30
0
41
1
10
157.577610376452
20
7.13074747203387
30
0
0
SPLINE
5
341
100
AcDbEntity
8
1
62
256
6
ByLayer
370
13
48
1
60
0
100
AcDbSpline
70
4
71
3
72
8
73
4
40
0
40
0
40
0
40
0
40
1
40
1
40
1
40
1
41
1
10
157.984457717272
20
1.3528000769418
30
0
41
1
10
158.536388131027
20
1.19159871521415
30
0
41
1
10
159.098293634609
20
1.07973804499502
30
0
41
1
10
159.669489886974
20
1.01599314751573
30
0
0
SPLINE
5
342
100
AcDbEntity
8
1
62
256
6
ByLayer
370
13
48
1
60
0
100
AcDbSpline
70
4
71
3
72
8
73
4
40
0
40
0
40
0
40
0
40
1
40
1
40
1
40
1
41
1
10
156.260533221947
20
6.04941520566763
30
0
41
1
10
152.444525664116
20
6.16416253310697
30
0
41
1
10
148.63389268159
20
6.16093146159031
30
0
41
1
10
144.821697696252
20
6.04639682391419
30
0
0
SPLINE
5
343
100
AcDbEntity
8
1
62
256
6
ByLayer
370
13
48
1
60
0
100
AcDbSpline
70
4
71
3
72
24
73
20
40
0
40
0
40
0
40
0
40
0.249999999999997
40
0.249999999999997
40
0.312499999999997
40
0.312499999999997
40
0.374999999999998
40
0.374999999999998
40
0.499999999999999
40
0.499999999999999
40
0.562500000000001
40
0.562500000000001
40
0.625000000000003
40
0.625000000000003
40
0.750000000000003
40
0.750000000000003
40
0.875000000000001
40
0.875000000000001
40
1
40
1
40
1
40
1
41
1
10
15.7126405767906
20
-20.7205628329806
30
0
41
1
10
15.5060675096166
20
-20.9842113650111
30
0
41
1
10
15.3464243615838
20
-21.2484967027737
30
0
41
1
10
15.2089897570524
20
-21.5797802451138
30
0
41
1
10
15.1845580721896
20
-21.6463477151856
30
0
41
1
10
15.1427233397823
20
-21.7779695872261
30
0
41
1
10
15.1252838737928
20
-21.8430300818068
30
0
41
1
10
15.0832925456559
20
-22.0359926125779
30
0
41
1
10
15.069011746545
20
-22.1616860475031
30
0
41
1
10
15.0687498439882
20
-22.345745823998
30
0
41
1
10
15.0721553219544
20
-22.4063539444425
30
0
41
1
10
15.0860674670815
20
-22.5260517951306
30
0
41
1
10
15.0966432480274
20
-22.5853462829257
30
0
41
1
10
15.1386064119195
20
-22.758326597784
30
0
41
1
10
15.1801484150314
20
-22.8677498482468
30
0
41
1
10
15.2890109149739
20
-23.0753619624665
30
0
41
1
10
15.3563381749908
20
-23.17354811378
30
0
41
1
10
15.5167210281394
20
-23.3586780437788
30
0
41
1
10
15.6091630588925
20
-23.4448205629918
30
0
41
1
10
15.7124208419266
20
-23.5239275405403
30
0
0
SPLINE
5
344
100
AcDbEntity
8
1
62
256
6
ByLayer
370
13
48
1
60
0
100
AcDbSpline
70
4
71
3
72
8
73
4
40
0
40
0
40
0
40
0
40
1
40
1
40
1
40
1
41
1
10
156.131606944763
20
5.53466261480153
30
0
41
1
10
156.177369242236
20
5.70447171547698
30
0
41
1
10
156.219460108285
20
5.87484262050367
30
0
41
1
10
156.259500692173
20
6.04552726077611
30
0
0
SPLINE
5
345
100
AcDbEntity
8
1
62
256
6
ByLayer
370
13
48
1
60
0
100
AcDbSpline
70
4
71
3
72
8
73
4
40
0
40
0
40
0
40
0
40
1
40
1
40
1
40
1
41
1
10
172.963246951894
20
-2.50524068222487
30
0
41
1
10
173.034644146749
20
-2.89626917782471
30
0
41
1
10
173.051112530442
20
-3.28667089383475
30
0
41
1
10
173.015294793788
20
-3.67622652271385
30
0
0
SPLINE
5
346
100
AcDbEntity
8
1
62
256
6
ByLayer
370
13
48
1
60
0
100
AcDbSpline
70
4
71
3
72
16
73
12
40
0
40
0
40
0
40
0
40
0.0989774062946178
40
0.0989774062946178
40
0.189079665665156
40
0.189079665665156
40
0.279181925035695
40
0.279181925035695
40
0.639590962517847
40
0.639590962517847
40
1
40
1
40
1
40
1
41
1
10
21.0562668535351
20
-14.2049761572286
30
0
41
1
10
20.8148241122344
20
-14.4808948318054
30
0
41
1
10
20.5791747528924
20
-14.7607132588358
30
0
41
1
10
20.1401506360892
20
-15.3027433942137
30
0
41
1
10
19.9357845214833
20
-15.5642892372845
30
0
41
1
10
19.5368993456184
20
-16.0939785535435
30
0
41
1
10
19.342164674815
20
-16.3624328727086
30
0
41
1
10
18.3961839099363
20
-17.7179769974938
30
0
41
1
10
17.7354172580749
20
-18.8358661484732
30
0
41
1
10
16.5913608246615
20
-21.133902333528
30
0
41
1
10
16.1075400330511
20
-22.3137032109095
30
0
41
1
10
15.7124208419266
20
-23.5239275405403
30
0
0
SPLINE
5
347
100
AcDbEntity
8
1
62
256
6
ByLayer
370
13
48
1
60
0
100
AcDbSpline
70
4
71
3
72
10
73
6
40
0
40
0
40
0
40
0
40
0.5
40
0.5
40
1
40
1
40
1
40
1
41
1
10
164.446104162958
20
5.87304275575414
30
0
41
1
10
164.481973695941
20
5.85850680256397
30
0
41
1
10
164.507649144998
20
5.84150832840118
30
0
41
1
10
164.537048554572
20
5.80428728565619
30
0
41
1
10
164.540226489114
20
5.7852209091439
30
0
41
1
10
164.533441382175
20
5.7657603480948
30
0
0
SPLINE
5
348
100
AcDbEntity
8
1
62
256
6
ByLayer
370
13
48
1
60
0
100
AcDbSpline
70
4
71
3
72
8
73
4
40
0
40
0
40
0
40
0
40
1
40
1
40
1
40
1
41
1
10
43
20
-5.43692937916958
30
0
41
1
10
42.8607743128246
20
-5.43672750351084
30
0
41
1
10
42.7216333454695
20
-5.43659736015519
30
0
41
1
10
42.5825768782507
20
-5.43653851520349
30
0
0
SPLINE
5
349
100
AcDbEntity
8
1
62
256
6
ByLayer
370
13
48
1
60
0
100
AcDbSpline
70
4
71
3
72
8
73
4
40
0
40
0
40
0
40
0
40
1
40
1
40
1
40
1
41
1
10
43
20
-15.5540879478934
30
0
41
1
10
42.860777566806
20
-15.5540719768146
30
0
41
1
10
42.7216365284264
20
-15.5560468528169
30
0
41
1
10
42.5825766858841
20
-15.5600077530556
30
0
0
SPLINE
5
34A
100
AcDbEntity
8
1
62
256
6
ByLayer
370
13
48
1
60
0
100
AcDbSpline
70
4
71
3
72
12
73
8
40
0
40
0
40
0
40
0
40
0.5
40
0.5
40
0.75
40
0.75
40
1
40
1
40
1
40
1
41
1
10
159.321343683035
20
7.35355662429674
30
0
41
1
10
159.327831968904
20
7.46967067677136
30
0
41
1
10
159.320928916627
20
7.58455149345406
30
0
41
1
10
159.283294459011
20
7.75436045845885
30
0
41
1
10
159.265925855692
20
7.8108793824928
30
0
41
1
10
159.222028265194
20
7.91874117541178
30
0
41
1
10
159.195456607484
20
7.97054700087409
30
0
41
1
10
159.164083792684
20
8.02014579556902
30
0
0
SPLINE
5
34B
100
AcDbEntity
8
1
62
256
6
ByLayer
370
13
48
1
60
0
100
AcDbSpline
70
4
71
2
72
6
73
3
40
0
40
0
40
0
40
1
40
1
40
1
41
1
10
142.680747361503
20
6.89434826696552
30
0
41
1
10
142.633482597137
20
6.91284799077798
30
0
41
1
10
142.586223274548
20
6.93195636815366
30
0
0
SPLINE
5
34C
100
AcDbEntity
8
1
62
256
6
ByLayer
370
13
48
1
60
0
100
AcDbSpline
70
4
71
3
72
19
73
15
40
0
40
0
40
0
40
0
40
0.111124307507121
40
0.223333885578976
40
0.336075389271649
40
0.448779535920277
40
0.560878169474816
40
0.623336074263392
40
0.685318159480498
40
0.747941640179285
40
0.81128686113835
40
0.874789690577211
40
0.937877573922693
40
1
40
1
40
1
40
1
41
1
10
14.4403
20
-28
30
0
41
1
10
15.6063632101037
20
-27.8358292569549
30
0
41
1
10
17.9203802463223
20
-27.392631707465
30
0
41
1
10
21.3293675793735
20
-26.3790125436228
30
0
41
1
10
24.6317991358692
20
-25.022429348605
30
0
41
1
10
27.7819463783409
20
-23.3425070409394
30
0
41
1
10
30.3019297733425
20
-21.6461447323337
30
0
41
1
10
32.2691000128798
20
-20.1054012163502
30
0
41
1
10
33.7265875932157
20
-18.7690723583607
30
0
41
1
10
35.3709719164417
20
-17.6454126300674
30
0
41
1
10
37.1609643737286
20
-16.7398143311688
30
0
41
1
10
39.0613571664029
20
-16.0821844332507
30
0
41
1
10
41.02255040873
20
-15.6871636325865
30
0
41
1
10
42.3398485569542
20
-15.6003781740811
30
0
41
1
10
43
20
-15.6
30
0
0
SPLINE
5
34D
100
AcDbEntity
8
1
62
256
6
ByLayer
370
13
48
1
60
0
100
AcDbSpline
70
4
71
3
72
19
73
15
40
0
40
0
40
0
40
0
40
0.061984167021671
40
0.124930735461758
40
0.188292903330911
40
0.251501886712528
40
0.313997053470418
40
0.395083322121175
40
0.476911032452618
40
0.55926268984575
40
0.669972499452927
40
0.780688805851936
40
0.89087253410787
40
1
40
1
40
1
40
1
41
1
10
43
20
15.6
30
0
41
1
10
42.3413187401347
20
15.6003748563622
30
0
41
1
10
41.0269249189737
20
15.6868023265144
30
0
41
1
10
39.0698236298601
20
16.0799867715518
30
0
41
1
10
37.1734223600341
20
16.7351646499681
30
0
41
1
10
35.3851300314476
20
17.6355935129079
30
0
41
1
10
33.5790522820004
20
18.8752730598455
30
0
41
1
10
31.8304040326997
20
20.4956483632037
30
0
41
1
10
29.7433131322343
20
22.0348208737148
30
0
41
1
10
27.3024395351287
20
23.6079423823041
30
0
41
1
10
24.4572414207657
20
25.1015234929171
30
0
41
1
10
21.2083031829343
20
26.4192860767833
30
0
41
1
10
17.8581246960484
20
27.4055853874106
30
0
41
1
10
15.5852926294961
20
27.8388108930627
30
0
41
1
10
14.4403
20
28
30
0
0
SPLINE
5
34E
100
AcDbEntity
8
1
62
256
6
ByLayer
370
13
48
1
60
0
100
AcDbSpline
70
4
71
2
72
6
73
3
40
0
40
0
40
0
40
1
40
1
40
1
41
1
10
174.166630855151
20
5.97501682140185
30
0
41
1
10
174.225285555597
20
6.03615810459394
30
0
41
1
10
174.28445378847
20
6.08461773317987
30
0
0
SPLINE
5
34F
100
AcDbEntity
8
1
62
256
6
ByLayer
370
13
48
1
60
0
100
AcDbSpline
70
4
71
2
72
6
73
3
40
0
40
0
40
0
40
1
40
1
40
1
41
1
10
162.426941446954
20
5.46319184353985
30
0
41
1
10
162.490850960564
20
5.42118244632618
30
0
41
1
10
162.555575348798
20
5.36650718718178
30
0
0
LINE
5
7F
100
AcDbEntity
8
SK1
62
256
6
ByLayer
370
13
48
1
60
0
100
AcDbLine
10
-1
20
-30.75
30
0
11
-1
21
-28.431373
31
0
39
0
210
0
220
0
230
1
0
LINE
5
81
100
AcDbEntity
8
SK1
62
256
6
ByLayer
370
13
48
1
60
0
100
AcDbLine
10
-1
20
-25.418186
30
0
11
0
21
-25.418186
31
0
39
0
210
0
220
0
230
1
0
LINE
5
82
100
AcDbEntity
8
SK1
62
256
6
ByLayer
370
13
48
1
60
0
100
AcDbLine
10
-16
20
-19.445576
30
0
11
-16
21
19.445576
31
0
39
0
210
0
220
0
230
1
0
LINE
5
83
100
AcDbEntity
8
SK1
62
256
6
ByLayer
370
13
48
1
60
0
100
AcDbLine
10
-1
20
-25.418186
30
0
11
-1
21
-24.360353
31
0
39
0
210
0
220
0
230
1
0
LINE
5
84
100
AcDbEntity
8
SK1
62
256
6
ByLayer
370
13
48
1
60
0
100
AcDbLine
10
-0.5
20
4.071
30
0
11
-0.5
21
31.25
31
0
39
0
210
0
220
0
230
1
0
LINE
5
85
100
AcDbEntity
8
SK1
62
256
6
ByLayer
370
13
48
1
60
0
100
AcDbLine
10
-0.5
20
-31.25
30
0
11
-0.5
21
-28.868168
31
0
39
0
210
0
220
0
230
1
0
LINE
5
86
100
AcDbEntity
8
SK1
62
256
6
ByLayer
370
13
48
1
60
0
100
AcDbLine
10
-0.5
20
-24.797168
30
0
11
-0.5
21
-4.071
31
0
39
0
210
0
220
0
230
1
0
LINE
5
87
100
AcDbEntity
8
SK1
62
256
6
ByLayer
370
13
48
1
60
0
100
AcDbLine
10
-9.57646
20
-19.65
30
0
11
-9.57646
21
19.65
31
0
39
0
210
0
220
0
230
1
0
LINE
5
88
100
AcDbEntity
8
SK1
62
256
6
ByLayer
370
13
48
1
60
0
100
AcDbLine
10
-1
20
-4.071
30
0
11
-1
21
4.071
31
0
39
0
210
0
220
0
230
1
0
LINE
5
89
100
AcDbEntity
8
SK1
62
256
6
ByLayer
370
13
48
1
60
0
100
AcDbLine
10
0
20
-25.418186
30
0
11
0
21
-28.868168
31
0
39
0
210
0
220
0
230
1
0
LINE
5
8A
100
AcDbEntity
8
SK1
62
256
6
ByLayer
370
13
48
1
60
0
100
AcDbLine
10
0
20
-24.797102
30
0
11
0
21
-25.418186
31
0
39
0
210
0
220
0
230
1
0
LINE
5
8B
100
AcDbEntity
8
SK1
62
256
6
ByLayer
370
13
48
1
60
0
100
AcDbLine
10
0
20
-28.868168
30
0
11
-0.5
21
-28.868168
31
0
39
0
210
0
220
0
230
1
0
LINE
5
8C
100
AcDbEntity
8
SK1
62
256
6
ByLayer
370
13
48
1
60
0
100
AcDbLine
10
-8.796888
20
-19.65
30
0
11
-8.796888
21
19.65
31
0
39
0
210
0
220
0
230
1
0
LINE
5
8D
100
AcDbEntity
8
SK1
62
256
6
ByLayer
370
13
48
1
60
0
100
AcDbLine
10
-2.57646
20
-19.8
30
0
11
-2.57646
21
19.8
31
0
39
0
210
0
220
0
230
1
0
LINE
5
8E
100
AcDbEntity
8
SK1
62
256
6
ByLayer
370
13
48
1
60
0
100
AcDbLine
10
-1
20
4.071
30
0
11
-1
21
30.75
31
0
39
0
210
0
220
0
230
1
0
LINE
5
8F
100
AcDbEntity
8
SK1
62
256
6
ByLayer
370
13
48
1
60
0
100
AcDbLine
10
-3
20
-19.9975
30
0
11
-3
21
19.9975
31
0
39
0
210
0
220
0
230
1
0
LINE
5
90
100
AcDbEntity
8
SK1
62
256
6
ByLayer
370
13
48
1
60
0
100
AcDbLine
10
-0.5
20
-24.797168
30
0
11
0
21
-24.797168
31
0
39
0
210
0
220
0
230
1
0
LINE
5
91
100
AcDbEntity
8
SK1
62
256
6
ByLayer
370
13
48
1
60
0
100
AcDbLine
10
-14.5
20
-19.8475
30
0
11
-14.5
21
19.8475
31
0
39
0
210
0
220
0
230
1
0
LINE
5
92
100
AcDbEntity
8
SK1
62
256
6
ByLayer
370
13
48
1
60
0
100
AcDbLine
10
-10
20
-19.8475
30
0
11
-10
21
19.8475
31
0
39
0
210
0
220
0
230
1
0
LINE
5
93
100
AcDbEntity
8
SK1
62
256
6
ByLayer
370
13
48
1
60
0
100
AcDbLine
10
-0.5
20
4.071
30
0
11
0
21
4.071
31
0
39
0
210
0
220
0
230
1
0
LINE
5
94
100
AcDbEntity
8
SK1
62
256
6
ByLayer
370
13
48
1
60
0
100
AcDbLine
10
-1
20
-28.431373
30
0
11
-1
21
-25.418186
31
0
39
0
210
0
220
0
230
1
0
LINE
5
95
100
AcDbEntity
8
SK1
62
256
6
ByLayer
370
13
48
1
60
0
100
AcDbLine
10
-1.3
20
-19.8
30
0
11
-1.3
21
19.8
31
0
39
0
210
0
220
0
230
1
0
LINE
5
96
100
AcDbEntity
8
SK1
62
256
6
ByLayer
370
13
48
1
60
0
100
AcDbLine
10
0
20
-4.071
30
0
11
0
21
-24.797168
31
0
39
0
210
0
220
0
230
1
0
LINE
5
97
100
AcDbEntity
8
SK1
62
256
6
ByLayer
370
13
48
1
60
0
100
AcDbLine
10
0
20
-31.25
30
0
11
0
21
-28.868168
31
0
39
0
210
0
220
0
230
1
0
LINE
5
98
100
AcDbEntity
8
SK1
62
256
6
ByLayer
370
13
48
1
60
0
100
AcDbLine
10
-1
20
-24.360373
30
0
11
-1
21
-4.071
31
0
39
0
210
0
220
0
230
1
0
LINE
5
99
100
AcDbEntity
8
1
62
256
6
ByLayer
370
18
48
1
60
0
100
AcDbLine
10
168.037262
20
9.473901
30
0
11
167.933585
21
9.468468
31
0
39
0
210
0
220
0
230
1
0
LINE
5
9A
100
AcDbEntity
8
1
62
256
6
ByLayer
370
18
48
1
60
0
100
AcDbLine
10
169.352948
20
10.961213
30
0
11
169.250295
21
10.955834
31
0
39
0
210
0
220
0
230
1
0
LINE
5
9B
100
AcDbEntity
8
1
62
256
6
ByLayer
370
18
48
1
60
0
100
AcDbLine
10
167.930376
20
11.689381
30
0
11
167.827723
21
11.684002
31
0
39
0
210
0
220
0
230
1
0
LINE
5
9C
100
AcDbEntity
8
1
62
256
6
ByLayer
370
18
48
1
60
0
100
AcDbLine
10
169.133489
20
9.830257
30
0
11
169.029812
21
9.824823
31
0
39
0
210
0
220
0
230
1
0
LINE
5
9D
100
AcDbEntity
8
1
62
256
6
ByLayer
370
18
48
1
60
0
100
AcDbLine
10
169.047752
20
11.466218
30
0
11
168.944075
21
11.460785
31
0
39
0
210
0
220
0
230
1
0
LINE
5
9E
100
AcDbEntity
8
1
62
256
6
ByLayer
370
18
48
1
60
0
100
AcDbLine
10
169.121884
20
9.847154
30
0
11
169.019231
21
9.841775
31
0
39
0
210
0
220
0
230
1
0
LINE
5
9F
100
AcDbEntity
8
1
62
256
6
ByLayer
370
18
48
1
60
0
100
AcDbLine
10
167.181422
20
10.249276
30
0
11
167.139125
21
10.247059
31
0
39
0
210
0
220
0
230
1
0
LINE
5
A0
100
AcDbEntity
8
1
62
256
6
ByLayer
370
18
48
1
60
0
100
AcDbLine
10
169.384226
20
10.364397
30
0
11
169.281573
21
10.359017
31
0
39
0
210
0
220
0
230
1
0
LINE
5
A1
100
AcDbEntity
8
1
62
256
6
ByLayer
370
18
48
1
60
0
100
AcDbLine
10
168.935324
20
11.442821
30
0
11
168.944075
21
11.460785
31
0
39
0
210
0
220
0
230
1
0
LINE
5
A2
100
AcDbEntity
8
1
62
256
6
ByLayer
370
18
48
1
60
0
100
AcDbLine
10
168.045561
20
9.491519
30
0
11
167.942908
21
9.486139
31
0
39
0
210
0
220
0
230
1
0
LINE
5
A3
100
AcDbEntity
8
1
62
256
6
ByLayer
370
18
48
1
60
0
100
AcDbLine
10
167.827723
20
11.684002
30
0
11
167.816604
21
11.700602
31
0
39
0
210
0
220
0
230
1
0
LINE
5
A4
100
AcDbEntity
8
1
62
256
6
ByLayer
370
18
48
1
60
0
100
AcDbLine
10
169.037977
20
11.448201
30
0
11
168.935324
21
11.442821
31
0
39
0
210
0
220
0
230
1
0
LINE
5
A5
100
AcDbEntity
8
1
62
256
6
ByLayer
370
18
48
1
60
0
100
AcDbLine
10
169.281573
20
10.359017
30
0
11
169.301443
21
10.360381
31
0
39
0
210
0
220
0
230
1
0
LINE
5
A6
100
AcDbEntity
8
1
62
256
6
ByLayer
370
18
48
1
60
0
100
AcDbLine
10
169.270199
20
10.956554
30
0
11
169.250295
21
10.955834
31
0
39
0
210
0
220
0
230
1
0
LINE
5
A7
100
AcDbEntity
8
1
62
256
6
ByLayer
370
18
48
1
60
0
100
AcDbLine
10
167.933585
20
9.468468
30
0
11
167.942908
21
9.486139
31
0
39
0
210
0
220
0
230
1
0
LINE
5
A8
100
AcDbEntity
8
1
62
256
6
ByLayer
370
18
48
1
60
0
100
AcDbLine
10
169.029812
20
9.824823
30
0
11
169.019231
21
9.841775
31
0
39
0
210
0
220
0
230
1
0
LINE
5
A9
100
AcDbEntity
8
1
62
256
6
ByLayer
370
18
48
1
60
0
100
AcDbLine
10
167.150178
20
10.845448
30
0
11
167.10995
21
10.84334
31
0
39
0
210
0
220
0
230
1
0
LINE
5
AA
100
AcDbEntity
8
1
62
256
6
ByLayer
370
18
48
1
60
0
100
AcDbLine
10
169.373876
20
10.961987
30
0
11
169.270199
21
10.956554
31
0
39
0
210
0
220
0
230
1
0
LINE
5
AB
100
AcDbEntity
8
1
62
256
6
ByLayer
370
18
48
1
60
0
100
AcDbLine
10
167.92028
20
11.706035
30
0
11
167.816604
21
11.700602
31
0
39
0
210
0
220
0
230
1
0
LINE
5
AC
100
AcDbEntity
8
1
62
256
6
ByLayer
370
18
48
1
60
0
100
AcDbLine
10
174.004587
20
-0.078788
30
0
11
174.656467
21
-4.17388
31
0
39
0
210
0
220
0
230
1
0
LINE
5
AD
100
AcDbEntity
8
1
62
256
6
ByLayer
370
18
48
1
60
0
100
AcDbLine
10
173.609343
20
0.388694
30
0
11
173.658216
21
0.382292
31
0
39
0
210
0
220
0
230
1
0
LINE
5
AE
100
AcDbEntity
8
1
62
256
6
ByLayer
370
18
48
1
60
0
100
AcDbLine
10
173.804879
20
-9.420555
30
0
11
174.162741
21
-9.318456
31
0
39
0
210
0
220
0
230
1
0
LINE
5
AF
100
AcDbEntity
8
1
62
256
6
ByLayer
370
18
48
1
60
0
100
AcDbLine
10
173.862429
20
-8.790466
30
0
11
173.732992
21
-8.827395
31
0
39
0
210
0
220
0
230
1
0
LINE
5
B0
100
AcDbEntity
8
1
62
256
6
ByLayer
370
18
48
1
60
0
100
AcDbLine
10
174.310354
20
-0.194767
30
0
11
174.207738
21
0.161293
31
0
39
0
210
0
220
0
230
1
0
LINE
5
B1
100
AcDbEntity
8
1
62
256
6
ByLayer
370
18
48
1
60
0
100
AcDbLine
10
173.948973
20
0.13302
30
0
11
173.986089
21
0.004234
31
0
39
0
210
0
220
0
230
1
0
LINE
5
B2
100
AcDbEntity
8
1
62
256
6
ByLayer
370
18
48
1
60
0
100
AcDbLine
10
174.659096
20
-4.373742
30
0
11
174.112962
21
-8.501172
31
0
39
0
210
0
220
0
230
1
0
LINE
5
B3
100
AcDbEntity
8
1
62
256
6
ByLayer
370
13
48
1
60
0
100
AcDbLine
10
174.159924
20
15.408732
30
0
11
174.838438
21
11.112408
31
0
39
0
210
0
220
0
230
1
0
LINE
5
B4
100
AcDbEntity
8
1
62
256
6
ByLayer
370
13
48
1
60
0
100
AcDbLine
10
173.195582
20
15.913761
30
0
11
173.19097
21
15.91352
31
0
39
0
210
0
220
0
230
1
0
LINE
5
B5
100
AcDbEntity
8
1
62
256
6
ByLayer
370
13
48
1
60
0
100
AcDbLine
10
162.298748
20
15.059058
30
0
11
162.106813
21
15.030293
31
0
39
0
210
0
220
0
230
1
0
LINE
5
B6
100
AcDbEntity
8
1
62
256
6
ByLayer
370
13
48
1
60
0
100
AcDbLine
10
171.988727
20
6.659446
30
0
11
165.028206
21
6.294661
31
0
39
0
210
0
220
0
230
1
0
LINE
5
B7
100
AcDbEntity
8
1
62
256
6
ByLayer
370
13
48
1
60
0
100
AcDbLine
10
174.944057
20
10.927401
30
0
11
174.427766
21
6.982424
31
0
39
0
210
0
220
0
230
1
0
LINE
5
B8
100
AcDbEntity
8
1
62
256
6
ByLayer
370
13
48
1
60
0
100
AcDbLine
10
174.84305
20
11.11265
30
0
11
174.838438
21
11.112408
31
0
39
0
210
0
220
0
230
1
0
LINE
5
B9
100
AcDbEntity
8
1
62
256
6
ByLayer
370
13
48
1
60
0
100
AcDbLine
10
174.160975
20
7.002452
30
0
11
174.678797
21
10.95912
31
0
39
0
210
0
220
0
230
1
0
LINE
5
BA
100
AcDbEntity
8
1
62
256
6
ByLayer
370
13
48
1
60
0
100
AcDbLine
10
173.248841
20
5.911378
30
0
11
173.342694
21
5.910715
31
0
39
0
210
0
220
0
230
1
0
LINE
5
BB
100
AcDbEntity
8
1
62
256
6
ByLayer
370
13
48
1
60
0
100
AcDbLine
10
163.529298
20
5.305153
30
0
11
163.388533
21
5.299012
31
0
39
0
210
0
220
0
230
1
0
LINE
5
BC
100
AcDbEntity
8
1
62
256
6
ByLayer
370
13
48
1
60
0
100
AcDbLine
10
162.419579
20
5.8038
30
0
11
161.741065
21
10.100123
31
0
39
0
210
0
220
0
230
1
0
LINE
5
BD
100
AcDbEntity
8
1
62
256
6
ByLayer
370
13
48
1
60
0
100
AcDbLine
10
161.493453
20
10.050791
30
0
11
162.291203
21
5.787336
31
0
39
0
210
0
220
0
230
1
0
LINE
5
BE
100
AcDbEntity
8
1
62
256
6
ByLayer
370
13
48
1
60
0
100
AcDbLine
10
173.054818
20
15.907621
30
0
11
173.195582
21
15.913761
31
0
39
0
210
0
220
0
230
1
0
LINE
5
BF
100
AcDbEntity
8
1
62
256
6
ByLayer
370
13
48
1
60
0
100
AcDbLine
10
172.999801
20
16.003205
30
0
11
173.011029
21
16.005806
31
0
39
0
210
0
220
0
230
1
0
LINE
5
C0
100
AcDbEntity
8
1
62
256
6
ByLayer
370
13
48
1
60
0
100
AcDbLine
10
161.642721
20
10.084502
30
0
11
162.321234
21
5.788179
31
0
39
0
210
0
220
0
230
1
0
LINE
5
C1
100
AcDbEntity
8
1
62
256
6
ByLayer
370
13
48
1
60
0
100
AcDbLine
10
172.602668
20
6.850594
30
0
11
172.588496
21
6.742301
31
0
39
0
210
0
220
0
230
1
0
LINE
5
C2
100
AcDbEntity
8
1
62
256
6
ByLayer
370
13
48
1
60
0
100
AcDbLine
10
161.738782
20
10.272298
30
0
11
162.256604
21
14.228966
31
0
39
0
210
0
220
0
230
1
0
LINE
5
C3
100
AcDbEntity
8
1
62
256
6
ByLayer
370
13
48
1
60
0
100
AcDbLine
10
164.141632
20
14.330008
30
0
11
163.612888
21
10.289887
31
0
39
0
210
0
220
0
230
1
0
LINE
5
C4
100
AcDbEntity
8
1
62
256
6
ByLayer
370
13
48
1
60
0
100
AcDbLine
10
172.491677
20
15.149793
30
0
11
172.523843
21
14.946122
31
0
39
0
210
0
220
0
230
1
0
LINE
5
C5
100
AcDbEntity
8
1
62
256
6
ByLayer
370
13
48
1
60
0
100
AcDbLine
10
173.183682
20
15.762938
30
0
11
173.042917
21
15.756797
31
0
39
0
210
0
220
0
230
1
0
LINE
5
C6
100
AcDbEntity
8
1
62
256
6
ByLayer
370
13
48
1
60
0
100
AcDbLine
10
172.998216
20
16.003122
30
0
11
172.999801
21
16.003205
31
0
39
0
210
0
220
0
230
1
0
LINE
5
C7
100
AcDbEntity
8
1
62
256
6
ByLayer
370
13
48
1
60
0
100
AcDbLine
10
163.573086
20
5.206968
30
0
11
163.533663
21
5.205248
31
0
39
0
210
0
220
0
230
1
0
LINE
5
C8
100
AcDbEntity
8
1
62
256
6
ByLayer
370
13
48
1
60
0
100
AcDbLine
10
164.595388
20
14.553327
30
0
11
171.555909
21
14.918113
31
0
39
0
210
0
220
0
230
1
0
LINE
5
C9
100
AcDbEntity
8
1
62
256
6
ByLayer
370
13
48
1
60
0
100
AcDbLine
10
173.262788
20
10.883421
30
0
11
172.726743
21
6.787504
31
0
39
0
210
0
220
0
230
1
0
LINE
5
CA
100
AcDbEntity
8
1
62
256
6
ByLayer
370
13
48
1
60
0
100
AcDbLine
10
173.011029
20
16.005806
30
0
11
173.050452
21
16.007525
31
0
39
0
210
0
220
0
230
1
0
LINE
5
CB
100
AcDbEntity
8
1
62
256
6
ByLayer
370
13
48
1
60
0
100
AcDbLine
10
173.054818
20
15.907621
30
0
11
173.050205
21
15.907379
31
0
39
0
210
0
220
0
230
1
0
LINE
5
CC
100
AcDbEntity
8
1
62
256
6
ByLayer
370
13
48
1
60
0
100
AcDbLine
10
163.450965
20
10.308774
30
0
11
163.979708
21
14.348895
31
0
39
0
210
0
220
0
230
1
0
LINE
5
CD
100
AcDbEntity
8
1
62
256
6
ByLayer
370
13
48
1
60
0
100
AcDbLine
10
163.284429
20
10.327419
30
0
11
163.820474
21
14.423336
31
0
39
0
210
0
220
0
230
1
0
LINE
5
CE
100
AcDbEntity
8
1
62
256
6
ByLayer
370
13
48
1
60
0
100
AcDbLine
10
172.70196
20
6.630323
30
0
11
172.697348
21
6.630081
31
0
39
0
210
0
220
0
230
1
0
LINE
5
CF
100
AcDbEntity
8
1
62
256
6
ByLayer
370
13
48
1
60
0
100
AcDbLine
10
174.251818
20
6.068903
30
0
11
174.232342
21
6.182628
31
0
39
0
210
0
220
0
230
1
0
LINE
5
D0
100
AcDbEntity
8
1
62
256
6
ByLayer
370
13
48
1
60
0
100
AcDbLine
10
163.453628
20
10.107903
30
0
11
163.449016
21
10.107662
31
0
39
0
210
0
220
0
230
1
0
LINE
5
D1
100
AcDbEntity
8
1
62
256
6
ByLayer
370
13
48
1
60
0
100
AcDbLine
10
174.845333
20
10.940475
30
0
11
174.84072
21
10.940234
31
0
39
0
210
0
220
0
230
1
0
LINE
5
D2
100
AcDbEntity
8
1
62
256
6
ByLayer
370
13
48
1
60
0
100
AcDbLine
10
174.196922
20
6.854822
30
0
11
172.697348
21
6.630081
31
0
39
0
210
0
220
0
230
1
0
LINE
5
D3
100
AcDbEntity
8
1
62
256
6
ByLayer
370
13
48
1
60
0
100
AcDbLine
10
172.726743
20
6.787504
30
0
11
174.160975
21
7.002452
31
0
39
0
210
0
220
0
230
1
0
LINE
5
D4
100
AcDbEntity
8
1
62
256
6
ByLayer
370
13
48
1
60
0
100
AcDbLine
10
173.585954
20
15.915123
30
0
11
173.581342
21
15.914881
31
0
39
0
210
0
220
0
230
1
0
LINE
5
D5
100
AcDbEntity
8
1
62
256
6
ByLayer
370
13
48
1
60
0
100
AcDbLine
10
164.092438
20
6.062981
30
0
11
164.087826
21
6.062739
31
0
39
0
210
0
220
0
230
1
0
LINE
5
D6
100
AcDbEntity
8
1
62
256
6
ByLayer
370
13
48
1
60
0
100
AcDbLine
10
162.386242
20
14.208388
30
0
11
161.868421
21
10.25172
31
0
39
0
210
0
220
0
230
1
0
LINE
5
D7
100
AcDbEntity
8
1
62
256
6
ByLayer
370
13
48
1
60
0
100
AcDbLine
10
163.449016
20
10.107662
30
0
11
164.087826
21
6.062739
31
0
39
0
210
0
220
0
230
1
0
LINE
5
D8
100
AcDbEntity
8
1
62
256
6
ByLayer
370
13
48
1
60
0
100
AcDbLine
10
163.991007
20
14.470231
30
0
11
163.446353
21
10.308532
31
0
39
0
210
0
220
0
230
1
0
LINE
5
D9
100
AcDbEntity
8
1
62
256
6
ByLayer
370
13
48
1
60
0
100
AcDbLine
10
174.327511
20
6.983807
30
0
11
174.322899
21
6.983565
31
0
39
0
210
0
220
0
230
1
0
LINE
5
DA
100
AcDbEntity
8
1
62
256
6
ByLayer
370
13
48
1
60
0
100
AcDbLine
10
173.050817
20
15.907406
30
0
11
173.19097
21
15.91352
31
0
39
0
210
0
220
0
230
1
0
LINE
5
DB
100
AcDbEntity
8
1
62
256
6
ByLayer
370
13
48
1
60
0
100
AcDbLine
10
163.614981
20
10.13206
30
0
11
164.219497
21
6.304289
31
0
39
0
210
0
220
0
230
1
0
LINE
5
DC
100
AcDbEntity
8
1
62
256
6
ByLayer
370
13
48
1
60
0
100
AcDbLine
10
163.074027
20
15.277015
30
0
11
162.772218
21
15.277468
31
0
39
0
210
0
220
0
230
1
0
LINE
5
DD
100
AcDbEntity
8
1
62
256
6
ByLayer
370
13
48
1
60
0
100
AcDbLine
10
161.493453
20
10.050791
30
0
11
161.488811
21
10.080182
31
0
39
0
210
0
220
0
230
1
0
LINE
5
DE
100
AcDbEntity
8
1
62
256
6
ByLayer
370
13
48
1
60
0
100
AcDbLine
10
174.845333
20
10.940475
30
0
11
174.327511
21
6.983807
31
0
39
0
210
0
220
0
230
1
0
LINE
5
DF
100
AcDbEntity
8
1
62
256
6
ByLayer
370
13
48
1
60
0
100
AcDbLine
10
172.624763
20
15.146811
30
0
11
173.259555
21
11.127335
31
0
39
0
210
0
220
0
230
1
0
LINE
5
E0
100
AcDbEntity
8
1
62
256
6
ByLayer
370
13
48
1
60
0
100
AcDbLine
10
163.979708
20
14.348895
30
0
11
163.995619
21
14.470473
31
0
39
0
210
0
220
0
230
1
0
LINE
5
E1
100
AcDbEntity
8
1
62
256
6
ByLayer
370
13
48
1
60
0
100
AcDbLine
10
161.369173
20
9.774042
30
0
11
162.176883
21
6.398295
31
0
39
0
210
0
220
0
230
1
0
LINE
5
E2
100
AcDbEntity
8
1
62
256
6
ByLayer
370
13
48
1
60
0
100
AcDbLine
10
163.922454
20
6.064029
30
0
11
163.287663
21
10.083505
31
0
39
0
210
0
220
0
230
1
0
LINE
5
E3
100
AcDbEntity
8
1
62
256
6
ByLayer
370
13
48
1
60
0
100
AcDbLine
10
161.640058
20
10.285373
30
0
11
162.156349
21
14.230349
31
0
39
0
210
0
220
0
230
1
0
LINE
5
E4
100
AcDbEntity
8
1
62
256
6
ByLayer
370
13
48
1
60
0
100
AcDbLine
10
173.924006
20
6.712358
30
0
11
173.714141
21
5.916843
31
0
39
0
210
0
220
0
230
1
0
LINE
5
E5
100
AcDbEntity
8
1
62
256
6
ByLayer
370
13
48
1
60
0
100
AcDbLine
10
174.677085
20
11.088251
30
0
11
173.998571
21
15.384575
31
0
39
0
210
0
220
0
230
1
0
LINE
5
E6
100
AcDbEntity
8
1
62
256
6
ByLayer
370
13
48
1
60
0
100
AcDbLine
10
163.919661
20
14.689185
30
0
11
162.371847
21
14.457214
31
0
39
0
210
0
220
0
230
1
0
LINE
5
E7
100
AcDbEntity
8
1
62
256
6
ByLayer
370
13
48
1
60
0
100
AcDbLine
10
174.84072
20
10.940234
30
0
11
174.322899
21
6.983565
31
0
39
0
210
0
220
0
230
1
0
LINE
5
E8
100
AcDbEntity
8
1
62
256
6
ByLayer
370
13
48
1
60
0
100
AcDbLine
10
174.164536
20
15.408973
30
0
11
174.159924
21
15.408732
31
0
39
0
210
0
220
0
230
1
0
LINE
5
E9
100
AcDbEntity
8
1
62
256
6
ByLayer
370
13
48
1
60
0
100
AcDbLine
10
163.820474
20
14.423336
30
0
11
162.386242
21
14.208388
31
0
39
0
210
0
220
0
230
1
0
LINE
5
EA
100
AcDbEntity
8
1
62
256
6
ByLayer
370
13
48
1
60
0
100
AcDbLine
10
163.363535
20
5.447902
30
0
11
163.5043
21
5.454043
31
0
39
0
210
0
220
0
230
1
0
LINE
5
EB
100
AcDbEntity
8
1
62
256
6
ByLayer
370
13
48
1
60
0
100
AcDbLine
10
163.706556
20
5.433388
30
0
11
163.701943
21
5.433146
31
0
39
0
210
0
220
0
230
1
0
LINE
5
EC
100
AcDbEntity
8
1
62
256
6
ByLayer
370
13
48
1
60
0
100
AcDbLine
10
162.298748
20
15.059058
30
0
11
162.371847
21
14.457214
31
0
39
0
210
0
220
0
230
1
0
LINE
5
ED
100
AcDbEntity
8
1
62
256
6
ByLayer
370
13
48
1
60
0
100
AcDbLine
10
174.201534
20
6.855063
30
0
11
172.70196
21
6.630323
31
0
39
0
210
0
220
0
230
1
0
LINE
5
EE
100
AcDbEntity
8
1
62
256
6
ByLayer
370
13
48
1
60
0
100
AcDbLine
10
172.6489
20
15.808063
30
0
11
172.784565
21
15.815173
31
0
39
0
210
0
220
0
230
1
0
LINE
5
EF
100
AcDbEntity
8
1
62
256
6
ByLayer
370
13
48
1
60
0
100
AcDbLine
10
174.284527
20
6.657864
30
0
11
174.232342
21
6.182628
31
0
39
0
210
0
220
0
230
1
0
LINE
5
F0
100
AcDbEntity
8
1
62
256
6
ByLayer
370
13
48
1
60
0
100
AcDbLine
10
161.472621
20
10.448292
30
0
11
161.47472
21
10.657005
31
0
39
0
210
0
220
0
230
1
0
LINE
5
F1
100
AcDbEntity
8
1
62
256
6
ByLayer
370
13
48
1
60
0
100
AcDbLine
10
172.470157
20
6.884216
30
0
11
172.9989
21
10.924337
31
0
39
0
210
0
220
0
230
1
0
LINE
5
F2
100
AcDbEntity
8
1
62
256
6
ByLayer
370
13
48
1
60
0
100
AcDbLine
10
164.063305
20
5.975436
30
0
11
164.058693
21
5.975194
31
0
39
0
210
0
220
0
230
1
0
LINE
5
F3
100
AcDbEntity
8
1
62
256
6
ByLayer
370
13
48
1
60
0
100
AcDbLine
10
161.870133
20
10.122588
30
0
11
162.548646
21
5.826265
31
0
39
0
210
0
220
0
230
1
0
LINE
5
F4
100
AcDbEntity
8
1
62
256
6
ByLayer
370
13
48
1
60
0
100
AcDbLine
10
174.164536
20
15.408973
30
0
11
174.84305
21
11.11265
31
0
39
0
210
0
220
0
230
1
0
LINE
5
F5
100
AcDbEntity
8
1
62
256
6
ByLayer
370
13
48
1
60
0
100
AcDbLine
10
162.382581
20
14.35771
30
0
11
163.882155
21
14.582451
31
0
39
0
210
0
220
0
230
1
0
LINE
5
F6
100
AcDbEntity
8
1
62
256
6
ByLayer
370
13
48
1
60
0
100
AcDbLine
10
162.156349
20
14.230349
30
0
11
162.117642
21
14.549035
31
0
39
0
210
0
220
0
230
1
0
LINE
5
F7
100
AcDbEntity
8
1
62
256
6
ByLayer
370
13
48
1
60
0
100
AcDbLine
10
164.058144
20
6.280132
30
0
11
163.453628
21
10.107903
31
0
39
0
210
0
220
0
230
1
0
LINE
5
F8
100
AcDbEntity
8
1
62
256
6
ByLayer
370
13
48
1
60
0
100
AcDbLine
10
174.941394
20
11.128271
30
0
11
174.262881
21
15.424594
31
0
39
0
210
0
220
0
230
1
0
LINE
5
F9
100
AcDbEntity
8
1
62
256
6
ByLayer
370
13
48
1
60
0
100
AcDbLine
10
162.656343
20
15.46314
30
0
11
162.669367
21
15.46181
31
0
39
0
210
0
220
0
230
1
0
LINE
5
FA
100
AcDbEntity
8
1
62
256
6
ByLayer
370
13
48
1
60
0
100
AcDbLine
10
164.092438
20
6.062981
30
0
11
164.058144
21
6.280132
31
0
39
0
210
0
220
0
230
1
0
LINE
5
FB
100
AcDbEntity
8
1
62
256
6
ByLayer
370
13
48
1
60
0
100
AcDbLine
10
173.011029
20
16.005806
30
0
11
172.998216
21
16.003122
31
0
39
0
210
0
220
0
230
1
0
LINE
5
FC
100
AcDbEntity
8
1
62
256
6
ByLayer
370
13
48
1
60
0
100
AcDbLine
10
163.584314
20
5.209569
30
0
11
163.573086
21
5.206968
31
0
39
0
210
0
220
0
230
1
0
LINE
5
FD
100
AcDbEntity
8
1
62
256
6
ByLayer
370
13
48
1
60
0
100
AcDbLine
10
161.57124
20
10.91993
30
0
11
161.486284
21
10.270784
31
0
39
0
210
0
220
0
230
1
0
LINE
5
FE
100
AcDbEntity
8
1
62
256
6
ByLayer
370
13
48
1
60
0
100
AcDbLine
10
173.241319
20
15.9152
30
0
11
173.236706
21
15.914959
31
0
39
0
210
0
220
0
230
1
0
LINE
5
FF
100
AcDbEntity
8
1
62
256
6
ByLayer
370
13
48
1
60
0
100
AcDbLine
10
172.687841
20
6.629122
30
0
11
172.697348
21
6.630081
31
0
39
0
210
0
220
0
230
1
0
LINE
5
100
100
AcDbEntity
8
1
62
256
6
ByLayer
370
13
48
1
60
0
100
AcDbLine
10
173.924006
20
6.712358
30
0
11
174.212268
21
6.755559
31
0
39
0
210
0
220
0
230
1
0
LINE
5
101
100
AcDbEntity
8
1
62
256
6
ByLayer
370
13
48
1
60
0
100
AcDbLine
10
161.472621
20
10.448292
30
0
11
161.503594
21
10.730354
31
0
39
0
210
0
220
0
230
1
0
LINE
5
102
100
AcDbEntity
8
1
62
256
6
ByLayer
370
13
48
1
60
0
100
AcDbLine
10
162.656343
20
15.46314
30
0
11
162.616957
21
15.460729
31
0
39
0
210
0
220
0
230
1
0
LINE
5
103
100
AcDbEntity
8
1
62
256
6
ByLayer
370
13
48
1
60
0
100
AcDbLine
10
172.996807
20
11.082164
30
0
11
172.392292
21
14.909935
31
0
39
0
210
0
220
0
230
1
0
LINE
5
104
100
AcDbEntity
8
1
62
256
6
ByLayer
370
13
48
1
60
0
100
AcDbLine
10
172.664454
20
6.523589
30
0
11
173.924006
21
6.712358
31
0
39
0
210
0
220
0
230
1
0
LINE
5
105
100
AcDbEntity
8
1
62
256
6
ByLayer
370
13
48
1
60
0
100
AcDbLine
10
163.995619
20
14.470473
30
0
11
163.991007
21
14.470231
31
0
39
0
210
0
220
0
230
1
0
LINE
5
106
100
AcDbEntity
8
1
62
256
6
ByLayer
370
13
48
1
60
0
100
AcDbLine
10
174.435394
20
7.040717
30
0
11
174.385566
21
6.421175
31
0
39
0
210
0
220
0
230
1
0
LINE
5
107
100
AcDbEntity
8
1
62
256
6
ByLayer
370
13
48
1
60
0
100
AcDbLine
10
161.472621
20
10.448292
30
0
11
161.471077
21
10.418576
31
0
39
0
210
0
220
0
230
1
0
LINE
5
108
100
AcDbEntity
8
1
62
256
6
ByLayer
370
13
48
1
60
0
100
AcDbLine
10
163.450965
20
10.308774
30
0
11
163.446353
21
10.308532
31
0
39
0
210
0
220
0
230
1
0
LINE
5
109
100
AcDbEntity
8
1
62
256
6
ByLayer
370
13
48
1
60
0
100
AcDbLine
10
173.907167
20
6.133894
30
0
11
174.212268
21
6.755559
31
0
39
0
210
0
220
0
230
1
0
LINE
5
10A
100
AcDbEntity
8
1
62
256
6
ByLayer
370
13
48
1
60
0
100
AcDbLine
10
173.907167
20
6.133894
30
0
11
174.232342
21
6.182628
31
0
39
0
210
0
220
0
230
1
0
LINE
5
10B
100
AcDbEntity
8
1
62
256
6
ByLayer
370
13
48
1
60
0
100
AcDbLine
10
174.201534
20
6.855063
30
0
11
174.196922
21
6.854822
31
0
39
0
210
0
220
0
230
1
0
LINE
5
10C
100
AcDbEntity
8
SK1
62
256
6
ByLayer
370
13
48
1
60
0
100
AcDbLine
10
-7.5
20
-19.9975
30
0
11
-7.5
21
19.9975
31
0
39
0
210
0
220
0
230
1
0
LINE
5
10D
100
AcDbEntity
8
1
62
256
6
ByLayer
370
13
48
1
60
0
100
AcDbLine
10
173.97832
20
-9.646382
30
0
11
173.667396
21
-9.404813
31
0
39
0
210
0
220
0
230
1
0
LINE
5
10E
100
AcDbEntity
8
1
62
256
6
ByLayer
370
13
48
1
60
0
100
AcDbLine
10
174.063914
20
0.622328
30
0
11
174.043205
21
0.625041
31
0
39
0
210
0
220
0
230
1
0
LINE
5
10F
100
AcDbEntity
8
1
62
256
6
ByLayer
370
13
48
1
60
0
100
AcDbLine
10
5.5
20
28
30
0
11
5.5
21
-28
31
0
39
0
210
0
220
0
230
1
0
LINE
5
110
100
AcDbEntity
8
1
62
256
6
ByLayer
370
13
48
1
60
0
100
AcDbLine
10
172.551368
20
1.328754
30
0
11
173.608209
21
0.330412
31
0
39
0
210
0
220
0
230
1
0
LINE
5
111
100
AcDbEntity
8
1
62
256
6
ByLayer
370
13
48
1
60
0
100
AcDbLine
10
170.668118
20
6.590236
30
0
11
171.762182
21
6.647574
31
0
39
0
210
0
220
0
230
1
0
LINE
5
112
100
AcDbEntity
8
1
62
256
6
ByLayer
370
13
48
1
60
0
100
AcDbLine
10
173.96021
20
0.562328
30
0
11
174.006254
21
0.512456
31
0
39
0
210
0
220
0
230
1
0
LINE
5
113
100
AcDbEntity
8
1
62
256
6
ByLayer
370
13
48
1
60
0
100
AcDbLine
10
48
20
-15.554316
30
0
11
48
21
-15.6
31
0
39
0
210
0
220
0
230
1
0
LINE
5
114
100
AcDbEntity
8
1
62
256
6
ByLayer
370
13
48
1
60
0
100
AcDbLine
10
161.653574
20
7.96323
30
0
11
161.379647
21
9.697731
31
0
39
0
210
0
220
0
230
1
0
LINE
5
115
100
AcDbEntity
8
1
62
256
6
ByLayer
370
13
48
1
60
0
100
AcDbLine
10
4
20
-28.671516
30
0
11
4
21
-25.100516
31
0
39
0
210
0
220
0
230
1
0
LINE
5
116
100
AcDbEntity
8
1
62
256
6
ByLayer
370
13
48
1
60
0
100
AcDbLine
10
162.130051
20
14.199217
30
0
11
161.740526
21
11.222861
31
0
39
0
210
0
220
0
230
1
0
LINE
5
117
100
AcDbEntity
8
1
62
256
6
ByLayer
370
13
48
1
60
0
100
AcDbLine
10
159.3386
20
6.454883
30
0
11
160.242693
21
6.17711
31
0
39
0
210
0
220
0
230
1
0
LINE
5
118
100
AcDbEntity
8
1
62
256
6
ByLayer
370
13
48
1
60
0
100
AcDbLine
10
173.199527
20
-15.532133
30
0
11
160.248386
21
-15.532133
31
0
39
0
210
0
220
0
230
1
0
LINE
5
119
100
AcDbEntity
8
1
62
256
6
ByLayer
370
13
48
1
60
0
100
AcDbLine
10
173.969966
20
5.862044
30
0
11
173.722327
21
5.849065
31
0
39
0
210
0
220
0
230
1
0
LINE
5
11A
100
AcDbEntity
8
1
62
256
6
ByLayer
370
13
48
1
60
0
100
AcDbLine
10
167.459775
20
5.420722
30
0
11
168.035377
21
5.450888
31
0
39
0
210
0
220
0
230
1
0
LINE
5
11B
100
AcDbEntity
8
1
62
256
6
ByLayer
370
13
48
1
60
0
100
AcDbLine
10
157.57761
20
7.130747
30
0
11
159.164084
21
8.020146
31
0
39
0
210
0
220
0
230
1
0
LINE
5
11C
100
AcDbEntity
8
1
62
256
6
ByLayer
370
13
48
1
60
0
100
AcDbLine
10
43
20
15.6
30
0
11
43
21
-5.436929
31
0
39
0
210
0
220
0
230
1
0
LINE
5
11D
100
AcDbEntity
8
1
62
256
6
ByLayer
370
13
48
1
60
0
100
AcDbLine
10
172.968149
20
5.709403
30
0
11
173.623702
21
5.743759
31
0
39
0
210
0
220
0
230
1
0
LINE
5
11E
100
AcDbEntity
8
1
62
256
6
ByLayer
370
13
48
1
60
0
100
AcDbLine
10
155.478741
20
1.557709
30
0
11
155.531209
21
1.217065
31
0
39
0
210
0
220
0
230
1
0
LINE
5
11F
100
AcDbEntity
8
1
62
256
6
ByLayer
370
13
48
1
60
0
100
AcDbLine
10
4
20
-3.571
30
0
11
4
21
3.571
31
0
39
0
210
0
220
0
230
1
0
LINE
5
120
100
AcDbEntity
8
1
62
256
6
ByLayer
370
13
48
1
60
0
100
AcDbLine
10
172.963247
20
-2.505241
30
0
11
174.201226
21
-3.674695
31
0
39
0
210
0
220
0
230
1
0
LINE
5
121
100
AcDbEntity
8
1
62
256
6
ByLayer
370
13
48
1
60
0
100
AcDbLine
10
161.557408
20
10.847769
30
0
11
162.12475
21
15.182829
31
0
39
0
210
0
220
0
230
1
0
LINE
5
122
100
AcDbEntity
8
1
62
256
6
ByLayer
370
13
48
1
60
0
100
AcDbLine
10
95.8
20
-15.415459
30
0
11
95.8
21
-15.44
31
0
39
0
210
0
220
0
230
1
0
LINE
5
123
100
AcDbEntity
8
1
62
256
6
ByLayer
370
13
48
1
60
0
100
AcDbLine
10
3.5
20
-28.868168
30
0
11
0
21
-28.868168
31
0
39
0
210
0
220
0
230
1
0
LINE
5
124
100
AcDbEntity
8
1
62
256
6
ByLayer
370
13
48
1
60
0
100
AcDbLine
10
168.035377
20
5.450888
30
0
11
172.968149
21
5.709403
31
0
39
0
210
0
220
0
230
1
0
LINE
5
125
100
AcDbEntity
8
1
62
256
6
ByLayer
370
13
48
1
60
0
100
AcDbLine
10
173.998735
20
5.359352
30
0
11
173.969966
21
5.862044
31
0
39
0
210
0
220
0
230
1
0
LINE
5
126
100
AcDbEntity
8
1
62
256
6
ByLayer
370
13
48
1
60
0
100
AcDbLine
10
3.5
20
-4.071
30
0
11
0
21
-4.071
31
0
39
0
210
0
220
0
230
1
0
LINE
5
127
100
AcDbEntity
8
1
62
256
6
ByLayer
370
13
48
1
60
0
100
AcDbLine
10
0
20
4.071
30
0
11
3.5
21
4.071
31
0
39
0
210
0
220
0
230
1
0
LINE
5
128
100
AcDbEntity
8
1
62
256
6
ByLayer
370
13
48
1
60
0
100
AcDbLine
10
173.656696
20
-0.253968
30
0
11
174.201226
21
-3.674695
31
0
39
0
210
0
220
0
230
1
0
LINE
5
129
100
AcDbEntity
8
1
62
256
6
ByLayer
370
13
48
1
60
0
100
AcDbLine
10
165.249377
20
6.105978
30
0
11
165.057122
21
6.095902
31
0
39
0
210
0
220
0
230
1
0
LINE
5
12A
100
AcDbEntity
8
1
62
256
6
ByLayer
370
13
48
1
60
0
100
AcDbLine
10
0
20
-24.797168
30
0
11
3.5
21
-24.797168
31
0
39
0
210
0
220
0
230
1
0
LINE
5
12B
100
AcDbEntity
8
1
62
256
6
ByLayer
370
13
48
1
60
0
100
AcDbLine
10
0
20
-25.418186
30
0
11
0
21
-28.868168
31
0
39
0
210
0
220
0
230
1
0
LINE
5
12C
100
AcDbEntity
8
1
62
256
6
ByLayer
370
13
48
1
60
0
100
AcDbLine
10
157.248386
20
-15.372934
30
0
11
156.599927
21
-15.372934
31
0
39
0
210
0
220
0
230
1
0
LINE
5
12D
100
AcDbEntity
8
1
62
256
6
ByLayer
370
13
48
1
60
0
100
AcDbLine
10
0
20
-4.071
30
0
11
0
21
-24.797168
31
0
39
0
210
0
220
0
230
1
0
LINE
5
12E
100
AcDbEntity
8
1
62
256
6
ByLayer
370
13
48
1
60
0
100
AcDbLine
10
172.544601
20
0.79657
30
0
11
172.655418
21
-0.771282
31
0
39
0
210
0
220
0
230
1
0
LINE
5
12F
100
AcDbEntity
8
1
62
256
6
ByLayer
370
13
48
1
60
0
100
AcDbLine
10
157.27702
20
7.094731
30
0
11
157.27702
21
10.96499
31
0
39
0
210
0
220
0
230
1
0
LINE
5
130
100
AcDbEntity
8
1
62
256
6
ByLayer
370
13
48
1
60
0
100
AcDbLine
10
162.12475
20
15.182829
30
0
11
162.110565
21
15.453514
31
0
39
0
210
0
220
0
230
1
0
LINE
5
131
100
AcDbEntity
8
1
62
256
6
ByLayer
370
13
48
1
60
0
100
AcDbLine
10
165.398009
20
6.314041
30
0
11
166.492073
21
6.371379
31
0
39
0
210
0
220
0
230
1
0
LINE
5
132
100
AcDbEntity
8
1
62
256
6
ByLayer
370
13
48
1
60
0
100
AcDbLine
10
165.012093
20
6.012181
30
0
11
164.819369
21
6.00208
31
0
39
0
210
0
220
0
230
1
0
LINE
5
133
100
AcDbEntity
8
1
62
256
6
ByLayer
370
13
48
1
60
0
100
AcDbLine
10
0
20
31.25
30
0
11
0
21
4.071
31
0
39
0
210
0
220
0
230
1
0
LINE
5
134
100
AcDbEntity
8
1
62
256
6
ByLayer
370
13
48
1
60
0
100
AcDbLine
10
160.248386
20
15.6
30
0
11
160.248386
21
15.428704
31
0
39
0
210
0
220
0
230
1
0
LINE
5
135
100
AcDbEntity
8
1
62
256
6
ByLayer
370
13
48
1
60
0
100
AcDbLine
10
174.119784
20
5.244922
30
0
11
174.071709
21
5.06393
31
0
39
0
210
0
220
0
230
1
0
LINE
5
136
100
AcDbEntity
8
1
62
256
6
ByLayer
370
13
48
1
60
0
100
AcDbLine
10
159.66949
20
1.015993
30
0
11
159.880987
21
-0.357133
31
0
39
0
210
0
220
0
230
1
0
LINE
5
137
100
AcDbEntity
8
1
62
256
6
ByLayer
370
13
48
1
60
0
100
AcDbLine
10
173.199527
20
-15.532133
30
0
11
173.97832
21
-9.646382
31
0
39
0
210
0
220
0
230
1
0
LINE
5
138
100
AcDbEntity
8
1
62
256
6
ByLayer
370
13
48
1
60
0
100
AcDbLine
10
172.218784
20
6.471229
30
0
11
167.327526
21
6.214889
31
0
39
0
210
0
220
0
230
1
0
LINE
5
139
100
AcDbEntity
8
1
62
256
6
ByLayer
370
13
48
1
60
0
100
AcDbLine
10
172.968149
20
5.709403
30
0
11
172.551368
21
1.328754
31
0
39
0
210
0
220
0
230
1
0
LINE
5
13A
100
AcDbEntity
8
1
62
256
6
ByLayer
370
13
48
1
60
0
100
AcDbLine
10
3.5
20
-4.071
30
0
11
3.5
21
4.071
31
0
39
0
210
0
220
0
230
1
0
LINE
5
13B
100
AcDbEntity
8
1
62
256
6
ByLayer
370
13
48
1
60
0
100
AcDbLine
10
165.047898
20
6.095418
30
0
11
165.057122
21
6.095902
31
0
39
0
210
0
220
0
230
1
0
LINE
5
13C
100
AcDbEntity
8
1
62
256
6
ByLayer
370
13
48
1
60
0
100
AcDbLine
10
174.006254
20
0.512456
30
0
11
173.879277
21
0.529089
31
0
39
0
210
0
220
0
230
1
0
LINE
5
13D
100
AcDbEntity
8
1
62
256
6
ByLayer
370
13
48
1
60
0
100
AcDbLine
10
170.475091
20
6.538396
30
0
11
170.333357
21
6.530968
31
0
39
0
210
0
220
0
230
1
0
LINE
5
13E
100
AcDbEntity
8
1
62
256
6
ByLayer
370
13
48
1
60
0
100
AcDbLine
10
164.764145
20
5.889711
30
0
11
164.446104
21
5.873043
31
0
39
0
210
0
220
0
230
1
0
LINE
5
13F
100
AcDbEntity
8
1
62
256
6
ByLayer
370
13
48
1
60
0
100
AcDbLine
10
3.5
20
-28.868168
30
0
11
3.5
21
-25.418186
31
0
39
0
210
0
220
0
230
1
0
LINE
5
140
100
AcDbEntity
8
1
62
256
6
ByLayer
370
13
48
1
60
0
100
AcDbLine
10
174.216172
20
-4.810633
30
0
11
173.681855
21
-8.848752
31
0
39
0
210
0
220
0
230
1
0
LINE
5
141
100
AcDbEntity
8
1
62
256
6
ByLayer
370
13
48
1
60
0
100
AcDbLine
10
174.120984
20
0.560512
30
0
11
174.007383
21
0.518867
31
0
39
0
210
0
220
0
230
1
0
LINE
5
142
100
AcDbEntity
8
1
62
256
6
ByLayer
370
13
48
1
60
0
100
AcDbLine
10
173.994199
20
0.514034
30
0
11
173.765924
21
0.430349
31
0
39
0
210
0
220
0
230
1
0
LINE
5
143
100
AcDbEntity
8
1
62
256
6
ByLayer
370
13
48
1
60
0
100
AcDbLine
10
174.071709
20
5.06393
30
0
11
174.035773
21
5.062047
31
0
39
0
210
0
220
0
230
1
0
LINE
5
144
100
AcDbEntity
8
1
62
256
6
ByLayer
370
13
48
1
60
0
100
AcDbLine
10
157.248386
20
15.44
30
0
11
157.248386
21
15.222175
31
0
39
0
210
0
220
0
230
1
0
LINE
5
145
100
AcDbEntity
8
1
62
256
6
ByLayer
370
13
48
1
60
0
100
AcDbLine
10
3.5
20
-24.797102
30
0
11
3.5
21
-25.418186
31
0
39
0
210
0
220
0
230
1
0
LINE
5
146
100
AcDbEntity
8
1
62
256
6
ByLayer
370
13
48
1
60
0
100
AcDbLine
10
173.991092
20
5.492898
30
0
11
174.119784
21
5.244922
31
0
39
0
210
0
220
0
230
1
0
LINE
5
147
100
AcDbEntity
8
1
62
256
6
ByLayer
370
13
48
1
60
0
100
AcDbLine
10
14.4403
20
28
30
0
11
14.4403
21
-28
31
0
39
0
210
0
220
0
230
1
0
LINE
5
148
100
AcDbEntity
8
1
62
256
6
ByLayer
370
13
48
1
60
0
100
AcDbLine
10
0
20
-25.418186
30
0
11
3.5
21
-25.418186
31
0
39
0
210
0
220
0
230
1
0
LINE
5
149
100
AcDbEntity
8
1
62
256
6
ByLayer
370
13
48
1
60
0
100
AcDbLine
10
160.248386
20
-15.532133
30
0
11
160.248386
21
-0.386123
31
0
39
0
210
0
220
0
230
1
0
LINE
5
14A
100
AcDbEntity
8
1
62
256
6
ByLayer
370
13
48
1
60
0
100
AcDbLine
10
173.96021
20
0.562328
30
0
11
173.949845
21
0.563686
31
0
39
0
210
0
220
0
230
1
0
LINE
5
14B
100
AcDbEntity
8
1
62
256
6
ByLayer
370
13
48
1
60
0
100
AcDbLine
10
157.248386
20
-15.372934
30
0
11
157.248386
21
0.308405
31
0
39
0
210
0
220
0
230
1
0
LINE
5
14C
100
AcDbEntity
8
1
62
256
6
ByLayer
370
13
48
1
60
0
100
AcDbLine
10
43
20
-15.554088
30
0
11
43
21
-15.6
31
0
39
0
210
0
220
0
230
1
0
LINE
5
14D
100
AcDbEntity
8
1
62
256
6
ByLayer
370
13
48
1
60
0
100
AcDbLine
10
95.8
20
-5.762138
30
0
11
95.8
21
15.435375
31
0
39
0
210
0
220
0
230
1
0
LINE
5
14E
100
AcDbEntity
8
1
62
256
6
ByLayer
370
13
48
1
60
0
100
AcDbLine
10
174.119784
20
5.244922
30
0
11
174.120984
21
0.560512
31
0
39
0
210
0
220
0
230
1
0
LINE
5
14F
100
AcDbEntity
8
1
62
256
6
ByLayer
370
13
48
1
60
0
100
AcDbLine
10
48
20
15.6
30
0
11
48
21
-5.439651
31
0
39
0
210
0
220
0
230
1
0
LINE
5
150
100
AcDbEntity
8
1
62
256
6
ByLayer
370
13
48
1
60
0
100
AcDbLine
10
159.164084
20
8.020146
30
0
11
157.27702
21
10.96499
31
0
39
0
210
0
220
0
230
1
0
LINE
5
151
100
AcDbEntity
8
1
62
256
6
ByLayer
370
13
48
1
60
0
100
AcDbLine
10
161.62978
20
8.684869
30
0
11
161.73481
21
8.019823
31
0
39
0
210
0
220
0
230
1
0
LINE
5
152
100
AcDbEntity
8
1
62
256
6
ByLayer
370
13
48
1
60
0
100
AcDbLine
10
173.656696
20
-0.253968
30
0
11
172.544601
21
0.79657
31
0
39
0
210
0
220
0
230
1
0
LINE
5
153
100
AcDbEntity
8
1
62
256
6
ByLayer
370
13
48
1
60
0
100
AcDbLine
10
165.468137
20
5.111213
30
0
11
165.860735
21
5.131788
31
0
39
0
210
0
220
0
230
1
0
LINE
5
154
100
AcDbEntity
8
1
62
256
6
ByLayer
370
13
48
1
60
0
100
AcDbLine
10
0
20
-24.797102
30
0
11
0
21
-25.418186
31
0
39
0
210
0
220
0
230
1
0
LINE
5
155
100
AcDbEntity
8
1
62
256
6
ByLayer
370
13
48
1
60
0
100
AcDbLine
10
5
20
-31.25
30
0
11
5
21
31.25
31
0
39
0
210
0
220
0
230
1
0
LINE
5
156
100
AcDbEntity
8
1
62
256
6
ByLayer
370
13
48
1
60
0
100
AcDbLine
10
174.063914
20
0.622328
30
0
11
174.120984
21
0.560512
31
0
39
0
210
0
220
0
230
1
0
LINE
5
157
100
AcDbEntity
8
1
62
256
6
ByLayer
370
13
48
1
60
0
100
AcDbLine
10
174.216172
20
-4.810633
30
0
11
173.015295
21
-3.676227
31
0
39
0
210
0
220
0
230
1
0
LINE
5
158
100
AcDbEntity
8
1
62
256
6
ByLayer
370
13
48
1
60
0
100
AcDbLine
10
0
20
4.071
30
0
11
0
21
-4.071
31
0
39
0
210
0
220
0
230
1
0
LINE
5
159
100
AcDbEntity
8
1
62
256
6
ByLayer
370
13
48
1
60
0
100
AcDbLine
10
0
20
-31.25
30
0
11
0
21
-28.868168
31
0
39
0
210
0
220
0
230
1
0
LINE
5
15A
100
AcDbEntity
8
SK1
62
256
6
ByLayer
370
13
48
1
60
0
100
AcDbLine
10
0
20
-4.071
30
0
11
-0.5
21
-4.071
31
0
39
0
210
0
220
0
230
1
0
LINE
5
15B
100
AcDbEntity
8
SK1
62
256
6
ByLayer
370
13
48
1
60
0
100
AcDbLine
10
0
20
31.25
30
0
11
0
21
4.071
31
0
39
0
210
0
220
0
230
1
0
LINE
5
15C
100
AcDbEntity
8
SK1
62
256
6
ByLayer
370
13
48
1
60
0
100
AcDbLine
10
0
20
4.071
30
0
11
0
21
-4.071
31
0
39
0
210
0
220
0
230
1
0
LINE
5
15D
100
AcDbEntity
8
4
62
256
6
ByLayer
370
18
48
0.05
60
0
100
AcDbLine
10
176
20
0
30
0
11
0
21
0
31
0
39
0
210
0
220
0
230
1
0
LINE
5
15F
100
AcDbEntity
8
SK4
62
256
6
ByLayer
370
13
48
0.05
60
0
100
AcDbLine
10
176
20
0
30
0
11
-15
21
0
31
0
39
0
210
0
220
0
230
1
0
LINE
5
161
100
AcDbEntity
8
SK1
62
256
6
ByLayer
370
13
48
1
60
0
100
AcDbLine
10
-1
20
-30.75
30
0
11
-0.5
21
-31.25
31
0
39
0
210
0
220
0
230
1
0
LINE
5
162
100
AcDbEntity
8
SK1
62
256
6
ByLayer
370
13
48
1
60
0
100
AcDbLine
10
-0.5
20
-31.25
30
0
11
0
21
-31.25
31
0
39
0
210
0
220
0
230
1
0
LINE
5
163
100
AcDbEntity
8
SK1
62
256
6
ByLayer
370
13
48
1
60
0
100
AcDbLine
10
-8.796888
20
19.65
30
0
11
-9.57646
21
19.65
31
0
39
0
210
0
220
0
230
1
0
LINE
5
164
100
AcDbEntity
8
SK1
62
256
6
ByLayer
370
13
48
1
60
0
100
AcDbLine
10
-9.57646
20
-19.65
30
0
11
-8.796888
21
-19.65
31
0
39
0
210
0
220
0
230
1
0
LINE
5
165
100
AcDbEntity
8
SK1
62
256
6
ByLayer
370
13
48
1
60
0
100
AcDbLine
10
-1.3
20
19.8
30
0
11
-2.57646
21
19.8
31
0
39
0
210
0
220
0
230
1
0
LINE
5
166
100
AcDbEntity
8
SK1
62
256
6
ByLayer
370
13
48
1
60
0
100
AcDbLine
10
-2.57646
20
-19.8
30
0
11
-1.3
21
-19.8
31
0
39
0
210
0
220
0
230
1
0
LINE
5
167
100
AcDbEntity
8
SK1
62
256
6
ByLayer
370
13
48
1
60
0
100
AcDbLine
10
-9.57646
20
19.65
30
0
11
-10
21
19.8475
31
0
39
0
210
0
220
0
230
1
0
LINE
5
168
100
AcDbEntity
8
SK1
62
256
6
ByLayer
370
13
48
1
60
0
100
AcDbLine
10
-10
20
-19.8475
30
0
11
-9.57646
21
-19.65
31
0
39
0
210
0
220
0
230
1
0
LINE
5
169
100
AcDbEntity
8
SK1
62
256
6
ByLayer
370
13
48
1
60
0
100
AcDbLine
10
-10
20
19.8475
30
0
11
-14.5
21
19.8475
31
0
39
0
210
0
220
0
230
1
0
LINE
5
16A
100
AcDbEntity
8
SK1
62
256
6
ByLayer
370
13
48
1
60
0
100
AcDbLine
10
-14.5
20
-19.8475
30
0
11
-10
21
-19.8475
31
0
39
0
210
0
220
0
230
1
0
LINE
5
16B
100
AcDbEntity
8
SK1
62
256
6
ByLayer
370
13
48
1
60
0
100
AcDbLine
10
-16
20
-19.445576
30
0
11
-14.5
21
-19.8475
31
0
39
0
210
0
220
0
230
1
0
LINE
5
16C
100
AcDbEntity
8
SK1
62
256
6
ByLayer
370
13
48
1
60
0
100
AcDbLine
10
-14.5
20
19.8475
30
0
11
-16
21
19.445576
31
0
39
0
210
0
220
0
230
1
0
LINE
5
16D
100
AcDbEntity
8
SK1
62
256
6
ByLayer
370
13
48
1
60
0
100
AcDbLine
10
-2.57646
20
19.8
30
0
11
-3
21
19.9975
31
0
39
0
210
0
220
0
230
1
0
LINE
5
16E
100
AcDbEntity
8
SK1
62
256
6
ByLayer
370
13
48
1
60
0
100
AcDbLine
10
-3
20
-19.9975
30
0
11
-2.57646
21
-19.8
31
0
39
0
210
0
220
0
230
1
0
LINE
5
16F
100
AcDbEntity
8
SK1
62
256
6
ByLayer
370
13
48
1
60
0
100
AcDbLine
10
-8.796888
20
-19.65
30
0
11
-7.5
21
-19.9975
31
0
39
0
210
0
220
0
230
1
0
LINE
5
170
100
AcDbEntity
8
SK1
62
256
6
ByLayer
370
13
48
1
60
0
100
AcDbLine
10
-7.5
20
19.9975
30
0
11
-8.796888
21
19.65
31
0
39
0
210
0
220
0
230
1
0
LINE
5
171
100
AcDbEntity
8
SK1
62
256
6
ByLayer
370
13
48
1
60
0
100
AcDbLine
10
-3
20
19.9975
30
0
11
-7.5
21
19.9975
31
0
39
0
210
0
220
0
230
1
0
LINE
5
172
100
AcDbEntity
8
SK1
62
256
6
ByLayer
370
13
48
1
60
0
100
AcDbLine
10
-7.5
20
-19.9975
30
0
11
-3
21
-19.9975
31
0
39
0
210
0
220
0
230
1
0
LINE
5
173
100
AcDbEntity
8
SK1
62
256
6
ByLayer
370
13
48
1
60
0
100
AcDbLine
10
-0.5
20
31.25
30
0
11
-1
21
30.75
31
0
39
0
210
0
220
0
230
1
0
LINE
5
174
100
AcDbEntity
8
SK1
62
256
6
ByLayer
370
13
48
1
60
0
100
AcDbLine
10
0
20
31.25
30
0
11
-0.5
21
31.25
31
0
39
0
210
0
220
0
230
1
0
LINE
5
175
100
AcDbEntity
8
1
62
256
6
ByLayer
370
13
48
1
60
0
100
AcDbLine
10
5
20
31.25
30
0
11
0
21
31.25
31
0
39
0
210
0
220
0
230
1
0
LINE
5
176
100
AcDbEntity
8
1
62
256
6
ByLayer
370
13
48
1
60
0
100
AcDbLine
10
0
20
-31.25
30
0
11
5
21
-31.25
31
0
39
0
210
0
220
0
230
1
0
LINE
5
177
100
AcDbEntity
8
1
62
256
6
ByLayer
370
18
48
1
60
0
100
AcDbLine
10
168.344458
20
8.406114
30
0
11
168.371207
21
8.407516
31
0
39
0
210
0
220
0
230
1
0
LINE
5
178
100
AcDbEntity
8
1
62
256
6
ByLayer
370
18
48
1
60
0
100
AcDbLine
10
168.140929
20
12.801486
30
0
11
168.114179
21
12.800084
31
0
39
0
210
0
220
0
230
1
0
LINE
5
179
100
AcDbEntity
8
1
62
256
6
ByLayer
370
18
48
1
60
0
100
AcDbLine
10
168.121929
20
11.593235
30
0
11
168.21693
21
11.598214
31
0
39
0
210
0
220
0
230
1
0
LINE
5
17A
100
AcDbEntity
8
1
62
256
6
ByLayer
370
18
48
1
60
0
100
AcDbLine
10
168.321016
20
9.61214
30
0
11
168.226015
21
9.607161
31
0
39
0
210
0
220
0
230
1
0
LINE
5
17B
100
AcDbEntity
8
1
62
256
6
ByLayer
370
13
48
1
60
0
100
AcDbLine
10
43
20
-15.6
30
0
11
48
21
-15.6
31
0
39
0
210
0
220
0
230
1
0
LINE
5
17C
100
AcDbEntity
8
1
62
256
6
ByLayer
370
13
48
1
60
0
100
AcDbLine
10
48
20
-15.6
30
0
11
95.8
21
-15.44
31
0
39
0
210
0
220
0
230
1
0
LINE
5
17D
100
AcDbEntity
8
1
62
256
6
ByLayer
370
13
48
1
60
0
100
AcDbLine
10
161.90476
20
15.6
30
0
11
160.248386
21
15.6
31
0
39
0
210
0
220
0
230
1
0
LINE
5
17E
100
AcDbEntity
8
1
62
256
6
ByLayer
370
13
48
1
60
0
100
AcDbLine
10
160.248386
20
15.6
30
0
11
157.248386
21
15.44
31
0
39
0
210
0
220
0
230
1
0
LINE
5
17F
100
AcDbEntity
8
1
62
256
6
ByLayer
370
13
48
1
60
0
100
AcDbLine
10
95.8
20
-15.44
30
0
11
102.482903
21
-15.44
31
0
39
0
210
0
220
0
230
1
0
LINE
5
180
100
AcDbEntity
8
1
62
256
6
ByLayer
370
13
48
1
60
0
100
AcDbLine
10
157.248386
20
15.44
30
0
11
148.468634
21
15.44
31
0
39
0
210
0
220
0
230
1
0
LINE
5
181
100
AcDbEntity
8
1
62
256
6
ByLayer
370
13
48
1
60
0
100
AcDbLine
10
92.362244
20
15.451507
30
0
11
48
21
15.6
31
0
39
0
210
0
220
0
230
1
0
LINE
5
182
100
AcDbEntity
8
1
62
256
6
ByLayer
370
13
48
1
60
0
100
AcDbLine
10
48
20
15.6
30
0
11
43
21
15.6
31
0
39
0
210
0
220
0
230
1
0
LINE
5
183
100
AcDbEntity
8
1
62
256
6
ByLayer
370
13
48
1
60
0
100
AcDbLine
10
5.5
20
-28
30
0
11
14.4403
21
-28
31
0
39
0
210
0
220
0
230
1
0
LINE
5
184
100
AcDbEntity
8
1
62
256
6
ByLayer
370
13
48
1
60
0
100
AcDbLine
10
14.4403
20
28
30
0
11
5.5
21
28
31
0
39
0
210
0
220
0
230
1
0
LINE
5
185
100
AcDbEntity
8
1
62
256
6
ByLayer
370
13
48
1
60
0
100
AcDbLine
10
174.09707
20
6.275878
30
0
11
174.402171
21
6.897542
31
0
39
0
210
0
220
0
230
1
0
LINE
5
186
100
AcDbEntity
8
1
62
256
6
ByLayer
370
13
48
1
60
0
100
AcDbLine
10
173.131134
20
11.104838
30
0
11
172.526619
21
14.932609
31
0
39
0
210
0
220
0
230
1
0
LINE
5
187
100
AcDbEntity
8
1
62
256
6
ByLayer
370
13
48
1
60
0
100
AcDbLine
10
172.605052
20
6.864025
30
0
11
173.133795
21
10.904147
31
0
39
0
210
0
220
0
230
1
0
LINE
5
188
100
AcDbEntity
8
81
62
256
6
ByLayer
370
18
48
1
60
0
100
AcDbLine
10
176
20
0
30
0
11
183
21
0
31
0
39
0
210
0
220
0
230
1
0
LINE
5
189
100
AcDbEntity
8
80
62
256
6
ByLayer
370
18
48
1
60
0
100
AcDbLine
10
0
20
0
30
0
11
-7
21
0
31
0
39
0
210
0
220
0
230
1
0
LINE
5
18A
100
AcDbEntity
8
SK2
62
256
6
ByLayer
370
13
48
1
60
0
100
AcDbLine
10
-36.725
20
20
30
0
11
-36.725
21
-20
31
0
39
0
210
0
220
0
230
1
0
LINE
5
18C
100
AcDbEntity
8
SK2
62
256
6
ByLayer
370
13
48
1
60
0
100
AcDbLine
10
-16.5875
20
-20
30
0
11
-39.9
21
-20
31
0
39
0
210
0
220
0
230
1
0
LINE
5
18D
100
AcDbEntity
8
SK2
62
256
6
ByLayer
370
13
48
1
60
0
100
AcDbLine
10
-16.5875
20
20
30
0
11
-39.9
21
20
31
0
39
0
210
0
220
0
230
1
0
LINE
5
18E
100
AcDbEntity
8
1
62
256
6
ByLayer
370
18
48
1
60
1
100
AcDbLine
10
-36.725
20
-20
30
0
11
-37.650575
21
-15.825003
31
0
39
0
210
0
220
0
230
1
0
LINE
5
18F
100
AcDbEntity
8
1
62
256
6
ByLayer
370
18
48
1
60
1
100
AcDbLine
10
-37.650575
20
-15.825003
30
0
11
-35.799425
21
-15.824997
31
0
39
0
210
0
220
0
230
1
0
LINE
5
190
100
AcDbEntity
8
1
62
256
6
ByLayer
370
18
48
1
60
1
100
AcDbLine
10
-35.799425
20
-15.824997
30
0
11
-36.725
21
-20
31
0
39
0
210
0
220
0
230
1
0
LINE
5
191
100
AcDbEntity
8
1
62
256
6
ByLayer
370
18
48
1
60
1
100
AcDbLine
10
-36.725
20
20
30
0
11
-35.799425
21
15.825003
31
0
39
0
210
0
220
0
230
1
0
LINE
5
192
100
AcDbEntity
8
1
62
256
6
ByLayer
370
18
48
1
60
1
100
AcDbLine
10
-35.799425
20
15.825003
30
0
11
-37.650575
21
15.824997
31
0
39
0
210
0
220
0
230
1
0
LINE
5
193
100
AcDbEntity
8
1
62
256
6
ByLayer
370
18
48
1
60
1
100
AcDbLine
10
-37.650575
20
15.824997
30
0
11
-36.725
21
20
31
0
39
0
210
0
220
0
230
1
0
LINE
5
194
100
AcDbEntity
8
SK2
62
256
6
ByLayer
370
13
48
1
60
0
100
AcDbLine
10
-46.725
20
-31.25
30
0
11
-46.725
21
31.25
31
0
39
0
210
0
220
0
230
1
0
LINE
5
195
100
AcDbEntity
8
SK2
62
256
6
ByLayer
370
13
48
1
60
0
100
AcDbLine
10
-1.5875
20
31.25
30
0
11
-49.9
21
31.25
31
0
39
0
210
0
220
0
230
1
0
LINE
5
196
100
AcDbEntity
8
SK2
62
256
6
ByLayer
370
13
48
1
60
0
100
AcDbLine
10
-1.5875
20
-31.25
30
0
11
-49.9
21
-31.25
31
0
39
0
210
0
220
0
230
1
0
LINE
5
197
100
AcDbEntity
8
1
62
256
6
ByLayer
370
18
48
1
60
1
100
AcDbLine
10
-46.725
20
31.25
30
0
11
-45.799425
21
27.075003
31
0
39
0
210
0
220
0
230
1
0
LINE
5
198
100
AcDbEntity
8
1
62
256
6
ByLayer
370
18
48
1
60
1
100
AcDbLine
10
-45.799425
20
27.075003
30
0
11
-47.650575
21
27.074997
31
0
39
0
210
0
220
0
230
1
0
LINE
5
199
100
AcDbEntity
8
1
62
256
6
ByLayer
370
18
48
1
60
1
100
AcDbLine
10
-47.650575
20
27.074997
30
0
11
-46.725
21
31.25
31
0
39
0
210
0
220
0
230
1
0
LINE
5
19A
100
AcDbEntity
8
1
62
256
6
ByLayer
370
18
48
1
60
1
100
AcDbLine
10
-46.725
20
-31.25
30
0
11
-47.650575
21
-27.075003
31
0
39
0
210
0
220
0
230
1
0
LINE
5
19B
100
AcDbEntity
8
1
62
256
6
ByLayer
370
18
48
1
60
1
100
AcDbLine
10
-47.650575
20
-27.075003
30
0
11
-45.799425
21
-27.074997
31
0
39
0
210
0
220
0
230
1
0
LINE
5
19C
100
AcDbEntity
8
1
62
256
6
ByLayer
370
18
48
1
60
1
100
AcDbLine
10
-45.799425
20
-27.074997
30
0
11
-46.725
21
-31.25
31
0
39
0
210
0
220
0
230
1
0
LINE
5
19D
100
AcDbEntity
8
2
62
256
6
ByLayer
370
13
48
1
60
0
100
AcDbLine
10
202.975
20
16
30
0
11
202.975
21
-16
31
0
39
0
210
0
220
0
230
1
0
LINE
5
19F
100
AcDbEntity
8
2
62
256
6
ByLayer
370
13
48
1
60
0
100
AcDbLine
10
177.5875
20
-16
30
0
11
206.15
21
-16
31
0
39
0
210
0
220
0
230
1
0
LINE
5
1A0
100
AcDbEntity
8
2
62
256
6
ByLayer
370
13
48
1
60
0
100
AcDbLine
10
177.5875
20
16
30
0
11
206.15
21
16
31
0
39
0
210
0
220
0
230
1
0
LINE
5
1A1
100
AcDbEntity
8
1
62
256
6
ByLayer
370
18
48
1
60
1
100
AcDbLine
10
202.975
20
-16
30
0
11
202.049425
21
-11.825003
31
0
39
0
210
0
220
0
230
1
0
LINE
5
1A2
100
AcDbEntity
8
1
62
256
6
ByLayer
370
18
48
1
60
1
100
AcDbLine
10
202.049425
20
-11.825003
30
0
11
203.900575
21
-11.824997
31
0
39
0
210
0
220
0
230
1
0
LINE
5
1A3
100
AcDbEntity
8
1
62
256
6
ByLayer
370
18
48
1
60
1
100
AcDbLine
10
203.900575
20
-11.824997
30
0
11
202.975
21
-16
31
0
39
0
210
0
220
0
230
1
0
LINE
5
1A4
100
AcDbEntity
8
1
62
256
6
ByLayer
370
18
48
1
60
1
100
AcDbLine
10
202.975
20
16
30
0
11
203.900575
21
11.825003
31
0
39
0
210
0
220
0
230
1
0
LINE
5
1A5
100
AcDbEntity
8
1
62
256
6
ByLayer
370
18
48
1
60
1
100
AcDbLine
10
203.900575
20
11.825003
30
0
11
202.049425
21
11.824997
31
0
39
0
210
0
220
0
230
1
0
LINE
5
1A6
100
AcDbEntity
8
1
62
256
6
ByLayer
370
18
48
1
60
1
100
AcDbLine
10
202.049425
20
11.824997
30
0
11
202.975
21
16
31
0
39
0
210
0
220
0
230
1
0
LINE
5
354
100
AcDbEntity
8
1
62
256
6
ByLayer
370
18
48
1
60
1
100
AcDbLine
10
-36.725
20
-20
30
0
11
-37.650575
21
-15.825003
31
0
39
0
210
0
220
0
230
1
0
LINE
5
355
100
AcDbEntity
8
1
62
256
6
ByLayer
370
18
48
1
60
1
100
AcDbLine
10
-37.650575
20
-15.825003
30
0
11
-35.799425
21
-15.824997
31
0
39
0
210
0
220
0
230
1
0
LINE
5
356
100
AcDbEntity
8
1
62
256
6
ByLayer
370
18
48
1
60
1
100
AcDbLine
10
-35.799425
20
-15.824997
30
0
11
-36.725
21
-20
31
0
39
0
210
0
220
0
230
1
0
LINE
5
358
100
AcDbEntity
8
1
62
256
6
ByLayer
370
18
48
1
60
1
100
AcDbLine
10
-36.725
20
20
30
0
11
-35.799425
21
15.825003
31
0
39
0
210
0
220
0
230
1
0
LINE
5
359
100
AcDbEntity
8
1
62
256
6
ByLayer
370
18
48
1
60
1
100
AcDbLine
10
-35.799425
20
15.825003
30
0
11
-37.650575
21
15.824997
31
0
39
0
210
0
220
0
230
1
0
LINE
5
35A
100
AcDbEntity
8
1
62
256
6
ByLayer
370
18
48
1
60
1
100
AcDbLine
10
-37.650575
20
15.824997
30
0
11
-36.725
21
20
31
0
39
0
210
0
220
0
230
1
0
LINE
5
35E
100
AcDbEntity
8
1
62
256
6
ByLayer
370
18
48
1
60
1
100
AcDbLine
10
-46.725
20
31.25
30
0
11
-45.799425
21
27.075003
31
0
39
0
210
0
220
0
230
1
0
LINE
5
35F
100
AcDbEntity
8
1
62
256
6
ByLayer
370
18
48
1
60
1
100
AcDbLine
10
-45.799425
20
27.075003
30
0
11
-47.650575
21
27.074997
31
0
39
0
210
0
220
0
230
1
0
LINE
5
360
100
AcDbEntity
8
1
62
256
6
ByLayer
370
18
48
1
60
1
100
AcDbLine
10
-47.650575
20
27.074997
30
0
11
-46.725
21
31.25
31
0
39
0
210
0
220
0
230
1
0
LINE
5
362
100
AcDbEntity
8
1
62
256
6
ByLayer
370
18
48
1
60
1
100
AcDbLine
10
-46.725
20
-31.25
30
0
11
-47.650575
21
-27.075003
31
0
39
0
210
0
220
0
230
1
0
LINE
5
363
100
AcDbEntity
8
1
62
256
6
ByLayer
370
18
48
1
60
1
100
AcDbLine
10
-47.650575
20
-27.075003
30
0
11
-45.799425
21
-27.074997
31
0
39
0
210
0
220
0
230
1
0
LINE
5
364
100
AcDbEntity
8
1
62
256
6
ByLayer
370
18
48
1
60
1
100
AcDbLine
10
-45.799425
20
-27.074997
30
0
11
-46.725
21
-31.25
31
0
39
0
210
0
220
0
230
1
0
LINE
5
368
100
AcDbEntity
8
1
62
256
6
ByLayer
370
18
48
1
60
1
100
AcDbLine
10
202.975
20
-16
30
0
11
202.049425
21
-11.825003
31
0
39
0
210
0
220
0
230
1
0
LINE
5
369
100
AcDbEntity
8
1
62
256
6
ByLayer
370
18
48
1
60
1
100
AcDbLine
10
202.049425
20
-11.825003
30
0
11
203.900575
21
-11.824997
31
0
39
0
210
0
220
0
230
1
0
LINE
5
36A
100
AcDbEntity
8
1
62
256
6
ByLayer
370
18
48
1
60
1
100
AcDbLine
10
203.900575
20
-11.824997
30
0
11
202.975
21
-16
31
0
39
0
210
0
220
0
230
1
0
LINE
5
36C
100
AcDbEntity
8
1
62
256
6
ByLayer
370
18
48
1
60
1
100
AcDbLine
10
202.975
20
16
30
0
11
203.900575
21
11.825003
31
0
39
0
210
0
220
0
230
1
0
LINE
5
36D
100
AcDbEntity
8
1
62
256
6
ByLayer
370
18
48
1
60
1
100
AcDbLine
10
203.900575
20
11.825003
30
0
11
202.049425
21
11.824997
31
0
39
0
210
0
220
0
230
1
0
LINE
5
36E
100
AcDbEntity
8
1
62
256
6
ByLayer
370
18
48
1
60
1
100
AcDbLine
10
202.049425
20
11.824997
30
0
11
202.975
21
16
31
0
39
0
210
0
220
0
230
1
0
MTEXT
5
350
100
AcDbEntity
8
SK2
62
256
6
ByLayer
370
18
48
1
60
0
100
AcDbMText
10
-38.736672
20
-7.186314
30
0
210
0
220
0
230
1
1
%%c
40
4.5
41
0
44
1.084337
50
90
71
7
72
5
7
iso_b_vert
0
MTEXT
5
353
100
AcDbEntity
8
SK2
62
256
6
ByLayer
370
18
48
1
60
0
100
AcDbMText
10
-38.736672
20
4.02853
30
0
210
0
220
0
230
1
1
\W0.7361;40
40
4.5
41
0
44
1.084337
50
90
71
7
72
5
7
iso_b_vert
0
MTEXT
5
35C
100
AcDbEntity
8
SK2
62
256
6
ByLayer
370
18
48
1
60
0
100
AcDbMText
10
-48.736672
20
-9.541655
30
0
210
0
220
0
230
1
1
%%c
40
4.5
41
0
44
1.084337
50
90
71
7
72
5
7
iso_b_vert
0
MTEXT
5
35D
100
AcDbEntity
8
SK2
62
256
6
ByLayer
370
18
48
1
60
0
100
AcDbMText
10
-48.736672
20
1.673189
30
0
210
0
220
0
230
1
1
\W0.7346;62.5
40
4.5
41
0
44
1.084337
50
90
71
7
72
5
7
iso_b_vert
0
MTEXT
5
366
100
AcDbEntity
8
2
62
256
6
ByLayer
370
18
48
1
60
0
100
AcDbMText
10
200.963328
20
-6.949399
30
0
210
0
220
0
230
1
1
%%c
40
4.5
41
0
44
1.084337
50
90
71
7
72
5
7
iso_b_vert
0
MTEXT
5
367
100
AcDbEntity
8
2
62
256
6
ByLayer
370
18
48
1
60
0
100
AcDbMText
10
200.963328
20
4.265444
30
0
210
0
220
0
230
1
1
\W0.6740;32
40
4.5
41
0
44
1.084337
50
90
71
7
72
5
7
iso_b_vert
0
MTEXT
5
370
100
AcDbEntity
8
SK6
62
256
6
ByLayer
370
18
48
1
60
0
100
AcDbMText
10
9.308916
20
-94.592562
30
0
210
0
220
0
230
1
1
\W0.7794;DS20-D3200DM40-04
40
3.5
41
0
44
1.084337
50
0
71
7
72
5
7
iso_b_vert
0
HATCH
5
357
100
AcDbEntity
8
SK2
62
256
6
ByLayer
370
13
48
1
60
0
100
AcDbHatch
10
0
20
0
30
0
210
0
220
0
230
1
2
ANSI31
70
0
71
0
91
1
92
5
93
3
72
1
10
-36.7250000000001
20
-20
11
-37.650575216528
21
-15.8250033998276
72
1
10
-37.650575216528
20
-15.8250033998276
11
-35.7994247834721
21
-15.8249966001723
72
1
10
-35.7994247834721
20
-15.8249966001723
11
-36.7250000000001
21
-20
97
0
75
0
76
1
52
0
41
0.0062
77
0
78
1
53
45
43
0
44
0
45
-0.0139193969876572
46
0.0139193969876572
79
0
47
0
98
1
10
0
20
0
0
HATCH
5
35B
100
AcDbEntity
8
SK2
62
256
6
ByLayer
370
13
48
1
60
0
100
AcDbHatch
10
0
20
0
30
0
210
0
220
0
230
1
2
ANSI31
70
0
71
0
91
1
92
5
93
3
72
1
10
-36.7250000000001
20
20
11
-35.7994247834721
21
15.8250033998276
72
1
10
-35.7994247834721
20
15.8250033998276
11
-37.650575216528
21
15.8249966001724
72
1
10
-37.650575216528
20
15.8249966001724
11
-36.7250000000001
21
20
97
0
75
0
76
1
52
0
41
0.0062
77
0
78
1
53
45
43
0
44
0
45
-0.0139193969876572
46
0.0139193969876572
79
0
47
0
98
1
10
0
20
0
0
HATCH
5
361
100
AcDbEntity
8
SK2
62
256
6
ByLayer
370
13
48
1
60
0
100
AcDbHatch
10
0
20
0
30
0
210
0
220
0
230
1
2
ANSI31
70
0
71
0
91
1
92
5
93
3
72
1
10
-46.7250000000001
20
31.25
11
-45.7994247834721
21
27.0750033998276
72
1
10
-45.7994247834721
20
27.0750033998276
11
-47.650575216528
21
27.0749966001724
72
1
10
-47.650575216528
20
27.0749966001724
11
-46.7250000000001
21
31.25
97
0
75
0
76
1
52
0
41
0.0062
77
0
78
1
53
45
43
0
44
0
45
-0.0139193969876572
46
0.0139193969876572
79
0
47
0
98
1
10
0
20
0
0
HATCH
5
365
100
AcDbEntity
8
SK2
62
256
6
ByLayer
370
13
48
1
60
0
100
AcDbHatch
10
0
20
0
30
0
210
0
220
0
230
1
2
ANSI31
70
0
71
0
91
1
92
5
93
3
72
1
10
-46.7250000000001
20
-31.25
11
-47.650575216528
21
-27.0750033998276
72
1
10
-47.650575216528
20
-27.0750033998276
11
-45.7994247834721
21
-27.0749966001724
72
1
10
-45.7994247834721
20
-27.0749966001724
11
-46.7250000000001
21
-31.25
97
0
75
0
76
1
52
0
41
0.0062
77
0
78
1
53
45
43
0
44
0
45
-0.0139193969876572
46
0.0139193969876572
79
0
47
0
98
1
10
0
20
0
0
HATCH
5
36B
100
AcDbEntity
8
2
62
256
6
ByLayer
370
13
48
1
60
0
100
AcDbHatch
10
0
20
0
30
0
210
0
220
0
230
1
2
ANSI31
70
0
71
0
91
1
92
5
93
3
72
1
10
202.975
20
-16.0000000000002
11
202.049424783472
21
-11.8250033998278
72
1
10
202.049424783472
20
-11.8250033998278
11
203.900575216528
21
-11.8249966001726
72
1
10
203.900575216528
20
-11.8249966001726
11
202.975
21
-16.0000000000002
97
0
75
0
76
1
52
0
41
0.0062
77
0
78
1
53
45
43
0
44
0
45
-0.0139193969876572
46
0.0139193969876572
79
0
47
0
98
1
10
0
20
0
0
HATCH
5
36F
100
AcDbEntity
8
2
62
256
6
ByLayer
370
13
48
1
60
0
100
AcDbHatch
10
0
20
0
30
0
210
0
220
0
230
1
2
ANSI31
70
0
71
0
91
1
92
5
93
3
72
1
10
202.975
20
15.9999999999998
11
203.900575216528
21
11.8250033998274
72
1
10
203.900575216528
20
11.8250033998274
11
202.049424783472
21
11.8249966001722
72
1
10
202.049424783472
20
11.8249966001722
11
202.975
21
15.9999999999998
97
0
75
0
76
1
52
0
41
0.0062
77
0
78
1
53
45
43
0
44
0
45
-0.0139193969876572
46
0.0139193969876572
79
0
47
0
98
1
10
0
20
0
0
DIMENSION
5
373
100
AcDbEntity
8
2
62
256
6
ByLayer
370
18
48
1
60
0
100
AcDbDimension
2
_U0
10
176
20
-80.1
30
0
11
88
21
-80.1
31
0
70
32
71
1
72
1
41
1
210
0
220
0
230
1
3
Standard
100
AcDbAlignedDimension
13
0
23
-31.25
33
0
14
176
24
-16
34
0
50
0
100
AcDbRotatedDimension
1001
ACAD
1000
DSTYLE
1002
{
1070
   371
1070
    13
1070
   372
1070
    13
1070
   170
1070
     0
1070
   144
1040
1.0
1070
   277
1070
     2
1070
   284
1070
     8
1070
   278
1070
    46
1070
   146
1040
0.777778
1070
   345
1005
16
1070
   347
1005
16
1070
   346
1005
16
1070
   344
1005
0
1070
   343
1005
0
1070
   172
1070
     1
1070
    76
1070
     0
1070
    75
1070
     0
1070
   282
1070
     0
1070
   281
1070
     0
1070
    71
1070
     0
1070
    74
1070
     0
1070
   279
1070
     0
1070
   173
1070
     1
1070
   340
1005
351
1070
   271
1070
     1
1070
   272
1070
     2
1070
    77
1070
     1
1070
    73
1070
     1
1070
   171
1070
     3
1070
   274
1070
     4
1070
   177
1070
   150
1070
   176
1070
     9
1070
   178
1070
    43
1070
    78
1070
     8
1070
    48
1040
-0.1
1070
    41
1040
4.175
1070
   147
1040
2.25
1070
    42
1040
1.5875
1070
    44
1040
3.175
1070
   140
1040
4.5
1002
}
1001
ACAD_DSTYLE_DIM_LINETYPE
1070
   380
1005
16
1001
ACAD_DSTYLE_DIM_EXT1_LINETYPE
1070
   381
1005
16
1001
ACAD_DSTYLE_DIM_EXT2_LINETYPE
1070
   382
1005
16
0
DIMENSION
5
38C
100
AcDbEntity
8
SK2
62
256
6
ByLayer
370
18
48
1
60
0
100
AcDbDimension
2
_U1
10
0
20
-80.1
30
0
11
-7.5
21
-80.1
31
0
70
32
71
1
72
1
41
1
210
0
220
0
230
1
3
Standard
100
AcDbAlignedDimension
13
-15
23
-20
33
0
14
0
24
-31.25
34
0
50
0
100
AcDbRotatedDimension
1001
ACAD
1000
DSTYLE
1002
{
1070
   371
1070
    13
1070
   372
1070
    13
1070
   170
1070
     0
1070
   144
1040
1.0
1070
   277
1070
     2
1070
   284
1070
     8
1070
   278
1070
    46
1070
   146
1040
0.777778
1070
   345
1005
16
1070
   347
1005
16
1070
   346
1005
16
1070
   344
1005
0
1070
   343
1005
0
1070
   172
1070
     1
1070
    76
1070
     0
1070
    75
1070
     0
1070
   282
1070
     0
1070
   281
1070
     0
1070
    71
1070
     0
1070
    74
1070
     0
1070
   279
1070
     0
1070
   173
1070
     1
1070
   340
1005
351
1070
   271
1070
     1
1070
   272
1070
     2
1070
    77
1070
     1
1070
    73
1070
     1
1070
   171
1070
     3
1070
   274
1070
     4
1070
   177
1070
   150
1070
   176
1070
     9
1070
   178
1070
    43
1070
    78
1070
     8
1070
    48
1040
-0.1
1070
    41
1040
4.175
1070
   147
1040
2.25
1070
    42
1040
1.5875
1070
    44
1040
3.175
1070
   140
1040
4.5
1002
}
1001
ACAD_DSTYLE_DIM_LINETYPE
1070
   380
1005
16
1001
ACAD_DSTYLE_DIM_EXT1_LINETYPE
1070
   381
1005
16
1001
ACAD_DSTYLE_DIM_EXT2_LINETYPE
1070
   382
1005
16
0
DIMENSION
5
3A5
100
AcDbEntity
8
SK2
62
256
6
ByLayer
370
18
48
1
60
0
100
AcDbDimension
2
_U2
10
15.9403
20
-70.1
30
0
11
95.97015
21
-70.1
31
0
70
32
71
1
72
1
41
1
210
0
220
0
230
1
3
Standard
100
AcDbAlignedDimension
13
176
23
-16
33
0
14
15.9403
24
-31.25
34
0
50
0
100
AcDbRotatedDimension
1001
ACAD
1000
DSTYLE
1002
{
1070
   371
1070
    13
1070
   372
1070
    13
1070
   170
1070
     0
1070
   144
1040
1.0
1070
   277
1070
     2
1070
   284
1070
     8
1070
   278
1070
    46
1070
   146
1040
0.777778
1070
   345
1005
16
1070
   347
1005
16
1070
   346
1005
16
1070
   344
1005
0
1070
   343
1005
0
1070
   172
1070
     1
1070
    76
1070
     0
1070
    75
1070
     0
1070
   282
1070
     0
1070
   281
1070
     0
1070
    71
1070
     0
1070
    74
1070
     0
1070
   279
1070
     0
1070
   173
1070
     1
1070
   340
1005
351
1070
   271
1070
     1
1070
   272
1070
     2
1070
    77
1070
     1
1070
    73
1070
     1
1070
   171
1070
     3
1070
   274
1070
     4
1070
   177
1070
   150
1070
   176
1070
     9
1070
   178
1070
    43
1070
    78
1070
     8
1070
    48
1040
-0.1
1070
    41
1040
4.175
1070
   147
1040
2.25
1070
    42
1040
1.5875
1070
    44
1040
3.175
1070
   140
1040
4.5
1002
}
1001
ACAD_DSTYLE_DIM_LINETYPE
1070
   380
1005
16
1001
ACAD_DSTYLE_DIM_EXT1_LINETYPE
1070
   381
1005
16
1001
ACAD_DSTYLE_DIM_EXT2_LINETYPE
1070
   382
1005
16
0
DIMENSION
5
3BD
100
AcDbEntity
8
SK2
62
256
6
ByLayer
370
18
48
1
60
0
100
AcDbDimension
2
_U3
10
176
20
-60.1
30
0
11
110
21
-60.1
31
0
70
32
71
1
72
1
41
1
210
0
220
0
230
1
3
Standard
100
AcDbAlignedDimension
13
44
23
-16
33
0
14
176
24
-16
34
0
50
0
100
AcDbRotatedDimension
1001
ACAD
1000
DSTYLE
1002
{
1070
   371
1070
    13
1070
   372
1070
    13
1070
   170
1070
     0
1070
   144
1040
1.0
1070
   277
1070
     2
1070
   284
1070
     8
1070
   278
1070
    46
1070
   146
1040
0.777778
1070
   345
1005
16
1070
   347
1005
16
1070
   346
1005
16
1070
   344
1005
0
1070
   343
1005
0
1070
   172
1070
     1
1070
    76
1070
     0
1070
    75
1070
     0
1070
   282
1070
     0
1070
   281
1070
     0
1070
    71
1070
     0
1070
    74
1070
     0
1070
   279
1070
     0
1070
   173
1070
     1
1070
   340
1005
351
1070
   271
1070
     1
1070
   272
1070
     2
1070
    77
1070
     1
1070
    73
1070
     1
1070
   171
1070
     3
1070
   274
1070
     4
1070
   177
1070
   150
1070
   176
1070
     9
1070
   178
1070
    43
1070
    78
1070
     8
1070
    48
1040
-0.1
1070
    41
1040
4.175
1070
   147
1040
2.25
1070
    42
1040
1.5875
1070
    44
1040
3.175
1070
   140
1040
4.5
1002
}
1001
ACAD_DSTYLE_DIM_LINETYPE
1070
   380
1005
16
1001
ACAD_DSTYLE_DIM_EXT1_LINETYPE
1070
   381
1005
16
1001
ACAD_DSTYLE_DIM_EXT2_LINETYPE
1070
   382
1005
16
0
DIMENSION
5
3D5
100
AcDbEntity
8
2
62
256
6
ByLayer
370
18
48
1
60
0
100
AcDbDimension
2
_U4
10
176
20
-50.1
30
0
11
198.350893
21
-50.1
31
0
70
32
71
1
72
1
41
1
210
0
220
0
230
1
3
Standard
100
AcDbAlignedDimension
13
175.1684
23
-8
33
0
14
176
24
0
34
0
50
0
100
AcDbRotatedDimension
1001
ACAD
1000
DSTYLE
1002
{
1070
   371
1070
    13
1070
   372
1070
    13
1070
   170
1070
     0
1070
   144
1040
1.0
1070
   277
1070
     2
1070
   284
1070
     8
1070
   278
1070
    46
1070
   146
1040
0.777778
1070
   345
1005
16
1070
   347
1005
16
1070
   346
1005
16
1070
   344
1005
0
1070
   343
1005
0
1070
   172
1070
     1
1070
    76
1070
     0
1070
    75
1070
     0
1070
   282
1070
     0
1070
   281
1070
     0
1070
    71
1070
     0
1070
    74
1070
     0
1070
   279
1070
     0
1070
   173
1070
     1
1070
   340
1005
351
1070
   271
1070
     2
1070
   272
1070
     2
1070
    77
1070
     1
1070
    73
1070
     1
1070
   171
1070
     3
1070
   274
1070
     4
1070
   177
1070
   150
1070
   176
1070
     9
1070
   178
1070
    43
1070
    78
1070
     8
1070
    48
1040
-0.1
1070
    41
1040
4.175
1070
   147
1040
2.25
1070
    42
1040
1.5875
1070
    44
1040
3.175
1070
   140
1040
4.5
1002
}
1001
ACAD_DSTYLE_DIM_LINETYPE
1070
   380
1005
16
1001
ACAD_DSTYLE_DIM_EXT1_LINETYPE
1070
   381
1005
16
1001
ACAD_DSTYLE_DIM_EXT2_LINETYPE
1070
   382
1005
16
0
ENDSEC
0
SECTION
2
OBJECTS
0
DICTIONARY
5
45f
330
0
100
AcDbDictionary
280
0
281
1
3
ACAD_GROUP
350
460
3
ACAD_MLINESTYLE
350
461
0
DICTIONARY
5
460
330
0
100
AcDbDictionary
280
0
281
1
0
DICTIONARY
5
461
330
0
100
AcDbDictionary
280
0
281
1
3
Standard
350
18
0
MLINESTYLE
5
18
330
461
100
AcDbMlineStyle
2
Standard
70
0
3

62
256
51
90
52
90
71
2
49
-0.5
62
256
6
ByLayer
49
0.5
62
256
6
ByLayer
0
RASTERVARIABLES
5
44d
330

100
AcDbRasterVariables
90
0
70
1
71
1
72
1
0
ENDSEC
0
EOF
