0
SECTION
2
HEADER
9
$ACADVER
1
AC1015
9
$DWGCODEPAGE
3
ANSI_1252
9
$HANDSEED
5
25e
9
$ANGBASE
50
0
9
$ANGDIR
70
0
9
$ATTMODE
70
1
9
$AUNITS
70
0
9
$AUPREC
70
0
9
$CECOLOR
62
256
9
$CELTSCALE
40
1
9
$CELTYPE
6
ByLayer
9
$CELWEIGHT
370
18
9
$CLAYER
8
0
9
$CMLJUST
70
0
9
$CMLSCALE
40
1
9
$CMLSTYLE
2
Standard
9
$DIMSTYLE
2
Standard
9
$TEXTSIZE
40
0.2
9
$TEXTSTYLE
7
Standard
9
$LUNITS
70
2
9
$LUPREC
70
4
9
$EXTNAMES
290
1
9
$INSUNITS
70
4
9
$LTSCALE
40
1
9
$LWDISPLAY
290
1
9
$PDMODE
70
0
9
$PDSIZE
40
0
9
$PLINEGEN
70
0
0
ENDSEC
0
SECTION
2
CLASSES
0
CLASS
1
RASTERVARIABLES
2
AcDbRasterVariables
3
ISM
90
0
280
0
281
0
0
ENDSEC
0
SECTION
2
TABLES
0
TABLE
2
VPORT
5
254
100
AcDbSymbolTable
0
VPORT
5
1
100
AcDbSymbolTableRecord
100
AcDbViewportTableRecord
2
*Active
70
0
10
0
20
0
11
1
21
1
12
-1
22
1
13
0
23
0
14
0.5
24
0.5
15
10
25
10
16
0
26
0
36
1
17
0
27
0
37
0
0
ENDTAB
0
TABLE
2
LTYPE
5
255
100
AcDbSymbolTable
0
LTYPE
5
14
100
AcDbSymbolTableRecord
100
AcDbLinetypeTableRecord
70
0
2
ByBlock
3

72
65
73
0
40
0
0
LTYPE
5
15
100
AcDbSymbolTableRecord
100
AcDbLinetypeTableRecord
70
0
2
ByLayer
3

72
65
73
0
40
0
0
LTYPE
5
16
100
AcDbSymbolTableRecord
100
AcDbLinetypeTableRecord
70
0
2
Continuous
3
Solid line
72
65
73
0
40
0
0
LTYPE
5
6E
100
AcDbSymbolTableRecord
100
AcDbLinetypeTableRecord
70
0
2
CENTER
3
____ _ ____ _ ____ _ ____
72
65
73
4
40
47.5
49
22
74
0
49
-8.5
74
0
49
8.5
74
0
49
-8.5
74
0
0
LTYPE
5
6F
100
AcDbSymbolTableRecord
100
AcDbLinetypeTableRecord
70
0
2
DASHED
3
__ __ __ __ __ __ __ __ __
72
65
73
2
40
25.72
49
12.86
74
0
49
-12.86
74
0
0
ENDTAB
0
TABLE
2
LAYER
5
256
100
AcDbSymbolTable
0
LAYER
5
10
100
AcDbSymbolTableRecord
100
AcDbLayerTableRecord
2
0
70
0
62
7
6
Continuous
290
1
370
-3
390
0
0
LAYER
5
71
100
AcDbSymbolTableRecord
100
AcDbLayerTableRecord
2
80
70
0
62
-6
6
Continuous
290
1
370
-3
390
0
0
LAYER
5
73
100
AcDbSymbolTableRecord
100
AcDbLayerTableRecord
2
81
70
0
62
-3
6
Continuous
290
1
370
-3
390
0
0
LAYER
5
75
100
AcDbSymbolTableRecord
100
AcDbLayerTableRecord
2
1
70
0
62
4
6
Continuous
290
1
370
-3
390
0
0
LAYER
5
A7
100
AcDbSymbolTableRecord
100
AcDbLayerTableRecord
2
4
70
0
62
-2
6
CENTER
290
1
370
-3
390
0
0
LAYER
5
118
100
AcDbSymbolTableRecord
100
AcDbLayerTableRecord
2
Defpoints
70
0
62
7
6
Continuous
290
0
370
-3
390
0
0
LAYER
5
145
100
AcDbSymbolTableRecord
100
AcDbLayerTableRecord
2
2
70
0
62
7
6
Continuous
290
1
370
-3
390
0
0
LAYER
5
240
100
AcDbSymbolTableRecord
100
AcDbLayerTableRecord
2
SK1
70
0
62
4
6
Continuous
290
1
370
-3
390
0
0
LAYER
5
241
100
AcDbSymbolTableRecord
100
AcDbLayerTableRecord
2
SK4
70
0
62
2
6
CENTER
290
1
370
-3
390
0
0
LAYER
5
242
100
AcDbSymbolTableRecord
100
AcDbLayerTableRecord
2
SK2
70
0
62
7
6
Continuous
290
1
370
-3
390
0
0
LAYER
5
243
100
AcDbSymbolTableRecord
100
AcDbLayerTableRecord
2
SK6
70
0
62
5
6
Continuous
290
1
370
-3
390
0
0
ENDTAB
0
TABLE
2
STYLE
5
257
100
AcDbSymbolTable
0
STYLE
5
11
100
AcDbSymbolTableRecord
100
AcDbTextStyleTableRecord
2
Standard
3
txt
70
0
71
0
40
0
41
1
42
0
50
0
0
STYLE
5
109
100
AcDbSymbolTableRecord
100
AcDbTextStyleTableRecord
2
iso_b_vert
3
simplex.shx
70
0
71
0
40
0
41
1
42
0
50
0
0
STYLE
5
10A
100
AcDbSymbolTableRecord
100
AcDbTextStyleTableRecord
2
DWGDirectTextStyle
3
simplex
70
0
71
0
40
0
41
1
42
0
50
0
0
ENDTAB
0
TABLE
2
DIMSTYLE
5
258
100
AcDbSymbolTable
100
AcDbDimStyleTable
0
DIMSTYLE
105
27
100
AcDbSymbolTableRecord
100
AcDbDimStyleTableRecord
2
Standard
70
0
3
<>
41
0.18
42
0.0625
44
0.18
140
0.18
147
0.09
73
0
74
0
77
1
271
2
275
0
278
52
280
0
340
11
0
ENDTAB
0
TABLE
2
VIEW
5
259
100
AcDbSymbolTable
0
ENDTAB
0
TABLE
2
UCS
5
25a
100
AcDbSymbolTable
0
ENDTAB
0
TABLE
2
APPID
5
25b
100
AcDbSymbolTable
0
APPID
5
12
100
AcDbSymbolTableRecord
100
AcDbRegAppTableRecord
2
ACAD
70
0
0
APPID
5
10D
100
AcDbSymbolTableRecord
100
AcDbRegAppTableRecord
2
ACAD_DSTYLE_DIMBREAK
70
0
0
APPID
5
1FF
100
AcDbSymbolTableRecord
100
AcDbRegAppTableRecord
2
ACAD_DSTYLE_DIM_LINETYPE
70
0
0
APPID
5
200
100
AcDbSymbolTableRecord
100
AcDbRegAppTableRecord
2
ACAD_DSTYLE_DIM_EXT1_LINETYPE
70
0
0
APPID
5
201
100
AcDbSymbolTableRecord
100
AcDbRegAppTableRecord
2
ACAD_DSTYLE_DIM_EXT2_LINETYPE
70
0
0
APPID
5
23C
100
AcDbSymbolTableRecord
100
AcDbRegAppTableRecord
2
ACAD_MLEADERVER
70
0
0
ENDTAB
0
TABLE
2
BLOCK_RECORD
5
25c
100
AcDbSymbolTable
0
BLOCK_RECORD
5
1F
100
AcDbSymbolTableRecord
100
AcDbBlockTableRecord
2
*Model_Space
340
0
70
0
0
BLOCK_RECORD
5
1B
100
AcDbSymbolTableRecord
100
AcDbBlockTableRecord
2
*Paper_Space
340
0
70
0
0
BLOCK_RECORD
5
23
100
AcDbSymbolTableRecord
100
AcDbBlockTableRecord
2
*Paper_Space0
340
0
70
0
0
BLOCK_RECORD
5
10F
100
AcDbSymbolTableRecord
100
AcDbBlockTableRecord
2
_Closed
340
0
70
0
0
BLOCK_RECORD
5
119
100
AcDbSymbolTableRecord
100
AcDbBlockTableRecord
2
*D2
340
0
70
0
0
BLOCK_RECORD
5
125
100
AcDbSymbolTableRecord
100
AcDbBlockTableRecord
2
_U0
340
0
70
0
0
BLOCK_RECORD
5
137
100
AcDbSymbolTableRecord
100
AcDbBlockTableRecord
2
*D4
340
0
70
0
0
BLOCK_RECORD
5
146
100
AcDbSymbolTableRecord
100
AcDbBlockTableRecord
2
_U1
340
0
70
0
0
BLOCK_RECORD
5
156
100
AcDbSymbolTableRecord
100
AcDbBlockTableRecord
2
*D6
340
0
70
0
0
BLOCK_RECORD
5
164
100
AcDbSymbolTableRecord
100
AcDbBlockTableRecord
2
_U2
340
0
70
0
0
BLOCK_RECORD
5
174
100
AcDbSymbolTableRecord
100
AcDbBlockTableRecord
2
*D8
340
0
70
0
0
BLOCK_RECORD
5
180
100
AcDbSymbolTableRecord
100
AcDbBlockTableRecord
2
_U3
340
0
70
0
0
BLOCK_RECORD
5
190
100
AcDbSymbolTableRecord
100
AcDbBlockTableRecord
2
*D10
340
0
70
0
0
BLOCK_RECORD
5
19C
100
AcDbSymbolTableRecord
100
AcDbBlockTableRecord
2
_U4
340
0
70
0
0
BLOCK_RECORD
5
1AC
100
AcDbSymbolTableRecord
100
AcDbBlockTableRecord
2
*D12
340
0
70
0
0
BLOCK_RECORD
5
1B8
100
AcDbSymbolTableRecord
100
AcDbBlockTableRecord
2
_U5
340
0
70
0
0
BLOCK_RECORD
5
1C8
100
AcDbSymbolTableRecord
100
AcDbBlockTableRecord
2
*D14
340
0
70
0
0
BLOCK_RECORD
5
1D4
100
AcDbSymbolTableRecord
100
AcDbBlockTableRecord
2
_U6
340
0
70
0
0
ENDTAB
0
ENDSEC
0
SECTION
2
BLOCKS
0
BLOCK
5
20
100
AcDbEntity
8
0
100
AcDbBlockBegin
2
*Model_Space
70
0
10
0
20
0
30
0
3
*Model_Space
0
ENDBLK
5
21
100
AcDbEntity
8
0
100
AcDbBlockEnd
0
BLOCK
5
1C
100
AcDbEntity
8
0
100
AcDbBlockBegin
2
*Paper_Space
70
0
10
0
20
0
30
0
3
*Paper_Space
0
ENDBLK
5
1D
100
AcDbEntity
8
0
100
AcDbBlockEnd
0
BLOCK
5
24
100
AcDbEntity
8
0
100
AcDbBlockBegin
2
*Paper_Space0
70
0
10
0
20
0
30
0
3
*Paper_Space0
0
ENDBLK
5
25
100
AcDbEntity
8
0
100
AcDbBlockEnd
0
BLOCK
5
110
100
AcDbEntity
8
0
100
AcDbBlockBegin
2
_Closed
70
0
10
0
20
0
30
0
3
_Closed
0
LINE
5
112
100
AcDbEntity
8
0
62
256
6
ByLayer
370
-2
48
1
60
0
100
AcDbLine
10
-1
20
0.166667
30
0
11
0
21
0
31
0
39
0
210
0
220
0
230
1
0
LINE
5
113
100
AcDbEntity
8
0
62
256
6
ByLayer
370
-2
48
1
60
0
100
AcDbLine
10
0
20
0
30
0
11
-1
21
-0.166667
31
0
39
0
210
0
220
0
230
1
0
LINE
5
114
100
AcDbEntity
8
0
62
256
6
ByLayer
370
-2
48
1
60
0
100
AcDbLine
10
-1
20
0.166667
30
0
11
-1
21
-0.166667
31
0
39
0
210
0
220
0
230
1
0
LINE
5
115
100
AcDbEntity
8
0
62
256
6
ByLayer
370
-2
48
1
60
0
100
AcDbLine
10
0
20
0
30
0
11
-1
21
0
31
0
39
0
210
0
220
0
230
1
0
ENDBLK
5
111
100
AcDbEntity
8
0
100
AcDbBlockEnd
0
BLOCK
5
11A
100
AcDbEntity
8
0
100
AcDbBlockBegin
2
*D2
70
1
10
0
20
0
30
0
3
*D2
0
LINE
5
11C
100
AcDbEntity
8
0
62
256
6
ByLayer
370
-2
48
1
60
0
100
AcDbLine
10
0
20
-7.5875
30
0
11
0
21
-36.67512
31
0
39
0
210
0
220
0
230
1
0
LINE
5
11D
100
AcDbEntity
8
0
62
256
6
ByLayer
370
-2
48
1
60
0
100
AcDbLine
10
135
20
-1.5875
30
0
11
135
21
-36.67512
31
0
39
0
210
0
220
0
230
1
0
LINE
5
11E
100
AcDbEntity
8
0
62
256
6
ByLayer
370
-2
48
1
60
0
100
AcDbLine
10
3.175
20
-33.50012
30
0
11
131.825
21
-33.50012
31
0
39
0
210
0
220
0
230
1
0
SOLID
5
11F
100
AcDbEntity
8
0
62
256
6
ByLayer
370
-1
48
1
60
0
100
AcDbTrace
10
3.175
20
-32.970953
30
0
11
3.175
21
-34.029287
31
0
12
0
22
-33.50012
32
0
13
0
23
-33.50012
33
0
39
0
210
0
220
0
230
1
0
SOLID
5
120
100
AcDbEntity
8
0
62
256
6
ByLayer
370
-1
48
1
60
0
100
AcDbTrace
10
131.825
20
-34.029287
30
0
11
131.825
21
-32.970953
31
0
12
135
22
-33.50012
32
0
13
135
23
-33.50012
33
0
39
0
210
0
220
0
230
1
0
MTEXT
5
121
100
AcDbEntity
8
0
62
256
6
ByLayer
370
18
48
1
60
0
100
AcDbMText
10
67.5
20
-26.19362
30
0
210
0
220
0
230
1
1
\A1;135
40
3.50012
41
0
44
1
50
0
71
5
72
5
7
iso_b_vert
0
POINT
5
122
100
AcDbEntity
8
Defpoints
62
0
6
ByLayer
370
-1
48
1
60
0
100
AcDbPoint
10
0
20
-6
30
0
39
0
210
0
220
0
230
1
50
360
0
POINT
5
123
100
AcDbEntity
8
Defpoints
62
0
6
ByLayer
370
-1
48
1
60
0
100
AcDbPoint
10
135
20
0
30
0
39
0
210
0
220
0
230
1
50
360
0
POINT
5
124
100
AcDbEntity
8
Defpoints
62
0
6
ByLayer
370
-1
48
1
60
0
100
AcDbPoint
10
135
20
-33.50012
30
0
39
0
210
0
220
0
230
1
50
360
0
ENDBLK
5
11B
100
AcDbEntity
8
0
100
AcDbBlockEnd
0
BLOCK
5
132
100
AcDbEntity
8
0
100
AcDbBlockBegin
2
_U0
70
0
10
0
20
0
30
0
3
_U0
0
MTEXT
5
126
100
AcDbEntity
8
SK2
62
256
6
ByLayer
370
18
48
1
60
0
100
AcDbMText
10
61.400059
20
-32.467451
30
0
210
0
220
0
230
1
1
\W0.7022;135.00
40
3.50012
41
0
44
1.084337
50
0
71
7
72
5
7
iso_b_vert
0
MTEXT
5
127
100
AcDbEntity
8
SK2
62
256
6
ByLayer
370
18
48
1
60
0
100
AcDbMText
10
57.874
20
-32.400814
30
0
210
0
220
0
230
1
1
\W0.1790;(
40
3.175
41
0
44
1.084337
50
0
71
7
72
5
7
iso_b_vert
0
MTEXT
5
128
100
AcDbEntity
8
SK2
62
256
6
ByLayer
370
18
48
1
60
0
100
AcDbMText
10
77.128722
20
-32.400814
30
0
210
0
220
0
230
1
1
\W0.1969;)
40
3.175
41
0
44
1.084337
50
0
71
7
72
5
7
iso_b_vert
0
LINE
5
129
100
AcDbEntity
8
SK2
62
256
6
ByLayer
370
13
48
1
60
0
100
AcDbLine
10
0
20
-7.5875
30
0
11
0
21
-36.67512
31
0
39
0
210
0
220
0
230
1
0
LINE
5
12A
100
AcDbEntity
8
SK2
62
256
6
ByLayer
370
13
48
1
60
0
100
AcDbLine
10
135
20
-1.5875
30
0
11
135
21
-36.67512
31
0
39
0
210
0
220
0
230
1
0
LINE
5
12B
100
AcDbEntity
8
SK2
62
256
6
ByLayer
370
13
48
1
60
0
100
AcDbLine
10
0
20
-33.50012
30
0
11
135
21
-33.50012
31
0
39
0
210
0
220
0
230
1
0
LINE
5
12C
100
AcDbEntity
8
SK2
62
256
6
ByLayer
370
13
48
1
60
0
100
AcDbLine
10
0
20
-33.50012
30
0
11
3.174998
21
-33.082123
31
0
39
0
210
0
220
0
230
1
0
LINE
5
12D
100
AcDbEntity
8
SK2
62
256
6
ByLayer
370
13
48
1
60
0
100
AcDbLine
10
0
20
-33.50012
30
0
11
3.175002
21
-33.918117
31
0
39
0
210
0
220
0
230
1
0
LINE
5
12E
100
AcDbEntity
8
SK2
62
256
6
ByLayer
370
13
48
1
60
0
100
AcDbLine
10
3.174998
20
-33.082123
30
0
11
3.175002
21
-33.918117
31
0
39
0
210
0
220
0
230
1
0
LINE
5
12F
100
AcDbEntity
8
SK2
62
256
6
ByLayer
370
13
48
1
60
0
100
AcDbLine
10
135
20
-33.50012
30
0
11
131.825002
21
-33.918117
31
0
39
0
210
0
220
0
230
1
0
LINE
5
130
100
AcDbEntity
8
SK2
62
256
6
ByLayer
370
13
48
1
60
0
100
AcDbLine
10
135
20
-33.50012
30
0
11
131.824998
21
-33.082123
31
0
39
0
210
0
220
0
230
1
0
LINE
5
131
100
AcDbEntity
8
SK2
62
256
6
ByLayer
370
13
48
1
60
0
100
AcDbLine
10
131.825002
20
-33.918117
30
0
11
131.824998
21
-33.082123
31
0
39
0
210
0
220
0
230
1
0
ENDBLK
5
133
100
AcDbEntity
8
0
100
AcDbBlockEnd
0
BLOCK
5
138
100
AcDbEntity
8
0
100
AcDbBlockBegin
2
*D4
70
1
10
0
20
0
30
0
3
*D4
0
LINE
5
13A
100
AcDbEntity
8
0
62
256
6
ByLayer
370
-2
48
1
60
0
100
AcDbLine
10
134.7313
20
-5.1
30
0
11
144.92506
21
-5.1
31
0
39
0
210
0
220
0
230
1
0
LINE
5
13B
100
AcDbEntity
8
0
62
256
6
ByLayer
370
-2
48
1
60
0
100
AcDbLine
10
134.7313
20
5.1
30
0
11
144.92506
21
5.1
31
0
39
0
210
0
220
0
230
1
0
LINE
5
13C
100
AcDbEntity
8
0
62
256
6
ByLayer
370
-2
48
1
60
0
100
AcDbLine
10
141.75006
20
5.1
30
0
11
141.75006
21
32.729896
31
0
39
0
210
0
220
0
230
1
0
LINE
5
13D
100
AcDbEntity
8
0
62
256
6
ByLayer
370
-2
48
1
60
0
100
AcDbLine
10
141.75006
20
-8.275
30
0
11
141.75006
21
-11.45
31
0
39
0
210
0
220
0
230
1
0
LINE
5
13E
100
AcDbEntity
8
0
62
256
6
ByLayer
370
-2
48
1
60
0
100
AcDbLine
10
141.75006
20
8.275
30
0
11
141.75006
21
11.45
31
0
39
0
210
0
220
0
230
1
0
SOLID
5
13F
100
AcDbEntity
8
0
62
256
6
ByLayer
370
-1
48
1
60
0
100
AcDbTrace
10
142.279227
20
-8.275
30
0
11
141.220893
21
-8.275
31
0
12
141.75006
22
-5.1
32
0
13
141.75006
23
-5.1
33
0
39
0
210
0
220
0
230
1
0
SOLID
5
140
100
AcDbEntity
8
0
62
256
6
ByLayer
370
-1
48
1
60
0
100
AcDbTrace
10
141.220893
20
8.275
30
0
11
142.279227
21
8.275
31
0
12
141.75006
22
5.1
32
0
13
141.75006
23
5.1
33
0
39
0
210
0
220
0
230
1
0
MTEXT
5
141
100
AcDbEntity
8
0
62
256
6
ByLayer
370
18
48
1
60
0
100
AcDbMText
10
134.443559
20
22.089948
30
0
210
0
220
0
230
1
1
\A1;10.2
40
3.50012
41
0
44
1
50
90
71
5
72
5
7
iso_b_vert
0
POINT
5
142
100
AcDbEntity
8
Defpoints
62
0
6
ByLayer
370
-1
48
1
60
0
100
AcDbPoint
10
133.1438
20
-5.1
30
0
39
0
210
0
220
0
230
1
50
360
0
POINT
5
143
100
AcDbEntity
8
Defpoints
62
0
6
ByLayer
370
-1
48
1
60
0
100
AcDbPoint
10
133.1438
20
5.1
30
0
39
0
210
0
220
0
230
1
50
360
0
POINT
5
144
100
AcDbEntity
8
Defpoints
62
0
6
ByLayer
370
-1
48
1
60
0
100
AcDbPoint
10
141.75006
20
5.1
30
0
39
0
210
0
220
0
230
1
50
360
0
ENDBLK
5
139
100
AcDbEntity
8
0
100
AcDbBlockEnd
0
BLOCK
5
151
100
AcDbEntity
8
0
100
AcDbBlockBegin
2
_U1
70
0
10
0
20
0
30
0
3
_U1
0
MTEXT
5
147
100
AcDbEntity
8
2
62
256
6
ByLayer
370
18
48
1
60
0
100
AcDbMText
10
141.060403
20
9.257505
30
0
210
0
220
0
230
1
1
\W0.6864;10.20
40
3.50012
41
0
44
1.084337
50
90
71
7
72
5
7
iso_b_vert
0
LINE
5
148
100
AcDbEntity
8
2
62
256
6
ByLayer
370
13
48
1
60
0
100
AcDbLine
10
134.7313
20
-5.1
30
0
11
144.92506
21
-5.1
31
0
39
0
210
0
220
0
230
1
0
LINE
5
149
100
AcDbEntity
8
2
62
256
6
ByLayer
370
13
48
1
60
0
100
AcDbLine
10
134.7313
20
5.1
30
0
11
144.92506
21
5.1
31
0
39
0
210
0
220
0
230
1
0
LINE
5
14A
100
AcDbEntity
8
2
62
256
6
ByLayer
370
13
48
1
60
0
100
AcDbLine
10
141.75006
20
-5.1
30
0
11
141.75006
21
19.055339
31
0
39
0
210
0
220
0
230
1
0
LINE
5
14B
100
AcDbEntity
8
2
62
256
6
ByLayer
370
13
48
1
60
0
100
AcDbLine
10
141.75006
20
-5.1
30
0
11
141.332063
21
-1.925002
31
0
39
0
210
0
220
0
230
1
0
LINE
5
14C
100
AcDbEntity
8
2
62
256
6
ByLayer
370
13
48
1
60
0
100
AcDbLine
10
141.75006
20
-5.1
30
0
11
142.168057
21
-1.924998
31
0
39
0
210
0
220
0
230
1
0
LINE
5
14D
100
AcDbEntity
8
2
62
256
6
ByLayer
370
13
48
1
60
0
100
AcDbLine
10
141.332063
20
-1.925002
30
0
11
142.168057
21
-1.924998
31
0
39
0
210
0
220
0
230
1
0
LINE
5
14E
100
AcDbEntity
8
2
62
256
6
ByLayer
370
13
48
1
60
0
100
AcDbLine
10
141.75006
20
5.1
30
0
11
142.168057
21
1.925002
31
0
39
0
210
0
220
0
230
1
0
LINE
5
14F
100
AcDbEntity
8
2
62
256
6
ByLayer
370
13
48
1
60
0
100
AcDbLine
10
141.75006
20
5.1
30
0
11
141.332063
21
1.924998
31
0
39
0
210
0
220
0
230
1
0
LINE
5
150
100
AcDbEntity
8
2
62
256
6
ByLayer
370
13
48
1
60
0
100
AcDbLine
10
142.168057
20
1.925002
30
0
11
141.332063
21
1.924998
31
0
39
0
210
0
220
0
230
1
0
ENDBLK
5
152
100
AcDbEntity
8
0
100
AcDbBlockEnd
0
BLOCK
5
157
100
AcDbEntity
8
0
100
AcDbBlockBegin
2
*D6
70
1
10
0
20
0
30
0
3
*D6
0
LINE
5
159
100
AcDbEntity
8
0
62
256
6
ByLayer
370
-2
48
1
60
0
100
AcDbLine
10
-46.5875
20
6
30
0
11
-52.42494
21
6
31
0
39
0
210
0
220
0
230
1
0
LINE
5
15A
100
AcDbEntity
8
0
62
256
6
ByLayer
370
-2
48
1
60
0
100
AcDbLine
10
-46.5875
20
-6
30
0
11
-52.42494
21
-6
31
0
39
0
210
0
220
0
230
1
0
LINE
5
15B
100
AcDbEntity
8
0
62
256
6
ByLayer
370
-2
48
1
60
0
100
AcDbLine
10
-49.24994
20
6
30
0
11
-49.24994
21
31.117532
31
0
39
0
210
0
220
0
230
1
0
LINE
5
15C
100
AcDbEntity
8
0
62
256
6
ByLayer
370
-2
48
1
60
0
100
AcDbLine
10
-49.24994
20
9.175
30
0
11
-49.24994
21
12.35
31
0
39
0
210
0
220
0
230
1
0
LINE
5
15D
100
AcDbEntity
8
0
62
256
6
ByLayer
370
-2
48
1
60
0
100
AcDbLine
10
-49.24994
20
-9.175
30
0
11
-49.24994
21
-12.35
31
0
39
0
210
0
220
0
230
1
0
SOLID
5
15E
100
AcDbEntity
8
0
62
256
6
ByLayer
370
-1
48
1
60
0
100
AcDbTrace
10
-49.779107
20
9.175
30
0
11
-48.720773
21
9.175
31
0
12
-49.24994
22
6
32
0
13
-49.24994
23
6
33
0
39
0
210
0
220
0
230
1
0
SOLID
5
15F
100
AcDbEntity
8
0
62
256
6
ByLayer
370
-1
48
1
60
0
100
AcDbTrace
10
-48.720773
20
-9.175
30
0
11
-49.779107
21
-9.175
31
0
12
-49.24994
22
-6
32
0
13
-49.24994
23
-6
33
0
39
0
210
0
220
0
230
1
0
MTEXT
5
160
100
AcDbEntity
8
0
62
256
6
ByLayer
370
18
48
1
60
0
100
AcDbMText
10
-56.556441
20
22.97767
30
0
210
0
220
0
230
1
1
\A1;12
40
3.50012
41
0
44
1
50
90
71
5
72
5
7
iso_b_vert
0
POINT
5
161
100
AcDbEntity
8
Defpoints
62
0
6
ByLayer
370
-1
48
1
60
0
100
AcDbPoint
10
-45
20
6
30
0
39
0
210
0
220
0
230
1
50
360
0
POINT
5
162
100
AcDbEntity
8
Defpoints
62
0
6
ByLayer
370
-1
48
1
60
0
100
AcDbPoint
10
-45
20
-6
30
0
39
0
210
0
220
0
230
1
50
360
0
POINT
5
163
100
AcDbEntity
8
Defpoints
62
0
6
ByLayer
370
-1
48
1
60
0
100
AcDbPoint
10
-49.24994
20
-6
30
0
39
0
210
0
220
0
230
1
50
360
0
ENDBLK
5
158
100
AcDbEntity
8
0
100
AcDbBlockEnd
0
BLOCK
5
16F
100
AcDbEntity
8
0
100
AcDbBlockBegin
2
_U2
70
0
10
0
20
0
30
0
3
_U2
0
MTEXT
5
165
100
AcDbEntity
8
SK2
62
256
6
ByLayer
370
18
48
1
60
0
100
AcDbMText
10
-49.939597
20
18.157505
30
0
210
0
220
0
230
1
1
\W0.6864;12.00
40
3.50012
41
0
44
1.084337
50
90
71
7
72
5
7
iso_b_vert
0
LINE
5
166
100
AcDbEntity
8
SK2
62
256
6
ByLayer
370
13
48
1
60
0
100
AcDbLine
10
-46.5875
20
6
30
0
11
-52.42494
21
6
31
0
39
0
210
0
220
0
230
1
0
LINE
5
167
100
AcDbEntity
8
SK2
62
256
6
ByLayer
370
13
48
1
60
0
100
AcDbLine
10
-46.5875
20
-6
30
0
11
-52.42494
21
-6
31
0
39
0
210
0
220
0
230
1
0
LINE
5
168
100
AcDbEntity
8
SK2
62
256
6
ByLayer
370
13
48
1
60
0
100
AcDbLine
10
-49.24994
20
-6
30
0
11
-49.24994
21
27.955339
31
0
39
0
210
0
220
0
230
1
0
LINE
5
169
100
AcDbEntity
8
SK2
62
256
6
ByLayer
370
13
48
1
60
0
100
AcDbLine
10
-49.24994
20
6
30
0
11
-48.831943
21
2.825002
31
0
39
0
210
0
220
0
230
1
0
LINE
5
16A
100
AcDbEntity
8
SK2
62
256
6
ByLayer
370
13
48
1
60
0
100
AcDbLine
10
-49.24994
20
6
30
0
11
-49.667937
21
2.824998
31
0
39
0
210
0
220
0
230
1
0
LINE
5
16B
100
AcDbEntity
8
SK2
62
256
6
ByLayer
370
13
48
1
60
0
100
AcDbLine
10
-48.831943
20
2.825002
30
0
11
-49.667937
21
2.824998
31
0
39
0
210
0
220
0
230
1
0
LINE
5
16C
100
AcDbEntity
8
SK2
62
256
6
ByLayer
370
13
48
1
60
0
100
AcDbLine
10
-49.24994
20
-6
30
0
11
-49.667937
21
-2.825002
31
0
39
0
210
0
220
0
230
1
0
LINE
5
16D
100
AcDbEntity
8
SK2
62
256
6
ByLayer
370
13
48
1
60
0
100
AcDbLine
10
-49.24994
20
-6
30
0
11
-48.831943
21
-2.824998
31
0
39
0
210
0
220
0
230
1
0
LINE
5
16E
100
AcDbEntity
8
SK2
62
256
6
ByLayer
370
13
48
1
60
0
100
AcDbLine
10
-49.667937
20
-2.825002
30
0
11
-48.831943
21
-2.824998
31
0
39
0
210
0
220
0
230
1
0
ENDBLK
5
170
100
AcDbEntity
8
0
100
AcDbBlockEnd
0
BLOCK
5
175
100
AcDbEntity
8
0
100
AcDbBlockBegin
2
*D8
70
1
10
0
20
0
30
0
3
*D8
0
LINE
5
177
100
AcDbEntity
8
0
62
256
6
ByLayer
370
-2
48
1
60
0
100
AcDbLine
10
-45
20
-7.5875
30
0
11
-45
21
-36.67512
31
0
39
0
210
0
220
0
230
1
0
LINE
5
178
100
AcDbEntity
8
0
62
256
6
ByLayer
370
-2
48
1
60
0
100
AcDbLine
10
0
20
-7.5875
30
0
11
0
21
-36.67512
31
0
39
0
210
0
220
0
230
1
0
LINE
5
179
100
AcDbEntity
8
0
62
256
6
ByLayer
370
-2
48
1
60
0
100
AcDbLine
10
-41.825
20
-33.50012
30
0
11
-3.175
21
-33.50012
31
0
39
0
210
0
220
0
230
1
0
SOLID
5
17A
100
AcDbEntity
8
0
62
256
6
ByLayer
370
-1
48
1
60
0
100
AcDbTrace
10
-41.825
20
-32.970953
30
0
11
-41.825
21
-34.029287
31
0
12
-45
22
-33.50012
32
0
13
-45
23
-33.50012
33
0
39
0
210
0
220
0
230
1
0
SOLID
5
17B
100
AcDbEntity
8
0
62
256
6
ByLayer
370
-1
48
1
60
0
100
AcDbTrace
10
-3.175
20
-34.029287
30
0
11
-3.175
21
-32.970953
31
0
12
0
22
-33.50012
32
0
13
0
23
-33.50012
33
0
39
0
210
0
220
0
230
1
0
MTEXT
5
17C
100
AcDbEntity
8
0
62
256
6
ByLayer
370
18
48
1
60
0
100
AcDbMText
10
-22.5
20
-26.19362
30
0
210
0
220
0
230
1
1
\A1;45
40
3.50012
41
0
44
1
50
0
71
5
72
5
7
iso_b_vert
0
POINT
5
17D
100
AcDbEntity
8
Defpoints
62
0
6
ByLayer
370
-1
48
1
60
0
100
AcDbPoint
10
-45
20
-6
30
0
39
0
210
0
220
0
230
1
50
360
0
POINT
5
17E
100
AcDbEntity
8
Defpoints
62
0
6
ByLayer
370
-1
48
1
60
0
100
AcDbPoint
10
0
20
-6
30
0
39
0
210
0
220
0
230
1
50
360
0
POINT
5
17F
100
AcDbEntity
8
Defpoints
62
0
6
ByLayer
370
-1
48
1
60
0
100
AcDbPoint
10
0
20
-33.50012
30
0
39
0
210
0
220
0
230
1
50
360
0
ENDBLK
5
176
100
AcDbEntity
8
0
100
AcDbBlockEnd
0
BLOCK
5
18B
100
AcDbEntity
8
0
100
AcDbBlockBegin
2
_U3
70
0
10
0
20
0
30
0
3
_U3
0
MTEXT
5
181
100
AcDbEntity
8
SK2
62
256
6
ByLayer
370
18
48
1
60
0
100
AcDbMText
10
-27.913884
20
-32.467451
30
0
210
0
220
0
230
1
1
\W0.7694;45.00
40
3.50012
41
0
44
1.084337
50
0
71
7
72
5
7
iso_b_vert
0
LINE
5
182
100
AcDbEntity
8
SK2
62
256
6
ByLayer
370
13
48
1
60
0
100
AcDbLine
10
-45
20
-7.5875
30
0
11
-45
21
-36.67512
31
0
39
0
210
0
220
0
230
1
0
LINE
5
183
100
AcDbEntity
8
SK2
62
256
6
ByLayer
370
13
48
1
60
0
100
AcDbLine
10
0
20
-7.5875
30
0
11
0
21
-36.67512
31
0
39
0
210
0
220
0
230
1
0
LINE
5
184
100
AcDbEntity
8
SK2
62
256
6
ByLayer
370
13
48
1
60
0
100
AcDbLine
10
-45
20
-33.50012
30
0
11
0
21
-33.50012
31
0
39
0
210
0
220
0
230
1
0
LINE
5
185
100
AcDbEntity
8
SK2
62
256
6
ByLayer
370
13
48
1
60
0
100
AcDbLine
10
-45
20
-33.50012
30
0
11
-41.825002
21
-33.082123
31
0
39
0
210
0
220
0
230
1
0
LINE
5
186
100
AcDbEntity
8
SK2
62
256
6
ByLayer
370
13
48
1
60
0
100
AcDbLine
10
-45
20
-33.50012
30
0
11
-41.824998
21
-33.918117
31
0
39
0
210
0
220
0
230
1
0
LINE
5
187
100
AcDbEntity
8
SK2
62
256
6
ByLayer
370
13
48
1
60
0
100
AcDbLine
10
-41.825002
20
-33.082123
30
0
11
-41.824998
21
-33.918117
31
0
39
0
210
0
220
0
230
1
0
LINE
5
188
100
AcDbEntity
8
SK2
62
256
6
ByLayer
370
13
48
1
60
0
100
AcDbLine
10
0
20
-33.50012
30
0
11
-3.174998
21
-33.918117
31
0
39
0
210
0
220
0
230
1
0
LINE
5
189
100
AcDbEntity
8
SK2
62
256
6
ByLayer
370
13
48
1
60
0
100
AcDbLine
10
0
20
-33.50012
30
0
11
-3.175002
21
-33.082123
31
0
39
0
210
0
220
0
230
1
0
LINE
5
18A
100
AcDbEntity
8
SK2
62
256
6
ByLayer
370
13
48
1
60
0
100
AcDbLine
10
-3.174998
20
-33.918117
30
0
11
-3.175002
21
-33.082123
31
0
39
0
210
0
220
0
230
1
0
ENDBLK
5
18C
100
AcDbEntity
8
0
100
AcDbBlockEnd
0
BLOCK
5
191
100
AcDbEntity
8
0
100
AcDbBlockBegin
2
*D10
70
1
10
0
20
0
30
0
3
*D10
0
LINE
5
193
100
AcDbEntity
8
0
62
256
6
ByLayer
370
-2
48
1
60
0
100
AcDbLine
10
7
20
4.0125
30
0
11
7
21
-27.92482
31
0
39
0
210
0
220
0
230
1
0
LINE
5
194
100
AcDbEntity
8
0
62
256
6
ByLayer
370
-2
48
1
60
0
100
AcDbLine
10
135
20
-1.5875
30
0
11
135
21
-27.92482
31
0
39
0
210
0
220
0
230
1
0
LINE
5
195
100
AcDbEntity
8
0
62
256
6
ByLayer
370
-2
48
1
60
0
100
AcDbLine
10
10.175
20
-24.74982
30
0
11
131.825
21
-24.74982
31
0
39
0
210
0
220
0
230
1
0
SOLID
5
196
100
AcDbEntity
8
0
62
256
6
ByLayer
370
-1
48
1
60
0
100
AcDbTrace
10
10.175
20
-24.220653
30
0
11
10.175
21
-25.278987
31
0
12
7
22
-24.74982
32
0
13
7
23
-24.74982
33
0
39
0
210
0
220
0
230
1
0
SOLID
5
197
100
AcDbEntity
8
0
62
256
6
ByLayer
370
-1
48
1
60
0
100
AcDbTrace
10
131.825
20
-25.278987
30
0
11
131.825
21
-24.220653
31
0
12
135
22
-24.74982
32
0
13
135
23
-24.74982
33
0
39
0
210
0
220
0
230
1
0
MTEXT
5
198
100
AcDbEntity
8
0
62
256
6
ByLayer
370
18
48
1
60
0
100
AcDbMText
10
71
20
-17.443319
30
0
210
0
220
0
230
1
1
\A1;128
40
3.50012
41
0
44
1
50
0
71
5
72
5
7
iso_b_vert
0
POINT
5
199
100
AcDbEntity
8
Defpoints
62
0
6
ByLayer
370
-1
48
1
60
0
100
AcDbPoint
10
7
20
5.6
30
0
39
0
210
0
220
0
230
1
50
360
0
POINT
5
19A
100
AcDbEntity
8
Defpoints
62
0
6
ByLayer
370
-1
48
1
60
0
100
AcDbPoint
10
135
20
0
30
0
39
0
210
0
220
0
230
1
50
360
0
POINT
5
19B
100
AcDbEntity
8
Defpoints
62
0
6
ByLayer
370
-1
48
1
60
0
100
AcDbPoint
10
135
20
-24.74982
30
0
39
0
210
0
220
0
230
1
50
360
0
ENDBLK
5
192
100
AcDbEntity
8
0
100
AcDbBlockEnd
0
BLOCK
5
1A7
100
AcDbEntity
8
0
100
AcDbBlockBegin
2
_U4
70
0
10
0
20
0
30
0
3
_U4
0
MTEXT
5
19D
100
AcDbEntity
8
SK2
62
256
6
ByLayer
370
18
48
1
60
0
100
AcDbMText
10
64.900059
20
-23.717151
30
0
210
0
220
0
230
1
1
\W0.7022;128.00
40
3.50012
41
0
44
1.084337
50
0
71
7
72
5
7
iso_b_vert
0
LINE
5
19E
100
AcDbEntity
8
SK2
62
256
6
ByLayer
370
13
48
1
60
0
100
AcDbLine
10
7
20
4.0125
30
0
11
7
21
-27.92482
31
0
39
0
210
0
220
0
230
1
0
LINE
5
19F
100
AcDbEntity
8
SK2
62
256
6
ByLayer
370
13
48
1
60
0
100
AcDbLine
10
135
20
-1.5875
30
0
11
135
21
-27.92482
31
0
39
0
210
0
220
0
230
1
0
LINE
5
1A0
100
AcDbEntity
8
SK2
62
256
6
ByLayer
370
13
48
1
60
0
100
AcDbLine
10
7
20
-24.74982
30
0
11
135
21
-24.74982
31
0
39
0
210
0
220
0
230
1
0
LINE
5
1A1
100
AcDbEntity
8
SK2
62
256
6
ByLayer
370
13
48
1
60
0
100
AcDbLine
10
7
20
-24.74982
30
0
11
10.174998
21
-24.331823
31
0
39
0
210
0
220
0
230
1
0
LINE
5
1A2
100
AcDbEntity
8
SK2
62
256
6
ByLayer
370
13
48
1
60
0
100
AcDbLine
10
7
20
-24.74982
30
0
11
10.175002
21
-25.167817
31
0
39
0
210
0
220
0
230
1
0
LINE
5
1A3
100
AcDbEntity
8
SK2
62
256
6
ByLayer
370
13
48
1
60
0
100
AcDbLine
10
10.174998
20
-24.331823
30
0
11
10.175002
21
-25.167817
31
0
39
0
210
0
220
0
230
1
0
LINE
5
1A4
100
AcDbEntity
8
SK2
62
256
6
ByLayer
370
13
48
1
60
0
100
AcDbLine
10
135
20
-24.74982
30
0
11
131.825002
21
-25.167817
31
0
39
0
210
0
220
0
230
1
0
LINE
5
1A5
100
AcDbEntity
8
SK2
62
256
6
ByLayer
370
13
48
1
60
0
100
AcDbLine
10
135
20
-24.74982
30
0
11
131.824998
21
-24.331823
31
0
39
0
210
0
220
0
230
1
0
LINE
5
1A6
100
AcDbEntity
8
SK2
62
256
6
ByLayer
370
13
48
1
60
0
100
AcDbLine
10
131.825002
20
-25.167817
30
0
11
131.824998
21
-24.331823
31
0
39
0
210
0
220
0
230
1
0
ENDBLK
5
1A8
100
AcDbEntity
8
0
100
AcDbBlockEnd
0
BLOCK
5
1AD
100
AcDbEntity
8
0
100
AcDbBlockBegin
2
*D12
70
1
10
0
20
0
30
0
3
*D12
0
LINE
5
1AF
100
AcDbEntity
8
0
62
256
6
ByLayer
370
-2
48
1
60
0
100
AcDbLine
10
51.6
20
-6.6875
30
0
11
51.6
21
-14.32
31
0
39
0
210
0
220
0
230
1
0
LINE
5
1B0
100
AcDbEntity
8
0
62
256
6
ByLayer
370
-2
48
1
60
0
100
AcDbLine
10
135
20
-1.5875
30
0
11
135
21
-14.32
31
0
39
0
210
0
220
0
230
1
0
LINE
5
1B1
100
AcDbEntity
8
0
62
256
6
ByLayer
370
-2
48
1
60
0
100
AcDbLine
10
54.775
20
-13.82
30
0
11
131.825
21
-13.82
31
0
39
0
210
0
220
0
230
1
0
SOLID
5
1B2
100
AcDbEntity
8
0
62
256
6
ByLayer
370
-1
48
1
60
0
100
AcDbTrace
10
54.775
20
-13.290833
30
0
11
54.775
21
-14.349167
31
0
12
51.6
22
-13.82
32
0
13
51.6
23
-13.82
33
0
39
0
210
0
220
0
230
1
0
SOLID
5
1B3
100
AcDbEntity
8
0
62
256
6
ByLayer
370
-1
48
1
60
0
100
AcDbTrace
10
131.825
20
-14.349167
30
0
11
131.825
21
-13.290833
31
0
12
135
22
-13.82
32
0
13
135
23
-13.82
33
0
39
0
210
0
220
0
230
1
0
MTEXT
5
1B4
100
AcDbEntity
8
0
62
256
6
ByLayer
370
18
48
1
60
0
100
AcDbMText
10
93.3
20
-7.975
30
0
210
0
220
0
230
1
1
\A1;83.4
40
2.8
41
0
44
1
50
0
71
5
72
5
7
iso_b_vert
0
POINT
5
1B5
100
AcDbEntity
8
Defpoints
62
0
6
ByLayer
370
-1
48
1
60
0
100
AcDbPoint
10
51.6
20
-5.1
30
0
39
0
210
0
220
0
230
1
50
360
0
POINT
5
1B6
100
AcDbEntity
8
Defpoints
62
0
6
ByLayer
370
-1
48
1
60
0
100
AcDbPoint
10
135
20
0
30
0
39
0
210
0
220
0
230
1
50
360
0
POINT
5
1B7
100
AcDbEntity
8
Defpoints
62
0
6
ByLayer
370
-1
48
1
60
0
100
AcDbPoint
10
135
20
-13.82
30
0
39
0
210
0
220
0
230
1
50
360
0
ENDBLK
5
1AE
100
AcDbEntity
8
0
100
AcDbBlockEnd
0
BLOCK
5
1C3
100
AcDbEntity
8
0
100
AcDbBlockBegin
2
_U5
70
0
10
0
20
0
30
0
3
_U5
0
MTEXT
5
1B9
100
AcDbEntity
8
SK2
62
256
6
ByLayer
370
18
48
1
60
0
100
AcDbMText
10
88.969041
20
-13.973893
30
0
210
0
220
0
230
1
1
\W0.7694;83.40
40
2.8
41
0
44
1.084337
50
0
71
7
72
5
7
iso_b_vert
0
LINE
5
1BA
100
AcDbEntity
8
SK2
62
256
6
ByLayer
370
13
48
1
60
0
100
AcDbLine
10
51.6
20
-6.6875
30
0
11
51.6
21
-14.32
31
0
39
0
210
0
220
0
230
1
0
LINE
5
1BB
100
AcDbEntity
8
SK2
62
256
6
ByLayer
370
13
48
1
60
0
100
AcDbLine
10
135
20
-1.5875
30
0
11
135
21
-14.32
31
0
39
0
210
0
220
0
230
1
0
LINE
5
1BC
100
AcDbEntity
8
SK2
62
256
6
ByLayer
370
13
48
1
60
0
100
AcDbLine
10
51.6
20
-13.82
30
0
11
135
21
-13.82
31
0
39
0
210
0
220
0
230
1
0
LINE
5
1BD
100
AcDbEntity
8
SK2
62
256
6
ByLayer
370
13
48
1
60
0
100
AcDbLine
10
51.6
20
-13.82
30
0
11
54.774998
21
-13.402003
31
0
39
0
210
0
220
0
230
1
0
LINE
5
1BE
100
AcDbEntity
8
SK2
62
256
6
ByLayer
370
13
48
1
60
0
100
AcDbLine
10
51.6
20
-13.82
30
0
11
54.775002
21
-14.237997
31
0
39
0
210
0
220
0
230
1
0
LINE
5
1BF
100
AcDbEntity
8
SK2
62
256
6
ByLayer
370
13
48
1
60
0
100
AcDbLine
10
54.774998
20
-13.402003
30
0
11
54.775002
21
-14.237997
31
0
39
0
210
0
220
0
230
1
0
LINE
5
1C0
100
AcDbEntity
8
SK2
62
256
6
ByLayer
370
13
48
1
60
0
100
AcDbLine
10
135
20
-13.82
30
0
11
131.825002
21
-14.237997
31
0
39
0
210
0
220
0
230
1
0
LINE
5
1C1
100
AcDbEntity
8
SK2
62
256
6
ByLayer
370
13
48
1
60
0
100
AcDbLine
10
135
20
-13.82
30
0
11
131.824998
21
-13.402003
31
0
39
0
210
0
220
0
230
1
0
LINE
5
1C2
100
AcDbEntity
8
SK2
62
256
6
ByLayer
370
13
48
1
60
0
100
AcDbLine
10
131.825002
20
-14.237997
30
0
11
131.824998
21
-13.402003
31
0
39
0
210
0
220
0
230
1
0
ENDBLK
5
1C4
100
AcDbEntity
8
0
100
AcDbBlockEnd
0
BLOCK
5
1C9
100
AcDbEntity
8
0
100
AcDbBlockBegin
2
*D14
70
1
10
0
20
0
30
0
3
*D14
0
LINE
5
1CB
100
AcDbEntity
8
0
62
256
6
ByLayer
370
-2
48
1
60
0
100
AcDbLine
10
-45
20
-1.5875
30
0
11
-45
21
-48.67512
31
0
39
0
210
0
220
0
230
1
0
LINE
5
1CC
100
AcDbEntity
8
0
62
256
6
ByLayer
370
-2
48
1
60
0
100
AcDbLine
10
135
20
-1.5875
30
0
11
135
21
-48.67512
31
0
39
0
210
0
220
0
230
1
0
LINE
5
1CD
100
AcDbEntity
8
0
62
256
6
ByLayer
370
-2
48
1
60
0
100
AcDbLine
10
-41.825
20
-45.50012
30
0
11
131.825
21
-45.50012
31
0
39
0
210
0
220
0
230
1
0
SOLID
5
1CE
100
AcDbEntity
8
0
62
256
6
ByLayer
370
-1
48
1
60
0
100
AcDbTrace
10
-41.825
20
-44.970953
30
0
11
-41.825
21
-46.029287
31
0
12
-45
22
-45.50012
32
0
13
-45
23
-45.50012
33
0
39
0
210
0
220
0
230
1
0
SOLID
5
1CF
100
AcDbEntity
8
0
62
256
6
ByLayer
370
-1
48
1
60
0
100
AcDbTrace
10
131.825
20
-46.029287
30
0
11
131.825
21
-44.970953
31
0
12
135
22
-45.50012
32
0
13
135
23
-45.50012
33
0
39
0
210
0
220
0
230
1
0
MTEXT
5
1D0
100
AcDbEntity
8
0
62
256
6
ByLayer
370
18
48
1
60
0
100
AcDbMText
10
45
20
-38.193619
30
0
210
0
220
0
230
1
1
\A1;180
40
3.50012
41
0
44
1
50
0
71
5
72
5
7
iso_b_vert
0
POINT
5
1D1
100
AcDbEntity
8
Defpoints
62
0
6
ByLayer
370
-1
48
1
60
0
100
AcDbPoint
10
-45
20
0
30
0
39
0
210
0
220
0
230
1
50
360
0
POINT
5
1D2
100
AcDbEntity
8
Defpoints
62
0
6
ByLayer
370
-1
48
1
60
0
100
AcDbPoint
10
135
20
0
30
0
39
0
210
0
220
0
230
1
50
360
0
POINT
5
1D3
100
AcDbEntity
8
Defpoints
62
0
6
ByLayer
370
-1
48
1
60
0
100
AcDbPoint
10
135
20
-45.50012
30
0
39
0
210
0
220
0
230
1
50
360
0
ENDBLK
5
1CA
100
AcDbEntity
8
0
100
AcDbBlockEnd
0
BLOCK
5
1DF
100
AcDbEntity
8
0
100
AcDbBlockBegin
2
_U6
70
0
10
0
20
0
30
0
3
_U6
0
MTEXT
5
1D5
100
AcDbEntity
8
SK2
62
256
6
ByLayer
370
18
48
1
60
0
100
AcDbMText
10
38.900059
20
-44.467451
30
0
210
0
220
0
230
1
1
\W0.7022;180.00
40
3.50012
41
0
44
1.084337
50
0
71
7
72
5
7
iso_b_vert
0
LINE
5
1D6
100
AcDbEntity
8
SK2
62
256
6
ByLayer
370
13
48
1
60
0
100
AcDbLine
10
-45
20
-1.5875
30
0
11
-45
21
-48.67512
31
0
39
0
210
0
220
0
230
1
0
LINE
5
1D7
100
AcDbEntity
8
SK2
62
256
6
ByLayer
370
13
48
1
60
0
100
AcDbLine
10
135
20
-1.5875
30
0
11
135
21
-48.67512
31
0
39
0
210
0
220
0
230
1
0
LINE
5
1D8
100
AcDbEntity
8
SK2
62
256
6
ByLayer
370
13
48
1
60
0
100
AcDbLine
10
-45
20
-45.50012
30
0
11
135
21
-45.50012
31
0
39
0
210
0
220
0
230
1
0
LINE
5
1D9
100
AcDbEntity
8
SK2
62
256
6
ByLayer
370
13
48
1
60
0
100
AcDbLine
10
-45
20
-45.50012
30
0
11
-41.825002
21
-45.082123
31
0
39
0
210
0
220
0
230
1
0
LINE
5
1DA
100
AcDbEntity
8
SK2
62
256
6
ByLayer
370
13
48
1
60
0
100
AcDbLine
10
-45
20
-45.50012
30
0
11
-41.824998
21
-45.918117
31
0
39
0
210
0
220
0
230
1
0
LINE
5
1DB
100
AcDbEntity
8
SK2
62
256
6
ByLayer
370
13
48
1
60
0
100
AcDbLine
10
-41.825002
20
-45.082123
30
0
11
-41.824998
21
-45.918117
31
0
39
0
210
0
220
0
230
1
0
LINE
5
1DC
100
AcDbEntity
8
SK2
62
256
6
ByLayer
370
13
48
1
60
0
100
AcDbLine
10
135
20
-45.50012
30
0
11
131.825002
21
-45.918117
31
0
39
0
210
0
220
0
230
1
0
LINE
5
1DD
100
AcDbEntity
8
SK2
62
256
6
ByLayer
370
13
48
1
60
0
100
AcDbLine
10
135
20
-45.50012
30
0
11
131.824998
21
-45.082123
31
0
39
0
210
0
220
0
230
1
0
LINE
5
1DE
100
AcDbEntity
8
SK2
62
256
6
ByLayer
370
13
48
1
60
0
100
AcDbLine
10
131.825002
20
-45.918117
30
0
11
131.824998
21
-45.082123
31
0
39
0
210
0
220
0
230
1
0
ENDBLK
5
1E0
100
AcDbEntity
8
0
100
AcDbBlockEnd
0
ENDSEC
0
SECTION
2
ENTITIES
0
ARC
5
B3
100
AcDbEntity
8
1
62
256
6
ByLayer
370
18
48
1
60
0
100
AcDbCircle
39
0
10
1.475953
20
5.817707
30
0
40
0.799999999999999
210
0
220
0
230
1
100
AcDbArc
50
202.709979
51
270.03581
0
ARC
5
B4
100
AcDbEntity
8
1
62
256
6
ByLayer
370
18
48
1
60
0
100
AcDbCircle
39
0
10
1.475953
20
-5.817707
30
0
40
0.799999999999999
210
0
220
0
230
1
100
AcDbArc
50
89.96419
51
157.290021
0
ARC
5
B5
100
AcDbEntity
8
1
62
256
6
ByLayer
370
18
48
1
60
0
100
AcDbCircle
39
0
10
0
20
5.2
30
0
40
0.800000000000005
210
0
220
0
230
1
100
AcDbArc
50
22.709979
51
90
0
ARC
5
B6
100
AcDbEntity
8
1
62
256
6
ByLayer
370
18
48
1
60
0
100
AcDbCircle
39
0
10
0
20
-5.2
30
0
40
0.800000000000005
210
0
220
0
230
1
100
AcDbArc
50
270
51
337.290021
0
ARC
5
B7
100
AcDbEntity
8
SK2
62
256
6
ByLayer
370
13
48
1
60
0
100
AcDbCircle
39
0
10
135
20
0
30
0
40
24
210
0
220
0
230
1
100
AcDbArc
50
7.993745
51
70.000478
0
ARC
5
B8
100
AcDbEntity
8
SK2
62
256
6
ByLayer
370
13
48
1
60
0
100
AcDbCircle
39
0
10
135
20
0
30
0
40
24
210
0
220
0
230
1
100
AcDbArc
50
289.999522
51
352.006255
0
ELLIPSE
5
B9
100
AcDbEntity
8
1
62
256
6
ByLayer
370
18
48
1
60
0
100
AcDbEllipse
10
84.102307
20
4.812031
30
0
11
-6.8361590444774E-05
21
0.00999976633191756
31
0
210
0
220
0
230
1
40
0.007922
41
-3.06805183607527
42
-1.49741739837311
0
ELLIPSE
5
BA
100
AcDbEntity
8
1
62
256
6
ByLayer
370
18
48
1
60
0
100
AcDbEllipse
10
84.139989
20
4.811668
30
0
11
-0.000282560041195645
21
-0.009996007194031
31
0
210
0
220
0
230
1
40
0.425355
41
0.0832543625473142
42
1.64926416749627
0
POINT
5
70
100
AcDbEntity
8
80
62
256
6
ByLayer
370
18
48
1
60
0
100
AcDbPoint
10
0
20
0
30
0
39
0
210
0
220
0
230
1
50
360
0
POINT
5
72
100
AcDbEntity
8
81
62
256
6
ByLayer
370
18
48
1
60
0
100
AcDbPoint
10
135
20
0
30
0
39
0
210
0
220
0
230
1
50
360
0
POINT
5
74
100
AcDbEntity
8
1
62
256
6
ByLayer
370
18
48
1
60
0
100
AcDbPoint
10
-45
20
0
30
0
39
0
210
0
220
0
230
1
50
360
0
POINT
5
76
100
AcDbEntity
8
1
62
256
6
ByLayer
370
18
48
1
60
1
100
AcDbPoint
10
0
20
-6
30
0
39
0
210
0
220
0
230
1
50
360
0
POINT
5
77
100
AcDbEntity
8
1
62
256
6
ByLayer
370
18
48
1
60
1
100
AcDbPoint
10
135
20
0
30
0
39
0
210
0
220
0
230
1
50
360
0
POINT
5
78
100
AcDbEntity
8
1
62
256
6
ByLayer
370
18
48
1
60
1
100
AcDbPoint
10
133.1438
20
-5.1
30
0
39
0
210
0
220
0
230
1
50
360
0
POINT
5
79
100
AcDbEntity
8
1
62
256
6
ByLayer
370
18
48
1
60
1
100
AcDbPoint
10
133.1438
20
5.1
30
0
39
0
210
0
220
0
230
1
50
360
0
POINT
5
7A
100
AcDbEntity
8
1
62
256
6
ByLayer
370
18
48
1
60
1
100
AcDbPoint
10
-45
20
6
30
0
39
0
210
0
220
0
230
1
50
360
0
POINT
5
7B
100
AcDbEntity
8
1
62
256
6
ByLayer
370
18
48
1
60
1
100
AcDbPoint
10
-45
20
-6
30
0
39
0
210
0
220
0
230
1
50
360
0
POINT
5
7C
100
AcDbEntity
8
1
62
256
6
ByLayer
370
18
48
1
60
1
100
AcDbPoint
10
-45
20
-6
30
0
39
0
210
0
220
0
230
1
50
360
0
POINT
5
7D
100
AcDbEntity
8
1
62
256
6
ByLayer
370
18
48
1
60
1
100
AcDbPoint
10
0
20
-6
30
0
39
0
210
0
220
0
230
1
50
360
0
POINT
5
7E
100
AcDbEntity
8
1
62
256
6
ByLayer
370
18
48
1
60
1
100
AcDbPoint
10
7
20
5.6
30
0
39
0
210
0
220
0
230
1
50
360
0
POINT
5
7F
100
AcDbEntity
8
1
62
256
6
ByLayer
370
18
48
1
60
1
100
AcDbPoint
10
135
20
0
30
0
39
0
210
0
220
0
230
1
50
360
0
POINT
5
80
100
AcDbEntity
8
1
62
256
6
ByLayer
370
18
48
1
60
1
100
AcDbPoint
10
51.6
20
-5.1
30
0
39
0
210
0
220
0
230
1
50
360
0
POINT
5
81
100
AcDbEntity
8
1
62
256
6
ByLayer
370
18
48
1
60
1
100
AcDbPoint
10
135
20
0
30
0
39
0
210
0
220
0
230
1
50
360
0
POINT
5
82
100
AcDbEntity
8
1
62
256
6
ByLayer
370
18
48
1
60
1
100
AcDbPoint
10
-45
20
0
30
0
39
0
210
0
220
0
230
1
50
360
0
POINT
5
83
100
AcDbEntity
8
1
62
256
6
ByLayer
370
18
48
1
60
1
100
AcDbPoint
10
135
20
0
30
0
39
0
210
0
220
0
230
1
50
360
0
SPLINE
5
BB
100
AcDbEntity
8
1
62
256
6
ByLayer
370
18
48
1
60
0
100
AcDbSpline
70
4
71
3
72
60
73
56
40
0
40
0
40
0
40
0
40
0.0473652796373219
40
0.0473652796373219
40
0.0947305592746437
40
0.0947305592746437
40
0.142095838911966
40
0.142095838911966
40
0.189461118549287
40
0.189461118549287
40
0.236826398186609
40
0.236826398186609
40
0.26050903800527
40
0.26050903800527
40
0.284191677823931
40
0.284191677823931
40
0.331556957461253
40
0.331556957461253
40
0.355239597279915
40
0.355239597279915
40
0.378922237098577
40
0.378922237098577
40
0.426287516735903
40
0.426287516735903
40
0.449970156554567
40
0.449970156554567
40
0.473652796373231
40
0.473652796373231
40
0.521018076010561
40
0.521018076010561
40
0.568383355647892
40
0.568383355647892
40
0.592065995466556
40
0.592065995466556
40
0.61574863528522
40
0.61574863528522
40
0.66311391492255
40
0.66311391492255
40
0.71047919455988
40
0.71047919455988
40
0.757844474197211
40
0.757844474197211
40
0.805209753834541
40
0.805209753834541
40
0.852575033471871
40
0.852575033471871
40
0.899940313109201
40
0.899940313109201
40
0.923622952927868
40
0.923622952927868
40
0.947305592746534
40
0.947305592746534
40
0.994670872383866
40
0.994670872383866
40
1
40
1
40
1
40
1
41
1
10
84.1459925778302
20
5.05566225556251
30
0
41
1
10
84.6492542542319
20
5.03767042224777
30
0
41
1
10
85.1528629093668
20
5.00160908798335
30
0
41
1
10
86.161697743136
20
4.89499710998473
30
-1E-16
41
1
10
86.6671569965842
20
4.82433924496527
30
-1E-16
41
1
10
87.6749430152524
20
4.6500366859328
30
2E-16
41
1
10
88.1775066389825
20
4.54591355721945
30
2E-16
41
1
10
89.1831649764447
20
4.30609569559297
30
2E-16
41
1
10
89.6864233586987
20
4.17061480474311
30
2E-16
41
1
10
90.6958958698561
20
3.87085343619537
30
2E-16
41
1
10
91.1998874770039
20
3.70752472909553
30
2E-16
41
1
10
91.9548247653455
20
3.44375867318004
30
-2E-16
41
1
10
92.206339431677
20
3.35270633817691
30
-2E-16
41
1
10
92.7091155397385
20
3.16429490347122
30
-2E-16
41
1
10
92.9603583585235
20
3.06689081574925
30
-2E-16
41
1
10
93.7150760400846
20
2.76737397570938
30
-2E-16
41
1
10
94.2206037373826
20
2.55798020829337
30
-2E-16
41
1
10
94.9768710873625
20
2.23147930213577
30
-1E-16
41
1
10
95.2286111679933
20
2.12049853036928
30
-1E-16
41
1
10
95.7314803252779
20
1.89437392298382
30
-1E-16
41
1
10
95.9825735521167
20
1.77915364833572
30
-1E-16
41
1
10
96.7364716715734
20
1.43017622151234
30
-1E-16
41
1
10
97.2400239388352
20
1.19341858526101
30
-1E-16
41
1
10
97.9965600466639
20
0.831768893864165
30
-1E-16
41
1
10
98.2491487295906
20
0.710071835293036
30
0
41
1
10
98.7532392152784
20
0.465486490659714
30
0
41
1
10
99.0048504286886
20
0.342474121689861
30
0
41
1
10
99.7593533922456
20
-0.0267136571279991
30
0
41
1
10
100.261708413659
20
-0.273465211257758
30
0
41
1
10
101.267755781547
20
-0.76281350061916
30
0
41
1
10
101.77240043014
20
-1.00472248830653
30
1E-16
41
1
10
102.529235190866
20
-1.36263373665079
30
1E-16
41
1
10
102.781124351596
20
-1.48088040555504
30
1E-16
41
1
10
103.284169615812
20
-1.71513972588721
30
1E-16
41
1
10
103.535236561116
20
-1.83131272485008
30
1E-16
41
1
10
104.289293152166
20
-2.17269780502696
30
1E-16
41
1
10
104.792509960915
20
-2.39206269831132
30
1E-16
41
1
10
105.799834734516
20
-2.81465700831078
30
2E-16
41
1
10
106.304472501785
20
-3.01829749914703
30
2E-16
41
1
10
107.311146469913
20
-3.40103240992121
30
2E-16
41
1
10
107.814300848688
20
-3.57982227969427
30
2E-16
41
1
10
108.820206879953
20
-3.91255370369032
30
-2E-16
41
1
10
109.322639012805
20
-4.06678215214333
30
-2E-16
41
1
10
110.330846300883
20
-4.34495191015222
30
-2E-16
41
1
10
110.835279184717
20
-4.46832584934873
30
-2E-16
41
1
10
111.841600835645
20
-4.6834176270078
30
-2E-16
41
1
10
112.343847958356
20
-4.77524846102804
30
1E-16
41
1
10
113.098297271226
20
-4.88731045555153
30
1E-16
41
1
10
113.349862573626
20
-4.9204558080655
30
1E-16
41
1
10
113.853588211421
20
-4.97802962660717
30
1E-16
41
1
10
114.105929800302
20
-5.00243567501394
30
0
41
1
10
114.861864412019
20
-5.06217337319745
30
0
41
1
10
115.365106719305
20
-5.08422514910134
30
0
41
1
10
115.924475613181
20
-5.08901564843515
30
0
41
1
10
115.981033892005
20
-5.08927254585205
30
0
41
1
10
116.037583923781
20
-5.08930210911529
30
0
0
SPLINE
5
BC
100
AcDbEntity
8
1
62
256
6
ByLayer
370
18
48
1
60
0
100
AcDbSpline
70
4
71
3
72
8
73
4
40
0
40
0
40
0
40
0
40
1
40
1
40
1
40
1
41
1
10
132.472121189161
20
-0.0530413829399663
30
0
41
1
10
132.513725485338
20
-0.0727249822218994
30
0
41
1
10
132.55506952376
20
-0.0912884470200481
30
0
41
1
10
132.596201397574
20
-0.108759542653246
30
0
0
SPLINE
5
BD
100
AcDbEntity
8
1
62
256
6
ByLayer
370
18
48
1
60
0
100
AcDbSpline
70
4
71
3
72
10
73
6
40
0
40
0
40
0
40
0
40
0.5
40
0.5
40
1
40
1
40
1
40
1
41
1
10
84.0577723789619
20
0.744395471819075
30
0
41
1
10
84.0409001246117
20
0.752541020002042
30
0
41
1
10
84.0266897771504
20
0.765280212383459
30
0
41
1
10
84.0070326247074
20
0.796328754196082
30
0
41
1
10
84.0016406056995
20
0.81464355408815
30
0
41
1
10
84.0016406056995
20
0.833163502535513
30
-1E-16
0
SPLINE
5
BE
100
AcDbEntity
8
1
62
256
6
ByLayer
370
18
48
1
60
0
100
AcDbSpline
70
4
71
3
72
67
73
63
40
0
40
0
40
0
40
0
40
0.0183067889366636
40
0.0183067889366636
40
0.0347821254717736
40
0.0347821254717736
40
0.0512574620068837
40
0.0512574620068837
40
0.0677327985419938
40
0.0677327985419938
40
0.0842081350771039
40
0.0842081350771039
40
0.0924458033446589
40
0.0945052204115477
40
0.095534928944992
40
0.0960497832117142
40
0.0963072103450754
40
0.0963072103450754
40
0.0965646374784365
40
0.0965646374784365
40
0.0975943460118809
40
0.0975943460118809
40
0.0986240545453252
40
0.0986240545453252
40
0.100683471612214
40
0.100683471612214
40
0.117158808147322
40
0.117158808147322
40
0.183060154287755
40
0.183060154287755
40
0.248961500428188
40
0.248961500428188
40
0.380764192709055
40
0.380764192709055
40
0.512566884989921
40
0.512566884989921
40
0.52904222152503
40
0.52904222152503
40
0.537279889792584
40
0.537279889792584
40
0.541398723926361
40
0.541398723926361
40
0.542428432459805
40
0.542428432459805
40
0.54345814099325
40
0.54345814099325
40
0.54358685455993
40
0.54358685455993
40
0.543715568126611
40
0.543715568126611
40
0.543972995259971
40
0.544487849526693
40
0.545517558060137
40
0.578468231130332
40
0.578468231130332
40
0.644369577270723
40
0.644369577270723
40
0.776172269551504
40
0.776172269551504
40
0.907974961832286
40
0.907974961832286
40
1
40
1
40
1
40
1
41
1
10
13.6681755985522
20
2.34129776442703
30
-1E-16
41
1
10
13.6350083957042
20
2.33494193578812
30
-1E-16
41
1
10
13.599712698623
20
2.3252476358258
30
-1E-16
41
1
10
13.5298219724086
20
2.29990328738069
30
-1E-16
41
1
10
13.4957644498432
20
2.28480707789822
30
-1E-16
41
1
10
13.4225337327371
20
2.24997800020449
30
-1E-16
41
1
10
13.383731418206
20
2.23006304016138
30
-1E-16
41
1
10
13.302555344137
20
2.18472415146573
30
-1E-16
41
1
10
13.2603241075956
20
2.15913312268231
30
-1E-16
41
1
10
13.1719075890858
20
2.10292835391016
30
-1E-16
41
1
10
13.125835261741
20
2.07234834144225
30
-1E-16
41
1
10
13.0544898020891
20
2.02249924601711
30
-1E-16
41
1
10
13.0242893691123
20
2.00089549925681
30
-1E-16
41
1
10
12.9905341891936
20
1.9759823107901
30
-1E-16
41
1
10
12.9797436094693
20
1.96794437306008
30
-1E-16
41
1
10
12.9743362068475
20
1.96389773649136
30
-1E-16
41
1
10
12.9720161735862
20
1.96215752387312
30
-1E-16
41
1
10
12.970468915101
20
1.96099606119174
30
-1E-16
41
1
10
12.9721686622892
20
1.95978713488662
30
-1E-16
41
1
10
12.9789458195196
20
1.95516582520057
30
-1E-16
41
1
10
12.9851352670285
20
1.95176475663433
30
-1E-16
41
1
10
12.9972115814373
20
1.94489222921632
30
-1E-16
41
1
10
13.0033076620547
20
1.94148778074853
30
-1E-16
41
1
10
13.0216528094042
20
1.93130492731163
30
-1E-16
41
1
10
13.0339624922232
20
1.92456200306032
30
-1E-16
41
1
10
13.1449637731139
20
1.86398682003627
30
-1E-16
41
1
10
13.2446687038858
20
1.81070064503032
30
-1E-16
41
1
10
13.7423700474215
20
1.54295217478625
30
-1E-16
41
1
10
14.1413950742811
20
1.3269042141599
30
-1E-16
41
1
10
14.9392401810561
20
0.889747328954428
30
-1E-16
41
1
10
15.3382532589721
20
0.668856905070982
30
0
41
1
10
16.5342057263812
20
-0.0012650071029157
30
0
41
1
10
17.3303310922826
20
-0.458136505161434
30
0
41
1
10
18.9217994558367
20
-1.39024444723583
30
0
41
1
10
19.7170392107795
20
-1.86447664692747
30
0
41
1
10
20.6088897300837
20
-2.40972050911171
30
0
41
1
10
20.7079407754171
20
-2.4704669321379
30
0
41
1
10
20.856256774063
20
-2.56217527333419
30
0
41
1
10
20.9056666609858
20
-2.59282062730793
30
0
41
1
10
20.9794994675805
20
-2.63930147981952
30
0
41
1
10
21.0040922488296
20
-2.65483437395628
30
0
41
1
10
21.0345148892343
20
-2.67479433754681
30
0
41
1
10
21.0405817872312
20
-2.67881480772462
30
0
41
1
10
21.0526048187066
20
-2.68703350090189
30
0
41
1
10
21.0589129369811
20
-2.69083479949225
30
0
41
1
10
21.0647809390203
20
-2.6966288408712
30
0
41
1
10
21.0659722699959
20
-2.69753912728703
30
0
41
1
10
21.0648359041107
20
-2.69898168524915
30
0
41
1
10
21.0636967112712
20
-2.69872313424304
30
0
41
1
10
21.0610091880972
20
-2.69903538839503
30
0
41
1
10
21.0556341878438
20
-2.69965984585997
30
0
41
1
10
21.0430928430136
20
-2.70111655699259
30
0
41
1
10
20.8030280390643
20
-2.72898852578177
30
0
41
1
10
20.5668146025467
20
-2.75614848448225
30
0
41
1
10
19.8804320346799
20
-2.83429739059187
30
0
41
1
10
19.4239048938706
20
-2.88524556157393
30
0
41
1
10
18.0577202473484
20
-3.0344251339865
30
0
41
1
10
17.1511490057029
20
-3.12903379591361
30
0
41
1
10
15.3485518487467
20
-3.30729279981605
30
2E-16
41
1
10
14.4523205799687
20
-3.39090954429534
30
2E-16
41
1
10
12.938665332677
20
-3.52293915108979
30
2E-16
41
1
10
12.318742439695
20
-3.5743586489308
30
2E-16
41
1
10
11.7015026976239
20
-3.62277915099378
30
2E-16
0
SPLINE
5
BF
100
AcDbEntity
8
1
62
256
6
ByLayer
370
18
48
1
60
0
100
AcDbSpline
70
4
71
3
72
50
73
46
40
0
40
0
40
0
40
0
40
0.0492525967280079
40
0.0492525967280079
40
0.0985051934560157
40
0.0985051934560157
40
0.147757790184024
40
0.147757790184024
40
0.197010386912031
40
0.197010386912031
40
0.295515580368045
40
0.295515580368045
40
0.320141878732048
40
0.320141878732048
40
0.344768177096051
40
0.344768177096051
40
0.394020773824056
40
0.394020773824056
40
0.418647072188059
40
0.418647072188059
40
0.443273370552062
40
0.443273370552062
40
0.492525967280066
40
0.492525967280066
40
0.541778564008069
40
0.541778564008069
40
0.566404862372071
40
0.566404862372071
40
0.591031160736073
40
0.591031160736073
40
0.640283757464076
40
0.640283757464076
40
0.68953635419208
40
0.68953635419208
40
0.788041547648087
40
0.788041547648087
40
0.837294144376089
40
0.837294144376089
40
0.886546741104092
40
0.886546741104092
40
0.935799337832094
40
0.935799337832094
40
0.985051934560097
40
0.985051934560097
40
1
40
1
40
1
40
1
41
1
10
132.893656764721
20
-5.03404675687054
30
0
41
1
10
132.384752046627
20
-4.99369159314389
30
1E-16
41
1
10
131.875922546875
20
-4.9352414204632
30
1E-16
41
1
10
130.856770263394
20
-4.78317316733347
30
1E-16
41
1
10
130.348510124567
20
-4.68985807682304
30
-2E-16
41
1
10
129.332639913533
20
-4.47050601567133
30
-2E-16
41
1
10
128.824983456863
20
-4.34450956040874
30
-2E-16
41
1
10
127.80822631639
20
-4.06183914166894
30
-2E-16
41
1
10
127.298181457272
20
-3.90498606120551
30
-2E-16
41
1
10
125.772222905057
20
-3.39519248963552
30
2E-16
41
1
10
124.758436660972
20
-3.00302897564282
30
2E-16
41
1
10
123.485249986319
20
-2.46387977896009
30
2E-16
41
1
10
123.230352357153
20
-2.35361781155228
30
1E-16
41
1
10
122.721492507791
20
-2.12950986063669
30
1E-16
41
1
10
122.467304323193
20
-2.01556887573304
30
1E-16
41
1
10
121.705070264232
20
-1.66885045733056
30
1E-16
41
1
10
121.197361191993
20
-1.4311650957998
30
1E-16
41
1
10
120.434954810738
20
-1.06778012084189
30
1E-16
41
1
10
120.180676623112
20
-0.945513403304318
30
1E-16
41
1
10
119.671545011056
20
-0.699276718936147
30
0
41
1
10
119.416544049776
20
-0.57523272827541
30
0
41
1
10
118.652897920411
20
-0.202618013450348
30
0
41
1
10
118.144855441456
20
0.0468071360665476
30
0
41
1
10
117.128865789275
20
0.543553106146931
30
0
41
1
10
116.620912371535
20
0.790860538783676
30
0
41
1
10
115.857395978807
20
1.15684932660133
30
-1E-16
41
1
10
115.602410466509
20
1.27814119407537
30
-1E-16
41
1
10
115.093093647083
20
1.51783806964843
30
-1E-16
41
1
10
114.83871727386
20
1.63626397622195
30
-1E-16
41
1
10
114.076024170566
20
1.98650485810086
30
-1E-16
41
1
10
113.568262103291
20
2.21350690464158
30
-1E-16
41
1
10
112.551854704342
20
2.65025959932058
30
-2E-16
41
1
10
112.04278148601
20
2.86027379612111
30
-2E-16
41
1
10
110.514139742173
20
3.45745843360123
30
-2E-16
41
1
10
109.499885392127
20
3.80906815133182
30
2E-16
41
1
10
107.973542814233
20
4.24948446814901
30
2E-16
41
1
10
107.463226922179
20
4.38179431300918
30
2E-16
41
1
10
106.44572378352
20
4.61323262172442
30
2E-16
41
1
10
105.937817878532
20
4.71261168788419
30
-1E-16
41
1
10
104.921448196992
20
4.87695077536284
30
-1E-16
41
1
10
104.41296701225
20
4.94190540808333
30
-1E-16
41
1
10
103.393300167409
20
5.03602722687418
30
0
41
1
10
102.884454091436
20
5.06504725507952
30
0
41
1
10
102.22188917368
20
5.07901315153762
30
0
41
1
10
102.067648815255
20
5.08058545665375
30
0
41
1
10
101.913408230315
20
5.08047996337243
30
0
0
SPLINE
5
C0
100
AcDbEntity
8
1
62
256
6
ByLayer
370
18
48
1
60
0
100
AcDbSpline
70
4
71
3
72
12
73
8
40
0
40
0
40
0
40
0
40
0.249999999999937
40
0.249999999999937
40
0.499999999999874
40
0.499999999999874
40
1
40
1
40
1
40
1
41
1
10
84.1023805823402
20
4.81276488537418
30
0
41
1
10
84.0867317107436
20
4.81266945161795
30
0
41
1
10
84.0715376477457
20
4.81569033150367
30
0
41
1
10
84.0454643833322
20
4.82594480428475
30
0
41
1
10
84.0346992561625
20
4.83299900652506
30
0
41
1
10
84.0093624327174
20
4.85679181564018
30
0
41
1
10
84.0016406056995
20
4.8756987281412
30
0
41
1
10
84.0016406056994
20
4.89435171804843
30
0
0
SPLINE
5
C1
100
AcDbEntity
8
1
62
256
6
ByLayer
370
18
48
1
60
0
100
AcDbSpline
70
4
71
3
72
32
73
28
40
0
40
0
40
0
40
0
40
0.0912533540408999
40
0.0912533540408999
40
0.1825067080818
40
0.1825067080818
40
0.228133385102249
40
0.228133385102249
40
0.273760062122699
40
0.273760062122699
40
0.365013416163603
40
0.365013416163603
40
0.410640093184052
40
0.410640093184052
40
0.456266770204502
40
0.456266770204502
40
0.547520124245402
40
0.547520124245402
40
0.638773478286302
40
0.638773478286302
40
0.730026832327201
40
0.730026832327201
40
0.821280186368101
40
0.821280186368101
40
0.912533540409001
40
0.912533540409001
40
1
40
1
40
1
40
1
41
1
10
132.601569301008
20
-0.122052663457993
30
0
41
1
10
132.096876457846
20
0.114532243893905
30
0
41
1
10
131.593419371926
20
0.349324638322798
30
0
41
1
10
130.588135878124
20
0.813172197977877
30
0
41
1
10
130.086341203285
20
1.04225291224827
30
-1E-16
41
1
10
129.334397665882
20
1.3797770580538
30
-1E-16
41
1
10
129.083863963779
20
1.49124911977793
30
-1E-16
41
1
10
128.582944733265
20
1.71170705776925
30
-1E-16
41
1
10
128.332454527203
20
1.82059122736706
30
-1E-16
41
1
10
127.579873152225
20
2.1419060538544
30
-1E-16
41
1
10
127.076998742291
20
2.34934158989526
30
-1E-16
41
1
10
126.320521234666
20
2.64832041837644
30
-2E-16
41
1
10
126.068011313209
20
2.74590322300637
30
-2E-16
41
1
10
125.561992931482
20
2.93638874766381
30
-2E-16
41
1
10
125.308056218238
20
3.02943882872799
30
-2E-16
41
1
10
124.547211588654
20
3.29981679670212
30
-2E-16
41
1
10
124.042016772229
20
3.46821015662891
30
-2E-16
41
1
10
123.035339871412
20
3.77828825151982
30
2E-16
41
1
10
122.534194493257
20
3.91934399256684
30
2E-16
41
1
10
121.532051884211
20
4.17419079516412
30
2E-16
41
1
10
121.031251863464
20
4.28783003346439
30
2E-16
41
1
10
120.029676192741
20
4.48384507866209
30
-1E-16
41
1
10
119.529125241828
20
4.56515841049023
30
-1E-16
41
1
10
118.524649819428
20
4.6986570498228
30
-1E-16
41
1
10
118.020871016142
20
4.75052572154402
30
0
41
1
10
117.030705131097
20
4.8168220824362
30
0
41
1
10
116.543627324041
20
4.83123039653961
30
0
41
1
10
116.057150390602
20
4.83190625805281
30
0
0
SPLINE
5
C2
100
AcDbEntity
8
1
62
256
6
ByLayer
370
18
48
1
60
0
100
AcDbSpline
70
4
71
3
72
8
73
4
40
0
40
0
40
0
40
0
40
1
40
1
40
1
40
1
41
1
10
134.548945362232
20
-1.58287056597857
30
0
41
1
10
134.701848399465
20
-1.15057692719833
30
0
41
1
10
134.850652832095
20
-0.716816668843506
30
0
41
1
10
134.995296953436
20
-0.281567710171771
30
0
0
SPLINE
5
C3
100
AcDbEntity
8
1
62
256
6
ByLayer
370
18
48
1
60
0
100
AcDbSpline
70
4
71
3
72
16
73
12
40
0
40
0
40
0
40
0
40
0.25
40
0.25
40
0.5
40
0.5
40
0.75
40
0.75
40
0.875
40
0.875
40
1
40
1
40
1
40
1
41
1
10
132.461108540744
20
0.664176711539369
30
0
41
1
10
132.546833955253
20
0.7139019936306
30
0
41
1
10
132.634830522583
20
0.754397305396139
30
0
41
1
10
132.813681698848
20
0.818594599275826
30
-1E-16
41
1
10
132.904543067899
20
0.842548467227232
30
-1E-16
41
1
10
133.087700416851
20
0.871605511919881
30
-1E-16
41
1
10
133.179981238031
20
0.876654187682931
30
-1E-16
41
1
10
133.318211141654
20
0.870820958280831
30
-1E-16
41
1
10
133.364263055168
20
0.866703293971398
30
-1E-16
41
1
10
133.456045242911
20
0.851755477555173
30
-1E-16
41
1
10
133.501400546248
20
0.840591817063483
30
-1E-16
41
1
10
133.546031841065
20
0.82647992017408
30
-1E-16
0
SPLINE
5
C4
100
AcDbEntity
8
1
62
256
6
ByLayer
370
18
48
1
60
0
100
AcDbSpline
70
4
71
3
72
30
73
26
40
0
40
0
40
0
40
0
40
0.124999999999997
40
0.124999999999997
40
0.187499999999996
40
0.187499999999996
40
0.249999999999994
40
0.249999999999994
40
0.374999999999993
40
0.374999999999993
40
0.437499999999993
40
0.437499999999993
40
0.499999999999993
40
0.499999999999993
40
0.624999999999994
40
0.624999999999994
40
0.687499999999995
40
0.687499999999995
40
0.749999999999996
40
0.749999999999996
40
0.874999999999998
40
0.874999999999998
40
0.937499999999999
40
0.937499999999999
40
1
40
1
40
1
40
1
41
1
10
132.601569301008
20
-0.122052663458021
30
0
41
1
10
132.612994134129
20
-0.410289716973722
30
0
41
1
10
132.635993128435
20
-0.69257008726052
30
0
41
1
10
132.679562671835
20
-1.1082420322868
30
1E-16
41
1
10
132.695629618192
20
-1.24549665228278
30
1E-16
41
1
10
132.729763328715
20
-1.51747692134981
30
1E-16
41
1
10
132.747915541942
20
-1.65279887649854
30
1E-16
41
1
10
132.803292870649
20
-2.05039610770558
30
1E-16
41
1
10
132.841072533624
20
-2.30280432176139
30
1E-16
41
1
10
132.894559887254
20
-2.66344463655139
30
2E-16
41
1
10
132.911882433381
20
-2.78064017958417
30
2E-16
41
1
10
132.945019446627
20
-3.00890180606265
30
2E-16
41
1
10
132.960891852317
20
-3.12041094842559
30
2E-16
41
1
10
133.004953882877
20
-3.43956928306454
30
2E-16
41
1
10
133.029744987186
20
-3.63353458958593
30
-2E-16
41
1
10
133.060625284274
20
-3.89665806111509
30
-2E-16
41
1
10
133.069888454512
20
-3.97970061793606
30
-2E-16
41
1
10
133.086717700355
20
-4.13618021089184
30
-2E-16
41
1
10
133.094289732248
20
-4.20969464262384
30
-2E-16
41
1
10
133.114939813195
20
-4.41127887504226
30
-2E-16
41
1
10
133.126063264378
20
-4.52216764079114
30
1E-16
41
1
10
133.144206069418
20
-4.65362744482846
30
1E-16
41
1
10
133.150513398374
20
-4.69160225641556
30
1E-16
41
1
10
133.164802705058
20
-4.75553336706059
30
0
41
1
10
133.17277041415
20
-4.78135081771532
30
0
41
1
10
133.182122278208
20
-4.80076458160082
30
0
0
SPLINE
5
C5
100
AcDbEntity
8
1
62
256
6
ByLayer
370
18
48
1
60
0
100
AcDbSpline
70
4
71
3
72
10
73
6
40
0
40
0
40
0
40
0
40
0.5
40
0.5
40
1
40
1
40
1
40
1
41
1
10
134.548945362232
20
1.58287056597854
30
0
41
1
10
134.407857694968
20
1.54816009253693
30
0
41
1
10
134.266105546721
20
1.51856297677003
30
0
41
1
10
133.981766175134
20
1.46579486992289
30
0
41
1
10
133.839175157616
20
1.44265307604096
30
0
41
1
10
133.696261722906
20
1.42199236809844
30
0
0
SPLINE
5
C6
100
AcDbEntity
8
1
62
256
6
ByLayer
370
18
48
1
60
0
100
AcDbSpline
70
4
71
3
72
12
73
8
40
0
40
0
40
0
40
0
40
0.372578235047818
40
0.372578235047818
40
0.745156470095638
40
0.745156470095638
40
1
40
1
40
1
40
1
41
1
10
84.1442497851543
20
4.81233149289764
30
0
41
1
10
84.3979065672325
20
4.80538527959592
30
0
41
1
10
84.6516859662644
20
4.79351126041203
30
0
41
1
10
85.1596668932846
20
4.76034716985086
30
0
41
1
10
85.4140869289761
20
4.73902794419152
30
0
41
1
10
85.8413177333667
20
4.69574634178386
30
0
41
1
10
86.0146037457538
20
4.67611486257007
30
0
41
1
10
86.1876719236413
20
4.65452282690075
30
0
0
SPLINE
5
C7
100
AcDbEntity
8
1
62
256
6
ByLayer
370
18
48
1
60
0
100
AcDbSpline
70
4
71
3
72
26
73
22
40
0
40
0
40
0
40
0
40
0.0102779123267516
40
0.0102779123267516
40
0.115154674159873
40
0.115154674159873
40
0.220031435992995
40
0.220031435992995
40
0.324908197826116
40
0.324908197826116
40
0.429784959659238
40
0.429784959659238
40
0.53466172149236
40
0.53466172149236
40
0.744415245158594
40
0.744415245158594
40
0.849292006991707
40
0.849292006991707
40
0.95416876882482
40
0.95416876882482
40
1
40
1
40
1
40
1
41
1
10
92.3871156640792
20
3.12735802790593
30
-2E-16
41
1
10
92.4118517727422
20
3.11860104430562
30
-2E-16
41
1
10
92.4365903928151
20
3.10981634839305
30
-2E-16
41
1
10
92.7137918135371
20
3.01108287552066
30
-2E-16
41
1
10
92.9664723595684
20
2.91830296688934
30
-2E-16
41
1
10
93.4733568439552
20
2.7271507845615
30
-2E-16
41
1
10
93.7278612573684
20
2.62864686572243
30
-2E-16
41
1
10
94.2359490573064
20
2.42759496274357
30
-1E-16
41
1
10
94.4898055335582
20
2.3249614369727
30
-1E-16
41
1
10
94.9970752410519
20
2.11580511541109
30
-1E-16
41
1
10
95.2504848117632
20
2.00928678554018
30
-1E-16
41
1
10
95.756875941736
20
1.79255731953603
30
-1E-16
41
1
10
96.0098230226363
20
1.68231562120502
30
-1E-16
41
1
10
96.7694764691563
20
1.34772821838044
30
-1E-16
41
1
10
97.2771487526516
20
1.11967097583806
30
-1E-16
41
1
10
98.0403287016631
20
0.771747469941573
30
0
41
1
10
98.2941091149378
20
0.655206677829909
30
0
41
1
10
98.8004179959763
20
0.421177441078214
30
0
41
1
10
99.0529553711424
20
0.303631327630399
30
0
41
1
10
99.4152773913083
20
0.134865154492644
30
0
41
1
10
99.5253887746279
20
0.0835746532098369
30
0
41
1
10
99.635429462672
20
0.0323128116565385
30
0
0
SPLINE
5
C8
100
AcDbEntity
8
1
62
256
6
ByLayer
370
18
48
1
60
0
100
AcDbSpline
70
4
71
3
72
8
73
4
40
0
40
0
40
0
40
0
40
1
40
1
40
1
40
1
41
1
10
133.227907442083
20
4.88934850800104
30
0
41
1
10
133.225112715382
20
4.89122964722904
30
0
41
1
10
133.222318029012
20
4.89311061131741
30
0
41
1
10
133.219523382992
20
4.89499139997045
30
0
0
SPLINE
5
C9
100
AcDbEntity
8
1
62
256
6
ByLayer
370
18
48
1
60
0
100
AcDbSpline
70
4
71
3
72
34
73
30
40
0
40
0
40
0
40
0
40
0.331477928507943
40
0.331477928507943
40
0.556485319670986
40
0.556485319670986
40
0.705952929051943
40
0.705952929051943
40
0.805223329993641
40
0.805223329993641
40
0.871160403322744
40
0.871160403322744
40
0.914968274783515
40
0.914968274783515
40
0.944084658535454
40
0.944084658535454
40
0.963442875102633
40
0.963442875102633
40
0.976324592750475
40
0.976324592750475
40
0.984914429209845
40
0.984914429209845
40
0.990646790295525
40
0.990646790295525
40
0.99453037166551
40
0.99453037166551
40
0.998226401007454
40
0.998226401007454
40
1
40
1
40
1
40
1
41
1
10
132.91206297405
20
5.09898055794386
30
0
41
1
10
132.945977158488
20
5.07678045684347
30
0
41
1
10
132.979931209429
20
5.05445052691141
30
0
41
1
10
133.036981753492
20
5.01676382039463
30
0
41
1
10
133.060062106546
20
5.00147148377647
30
0
41
1
10
133.098485360394
20
4.97593881347038
30
0
41
1
10
133.113824041075
20
4.96572633704523
30
0
41
1
10
133.139354283613
20
4.94869560731865
30
0
41
1
10
133.149545497067
20
4.94188851658595
30
0
41
1
10
133.16651754925
20
4.93053763039052
30
0
41
1
10
133.173294494987
20
4.92600134823823
30
0
41
1
10
133.184581397729
20
4.91843984629114
30
0
41
1
10
133.189088872799
20
4.91541843349239
30
0
41
1
10
133.196596106265
20
4.91038345850384
30
0
41
1
10
133.199594555096
20
4.90837170970818
30
0
41
1
10
133.204588454215
20
4.90501993362935
30
0
41
1
10
133.206583953289
20
4.90368027238372
30
0
41
1
10
133.209904170481
20
4.90145079751335
30
0
41
1
10
133.211229768217
20
4.90056055508575
30
0
41
1
10
133.213435031646
20
4.89907936732649
30
0
41
1
10
133.214316127407
20
4.89848752183022
30
0
41
1
10
133.215782386092
20
4.89750253819022
30
0
41
1
10
133.216369957471
20
4.8971077925097
30
0
41
1
10
133.217341196525
20
4.89645539639668
30
0
41
1
10
133.217730058314
20
4.89619422089527
30
0
41
1
10
133.218464099008
20
4.89570139749461
30
0
41
1
10
133.218815711514
20
4.89546540771022
30
0
41
1
10
133.219272306194
20
4.89515937212704
30
0
41
1
10
133.219411782958
20
4.89506596385701
30
0
41
1
10
133.219523383018
20
4.89499139996656
30
0
0
SPLINE
5
CA
100
AcDbEntity
8
1
62
256
6
ByLayer
370
18
48
1
60
0
100
AcDbSpline
70
4
71
3
72
42
73
38
40
0
40
0
40
0
40
0
40
0.0044090469593533
40
0.0044090469593533
40
0.0518181399612876
40
0.0518181399612876
40
0.0992272329632216
40
0.0992272329632216
40
0.146636325965156
40
0.146636325965156
40
0.241454511969024
40
0.241454511969024
40
0.288863604970961
40
0.288863604970961
40
0.336272697972897
40
0.336272697972897
40
0.383681790974833
40
0.383681790974833
40
0.431090883976769
40
0.431090883976769
40
0.478499976978705
40
0.478499976978705
40
0.525909069980642
40
0.525909069980642
40
0.620727255984514
40
0.620727255984514
40
0.715545441988387
40
0.715545441988387
40
0.762954534990323
40
0.762954534990323
40
0.810363627992259
40
0.810363627992259
40
0.905181813996128
40
0.905181813996128
40
0.952590906998064
40
0.952590906998064
40
1
40
1
40
1
40
1
41
1
10
100.129437812597
20
-0.208439860792538
30
0
41
1
10
100.106058988847
20
-0.197567903513374
30
0
41
1
10
100.08267716062
20
-0.186694733603787
30
0
41
1
10
99.8078395200021
20
-0.0589000416249803
30
0
41
1
10
99.5560348150926
20
0.0581558968314368
30
0
41
1
10
99.0516637169174
20
0.292622558435852
30
0
41
1
10
98.7990786841539
20
0.409964659963094
30
0
41
1
10
98.2926793770614
20
0.643602329307669
30
0
41
1
10
98.0388632920651
20
0.759953579956658
30
0
41
1
10
97.2755454725078
20
1.10735598444972
30
-1E-16
41
1
10
96.767782342639
20
1.33511647232425
30
-1E-16
41
1
10
96.0079878381226
20
1.66932947898351
30
-1E-16
41
1
10
95.754990562561
20
1.77945071288215
30
-1E-16
41
1
10
95.2485009613488
20
1.99595731489444
30
-1E-16
41
1
10
94.9950438602386
20
2.10237603416471
30
-1E-16
41
1
10
94.4876823527915
20
2.31135681160464
30
-1E-16
41
1
10
94.2337822179667
20
2.41391601817634
30
-1E-16
41
1
10
93.7256101121675
20
2.61484565759429
30
-2E-16
41
1
10
93.4710632142266
20
2.71330285772882
30
-2E-16
41
1
10
92.9640815942792
20
2.90438718135434
30
-2E-16
41
1
10
92.711348597583
20
2.997139320027
30
-2E-16
41
1
10
92.2063212991667
20
3.17694512799938
30
-2E-16
41
1
10
91.954064676778
20
3.2639902136435
30
-2E-16
41
1
10
91.1982044963443
20
3.51610592086092
30
-2E-16
41
1
10
90.6954889856488
20
3.67214083459678
30
2E-16
41
1
10
89.6916457364079
20
3.95658848341734
30
2E-16
41
1
10
89.1903486793375
20
4.08520892878039
30
2E-16
41
1
10
88.4378107213379
20
4.25570757871873
30
2E-16
41
1
10
88.1869056057585
20
4.30875017355547
30
2E-16
41
1
10
87.6843764360699
20
4.40781572458397
30
0
41
1
10
87.432741211887
20
4.4538585423978
30
-1E-16
41
1
10
86.6767558805796
20
4.58056653177098
30
-1E-16
41
1
10
86.1713540219979
20
4.6498128545413
30
-1E-16
41
1
10
85.4101213619658
20
4.72742920196416
30
0
41
1
10
85.1556590771149
20
4.74892853323976
30
0
41
1
10
84.6475893456538
20
4.78247089044882
30
0
41
1
10
84.3937643584838
20
4.79454309383482
30
0
41
1
10
84.1400608622833
20
4.8016963717356
30
0
0
SPLINE
5
CB
100
AcDbEntity
8
1
62
256
6
ByLayer
370
18
48
1
60
0
100
AcDbSpline
70
4
71
3
72
26
73
22
40
0
40
0
40
0
40
0
40
0.0313798032520391
40
0.0313798032520391
40
0.122565488629737
40
0.122565488629737
40
0.304936859385131
40
0.304936859385131
40
0.487308230140526
40
0.487308230140526
40
0.532901072829376
40
0.532901072829376
40
0.578493915518226
40
0.578493915518226
40
0.669679600895926
40
0.669679600895926
40
0.760865286273625
40
0.760865286273625
40
0.852050971651325
40
0.852050971651325
40
1
40
1
40
1
40
1
41
1
10
85.1151364728944
20
0.230976035162684
30
0
41
1
10
85.292332180254
20
0.149032534498474
30
0
41
1
10
85.4694882766375
20
0.0669938162331789
30
0
41
1
10
86.1611646054913
20
-0.253390917520449
30
0
41
1
10
86.6731467358543
20
-0.490686878397241
30
0
41
1
10
88.204393981152
20
-1.19284152768378
30
1E-16
41
1
10
89.2192203449868
20
-1.64733095582073
30
1E-16
41
1
10
91.2514828650982
20
-2.49823431025294
30
2E-16
41
1
10
92.2687991630252
20
-2.89502835509364
30
2E-16
41
1
10
93.5519423186939
20
-3.33518622531477
30
2E-16
41
1
10
93.809450972274
20
-3.42054315101421
30
2E-16
41
1
10
94.3240598316541
20
-3.58476456836704
30
2E-16
41
1
10
94.581067435242
20
-3.66360646224135
30
-2E-16
41
1
10
95.3515687659351
20
-3.88971621148863
30
-2E-16
41
1
10
95.8645424412099
20
-4.02654444662608
30
-2E-16
41
1
10
96.8910995269767
20
-4.26985972853757
30
-2E-16
41
1
10
97.4046842697827
20
-4.37640591885724
30
-2E-16
41
1
10
98.4343894362991
20
-4.55728054703303
30
1E-16
41
1
10
98.9470121944978
20
-4.63093766510505
30
1E-16
41
1
10
100.286344665492
20
-4.77876390021714
30
0
41
1
10
101.110631940656
20
-4.82487920802168
30
0
41
1
10
101.934525891378
20
-4.82557344615969
30
0
0
SPLINE
5
CC
100
AcDbEntity
8
1
62
256
6
ByLayer
370
18
48
1
60
0
100
AcDbSpline
70
4
71
3
72
26
73
22
40
0
40
0
40
0
40
0
40
0.185934349492809
40
0.185934349492809
40
0.278901524239213
40
0.278901524239213
40
0.371868698985618
40
0.371868698985618
40
0.464835873732022
40
0.464835873732022
40
0.557803048478427
40
0.557803048478427
40
0.650770223224831
40
0.650770223224831
40
0.743737397971236
40
0.743737397971236
40
0.83670457271764
40
0.83670457271764
40
0.929671747464045
40
0.929671747464045
40
1
40
1
40
1
40
1
41
1
10
84
20
0.0608499065856165
30
0
41
1
10
85.0200956277164
20
-0.436669359353317
30
0
41
1
10
86.0400863393939
20
-0.93536843949596
30
1E-16
41
1
10
87.5672181244218
20
-1.65133779973093
30
1E-16
41
1
10
88.0761274367076
20
-1.88491721613477
30
1E-16
41
1
10
89.095818379656
20
-2.33772834274006
30
1E-16
41
1
10
89.605264134007
20
-2.55630035558139
30
2E-16
41
1
10
90.6233460907185
20
-2.97317745791224
30
2E-16
41
1
10
91.1322991100985
20
-3.17166417657265
30
2E-16
41
1
10
92.1521152588658
20
-3.5451961268322
30
2E-16
41
1
10
92.6614136490186
20
-3.71964063033363
30
-2E-16
41
1
10
93.6793676817361
20
-4.0404956415768
30
-2E-16
41
1
10
94.1882531509197
20
-4.18700983396795
30
-2E-16
41
1
10
95.2079920972927
20
-4.44941481373155
30
-2E-16
41
1
10
95.7170554617987
20
-4.564820257071
30
-2E-16
41
1
10
96.7349259671419
20
-4.76194931206339
30
1E-16
41
1
10
97.24386863273
20
-4.84372227494757
30
1E-16
41
1
10
98.2637656427723
20
-4.97214212744652
30
1E-16
41
1
10
98.7726934295773
20
-5.01852040297504
30
0
41
1
10
99.6665688143794
20
-5.06809682942367
30
0
41
1
10
100.05157849069
20
-5.07906090140119
30
0
41
1
10
100.437008521007
20
-5.07955156353461
30
0
0
SPLINE
5
CD
100
AcDbEntity
8
1
62
256
6
ByLayer
370
18
48
1
60
0
100
AcDbSpline
70
4
71
3
72
12
73
8
40
0
40
0
40
0
40
0
40
0.196625013467807
40
0.196625013467807
40
0.598312506733904
40
0.598312506733904
40
1
40
1
40
1
40
1
41
1
10
125.302848011927
20
3.72591282143165
30
0
41
1
10
125.801600990939
20
3.89291173908569
30
1E-16
41
1
10
126.300339084137
20
4.04711865170825
30
2E-16
41
1
10
127.817760297489
20
4.47200630508098
30
2E-16
41
1
10
128.836637623554
20
4.69669203602157
30
2E-16
41
1
10
130.874245361029
20
5.00528621510819
30
-1E-16
41
1
10
131.893155074792
20
5.08909423764337
30
0
41
1
10
132.912062974055
20
5.09898055795296
30
0
0
SPLINE
5
CE
100
AcDbEntity
8
1
62
256
6
ByLayer
370
18
48
1
60
0
100
AcDbSpline
70
4
71
3
72
10
73
6
40
0
40
0
40
0
40
0
40
0.5
40
0.5
40
1
40
1
40
1
40
1
41
1
10
133.227907442083
20
-4.88934850800115
30
0
41
1
10
133.211685722546
20
-4.8999393020126
30
0
41
1
10
133.197914933087
20
-4.90432105987531
30
0
41
1
10
133.174326285154
20
-4.90088931565793
30
0
41
1
10
133.164619710413
20
-4.89313636592104
30
0
41
1
10
133.156322733052
20
-4.8798356265886
30
0
0
SPLINE
5
CF
100
AcDbEntity
8
1
62
256
6
ByLayer
370
18
48
1
60
0
100
AcDbSpline
70
4
71
3
72
8
73
4
40
0
40
0
40
0
40
0
40
1
40
1
40
1
40
1
41
1
10
134.548945362232
20
1.5828705659786
30
0
41
1
10
134.701848399466
20
1.15057692719785
30
0
41
1
10
134.850652832095
20
0.716816668842483
30
0
41
1
10
134.995296953437
20
0.281567710170208
30
0
0
SPLINE
5
D0
100
AcDbEntity
8
1
62
256
6
ByLayer
370
18
48
1
60
0
100
AcDbSpline
70
4
71
3
72
14
73
10
40
0
40
0
40
0
40
0
40
0.27192283963817
40
0.27192283963817
40
0.507876023978374
40
0.507876023978374
40
0.781940597476738
40
0.781940597476738
40
1
40
1
40
1
40
1
41
1
10
132.596201397574
20
-0.108759542653246
30
0
41
1
10
132.596940836982
20
-0.109073625514782
30
0
41
1
10
132.597668302577
20
-0.109759204932999
30
0
41
1
10
132.598881375988
20
-0.111479846764325
30
0
41
1
10
132.59940300919
20
-0.112479996069794
30
0
41
1
10
132.600370398399
20
-0.114910958727506
30
0
41
1
10
132.60080580724
20
-0.116422975491787
30
0
41
1
10
132.601351284257
20
-0.11930917935274
30
0
41
1
10
132.601515004953
20
-0.120682828580527
30
0
41
1
10
132.601569301008
20
-0.122052663457993
30
0
0
SPLINE
5
D1
100
AcDbEntity
8
1
62
256
6
ByLayer
370
18
48
1
60
0
100
AcDbSpline
70
4
71
3
72
10
73
6
40
0
40
0
40
0
40
0
40
0.5
40
0.5
40
1
40
1
40
1
40
1
41
1
10
132.893656764719
20
-5.03404675687131
30
0
41
1
10
132.896864918922
20
-5.05329357877136
30
0
41
1
10
132.89993356373
20
-5.06838384208237
30
0
41
1
10
132.906009793841
20
-5.09010247556083
30
0
41
1
10
132.909029669469
20
-5.09673173838277
30
0
41
1
10
132.912062974036
20
-5.09898055795304
30
0
0
SPLINE
5
D2
100
AcDbEntity
8
1
62
256
6
ByLayer
370
18
48
1
60
0
100
AcDbSpline
70
4
71
3
72
38
73
34
40
0
40
0
40
0
40
0
40
0.114532102845976
40
0.114532102845976
40
0.17670947219964
40
0.17670947219964
40
0.238886841553303
40
0.238886841553303
40
0.301064210906966
40
0.301064210906966
40
0.36324158026063
40
0.36324158026063
40
0.425418949614293
40
0.425418949614293
40
0.487596318967957
40
0.487596318967957
40
0.54977368832162
40
0.54977368832162
40
0.611951057675283
40
0.611951057675283
40
0.674128427028947
40
0.674128427028947
40
0.73630579638261
40
0.73630579638261
40
0.798483165736274
40
0.798483165736274
40
0.860660535089937
40
0.860660535089937
40
0.922837904443601
40
0.922837904443601
40
0.985015273797264
40
0.985015273797264
40
1
40
1
40
1
40
1
41
1
10
117.597432305413
20
-0.402783119037821
30
0
41
1
10
116.653808346554
20
0.0402629751079644
30
0
41
1
10
115.706395985992
20
0.490093648949085
30
0
41
1
10
114.248665092234
20
1.16399544481356
30
-1E-16
41
1
10
113.736749811107
20
1.39748664962266
30
-1E-16
41
1
10
112.712827031867
20
1.85266666540915
30
-1E-16
41
1
10
112.200699636314
20
2.07410954131245
30
-1E-16
41
1
10
111.174328220633
20
2.5014590710397
30
-2E-16
41
1
10
110.661448049175
20
2.70695745430041
30
-2E-16
41
1
10
109.637174503038
20
3.0955420700173
30
-2E-16
41
1
10
109.125361144794
20
3.27898538714771
30
-2E-16
41
1
10
108.100600591805
20
3.62168552163007
30
-2E-16
41
1
10
107.586765896272
20
3.78069203195992
30
2E-16
41
1
10
106.561540168361
20
4.06932188823765
30
2E-16
41
1
10
106.049771198852
20
4.19943611942224
30
2E-16
41
1
10
105.02566411699
20
4.42788026514603
30
2E-16
41
1
10
104.51311746059
20
4.5260804270892
30
-1E-16
41
1
10
103.48639065439
20
4.68937304176458
30
-1E-16
41
1
10
102.974257026717
20
4.75411429888376
30
-1E-16
41
1
10
101.950091874611
20
4.84847867830152
30
0
41
1
10
101.438179909691
20
4.87830630671763
30
0
41
1
10
100.412866231975
20
4.90193263564251
30
0
41
1
10
99.8990710200568
20
4.895575944423
30
0
41
1
10
98.8742728002347
20
4.84760890876927
30
0
41
1
10
98.3625503277339
20
4.80615323359493
30
0
41
1
10
97.3380656486312
20
4.68851073817262
30
-1E-16
41
1
10
96.8248861134242
20
4.61232554652108
30
-1E-16
41
1
10
95.7981029974581
20
4.42631138710092
30
2E-16
41
1
10
95.2842861804413
20
4.31637023867475
30
2E-16
41
1
10
94.2583326566392
20
4.06638770798128
30
2E-16
41
1
10
93.7465028572942
20
3.92646138259408
30
2E-16
41
1
10
93.1114637003343
20
3.73574362957092
30
-1E-16
41
1
10
92.9881410057286
20
3.69790939289618
30
-1E-16
41
1
10
92.8648066677967
20
3.65929943303107
30
-1E-16
0
SPLINE
5
D3
100
AcDbEntity
8
1
62
256
6
ByLayer
370
18
48
1
60
0
100
AcDbSpline
70
4
71
3
72
8
73
4
40
0
40
0
40
0
40
0
40
1
40
1
40
1
40
1
41
1
10
132.89365676472
20
-5.03404675686934
30
0
41
1
10
132.98100717252
20
-4.9835230243722
30
0
41
1
10
133.06855122587
20
-4.93211052003517
30
0
41
1
10
133.156322733052
20
-4.87983562658857
30
0
0
SPLINE
5
D4
100
AcDbEntity
8
1
62
256
6
ByLayer
370
18
48
1
60
0
100
AcDbSpline
70
4
71
3
72
16
73
12
40
0
40
0
40
0
40
0
40
0.199224810946492
40
0.199224810946492
40
0.398449621892984
40
0.398449621892984
40
0.597674432839476
40
0.597674432839476
40
0.796899243785969
40
0.796899243785969
40
1
40
1
40
1
40
1
41
1
10
133.219523383047
20
4.8949913996812
30
0
41
1
10
132.707427902617
20
4.89859639126217
30
0
41
1
10
132.195105892208
20
4.88425793190581
30
0
41
1
10
131.168286847211
20
4.82022221190996
30
0
41
1
10
130.654889558004
20
4.77060408263765
30
-1E-16
41
1
10
129.627887357067
20
4.63627883818967
30
-1E-16
41
1
10
129.114352963923
20
4.55191575585948
30
-1E-16
41
1
10
128.08837441142
20
4.35068785859912
30
2E-16
41
1
10
127.574835381796
20
4.23350739657718
30
2E-16
41
1
10
126.538997237391
20
3.96658294429943
30
2E-16
41
1
10
126.017246965561
20
3.81656393884657
30
1E-16
41
1
10
125.495578790833
20
3.65287752791127
30
0
0
SPLINE
5
D5
100
AcDbEntity
8
1
62
256
6
ByLayer
370
18
48
1
60
0
100
AcDbSpline
70
4
71
3
72
28
73
24
40
0
40
0
40
0
40
0
40
0.125
40
0.125
40
0.1875
40
0.1875
40
0.250000000000001
40
0.250000000000001
40
0.375
40
0.375
40
0.5
40
0.5
40
0.5625
40
0.5625
40
0.625
40
0.625
40
0.75
40
0.75
40
0.8125
40
0.8125
40
0.875
40
0.875
40
1
40
1
40
1
40
1
41
1
10
84.10238058234
20
4.80205853332438
30
0
41
1
10
84.1023691785075
20
4.7819929603246
30
0
41
1
10
84.1023546307202
20
4.7385983434547
30
0
41
1
10
84.1023293093983
20
4.64050699873118
30
-1E-16
41
1
10
84.1023202758121
20
4.60230598910906
30
-1E-16
41
1
10
84.1023011120884
20
4.51488657447047
30
-1E-16
41
1
10
84.1022909539171
20
4.46552319562664
30
-1E-16
41
1
10
84.1022590963291
20
4.30151107454267
30
2E-16
41
1
10
84.1022363190243
20
4.17257709318855
30
2E-16
41
1
10
84.102188113604
20
3.87695391430617
30
2E-16
41
1
10
84.1021626303552
20
3.70988488272968
30
2E-16
41
1
10
84.1021224600165
20
3.4307718068649
30
-2E-16
41
1
10
84.1021087899769
20
3.33328961200704
30
-2E-16
41
1
10
84.1020811578943
20
3.13168421011676
30
-2E-16
41
1
10
84.1020672031399
20
3.02763223689072
30
-2E-16
41
1
10
84.1020248434326
20
2.70597386562784
30
-2E-16
41
1
10
84.101995956564
20
2.47893099232871
30
-2E-16
41
1
10
84.1019511107342
20
2.11921235962882
30
-1E-16
41
1
10
84.1019358380325
20
1.99553939587
30
-1E-16
41
1
10
84.1019050317589
20
1.74468314380931
30
-1E-16
41
1
10
84.1018895120044
20
1.61762455039104
30
-1E-16
41
1
10
84.1018424246373
20
1.23164543377976
30
-1E-16
41
1
10
84.1018103385331
20
0.967956235566135
30
-1E-16
41
1
10
84.1017769923849
20
0.697715650743532
30
0
0
SPLINE
5
D6
100
AcDbEntity
8
1
62
256
6
ByLayer
370
18
48
1
60
0
100
AcDbSpline
70
4
71
3
72
32
73
28
40
0
40
0
40
0
40
0
40
0.125
40
0.125
40
0.1875
40
0.1875
40
0.25
40
0.25
40
0.3125
40
0.3125
40
0.375
40
0.375
40
0.4375
40
0.4375
40
0.5
40
0.5
40
0.5625
40
0.5625
40
0.625
40
0.625
40
0.6875
40
0.6875
40
0.75
40
0.75
40
0.875
40
0.875
40
1
40
1
40
1
40
1
41
1
10
134.928880163123
20
0.0613954924642712
30
0
41
1
10
134.904192910586
20
-0.020001830414941
30
0
41
1
10
134.875809862565
20
-0.099538230280956
30
0
41
1
10
134.827482886054
20
-0.215850802213652
30
0
41
1
10
134.810253702757
20
-0.254419192693035
30
0
41
1
10
134.774648682829
20
-0.328475384466174
30
0
41
1
10
134.756264120398
20
-0.364041261542553
30
0
41
1
10
134.718357804437
20
-0.432157737152153
30
0
41
1
10
134.698836831623
20
-0.464710315322918
30
0
41
1
10
134.658599346757
20
-0.526533203354262
30
0
41
1
10
134.637930194554
20
-0.555663332281569
30
0
41
1
10
134.597061811498
20
-0.608082509026843
30
0
41
1
10
134.576655816038
20
-0.631702690595802
30
0
41
1
10
134.535873059357
20
-0.673656802042416
30
0
41
1
10
134.515310440426
20
-0.692105663012796
30
0
41
1
10
134.475507303522
20
-0.722357159166279
30
0
41
1
10
134.456171103626
20
-0.734310613522979
30
0
41
1
10
134.418481130834
20
-0.752121371288808
30
0
41
1
10
134.399990155883
20
-0.75798034661949
30
0
41
1
10
134.364746899788
20
-0.763461544927253
30
0
41
1
10
134.34795681705
20
-0.763155725860827
30
0
41
1
10
134.315775348257
20
-0.756926402678175
30
0
41
1
10
134.300292849437
20
-0.750937947132655
30
0
41
1
10
134.256391675919
20
-0.725320056865968
30
0
41
1
10
134.23061872354
20
-0.698437694530156
30
0
41
1
10
134.183961312932
20
-0.628546991274618
30
0
41
1
10
134.163147324606
20
-0.585368609396824
30
0
41
1
10
134.1447427459
20
-0.536239687026836
30
0
0
SPLINE
5
D7
100
AcDbEntity
8
1
62
256
6
ByLayer
370
18
48
1
60
0
100
AcDbSpline
70
4
71
3
72
20
73
16
40
0
40
0
40
0
40
0
40
0.229036403020604
40
0.229036403020604
40
0.343554604530906
40
0.343554604530906
40
0.458072806041208
40
0.458072806041208
40
0.687109209061811
40
0.687109209061811
40
0.801627410572113
40
0.801627410572113
40
0.916145612082415
40
0.916145612082415
40
1
40
1
40
1
40
1
41
1
10
133.696261722906
20
1.42199236809853
30
0
41
1
10
133.615667108908
20
1.41034096678041
30
0
41
1
10
133.537624470302
20
1.39189305257852
30
0
41
1
10
133.42456740073
20
1.35469041858696
30
0
41
1
10
133.387288680212
20
1.3405781417228
30
0
41
1
10
133.316046884392
20
1.31022074953415
30
0
41
1
10
133.281937495608
20
1.29395862105696
30
0
41
1
10
133.183906190785
20
1.24267686404002
30
0
41
1
10
133.123522600626
20
1.20461077405349
30
0
41
1
10
133.045458535758
20
1.14803073093714
30
0
41
1
10
133.021379870233
20
1.12919839597325
30
0
41
1
10
132.976942842376
20
1.09192118897778
30
0
41
1
10
132.956461180866
20
1.07334531529705
30
0
41
1
10
132.924920929242
20
1.04244031609318
30
0
41
1
10
132.912758068869
20
1.02976586214243
30
0
41
1
10
132.901758184411
20
1.01749331704951
30
0
0
SPLINE
5
D8
100
AcDbEntity
8
1
62
256
6
ByLayer
370
18
48
1
60
0
100
AcDbSpline
70
4
71
3
72
8
73
4
40
0
40
0
40
0
40
0
40
1
40
1
40
1
40
1
41
1
10
133.227907442083
20
-4.88934850800104
30
0
41
1
10
133.225112715438
20
-4.89122964719107
30
0
41
1
10
133.222318029125
20
-4.89311061124147
30
0
41
1
10
133.219523383161
20
-4.89499139985654
30
0
0
SPLINE
5
D9
100
AcDbEntity
8
1
62
256
6
ByLayer
370
18
48
1
60
0
100
AcDbSpline
70
4
71
3
72
8
73
4
40
0
40
0
40
0
40
0
40
1
40
1
40
1
40
1
41
1
10
84.1400608622833
20
4.8016963717356
30
0
41
1
10
84.1282234798513
20
4.80203013176424
30
0
41
1
10
84.1154597383739
20
4.80214796497759
30
0
41
1
10
84.1023805823401
20
4.80205853332438
30
0
0
SPLINE
5
DA
100
AcDbEntity
8
1
62
256
6
ByLayer
370
18
48
1
60
0
100
AcDbSpline
70
4
71
3
72
8
73
4
40
0
40
0
40
0
40
0
40
1
40
1
40
1
40
1
41
1
10
133.179530863991
20
-4.81198405584291
30
0
41
1
10
133.171761921843
20
-4.83460118129605
30
0
41
1
10
133.164025657138
20
-4.85721831352336
30
0
41
1
10
133.156322733052
20
-4.8798356265886
30
0
0
SPLINE
5
DB
100
AcDbEntity
8
1
62
256
6
ByLayer
370
18
48
1
60
0
100
AcDbSpline
70
2053
71
3
72
64
73
60
40
0
40
0
40
0
40
0
40
0.0625000000000001
40
0.0625000000000001
40
0.125
40
0.125
40
0.15625
40
0.15625
40
0.1875
40
0.1875
40
0.218750000000001
40
0.218750000000001
40
0.250000000000001
40
0.250000000000001
40
0.281250000000001
40
0.281250000000001
40
0.312500000000001
40
0.312500000000001
40
0.343750000000001
40
0.343750000000001
40
0.375000000000001
40
0.375000000000001
40
0.406250000000001
40
0.406250000000001
40
0.437500000000001
40
0.437500000000001
40
0.468750000000001
40
0.468750000000001
40
0.500000000000001
40
0.500000000000001
40
0.531250000000001
40
0.531250000000001
40
0.562500000000001
40
0.562500000000001
40
0.625000000000001
40
0.625000000000001
40
0.656250000000001
40
0.656250000000001
40
0.687500000000001
40
0.687500000000001
40
0.718750000000001
40
0.718750000000001
40
0.750000000000001
40
0.750000000000001
40
0.781250000000001
40
0.781250000000001
40
0.812500000000001
40
0.812500000000001
40
0.828125000000001
40
0.828125000000001
40
0.843750000000001
40
0.843750000000001
40
0.875
40
0.875
40
0.9375
40
0.9375
40
0.96875
40
0.96875
40
1
40
1
40
1
40
1
41
1
10
133.477028566435
20
-2.52135269801687
30
2E-16
41
1
10
133.43796460877
20
-2.57595787839819
30
2E-16
41
1
10
133.401662919295
20
-2.6114722157098
30
2E-16
41
1
10
133.332744447168
20
-2.64527076606004
30
2E-16
41
1
10
133.301722017885
20
-2.64261698515261
30
2E-16
41
1
10
133.258862762236
20
-2.6090773159635
30
2E-16
41
1
10
133.245537460783
20
-2.59316855601378
30
2E-16
41
1
10
133.220457978542
20
-2.55205506579478
30
2E-16
41
1
10
133.208647050532
20
-2.5266961664455
30
2E-16
41
1
10
133.18673384217
20
-2.46659686656201
30
2E-16
41
1
10
133.176840962111
20
-2.43251159724301
30
1E-16
41
1
10
133.159077978029
20
-2.35627159786944
30
1E-16
41
1
10
133.151152428674
20
-2.31375076906013
30
1E-16
41
1
10
133.137859185599
20
-2.22137608604709
30
1E-16
41
1
10
133.132589548747
20
-2.17240703508671
30
1E-16
41
1
10
133.125114852973
20
-2.06875007851917
30
1E-16
41
1
10
133.122909946879
20
-2.01324688643166
30
1E-16
41
1
10
133.122495305526
20
-1.90010653155366
30
1E-16
41
1
10
133.124225439206
20
-1.84273764138843
30
1E-16
41
1
10
133.132297770598
20
-1.72634039929485
30
1E-16
41
1
10
133.138758028531
20
-1.66712318403603
30
1E-16
41
1
10
133.156342467442
20
-1.55412866191574
30
1E-16
41
1
10
133.167656904503
20
-1.4988688773318
30
1E-16
41
1
10
133.1949866773
20
-1.39491440374056
30
1E-16
41
1
10
133.210712714398
20
-1.34704359109719
30
1E-16
41
1
10
133.246219849938
20
-1.25897928689048
30
1E-16
41
1
10
133.265810156113
20
-1.21943531473403
30
1E-16
41
1
10
133.307107303553
20
-1.15067399286227
30
1E-16
41
1
10
133.32919402446
20
-1.12085371819106
30
1E-16
41
1
10
133.374176402883
20
-1.07161449002493
30
1E-16
41
1
10
133.397140141712
20
-1.05196982939316
30
1E-16
41
1
10
133.443727244826
20
-1.02170665414181
30
1E-16
41
1
10
133.467177374688
20
-1.01126948789391
30
1E-16
41
1
10
133.53607853883
20
-0.993404751800028
30
1E-16
41
1
10
133.581289072117
20
-0.999166687310208
30
1E-16
41
1
10
133.641974236694
20
-1.03262254583044
30
1E-16
41
1
10
133.661123123224
20
-1.04788025434786
30
1E-16
41
1
10
133.696857680911
20
-1.08716482285033
30
1E-16
41
1
10
133.713397048061
20
-1.11127919363867
30
1E-16
41
1
10
133.742253050035
20
-1.1673780393196
30
1E-16
41
1
10
133.754742779987
20
-1.19950463070754
30
1E-16
41
1
10
133.775191709058
20
-1.27309018002288
30
1E-16
41
1
10
133.782973033393
20
-1.31418067029321
30
1E-16
41
1
10
133.792758769177
20
-1.40335040375254
30
1E-16
41
1
10
133.79482857247
20
-1.45247699486404
30
1E-16
41
1
10
133.792690565034
20
-1.5557261955345
30
1E-16
41
1
10
133.788588974086
20
-1.6095026213136
30
1E-16
41
1
10
133.77793529752
20
-1.69362379593645
30
1E-16
41
1
10
133.773589233971
20
-1.7224377214653
30
1E-16
41
1
10
133.763645755957
20
-1.77967905672213
30
1E-16
41
1
10
133.758039919203
20
-1.80824329997896
30
1E-16
41
1
10
133.739466399184
20
-1.8937921222263
30
-1E-16
41
1
10
133.724524553751
20
-1.9513584512039
30
-1E-16
41
1
10
133.675340401849
20
-2.11680079283704
30
-1E-16
41
1
10
133.636325959968
20
-2.21951216128372
30
-1E-16
41
1
10
133.576700669046
20
-2.3504376764341
30
-1E-16
41
1
10
133.556329985735
20
-2.39086714907811
30
-1E-16
41
1
10
133.516366183992
20
-2.46244018289798
30
-1E-16
41
1
10
133.496560545268
20
-2.49405010782621
30
2E-16
41
1
10
133.477028566435
20
-2.52135269801687
30
2E-16
0
SPLINE
5
DC
100
AcDbEntity
8
1
62
256
6
ByLayer
370
18
48
1
60
0
100
AcDbSpline
70
4
71
3
72
34
73
30
40
0
40
0
40
0
40
0
40
0.0229218487665498
40
0.0229218487665498
40
0.112987584544165
40
0.112987584544165
40
0.20305332032178
40
0.20305332032178
40
0.293119056099395
40
0.293119056099395
40
0.38318479187701
40
0.38318479187701
40
0.473250527654625
40
0.473250527654625
40
0.56331626343224
40
0.56331626343224
40
0.608349131321049
40
0.608349131321049
40
0.653381999209859
40
0.653381999209859
40
0.743447734987482
40
0.743447734987482
40
0.788480602876293
40
0.788480602876293
40
0.833513470765105
40
0.833513470765105
40
0.923579206542728
40
0.923579206542728
40
1
40
1
40
1
40
1
41
1
10
115.604639454221
20
4.83790244647548
30
0
41
1
10
115.733727095933
20
4.84027941065187
30
0
41
1
10
115.862834282118
20
4.84159059527207
30
0
41
1
10
116.499345278264
20
4.8429704946912
30
0
41
1
10
117.007543186883
20
4.82931357771463
30
0
41
1
10
118.018532818218
20
4.76266996969542
30
0
41
1
10
118.522224111737
20
4.71127790701416
30
-1E-16
41
1
10
119.526505418351
20
4.57863487496439
30
-1E-16
41
1
10
120.026948250917
20
4.49772934416907
30
-1E-16
41
1
10
121.028302504951
20
4.30244548155008
30
2E-16
41
1
10
121.528988448392
20
4.18912015325944
30
2E-16
41
1
10
122.530898111145
20
3.93480275398684
30
2E-16
41
1
10
123.031919760251
20
3.7939791464739
30
2E-16
41
1
10
124.038352578405
20
3.48426606491287
30
-2E-16
41
1
10
124.543428127009
20
3.31599683398946
30
-2E-16
41
1
10
125.304099319311
20
3.04572324671852
30
-2E-16
41
1
10
125.558007915026
20
2.95268187759754
30
-2E-16
41
1
10
126.063954280895
20
2.76220113946576
30
-2E-16
41
1
10
126.31642660707
20
2.66461313659386
30
-2E-16
41
1
10
127.072783774691
20
2.3655674640828
30
-1E-16
41
1
10
127.575568982763
20
2.15802869638287
30
-1E-16
41
1
10
128.328007063848
20
1.83648834997354
30
-1E-16
41
1
10
128.57844773834
20
1.72751527114139
30
-1E-16
41
1
10
129.079261480462
20
1.50686434904875
30
-1E-16
41
1
10
129.329741115194
20
1.39528037708831
30
-1E-16
41
1
10
130.08152252305
20
1.05738276797692
30
-1E-16
41
1
10
130.5832077857
20
0.828001375587831
30
-1E-16
41
1
10
131.512138615324
20
0.398646748951677
30
0
41
1
10
131.939123643557
20
0.19946361320649
30
0
41
1
10
132.366952523836
20
-0.0011608654585871
30
0
0
SPLINE
5
DD
100
AcDbEntity
8
1
62
256
6
ByLayer
370
18
48
1
60
0
100
AcDbSpline
70
4
71
3
72
8
73
4
40
0
40
0
40
0
40
0
40
1
40
1
40
1
40
1
41
1
10
134.995296953431
20
0.28156771017612
30
0
41
1
10
135.001574404499
20
0.0936546735759691
30
0
41
1
10
135.001560974254
20
-0.0940567026887607
30
0
41
1
10
134.995296953431
20
-0.28156771017683
30
0
0
SPLINE
5
DE
100
AcDbEntity
8
1
62
256
6
ByLayer
370
18
48
1
60
0
100
AcDbSpline
70
4
71
3
72
32
73
28
40
0
40
0
40
0
40
0
40
0.18281536434495
40
0.18281536434495
40
0.228519205431188
40
0.228519205431188
40
0.274223046517426
40
0.274223046517426
40
0.365630728689901
40
0.365630728689901
40
0.411334569776139
40
0.411334569776139
40
0.457038410862377
40
0.457038410862377
40
0.502742251948616
40
0.502742251948616
40
0.548446093034854
40
0.548446093034854
40
0.639853775207329
40
0.639853775207329
40
0.685557616293567
40
0.685557616293567
40
0.731261457379804
40
0.731261457379804
40
0.914076821724756
40
0.914076821724756
40
1
40
1
40
1
40
1
41
1
10
84.0000000000119
20
-0.0119894040444422
30
0
41
1
10
82.5473471267015
20
0.696984729022887
30
0
41
1
10
81.0997736041421
20
1.40364221769846
30
-1E-16
41
1
10
79.2660144271108
20
2.22017956769551
30
-1E-16
41
1
10
78.8975467930362
20
2.38043357007496
30
-1E-16
41
1
10
78.1627779463972
20
2.6906020130138
30
-2E-16
41
1
10
77.7958489884122
20
2.84058023687624
30
-2E-16
41
1
10
76.6953691718296
20
3.2735011690697
30
-2E-16
41
1
10
75.9623687477975
20
3.53978275959881
30
-2E-16
41
1
10
74.8586149505455
20
3.89738589375068
30
2E-16
41
1
10
74.490769039471
20
4.00938661306304
30
2E-16
41
1
10
73.7564670541709
20
4.21766121446137
30
2E-16
41
1
10
73.3897605872964
20
4.31406797816598
30
2E-16
41
1
10
72.6561110244097
20
4.49021358166331
30
2E-16
41
1
10
72.28920645996
20
4.57000660401553
30
2E-16
41
1
10
71.5545835795932
20
4.71238528055696
30
-1E-16
41
1
10
71.1864536655983
20
4.77506424319086
30
-1E-16
41
1
10
70.0833098384645
20
4.93549474714786
30
-1E-16
41
1
10
69.3500057484764
20
5.00563580719958
30
0
41
1
10
68.249279589011
20
5.05438883553128
30
0
41
1
10
67.8821330451963
20
5.06119761486752
30
0
41
1
10
67.1465960792621
20
5.05580211858174
30
0
41
1
10
66.7783278999111
20
5.04355763811066
30
0
41
1
10
64.9464364111698
20
4.93571327538854
30
-1E-16
41
1
10
63.4987768343715
20
4.7000986337259
30
-1E-16
41
1
10
61.3612982410919
20
4.16409639557418
30
2E-16
41
1
10
60.6766769935146
20
3.96404445020869
30
2E-16
41
1
10
59.9880052493901
20
3.7382946831047
30
0
0
SPLINE
5
DF
100
AcDbEntity
8
1
62
256
6
ByLayer
370
18
48
1
60
0
100
AcDbSpline
70
4
71
3
72
30
73
26
40
0
40
0
40
0
40
0
40
0.0216241950402173
40
0.0216241950402173
40
0.0731176584591531
40
0.0731176584591531
40
0.176104585297024
40
0.176104585297024
40
0.279091512134896
40
0.279091512134896
40
0.330584975553832
40
0.330584975553832
40
0.382078438972767
40
0.382078438972767
40
0.588052292648512
40
0.588052292648512
40
0.691039219486385
40
0.691039219486385
40
0.742532682905321
40
0.742532682905321
40
0.794026146324257
40
0.794026146324257
40
0.897013073162128
40
0.897013073162128
40
1
40
1
40
1
40
1
41
1
10
35.0202878540181
20
-5.03866582009337
30
0
41
1
10
34.8656464128356
20
-5.03856326029438
30
0
41
1
10
34.7110347141187
20
-5.03678995023026
30
0
41
1
10
34.1887946103758
20
-5.02514726099378
30
0
41
1
10
33.8215319465526
20
-5.00749621522911
30
0
41
1
10
32.7200987231241
20
-4.92651234985783
30
1E-16
41
1
10
31.9859011139107
20
-4.83532701342986
30
1E-16
41
1
10
30.5125153964047
20
-4.58064056517597
30
-2E-16
41
1
10
29.7779780162549
20
-4.41830873539456
30
-2E-16
41
1
10
28.6763614436669
20
-4.12717625283378
30
-2E-16
41
1
10
28.309167326838
20
-4.02211460656901
30
-2E-16
41
1
10
27.5736999005023
20
-3.79724810650995
30
-2E-16
41
1
10
27.2047713634323
20
-3.67714737025452
30
-2E-16
41
1
10
25.3668580301012
20
-3.04531633610085
30
2E-16
41
1
10
23.916819612761
20
-2.43983009802878
30
1E-16
41
1
10
21.7350372162273
20
-1.45160080624243
30
1E-16
41
1
10
21.0069236104316
20
-1.10837354840626
30
1E-16
41
1
10
19.9084954074969
20
-0.58267916013645
30
0
41
1
10
19.5413152724247
20
-0.405636244291259
30
0
41
1
10
18.8042269729546
20
-0.0492208723183012
30
0
41
1
10
18.4366666910877
20
0.129144982763648
30
0
41
1
10
17.3355956749761
20
0.661072942701935
30
0
41
1
10
16.6037412125605
20
1.01195222521179
30
-1E-16
41
1
10
15.1387970875378
20
1.69472331217739
30
-1E-16
41
1
10
14.4052659548443
20
2.02573611509459
30
-1E-16
41
1
10
13.6681755985507
20
2.34129776442671
30
-1E-16
0
SPLINE
5
E0
100
AcDbEntity
8
1
62
256
6
ByLayer
370
18
48
1
60
0
100
AcDbSpline
70
4
71
3
72
24
73
20
40
0
40
0
40
0
40
0
40
0.241954992019023
40
0.241954992019023
40
0.362932488028535
40
0.362932488028535
40
0.483909984038046
40
0.483909984038046
40
0.544398732042803
40
0.544398732042803
40
0.60488748004756
40
0.60488748004756
40
0.725864976057074
40
0.725864976057074
40
0.846842472066588
40
0.846842472066588
40
0.967819968076101
40
0.967819968076101
40
1
40
1
40
1
40
1
41
1
10
11.7015026976244
20
-3.62277915099375
30
2E-16
41
1
10
12.9735675528107
20
-4.04925819138307
30
-2E-16
41
1
10
14.2284006977905
20
-4.38927499308869
30
-2E-16
41
1
10
16.1096950430802
20
-4.74598271838431
30
1E-16
41
1
10
16.7362800816684
20
-4.83968503930785
30
1E-16
41
1
10
17.9932738388242
20
-4.97320161455329
30
0
41
1
10
18.623346476203
20
-5.01323708915643
30
0
41
1
10
19.5737362607094
20
-5.03122860120786
30
0
41
1
10
19.8921159208394
20
-5.03017966717309
30
0
41
1
10
20.526139433363
20
-5.01404012005136
30
0
41
1
10
20.8421929401563
20
-4.99897601185981
30
0
41
1
10
21.7882044142175
20
-4.93320853056022
30
1E-16
41
1
10
22.4162228808673
20
-4.86199032475849
30
1E-16
41
1
10
23.6707151559477
20
-4.66761922089415
30
1E-16
41
1
10
24.2969558554465
20
-4.5442448233045
30
-2E-16
41
1
10
25.5522113388646
20
-4.24915731481616
30
-2E-16
41
1
10
26.180862701774
20
-4.07711824494115
30
-2E-16
41
1
10
26.9805621773502
20
-3.8305984343871
30
-2E-16
41
1
10
27.1488325685004
20
-3.77724411175259
30
-2E-16
41
1
10
27.317367486095
20
-3.72234668521051
30
-2E-16
0
SPLINE
5
E1
100
AcDbEntity
8
1
62
256
6
ByLayer
370
18
48
1
60
0
100
AcDbSpline
70
4
71
3
72
54
73
50
40
0
40
0
40
0
40
0
40
0.0009122176971144
40
0.0009122176971144
40
0.0237130686482596
40
0.0237130686482596
40
0.114916472452842
40
0.114916472452842
40
0.160518174355133
40
0.160518174355133
40
0.183319025306279
40
0.183319025306279
40
0.206119876257425
40
0.206119876257425
40
0.297323280062009
40
0.297323280062009
40
0.388526683866594
40
0.388526683866594
40
0.41132753481774
40
0.41132753481774
40
0.434128385768886
40
0.434128385768886
40
0.479730087671178
40
0.479730087671178
40
0.570933491475763
40
0.570933491475763
40
0.593734342426909
40
0.593734342426909
40
0.616535193378055
40
0.616535193378055
40
0.662136895280347
40
0.662136895280347
40
0.753340299084933
40
0.753340299084933
40
0.776141150036079
40
0.776141150036079
40
0.798942000987224
40
0.798942000987224
40
0.844543702889515
40
0.844543702889515
40
0.890145404791807
40
0.890145404791807
40
0.935747106694098
40
0.935747106694098
40
0.958547957645244
40
0.958547957645244
40
0.981348808596389
40
0.981348808596389
40
1
40
1
40
1
40
1
41
1
10
52.2749309609101
20
5.04945491796795
30
0
41
1
10
52.2876331752568
20
5.04945916416878
30
0
41
1
10
52.3003363861212
20
5.0494520632447
30
0
41
1
10
52.6305810669403
20
5.04897228290247
30
0
41
1
10
52.9470901854333
20
5.04143954853345
30
0
41
1
10
54.5254680885809
20
4.96906526443249
30
-1E-16
41
1
10
55.7754461502932
20
4.79984399363218
30
-1E-16
41
1
10
57.6550360836023
20
4.39619464342917
30
2E-16
41
1
10
58.2823851338348
20
4.23682904779858
30
2E-16
41
1
10
59.2271164279166
20
3.96259304632235
30
2E-16
41
1
10
59.5427007413824
20
3.8653791492377
30
2E-16
41
1
10
60.1758321787234
20
3.66004034736986
30
2E-16
41
1
10
60.4939158361394
20
3.55159811399753
30
-2E-16
41
1
10
62.0772224921849
20
2.98728636213744
30
-2E-16
41
1
10
63.3287119255206
20
2.46398398251859
30
-2E-16
41
1
10
65.8333711624635
20
1.3342927982093
30
-1E-16
41
1
10
67.0861739085077
20
0.727229847554185
30
0
41
1
10
68.6723172261656
20
-0.0455611356297538
30
0
41
1
10
68.9894783037973
20
-0.200383859121843
30
0
41
1
10
69.6212132724957
20
-0.507685350402511
30
0
41
1
10
69.9363323079245
20
-0.660243469133491
30
0
41
1
10
70.8798068325914
20
-1.11398317329673
30
1E-16
41
1
10
71.5061638045647
20
-1.41143521601413
30
1E-16
41
1
10
73.3846276775037
20
-2.27411419977105
30
1E-16
41
1
10
74.6350762045572
20
-2.81175394009247
30
2E-16
41
1
10
76.2152849857366
20
-3.39947475118555
30
2E-16
41
1
10
76.532814531466
20
-3.51310302397502
30
2E-16
41
1
10
77.166640968337
20
-3.72961718755104
30
-2E-16
41
1
10
77.4826489224566
20
-3.83234966002749
30
-2E-16
41
1
10
78.4283295772404
20
-4.12379584660567
30
-2E-16
41
1
10
79.0555770600627
20
-4.29576619805147
30
-2E-16
41
1
10
80.9350306308648
20
-4.73737650085729
30
1E-16
41
1
10
82.1838374456752
20
-4.93385622324138
30
1E-16
41
1
10
83.7590771263828
20
-5.04149382416998
30
0
41
1
10
84.0747883299827
20
-5.0561456814267
30
0
41
1
10
84.7082740204977
20
-5.07132583243427
30
0
41
1
10
85.0260320964635
20
-5.07182581973004
30
0
41
1
10
85.9743964625178
20
-5.05219593515815
30
0
41
1
10
86.6028551366883
20
-5.01093290484692
30
0
41
1
10
87.8571132075924
20
-4.87476560861782
30
1E-16
41
1
10
88.4826329418595
20
-4.77979817039073
30
1E-16
41
1
10
89.7341439393648
20
-4.53861404922671
30
-2E-16
41
1
10
90.3605276836415
20
-4.392772411952
30
-2E-16
41
1
10
91.30321353767
20
-4.1378438822056
30
-2E-16
41
1
10
91.6179590179578
20
-4.0468175787727
30
-2E-16
41
1
10
92.2492508612191
20
-3.85347731618938
30
-2E-16
41
1
10
92.5661158068586
20
-3.75104717909605
30
-2E-16
41
1
10
93.1427559479075
20
-3.55518207985207
30
0
41
1
10
93.4014827419174
20
-3.46381034065041
30
1E-16
41
1
10
93.6596477008749
20
-3.36949966177338
30
1E-16
0
SPLINE
5
E2
100
AcDbEntity
8
1
62
256
6
ByLayer
370
18
48
1
60
0
100
AcDbSpline
70
4
71
3
72
24
73
20
40
0
40
0
40
0
40
0
40
0.117943437717044
40
0.117943437717044
40
0.243951518043181
40
0.243951518043181
40
0.369959598369319
40
0.369959598369319
40
0.495967678695455
40
0.495967678695455
40
0.558971718858522
40
0.558971718858522
40
0.621975759021588
40
0.621975759021588
40
0.747983839347726
40
0.747983839347726
40
0.873991919673862
40
0.873991919673862
40
1
40
1
40
1
40
1
41
1
10
117.519129125164
20
5.09022999820638
30
0
41
1
10
118.111069978093
20
5.09027434582953
30
0
41
1
10
118.699621111988
20
5.06550325806805
30
0
41
1
10
119.913633716295
20
4.96470776817361
30
-1E-16
41
1
10
120.539050032973
20
4.88543880846439
30
-1E-16
41
1
10
121.789557868241
20
4.67450763284489
30
2E-16
41
1
10
122.41500249999
20
4.54306555775196
30
2E-16
41
1
10
123.66985030962
20
4.23097569932256
30
2E-16
41
1
10
124.299129637967
20
4.05012585775665
30
2E-16
41
1
10
125.249402748021
20
3.74501735592898
30
2E-16
41
1
10
125.566414212943
20
3.63781670084521
30
2E-16
41
1
10
126.197409449828
20
3.41450681749544
30
-2E-16
41
1
10
126.511956241079
20
3.29816902396467
30
-2E-16
41
1
10
127.453863596287
20
2.93707568632831
30
-2E-16
41
1
10
128.07942111873
20
2.68015316979933
30
-2E-16
41
1
10
129.328880493768
20
2.13972651335459
30
-1E-16
41
1
10
129.953144834886
20
1.85688156233024
30
-1E-16
41
1
10
131.204201271098
20
1.27253516779683
30
-1E-16
41
1
10
131.830903486194
20
0.970822111675687
30
-1E-16
41
1
10
132.461108540744
20
0.664176711539369
30
0
0
SPLINE
5
E3
100
AcDbEntity
8
1
62
256
6
ByLayer
370
18
48
1
60
0
100
AcDbSpline
70
4
71
3
72
22
73
18
40
0
40
0
40
0
40
0
40
0.124999999999994
40
0.124999999999994
40
0.249999999999989
40
0.249999999999989
40
0.374999999999983
40
0.374999999999983
40
0.499999999999977
40
0.499999999999977
40
0.562499999999978
40
0.562499999999978
40
0.624999999999979
40
0.624999999999979
40
0.749999999999989
40
0.749999999999989
40
1
40
1
40
1
40
1
41
1
10
134.548945362232
20
1.5828705659786
30
0
41
1
10
134.478887384495
20
1.69685106300983
30
0
41
1
10
134.41097993976
20
1.81682785757363
30
0
41
1
10
134.279028143012
20
2.06979161156517
30
0
41
1
10
134.216394645738
20
2.20009658416308
30
0
41
1
10
134.097050708095
20
2.46668191140074
30
0
41
1
10
134.040253180198
20
2.60315097679177
30
0
41
1
10
133.930978068787
20
2.88194187258003
30
0
41
1
10
133.878258107733
20
3.02496427541422
30
0
41
1
10
133.802154220036
20
3.24065592761019
30
0
41
1
10
133.777148510945
20
3.31262150924843
30
0
41
1
10
133.727000849343
20
3.456508282322
30
0
41
1
10
133.701977908253
20
3.52845719731528
30
0
41
1
10
133.627023064401
20
3.74426805542893
30
0
41
1
10
133.577223301287
20
3.88805009087579
30
0
41
1
10
133.42786722788
20
4.3189058414597
30
0
41
1
10
133.328515889568
20
4.60512554778848
30
0
41
1
10
133.227907442083
20
4.88934850800104
30
0
0
SPLINE
5
E4
100
AcDbEntity
8
1
62
256
6
ByLayer
370
18
48
1
60
0
100
AcDbSpline
70
4
71
3
72
22
73
18
40
0
40
0
40
0
40
0
40
0.125000000000003
40
0.125000000000003
40
0.250000000000007
40
0.250000000000007
40
0.37500000000001
40
0.37500000000001
40
0.500000000000014
40
0.500000000000014
40
0.562500000000016
40
0.562500000000016
40
0.625000000000018
40
0.625000000000018
40
0.750000000000014
40
0.750000000000014
40
1
40
1
40
1
40
1
41
1
10
134.548945362232
20
-1.58287056597857
30
0
41
1
10
134.478887384495
20
-1.6968510630098
30
0
41
1
10
134.41097993976
20
-1.81682785757366
30
0
41
1
10
134.279028143012
20
-2.06979161156519
30
0
41
1
10
134.216394645738
20
-2.20009658416302
30
0
41
1
10
134.097050708095
20
-2.46668191140068
30
0
41
1
10
134.040253180199
20
-2.60315097679179
30
0
41
1
10
133.930978068787
20
-2.88194187258009
30
0
41
1
10
133.878258107733
20
-3.02496427541422
30
0
41
1
10
133.802154220036
20
-3.24065592761022
30
0
41
1
10
133.777148510945
20
-3.31262150924846
30
0
41
1
10
133.727000849343
20
-3.45650828232203
30
0
41
1
10
133.701977908253
20
-3.52845719731528
30
0
41
1
10
133.627023064401
20
-3.74426805542896
30
0
41
1
10
133.577223301287
20
-3.88805009087579
30
0
41
1
10
133.42786722788
20
-4.3189058414597
30
0
41
1
10
133.328515889568
20
-4.6051255477885
30
0
41
1
10
133.227907442083
20
-4.88934850800106
30
0
0
SPLINE
5
E5
100
AcDbEntity
8
1
62
256
6
ByLayer
370
18
48
1
60
0
100
AcDbSpline
70
4
71
3
72
26
73
22
40
0
40
0
40
0
40
0
40
0.001996034504688
40
0.001996034504688
40
0.201596827603747
40
0.201596827603747
40
0.401197620702808
40
0.401197620702808
40
0.451097818977573
40
0.451097818977573
40
0.500998017252339
40
0.500998017252339
40
0.600798413801872
40
0.600798413801872
40
0.800399206900936
40
0.800399206900936
40
0.900199603450468
40
0.900199603450468
40
0.950099801725234
40
0.950099801725234
40
1
40
1
40
1
40
1
41
1
10
117.864709864636
20
0.185547959946774
30
0
41
1
10
117.874933923939
20
0.180794769553899
30
0
41
1
10
117.885157188413
20
0.176041641740284
30
0
41
1
10
118.917613692726
20
-0.30400997508994
30
0
41
1
10
119.932092084189
20
-0.778271270949432
30
0
41
1
10
121.960842129412
20
-1.69171643437374
30
1E-16
41
1
10
122.975124631938
20
-2.13078512823307
30
1E-16
41
1
10
124.252307713928
20
-2.63778136760371
30
2E-16
41
1
10
124.508216739342
20
-2.73707572592542
30
2E-16
41
1
10
125.021228538853
20
-2.93093642147966
30
2E-16
41
1
10
125.278770106799
20
-3.02565350503622
30
2E-16
41
1
10
126.049338633045
20
-3.30042898332792
30
2E-16
41
1
10
126.560621509517
20
-3.47140016342399
30
2E-16
41
1
10
128.090265908278
20
-3.94396460452265
30
-2E-16
41
1
10
129.10435532381
20
-4.2045075261079
30
-2E-16
41
1
10
130.628467536061
20
-4.50152135642349
30
1E-16
41
1
10
131.137010650858
20
-4.58490919099827
30
1E-16
41
1
10
131.901959927688
20
-4.6849783868862
30
1E-16
41
1
10
132.157299214204
20
-4.71416589991887
30
1E-16
41
1
10
132.668933480656
20
-4.76395596812793
30
0
41
1
10
132.925265323447
20
-4.78417236610073
30
0
41
1
10
133.182122278209
20
-4.80076458160082
30
0
0
SPLINE
5
E6
100
AcDbEntity
8
1
62
256
6
ByLayer
370
18
48
1
60
0
100
AcDbSpline
70
4
71
3
72
34
73
30
40
0
40
0
40
0
40
0
40
0.03723956661153
40
0.03723956661153
40
0.0757499839470704
40
0.0757499839470704
40
0.152770818618148
40
0.152770818618148
40
0.229791653289225
40
0.229791653289225
40
0.306812487960303
40
0.306812487960303
40
0.38383332263138
40
0.38383332263138
40
0.460854157302458
40
0.460854157302458
40
0.537874991973535
40
0.537874991973535
40
0.614895826644613
40
0.614895826644613
40
0.69191666131569
40
0.69191666131569
40
0.768937495986768
40
0.768937495986768
40
0.845958330657845
40
0.845958330657845
40
0.922979165328922
40
0.922979165328922
40
1
40
1
40
1
40
1
41
1
10
112.871711406737
20
4.85364076824672
30
-1E-16
41
1
10
113.114900996009
20
4.88949331438769
30
-1E-16
41
1
10
113.358174092116
20
4.92140578126805
30
-1E-16
41
1
10
113.853588211421
20
4.9780296266072
30
-1E-16
41
1
10
114.105929800302
20
5.00243567501394
30
0
41
1
10
114.861864412019
20
5.06217337319745
30
0
41
1
10
115.365106719305
20
5.08422514910134
30
0
41
1
10
116.370703535355
20
5.09283719551669
30
0
41
1
10
116.872537630709
20
5.0791652922278
30
0
41
1
10
117.87983796401
20
5.01620904785844
30
0
41
1
10
118.385092707744
20
4.96707639201779
30
-1E-16
41
1
10
119.391518942295
20
4.83430881374056
30
-1E-16
41
1
10
119.893304398954
20
4.75024442230313
30
-1E-16
41
1
10
120.898933115593
20
4.55014922120392
30
2E-16
41
1
10
121.402755069874
20
4.43399181938301
30
2E-16
41
1
10
122.411311939301
20
4.17018703256159
30
2E-16
41
1
10
122.913734081021
20
4.02269633032142
30
2E-16
41
1
10
123.919222530069
20
3.70212845847365
30
2E-16
41
1
10
124.422013761526
20
3.52881467748395
30
-2E-16
41
1
10
125.428435736952
20
3.15709365751619
30
-2E-16
41
1
10
125.932597373252
20
2.95782118313778
30
-2E-16
41
1
10
126.939500400676
20
2.54310029144676
30
-2E-16
41
1
10
127.442471321297
20
2.32710949389207
30
-1E-16
41
1
10
128.44769521932
20
1.878314253594
30
-1E-16
41
1
10
128.949714917342
20
1.644966104351
30
-1E-16
41
1
10
129.957806472724
20
1.17040425055751
30
-1E-16
41
1
10
130.461972583742
20
0.92897254576809
30
-1E-16
41
1
10
131.467769502768
20
0.441296825560954
30
0
41
1
10
131.96993474814
20
0.194732756031442
30
0
41
1
10
132.47212118916
20
-0.053041382939881
30
0
0
SPLINE
5
E7
100
AcDbEntity
8
1
62
256
6
ByLayer
370
18
48
1
60
0
100
AcDbSpline
70
4
71
3
72
8
73
4
40
0
40
0
40
0
40
0
40
1
40
1
40
1
40
1
41
1
10
84.1442497851543
20
4.81233149289764
30
0
41
1
10
84.1310993434536
20
4.81271148855254
30
0
41
1
10
84.116916063169
20
4.81285352917996
30
0
41
1
10
84.1023805823402
20
4.81276488537418
30
0
0
SPLINE
5
E8
100
AcDbEntity
8
1
62
256
6
ByLayer
370
18
48
1
60
0
100
AcDbSpline
70
4
71
3
72
56
73
52
40
0
40
0
40
0
40
0
40
0.0032146854825388
40
0.0032146854825388
40
0.0304575416008171
40
0.0304575416008171
40
0.139428966073929
40
0.139428966073929
40
0.193914678310486
40
0.193914678310486
40
0.221157534428764
40
0.221157534428764
40
0.248400390547041
40
0.248400390547041
40
0.302886102783597
40
0.302886102783597
40
0.330128958901874
40
0.330128958901874
40
0.357371815020151
40
0.357371815020151
40
0.384614671138429
40
0.384614671138429
40
0.411857527256706
40
0.411857527256706
40
0.466343239493261
40
0.466343239493261
40
0.493586095611539
40
0.493586095611539
40
0.520828951729817
40
0.520828951729817
40
0.575314663966374
40
0.575314663966374
40
0.684286088439487
40
0.684286088439487
40
0.711528944557765
40
0.711528944557765
40
0.738771800676043
40
0.738771800676043
40
0.793257512912599
40
0.793257512912599
40
0.820500369030877
40
0.820500369030877
40
0.847743225149156
40
0.847743225149156
40
0.902228937385712
40
0.902228937385712
40
0.956714649622269
40
0.956714649622269
40
0.983957505740548
40
0.983957505740548
40
1
40
1
40
1
40
1
41
1
10
67.644530408851
20
-5.05905786997033
30
0
41
1
10
67.6011500325914
20
-5.05900416969058
30
0
41
1
10
67.5577616274281
20
-5.05881820382385
30
0
41
1
10
67.1465960792637
20
-5.05580211858177
30
0
41
1
10
66.7783278999123
20
-5.04355763811068
30
0
41
1
10
64.9464364111698
20
-4.93571327538862
30
1E-16
41
1
10
63.4987768343713
20
-4.70009863372584
30
1E-16
41
1
10
61.3176758802622
20
-4.15315748694061
30
-2E-16
41
1
10
60.5892728782278
20
-3.93838885160278
30
-2E-16
41
1
10
59.4894844458138
20
-3.57293404846803
30
2E-16
41
1
10
59.1210260298719
20
-3.4435945538107
30
2E-16
41
1
10
58.3855950838794
20
-3.17269706651936
30
2E-16
41
1
10
58.0184416956174
20
-3.03126090438124
30
2E-16
41
1
10
56.9173384855185
20
-2.5913034061559
30
2E-16
41
1
10
56.1840859978774
20
-2.27653288614707
30
1E-16
41
1
10
55.0804193182115
20
-1.7810759254898
30
1E-16
41
1
10
54.712065414182
20
-1.61216288837721
30
1E-16
41
1
10
53.9771593029196
20
-1.26967309547894
30
1E-16
41
1
10
53.6102056248229
20
-1.09577400362986
30
1E-16
41
1
10
52.876258206186
20
-0.744770173170622
30
0
41
1
10
52.5092483439938
20
-0.567700738364067
30
0
41
1
10
51.7745111708847
20
-0.211749698034453
30
0
41
1
10
51.4065027972264
20
-0.0326875607954094
30
0
41
1
10
50.3023240688033
20
0.504033393404882
30
0
41
1
10
49.5685312412851
20
0.858793169345034
30
-1E-16
41
1
10
48.4674015786539
20
1.37838015197599
30
-1E-16
41
1
10
48.1002401325136
20
1.54938959988476
30
-1E-16
41
1
10
47.3647260089418
20
1.88512402042625
30
-1E-16
41
1
10
46.995966759457
20
2.05011324634722
30
-1E-16
41
1
10
45.8951423997702
20
2.5304543117058
30
-2E-16
41
1
10
45.166067566776
20
2.83206374608446
30
-2E-16
41
1
10
42.9835392957169
20
3.66541640729955
30
2E-16
41
1
10
41.5356235719592
20
4.12672947437562
30
2E-16
41
1
10
39.7036721895765
20
4.54085234015884
30
2E-16
41
1
10
39.3356014468804
20
4.6156833058395
30
2E-16
41
1
10
38.5993712299426
20
4.74776644489893
30
-1E-16
41
1
10
38.2319470297725
20
4.80489447362979
30
-1E-16
41
1
10
37.1301527256652
20
4.94870491257501
30
-1E-16
41
1
10
36.3966082070724
20
5.00802475928131
30
0
41
1
10
35.293081898264
20
5.0402759532812
30
0
41
1
10
34.9243748312074
20
5.04154610102589
30
0
41
1
10
34.188794610377
20
5.02514726099383
30
0
41
1
10
33.8215319465536
20
5.00749621522917
30
0
41
1
10
32.7200987231251
20
4.92651234985797
30
-1E-16
41
1
10
31.9859011139119
20
4.83532701343006
30
-1E-16
41
1
10
30.5125153964065
20
4.58064056517631
30
2E-16
41
1
10
29.777978016256
20
4.41830873539479
30
2E-16
41
1
10
28.676361443668
20
4.12717625283409
30
2E-16
41
1
10
28.3091673268391
20
4.02211460656937
30
2E-16
41
1
10
27.7248863486972
20
3.84347281510287
30
2E-16
41
1
10
27.5079247575068
20
3.77460543787518
30
2E-16
41
1
10
27.2910676523025
20
3.7033655177907
30
2E-16
0
SPLINE
5
E9
100
AcDbEntity
8
1
62
256
6
ByLayer
370
18
48
1
60
0
100
AcDbSpline
70
4
71
3
72
34
73
30
40
0
40
0
40
0
40
0
40
0.0197001026741295
40
0.0197001026741295
40
0.0663810501658389
40
0.0663810501658389
40
0.159742945149258
40
0.159742945149258
40
0.206423892640966
40
0.206423892640966
40
0.253104840132674
40
0.253104840132674
40
0.346466735116089
40
0.346466735116089
40
0.439828630099504
40
0.439828630099504
40
0.533190525082918
40
0.533190525082918
40
0.579871472574626
40
0.579871472574626
40
0.626552420066333
40
0.626552420066333
40
0.71991431504975
40
0.71991431504975
40
0.813276210033167
40
0.813276210033167
40
0.906638105016583
40
0.906638105016583
40
1
40
1
40
1
40
1
41
1
10
100.164234624575
20
5.07745596189426
30
0
41
1
10
100.379153630664
20
5.08048433353645
30
0
41
1
10
100.594175117907
20
5.0802595518393
30
0
41
1
10
101.31927805706
20
5.06849015100153
30
0
41
1
10
101.829117163318
20
5.04186065255024
30
0
41
1
10
103.357978965351
20
4.90779015482099
30
-1E-16
41
1
10
104.37755842106
20
4.74559579391214
30
-1E-16
41
1
10
105.906411074924
20
4.40399026932056
30
2E-16
41
1
10
106.416353086824
20
4.27372319507117
30
2E-16
41
1
10
107.435870568569
20
3.98333678503019
30
2E-16
41
1
10
107.94537901344
20
3.82326086050458
30
2E-16
41
1
10
109.474532350385
20
3.30319155268384
30
-2E-16
41
1
10
110.493600142002
20
2.90354495583236
30
-2E-16
41
1
10
112.53207988209
20
2.03160464998535
30
-1E-16
41
1
10
113.551164235642
20
1.55990850237575
30
-1E-16
41
1
10
115.589633971756
20
0.584970441702694
30
0
41
1
10
116.60882851791
20
0.081561262372162
30
0
41
1
10
118.137318154277
20
-0.664567255183385
30
0
41
1
10
118.647186946939
20
-0.911969001289094
30
1E-16
41
1
10
119.666163231138
20
-1.39826815040777
30
1E-16
41
1
10
120.175591520914
20
-1.63731900011163
30
1E-16
41
1
10
121.704314056221
20
-2.33450588044451
30
1E-16
41
1
10
122.723526973532
20
-2.77198888892596
30
2E-16
41
1
10
124.761252070844
20
-3.55541075707222
30
2E-16
41
1
10
125.780266123259
20
-3.9014948934626
30
-2E-16
41
1
10
127.817760297491
20
-4.47200630508141
30
-2E-16
41
1
10
128.836637623555
20
-4.69669203602194
30
-2E-16
41
1
10
130.874245361031
20
-5.00528621510838
30
1E-16
41
1
10
131.893155074794
20
-5.08909423764348
30
0
41
1
10
132.912062974057
20
-5.09898055795298
30
0
0
SPLINE
5
EA
100
AcDbEntity
8
1
62
256
6
ByLayer
370
18
48
1
60
0
100
AcDbSpline
70
4
71
3
72
12
73
8
40
0
40
0
40
0
40
0
40
0.500000000000004
40
0.500000000000004
40
0.750000000000002
40
0.750000000000002
40
1
40
1
40
1
40
1
41
1
10
84.0016406056994
20
4.89435171804845
30
0
41
1
10
84.0016406056994
20
4.87323479241331
30
0
41
1
10
84.0093597957946
20
4.85183871537077
30
0
41
1
10
84.0347015987178
20
4.82492726627794
30
0
41
1
10
84.0454694749193
20
4.81695174074437
30
0
41
1
10
84.0715439275266
20
4.80536239781463
30
0
41
1
10
84.0867357073321
20
4.80195071357298
30
0
41
1
10
84.1023805823401
20
4.80205853332438
30
0
0
SPLINE
5
EB
100
AcDbEntity
8
1
62
256
6
ByLayer
370
18
48
1
60
0
100
AcDbSpline
70
4
71
3
72
8
73
4
40
0
40
0
40
0
40
0
40
1
40
1
40
1
40
1
41
1
10
134.995296953426
20
0.281567710173618
30
0
41
1
10
134.97326782805
20
0.208142929071045
30
0
41
1
10
134.951128761635
20
0.134752232094968
30
0
41
1
10
134.928880163123
20
0.0613954924642428
30
0
0
SPLINE
5
EC
100
AcDbEntity
8
1
62
256
6
ByLayer
370
18
48
1
60
0
100
AcDbSpline
70
4
71
3
72
65
73
61
40
0
40
0
40
0
40
0
40
0.125000000000043
40
0.125000000000043
40
0.250000000000086
40
0.250000000000086
40
0.253906250000088
40
0.253906250000088
40
0.257812500000089
40
0.257812500000089
40
0.261718750000091
40
0.261718750000091
40
0.263671875000091
40
0.263671875000091
40
0.265625000000091
40
0.265625000000091
40
0.28125000000009
40
0.28125000000009
40
0.312500000000086
40
0.312500000000086
40
0.375000000000078
40
0.375000000000078
40
0.406250000000074
40
0.406250000000074
40
0.43750000000007
40
0.43750000000007
40
0.468750000000066
40
0.468750000000066
40
0.484375000000064
40
0.484375000000064
40
0.500000000000061
40
0.500000000000061
40
0.531250000000057
40
0.531250000000057
40
0.546875000000055
40
0.546875000000055
40
0.562500000000052
40
0.57812500000005
40
0.57812500000005
40
0.593750000000048
40
0.593750000000048
40
0.625000000000044
40
0.625000000000044
40
0.640625000000042
40
0.640625000000042
40
0.65625000000004
40
0.65625000000004
40
0.687500000000036
40
0.687500000000036
40
0.703125000000035
40
0.703125000000035
40
0.718750000000034
40
0.718750000000034
40
0.75000000000003
40
0.75000000000003
40
0.812500000000022
40
0.812500000000022
40
0.875000000000015
40
0.875000000000015
40
1
40
1
40
1
40
1
41
1
10
13.6681777975519
20
2.34129725944041
30
-1E-16
41
1
10
13.0877257741894
20
2.58979978491524
30
-2E-16
41
1
10
12.4995933425964
20
2.80945439374892
30
-2E-16
41
1
10
11.2998564567136
20
3.18666629643002
30
-2E-16
41
1
10
10.6888678918716
20
3.34404110088761
30
-2E-16
41
1
10
10.0493061716577
20
3.47567179752133
30
-2E-16
41
1
10
10.0299162384799
20
3.47963196931059
30
-2E-16
41
1
10
9.99111994015593
20
3.48749483514482
30
-2E-16
41
1
10
9.97188417220795
20
3.49191886042271
30
-2E-16
41
1
10
9.93219556302006
20
3.49725379769444
30
-2E-16
41
1
10
9.91184090241219
20
3.49768534558322
30
-2E-16
41
1
10
9.88218245765694
20
3.49407525693729
30
-2E-16
41
1
10
9.8725700077257
20
3.4919842642534
30
-2E-16
41
1
10
9.85411681620519
20
3.48591005077032
30
-2E-16
41
1
10
9.84555033293617
20
3.48192836678754
30
-2E-16
41
1
10
9.76697564779778
20
3.44825310658987
30
-2E-16
41
1
10
9.69747017839001
20
3.41754655546032
30
-2E-16
41
1
10
9.49013783220556
20
3.32297251864779
30
-2E-16
41
1
10
9.35352556659808
20
3.25667888982841
30
-2E-16
41
1
10
8.94926750821497
20
3.04636719476736
30
-2E-16
41
1
10
8.68839051402105
20
2.89179087901255
30
-2E-16
41
1
10
8.31758400583652
20
2.6307332705409
30
-2E-16
41
1
10
8.19732242154399
20
2.53874611825614
30
-2E-16
41
1
10
7.96507822988099
20
2.34231937637858
30
-1E-16
41
1
10
7.85270729742899
20
2.23751832708592
30
-1E-16
41
1
10
7.64040546092605
20
2.01326586762013
30
-1E-16
41
1
10
7.5414265265438
20
1.89490515389258
30
-1E-16
41
1
10
7.40651747436738
20
1.7054880057423
30
-1E-16
41
1
10
7.36382000711612
20
1.64035862317294
30
-1E-16
41
1
10
7.2836541901159
20
1.505504446853
30
-1E-16
41
1
10
7.24617462669076
20
1.4356649601138
30
-1E-16
41
1
10
7.14471544796243
20
1.22234300215865
30
-1E-16
41
1
10
7.09086576500232
20
1.07392902847315
30
-1E-16
41
1
10
7.035194518498
20
0.839968993908201
30
-1E-16
41
1
10
7.02087447772061
20
0.759746173591736
30
0
41
1
10
7.00201677086528
20
0.599983391055673
30
0
41
1
10
6.99260996427134
20
0.439845609827699
30
0
41
1
10
7.00196327047451
20
0.278959766426141
30
0
41
1
10
7.02071084476708
20
0.11769819650047
30
0
41
1
10
7.03492878182354
20
0.0364394285505796
30
0
41
1
10
7.09012512913344
20
-0.201746478415487
30
0
41
1
10
7.14354358861954
20
-0.354786286193729
30
0
41
1
10
7.24434124959535
20
-0.57719591194811
30
0
41
1
10
7.28125915969255
20
-0.649743301119031
30
0
41
1
10
7.35991274732672
20
-0.790220394986392
30
0
41
1
10
7.40178842200444
20
-0.85846012930952
30
1E-16
41
1
10
7.53407845218823
20
-1.05795898022461
30
1E-16
41
1
10
7.63110845481299
20
-1.18403490922012
30
1E-16
41
1
10
7.78722041955916
20
-1.36489048964111
30
1E-16
41
1
10
7.84115617100673
20
-1.42390496720162
30
1E-16
41
1
10
7.95110196277932
20
-1.53825476529673
30
1E-16
41
1
10
8.00721983685173
20
-1.59372837283732
30
1E-16
41
1
10
8.17859704732868
20
-1.75566885925912
30
1E-16
41
1
10
8.29686102033372
20
-1.85768393305059
30
1E-16
41
1
10
8.66136030959569
20
-2.14943644008818
30
1E-16
41
1
10
8.91718489841378
20
-2.32505929002389
30
1E-16
41
1
10
9.44744554851206
20
-2.64932790610786
30
2E-16
41
1
10
9.7196163136073
20
-2.79640492726415
30
2E-16
41
1
10
10.5482723466125
20
-3.2022296462975
30
2E-16
41
1
10
11.118646404463
20
-3.42729824302253
30
2E-16
41
1
10
11.7015037354695
20
-3.62277882896006
30
2E-16
0
SPLINE
5
ED
100
AcDbEntity
8
1
62
256
6
ByLayer
370
18
48
1
60
0
100
AcDbSpline
70
4
71
3
72
56
73
52
40
0
40
0
40
0
40
0
40
0.0137245831077527
40
0.0137245831077527
40
0.0371415521873987
40
0.0371415521873987
40
0.0839754903466907
40
0.0839754903466907
40
0.130809428505983
40
0.130809428505983
40
0.177643366665275
40
0.177643366665275
40
0.201060335744921
40
0.201060335744921
40
0.224477304824567
40
0.224477304824567
40
0.271311242983858
40
0.271311242983858
40
0.318145181143149
40
0.318145181143149
40
0.36497911930244
40
0.36497911930244
40
0.388396088382086
40
0.388396088382086
40
0.411813057461731
40
0.411813057461731
40
0.458646995621022
40
0.458646995621022
40
0.552314871939605
40
0.552314871939605
40
0.599148810098897
40
0.599148810098897
40
0.622565779178542
40
0.622565779178542
40
0.645982748258188
40
0.645982748258188
40
0.739650624576771
40
0.739650624576771
40
0.786484562736062
40
0.786484562736062
40
0.809901531815708
40
0.809901531815708
40
0.833318500895353
40
0.833318500895353
40
0.926986377213935
40
0.926986377213935
40
0.973820315373226
40
0.973820315373226
40
0.997237284452872
40
0.997237284452872
40
1
40
1
40
1
40
1
41
1
10
19.6509145240246
20
5.02905863859212
30
0
41
1
10
19.8370593847893
20
5.02915749644563
30
0
41
1
10
20.0233284739614
20
5.02683955258388
30
0
41
1
10
20.5261394333631
20
5.01404012005136
30
0
41
1
10
20.8421929401563
20
4.99897601185981
30
0
41
1
10
21.7882044142175
20
4.93320853056019
30
-1E-16
41
1
10
22.4162228808673
20
4.86199032475849
30
-1E-16
41
1
10
23.6707151559477
20
4.66761922089415
30
-1E-16
41
1
10
24.2969558554466
20
4.5442448233045
30
2E-16
41
1
10
25.5522113388647
20
4.24915731481613
30
2E-16
41
1
10
26.180862701774
20
4.07711824494106
30
2E-16
41
1
10
27.1283738174933
20
3.78503319564601
30
2E-16
41
1
10
27.4450764803468
20
3.68216711526742
30
2E-16
41
1
10
28.0804725199972
20
3.46562240708738
30
-2E-16
41
1
10
28.3976852269283
20
3.35241824853046
30
-2E-16
41
1
10
29.3458779338149
20
3.00032965698563
30
-2E-16
41
1
10
29.9748069394799
20
2.74895793158157
30
-2E-16
41
1
10
31.2299335363495
20
2.21994780229881
30
-1E-16
41
1
10
31.8559555674033
20
1.94195621079459
30
-1E-16
41
1
10
33.1096366034529
20
1.36818787860213
30
-1E-16
41
1
10
33.7369085669234
20
1.07165173842333
30
-1E-16
41
1
10
34.6815628987853
20
0.61850946048105
30
0
41
1
10
34.9971716092955
20
0.466292839669677
30
0
41
1
10
35.630061002873
20
0.159945799784481
30
0
41
1
10
35.9480395291962
20
0.0054784661583653
30
0
41
1
10
36.8994339910791
20
-0.456342377266566
30
0
41
1
10
37.5298940705443
20
-0.761250789627468
30
0
41
1
10
39.4152850467709
20
-1.6562179401362
30
1E-16
41
1
10
40.6643219151354
20
-2.22618828326105
30
1E-16
41
1
10
42.5492369104316
20
-2.99573566663105
30
2E-16
41
1
10
43.179642039815
20
-3.23768968051874
30
2E-16
41
1
10
44.1307130287506
20
-3.57430827059505
30
2E-16
41
1
10
44.4486381738738
20
-3.68201046527287
30
-2E-16
41
1
10
45.081480869635
20
-3.88555312370536
30
-2E-16
41
1
10
45.3970332787567
20
-3.98176278542732
30
-2E-16
41
1
10
46.9713724142863
20
-4.43416749996229
30
-2E-16
41
1
10
48.2205324543543
20
-4.70324024460365
30
1E-16
41
1
10
50.1022551227724
20
-4.94755322939756
30
1E-16
41
1
10
50.7309490516827
20
-5.0024824108668
30
0
41
1
10
51.6785637004162
20
-5.0432617746286
30
0
41
1
10
51.9955000610649
20
-5.04989493026076
30
0
41
1
10
52.6305810669404
20
-5.04897228290247
30
0
41
1
10
52.9470901854333
20
-5.04143954853345
30
0
41
1
10
54.525468088581
20
-4.96906526443246
30
1E-16
41
1
10
55.7754461502933
20
-4.79984399363218
30
1E-16
41
1
10
57.6550360836024
20
-4.39619464342917
30
-2E-16
41
1
10
58.2823851338348
20
-4.23682904779858
30
-2E-16
41
1
10
59.2271164279166
20
-3.96259304632233
30
-2E-16
41
1
10
59.5427007413824
20
-3.8653791492377
30
-2E-16
41
1
10
59.8966146339214
20
-3.75059689333907
30
-2E-16
41
1
10
59.9339839361224
20
-3.73840368577504
30
-2E-16
41
1
10
59.9713695382595
20
-3.72613234699202
30
-2E-16
0
SPLINE
5
EE
100
AcDbEntity
8
1
62
256
6
ByLayer
370
18
48
1
60
0
100
AcDbSpline
70
4
71
3
72
60
73
56
40
0
40
0
40
0
40
0
40
0.0109574244744763
40
0.0109574244744763
40
0.0576035413186467
40
0.0576035413186467
40
0.104249658162818
40
0.104249658162818
40
0.150895775006988
40
0.150895775006988
40
0.174218833429074
40
0.174218833429074
40
0.197541891851159
40
0.197541891851159
40
0.24418800869533
40
0.24418800869533
40
0.290834125539501
40
0.290834125539501
40
0.337480242383671
40
0.337480242383671
40
0.384126359227842
40
0.384126359227842
40
0.407449417649928
40
0.407449417649928
40
0.430772476072013
40
0.430772476072013
40
0.477418592916185
40
0.477418592916185
40
0.524064709760358
40
0.524064709760358
40
0.57071082660453
40
0.57071082660453
40
0.594033885026616
40
0.594033885026616
40
0.617356943448703
40
0.617356943448703
40
0.664003060292874
40
0.664003060292874
40
0.710649177137045
40
0.710649177137045
40
0.757295293981215
40
0.757295293981215
40
0.780618352403302
40
0.780618352403302
40
0.803941410825388
40
0.803941410825388
40
0.850587527669559
40
0.850587527669559
40
0.897233644513729
40
0.897233644513729
40
0.9438797613579
40
0.9438797613579
40
0.990525878202071
40
0.990525878202071
40
1
40
1
40
1
40
1
41
1
10
84.8957930163118
20
5.06983617703324
30
0
41
1
10
85.04475777276
20
5.0698761373373
30
0
41
1
10
85.1936362815202
20
5.06835663539098
30
0
41
1
10
85.9743964625178
20
5.05219593515815
30
0
41
1
10
86.6028551366883
20
5.01093290484692
30
0
41
1
10
87.8571132075924
20
4.87476560861779
30
-1E-16
41
1
10
88.4826329418596
20
4.77979817039073
30
-1E-16
41
1
10
89.7341439393649
20
4.53861404922668
30
2E-16
41
1
10
90.3605276836415
20
4.39277241195197
30
2E-16
41
1
10
91.3032135376699
20
4.13784388220557
30
2E-16
41
1
10
91.6179590179578
20
4.0468175787727
30
2E-16
41
1
10
92.2492508612191
20
3.85347731618936
30
2E-16
41
1
10
92.5661158068586
20
3.75104717909602
30
2E-16
41
1
10
93.5176650064843
20
3.42783818764227
30
-2E-16
41
1
10
94.1476655927797
20
3.19297936032459
30
-2E-16
41
1
10
95.4038596110115
20
2.69337669564857
30
-2E-16
41
1
10
96.0297500526064
20
2.42813201816645
30
-1E-16
41
1
10
97.2809332185606
20
1.87387947746854
30
-1E-16
41
1
10
97.906594844649
20
1.5855978350908
30
-1E-16
41
1
10
99.1609035326197
20
0.992191075722644
30
-1E-16
41
1
10
99.7898326757646
20
0.687619431463304
30
0
41
1
10
100.73884327851
20
0.22483544331314
30
0
41
1
10
101.056589356765
20
0.06925316089783
30
0
41
1
10
101.689067788448
20
-0.240369531017905
30
0
41
1
10
102.004388047963
20
-0.394588302487023
30
0
41
1
10
102.948484524631
20
-0.853655776893334
30
1E-16
41
1
10
103.575076178591
20
-1.15560220990949
30
1E-16
41
1
10
104.826616132284
20
-1.74329781421832
30
1E-16
41
1
10
105.451887252754
20
-2.02842154813575
30
1E-16
41
1
10
106.704279757915
20
-2.57563613868558
30
2E-16
41
1
10
107.331713972775
20
-2.83711868123197
30
2E-16
41
1
10
108.277580664503
20
-3.20568470737399
30
2E-16
41
1
10
108.593622400907
20
-3.32465480289954
30
2E-16
41
1
10
109.227741486304
20
-3.55381665057379
30
2E-16
41
1
10
109.544273486143
20
-3.66333390208399
30
-2E-16
41
1
10
110.49079114214
20
-3.97499008543883
30
-2E-16
41
1
10
111.118395743072
20
-4.16101250488629
30
-2E-16
41
1
10
112.370935643797
20
-4.48518417556423
30
-2E-16
41
1
10
112.996132189774
20
-4.62311285188437
30
-2E-16
41
1
10
114.247276516226
20
-4.84807759414556
30
1E-16
41
1
10
114.873560099121
20
-4.934812882301
30
1E-16
41
1
10
115.81681732113
20
-5.02411141884886
30
0
41
1
10
116.131846494014
20
-5.04708757247477
30
0
41
1
10
116.763654122592
20
-5.07905998708395
30
0
41
1
10
117.081195102184
20
-5.088033900146
30
0
41
1
10
118.030575480749
20
-5.09354987496823
30
0
41
1
10
118.659487818885
20
-5.06883539393309
30
0
41
1
10
119.913633716295
20
-4.96470776817361
30
1E-16
41
1
10
120.539050032973
20
-4.88543880846436
30
1E-16
41
1
10
121.789557868241
20
-4.67450763284489
30
-2E-16
41
1
10
122.41500249999
20
-4.54306555775196
30
-2E-16
41
1
10
123.66985030962
20
-4.23097569932253
30
-2E-16
41
1
10
124.299129637967
20
-4.0501258577566
30
-2E-16
41
1
10
125.061316036599
20
-3.80540721030729
30
-2E-16
41
1
10
125.190028901402
20
-3.76318704224778
30
-2E-16
41
1
10
125.318665158722
20
-3.72012963239189
30
-2E-16
0
SPLINE
5
EF
100
AcDbEntity
8
1
62
256
6
ByLayer
370
18
48
1
60
0
100
AcDbSpline
70
4
71
3
72
10
73
6
40
0
40
0
40
0
40
0
40
0.827375276003704
40
0.827375276003704
40
1
40
1
40
1
40
1
41
1
10
103.353410797905
20
-4.79027248483831
30
0
41
1
10
103.070752875662
20
-4.80823019131938
30
0
41
1
10
102.788335877908
20
-4.82085887729829
30
0
41
1
10
102.447096096538
20
-4.82965142478261
30
0
41
1
10
102.388192368807
20
-4.83093650814902
30
0
41
1
10
102.329289890413
20
-4.831988886999
30
0
0
SPLINE
5
F0
100
AcDbEntity
8
1
62
256
6
ByLayer
370
18
48
1
60
0
100
AcDbSpline
70
4
71
3
72
8
73
4
40
0
40
0
40
0
40
0
40
1
40
1
40
1
40
1
41
1
10
101.943887148104
20
-4.83555408742288
30
0
41
1
10
101.579782968478
20
-4.83578535913705
30
0
41
1
10
101.215606021536
20
-4.82712720954987
30
0
41
1
10
100.851014787479
20
-4.8095851180224
30
0
0
SPLINE
5
F1
100
AcDbEntity
8
1
62
256
6
ByLayer
370
18
48
1
60
0
100
AcDbSpline
70
4
71
3
72
26
73
22
40
0
40
0
40
0
40
0
40
0.0817382301001773
40
0.0817382301001773
40
0.183343895910532
40
0.183343895910532
40
0.284949561720887
40
0.284949561720887
40
0.386555227531241
40
0.386555227531241
40
0.437358060436421
40
0.437358060436421
40
0.4881608933416
40
0.4881608933416
40
0.691372224962314
40
0.691372224962314
40
0.894583556583027
40
0.894583556583027
40
0.996189222393387
40
0.996189222393387
40
1
40
1
40
1
40
1
41
1
10
100.683939398185
20
-4.8009262159637
30
0
41
1
10
100.274738248601
20
-4.77820067269701
30
0
41
1
10
99.864949959155
20
-4.74429348555057
30
0
41
1
10
98.9433706849129
20
-4.64317381148353
30
1E-16
41
1
10
98.4307309393937
20
-4.56980257110183
30
1E-16
41
1
10
97.4009621326076
20
-4.38939742248596
30
-2E-16
41
1
10
96.8873496914943
20
-4.28303664622331
30
-2E-16
41
1
10
95.8607436646018
20
-4.0399969693278
30
-2E-16
41
1
10
95.3477485840848
20
-3.90325652298228
30
-2E-16
41
1
10
94.5772072545942
20
-3.67720050423174
30
-2E-16
41
1
10
94.3201853996314
20
-3.59836387988187
30
2E-16
41
1
10
93.805547158453
20
-3.43412546847387
30
2E-16
41
1
10
93.5480225748075
20
-3.34874636716361
30
2E-16
41
1
10
92.2648161595714
20
-2.90842150879817
30
2E-16
41
1
10
91.2474810239133
20
-2.51130498096345
30
2E-16
41
1
10
89.2151908952885
20
-1.65940129168527
30
1E-16
41
1
10
88.2003590172745
20
-1.20422935222805
30
1E-16
41
1
10
86.6690660177217
20
-0.500807138488454
30
0
41
1
10
86.1570628016929
20
-0.263047621912477
30
0
41
1
10
85.6231423369448
20
-0.0152259548554241
30
0
41
1
10
85.6038404148737
20
-0.0062670662024402
30
0
41
1
10
85.5845376989751
20
0.0026918815404144
30
0
0
SPLINE
5
F2
100
AcDbEntity
8
1
62
256
6
ByLayer
370
18
48
1
60
0
100
AcDbSpline
70
4
71
3
72
8
73
4
40
0
40
0
40
0
40
0
40
1
40
1
40
1
40
1
41
1
10
84.1459925778302
20
5.05566225556248
30
0
41
1
10
84.1454197357137
20
4.97455271503841
30
0
41
1
10
84.1448387959676
20
4.89344247387254
30
0
41
1
10
84.1442497851543
20
4.81233149289764
30
0
0
SPLINE
5
F3
100
AcDbEntity
8
1
62
256
6
ByLayer
370
18
48
1
60
0
100
AcDbSpline
70
4
71
3
72
8
73
4
40
0
40
0
40
0
40
0
40
1
40
1
40
1
40
1
41
1
10
134.1447427459
20
-0.536239687026693
30
0
41
1
10
133.984149263282
20
-0.107553713448908
30
0
41
1
10
133.784332958228
20
0.346847439848858
30
0
41
1
10
133.546031841065
20
0.826479920175444
30
-1E-16
0
SPLINE
5
F4
100
AcDbEntity
8
1
62
256
6
ByLayer
370
18
48
1
60
0
100
AcDbSpline
70
4
71
3
72
34
73
30
40
0
40
0
40
0
40
0
40
0.056158600039552
40
0.056158600039552
40
0.128761784651895
40
0.128761784651895
40
0.201364969264239
40
0.201364969264239
40
0.273968153876582
40
0.273968153876582
40
0.41917452310127
40
0.41917452310127
40
0.455476115407439
40
0.455476115407439
40
0.491777707713608
40
0.491777707713608
40
0.56438089232595
40
0.56438089232595
40
0.600682484632121
40
0.600682484632121
40
0.636984076938292
40
0.636984076938292
40
0.709587261550633
40
0.709587261550633
40
0.782190446162975
40
0.782190446162975
40
0.854793630775316
40
0.854793630775316
40
1
40
1
40
1
40
1
41
1
10
105.084264331488
20
-4.84795794495935
30
1E-16
41
1
10
104.691037362427
20
-4.90545717407738
30
1E-16
41
1
10
104.29749000008
20
-4.95256468024556
30
1E-16
41
1
10
103.393300167409
20
-5.03602722687418
30
0
41
1
10
102.884454091436
20
-5.06504725507952
30
0
41
1
10
101.867858885143
20
-5.08647559064391
30
0
41
1
10
101.359853930766
20
-5.0789571617224
30
0
41
1
10
100.342484608909
20
-5.02757137819273
30
0
41
1
10
99.8323389504148
20
-4.98351559862067
30
1E-16
41
1
10
98.3049844139309
20
-4.79837909350093
30
1E-16
41
1
10
97.2905021041227
20
-4.60459156937929
30
-2E-16
41
1
10
96.0169143159704
20
-4.28241955737434
30
-2E-16
41
1
10
95.7617977499245
20
-4.21394250940094
30
-2E-16
41
1
10
95.252467167911
20
-4.06981078968121
30
-2E-16
41
1
10
94.9980559984111
20
-3.99410765282016
30
-2E-16
41
1
10
94.2352141750901
20
-3.75660884012848
30
-2E-16
41
1
10
93.7271821301804
20
-3.58440853333798
30
2E-16
41
1
10
92.9643385149423
20
-3.30758849595674
30
2E-16
41
1
10
92.709927915193
20
-3.21222591009024
30
2E-16
41
1
10
92.2006400271938
20
-3.01561449820414
30
2E-16
41
1
10
91.9455360016179
20
-2.91428139109596
30
2E-16
41
1
10
91.1812161572886
20
-2.60324143158974
30
2E-16
41
1
10
90.6727316839826
20
-2.38638890176273
30
1E-16
41
1
10
89.6560092115663
20
-1.9372176171091
30
1E-16
41
1
10
89.1477576107795
20
-1.70491830918738
30
1E-16
41
1
10
88.1293177746275
20
-1.22897479171723
30
1E-16
41
1
10
87.6189219505507
20
-0.985080333122852
30
1E-16
41
1
10
86.0926448141488
20
-0.247831425657722
30
0
41
1
10
85.0777239617803
20
0.251985590502272
30
0
41
1
10
84.0577723789619
20
0.744395471819075
30
0
0
SPLINE
5
F5
100
AcDbEntity
8
1
62
256
6
ByLayer
370
18
48
1
60
0
100
AcDbSpline
70
4
71
3
72
10
73
6
40
0
40
0
40
0
40
0
40
0.5
40
0.5
40
1
40
1
40
1
40
1
41
1
10
84.0016406056994
20
5.04819414111984
30
0
41
1
10
84.0016406056994
20
5.05130752736576
30
0
41
1
10
84.0198862268238
20
5.053898148022
30
0
41
1
10
84.0779097141502
20
5.05661504271993
30
0
41
1
10
84.1153706966066
20
5.05675700171264
30
0
41
1
10
84.1459925778302
20
5.05566225556251
30
0
0
SPLINE
5
F6
100
AcDbEntity
8
1
62
256
6
ByLayer
370
18
48
1
60
0
100
AcDbSpline
70
4
71
3
72
16
73
12
40
0
40
0
40
0
40
0
40
0.226094180006631
40
0.226094180006631
40
0.454440986751177
40
0.454440986751177
40
0.651793021627555
40
0.651793021627555
40
0.826251650177637
40
0.826251650177637
40
1
40
1
40
1
40
1
41
1
10
133.182122278208
20
-4.80076458160079
30
0
41
1
10
133.182201911343
20
-4.80092989397841
30
0
41
1
10
133.182225609136
20
-4.80127414770499
30
0
41
1
10
133.18213592979
20
-4.80233191746851
30
0
41
1
10
133.182018549951
20
-4.80306941890575
30
0
41
1
10
133.181666722269
20
-4.80473525569525
30
0
41
1
10
133.181444358676
20
-4.8056504322897
30
0
41
1
10
133.180952541897
20
-4.80747433937947
30
0
41
1
10
133.180685207724
20
-4.80839517385979
30
0
41
1
10
133.180125836254
20
-4.81020753740216
30
0
41
1
10
133.179827322705
20
-4.81112099832725
30
0
41
1
10
133.179530863991
20
-4.81198405584291
30
0
0
SPLINE
5
F7
100
AcDbEntity
8
1
62
256
6
ByLayer
370
18
48
1
60
0
100
AcDbSpline
70
4
71
3
72
24
73
20
40
0
40
0
40
0
40
0
40
0.051313631802396
40
0.051313631802396
40
0.102627263604792
40
0.102627263604792
40
0.205254527209585
40
0.205254527209585
40
0.410509054419166
40
0.410509054419166
40
0.513136318023956
40
0.513136318023956
40
0.564449949826349
40
0.564449949826349
40
0.615763581628743
40
0.615763581628743
40
0.82101810883831
40
0.82101810883831
40
1
40
1
40
1
40
1
41
1
10
133.179530863991
20
-4.81198405584294
30
0
41
1
10
132.922687390986
20
-4.79557632326723
30
0
41
1
10
132.666330676187
20
-4.77557873422052
30
0
41
1
10
132.154686123526
20
-4.72615931189648
30
1E-16
41
1
10
131.899342934712
20
-4.69714521578709
30
1E-16
41
1
10
131.134384270774
20
-4.59756187179724
30
1E-16
41
1
10
130.62583802301
20
-4.51445205555896
30
1E-16
41
1
10
129.101721575345
20
-4.21813450921701
30
-2E-16
41
1
10
128.087641150254
20
-3.95786613126634
30
-2E-16
41
1
10
126.557970210501
20
-3.4854048230726
30
2E-16
41
1
10
126.046675095646
20
-3.31441425523883
30
2E-16
41
1
10
125.276075083111
20
-3.03952604332196
30
2E-16
41
1
10
125.018515280646
20
-2.94475601935801
30
2E-16
41
1
10
124.505473794167
20
-2.75076696875379
30
2E-16
41
1
10
124.24955211323
20
-2.65139688510851
30
2E-16
41
1
10
122.972315082062
20
-2.14396502902415
30
1E-16
41
1
10
121.95802297043
20
-1.70435651819437
30
1E-16
41
1
10
120.059093633681
20
-0.848058919675083
30
1E-16
41
1
10
119.174476752234
20
-0.43571356543066
30
0
41
1
10
118.284689455617
20
-0.0208605528889052
30
0
0
SPLINE
5
F8
100
AcDbEntity
8
1
62
256
6
ByLayer
370
18
48
1
60
0
100
AcDbSpline
70
4
71
3
72
34
73
30
40
0
40
0
40
0
40
0
40
0.331477928367246
40
0.331477928367246
40
0.556485319442579
40
0.556485319442579
40
0.705952928765374
40
0.705952928765374
40
0.805223329667603
40
0.805223329667603
40
0.871160402971673
40
0.871160402971673
40
0.914968274416197
40
0.914968274416197
40
0.944084658156555
40
0.944084658156555
40
0.963442874715529
40
0.963442874715529
40
0.976324592357993
40
0.976324592357993
40
0.984914428813679
40
0.984914428813679
40
0.990646789897147
40
0.990646789897147
40
0.994530371265654
40
0.994530371265654
40
0.998226400606328
40
0.998226400606328
40
1
40
1
40
1
40
1
41
1
10
132.912062974056
20
-5.09898055793951
30
0
41
1
10
132.945977158493
20
-5.07678045684008
30
0
41
1
10
132.979931209433
20
-5.05445052690902
30
0
41
1
10
133.036981753494
20
-5.01676382039335
30
0
41
1
10
133.060062106548
20
-5.0014714837753
30
0
41
1
10
133.098485360395
20
-4.97593881346944
30
0
41
1
10
133.113824041076
20
-4.96572633704437
30
0
41
1
10
133.139354283614
20
-4.948695607318
30
0
41
1
10
133.149545497068
20
-4.94188851658538
30
0
41
1
10
133.166517549251
20
-4.93053763039009
30
0
41
1
10
133.173294494987
20
-4.92600134823783
30
0
41
1
10
133.18458139773
20
-4.91843984629071
30
0
41
1
10
133.189088872799
20
-4.91541843349191
30
0
41
1
10
133.196596106266
20
-4.91038345850336
30
0
41
1
10
133.199594555096
20
-4.90837170970772
30
0
41
1
10
133.204588454215
20
-4.90501993362898
30
0
41
1
10
133.206583953289
20
-4.90368027238341
30
0
41
1
10
133.209904170481
20
-4.90145079751312
30
0
41
1
10
133.211229768218
20
-4.9005605550856
30
0
41
1
10
133.213435031646
20
-4.89907936732641
30
0
41
1
10
133.214316127407
20
-4.89848752183008
30
0
41
1
10
133.215782386092
20
-4.89750253819011
30
0
41
1
10
133.216369957471
20
-4.89710779250964
30
0
41
1
10
133.217341196525
20
-4.89645539639659
30
0
41
1
10
133.217730058314
20
-4.89619422089527
30
0
41
1
10
133.218464099008
20
-4.89570139749458
30
0
41
1
10
133.218815711514
20
-4.89546540771013
30
0
41
1
10
133.219272306227
20
-4.8951593721045
30
0
41
1
10
133.219411783023
20
-4.89506596381383
30
0
41
1
10
133.219523383095
20
-4.8949913999154
30
0
0
SPLINE
5
F9
100
AcDbEntity
8
1
62
256
6
ByLayer
370
18
48
1
60
0
100
AcDbSpline
70
4
71
3
72
10
73
6
40
0
40
0
40
0
40
0
40
0.5
40
0.5
40
1
40
1
40
1
40
1
41
1
10
132.472121189153
20
-0.0530413829427516
30
0
41
1
10
132.465718055061
20
0.0665190164436922
30
0
41
1
10
132.461297883353
20
0.187454781571177
30
0
41
1
10
132.457398899553
20
0.42738711749962
30
0
41
1
10
132.457894286384
20
0.546303920339199
30
0
41
1
10
132.461108540744
20
0.664176711539369
30
0
0
SPLINE
5
FA
100
AcDbEntity
8
SK1
62
256
6
ByLayer
370
18
48
1
60
0
100
AcDbSpline
70
4
71
3
72
10
73
6
40
0
40
0
40
0
40
0
40
0.5
40
0.5
40
1
40
1
40
1
40
1
41
1
10
-45.0000000000001
20
3.89831294207738
30
0
41
1
10
-44.892418923189
20
3.94608633880759
30
0
41
1
10
-44.7890116623726
20
3.98112198759279
30
2E-16
41
1
10
-44.5927829535177
20
4.01765758956029
30
2E-16
41
1
10
-44.4993017440334
20
4.01896349259977
30
2E-16
41
1
10
-44.4179491924311
20
3.99528471164672
30
2E-16
0
SPLINE
5
FB
100
AcDbEntity
8
SK1
62
256
6
ByLayer
370
18
48
1
60
0
100
AcDbSpline
70
4
71
3
72
8
73
4
40
0
40
0
40
0
40
0
40
1
40
1
40
1
40
1
41
1
10
-44.4179491924311
20
2.55070812431578
30
-2E-16
41
1
10
-44.3619874612501
20
2.5902653929582
30
-2E-16
41
1
10
-44.306003666374
20
2.62980764310447
30
-2E-16
41
1
10
-44.25
20
2.66933636695723
30
-2E-16
0
SPLINE
5
FC
100
AcDbEntity
8
SK1
62
256
6
ByLayer
370
18
48
1
60
0
100
AcDbSpline
70
4
71
3
72
12
73
8
40
0
40
0
40
0
40
0
40
0.499999999999997
40
0.499999999999997
40
0.749999999999998
40
0.749999999999998
40
1
40
1
40
1
40
1
41
1
10
-44.25
20
2.6693363669572
30
-2E-16
41
1
10
-44.2265754814923
20
2.68586995097815
30
-2E-16
41
1
10
-44.2038494963526
20
2.70874936941033
30
-2E-16
41
1
10
-44.1756806214309
20
2.74923532210101
30
-2E-16
41
1
10
-44.1670810890644
20
2.76415190263285
30
-2E-16
41
1
10
-44.1542487488419
20
2.79494036576742
30
-2E-16
41
1
10
-44.15
20
2.8112037238235
30
-2E-16
41
1
10
-44.15
20
2.82521832073718
30
-2E-16
0
SPLINE
5
FD
100
AcDbEntity
8
SK1
62
256
6
ByLayer
370
18
48
1
60
0
100
AcDbSpline
70
4
71
3
72
12
73
8
40
0
40
0
40
0
40
0
40
0.25
40
0.25
40
0.5
40
0.5
40
1
40
1
40
1
40
1
41
1
10
-44.4179491924311
20
2.55070812431578
30
-2E-16
41
1
10
-44.4585118025587
20
2.46102353347163
30
-2E-16
41
1
10
-44.5017617157541
20
2.37249279695655
30
-1E-16
41
1
10
-44.5926945369118
20
2.19733652189703
30
-1E-16
41
1
10
-44.6405857309337
20
2.11037342871379
30
-1E-16
41
1
10
-44.7885787506849
20
1.85460358555685
30
-1E-16
41
1
10
-44.8923167485562
20
1.69168678432794
30
-1E-16
41
1
10
-45.0000000000001
20
1.53454242426687
30
-1E-16
0
SPLINE
5
FE
100
AcDbEntity
8
SK1
62
256
6
ByLayer
370
18
48
1
60
0
100
AcDbSpline
70
4
71
3
72
12
73
8
40
0
40
0
40
0
40
0
40
0.25
40
0.25
40
0.5
40
0.5
40
1
40
1
40
1
40
1
41
1
10
-44.15
20
4.12533724933502
30
2E-16
41
1
10
-44.15
20
4.13526624914718
30
2E-16
41
1
10
-44.1541964903379
20
4.14150398156087
30
2E-16
41
1
10
-44.1670510016405
20
4.1476140761996
30
2E-16
41
1
10
-44.1755314964661
20
4.14765940599338
30
2E-16
41
1
10
-44.2039103264456
20
4.14190138183969
30
2E-16
41
1
10
-44.2265803533262
20
4.13044309965255
30
2E-16
41
1
10
-44.25
20
4.1139129542882
30
2E-16
0
SPLINE
5
FF
100
AcDbEntity
8
SK1
62
256
6
ByLayer
370
18
48
1
60
0
100
AcDbSpline
70
4
71
3
72
8
73
4
40
0
40
0
40
0
40
0
40
1
40
1
40
1
40
1
41
1
10
-44.25
20
4.11391295428817
30
2E-16
41
1
10
-44.3060037937513
20
4.07438414052948
30
2E-16
41
1
10
-44.3619875930459
20
4.03484188712756
30
2E-16
41
1
10
-44.4179491924311
20
3.99528471164672
30
2E-16
0
SPLINE
5
100
100
AcDbEntity
8
1
62
256
6
ByLayer
370
18
48
1
60
0
100
AcDbSpline
70
4
71
3
72
10
73
6
40
0
40
0
40
0
40
0
40
0.0860039426597489
40
0.596518156545437
40
1
40
1
40
1
40
1
41
1
10
120.6319031623
20
-1.81396545653661
30
1E-16
41
1
10
120.552321428539
20
-1.77971618503324
30
1E-16
41
1
10
120.000508000364
20
-1.54061030425834
30
1E-16
41
1
10
119.077217515608
20
-1.11207819705973
30
1E-16
41
1
10
118.236116074905
20
-0.710815504713878
30
0
41
1
10
117.865334126288
20
-0.529771370807282
30
0
0
SPLINE
5
101
100
AcDbEntity
8
1
62
256
6
ByLayer
370
18
48
1
60
0
100
AcDbSpline
70
4
71
3
72
16
73
12
40
0
40
0
40
0
40
0
40
0.0845818680877691
40
0.206572754705604
40
0.322155452022331
40
0.414313395737898
40
0.477667764309306
40
0.543059289268519
40
0.653781657344773
40
0.813931616199702
40
1
40
1
40
1
40
1
41
1
10
133.536617619128
20
0.829920646944487
30
-1E-16
41
1
10
133.356594810768
20
0.883877126106967
30
-1E-16
41
1
10
132.917449632612
20
1.01734193291296
30
-1E-16
41
1
10
132.234674902164
20
1.23233901811983
30
-1E-16
41
1
10
131.537985093904
20
1.45910942594938
30
-1E-16
41
1
10
130.966855418361
20
1.65059912684154
30
-1E-16
41
1
10
130.502529240215
20
1.80963284879559
30
-1E-16
41
1
10
130.000100771353
20
1.98472835829185
30
-1E-16
41
1
10
129.296489542234
20
2.23577538090015
30
-1E-16
41
1
10
128.344217046305
20
2.58725839143256
30
-2E-16
41
1
10
127.627017644704
20
2.86465492658797
30
-2E-16
41
1
10
127.24276726976
20
3.01683976208537
30
-2E-16
0
SPLINE
5
102
100
AcDbEntity
8
1
62
256
6
ByLayer
370
18
48
1
60
0
100
AcDbSpline
70
4
71
3
72
30
73
26
40
0
40
0
40
0
40
0
40
1.454612527E-06
40
3.88256763804E-05
40
5.13057298338E-05
40
6.09307044533E-05
40
6.89366929561E-05
40
9.6426173451E-05
40
0.0001176283824042
40
0.0001525200185849
40
0.000215133711285
40
0.0003279549398097
40
0.0005326767506481
40
0.0009088008666225
40
0.0016149674710287
40
0.01369204698487
40
0.0444222802456318
40
0.0953141423988543
40
0.336258712699503
40
0.571632820430663
40
0.64561906449064
40
0.718277560642372
40
0.7892522438334
40
0.887922047581604
40
1
40
1
40
1
40
1
41
1
10
70.8486373746251
20
0.0922192307654655
30
0
41
1
10
70.8486390301896
20
0.0922188546255427
30
0
41
1
10
70.8486821491865
20
0.0922091003227479
30
0
41
1
10
70.8487002066099
20
0.0922065816982638
30
0
41
1
10
70.8486861963671
20
0.0922126751591463
30
0
41
1
10
70.8486557620968
20
0.0922217849783635
30
0
41
1
10
70.8485675434884
20
0.0922462427410835
30
0
41
1
10
70.8483819567311
20
0.0922948473874783
30
0
41
1
10
70.848133967672
20
0.092360008662979
30
0
41
1
10
70.8478464632019
20
0.0924380088927137
30
0
41
1
10
70.8472986119144
20
0.0925848489804935
30
0
41
1
10
70.8463263587007
20
0.0928462676079391
30
0
41
1
10
70.84452268914
20
0.0933300459098234
30
0
41
1
10
70.8411392983358
20
0.0942363036699589
30
0
41
1
10
70.8056790851622
20
0.103702885096567
30
0
41
1
10
70.6741919012286
20
0.138384276341071
30
0
41
1
10
70.3974797529859
20
0.212323137977734
30
0
41
1
10
69.4345118246491
20
0.474343975755915
30
0
41
1
10
67.8739298338456
20
0.928576023981293
30
-1E-16
41
1
10
66.2559016129744
20
1.4490976211498
30
-1E-16
41
1
10
65.1400411556764
20
1.830438800948
30
-1E-16
41
1
10
64.5062090369746
20
2.05304984172776
30
-1E-16
41
1
10
63.802642896618
20
2.30681860542165
30
-1E-16
41
1
10
62.9872966927773
20
2.60935960538018
30
-2E-16
41
1
10
62.3807075685733
20
2.84440236866129
30
-2E-16
41
1
10
62.0589860828871
20
2.97170824203977
30
-2E-16
0
SPLINE
5
103
100
AcDbEntity
8
1
62
256
6
ByLayer
370
18
48
1
60
0
100
AcDbSpline
70
4
71
3
72
22
73
18
40
0
40
0
40
0
40
0
40
0.110891990050249
40
0.199254185780394
40
0.263104665790282
40
0.311963473740988
40
0.363622509601678
40
0.428490562731065
40
0.508718396540324
40
0.582619712161754
40
0.645022888546562
40
0.70055039189843
40
0.767613796049698
40
0.850281994986183
40
0.911433844683738
40
0.978204806065555
40
1
40
1
40
1
40
1
41
1
10
101.913579570071
20
-4.82557244694155
30
0
41
1
10
102.317844410828
20
-4.82528431354214
30
0
41
1
10
103.044461698864
20
-4.82514552437149
30
0
41
1
10
104.004791583129
20
-4.82749820227284
30
0
41
1
10
104.73855472062
20
-4.82766620131287
30
0
41
1
10
105.33926653144
20
-4.8276582820491
30
0
41
1
10
105.943489905749
20
-4.82779028673173
30
0
41
1
10
106.662384972798
20
-4.82866322953825
30
0
41
1
10
107.462526897361
20
-4.82943691263759
30
0
41
1
10
108.253665830852
20
-4.82890770226186
30
0
41
1
10
108.954559802766
20
-4.82936131029947
30
0
41
1
10
109.630466947918
20
-4.83083693447173
30
0
41
1
10
110.380419175282
20
-4.83134589675089
30
0
41
1
10
111.150919685452
20
-4.83015815412392
30
0
41
1
10
111.920356514547
20
-4.83027229607126
30
0
41
1
10
112.467361874756
20
-4.83110311231459
30
0
41
1
10
112.790971986566
20
-4.83153365751437
30
0
41
1
10
112.870608723809
20
-4.83163952464037
30
0
0
SPLINE
5
104
100
AcDbEntity
8
1
62
256
6
ByLayer
370
18
48
1
60
0
100
AcDbSpline
70
4
71
3
72
21
73
17
40
0
40
0
40
0
40
0
40
0.0869248036198623
40
0.150863246633006
40
0.192255247999087
40
0.228377978598025
40
0.326692783454389
40
0.399223448181889
40
0.487698967266925
40
0.577399270362169
40
0.644363035307582
40
0.725887571635578
40
0.825623983636537
40
0.915547679496266
40
0.981270070136208
40
1
40
1
40
1
40
1
41
1
10
116.036142976928
20
4.83193620852518
30
0
41
1
10
115.718841850091
20
4.83213608691247
30
0
41
1
10
115.168145083797
20
4.83246273420511
30
0
41
1
10
114.466348025856
20
4.83334674703627
30
0
41
1
10
113.949998453097
20
4.83335292181118
30
0
41
1
10
113.308317144242
20
4.83213760117411
30
0
41
1
10
112.552697707408
20
4.83137546117183
30
0
41
1
10
111.606085436028
20
4.82976589536068
30
0
41
1
10
110.690888137202
20
4.83100465665154
30
0
41
1
10
109.796019686229
20
4.83123500660722
30
0
41
1
10
108.926528404968
20
4.82921008363766
30
0
41
1
10
108.020394978275
20
4.82898224753285
30
0
41
1
10
107.030461516513
20
4.82941356972833
30
0
41
1
10
106.098172521579
20
4.82780065111928
30
0
41
1
10
105.461682952848
20
4.82767933109031
30
0
41
1
10
105.153332355761
20
4.82766745292068
30
0
41
1
10
105.084950944855
20
4.8276648178645
30
0
0
SPLINE
5
105
100
AcDbEntity
8
1
62
256
6
ByLayer
370
18
48
1
60
0
100
AcDbSpline
70
4
71
3
72
31
73
27
40
0
40
0
40
0
40
0
40
1.50985247897E-05
40
3.24338803536E-05
40
4.67485847388E-05
40
5.91665056833E-05
40
7.07529398179E-05
40
9.40875681172E-05
40
0.0002425097773663
40
0.0003556311395365
40
0.0005590275421539
40
0.0009266838209002
40
0.0015974162755739
40
0.0028405421150213
40
0.0052056416876165
40
0.009894464293922
40
0.019761147427131
40
0.0421777443714834
40
0.207235765849953
40
0.362031025779608
40
0.534831074267486
40
0.603976534656192
40
0.666970598766978
40
0.750020045819609
40
0.873415093770928
40
1
40
1
40
1
40
1
41
1
10
38.0747739731935
20
0.124894777043409
30
0
41
1
10
38.0747789837155
20
0.124895528083158
30
0
41
1
10
38.074777942994
20
0.124900855288388
30
0
41
1
10
38.074751841496
20
0.124908311588399
30
0
41
1
10
38.074703413742
20
0.124923934868093
30
0
41
1
10
38.0746349012647
20
0.124943988150392
30
0
41
1
10
38.0745229027835
20
0.124975191860187
30
0
41
1
10
38.0739913610628
20
0.125116436798322
30
0
41
1
10
38.0731681446072
20
0.125333389943165
30
0
41
1
10
38.0718749943696
20
0.125680219745902
30
0
41
1
10
38.0699535168006
20
0.126193377751548
30
0
41
1
10
38.0664728138848
20
0.127124086459702
30
0
41
1
10
38.0600585873101
20
0.128837839774576
30
0
41
1
10
38.047994534656
20
0.132060204320481
30
0
41
1
10
38.0244819057984
20
0.138336933184519
30
0
41
1
10
37.9761925830609
20
0.151225868140472
30
0
41
1
10
37.8697825091029
20
0.179669858212805
30
0
41
1
10
37.2967507564933
20
0.333792744005336
30
0
41
1
10
36.2987024527767
20
0.613856004905983
30
0
41
1
10
34.8738308864291
20
1.04257688648846
30
-1E-16
41
1
10
33.7319730101742
20
1.40973197138203
30
-1E-16
41
1
10
32.8585077039858
20
1.70399637362687
30
-1E-16
41
1
10
32.2435600871265
20
1.91630013591018
30
-1E-16
41
1
10
31.4758564544263
20
2.18861427378573
30
-1E-16
41
1
10
30.5307790378459
20
2.53544264247057
30
-2E-16
41
1
10
29.8260126823278
20
2.80769220725628
30
-2E-16
41
1
10
29.470221849808
20
2.94838808421392
30
-2E-16
0
SPLINE
5
106
100
AcDbEntity
8
1
62
256
6
ByLayer
370
18
48
1
60
0
100
AcDbSpline
70
4
71
3
72
35
73
31
40
0
40
0
40
0
40
0
40
4.2094079277E-06
40
3.05873514402E-05
40
5.44009968927E-05
40
7.40168658783E-05
40
9.07818867817E-05
40
0.0001066180406493
40
0.0001826832163059
40
0.000239119258447
40
0.0003385420909143
40
0.0005178766622491
40
0.0008438395369029
40
0.0014441777322626
40
0.0025745127256867
40
0.0047792185491481
40
0.0093115502433312
40
0.0193087291609802
40
0.0429465642672722
40
0.122804613880374
40
0.216107404276886
40
0.303036457513529
40
0.388046070860774
40
0.473059538982669
40
0.543902922450985
40
0.613297887818149
40
0.677294568223894
40
0.749084095246993
40
0.863522050136457
40
1
40
1
40
1
40
1
41
1
10
103.509651651106
20
0.089314203528005
30
0
41
1
10
103.509657769681
20
0.0893127544366052
30
0
41
1
10
103.509700728605
20
0.0893026296052426
30
0
41
1
10
103.509756649949
20
0.0892901437966032
30
0
41
1
10
103.509720924612
20
0.0893022972238384
30
0
41
1
10
103.509653862001
20
0.0893220782002402
30
0
41
1
10
103.509551045616
20
0.0893505892127848
30
0
41
1
10
103.509265489841
20
0.0894275657431649
30
0
41
1
10
103.508784747337
20
0.089552674197904
30
0
41
1
10
103.508107222572
20
0.0897323593780754
30
0
41
1
10
103.507123164376
20
0.0899931818139237
30
0
41
1
10
103.505349739503
20
0.090463270410595
30
0
41
1
10
103.502102747849
20
0.0913237798123703
30
0
41
1
10
103.496055187304
20
0.0929261462910347
30
0
41
1
10
103.48445517756
20
0.0959986547190681
30
0
41
1
10
103.461183999982
20
0.10216049476881
30
0
41
1
10
103.41145427005
20
0.11532936941822
30
0
41
1
10
103.297448674149
20
0.14557562184342
30
0
41
1
10
102.956967695789
20
0.236547468008467
30
0
41
1
10
102.366209598938
20
0.398301228673148
30
0
41
1
10
101.586751947607
20
0.620493768416111
30
0
41
1
10
100.794612810054
20
0.855583254330128
30
-1E-16
41
1
10
100.029541840672
20
1.09119959639571
30
-1E-16
41
1
10
99.3146589487768
20
1.31928305486002
30
-1E-16
41
1
10
98.6481189372484
20
1.53872598762945
30
-1E-16
41
1
10
98.0454335664239
20
1.74267187111553
30
-1E-16
41
1
10
97.4415773534303
20
1.95226698204559
30
-1E-16
41
1
10
96.7071946193279
20
2.21376456491131
30
-1E-16
41
1
10
95.7634931939053
20
2.56087538057426
30
-2E-16
41
1
10
95.0342168542643
20
2.84257475624631
30
-2E-16
41
1
10
94.6387920918882
20
2.99915328942501
30
-2E-16
0
SPLINE
5
107
100
AcDbEntity
8
1
62
256
6
ByLayer
370
18
48
1
60
0
100
AcDbSpline
70
4
71
2
72
6
73
3
40
0
40
0
40
0
40
1
40
1
40
1
41
1
10
85.5753170009571
20
0.0069715539680999
30
0
41
1
10
85.5753010862332
20
0.006978858642583
30
0
41
1
10
85.5752851715298
20
0.0069865505747657
30
0
0
LINE
5
84
100
AcDbEntity
8
1
62
256
6
ByLayer
370
18
48
1
60
0
100
AcDbLine
10
0.737977
20
5.508853
30
0
11
0.737977
21
0
31
0
39
0
210
0
220
0
230
1
0
LINE
5
85
100
AcDbEntity
8
1
62
256
6
ByLayer
370
18
48
1
60
0
100
AcDbLine
10
0.737977
20
0
30
0
11
0.737977
21
-5.508853
31
0
39
0
210
0
220
0
230
1
0
LINE
5
86
100
AcDbEntity
8
1
62
256
6
ByLayer
370
18
48
1
60
0
100
AcDbLine
10
84.001641
20
0.833164
30
0
11
84.001641
21
5.048194
31
0
39
0
210
0
220
0
230
1
0
LINE
5
87
100
AcDbEntity
8
1
62
256
6
ByLayer
370
18
48
1
60
0
100
AcDbLine
10
1.476453
20
5.017707
30
0
11
1.476453
21
0
31
0
39
0
210
0
220
0
230
1
0
LINE
5
88
100
AcDbEntity
8
1
62
256
6
ByLayer
370
18
48
1
60
0
100
AcDbLine
10
1.476453
20
0
30
0
11
1.476453
21
-5.017707
31
0
39
0
210
0
220
0
230
1
0
LINE
5
89
100
AcDbEntity
8
1
62
256
6
ByLayer
370
18
48
1
60
0
100
AcDbLine
10
0
20
6
30
0
11
0
21
0
31
0
39
0
210
0
220
0
230
1
0
LINE
5
8A
100
AcDbEntity
8
1
62
256
6
ByLayer
370
18
48
1
60
0
100
AcDbLine
10
0
20
0
30
0
11
0
21
-6
31
0
39
0
210
0
220
0
230
1
0
LINE
5
8B
100
AcDbEntity
8
1
62
256
6
ByLayer
370
18
48
1
60
0
100
AcDbLine
10
134.92888
20
0.061395
30
0
11
133.696262
21
1.421992
31
0
39
0
210
0
220
0
230
1
0
LINE
5
8C
100
AcDbEntity
8
1
62
256
6
ByLayer
370
18
48
1
60
0
100
AcDbLine
10
84
20
0.06085
30
0
11
84
21
-0.011989
31
0
39
0
210
0
220
0
230
1
0
LINE
5
8D
100
AcDbEntity
8
SK1
62
256
6
ByLayer
370
18
48
1
60
0
100
AcDbLine
10
-45
20
-4.255
30
0
11
-45
21
1.534542
31
0
39
0
210
0
220
0
230
1
0
LINE
5
8F
100
AcDbEntity
8
SK1
62
256
6
ByLayer
370
18
48
1
60
0
100
AcDbLine
10
-45
20
1.534512
30
0
11
-45
21
3.898313
31
0
39
0
210
0
220
0
230
1
0
LINE
5
90
100
AcDbEntity
8
SK1
62
256
6
ByLayer
370
18
48
1
60
0
100
AcDbLine
10
-44.417949
20
2.550666
30
0
11
-44.417949
21
3.995285
31
0
39
0
210
0
220
0
230
1
0
LINE
5
91
100
AcDbEntity
8
SK1
62
256
6
ByLayer
370
18
48
1
60
0
100
AcDbLine
10
-44.25
20
2.669293
30
0
11
-44.25
21
4.113913
31
0
39
0
210
0
220
0
230
1
0
LINE
5
92
100
AcDbEntity
8
SK1
62
256
6
ByLayer
370
18
48
1
60
0
100
AcDbLine
10
0
20
6
30
0
11
0
21
-6
31
0
39
0
210
0
220
0
230
1
0
LINE
5
93
100
AcDbEntity
8
SK1
62
256
6
ByLayer
370
18
48
1
60
0
100
AcDbLine
10
-43.255
20
-6
30
0
11
-43.255
21
6
31
0
39
0
210
0
220
0
230
1
0
LINE
5
94
100
AcDbEntity
8
SK1
62
256
6
ByLayer
370
18
48
1
60
0
100
AcDbLine
10
-44.15
20
2.825218
30
0
11
-44.15
21
4.125337
31
0
39
0
210
0
220
0
230
1
0
LINE
5
95
100
AcDbEntity
8
SK1
62
256
6
ByLayer
370
18
48
1
60
0
100
AcDbLine
10
-45
20
3.898313
30
0
11
-45
21
4.255
31
0
39
0
210
0
220
0
230
1
0
LINE
5
96
100
AcDbEntity
8
SK1
62
256
6
ByLayer
370
18
48
1
60
0
100
AcDbLine
10
-45
20
-4.255
30
0
11
-43.255
21
-6
31
0
39
0
210
0
220
0
230
1
0
LINE
5
97
100
AcDbEntity
8
SK1
62
256
6
ByLayer
370
18
48
1
60
0
100
AcDbLine
10
-43.255
20
6
30
0
11
-45
21
4.255
31
0
39
0
210
0
220
0
230
1
0
LINE
5
98
100
AcDbEntity
8
SK1
62
256
6
ByLayer
370
18
48
1
60
0
100
AcDbLine
10
-43.255
20
-6
30
0
11
0
21
-6
31
0
39
0
210
0
220
0
230
1
0
LINE
5
99
100
AcDbEntity
8
SK1
62
256
6
ByLayer
370
18
48
1
60
0
100
AcDbLine
10
0
20
6
30
0
11
-43.255
21
6
31
0
39
0
210
0
220
0
230
1
0
LINE
5
9A
100
AcDbEntity
8
1
62
256
6
ByLayer
370
18
48
1
60
0
100
AcDbLine
10
1.476453
20
-5.017707
30
0
11
19.649461
21
-5.029065
31
0
39
0
210
0
220
0
230
1
0
LINE
5
9B
100
AcDbEntity
8
1
62
256
6
ByLayer
370
18
48
1
60
0
100
AcDbLine
10
35.021623
20
-5.038673
30
0
11
52.26855
21
-5.049452
31
0
39
0
210
0
220
0
230
1
0
LINE
5
9C
100
AcDbEntity
8
1
62
256
6
ByLayer
370
18
48
1
60
0
100
AcDbLine
10
67.656727
20
-5.05907
30
0
11
84.887567
21
-5.069839
31
0
39
0
210
0
220
0
230
1
0
LINE
5
9D
100
AcDbEntity
8
1
62
256
6
ByLayer
370
18
48
1
60
0
100
AcDbLine
10
100.452188
20
-5.079567
30
0
11
101.914453
21
-5.080481
31
0
39
0
210
0
220
0
230
1
0
LINE
5
9E
100
AcDbEntity
8
1
62
256
6
ByLayer
370
18
48
1
60
0
100
AcDbLine
10
116.036079
20
-5.089307
30
0
11
117.506721
21
-5.090226
31
0
39
0
210
0
220
0
230
1
0
LINE
5
9F
100
AcDbEntity
8
1
62
256
6
ByLayer
370
18
48
1
60
0
100
AcDbLine
10
117.506721
20
5.090226
30
0
11
116.036079
21
5.089307
31
0
39
0
210
0
220
0
230
1
0
LINE
5
A0
100
AcDbEntity
8
1
62
256
6
ByLayer
370
18
48
1
60
0
100
AcDbLine
10
101.914453
20
5.080481
30
0
11
100.452188
21
5.079567
31
0
39
0
210
0
220
0
230
1
0
LINE
5
A1
100
AcDbEntity
8
1
62
256
6
ByLayer
370
18
48
1
60
0
100
AcDbLine
10
84.887567
20
5.069839
30
0
11
67.656727
21
5.05907
31
0
39
0
210
0
220
0
230
1
0
LINE
5
A2
100
AcDbEntity
8
1
62
256
6
ByLayer
370
18
48
1
60
0
100
AcDbLine
10
52.26855
20
5.049452
30
0
11
35.021623
21
5.038673
31
0
39
0
210
0
220
0
230
1
0
LINE
5
A3
100
AcDbEntity
8
1
62
256
6
ByLayer
370
18
48
1
60
0
100
AcDbLine
10
19.649461
20
5.029065
30
0
11
1.476453
21
5.017707
31
0
39
0
210
0
220
0
230
1
0
LINE
5
A4
100
AcDbEntity
8
SK4
62
256
6
ByLayer
370
18
48
0.05
60
0
100
AcDbLine
10
140
20
0
30
0
11
-50
21
0
31
0
39
0
210
0
220
0
230
1
0
LINE
5
A6
100
AcDbEntity
8
4
62
256
6
ByLayer
370
18
48
0.05
60
0
100
AcDbLine
10
-45
20
0
30
0
11
140
21
0
31
0
39
0
210
0
220
0
230
1
0
LINE
5
A8
100
AcDbEntity
8
80
62
256
6
ByLayer
370
18
48
1
60
0
100
AcDbLine
10
0
20
0
30
0
11
-6
21
0
31
0
39
0
210
0
220
0
230
1
0
LINE
5
A9
100
AcDbEntity
8
81
62
256
6
ByLayer
370
18
48
1
60
0
100
AcDbLine
10
135
20
0
30
0
11
141
21
0
31
0
39
0
210
0
220
0
230
1
0
LINE
5
AA
100
AcDbEntity
8
SK2
62
256
6
ByLayer
370
13
48
1
60
0
100
AcDbLine
10
135.542945
20
1.491767
30
0
11
144.294184
21
25.536225
31
0
39
0
210
0
220
0
230
1
0
LINE
5
AC
100
AcDbEntity
8
SK2
62
256
6
ByLayer
370
13
48
1
60
0
100
AcDbLine
10
135.542945
20
-1.491767
30
0
11
144.294184
21
-25.536225
31
0
39
0
210
0
220
0
230
1
0
LINE
5
AD
100
AcDbEntity
8
1
62
256
6
ByLayer
370
13
48
1
60
0
100
AcDbLine
10
143.208295
20
22.552691
30
0
11
146.310197
21
21.756737
31
0
39
0
210
0
220
0
230
1
0
LINE
5
AE
100
AcDbEntity
8
1
62
256
6
ByLayer
370
13
48
1
60
0
100
AcDbLine
10
143.208295
20
22.552691
30
0
11
145.998497
21
20.981026
31
0
39
0
210
0
220
0
230
1
0
LINE
5
AF
100
AcDbEntity
8
1
62
256
6
ByLayer
370
13
48
1
60
0
100
AcDbLine
10
146.310197
20
21.756737
30
0
11
145.998497
21
20.981026
31
0
39
0
210
0
220
0
230
1
0
LINE
5
B0
100
AcDbEntity
8
1
62
256
6
ByLayer
370
13
48
1
60
0
100
AcDbLine
10
143.208295
20
-22.552691
30
0
11
145.998494
21
-20.981027
31
0
39
0
210
0
220
0
230
1
0
LINE
5
B1
100
AcDbEntity
8
1
62
256
6
ByLayer
370
13
48
1
60
0
100
AcDbLine
10
143.208295
20
-22.552691
30
0
11
146.3102
21
-21.756736
31
0
39
0
210
0
220
0
230
1
0
LINE
5
B2
100
AcDbEntity
8
1
62
256
6
ByLayer
370
13
48
1
60
0
100
AcDbLine
10
145.998494
20
-20.981027
30
0
11
146.3102
21
-21.756736
31
0
39
0
210
0
220
0
230
1
0
MTEXT
5
108
100
AcDbEntity
8
SK2
62
256
6
ByLayer
370
18
48
1
60
0
100
AcDbMText
10
152.717388
20
-2.467451
30
0
210
0
220
0
230
1
1
\W0.7237;140.00
40
3.50012
41
0
44
1.084337
50
0
71
7
72
5
7
iso_b_vert
0
MTEXT
5
10B
100
AcDbEntity
8
SK6
62
256
6
ByLayer
370
18
48
1
60
0
100
AcDbMText
10
6.555604
20
-70.55463
30
0
210
0
220
0
230
1
1
\W0.7348;860.1-1020-083A1-GM X1BM
40
3.175
41
0
44
1.084337
50
0
71
7
72
5
7
iso_b_vert
0
DIMENSION
5
10E
100
AcDbEntity
8
SK2
62
256
6
ByLayer
370
18
48
1
60
0
100
AcDbDimension
2
_U0
10
135
20
-33.50012
30
0
11
67.5
21
-33.50012
31
0
70
32
71
2
72
1
41
1
210
0
220
0
230
1
3
Standard
100
AcDbAlignedDimension
13
0
23
-6
33
0
14
135
24
0
34
0
50
0
100
AcDbRotatedDimension
1001
ACAD
1000
DSTYLE
1002
{
1070
   371
1070
    13
1070
   372
1070
    13
1070
     3
1000

1070
   170
1070
     0
1070
   144
1040
1.0
1070
   277
1070
     2
1070
   284
1070
     8
1070
   278
1070
    46
1070
   146
1040
0.999966
1070
   345
1005
16
1070
   347
1005
16
1070
   346
1005
16
1070
   344
1005
10F
1070
   343
1005
10F
1070
   172
1070
     1
1070
    76
1070
     0
1070
    75
1070
     0
1070
   282
1070
     0
1070
   281
1070
     0
1070
    71
1070
     0
1070
    74
1070
     0
1070
   279
1070
     0
1070
   173
1070
     1
1070
   340
1005
109
1070
   271
1070
     1
1070
   272
1070
     2
1070
    77
1070
     1
1070
    73
1070
     1
1070
   171
1070
     3
1070
   274
1070
     4
1070
   177
1070
   150
1070
   176
1070
     9
1070
   178
1070
    43
1070
    78
1070
     8
1070
    48
1040
-0.1
1070
    41
1040
3.175
1070
   147
1040
1.75006
1070
    42
1040
1.5875
1070
    44
1040
3.175
1070
   140
1040
3.50012
1002
}
1001
ACAD_DSTYLE_DIM_LINETYPE
1070
   380
1005
16
1001
ACAD_DSTYLE_DIM_EXT1_LINETYPE
1070
   381
1005
16
1001
ACAD_DSTYLE_DIM_EXT2_LINETYPE
1070
   382
1005
16
0
DIMENSION
5
134
100
AcDbEntity
8
2
62
256
6
ByLayer
370
18
48
1
60
0
100
AcDbDimension
2
_U1
10
141.75006
20
5.1
30
0
11
141.75006
21
22.089948
31
0
70
32
71
1
72
1
41
1
210
0
220
0
230
1
3
Standard
100
AcDbAlignedDimension
13
133.1438
23
-5.1
33
0
14
133.1438
24
5.1
34
0
50
90
100
AcDbRotatedDimension
1001
ACAD
1000
DSTYLE
1002
{
1070
   371
1070
    13
1070
   372
1070
    13
1070
     3
1000

1070
   170
1070
     0
1070
   144
1040
1.0
1070
   277
1070
     2
1070
   284
1070
     8
1070
   278
1070
    46
1070
   146
1040
0.999966
1070
   345
1005
16
1070
   347
1005
16
1070
   346
1005
16
1070
   344
1005
10F
1070
   343
1005
10F
1070
   172
1070
     1
1070
    76
1070
     0
1070
    75
1070
     0
1070
   282
1070
     0
1070
   281
1070
     0
1070
    71
1070
     0
1070
    74
1070
     0
1070
   279
1070
     0
1070
   173
1070
     1
1070
   340
1005
109
1070
   271
1070
     1
1070
   272
1070
     2
1070
    77
1070
     1
1070
    73
1070
     0
1070
   171
1070
     3
1070
   274
1070
     4
1070
   177
1070
   150
1070
   176
1070
     9
1070
   178
1070
    43
1070
    78
1070
     8
1070
    48
1040
-0.1
1070
    41
1040
3.175
1070
   147
1040
1.75006
1070
    42
1040
1.5875
1070
    44
1040
3.175
1070
   140
1040
3.50012
1002
}
1001
ACAD_DSTYLE_DIM_LINETYPE
1070
   380
1005
16
1001
ACAD_DSTYLE_DIM_EXT1_LINETYPE
1070
   381
1005
16
1001
ACAD_DSTYLE_DIM_EXT2_LINETYPE
1070
   382
1005
16
0
DIMENSION
5
153
100
AcDbEntity
8
SK2
62
256
6
ByLayer
370
18
48
1
60
0
100
AcDbDimension
2
_U2
10
-49.24994
20
-6
30
0
11
-49.24994
21
22.97767
31
0
70
32
71
1
72
1
41
1
210
0
220
0
230
1
3
Standard
100
AcDbAlignedDimension
13
-45
23
6
33
0
14
-45
24
-6
34
0
50
90
100
AcDbRotatedDimension
1001
ACAD
1000
DSTYLE
1002
{
1070
   371
1070
    13
1070
   372
1070
    13
1070
     3
1000

1070
   170
1070
     0
1070
   144
1040
1.0
1070
   277
1070
     2
1070
   284
1070
     8
1070
   278
1070
    46
1070
   146
1040
0.999966
1070
   345
1005
16
1070
   347
1005
16
1070
   346
1005
16
1070
   344
1005
10F
1070
   343
1005
10F
1070
   172
1070
     1
1070
    76
1070
     0
1070
    75
1070
     0
1070
   282
1070
     0
1070
   281
1070
     0
1070
    71
1070
     0
1070
    74
1070
     0
1070
   279
1070
     0
1070
   173
1070
     1
1070
   340
1005
109
1070
   271
1070
     1
1070
   272
1070
     2
1070
    77
1070
     1
1070
    73
1070
     0
1070
   171
1070
     3
1070
   274
1070
     4
1070
   177
1070
   150
1070
   176
1070
     9
1070
   178
1070
    43
1070
    78
1070
     8
1070
    48
1040
-0.1
1070
    41
1040
3.175
1070
   147
1040
1.75006
1070
    42
1040
1.5875
1070
    44
1040
3.175
1070
   140
1040
3.50012
1002
}
1001
ACAD_DSTYLE_DIM_LINETYPE
1070
   380
1005
16
1001
ACAD_DSTYLE_DIM_EXT1_LINETYPE
1070
   381
1005
16
1001
ACAD_DSTYLE_DIM_EXT2_LINETYPE
1070
   382
1005
16
0
DIMENSION
5
171
100
AcDbEntity
8
SK2
62
256
6
ByLayer
370
18
48
1
60
0
100
AcDbDimension
2
_U3
10
0
20
-33.50012
30
0
11
-22.5
21
-33.50012
31
0
70
32
71
1
72
1
41
1
210
0
220
0
230
1
3
Standard
100
AcDbAlignedDimension
13
-45
23
-6
33
0
14
0
24
-6
34
0
50
0
100
AcDbRotatedDimension
1001
ACAD
1000
DSTYLE
1002
{
1070
   371
1070
    13
1070
   372
1070
    13
1070
     3
1000

1070
   170
1070
     0
1070
   144
1040
1.0
1070
   277
1070
     2
1070
   284
1070
     8
1070
   278
1070
    46
1070
   146
1040
0.999966
1070
   345
1005
16
1070
   347
1005
16
1070
   346
1005
16
1070
   344
1005
10F
1070
   343
1005
10F
1070
   172
1070
     1
1070
    76
1070
     0
1070
    75
1070
     0
1070
   282
1070
     0
1070
   281
1070
     0
1070
    71
1070
     0
1070
    74
1070
     0
1070
   279
1070
     0
1070
   173
1070
     1
1070
   340
1005
109
1070
   271
1070
     1
1070
   272
1070
     2
1070
    77
1070
     1
1070
    73
1070
     1
1070
   171
1070
     3
1070
   274
1070
     4
1070
   177
1070
   150
1070
   176
1070
     9
1070
   178
1070
    43
1070
    78
1070
     8
1070
    48
1040
-0.1
1070
    41
1040
3.175
1070
   147
1040
1.75006
1070
    42
1040
1.5875
1070
    44
1040
3.175
1070
   140
1040
3.50012
1002
}
1001
ACAD_DSTYLE_DIM_LINETYPE
1070
   380
1005
16
1001
ACAD_DSTYLE_DIM_EXT1_LINETYPE
1070
   381
1005
16
1001
ACAD_DSTYLE_DIM_EXT2_LINETYPE
1070
   382
1005
16
0
DIMENSION
5
18D
100
AcDbEntity
8
SK2
62
256
6
ByLayer
370
18
48
1
60
0
100
AcDbDimension
2
_U4
10
135
20
-24.74982
30
0
11
71
21
-24.74982
31
0
70
32
71
1
72
1
41
1
210
0
220
0
230
1
3
Standard
100
AcDbAlignedDimension
13
7
23
5.6
33
0
14
135
24
0
34
0
50
0
100
AcDbRotatedDimension
1001
ACAD
1000
DSTYLE
1002
{
1070
   371
1070
    13
1070
   372
1070
    13
1070
     3
1000

1070
   170
1070
     0
1070
   144
1040
1.0
1070
   277
1070
     2
1070
   284
1070
     8
1070
   278
1070
    46
1070
   146
1040
0.999966
1070
   345
1005
16
1070
   347
1005
16
1070
   346
1005
16
1070
   344
1005
10F
1070
   343
1005
10F
1070
   172
1070
     1
1070
    76
1070
     0
1070
    75
1070
     0
1070
   282
1070
     0
1070
   281
1070
     0
1070
    71
1070
     0
1070
    74
1070
     0
1070
   279
1070
     0
1070
   173
1070
     1
1070
   340
1005
109
1070
   271
1070
     1
1070
   272
1070
     2
1070
    77
1070
     1
1070
    73
1070
     1
1070
   171
1070
     3
1070
   274
1070
     4
1070
   177
1070
   150
1070
   176
1070
     9
1070
   178
1070
    43
1070
    78
1070
     8
1070
    48
1040
-0.1
1070
    41
1040
3.175
1070
   147
1040
1.75006
1070
    42
1040
1.5875
1070
    44
1040
3.175
1070
   140
1040
3.50012
1002
}
1001
ACAD_DSTYLE_DIM_LINETYPE
1070
   380
1005
16
1001
ACAD_DSTYLE_DIM_EXT1_LINETYPE
1070
   381
1005
16
1001
ACAD_DSTYLE_DIM_EXT2_LINETYPE
1070
   382
1005
16
0
DIMENSION
5
1A9
100
AcDbEntity
8
SK2
62
256
6
ByLayer
370
18
48
1
60
0
100
AcDbDimension
2
_U5
10
135
20
-13.82
30
0
11
93.3
21
-13.82
31
0
70
32
71
1
72
1
41
1
210
0
220
0
230
1
3
Standard
100
AcDbAlignedDimension
13
51.6
23
-5.1
33
0
14
135
24
0
34
0
50
0
100
AcDbRotatedDimension
1001
ACAD
1000
DSTYLE
1002
{
1070
   371
1070
    13
1070
   372
1070
    13
1070
     3
1000

1070
   170
1070
     0
1070
   144
1040
1.0
1070
   277
1070
     2
1070
   284
1070
     8
1070
   278
1070
    46
1070
   146
1040
1.25
1070
   345
1005
16
1070
   347
1005
16
1070
   346
1005
16
1070
   344
1005
10F
1070
   343
1005
10F
1070
   172
1070
     1
1070
    76
1070
     0
1070
    75
1070
     0
1070
   282
1070
     0
1070
   281
1070
     0
1070
    71
1070
     0
1070
    74
1070
     0
1070
   279
1070
     0
1070
   173
1070
     1
1070
   340
1005
109
1070
   271
1070
     1
1070
   272
1070
     2
1070
    77
1070
     1
1070
    73
1070
     1
1070
   171
1070
     3
1070
   274
1070
     4
1070
   177
1070
   150
1070
   176
1070
     9
1070
   178
1070
    43
1070
    78
1070
     8
1070
    48
1040
-0.1
1070
    41
1040
3.175
1070
   147
1040
0.42
1070
    42
1040
1.5875
1070
    44
1040
0.5
1070
   140
1040
2.8
1002
}
1001
ACAD_DSTYLE_DIM_LINETYPE
1070
   380
1005
16
1001
ACAD_DSTYLE_DIM_EXT1_LINETYPE
1070
   381
1005
16
1001
ACAD_DSTYLE_DIM_EXT2_LINETYPE
1070
   382
1005
16
0
DIMENSION
5
1C5
100
AcDbEntity
8
SK2
62
256
6
ByLayer
370
18
48
1
60
0
100
AcDbDimension
2
_U6
10
135
20
-45.50012
30
0
11
45
21
-45.50012
31
0
70
32
71
1
72
1
41
1
210
0
220
0
230
1
3
Standard
100
AcDbAlignedDimension
13
-45
23
0
33
0
14
135
24
0
34
0
50
0
100
AcDbRotatedDimension
1001
ACAD
1000
DSTYLE
1002
{
1070
   371
1070
    13
1070
   372
1070
    13
1070
     3
1000

1070
   170
1070
     0
1070
   144
1040
1.0
1070
   277
1070
     2
1070
   284
1070
     8
1070
   278
1070
    46
1070
   146
1040
0.999966
1070
   345
1005
16
1070
   347
1005
16
1070
   346
1005
16
1070
   344
1005
10F
1070
   343
1005
10F
1070
   172
1070
     1
1070
    76
1070
     0
1070
    75
1070
     0
1070
   282
1070
     0
1070
   281
1070
     0
1070
    71
1070
     0
1070
    74
1070
     0
1070
   279
1070
     0
1070
   173
1070
     1
1070
   340
1005
109
1070
   271
1070
     1
1070
   272
1070
     2
1070
    77
1070
     1
1070
    73
1070
     1
1070
   171
1070
     3
1070
   274
1070
     4
1070
   177
1070
   150
1070
   176
1070
     9
1070
   178
1070
    43
1070
    78
1070
     8
1070
    48
1040
-0.1
1070
    41
1040
3.175
1070
   147
1040
1.75006
1070
    42
1040
1.5875
1070
    44
1040
3.175
1070
   140
1040
3.50012
1002
}
1001
ACAD_DSTYLE_DIM_LINETYPE
1070
   380
1005
16
1001
ACAD_DSTYLE_DIM_EXT1_LINETYPE
1070
   381
1005
16
1001
ACAD_DSTYLE_DIM_EXT2_LINETYPE
1070
   382
1005
16
0
ENDSEC
0
SECTION
2
OBJECTS
0
DICTIONARY
5
251
330
0
100
AcDbDictionary
280
0
281
1
3
ACAD_GROUP
350
252
3
ACAD_MLINESTYLE
350
253
0
DICTIONARY
5
252
330
0
100
AcDbDictionary
280
0
281
1
0
DICTIONARY
5
253
330
0
100
AcDbDictionary
280
0
281
1
3
Standard
350
18
0
MLINESTYLE
5
18
330
253
100
AcDbMlineStyle
2
Standard
70
0
3

62
256
51
90
52
90
71
2
49
-0.5
62
256
6
ByLayer
49
0.5
62
256
6
ByLayer
0
RASTERVARIABLES
5
23f
330

100
AcDbRasterVariables
90
0
70
1
71
1
72
1
0
ENDSEC
0
EOF
