0
SECTION
2
HEADER
9
$ACADVER
1
AC1015
9
$DWGCODEPAGE
3
ANSI_1252
9
$HANDSEED
5
261
9
$ANGBASE
50
0
9
$ANGDIR
70
0
9
$ATTMODE
70
1
9
$AUNITS
70
0
9
$AUPREC
70
0
9
$CECOLOR
62
256
9
$CELTSCALE
40
1
9
$CELTYPE
6
ByLayer
9
$CELWEIGHT
370
18
9
$CLAYER
8
0
9
$CMLJUST
70
0
9
$CMLSCALE
40
1
9
$CMLSTYLE
2
Standard
9
$DIMSTYLE
2
Standard
9
$TEXTSIZE
40
0.2
9
$TEXTSTYLE
7
Standard
9
$LUNITS
70
2
9
$LUPREC
70
4
9
$EXTNAMES
290
1
9
$INSUNITS
70
4
9
$LTSCALE
40
1
9
$LWDISPLAY
290
1
9
$PDMODE
70
0
9
$PDSIZE
40
0
9
$PLINEGEN
70
0
0
ENDSEC
0
SECTION
2
CLASSES
0
CLASS
1
RASTERVARIABLES
2
AcDbRasterVariables
3
ISM
90
0
280
0
281
0
0
ENDSEC
0
SECTION
2
TABLES
0
TABLE
2
VPORT
5
257
100
AcDbSymbolTable
0
VPORT
5
1
100
AcDbSymbolTableRecord
100
AcDbViewportTableRecord
2
*Active
70
0
10
0
20
0
11
1
21
1
12
-1
22
1
13
0
23
0
14
0.5
24
0.5
15
10
25
10
16
0
26
0
36
1
17
0
27
0
37
0
0
ENDTAB
0
TABLE
2
LTYPE
5
258
100
AcDbSymbolTable
0
LTYPE
5
14
100
AcDbSymbolTableRecord
100
AcDbLinetypeTableRecord
70
0
2
ByBlock
3

72
65
73
0
40
0
0
LTYPE
5
15
100
AcDbSymbolTableRecord
100
AcDbLinetypeTableRecord
70
0
2
ByLayer
3

72
65
73
0
40
0
0
LTYPE
5
16
100
AcDbSymbolTableRecord
100
AcDbLinetypeTableRecord
70
0
2
Continuous
3
Solid line
72
65
73
0
40
0
0
LTYPE
5
6E
100
AcDbSymbolTableRecord
100
AcDbLinetypeTableRecord
70
0
2
CENTER
3
____ _ ____ _ ____ _ ____
72
65
73
4
40
47.5
49
22
74
0
49
-8.5
74
0
49
8.5
74
0
49
-8.5
74
0
0
LTYPE
5
6F
100
AcDbSymbolTableRecord
100
AcDbLinetypeTableRecord
70
0
2
DASHED
3
__ __ __ __ __ __ __ __ __
72
65
73
2
40
25.72
49
12.86
74
0
49
-12.86
74
0
0
ENDTAB
0
TABLE
2
LAYER
5
259
100
AcDbSymbolTable
0
LAYER
5
10
100
AcDbSymbolTableRecord
100
AcDbLayerTableRecord
2
0
70
0
62
7
6
Continuous
290
1
370
-3
390
0
0
LAYER
5
71
100
AcDbSymbolTableRecord
100
AcDbLayerTableRecord
2
80
70
0
62
-6
6
Continuous
290
1
370
-3
390
0
0
LAYER
5
73
100
AcDbSymbolTableRecord
100
AcDbLayerTableRecord
2
81
70
0
62
-3
6
Continuous
290
1
370
-3
390
0
0
LAYER
5
75
100
AcDbSymbolTableRecord
100
AcDbLayerTableRecord
2
1
70
0
62
4
6
Continuous
290
1
370
-3
390
0
0
LAYER
5
AA
100
AcDbSymbolTableRecord
100
AcDbLayerTableRecord
2
4
70
0
62
-2
6
CENTER
290
1
370
-3
390
0
0
LAYER
5
11B
100
AcDbSymbolTableRecord
100
AcDbLayerTableRecord
2
Defpoints
70
0
62
7
6
Continuous
290
0
370
-3
390
0
0
LAYER
5
148
100
AcDbSymbolTableRecord
100
AcDbLayerTableRecord
2
2
70
0
62
7
6
Continuous
290
1
370
-3
390
0
0
LAYER
5
243
100
AcDbSymbolTableRecord
100
AcDbLayerTableRecord
2
SK1
70
0
62
4
6
Continuous
290
1
370
-3
390
0
0
LAYER
5
244
100
AcDbSymbolTableRecord
100
AcDbLayerTableRecord
2
SK4
70
0
62
2
6
CENTER
290
1
370
-3
390
0
0
LAYER
5
245
100
AcDbSymbolTableRecord
100
AcDbLayerTableRecord
2
SK2
70
0
62
7
6
Continuous
290
1
370
-3
390
0
0
LAYER
5
246
100
AcDbSymbolTableRecord
100
AcDbLayerTableRecord
2
SK6
70
0
62
5
6
Continuous
290
1
370
-3
390
0
0
ENDTAB
0
TABLE
2
STYLE
5
25a
100
AcDbSymbolTable
0
STYLE
5
11
100
AcDbSymbolTableRecord
100
AcDbTextStyleTableRecord
2
Standard
3
txt
70
0
71
0
40
0
41
1
42
0
50
0
0
STYLE
5
10C
100
AcDbSymbolTableRecord
100
AcDbTextStyleTableRecord
2
iso_b_vert
3
simplex.shx
70
0
71
0
40
0
41
1
42
0
50
0
0
STYLE
5
10D
100
AcDbSymbolTableRecord
100
AcDbTextStyleTableRecord
2
DWGDirectTextStyle
3
simplex
70
0
71
0
40
0
41
1
42
0
50
0
0
ENDTAB
0
TABLE
2
DIMSTYLE
5
25b
100
AcDbSymbolTable
100
AcDbDimStyleTable
0
DIMSTYLE
105
27
100
AcDbSymbolTableRecord
100
AcDbDimStyleTableRecord
2
Standard
70
0
3
<>
41
0.18
42
0.0625
44
0.18
140
0.18
147
0.09
73
0
74
0
77
1
271
2
275
0
278
52
280
0
340
11
0
ENDTAB
0
TABLE
2
VIEW
5
25c
100
AcDbSymbolTable
0
ENDTAB
0
TABLE
2
UCS
5
25d
100
AcDbSymbolTable
0
ENDTAB
0
TABLE
2
APPID
5
25e
100
AcDbSymbolTable
0
APPID
5
12
100
AcDbSymbolTableRecord
100
AcDbRegAppTableRecord
2
ACAD
70
0
0
APPID
5
110
100
AcDbSymbolTableRecord
100
AcDbRegAppTableRecord
2
ACAD_DSTYLE_DIMBREAK
70
0
0
APPID
5
202
100
AcDbSymbolTableRecord
100
AcDbRegAppTableRecord
2
ACAD_DSTYLE_DIM_LINETYPE
70
0
0
APPID
5
203
100
AcDbSymbolTableRecord
100
AcDbRegAppTableRecord
2
ACAD_DSTYLE_DIM_EXT1_LINETYPE
70
0
0
APPID
5
204
100
AcDbSymbolTableRecord
100
AcDbRegAppTableRecord
2
ACAD_DSTYLE_DIM_EXT2_LINETYPE
70
0
0
APPID
5
23F
100
AcDbSymbolTableRecord
100
AcDbRegAppTableRecord
2
ACAD_MLEADERVER
70
0
0
ENDTAB
0
TABLE
2
BLOCK_RECORD
5
25f
100
AcDbSymbolTable
0
BLOCK_RECORD
5
1F
100
AcDbSymbolTableRecord
100
AcDbBlockTableRecord
2
*Model_Space
340
0
70
0
0
BLOCK_RECORD
5
1B
100
AcDbSymbolTableRecord
100
AcDbBlockTableRecord
2
*Paper_Space
340
0
70
0
0
BLOCK_RECORD
5
23
100
AcDbSymbolTableRecord
100
AcDbBlockTableRecord
2
*Paper_Space0
340
0
70
0
0
BLOCK_RECORD
5
112
100
AcDbSymbolTableRecord
100
AcDbBlockTableRecord
2
_Closed
340
0
70
0
0
BLOCK_RECORD
5
11C
100
AcDbSymbolTableRecord
100
AcDbBlockTableRecord
2
*D2
340
0
70
0
0
BLOCK_RECORD
5
128
100
AcDbSymbolTableRecord
100
AcDbBlockTableRecord
2
_U0
340
0
70
0
0
BLOCK_RECORD
5
13A
100
AcDbSymbolTableRecord
100
AcDbBlockTableRecord
2
*D4
340
0
70
0
0
BLOCK_RECORD
5
149
100
AcDbSymbolTableRecord
100
AcDbBlockTableRecord
2
_U1
340
0
70
0
0
BLOCK_RECORD
5
159
100
AcDbSymbolTableRecord
100
AcDbBlockTableRecord
2
*D6
340
0
70
0
0
BLOCK_RECORD
5
167
100
AcDbSymbolTableRecord
100
AcDbBlockTableRecord
2
_U2
340
0
70
0
0
BLOCK_RECORD
5
177
100
AcDbSymbolTableRecord
100
AcDbBlockTableRecord
2
*D8
340
0
70
0
0
BLOCK_RECORD
5
183
100
AcDbSymbolTableRecord
100
AcDbBlockTableRecord
2
_U3
340
0
70
0
0
BLOCK_RECORD
5
193
100
AcDbSymbolTableRecord
100
AcDbBlockTableRecord
2
*D10
340
0
70
0
0
BLOCK_RECORD
5
19F
100
AcDbSymbolTableRecord
100
AcDbBlockTableRecord
2
_U4
340
0
70
0
0
BLOCK_RECORD
5
1AF
100
AcDbSymbolTableRecord
100
AcDbBlockTableRecord
2
*D12
340
0
70
0
0
BLOCK_RECORD
5
1BB
100
AcDbSymbolTableRecord
100
AcDbBlockTableRecord
2
_U5
340
0
70
0
0
BLOCK_RECORD
5
1CB
100
AcDbSymbolTableRecord
100
AcDbBlockTableRecord
2
*D14
340
0
70
0
0
BLOCK_RECORD
5
1D7
100
AcDbSymbolTableRecord
100
AcDbBlockTableRecord
2
_U6
340
0
70
0
0
ENDTAB
0
ENDSEC
0
SECTION
2
BLOCKS
0
BLOCK
5
20
100
AcDbEntity
8
0
100
AcDbBlockBegin
2
*Model_Space
70
0
10
0
20
0
30
0
3
*Model_Space
0
ENDBLK
5
21
100
AcDbEntity
8
0
100
AcDbBlockEnd
0
BLOCK
5
1C
100
AcDbEntity
8
0
100
AcDbBlockBegin
2
*Paper_Space
70
0
10
0
20
0
30
0
3
*Paper_Space
0
ENDBLK
5
1D
100
AcDbEntity
8
0
100
AcDbBlockEnd
0
BLOCK
5
24
100
AcDbEntity
8
0
100
AcDbBlockBegin
2
*Paper_Space0
70
0
10
0
20
0
30
0
3
*Paper_Space0
0
ENDBLK
5
25
100
AcDbEntity
8
0
100
AcDbBlockEnd
0
BLOCK
5
113
100
AcDbEntity
8
0
100
AcDbBlockBegin
2
_Closed
70
0
10
0
20
0
30
0
3
_Closed
0
LINE
5
115
100
AcDbEntity
8
0
62
256
6
ByLayer
370
-2
48
1
60
0
100
AcDbLine
10
-1
20
0.166667
30
0
11
0
21
0
31
0
39
0
210
0
220
0
230
1
0
LINE
5
116
100
AcDbEntity
8
0
62
256
6
ByLayer
370
-2
48
1
60
0
100
AcDbLine
10
0
20
0
30
0
11
-1
21
-0.166667
31
0
39
0
210
0
220
0
230
1
0
LINE
5
117
100
AcDbEntity
8
0
62
256
6
ByLayer
370
-2
48
1
60
0
100
AcDbLine
10
-1
20
0.166667
30
0
11
-1
21
-0.166667
31
0
39
0
210
0
220
0
230
1
0
LINE
5
118
100
AcDbEntity
8
0
62
256
6
ByLayer
370
-2
48
1
60
0
100
AcDbLine
10
0
20
0
30
0
11
-1
21
0
31
0
39
0
210
0
220
0
230
1
0
ENDBLK
5
114
100
AcDbEntity
8
0
100
AcDbBlockEnd
0
BLOCK
5
11D
100
AcDbEntity
8
0
100
AcDbBlockBegin
2
*D2
70
1
10
0
20
0
30
0
3
*D2
0
LINE
5
11F
100
AcDbEntity
8
0
62
256
6
ByLayer
370
-2
48
1
60
0
100
AcDbLine
10
0
20
-6.5875
30
0
11
0
21
-31.941787
31
0
39
0
210
0
220
0
230
1
0
LINE
5
120
100
AcDbEntity
8
0
62
256
6
ByLayer
370
-2
48
1
60
0
100
AcDbLine
10
112
20
-1.5875
30
0
11
112
21
-31.941787
31
0
39
0
210
0
220
0
230
1
0
LINE
5
121
100
AcDbEntity
8
0
62
256
6
ByLayer
370
-2
48
1
60
0
100
AcDbLine
10
3.175
20
-28.766787
30
0
11
108.825
21
-28.766787
31
0
39
0
210
0
220
0
230
1
0
SOLID
5
122
100
AcDbEntity
8
0
62
256
6
ByLayer
370
-1
48
1
60
0
100
AcDbTrace
10
3.175
20
-28.23762
30
0
11
3.175
21
-29.295953
31
0
12
0
22
-28.766787
32
0
13
0
23
-28.766787
33
0
39
0
210
0
220
0
230
1
0
SOLID
5
123
100
AcDbEntity
8
0
62
256
6
ByLayer
370
-1
48
1
60
0
100
AcDbTrace
10
108.825
20
-29.295953
30
0
11
108.825
21
-28.23762
31
0
12
112
22
-28.766787
32
0
13
112
23
-28.766787
33
0
39
0
210
0
220
0
230
1
0
MTEXT
5
124
100
AcDbEntity
8
0
62
256
6
ByLayer
370
18
48
1
60
0
100
AcDbMText
10
56
20
-21.460286
30
0
210
0
220
0
230
1
1
\A1;112
40
3.50012
41
0
44
1
50
0
71
5
72
5
7
iso_b_vert
0
POINT
5
125
100
AcDbEntity
8
Defpoints
62
0
6
ByLayer
370
-1
48
1
60
0
100
AcDbPoint
10
0
20
-5
30
0
39
0
210
0
220
0
230
1
50
360
0
POINT
5
126
100
AcDbEntity
8
Defpoints
62
0
6
ByLayer
370
-1
48
1
60
0
100
AcDbPoint
10
112
20
0
30
0
39
0
210
0
220
0
230
1
50
360
0
POINT
5
127
100
AcDbEntity
8
Defpoints
62
0
6
ByLayer
370
-1
48
1
60
0
100
AcDbPoint
10
112
20
-28.766787
30
0
39
0
210
0
220
0
230
1
50
360
0
ENDBLK
5
11E
100
AcDbEntity
8
0
100
AcDbBlockEnd
0
BLOCK
5
135
100
AcDbEntity
8
0
100
AcDbBlockBegin
2
_U0
70
0
10
0
20
0
30
0
3
_U0
0
MTEXT
5
129
100
AcDbEntity
8
SK2
62
256
6
ByLayer
370
18
48
1
60
0
100
AcDbMText
10
50.337507
20
-27.734118
30
0
210
0
220
0
230
1
1
\W0.6532;112.00
40
3.50012
41
0
44
1.084337
50
0
71
7
72
5
7
iso_b_vert
0
MTEXT
5
12A
100
AcDbEntity
8
SK2
62
256
6
ByLayer
370
18
48
1
60
0
100
AcDbMText
10
46.811448
20
-27.667481
30
0
210
0
220
0
230
1
1
\W0.1790;(
40
3.175
41
0
44
1.084337
50
0
71
7
72
5
7
iso_b_vert
0
MTEXT
5
12B
100
AcDbEntity
8
SK2
62
256
6
ByLayer
370
18
48
1
60
0
100
AcDbMText
10
65.191274
20
-27.667481
30
0
210
0
220
0
230
1
1
\W0.1969;)
40
3.175
41
0
44
1.084337
50
0
71
7
72
5
7
iso_b_vert
0
LINE
5
12C
100
AcDbEntity
8
SK2
62
256
6
ByLayer
370
13
48
1
60
0
100
AcDbLine
10
0
20
-6.5875
30
0
11
0
21
-31.941787
31
0
39
0
210
0
220
0
230
1
0
LINE
5
12D
100
AcDbEntity
8
SK2
62
256
6
ByLayer
370
13
48
1
60
0
100
AcDbLine
10
112
20
-1.5875
30
0
11
112
21
-31.941787
31
0
39
0
210
0
220
0
230
1
0
LINE
5
12E
100
AcDbEntity
8
SK2
62
256
6
ByLayer
370
13
48
1
60
0
100
AcDbLine
10
0
20
-28.766787
30
0
11
112
21
-28.766787
31
0
39
0
210
0
220
0
230
1
0
LINE
5
12F
100
AcDbEntity
8
SK2
62
256
6
ByLayer
370
13
48
1
60
0
100
AcDbLine
10
0
20
-28.766787
30
0
11
3.174998
21
-28.34879
31
0
39
0
210
0
220
0
230
1
0
LINE
5
130
100
AcDbEntity
8
SK2
62
256
6
ByLayer
370
13
48
1
60
0
100
AcDbLine
10
0
20
-28.766787
30
0
11
3.175002
21
-29.184783
31
0
39
0
210
0
220
0
230
1
0
LINE
5
131
100
AcDbEntity
8
SK2
62
256
6
ByLayer
370
13
48
1
60
0
100
AcDbLine
10
3.174998
20
-28.34879
30
0
11
3.175002
21
-29.184783
31
0
39
0
210
0
220
0
230
1
0
LINE
5
132
100
AcDbEntity
8
SK2
62
256
6
ByLayer
370
13
48
1
60
0
100
AcDbLine
10
112
20
-28.766787
30
0
11
108.825002
21
-29.184783
31
0
39
0
210
0
220
0
230
1
0
LINE
5
133
100
AcDbEntity
8
SK2
62
256
6
ByLayer
370
13
48
1
60
0
100
AcDbLine
10
112
20
-28.766787
30
0
11
108.824998
21
-28.34879
31
0
39
0
210
0
220
0
230
1
0
LINE
5
134
100
AcDbEntity
8
SK2
62
256
6
ByLayer
370
13
48
1
60
0
100
AcDbLine
10
108.825002
20
-29.184783
30
0
11
108.824998
21
-28.34879
31
0
39
0
210
0
220
0
230
1
0
ENDBLK
5
136
100
AcDbEntity
8
0
100
AcDbBlockEnd
0
BLOCK
5
13B
100
AcDbEntity
8
0
100
AcDbBlockBegin
2
*D4
70
1
10
0
20
0
30
0
3
*D4
0
LINE
5
13D
100
AcDbEntity
8
0
62
256
6
ByLayer
370
-2
48
1
60
0
100
AcDbLine
10
111.8586
20
-4.75
30
0
11
121.92506
21
-4.75
31
0
39
0
210
0
220
0
230
1
0
LINE
5
13E
100
AcDbEntity
8
0
62
256
6
ByLayer
370
-2
48
1
60
0
100
AcDbLine
10
111.8586
20
4.75
30
0
11
121.92506
21
4.75
31
0
39
0
210
0
220
0
230
1
0
LINE
5
13F
100
AcDbEntity
8
0
62
256
6
ByLayer
370
-2
48
1
60
0
100
AcDbLine
10
118.75006
20
4.75
30
0
11
118.75006
21
29.546466
31
0
39
0
210
0
220
0
230
1
0
LINE
5
140
100
AcDbEntity
8
0
62
256
6
ByLayer
370
-2
48
1
60
0
100
AcDbLine
10
118.75006
20
-7.925
30
0
11
118.75006
21
-11.1
31
0
39
0
210
0
220
0
230
1
0
LINE
5
141
100
AcDbEntity
8
0
62
256
6
ByLayer
370
-2
48
1
60
0
100
AcDbLine
10
118.75006
20
7.925
30
0
11
118.75006
21
11.1
31
0
39
0
210
0
220
0
230
1
0
SOLID
5
142
100
AcDbEntity
8
0
62
256
6
ByLayer
370
-1
48
1
60
0
100
AcDbTrace
10
119.279227
20
-7.925
30
0
11
118.220893
21
-7.925
31
0
12
118.75006
22
-4.75
32
0
13
118.75006
23
-4.75
33
0
39
0
210
0
220
0
230
1
0
SOLID
5
143
100
AcDbEntity
8
0
62
256
6
ByLayer
370
-1
48
1
60
0
100
AcDbTrace
10
118.220893
20
7.925
30
0
11
119.279227
21
7.925
31
0
12
118.75006
22
4.75
32
0
13
118.75006
23
4.75
33
0
39
0
210
0
220
0
230
1
0
MTEXT
5
144
100
AcDbEntity
8
0
62
256
6
ByLayer
370
18
48
1
60
0
100
AcDbMText
10
111.443559
20
20.323233
30
0
210
0
220
0
230
1
1
\A1;9.5
40
3.50012
41
0
44
1
50
90
71
5
72
5
7
iso_b_vert
0
POINT
5
145
100
AcDbEntity
8
Defpoints
62
0
6
ByLayer
370
-1
48
1
60
0
100
AcDbPoint
10
110.2711
20
-4.75
30
0
39
0
210
0
220
0
230
1
50
360
0
POINT
5
146
100
AcDbEntity
8
Defpoints
62
0
6
ByLayer
370
-1
48
1
60
0
100
AcDbPoint
10
110.2711
20
4.75
30
0
39
0
210
0
220
0
230
1
50
360
0
POINT
5
147
100
AcDbEntity
8
Defpoints
62
0
6
ByLayer
370
-1
48
1
60
0
100
AcDbPoint
10
118.75006
20
4.75
30
0
39
0
210
0
220
0
230
1
50
360
0
ENDBLK
5
13C
100
AcDbEntity
8
0
100
AcDbBlockEnd
0
BLOCK
5
154
100
AcDbEntity
8
0
100
AcDbBlockBegin
2
_U1
70
0
10
0
20
0
30
0
3
_U1
0
MTEXT
5
14A
100
AcDbEntity
8
2
62
256
6
ByLayer
370
18
48
1
60
0
100
AcDbMText
10
118.060403
20
8.907505
30
0
210
0
220
0
230
1
1
\W0.7346;9.50
40
3.50012
41
0
44
1.084337
50
90
71
7
72
5
7
iso_b_vert
0
LINE
5
14B
100
AcDbEntity
8
2
62
256
6
ByLayer
370
13
48
1
60
0
100
AcDbLine
10
111.8586
20
-4.75
30
0
11
121.92506
21
-4.75
31
0
39
0
210
0
220
0
230
1
0
LINE
5
14C
100
AcDbEntity
8
2
62
256
6
ByLayer
370
13
48
1
60
0
100
AcDbLine
10
111.8586
20
4.75
30
0
11
121.92506
21
4.75
31
0
39
0
210
0
220
0
230
1
0
LINE
5
14D
100
AcDbEntity
8
2
62
256
6
ByLayer
370
13
48
1
60
0
100
AcDbLine
10
118.75006
20
-4.75
30
0
11
118.75006
21
16.96468
31
0
39
0
210
0
220
0
230
1
0
LINE
5
14E
100
AcDbEntity
8
2
62
256
6
ByLayer
370
13
48
1
60
0
100
AcDbLine
10
118.75006
20
-4.75
30
0
11
118.332063
21
-1.575002
31
0
39
0
210
0
220
0
230
1
0
LINE
5
14F
100
AcDbEntity
8
2
62
256
6
ByLayer
370
13
48
1
60
0
100
AcDbLine
10
118.75006
20
-4.75
30
0
11
119.168057
21
-1.574998
31
0
39
0
210
0
220
0
230
1
0
LINE
5
150
100
AcDbEntity
8
2
62
256
6
ByLayer
370
13
48
1
60
0
100
AcDbLine
10
118.332063
20
-1.575002
30
0
11
119.168057
21
-1.574998
31
0
39
0
210
0
220
0
230
1
0
LINE
5
151
100
AcDbEntity
8
2
62
256
6
ByLayer
370
13
48
1
60
0
100
AcDbLine
10
118.75006
20
4.75
30
0
11
119.168057
21
1.575002
31
0
39
0
210
0
220
0
230
1
0
LINE
5
152
100
AcDbEntity
8
2
62
256
6
ByLayer
370
13
48
1
60
0
100
AcDbLine
10
118.75006
20
4.75
30
0
11
118.332063
21
1.574998
31
0
39
0
210
0
220
0
230
1
0
LINE
5
153
100
AcDbEntity
8
2
62
256
6
ByLayer
370
13
48
1
60
0
100
AcDbLine
10
119.168057
20
1.575002
30
0
11
118.332063
21
1.574998
31
0
39
0
210
0
220
0
230
1
0
ENDBLK
5
155
100
AcDbEntity
8
0
100
AcDbBlockEnd
0
BLOCK
5
15A
100
AcDbEntity
8
0
100
AcDbBlockBegin
2
*D6
70
1
10
0
20
0
30
0
3
*D6
0
LINE
5
15C
100
AcDbEntity
8
0
62
256
6
ByLayer
370
-2
48
1
60
0
100
AcDbLine
10
-41.5875
20
5
30
0
11
-46.491607
21
5
31
0
39
0
210
0
220
0
230
1
0
LINE
5
15D
100
AcDbEntity
8
0
62
256
6
ByLayer
370
-2
48
1
60
0
100
AcDbLine
10
-41.5875
20
-5
30
0
11
-46.491607
21
-5
31
0
39
0
210
0
220
0
230
1
0
LINE
5
15E
100
AcDbEntity
8
0
62
256
6
ByLayer
370
-2
48
1
60
0
100
AcDbLine
10
-43.316607
20
5
30
0
11
-43.316607
21
28.250865
31
0
39
0
210
0
220
0
230
1
0
LINE
5
15F
100
AcDbEntity
8
0
62
256
6
ByLayer
370
-2
48
1
60
0
100
AcDbLine
10
-43.316607
20
8.175
30
0
11
-43.316607
21
11.35
31
0
39
0
210
0
220
0
230
1
0
LINE
5
160
100
AcDbEntity
8
0
62
256
6
ByLayer
370
-2
48
1
60
0
100
AcDbLine
10
-43.316607
20
-8.175
30
0
11
-43.316607
21
-11.35
31
0
39
0
210
0
220
0
230
1
0
SOLID
5
161
100
AcDbEntity
8
0
62
256
6
ByLayer
370
-1
48
1
60
0
100
AcDbTrace
10
-43.845773
20
8.175
30
0
11
-42.78744
21
8.175
31
0
12
-43.316607
22
5
32
0
13
-43.316607
23
5
33
0
39
0
210
0
220
0
230
1
0
SOLID
5
162
100
AcDbEntity
8
0
62
256
6
ByLayer
370
-1
48
1
60
0
100
AcDbTrace
10
-42.78744
20
-8.175
30
0
11
-43.845773
21
-8.175
31
0
12
-43.316607
22
-5
32
0
13
-43.316607
23
-5
33
0
39
0
210
0
220
0
230
1
0
MTEXT
5
163
100
AcDbEntity
8
0
62
256
6
ByLayer
370
18
48
1
60
0
100
AcDbMText
10
-50.623107
20
20.111003
30
0
210
0
220
0
230
1
1
\A1;10
40
3.50012
41
0
44
1
50
90
71
5
72
5
7
iso_b_vert
0
POINT
5
164
100
AcDbEntity
8
Defpoints
62
0
6
ByLayer
370
-1
48
1
60
0
100
AcDbPoint
10
-40
20
5
30
0
39
0
210
0
220
0
230
1
50
360
0
POINT
5
165
100
AcDbEntity
8
Defpoints
62
0
6
ByLayer
370
-1
48
1
60
0
100
AcDbPoint
10
-40
20
-5
30
0
39
0
210
0
220
0
230
1
50
360
0
POINT
5
166
100
AcDbEntity
8
Defpoints
62
0
6
ByLayer
370
-1
48
1
60
0
100
AcDbPoint
10
-43.316607
20
-5
30
0
39
0
210
0
220
0
230
1
50
360
0
ENDBLK
5
15B
100
AcDbEntity
8
0
100
AcDbBlockEnd
0
BLOCK
5
172
100
AcDbEntity
8
0
100
AcDbBlockBegin
2
_U2
70
0
10
0
20
0
30
0
3
_U2
0
MTEXT
5
168
100
AcDbEntity
8
SK2
62
256
6
ByLayer
370
18
48
1
60
0
100
AcDbMText
10
-44.006264
20
15.290839
30
0
210
0
220
0
230
1
1
\W0.6864;10.00
40
3.50012
41
0
44
1.084337
50
90
71
7
72
5
7
iso_b_vert
0
LINE
5
169
100
AcDbEntity
8
SK2
62
256
6
ByLayer
370
13
48
1
60
0
100
AcDbLine
10
-41.5875
20
5
30
0
11
-46.491607
21
5
31
0
39
0
210
0
220
0
230
1
0
LINE
5
16A
100
AcDbEntity
8
SK2
62
256
6
ByLayer
370
13
48
1
60
0
100
AcDbLine
10
-41.5875
20
-5
30
0
11
-46.491607
21
-5
31
0
39
0
210
0
220
0
230
1
0
LINE
5
16B
100
AcDbEntity
8
SK2
62
256
6
ByLayer
370
13
48
1
60
0
100
AcDbLine
10
-43.316607
20
-5
30
0
11
-43.316607
21
25.088672
31
0
39
0
210
0
220
0
230
1
0
LINE
5
16C
100
AcDbEntity
8
SK2
62
256
6
ByLayer
370
13
48
1
60
0
100
AcDbLine
10
-43.316607
20
5
30
0
11
-42.89861
21
1.825002
31
0
39
0
210
0
220
0
230
1
0
LINE
5
16D
100
AcDbEntity
8
SK2
62
256
6
ByLayer
370
13
48
1
60
0
100
AcDbLine
10
-43.316607
20
5
30
0
11
-43.734603
21
1.824998
31
0
39
0
210
0
220
0
230
1
0
LINE
5
16E
100
AcDbEntity
8
SK2
62
256
6
ByLayer
370
13
48
1
60
0
100
AcDbLine
10
-42.89861
20
1.825002
30
0
11
-43.734603
21
1.824998
31
0
39
0
210
0
220
0
230
1
0
LINE
5
16F
100
AcDbEntity
8
SK2
62
256
6
ByLayer
370
13
48
1
60
0
100
AcDbLine
10
-43.316607
20
-5
30
0
11
-43.734603
21
-1.825002
31
0
39
0
210
0
220
0
230
1
0
LINE
5
170
100
AcDbEntity
8
SK2
62
256
6
ByLayer
370
13
48
1
60
0
100
AcDbLine
10
-43.316607
20
-5
30
0
11
-42.89861
21
-1.824998
31
0
39
0
210
0
220
0
230
1
0
LINE
5
171
100
AcDbEntity
8
SK2
62
256
6
ByLayer
370
13
48
1
60
0
100
AcDbLine
10
-43.734603
20
-1.825002
30
0
11
-42.89861
21
-1.824998
31
0
39
0
210
0
220
0
230
1
0
ENDBLK
5
173
100
AcDbEntity
8
0
100
AcDbBlockEnd
0
BLOCK
5
178
100
AcDbEntity
8
0
100
AcDbBlockBegin
2
*D8
70
1
10
0
20
0
30
0
3
*D8
0
LINE
5
17A
100
AcDbEntity
8
0
62
256
6
ByLayer
370
-2
48
1
60
0
100
AcDbLine
10
-40
20
-6.5875
30
0
11
-40
21
-31.941787
31
0
39
0
210
0
220
0
230
1
0
LINE
5
17B
100
AcDbEntity
8
0
62
256
6
ByLayer
370
-2
48
1
60
0
100
AcDbLine
10
0
20
-6.5875
30
0
11
0
21
-31.941787
31
0
39
0
210
0
220
0
230
1
0
LINE
5
17C
100
AcDbEntity
8
0
62
256
6
ByLayer
370
-2
48
1
60
0
100
AcDbLine
10
-36.825
20
-28.766787
30
0
11
-3.175
21
-28.766787
31
0
39
0
210
0
220
0
230
1
0
SOLID
5
17D
100
AcDbEntity
8
0
62
256
6
ByLayer
370
-1
48
1
60
0
100
AcDbTrace
10
-36.825
20
-28.23762
30
0
11
-36.825
21
-29.295953
31
0
12
-40
22
-28.766787
32
0
13
-40
23
-28.766787
33
0
39
0
210
0
220
0
230
1
0
SOLID
5
17E
100
AcDbEntity
8
0
62
256
6
ByLayer
370
-1
48
1
60
0
100
AcDbTrace
10
-3.175
20
-29.295953
30
0
11
-3.175
21
-28.23762
31
0
12
0
22
-28.766787
32
0
13
0
23
-28.766787
33
0
39
0
210
0
220
0
230
1
0
MTEXT
5
17F
100
AcDbEntity
8
0
62
256
6
ByLayer
370
18
48
1
60
0
100
AcDbMText
10
-20
20
-21.460286
30
0
210
0
220
0
230
1
1
\A1;40
40
3.50012
41
0
44
1
50
0
71
5
72
5
7
iso_b_vert
0
POINT
5
180
100
AcDbEntity
8
Defpoints
62
0
6
ByLayer
370
-1
48
1
60
0
100
AcDbPoint
10
-40
20
-5
30
0
39
0
210
0
220
0
230
1
50
360
0
POINT
5
181
100
AcDbEntity
8
Defpoints
62
0
6
ByLayer
370
-1
48
1
60
0
100
AcDbPoint
10
0
20
-5
30
0
39
0
210
0
220
0
230
1
50
360
0
POINT
5
182
100
AcDbEntity
8
Defpoints
62
0
6
ByLayer
370
-1
48
1
60
0
100
AcDbPoint
10
0
20
-28.766787
30
0
39
0
210
0
220
0
230
1
50
360
0
ENDBLK
5
179
100
AcDbEntity
8
0
100
AcDbBlockEnd
0
BLOCK
5
18E
100
AcDbEntity
8
0
100
AcDbBlockBegin
2
_U3
70
0
10
0
20
0
30
0
3
_U3
0
MTEXT
5
184
100
AcDbEntity
8
SK2
62
256
6
ByLayer
370
18
48
1
60
0
100
AcDbMText
10
-25.413884
20
-27.734118
30
0
210
0
220
0
230
1
1
\W0.7694;40.00
40
3.50012
41
0
44
1.084337
50
0
71
7
72
5
7
iso_b_vert
0
LINE
5
185
100
AcDbEntity
8
SK2
62
256
6
ByLayer
370
13
48
1
60
0
100
AcDbLine
10
-40
20
-6.5875
30
0
11
-40
21
-31.941787
31
0
39
0
210
0
220
0
230
1
0
LINE
5
186
100
AcDbEntity
8
SK2
62
256
6
ByLayer
370
13
48
1
60
0
100
AcDbLine
10
0
20
-6.5875
30
0
11
0
21
-31.941787
31
0
39
0
210
0
220
0
230
1
0
LINE
5
187
100
AcDbEntity
8
SK2
62
256
6
ByLayer
370
13
48
1
60
0
100
AcDbLine
10
-40
20
-28.766787
30
0
11
0
21
-28.766787
31
0
39
0
210
0
220
0
230
1
0
LINE
5
188
100
AcDbEntity
8
SK2
62
256
6
ByLayer
370
13
48
1
60
0
100
AcDbLine
10
-40
20
-28.766787
30
0
11
-36.825002
21
-28.34879
31
0
39
0
210
0
220
0
230
1
0
LINE
5
189
100
AcDbEntity
8
SK2
62
256
6
ByLayer
370
13
48
1
60
0
100
AcDbLine
10
-40
20
-28.766787
30
0
11
-36.824998
21
-29.184783
31
0
39
0
210
0
220
0
230
1
0
LINE
5
18A
100
AcDbEntity
8
SK2
62
256
6
ByLayer
370
13
48
1
60
0
100
AcDbLine
10
-36.825002
20
-28.34879
30
0
11
-36.824998
21
-29.184783
31
0
39
0
210
0
220
0
230
1
0
LINE
5
18B
100
AcDbEntity
8
SK2
62
256
6
ByLayer
370
13
48
1
60
0
100
AcDbLine
10
0
20
-28.766787
30
0
11
-3.174998
21
-29.184783
31
0
39
0
210
0
220
0
230
1
0
LINE
5
18C
100
AcDbEntity
8
SK2
62
256
6
ByLayer
370
13
48
1
60
0
100
AcDbLine
10
0
20
-28.766787
30
0
11
-3.175002
21
-28.34879
31
0
39
0
210
0
220
0
230
1
0
LINE
5
18D
100
AcDbEntity
8
SK2
62
256
6
ByLayer
370
13
48
1
60
0
100
AcDbLine
10
-3.174998
20
-29.184783
30
0
11
-3.175002
21
-28.34879
31
0
39
0
210
0
220
0
230
1
0
ENDBLK
5
18F
100
AcDbEntity
8
0
100
AcDbBlockEnd
0
BLOCK
5
194
100
AcDbEntity
8
0
100
AcDbBlockBegin
2
*D10
70
1
10
0
20
0
30
0
3
*D10
0
LINE
5
196
100
AcDbEntity
8
0
62
256
6
ByLayer
370
-2
48
1
60
0
100
AcDbLine
10
6
20
3.6625
30
0
11
6
21
-23.191487
31
0
39
0
210
0
220
0
230
1
0
LINE
5
197
100
AcDbEntity
8
0
62
256
6
ByLayer
370
-2
48
1
60
0
100
AcDbLine
10
112
20
-1.5875
30
0
11
112
21
-23.191487
31
0
39
0
210
0
220
0
230
1
0
LINE
5
198
100
AcDbEntity
8
0
62
256
6
ByLayer
370
-2
48
1
60
0
100
AcDbLine
10
9.175
20
-20.016487
30
0
11
108.825
21
-20.016487
31
0
39
0
210
0
220
0
230
1
0
SOLID
5
199
100
AcDbEntity
8
0
62
256
6
ByLayer
370
-1
48
1
60
0
100
AcDbTrace
10
9.175
20
-19.48732
30
0
11
9.175
21
-20.545653
31
0
12
6
22
-20.016487
32
0
13
6
23
-20.016487
33
0
39
0
210
0
220
0
230
1
0
SOLID
5
19A
100
AcDbEntity
8
0
62
256
6
ByLayer
370
-1
48
1
60
0
100
AcDbTrace
10
108.825
20
-20.545653
30
0
11
108.825
21
-19.48732
31
0
12
112
22
-20.016487
32
0
13
112
23
-20.016487
33
0
39
0
210
0
220
0
230
1
0
MTEXT
5
19B
100
AcDbEntity
8
0
62
256
6
ByLayer
370
18
48
1
60
0
100
AcDbMText
10
59
20
-12.709986
30
0
210
0
220
0
230
1
1
\A1;106
40
3.50012
41
0
44
1
50
0
71
5
72
5
7
iso_b_vert
0
POINT
5
19C
100
AcDbEntity
8
Defpoints
62
0
6
ByLayer
370
-1
48
1
60
0
100
AcDbPoint
10
6
20
5.25
30
0
39
0
210
0
220
0
230
1
50
360
0
POINT
5
19D
100
AcDbEntity
8
Defpoints
62
0
6
ByLayer
370
-1
48
1
60
0
100
AcDbPoint
10
112
20
0
30
0
39
0
210
0
220
0
230
1
50
360
0
POINT
5
19E
100
AcDbEntity
8
Defpoints
62
0
6
ByLayer
370
-1
48
1
60
0
100
AcDbPoint
10
112
20
-20.016487
30
0
39
0
210
0
220
0
230
1
50
360
0
ENDBLK
5
195
100
AcDbEntity
8
0
100
AcDbBlockEnd
0
BLOCK
5
1AA
100
AcDbEntity
8
0
100
AcDbBlockBegin
2
_U4
70
0
10
0
20
0
30
0
3
_U4
0
MTEXT
5
1A0
100
AcDbEntity
8
SK2
62
256
6
ByLayer
370
18
48
1
60
0
100
AcDbMText
10
52.900059
20
-18.983818
30
0
210
0
220
0
230
1
1
\W0.7022;106.00
40
3.50012
41
0
44
1.084337
50
0
71
7
72
5
7
iso_b_vert
0
LINE
5
1A1
100
AcDbEntity
8
SK2
62
256
6
ByLayer
370
13
48
1
60
0
100
AcDbLine
10
6
20
3.6625
30
0
11
6
21
-23.191487
31
0
39
0
210
0
220
0
230
1
0
LINE
5
1A2
100
AcDbEntity
8
SK2
62
256
6
ByLayer
370
13
48
1
60
0
100
AcDbLine
10
112
20
-1.5875
30
0
11
112
21
-23.191487
31
0
39
0
210
0
220
0
230
1
0
LINE
5
1A3
100
AcDbEntity
8
SK2
62
256
6
ByLayer
370
13
48
1
60
0
100
AcDbLine
10
6
20
-20.016487
30
0
11
112
21
-20.016487
31
0
39
0
210
0
220
0
230
1
0
LINE
5
1A4
100
AcDbEntity
8
SK2
62
256
6
ByLayer
370
13
48
1
60
0
100
AcDbLine
10
6
20
-20.016487
30
0
11
9.174998
21
-19.59849
31
0
39
0
210
0
220
0
230
1
0
LINE
5
1A5
100
AcDbEntity
8
SK2
62
256
6
ByLayer
370
13
48
1
60
0
100
AcDbLine
10
6
20
-20.016487
30
0
11
9.175002
21
-20.434483
31
0
39
0
210
0
220
0
230
1
0
LINE
5
1A6
100
AcDbEntity
8
SK2
62
256
6
ByLayer
370
13
48
1
60
0
100
AcDbLine
10
9.174998
20
-19.59849
30
0
11
9.175002
21
-20.434483
31
0
39
0
210
0
220
0
230
1
0
LINE
5
1A7
100
AcDbEntity
8
SK2
62
256
6
ByLayer
370
13
48
1
60
0
100
AcDbLine
10
112
20
-20.016487
30
0
11
108.825002
21
-20.434483
31
0
39
0
210
0
220
0
230
1
0
LINE
5
1A8
100
AcDbEntity
8
SK2
62
256
6
ByLayer
370
13
48
1
60
0
100
AcDbLine
10
112
20
-20.016487
30
0
11
108.824998
21
-19.59849
31
0
39
0
210
0
220
0
230
1
0
LINE
5
1A9
100
AcDbEntity
8
SK2
62
256
6
ByLayer
370
13
48
1
60
0
100
AcDbLine
10
108.825002
20
-20.434483
30
0
11
108.824998
21
-19.59849
31
0
39
0
210
0
220
0
230
1
0
ENDBLK
5
1AB
100
AcDbEntity
8
0
100
AcDbBlockEnd
0
BLOCK
5
1B0
100
AcDbEntity
8
0
100
AcDbBlockBegin
2
*D12
70
1
10
0
20
0
30
0
3
*D12
0
LINE
5
1B2
100
AcDbEntity
8
0
62
256
6
ByLayer
370
-2
48
1
60
0
100
AcDbLine
10
34.3
20
-6.3375
30
0
11
34.3
21
-12.386667
31
0
39
0
210
0
220
0
230
1
0
LINE
5
1B3
100
AcDbEntity
8
0
62
256
6
ByLayer
370
-2
48
1
60
0
100
AcDbLine
10
112
20
-1.5875
30
0
11
112
21
-12.386667
31
0
39
0
210
0
220
0
230
1
0
LINE
5
1B4
100
AcDbEntity
8
0
62
256
6
ByLayer
370
-2
48
1
60
0
100
AcDbLine
10
37.475
20
-11.886667
30
0
11
108.825
21
-11.886667
31
0
39
0
210
0
220
0
230
1
0
SOLID
5
1B5
100
AcDbEntity
8
0
62
256
6
ByLayer
370
-1
48
1
60
0
100
AcDbTrace
10
37.475
20
-11.3575
30
0
11
37.475
21
-12.415833
31
0
12
34.3
22
-11.886667
32
0
13
34.3
23
-11.886667
33
0
39
0
210
0
220
0
230
1
0
SOLID
5
1B6
100
AcDbEntity
8
0
62
256
6
ByLayer
370
-1
48
1
60
0
100
AcDbTrace
10
108.825
20
-12.415833
30
0
11
108.825
21
-11.3575
31
0
12
112
22
-11.886667
32
0
13
112
23
-11.886667
33
0
39
0
210
0
220
0
230
1
0
MTEXT
5
1B7
100
AcDbEntity
8
0
62
256
6
ByLayer
370
18
48
1
60
0
100
AcDbMText
10
73.15
20
-6.041667
30
0
210
0
220
0
230
1
1
\A1;77.7
40
2.8
41
0
44
1
50
0
71
5
72
5
7
iso_b_vert
0
POINT
5
1B8
100
AcDbEntity
8
Defpoints
62
0
6
ByLayer
370
-1
48
1
60
0
100
AcDbPoint
10
34.3
20
-4.75
30
0
39
0
210
0
220
0
230
1
50
360
0
POINT
5
1B9
100
AcDbEntity
8
Defpoints
62
0
6
ByLayer
370
-1
48
1
60
0
100
AcDbPoint
10
112
20
0
30
0
39
0
210
0
220
0
230
1
50
360
0
POINT
5
1BA
100
AcDbEntity
8
Defpoints
62
0
6
ByLayer
370
-1
48
1
60
0
100
AcDbPoint
10
112
20
-11.886667
30
0
39
0
210
0
220
0
230
1
50
360
0
ENDBLK
5
1B1
100
AcDbEntity
8
0
100
AcDbBlockEnd
0
BLOCK
5
1C6
100
AcDbEntity
8
0
100
AcDbBlockBegin
2
_U5
70
0
10
0
20
0
30
0
3
_U5
0
MTEXT
5
1BC
100
AcDbEntity
8
SK2
62
256
6
ByLayer
370
18
48
1
60
0
100
AcDbMText
10
68.966454
20
-12.04056
30
0
210
0
220
0
230
1
1
\W0.7468;77.70
40
2.8
41
0
44
1.084337
50
0
71
7
72
5
7
iso_b_vert
0
LINE
5
1BD
100
AcDbEntity
8
SK2
62
256
6
ByLayer
370
13
48
1
60
0
100
AcDbLine
10
34.3
20
-6.3375
30
0
11
34.3
21
-12.386667
31
0
39
0
210
0
220
0
230
1
0
LINE
5
1BE
100
AcDbEntity
8
SK2
62
256
6
ByLayer
370
13
48
1
60
0
100
AcDbLine
10
112
20
-1.5875
30
0
11
112
21
-12.386667
31
0
39
0
210
0
220
0
230
1
0
LINE
5
1BF
100
AcDbEntity
8
SK2
62
256
6
ByLayer
370
13
48
1
60
0
100
AcDbLine
10
34.3
20
-11.886667
30
0
11
112
21
-11.886667
31
0
39
0
210
0
220
0
230
1
0
LINE
5
1C0
100
AcDbEntity
8
SK2
62
256
6
ByLayer
370
13
48
1
60
0
100
AcDbLine
10
34.3
20
-11.886667
30
0
11
37.474998
21
-11.46867
31
0
39
0
210
0
220
0
230
1
0
LINE
5
1C1
100
AcDbEntity
8
SK2
62
256
6
ByLayer
370
13
48
1
60
0
100
AcDbLine
10
34.3
20
-11.886667
30
0
11
37.475002
21
-12.304663
31
0
39
0
210
0
220
0
230
1
0
LINE
5
1C2
100
AcDbEntity
8
SK2
62
256
6
ByLayer
370
13
48
1
60
0
100
AcDbLine
10
37.474998
20
-11.46867
30
0
11
37.475002
21
-12.304663
31
0
39
0
210
0
220
0
230
1
0
LINE
5
1C3
100
AcDbEntity
8
SK2
62
256
6
ByLayer
370
13
48
1
60
0
100
AcDbLine
10
112
20
-11.886667
30
0
11
108.825002
21
-12.304663
31
0
39
0
210
0
220
0
230
1
0
LINE
5
1C4
100
AcDbEntity
8
SK2
62
256
6
ByLayer
370
13
48
1
60
0
100
AcDbLine
10
112
20
-11.886667
30
0
11
108.824998
21
-11.46867
31
0
39
0
210
0
220
0
230
1
0
LINE
5
1C5
100
AcDbEntity
8
SK2
62
256
6
ByLayer
370
13
48
1
60
0
100
AcDbLine
10
108.825002
20
-12.304663
30
0
11
108.824998
21
-11.46867
31
0
39
0
210
0
220
0
230
1
0
ENDBLK
5
1C7
100
AcDbEntity
8
0
100
AcDbBlockEnd
0
BLOCK
5
1CC
100
AcDbEntity
8
0
100
AcDbBlockBegin
2
*D14
70
1
10
0
20
0
30
0
3
*D14
0
LINE
5
1CE
100
AcDbEntity
8
0
62
256
6
ByLayer
370
-2
48
1
60
0
100
AcDbLine
10
-40
20
-1.5875
30
0
11
-40
21
-42.07512
31
0
39
0
210
0
220
0
230
1
0
LINE
5
1CF
100
AcDbEntity
8
0
62
256
6
ByLayer
370
-2
48
1
60
0
100
AcDbLine
10
112
20
-1.5875
30
0
11
112
21
-42.07512
31
0
39
0
210
0
220
0
230
1
0
LINE
5
1D0
100
AcDbEntity
8
0
62
256
6
ByLayer
370
-2
48
1
60
0
100
AcDbLine
10
-36.825
20
-38.90012
30
0
11
108.825
21
-38.90012
31
0
39
0
210
0
220
0
230
1
0
SOLID
5
1D1
100
AcDbEntity
8
0
62
256
6
ByLayer
370
-1
48
1
60
0
100
AcDbTrace
10
-36.825
20
-38.370953
30
0
11
-36.825
21
-39.429287
31
0
12
-40
22
-38.90012
32
0
13
-40
23
-38.90012
33
0
39
0
210
0
220
0
230
1
0
SOLID
5
1D2
100
AcDbEntity
8
0
62
256
6
ByLayer
370
-1
48
1
60
0
100
AcDbTrace
10
108.825
20
-39.429287
30
0
11
108.825
21
-38.370953
31
0
12
112
22
-38.90012
32
0
13
112
23
-38.90012
33
0
39
0
210
0
220
0
230
1
0
MTEXT
5
1D3
100
AcDbEntity
8
0
62
256
6
ByLayer
370
18
48
1
60
0
100
AcDbMText
10
36
20
-31.593619
30
0
210
0
220
0
230
1
1
\A1;152
40
3.50012
41
0
44
1
50
0
71
5
72
5
7
iso_b_vert
0
POINT
5
1D4
100
AcDbEntity
8
Defpoints
62
0
6
ByLayer
370
-1
48
1
60
0
100
AcDbPoint
10
-40
20
0
30
0
39
0
210
0
220
0
230
1
50
360
0
POINT
5
1D5
100
AcDbEntity
8
Defpoints
62
0
6
ByLayer
370
-1
48
1
60
0
100
AcDbPoint
10
112
20
0
30
0
39
0
210
0
220
0
230
1
50
360
0
POINT
5
1D6
100
AcDbEntity
8
Defpoints
62
0
6
ByLayer
370
-1
48
1
60
0
100
AcDbPoint
10
112
20
-38.90012
30
0
39
0
210
0
220
0
230
1
50
360
0
ENDBLK
5
1CD
100
AcDbEntity
8
0
100
AcDbBlockEnd
0
BLOCK
5
1E2
100
AcDbEntity
8
0
100
AcDbBlockBegin
2
_U6
70
0
10
0
20
0
30
0
3
_U6
0
MTEXT
5
1D8
100
AcDbEntity
8
SK2
62
256
6
ByLayer
370
18
48
1
60
0
100
AcDbMText
10
29.900059
20
-37.867451
30
0
210
0
220
0
230
1
1
\W0.7022;152.00
40
3.50012
41
0
44
1.084337
50
0
71
7
72
5
7
iso_b_vert
0
LINE
5
1D9
100
AcDbEntity
8
SK2
62
256
6
ByLayer
370
13
48
1
60
0
100
AcDbLine
10
-40
20
-1.5875
30
0
11
-40
21
-42.07512
31
0
39
0
210
0
220
0
230
1
0
LINE
5
1DA
100
AcDbEntity
8
SK2
62
256
6
ByLayer
370
13
48
1
60
0
100
AcDbLine
10
112
20
-1.5875
30
0
11
112
21
-42.07512
31
0
39
0
210
0
220
0
230
1
0
LINE
5
1DB
100
AcDbEntity
8
SK2
62
256
6
ByLayer
370
13
48
1
60
0
100
AcDbLine
10
-40
20
-38.90012
30
0
11
112
21
-38.90012
31
0
39
0
210
0
220
0
230
1
0
LINE
5
1DC
100
AcDbEntity
8
SK2
62
256
6
ByLayer
370
13
48
1
60
0
100
AcDbLine
10
-40
20
-38.90012
30
0
11
-36.825002
21
-38.482123
31
0
39
0
210
0
220
0
230
1
0
LINE
5
1DD
100
AcDbEntity
8
SK2
62
256
6
ByLayer
370
13
48
1
60
0
100
AcDbLine
10
-40
20
-38.90012
30
0
11
-36.824998
21
-39.318117
31
0
39
0
210
0
220
0
230
1
0
LINE
5
1DE
100
AcDbEntity
8
SK2
62
256
6
ByLayer
370
13
48
1
60
0
100
AcDbLine
10
-36.825002
20
-38.482123
30
0
11
-36.824998
21
-39.318117
31
0
39
0
210
0
220
0
230
1
0
LINE
5
1DF
100
AcDbEntity
8
SK2
62
256
6
ByLayer
370
13
48
1
60
0
100
AcDbLine
10
112
20
-38.90012
30
0
11
108.825002
21
-39.318117
31
0
39
0
210
0
220
0
230
1
0
LINE
5
1E0
100
AcDbEntity
8
SK2
62
256
6
ByLayer
370
13
48
1
60
0
100
AcDbLine
10
112
20
-38.90012
30
0
11
108.824998
21
-38.482123
31
0
39
0
210
0
220
0
230
1
0
LINE
5
1E1
100
AcDbEntity
8
SK2
62
256
6
ByLayer
370
13
48
1
60
0
100
AcDbLine
10
108.825002
20
-39.318117
30
0
11
108.824998
21
-38.482123
31
0
39
0
210
0
220
0
230
1
0
ENDBLK
5
1E3
100
AcDbEntity
8
0
100
AcDbBlockEnd
0
ENDSEC
0
SECTION
2
ENTITIES
0
ARC
5
B6
100
AcDbEntity
8
1
62
256
6
ByLayer
370
18
48
1
60
0
100
AcDbCircle
39
0
10
0.957758
20
5.481678
30
0
40
0.800000000000003
210
0
220
0
230
1
100
AcDbArc
50
233.230382
51
270.03581
0
ARC
5
B7
100
AcDbEntity
8
1
62
256
6
ByLayer
370
18
48
1
60
0
100
AcDbCircle
39
0
10
0.957758
20
-5.481678
30
0
40
0.800000000000003
210
0
220
0
230
1
100
AcDbArc
50
89.96419
51
126.769618
0
ARC
5
B8
100
AcDbEntity
8
1
62
256
6
ByLayer
370
18
48
1
60
0
100
AcDbCircle
39
0
10
0
20
4.2
30
0
40
0.799999999999998
210
0
220
0
230
1
100
AcDbArc
50
53.230382
51
90
0
ARC
5
B9
100
AcDbEntity
8
1
62
256
6
ByLayer
370
18
48
1
60
0
100
AcDbCircle
39
0
10
0
20
-4.2
30
0
40
0.799999999999998
210
0
220
0
230
1
100
AcDbArc
50
270
51
306.769618
0
ARC
5
BA
100
AcDbEntity
8
SK2
62
256
6
ByLayer
370
13
48
1
60
0
100
AcDbCircle
39
0
10
112
20
0
30
0
40
20.2666666666666
210
0
220
0
230
1
100
AcDbArc
50
9.478775
51
69.999559
0
ARC
5
BB
100
AcDbEntity
8
SK2
62
256
6
ByLayer
370
13
48
1
60
0
100
AcDbCircle
39
0
10
112
20
0
30
0
40
20.2666666666666
210
0
220
0
230
1
100
AcDbArc
50
290.000441
51
350.521225
0
ELLIPSE
5
BC
100
AcDbEntity
8
1
62
256
6
ByLayer
370
18
48
1
60
0
100
AcDbEllipse
10
64.601731
20
-4.584277
30
0
11
-0.1
21
1.22460635382238E-17
31
0
210
0
220
0
230
1
40
1
41
-1.57291403807633
42
-0.0006651890093333
0
ELLIPSE
5
BD
100
AcDbEntity
8
1
62
256
6
ByLayer
370
18
48
1
60
0
100
AcDbEllipse
10
64.601731
20
4.584277
30
0
11
-0.1
21
1.22460635382238E-17
31
0
210
0
220
0
230
1
40
1
41
0.000665189008782629
42
1.57443678469317
0
POINT
5
70
100
AcDbEntity
8
80
62
256
6
ByLayer
370
18
48
1
60
0
100
AcDbPoint
10
0
20
0
30
0
39
0
210
0
220
0
230
1
50
360
0
POINT
5
72
100
AcDbEntity
8
81
62
256
6
ByLayer
370
18
48
1
60
0
100
AcDbPoint
10
112
20
0
30
0
39
0
210
0
220
0
230
1
50
360
0
POINT
5
74
100
AcDbEntity
8
1
62
256
6
ByLayer
370
18
48
1
60
0
100
AcDbPoint
10
-40
20
0
30
0
39
0
210
0
220
0
230
1
50
360
0
POINT
5
76
100
AcDbEntity
8
1
62
256
6
ByLayer
370
18
48
1
60
1
100
AcDbPoint
10
0
20
-5
30
0
39
0
210
0
220
0
230
1
50
360
0
POINT
5
77
100
AcDbEntity
8
1
62
256
6
ByLayer
370
18
48
1
60
1
100
AcDbPoint
10
112
20
0
30
0
39
0
210
0
220
0
230
1
50
360
0
POINT
5
78
100
AcDbEntity
8
1
62
256
6
ByLayer
370
18
48
1
60
1
100
AcDbPoint
10
110.2711
20
-4.75
30
0
39
0
210
0
220
0
230
1
50
360
0
POINT
5
79
100
AcDbEntity
8
1
62
256
6
ByLayer
370
18
48
1
60
1
100
AcDbPoint
10
110.2711
20
4.75
30
0
39
0
210
0
220
0
230
1
50
360
0
POINT
5
7A
100
AcDbEntity
8
1
62
256
6
ByLayer
370
18
48
1
60
1
100
AcDbPoint
10
-40
20
5
30
0
39
0
210
0
220
0
230
1
50
360
0
POINT
5
7B
100
AcDbEntity
8
1
62
256
6
ByLayer
370
18
48
1
60
1
100
AcDbPoint
10
-40
20
-5
30
0
39
0
210
0
220
0
230
1
50
360
0
POINT
5
7C
100
AcDbEntity
8
1
62
256
6
ByLayer
370
18
48
1
60
1
100
AcDbPoint
10
-40
20
-5
30
0
39
0
210
0
220
0
230
1
50
360
0
POINT
5
7D
100
AcDbEntity
8
1
62
256
6
ByLayer
370
18
48
1
60
1
100
AcDbPoint
10
0
20
-5
30
0
39
0
210
0
220
0
230
1
50
360
0
POINT
5
7E
100
AcDbEntity
8
1
62
256
6
ByLayer
370
18
48
1
60
1
100
AcDbPoint
10
6
20
5.25
30
0
39
0
210
0
220
0
230
1
50
360
0
POINT
5
7F
100
AcDbEntity
8
1
62
256
6
ByLayer
370
18
48
1
60
1
100
AcDbPoint
10
112
20
0
30
0
39
0
210
0
220
0
230
1
50
360
0
POINT
5
80
100
AcDbEntity
8
1
62
256
6
ByLayer
370
18
48
1
60
1
100
AcDbPoint
10
34.3
20
-4.75
30
0
39
0
210
0
220
0
230
1
50
360
0
POINT
5
81
100
AcDbEntity
8
1
62
256
6
ByLayer
370
18
48
1
60
1
100
AcDbPoint
10
112
20
0
30
0
39
0
210
0
220
0
230
1
50
360
0
POINT
5
82
100
AcDbEntity
8
1
62
256
6
ByLayer
370
18
48
1
60
1
100
AcDbPoint
10
-40
20
0
30
0
39
0
210
0
220
0
230
1
50
360
0
POINT
5
83
100
AcDbEntity
8
1
62
256
6
ByLayer
370
18
48
1
60
1
100
AcDbPoint
10
112
20
0
30
0
39
0
210
0
220
0
230
1
50
360
0
SPLINE
5
BE
100
AcDbEntity
8
1
62
256
6
ByLayer
370
18
48
1
60
0
100
AcDbSpline
70
4
71
3
72
32
73
28
40
0
40
0
40
0
40
0
40
0.497827203696504
40
0.497827203696504
40
0.671531700287177
40
0.671531700287177
40
0.785334091299443
40
0.785334091299443
40
0.859946050120727
40
0.859946050120727
40
0.908857266207388
40
0.908857266207388
40
0.940870359509368
40
0.940870359509368
40
0.961992074488029
40
0.961992074488029
40
0.975905368836731
40
0.975905368836731
40
0.984776599076069
40
0.984776599076069
40
0.990612474177889
40
0.990612474177889
40
0.994598401701042
40
0.994598401701042
40
0.998547160386932
40
0.998547160386932
40
1
40
1
40
1
40
1
41
1
10
110.055150273924
20
4.74882534795262
30
0
41
1
10
110.102648615891
20
4.71790117053621
30
0
41
1
10
110.150229201226
20
4.68665675173793
30
0
41
1
10
110.214535678441
20
4.64408360803682
30
0
41
1
10
110.231182912143
20
4.63303140464129
30
0
41
1
10
110.258751513881
20
4.61467804749631
30
0
41
1
10
110.269666324838
20
4.60739870517406
30
0
41
1
10
110.287729820522
20
4.59533061817757
30
0
41
1
10
110.294877008199
20
4.59055022515469
30
0
41
1
10
110.306727435799
20
4.58261445608849
30
0
41
1
10
110.311425844474
20
4.57946560137009
30
0
41
1
10
110.319218859853
20
4.574238602528
30
0
41
1
10
110.322305543962
20
4.57216725429737
30
0
41
1
10
110.327393433896
20
4.56875178243999
30
0
41
1
10
110.329394958481
20
4.5674079740856
30
0
41
1
10
110.332734225179
20
4.56516498707339
30
0
41
1
10
110.334074563714
20
4.56426432932926
30
0
41
1
10
110.336309355516
20
4.56276195287117
30
0
41
1
10
110.33718892324
20
4.56217049487185
30
0
41
1
10
110.338637232447
20
4.56119659174902
30
0
41
1
10
110.339210044637
20
4.56081140502312
30
0
41
1
10
110.340157619425
20
4.56017429020429
30
0
41
1
10
110.340538328441
20
4.55991833678544
30
0
41
1
10
110.341270047029
20
4.55942652195327
30
0
41
1
10
110.341628724923
20
4.55918549390393
30
0
41
1
10
110.342047773167
20
4.55890418957333
30
0
41
1
10
110.342153053863
20
4.55883355356019
30
0
41
1
10
110.342242293474
20
4.55877374862715
30
0
0
SPLINE
5
BF
100
AcDbEntity
8
1
62
256
6
ByLayer
370
18
48
1
60
0
100
AcDbSpline
70
4
71
3
72
26
73
22
40
0
40
0
40
0
40
0
40
0.0037091636706222
40
0.0037091636706222
40
0.114408145485
40
0.114408145485
40
0.335806109113751
40
0.335806109113751
40
0.446505090928125
40
0.446505090928125
40
0.557204072742498
40
0.557204072742498
40
0.778602036371244
40
0.778602036371244
40
0.833951527278433
40
0.833951527278433
40
0.889301018185622
40
0.889301018185622
40
0.944650509092811
40
0.944650509092811
40
1
40
1
40
1
40
1
41
1
10
97.4036611717398
20
0.24481932375258
30
0
41
1
10
97.4197120543964
20
0.23647787290912
30
0
41
1
10
97.4357629843923
20
0.228135111413167
30
0
41
1
10
97.9308415156142
20
-0.0292264264467974
30
0
41
1
10
98.4069317525237
20
-0.277578632302891
30
0
41
1
10
99.8303706108915
20
-1.01331211194741
30
1E-16
41
1
10
100.772915358662
20
-1.49120153174388
30
1E-16
41
1
10
102.193010943467
20
-2.15923893765293
30
1E-16
41
1
10
102.667428543395
20
-2.37377930252504
30
1E-16
41
1
10
103.621108345101
20
-2.78144758323401
30
2E-16
41
1
10
104.101541671898
20
-2.97503699096288
30
2E-16
41
1
10
105.533863700421
20
-3.50908458022525
30
2E-16
41
1
10
106.482522666748
20
-3.80500146194089
30
-2E-16
41
1
10
107.674428101271
20
-4.08508990776053
30
0
41
1
10
107.913112877415
20
-4.13661039602479
30
0
41
1
10
108.391428987976
20
-4.23026061559156
30
0
41
1
10
108.631286357534
20
-4.27241763017051
30
0
41
1
10
109.11029105833
20
-4.34664672707387
30
0
41
1
10
109.349617441648
20
-4.37876549341416
30
0
41
1
10
109.828252038926
20
-4.43283710099189
30
0
41
1
10
110.067547496412
20
-4.45433879309462
30
1E-16
41
1
10
110.307021748938
20
-4.4715997964143
30
1E-16
0
SPLINE
5
C0
100
AcDbEntity
8
1
62
256
6
ByLayer
370
18
48
1
60
0
100
AcDbSpline
70
4
71
3
72
8
73
4
40
0
40
0
40
0
40
0
40
1
40
1
40
1
40
1
41
1
10
111.995619711557
20
0.262244435955125
30
0
41
1
10
112.001467188085
20
0.0872025186432381
30
0
41
1
10
112.00145302146
20
-0.0876265910012535
30
0
41
1
10
111.995619711558
20
-0.262244435941483
30
0
0
SPLINE
5
C1
100
AcDbEntity
8
1
62
256
6
ByLayer
370
18
48
1
60
0
100
AcDbSpline
70
4
71
3
72
30
73
26
40
0
40
0
40
0
40
0
40
0.125
40
0.125
40
0.1875
40
0.1875
40
0.25
40
0.25
40
0.3125
40
0.3125
40
0.375
40
0.375
40
0.4375
40
0.4375
40
0.499999999999999
40
0.499999999999999
40
0.562499999999999
40
0.562499999999999
40
0.625
40
0.625
40
0.75
40
0.75
40
0.875
40
0.875
40
1
40
1
40
1
40
1
41
1
10
109.766037427648
20
-0.115809112651306
30
0
41
1
10
109.776713491897
20
-0.383100805079124
30
0
41
1
10
109.798061659263
20
-0.644883575639085
30
0
41
1
10
109.838467534784
20
-1.03038862129517
30
1E-16
41
1
10
109.853362716703
20
-1.15768510190034
30
1E-16
41
1
10
109.885005268086
20
-1.40993861018381
30
1E-16
41
1
10
109.901810409614
20
-1.53529736485785
30
1E-16
41
1
10
109.93610920226
20
-1.78166232128484
30
1E-16
41
1
10
109.953548942334
20
-1.90233988294469
30
1E-16
41
1
10
109.988221587227
20
-2.13880237943013
30
1E-16
41
1
10
110.005494224418
20
-2.25484927972593
30
1E-16
41
1
10
110.038947006576
20
-2.48032533986728
30
2E-16
41
1
10
110.055136579544
20
-2.58982236898137
30
2E-16
41
1
10
110.086000683403
20
-2.80236257060076
30
2E-16
41
1
10
110.100696622667
20
-2.90557126984976
30
2E-16
41
1
10
110.12804728854
20
-3.1035967668565
30
2E-16
41
1
10
110.140734265411
20
-3.19862673728852
30
2E-16
41
1
10
110.164087759236
20
-3.38067387453051
30
2E-16
41
1
10
110.174750625696
20
-3.46768816174034
30
2E-16
41
1
10
110.20364282497
20
-3.71402594996883
30
-2E-16
41
1
10
110.218860158084
20
-3.86020574140073
30
-2E-16
41
1
10
110.244457982057
20
-4.11006745089801
30
0
41
1
10
110.25496043247
20
-4.21450548882765
30
0
41
1
10
110.277534930371
20
-4.37696281132585
30
0
41
1
10
110.289655309814
20
-4.43572577461842
30
0
41
1
10
110.307021748938
20
-4.4715997964143
30
1E-16
0
SPLINE
5
C2
100
AcDbEntity
8
1
62
256
6
ByLayer
370
18
48
1
60
0
100
AcDbSpline
70
4
71
3
72
60
73
56
40
0
40
0
40
0
40
0
40
0.0156944161062912
40
0.0156944161062912
40
0.0636157908044054
40
0.0636157908044054
40
0.087576478153463
40
0.087576478153463
40
0.111537165502521
40
0.111537165502521
40
0.159458540200637
40
0.159458540200637
40
0.207379914898753
40
0.207379914898753
40
0.255301289596869
40
0.255301289596869
40
0.279261976945927
40
0.279261976945927
40
0.303222664294985
40
0.303222664294985
40
0.399065413691215
40
0.399065413691215
40
0.446986788389331
40
0.446986788389331
40
0.470947475738389
40
0.470947475738389
40
0.494908163087447
40
0.494908163087447
40
0.542829537785563
40
0.542829537785563
40
0.566790225134622
40
0.566790225134622
40
0.59075091248368
40
0.59075091248368
40
0.638672287181795
40
0.638672287181795
40
0.686593661879911
40
0.686593661879911
40
0.782436411276142
40
0.782436411276142
40
0.8063970986252
40
0.8063970986252
40
0.830357785974257
40
0.830357785974257
40
0.878279160672371
40
0.878279160672371
40
0.902239848021428
40
0.902239848021428
40
0.926200535370485
40
0.926200535370485
40
0.974121910068599
40
0.974121910068599
40
0.998082597417655
40
0.998082597417655
40
1
40
1
40
1
40
1
41
1
10
22.0531370892766
20
3.4447369779266
30
0
41
1
10
22.2278043898043
20
3.50919422531845
30
0
41
1
10
22.4024521615396
20
3.57154451326164
30
0
41
1
10
23.1105822894175
20
3.81536015273235
30
2E-16
41
1
10
23.6444453578406
20
3.97858799651576
30
2E-16
41
1
10
24.4491559272833
20
4.18877578083919
30
2E-16
41
1
10
24.7180239282667
20
4.25308636650155
30
0
41
1
10
25.2575487820536
20
4.36955959725245
30
0
41
1
10
25.5282916733285
20
4.42170059236977
30
0
41
1
10
26.3380691983444
20
4.55802657115799
30
-1E-16
41
1
10
26.876616520483
20
4.62262366379773
30
1E-16
41
1
10
27.9550809479585
20
4.69769184661064
30
0
41
1
10
28.4964337387263
20
4.70799681065228
30
0
41
1
10
29.5755069996314
20
4.67364573762347
30
0
41
1
10
30.1138989839584
20
4.62913171748582
30
0
41
1
10
30.9231814732819
20
4.52230257954071
30
-1E-16
41
1
10
31.1935092124686
20
4.47994381883419
30
-1E-16
41
1
10
31.733775487098
20
4.38229020871788
30
0
41
1
10
32.0029451987261
20
4.32715544174994
30
0
41
1
10
33.3454135608472
20
4.02153432576378
30
2E-16
41
1
10
34.4083386518359
20
3.68098108106835
30
2E-16
41
1
10
36.0105688799458
20
3.05444257237627
30
-2E-16
41
1
10
36.5460274896723
20
2.82642943980315
30
-2E-16
41
1
10
37.354378323917
20
2.45946078582963
30
-2E-16
41
1
10
37.6250342609095
20
2.3327547644212
30
-1E-16
41
1
10
38.1648256979022
20
2.07355668209931
30
-1E-16
41
1
10
38.4343816225014
20
1.94096042750999
30
-1E-16
41
1
10
39.2427407380706
20
1.53541760478586
30
-1E-16
41
1
10
39.7811525315706
20
1.2545656985364
30
-1E-16
41
1
10
40.5914415161547
20
0.82347007483537
30
-1E-16
41
1
10
40.8618197124838
20
0.678227422444365
30
0
41
1
10
41.4012989840478
20
0.386771811221365
30
0
41
1
10
41.6707196937731
20
0.240390512954917
30
0
41
1
10
42.4788830091957
20
-0.199128674923543
30
0
41
1
10
43.0176161068363
20
-0.492595908242066
30
0
41
1
10
44.0988027199152
20
-1.07269041021402
30
1E-16
41
1
10
44.6353503258896
20
-1.3561458973264
30
1E-16
41
1
10
46.2396269430187
20
-2.17539265588923
30
1E-16
41
1
10
47.3016098318355
20
-2.68071605766241
30
2E-16
41
1
10
48.640322056106
20
-3.22763316544751
30
2E-16
41
1
10
48.9086513918985
20
-3.33274839553579
30
2E-16
41
1
10
49.446952246845
20
-3.53368516539871
30
2E-16
41
1
10
49.7174088616939
20
-3.62966679827878
30
-2E-16
41
1
10
50.5271134036313
20
-3.90072824266815
30
-2E-16
41
1
10
51.0653481023071
20
-4.05916519594228
30
-2E-16
41
1
10
51.8734566711207
20
-4.26053551285659
30
-2E-16
41
1
10
52.1429335414549
20
-4.32162536027511
30
0
41
1
10
52.682692219569
20
-4.43119965054777
30
0
41
1
10
52.9530836643995
20
-4.47965876125573
30
1E-16
41
1
10
53.7622577020713
20
-4.60492256329465
30
1E-16
41
1
10
54.3002875438891
20
-4.66192101154948
30
0
41
1
10
55.1086271088845
20
-4.70652100780251
30
0
41
1
10
55.3782932098925
20
-4.71457815063289
30
0
41
1
10
55.6700263979033
20
-4.71584396392254
30
0
41
1
10
55.6916389377462
20
-4.71589352440179
30
0
41
1
10
55.7132481558378
20
-4.71589893099357
30
0
0
SPLINE
5
C3
100
AcDbEntity
8
1
62
256
6
ByLayer
370
18
48
1
60
0
100
AcDbSpline
70
4
71
3
72
8
73
4
40
0
40
0
40
0
40
0
40
1
40
1
40
1
40
1
41
1
10
110.342242293474
20
4.55877374862706
30
0
41
1
10
110.344893858377
20
4.55698881849358
30
0
41
1
10
110.347545461411
20
4.55520366231443
30
0
41
1
10
110.350197102605
20
4.55341828034267
30
0
0
SPLINE
5
C4
100
AcDbEntity
8
1
62
256
6
ByLayer
370
18
48
1
60
0
100
AcDbSpline
70
4
71
3
72
8
73
4
40
0
40
0
40
0
40
0
40
1
40
1
40
1
40
1
41
1
10
110.037954749449
20
-4.68655679114093
30
0
41
1
10
110.119394686724
20
-4.64043506462784
30
0
41
1
10
110.201048429958
20
-4.59331225749457
30
-1E-16
41
1
10
110.282955012563
20
-4.54521762456659
30
-1E-16
0
SPLINE
5
C5
100
AcDbEntity
8
1
62
256
6
ByLayer
370
18
48
1
60
0
100
AcDbSpline
70
4
71
3
72
8
73
4
40
0
40
0
40
0
40
0
40
1
40
1
40
1
40
1
41
1
10
109.645296581987
20
-0.0436463538087821
30
0
41
1
10
109.683987185567
20
-0.0642483117549659
30
0
41
1
10
109.722420512964
20
-0.0836816952493962
30
0
41
1
10
109.760645131212
20
-0.101977128230089
30
0
0
SPLINE
5
C6
100
AcDbEntity
8
1
62
256
6
ByLayer
370
18
48
1
60
0
100
AcDbSpline
70
4
71
3
72
8
73
4
40
0
40
0
40
0
40
0
40
1
40
1
40
1
40
1
41
1
10
111.2034368712
20
-0.499438924211574
30
0
41
1
10
111.038288672271
20
-0.0585946552623113
30
0
41
1
10
110.82855084661
20
0.411525235466598
30
0
41
1
10
110.57522068975
20
0.910265966829684
30
-1E-16
0
SPLINE
5
C7
100
AcDbEntity
8
1
62
256
6
ByLayer
370
18
48
1
60
0
100
AcDbSpline
70
4
71
3
72
24
73
20
40
0
40
0
40
0
40
0
40
0.0573361522574099
40
0.0573361522574099
40
0.114672304514819
40
0.114672304514819
40
0.229344609029645
40
0.229344609029645
40
0.45868921805929
40
0.45868921805929
40
0.516025370316697
40
0.516025370316697
40
0.573361522574104
40
0.573361522574104
40
0.688033827088919
40
0.688033827088919
40
0.917378436118548
40
0.917378436118548
40
1
40
1
40
1
40
1
41
1
10
110.304436141261
20
-4.48282996159938
30
1E-16
41
1
10
110.065117350037
20
-4.46577704770331
30
1E-16
41
1
10
109.826375360609
20
-4.4445734567997
30
1E-16
41
1
10
109.350132268759
20
-4.39124053750515
30
0
41
1
10
109.112564192094
20
-4.35959071439328
30
0
41
1
10
108.401026835313
20
-4.25015826403626
30
0
41
1
10
107.928224139741
20
-4.15788792720085
30
0
41
1
10
106.510661925209
20
-3.82718849943163
30
-2E-16
41
1
10
105.566798119129
20
-3.53491386202373
30
2E-16
41
1
10
104.374742021731
20
-3.09227926894718
30
2E-16
41
1
10
104.135725394823
20
-2.99991257976794
30
2E-16
41
1
10
103.656134399686
20
-2.80793252342795
30
2E-16
41
1
10
103.416518183352
20
-2.7087060877495
30
2E-16
41
1
10
102.700350568354
20
-2.40325181384353
30
1E-16
41
1
10
102.225375930587
20
-2.18876902978241
30
1E-16
41
1
10
100.803731627735
20
-1.52050227541923
30
1E-16
41
1
10
99.8603176435646
20
-1.04192422770569
30
1E-16
41
1
10
98.5684382939146
20
-0.373170634391698
30
0
41
1
10
98.225470613853
20
-0.194385207139021
30
0
41
1
10
97.8811798751967
20
-0.0148415217618378
30
0
0
SPLINE
5
C8
100
AcDbEntity
8
1
62
256
6
ByLayer
370
18
48
1
60
0
100
AcDbSpline
70
4
71
3
72
64
73
60
40
0
40
0
40
0
40
0
40
0.0624999999999995
40
0.0624999999999995
40
0.124999999999999
40
0.124999999999999
40
0.187499999999999
40
0.187499999999999
40
0.249999999999998
40
0.249999999999998
40
0.281249999999997
40
0.281249999999997
40
0.312499999999997
40
0.312499999999997
40
0.328124999999996
40
0.328124999999996
40
0.343749999999996
40
0.343749999999996
40
0.359374999999995
40
0.359374999999995
40
0.374999999999994
40
0.374999999999994
40
0.406249999999993
40
0.406249999999993
40
0.421874999999992
40
0.421874999999992
40
0.437499999999992
40
0.437499999999992
40
0.46874999999999
40
0.46874999999999
40
0.499999999999988
40
0.499999999999988
40
0.531249999999985
40
0.531249999999985
40
0.562499999999983
40
0.562499999999983
40
0.624999999999978
40
0.624999999999978
40
0.656249999999976
40
0.656249999999976
40
0.664062499999976
40
0.664062499999976
40
0.667968749999975
40
0.667968749999975
40
0.671874999999974
40
0.671874999999974
40
0.675781249999974
40
0.675781249999974
40
0.679687499999973
40
0.679687499999973
40
0.687499999999973
40
0.687499999999973
40
0.749999999999978
40
0.749999999999978
40
0.812499999999984
40
0.812499999999984
40
0.874999999999989
40
0.874999999999989
40
1
40
1
40
1
40
1
41
1
10
9.58448462564061
20
-3.57320608408784
30
2E-16
41
1
10
9.32029425145365
20
-3.48061761940764
30
2E-16
41
1
10
9.06023067422632
20
-3.37969125661192
30
2E-16
41
1
10
8.55006718774325
20
-3.15710352980651
30
2E-16
41
1
10
8.29993827528375
20
-3.03550733579408
30
2E-16
41
1
10
7.81248487130765
20
-2.76497335546233
30
2E-16
41
1
10
7.57507455385706
20
-2.61622797094196
30
2E-16
41
1
10
7.11855424226457
20
-2.27882041547946
30
1E-16
41
1
10
6.90326652602104
20
-2.0933010776115
30
1E-16
41
1
10
6.61096959331303
20
-1.77614157556718
30
1E-16
41
1
10
6.51948670489119
20
-1.66452616954203
30
1E-16
41
1
10
6.35354810001635
20
-1.4293471348721
30
1E-16
41
1
10
6.27872756576807
20
-1.30547719296177
30
1E-16
41
1
10
6.18247425309903
20
-1.1073385542104
30
1E-16
41
1
10
6.15295942237589
20
-1.03884662773271
30
1E-16
41
1
10
6.10125754476755
20
-0.899958407491965
30
1E-16
41
1
10
6.07894070593019
20
-0.829375279976517
30
1E-16
41
1
10
6.04192997764807
20
-0.68575263888863
30
0
41
1
10
6.02723467536478
20
-0.612713569516615
30
0
41
1
10
6.00616885532864
20
-0.463954475673859
30
0
41
1
10
5.99986355395134
20
-0.388008603017141
30
0
41
1
10
5.99451227476439
20
-0.162564675960169
30
0
41
1
10
6.008568943462
20
-0.0133657586079039
30
0
41
1
10
6.0552176862403
20
0.208836998717743
30
0
41
1
10
6.07505269892053
20
0.28241923862322
30
0
41
1
10
6.12172518576582
20
0.425496037779482
30
0
41
1
10
6.14865216781828
20
0.495466943605692
30
0
41
1
10
6.23915159306415
20
0.701142472244584
30
0
41
1
10
6.31299274147014
20
0.833235185451855
30
-1E-16
41
1
10
6.47650649479428
20
1.08008421936378
30
-1E-16
41
1
10
6.56660731162654
20
1.19605561391876
30
-1E-16
41
1
10
6.75976197698853
20
1.41648914667707
30
-1E-16
41
1
10
6.8633586745749
20
1.52137690668883
30
-1E-16
41
1
10
7.07858499791024
20
1.71939387942336
30
-1E-16
41
1
10
7.18986642091173
20
1.81231963146806
30
-1E-16
41
1
10
7.53240278614393
20
2.07681882320165
30
-1E-16
41
1
10
7.77223472264401
20
2.23431111213065
30
-1E-16
41
1
10
8.14407403224089
20
2.45110580061828
30
-2E-16
41
1
10
8.27007515580951
20
2.52006258726075
30
-2E-16
41
1
10
8.42981965408353
20
2.60268594458347
30
-2E-16
41
1
10
8.46187287468535
20
2.61902703657367
30
-2E-16
41
1
10
8.51007233290963
20
2.64325717236557
30
-2E-16
41
1
10
8.52616026023452
20
2.65128773835258
30
-2E-16
41
1
10
8.5583776126428
20
2.66725793790312
30
-2E-16
41
1
10
8.57419465439747
20
2.67625693086896
30
-2E-16
41
1
10
8.6095222407742
20
2.68567050392593
30
-2E-16
41
1
10
8.62852293667021
20
2.68681031577336
30
-2E-16
41
1
10
8.66544524827268
20
2.68484607274371
30
-2E-16
41
1
10
8.68367956326304
20
2.68091433677714
30
-2E-16
41
1
10
8.7377362708672
20
2.66859927183421
30
-2E-16
41
1
10
8.77373920687236
20
2.66026787456963
30
-2E-16
41
1
10
9.09744231030325
20
2.5841857679934
30
-2E-16
41
1
10
9.38296252572675
20
2.50870739822463
30
-2E-16
41
1
10
9.9481000033268
20
2.34206265057304
30
-1E-16
41
1
10
10.2278253119377
20
2.25089690701216
30
-1E-16
41
1
10
10.7822085184536
20
2.05295248525903
30
-1E-16
41
1
10
11.057139483474
20
1.94604321481023
30
-1E-16
41
1
10
11.8733460854015
20
1.60394639545228
30
-1E-16
41
1
10
12.4057407189455
20
1.34745447608353
30
-1E-16
41
1
10
12.9317187201432
20
1.06969305104792
30
-1E-16
0
SPLINE
5
C9
100
AcDbEntity
8
1
62
256
6
ByLayer
370
18
48
1
60
0
100
AcDbSpline
70
4
71
3
72
26
73
22
40
0
40
0
40
0
40
0
40
0.206899908615799
40
0.206899908615799
40
0.310349862923699
40
0.310349862923699
40
0.362074840077648
40
0.362074840077648
40
0.413799817231597
40
0.413799817231597
40
0.620699725847393
40
0.620699725847393
40
0.724149680155292
40
0.724149680155292
40
0.77587465730924
40
0.77587465730924
40
0.827599634463189
40
0.827599634463189
40
0.931049588771084
40
0.931049588771084
40
1
40
1
40
1
40
1
41
1
10
12.9317300118412
20
1.06968841076559
30
-1E-16
41
1
10
14.0139044675434
20
0.498832612006339
30
0
41
1
10
15.0802291663408
20
-0.0884641493807692
30
0
41
1
10
16.6808147679604
20
-0.947426302174563
30
1E-16
41
1
10
17.2144409305727
20
-1.23024374159277
30
1E-16
41
1
10
18.018309786329
20
-1.64309204970684
30
1E-16
41
1
10
18.2868134767567
20
-1.77885656505038
30
1E-16
41
1
10
18.8254508191018
20
-2.04568578239483
30
1E-16
41
1
10
19.0962222991765
20
-2.17711692769436
30
1E-16
41
1
10
20.4453862042868
20
-2.81501253869433
30
2E-16
41
1
10
21.5102923882485
20
-3.26436579416532
30
2E-16
41
1
10
23.1105822894174
20
-3.81536015273235
30
-2E-16
41
1
10
23.6444453578406
20
-3.97858799651576
30
-2E-16
41
1
10
24.4491559272833
20
-4.18877578083919
30
-2E-16
41
1
10
24.7180239282667
20
-4.25308636650152
30
0
41
1
10
25.2575487820536
20
-4.36955959725245
30
0
41
1
10
25.5282916733285
20
-4.42170059236975
30
0
41
1
10
26.3380691983444
20
-4.55802657115799
30
1E-16
41
1
10
26.876616520483
20
-4.62262366379773
30
-1E-16
41
1
10
27.7752523041289
20
-4.68517459600312
30
0
41
1
10
28.1355979093174
20
-4.69809529586286
30
0
41
1
10
28.4957199321422
20
-4.69884542639224
30
0
0
SPLINE
5
CA
100
AcDbEntity
8
1
62
256
6
ByLayer
370
18
48
1
60
0
100
AcDbSpline
70
4
71
3
72
30
73
26
40
0
40
0
40
0
40
0
40
0.0473174668699708
40
0.0473174668699708
40
0.153171081662197
40
0.153171081662197
40
0.20609788905831
40
0.20609788905831
40
0.259024696454424
40
0.259024696454424
40
0.364878311246648
40
0.364878311246648
40
0.41780511864276
40
0.41780511864276
40
0.470731926038872
40
0.470731926038872
40
0.576585540831096
40
0.576585540831096
40
0.788292770415545
40
0.788292770415545
40
0.841219577811658
40
0.841219577811658
40
0.894146385207771
40
0.894146385207771
40
1
40
1
40
1
40
1
41
1
10
49.2634197078374
20
3.46500804633831
30
-2E-16
41
1
10
49.5042736052504
20
3.55396678961742
30
-1E-16
41
1
10
49.7460138272098
20
3.63924276440943
30
2E-16
41
1
10
50.5271134036313
20
3.90072824266815
30
2E-16
41
1
10
51.0653481023071
20
4.05916519594228
30
2E-16
41
1
10
51.8734566711207
20
4.26053551285659
30
2E-16
41
1
10
52.1429335414549
20
4.32162536027508
30
0
41
1
10
52.682692219569
20
4.43119965054777
30
0
41
1
10
52.9530836643995
20
4.47965876125573
30
-1E-16
41
1
10
53.7622577020713
20
4.60492256329465
30
-1E-16
41
1
10
54.3002875438891
20
4.66192101154948
30
0
41
1
10
55.1086271088845
20
4.70652100780251
30
0
41
1
10
55.3782932098925
20
4.71457815063289
30
0
41
1
10
55.9185284224448
20
4.71692219971501
30
0
41
1
10
56.1881710045933
20
4.71118750387092
30
0
41
1
10
56.994035280338
20
4.67369871303589
30
0
41
1
10
57.5283171241446
20
4.62169623533472
30
1E-16
41
1
10
59.1281520286334
20
4.38834030413372
30
0
41
1
10
60.1908617096839
20
4.12954572899073
30
2E-16
41
1
10
61.535275315352
20
3.69112210023437
30
2E-16
41
1
10
61.8054500262303
20
3.59751424615752
30
-2E-16
41
1
10
62.3452621896344
20
3.40020224948759
30
-2E-16
41
1
10
62.6146928982227
20
3.29653511841553
30
-2E-16
41
1
10
63.4225685007176
20
2.9718931178387
30
-2E-16
41
1
10
63.960580606421
20
2.73727414959402
30
-2E-16
41
1
10
64.5000000000106
20
2.48728165189956
30
-2E-16
0
SPLINE
5
CB
100
AcDbEntity
8
1
62
256
6
ByLayer
370
18
48
1
60
0
100
AcDbSpline
70
4
71
3
72
18
73
14
40
0
40
0
40
0
40
0
40
0.233762311855796
40
0.233762311855796
40
0.429771314206645
40
0.429771314206645
40
0.627460957144936
40
0.627460957144936
40
0.800330552367816
40
0.800330552367816
40
0.967425039244783
40
0.967425039244783
40
1
40
1
40
1
40
1
41
1
10
110.307021748937
20
-4.47159979641424
30
1E-16
41
1
10
110.307104877951
20
-4.47177151682484
30
1E-16
41
1
10
110.307130443307
20
-4.47212751014737
30
1E-16
41
1
10
110.307044699117
20
-4.47313787110062
30
1E-16
41
1
10
110.306953056838
20
-4.47374825306983
30
1E-16
41
1
10
110.306660238023
20
-4.47522066992411
30
1E-16
41
1
10
110.306452692402
20
-4.47610964431351
30
1E-16
41
1
10
110.305981587303
20
-4.47790260344425
30
1E-16
41
1
10
110.305722000812
20
-4.47881466363458
30
1E-16
41
1
10
110.30518042049
20
-4.48059607036211
30
1E-16
41
1
10
110.304893035022
20
-4.48148749446625
30
1E-16
41
1
10
110.304549555571
20
-4.48250042421387
30
1E-16
41
1
10
110.304492853944
20
-4.48266597902276
30
1E-16
41
1
10
110.304436141261
20
-4.48282996159938
30
1E-16
0
SPLINE
5
CC
100
AcDbEntity
8
1
62
256
6
ByLayer
370
18
48
1
60
0
100
AcDbSpline
70
4
71
3
72
8
73
4
40
0
40
0
40
0
40
0
40
1
40
1
40
1
40
1
41
1
10
111.995619711557
20
0.262244435955125
30
0
41
1
10
111.975102351524
20
0.193858485832749
30
0
41
1
10
111.954482632475
20
0.125504405575157
30
0
41
1
10
111.933760936264
20
0.0571820762907009
30
0
0
SPLINE
5
CD
100
AcDbEntity
8
1
62
256
6
ByLayer
370
18
48
1
60
0
100
AcDbSpline
70
4
71
3
72
8
73
4
40
0
40
0
40
0
40
0
40
1
40
1
40
1
40
1
41
1
10
110.342242293688
20
-4.55877374848293
30
0
41
1
10
110.34489385852
20
-4.55698881839749
30
0
41
1
10
110.347545461482
20
-4.55520366226637
30
0
41
1
10
110.350197102605
20
-4.55341828034267
30
0
0
SPLINE
5
CE
100
AcDbEntity
8
1
62
256
6
ByLayer
370
18
48
1
60
0
100
AcDbSpline
70
4
71
3
72
34
73
30
40
0
40
0
40
0
40
0
40
0.0768403256963311
40
0.0768403256963311
40
0.153680651392662
40
0.153680651392662
40
0.192100814240828
40
0.192100814240828
40
0.230520977088993
40
0.230520977088993
40
0.307361302785324
40
0.307361302785324
40
0.384201628481656
40
0.384201628481656
40
0.461041954177987
40
0.461041954177987
40
0.614722605570651
40
0.614722605570651
40
0.691562931266982
40
0.691562931266982
40
0.729983094115149
40
0.729983094115149
40
0.768403256963316
40
0.768403256963316
40
0.922083908355982
40
0.922083908355982
40
0.998924234052314
40
0.998924234052314
40
1
40
1
40
1
40
1
41
1
10
64.5
20
2.54630978015695
30
-2E-16
41
1
10
64.9781358679105
20
2.32697551507221
30
-1E-16
41
1
10
65.456128685445
20
2.09596938783213
30
-1E-16
41
1
10
66.4087075172916
20
1.6184704530163
30
-1E-16
41
1
10
66.8840925588771
20
1.3716368953684
30
-1E-16
41
1
10
67.5981172825706
20
0.993311275735635
30
-1E-16
41
1
10
67.8362835565653
20
0.865857840647465
30
-1E-16
41
1
10
68.3133072922813
20
0.608926605984152
30
0
41
1
10
68.5524397146628
20
0.4792997613512
30
0
41
1
10
69.2692512054726
20
0.0895178735950424
30
0
41
1
10
69.745723616908
20
-0.171244684798324
30
0
41
1
10
70.6987560830954
20
-0.689267823729693
30
0
41
1
10
71.1755071494496
20
-0.94660604205373
30
1E-16
41
1
10
72.1315076108654
20
-1.45161306942612
30
1E-16
41
1
10
72.6064376099594
20
-1.69694378611376
30
1E-16
41
1
10
74.0264157705144
20
-2.40453105838395
30
1E-16
41
1
10
74.9665664755721
20
-2.83849767369358
30
2E-16
41
1
10
76.3841366801803
20
-3.40640157311364
30
2E-16
41
1
10
76.8578646153082
20
-3.58189506185869
30
2E-16
41
1
10
77.5724990223243
20
-3.82105038944849
30
-2E-16
41
1
10
77.8118584843379
20
-3.89688248295695
30
-2E-16
41
1
10
78.288599151916
20
-4.03888782263672
30
-2E-16
41
1
10
78.5262593043547
20
-4.10517454054227
30
-2E-16
41
1
10
79.7119365290474
20
-4.41251862720051
30
0
41
1
10
80.6522210547804
20
-4.5811470625105
30
1E-16
41
1
10
82.0672813604322
20
-4.70986174277991
30
0
41
1
10
82.5397007871072
20
-4.73208021245776
30
0
41
1
10
83.0209820924251
20
-4.73296402768926
30
0
41
1
10
83.0276274466443
20
-4.73297204711923
30
0
41
1
10
83.0342732413443
20
-4.73297588177016
30
0
0
SPLINE
5
CF
100
AcDbEntity
8
1
62
256
6
ByLayer
370
18
48
1
60
0
100
AcDbSpline
70
4
71
3
72
8
73
4
40
0
40
0
40
0
40
0
40
1
40
1
40
1
40
1
41
1
10
109.12959860067
20
4.71055281346554
30
0
41
1
10
109.438034676629
20
4.7323058238382
30
0
41
1
10
109.746418530713
20
4.74509109892685
30
0
41
1
10
110.05515027393
20
4.7488253479637
30
0
0
SPLINE
5
D0
100
AcDbEntity
8
1
62
256
6
ByLayer
370
18
48
1
60
0
100
AcDbSpline
70
4
71
3
72
8
73
4
40
0
40
0
40
0
40
0
40
1
40
1
40
1
40
1
41
1
10
111.584609140011
20
1.46092414957951
30
0
41
1
10
111.725365375146
20
1.06270725841773
30
0
41
1
10
111.86238743461
20
0.66315398736802
30
0
41
1
10
111.995619711557
20
0.262244435955125
30
0
0
SPLINE
5
D1
100
AcDbEntity
8
1
62
256
6
ByLayer
370
18
48
1
60
0
100
AcDbSpline
70
4
71
3
72
10
73
6
40
0
40
0
40
0
40
0
40
0.5
40
0.5
40
1
40
1
40
1
40
1
41
1
10
110.350197102605
20
-4.55341828034261
30
0
41
1
10
110.334927020871
20
-4.56352117573536
30
0
41
1
10
110.321943428399
20
-4.56776707076733
30
0
41
1
10
110.299830207864
20
-4.56477071718112
30
0
41
1
10
110.290730780799
20
-4.55760591941996
30
-1E-16
41
1
10
110.282955012563
20
-4.54521762456656
30
-1E-16
0
SPLINE
5
D2
100
AcDbEntity
8
1
62
256
6
ByLayer
370
18
48
1
60
0
100
AcDbSpline
70
4
71
3
72
8
73
4
40
0
40
0
40
0
40
0
40
1
40
1
40
1
40
1
41
1
10
68.4438570389385
20
4.49473485381597
30
0
41
1
10
68.4642190467099
20
4.495120638206
30
0
41
1
10
68.4845800235133
20
4.49546893477631
30
0
41
1
10
68.5049400672729
20
4.49577979814379
30
0
0
SPLINE
5
D3
100
AcDbEntity
8
1
62
256
6
ByLayer
370
18
48
1
60
0
100
AcDbSpline
70
4
71
3
72
32
73
28
40
0
40
0
40
0
40
0
40
0.0474860153543891
40
0.0474860153543891
40
0.159217857581422
40
0.159217857581422
40
0.21508377869494
40
0.21508377869494
40
0.270949699808458
40
0.270949699808458
40
0.382681542035493
40
0.382681542035493
40
0.438547463149012
40
0.438547463149012
40
0.494413384262529
40
0.494413384262529
40
0.606145226489567
40
0.606145226489567
40
0.662011147603087
40
0.662011147603087
40
0.717877068716606
40
0.717877068716606
40
0.941340753170688
40
0.941340753170688
40
0.997206674284209
40
0.997206674284209
40
1
40
1
40
1
40
1
41
1
10
69.6965914692785
20
4.47176474626059
30
0
41
1
10
69.8953900238849
20
4.46092025549291
30
-1E-16
41
1
10
70.0942002260454
20
4.44673199478848
30
-1E-16
41
1
10
70.7617880017834
20
4.38663281881594
30
0
41
1
10
71.231985360212
20
4.32353869904
30
0
41
1
10
71.9406732607311
20
4.20045874451418
30
0
41
1
10
72.1778131293467
20
4.15462275952692
30
0
41
1
10
72.6516026179415
20
4.0542593223461
30
0
41
1
10
72.8876566598756
20
3.99991932115347
30
2E-16
41
1
10
73.5944877639541
20
3.82346149899894
30
2E-16
41
1
10
74.0640184273136
20
3.68765989852324
30
2E-16
41
1
10
74.7666330181735
20
3.46182926612454
30
-2E-16
41
1
10
75.0005588086467
20
3.38287892434917
30
-2E-16
41
1
10
75.4679225456631
20
3.21801319788997
30
-2E-16
41
1
10
75.7013166810569
20
3.13212479505725
30
-2E-16
41
1
10
76.4024308724174
20
2.86391321944464
30
-2E-16
41
1
10
76.8712777100122
20
2.6709324934622
30
-2E-16
41
1
10
77.5765662602054
20
2.36455795411089
30
-1E-16
41
1
10
77.8120309860975
20
2.25957591858474
30
-1E-16
41
1
10
78.2835154863029
20
2.04420321093926
30
-1E-16
41
1
10
78.5196481969091
20
1.93373925743924
30
-1E-16
41
1
10
79.7043425768181
20
1.370060015425
30
-1E-16
41
1
10
80.6409268894238
20
0.893231790435749
30
-1E-16
41
1
10
81.8092477914609
20
0.287988943039181
30
0
41
1
10
82.0428338777288
20
0.166550381581487
30
0
41
1
10
82.2880041996966
20
0.0386268807640988
30
0
41
1
10
82.2996786590165
20
0.0325338572329201
30
0
41
1
10
82.3113527797807
20
0.0264396490388776
30
0
0
SPLINE
5
D4
100
AcDbEntity
8
1
62
256
6
ByLayer
370
18
48
1
60
0
100
AcDbSpline
70
4
71
3
72
8
73
4
40
0
40
0
40
0
40
0
40
1
40
1
40
1
40
1
41
1
10
111.584609140011
20
-1.46092414957951
30
0
41
1
10
111.725365375148
20
-1.06270725841134
30
0
41
1
10
111.862387434615
20
-0.663153987355201
30
0
41
1
10
111.995619711564
20
-0.262244435935855
30
0
0
SPLINE
5
D5
100
AcDbEntity
8
1
62
256
6
ByLayer
370
18
48
1
60
0
100
AcDbSpline
70
4
71
3
72
30
73
26
40
0
40
0
40
0
40
0
40
0.125000000000021
40
0.125000000000021
40
0.187500000000024
40
0.187500000000024
40
0.250000000000026
40
0.250000000000026
40
0.312500000000028
40
0.312500000000028
40
0.375000000000031
40
0.375000000000031
40
0.437500000000033
40
0.437500000000033
40
0.500000000000036
40
0.500000000000036
40
0.562500000000038
40
0.562500000000038
40
0.62500000000004
40
0.62500000000004
40
0.750000000000027
40
0.750000000000027
40
0.875000000000014
40
0.875000000000014
40
1
40
1
40
1
40
1
41
1
10
111.933760936264
20
0.0571820762907009
30
0
41
1
10
111.910767906939
20
-0.018629155802472
30
0
41
1
10
111.884332715155
20
-0.0927071752852271
30
0
41
1
10
111.839322295855
20
-0.201037511888757
30
0
41
1
10
111.823275507489
20
-0.236959052041016
30
0
41
1
10
111.790113969321
20
-0.305932956143067
30
0
41
1
10
111.772991092547
20
-0.339058037733594
30
0
41
1
10
111.737686190426
20
-0.402499853251953
30
0
41
1
10
111.719504892217
20
-0.432818430959884
30
0
41
1
10
111.68202880337
20
-0.490398571773
30
0
41
1
10
111.662778122397
20
-0.517529574205042
30
0
41
1
10
111.624714432296
20
-0.566351356467379
30
0
41
1
10
111.605708848288
20
-0.588350545183403
30
0
41
1
10
111.567724908243
20
-0.627425452902941
30
0
41
1
10
111.548573449434
20
-0.644608215571139
30
0
41
1
10
111.511501900356
20
-0.672783628654969
30
0
41
1
10
111.493492694571
20
-0.683916747909166
30
0
41
1
10
111.458389288539
20
-0.700505198769292
30
0
41
1
10
111.441167302065
20
-0.70596208755714
30
0
41
1
10
111.391930400167
20
-0.713619644016376
30
0
41
1
10
111.361941416925
20
-0.707356256581789
30
0
41
1
10
111.307423619745
20
-0.675543190237676
30
0
41
1
10
111.283419399393
20
-0.650505695905366
30
0
41
1
10
111.239963967945
20
-0.585411413461799
30
0
41
1
10
111.220578390582
20
-0.545196253869932
30
0
41
1
10
111.2034368712
20
-0.499438924211773
30
0
0
SPLINE
5
D6
100
AcDbEntity
8
1
62
256
6
ByLayer
370
18
48
1
60
0
100
AcDbSpline
70
4
71
3
72
32
73
28
40
0
40
0
40
0
40
0
40
0.497827203438082
40
0.497827203438082
40
0.671531699939572
40
0.671531699939572
40
0.785334090895798
40
0.785334090895798
40
0.859946049680648
40
0.859946049680648
40
0.908857265742104
40
0.908857265742104
40
0.940870359027968
40
0.940870359027968
40
0.961992073996224
40
0.961992073996224
40
0.97590536833813
40
0.97590536833813
40
0.9847765985728
40
0.9847765985728
40
0.990612473671566
40
0.990612473671566
40
0.994598401192771
40
0.994598401192771
40
0.998547159876513
40
0.998547159876513
40
1
40
1
40
1
40
1
41
1
10
110.055150273926
20
-4.74882534795103
30
0
41
1
10
110.102648615893
20
-4.71790117053513
30
0
41
1
10
110.150229201227
20
-4.68665675173739
30
0
41
1
10
110.214535678441
20
-4.64408360803691
30
0
41
1
10
110.231182912142
20
-4.63303140464151
30
0
41
1
10
110.25875151388
20
-4.61467804749657
30
0
41
1
10
110.269666324838
20
-4.60739870517423
30
0
41
1
10
110.287729820522
20
-4.59533061817763
30
0
41
1
10
110.294877008199
20
-4.59055022515466
30
0
41
1
10
110.306727435799
20
-4.58261445608844
30
0
41
1
10
110.311425844474
20
-4.57946560137012
30
0
41
1
10
110.319218859853
20
-4.57423860252806
30
0
41
1
10
110.322305543962
20
-4.5721672542974
30
0
41
1
10
110.327393433896
20
-4.56875178244002
30
0
41
1
10
110.329394958481
20
-4.56740797408563
30
0
41
1
10
110.332734225179
20
-4.56516498707339
30
0
41
1
10
110.334074563714
20
-4.56426432932923
30
0
41
1
10
110.336309355516
20
-4.56276195287114
30
0
41
1
10
110.33718892324
20
-4.56217049487185
30
0
41
1
10
110.338637232447
20
-4.56119659174905
30
0
41
1
10
110.339210044637
20
-4.56081140502312
30
0
41
1
10
110.340157619425
20
-4.56017429020429
30
0
41
1
10
110.340538328441
20
-4.55991833678547
30
0
41
1
10
110.341270047029
20
-4.5594265219533
30
0
41
1
10
110.341628724923
20
-4.55918549390395
30
0
41
1
10
110.342047773207
20
-4.55890418954681
30
0
41
1
10
110.342153053937
20
-4.55883355351054
30
0
41
1
10
110.342242293568
20
-4.55877374856391
30
0
0
SPLINE
5
D7
100
AcDbEntity
8
1
62
256
6
ByLayer
370
18
48
1
60
0
100
AcDbSpline
70
4
71
3
72
20
73
16
40
0
40
0
40
0
40
0
40
0.249999999999997
40
0.249999999999997
40
0.499999999999995
40
0.499999999999995
40
0.562499999999992
40
0.562499999999992
40
0.624999999999989
40
0.624999999999989
40
0.749999999999993
40
0.749999999999993
40
0.874999999999996
40
0.874999999999996
40
1
40
1
40
1
40
1
41
1
10
110.350197102605
20
4.55341828034267
30
0
41
1
10
110.444162290564
20
4.28864134727746
30
0
41
1
10
110.537279787484
20
4.02210817617851
30
0
41
1
10
110.725334344361
20
3.48727439634178
30
0
41
1
10
110.820262632118
20
3.21912188933763
30
0
41
1
10
110.94098861347
20
2.88504858863615
30
0
41
1
10
110.965237586376
20
2.8182717422138
30
0
41
1
10
111.013967397305
20
2.68480240470166
30
0
41
1
10
111.038474483295
20
2.61801649964278
30
0
41
1
10
111.113775403692
20
2.42038008499662
30
0
41
1
10
111.165965595502
20
2.29150454105252
30
0
41
1
10
111.275959524747
20
2.04022253004936
30
0
41
1
10
111.333821834073
20
1.91767421397037
30
0
41
1
10
111.456172610915
20
1.67998112408412
30
0
41
1
10
111.519292395392
20
1.56748236581407
30
0
41
1
10
111.584609140011
20
1.46092414957954
30
0
0
SPLINE
5
D8
100
AcDbEntity
8
1
62
256
6
ByLayer
370
18
48
1
60
0
100
AcDbSpline
70
4
71
3
72
30
73
26
40
0
40
0
40
0
40
0
40
0.101936798963757
40
0.101936798963757
40
0.203873597927513
40
0.203873597927513
40
0.254841997409392
40
0.254841997409392
40
0.30581039689127
40
0.30581039689127
40
0.407747195855027
40
0.407747195855027
40
0.458715595336905
40
0.458715595336905
40
0.509683994818783
40
0.509683994818783
40
0.611620793782545
40
0.611620793782545
40
0.713557592746306
40
0.713557592746306
40
0.815494391710068
40
0.815494391710068
40
0.91743119067383
40
0.91743119067383
40
1
40
1
40
1
40
1
41
1
10
109.766037427648
20
-0.115809112651306
30
0
41
1
10
109.295826745384
20
0.130011977489374
30
0
41
1
10
108.827526895062
20
0.374391904368423
30
0
41
1
10
107.892568825116
20
0.856027344076949
30
-1E-16
41
1
10
107.425979852911
20
1.09336487030436
30
-1E-16
41
1
10
106.72625862647
20
1.44126330810118
30
-1E-16
41
1
10
106.493046434038
20
1.55586990427784
30
-1E-16
41
1
10
106.026443929959
20
1.78172254058015
30
-1E-16
41
1
10
105.792998055629
20
1.89292597460781
30
-1E-16
41
1
10
105.091072218437
20
2.22017620156848
30
-1E-16
41
1
10
104.621310645067
20
2.43006480396608
30
-1E-16
41
1
10
103.91283606715
20
2.72928161035472
30
-2E-16
41
1
10
103.675614733526
20
2.82650509104192
30
-2E-16
41
1
10
103.203599512952
20
3.01333854383529
30
-2E-16
41
1
10
102.968292853391
20
3.1032125833355
30
-2E-16
41
1
10
102.263391396265
20
3.36200802321358
30
-2E-16
41
1
10
101.795089056499
20
3.51997776106961
30
-2E-16
41
1
10
100.860761505012
20
3.80295429164559
30
2E-16
41
1
10
100.395073396212
20
3.92708522980598
30
2E-16
41
1
10
99.4613455929513
20
4.14275926544573
30
0
41
1
10
98.9938522903477
20
4.23352670834007
30
0
41
1
10
98.055761354635
20
4.37675137382811
30
0
41
1
10
97.5854777993367
20
4.42716959860132
30
0
41
1
10
96.727732515164
20
4.4874364226406
30
0
41
1
10
96.345323888526
20
4.50223370213936
30
0
41
1
10
95.9644949976066
20
4.50324957035437
30
0
0
SPLINE
5
D9
100
AcDbEntity
8
1
62
256
6
ByLayer
370
18
48
1
60
0
100
AcDbSpline
70
4
71
3
72
10
73
6
40
0
40
0
40
0
40
0
40
0.5
40
0.5
40
1
40
1
40
1
40
1
41
1
10
109.645296581987
20
-0.0436463538088105
30
0
41
1
10
109.639354165967
20
0.0685400785634727
30
0
41
1
10
109.63531385759
20
0.181702774571392
30
0
41
1
10
109.631874721076
20
0.405177108964779
30
0
41
1
10
109.632437596413
20
0.516041315530288
30
0
41
1
10
109.635552961463
20
0.626033423959882
30
0
0
SPLINE
5
DA
100
AcDbEntity
8
1
62
256
6
ByLayer
370
18
48
1
60
0
100
AcDbSpline
70
4
71
3
72
10
73
6
40
0
40
0
40
0
40
0
40
0.5
40
0.5
40
1
40
1
40
1
40
1
41
1
10
110.805747654827
20
1.30231300758453
30
0
41
1
10
110.93695299855
20
1.32170873921726
30
0
41
1
10
111.067618341
20
1.34382924114274
30
0
41
1
10
111.327455955749
20
1.39560406647146
30
0
41
1
10
111.456667640271
20
1.42505952135895
30
0
41
1
10
111.584609140011
20
1.46092414957943
30
0
0
SPLINE
5
DB
100
AcDbEntity
8
1
62
256
6
ByLayer
370
18
48
1
60
0
100
AcDbSpline
70
4
71
3
72
12
73
8
40
0
40
0
40
0
40
0
40
0.135844268797246
40
0.135844268797246
40
0.609785543322716
40
0.609785543322716
40
1
40
1
40
1
40
1
41
1
10
64.6021937116612
20
-4.20431507298031
30
0
41
1
10
64.6021896984825
20
-4.22938373236175
30
0
41
1
10
64.6021855934221
20
-4.25281005763372
30
0
41
1
10
64.6021668452076
20
-4.35045457717152
30
0
41
1
10
64.6021513175734
20
-4.4063596704442
30
0
41
1
10
64.6021226583474
20
-4.46973084410624
30
0
41
1
10
64.6021095113589
20
-4.48413983747483
30
0
41
1
10
64.6020965010455
20
-4.48426401670375
30
0
0
SPLINE
5
DC
100
AcDbEntity
8
1
62
256
6
ByLayer
370
18
48
1
60
0
100
AcDbSpline
70
4
71
3
72
14
73
10
40
0
40
0
40
0
40
0
40
0.0825528586181408
40
0.0825528586181408
40
0.388368572412094
40
0.388368572412094
40
0.694184286206047
40
0.694184286206047
40
1
40
1
40
1
40
1
41
1
10
110.174442342361
20
1.05614211692537
30
0
41
1
10
110.187530742557
20
1.06429101184506
30
0
41
1
10
110.201091681254
20
1.07256181407348
30
0
41
1
10
110.267177618035
20
1.11192943835752
30
0
41
1
10
110.324758420333
20
1.14347389538432
30
0
41
1
10
110.449205973748
20
1.20223008050726
30
0
41
1
10
110.517330673958
20
1.22982015687606
30
0
41
1
10
110.657576879662
20
1.2740898613915
30
0
41
1
10
110.730812281294
20
1.29123551368386
30
0
41
1
10
110.805747654827
20
1.30231300758459
30
0
0
SPLINE
5
DD
100
AcDbEntity
8
1
62
256
6
ByLayer
370
18
48
1
60
0
100
AcDbSpline
70
4
71
3
72
66
73
62
40
0
40
0
40
0
40
0
40
0.0438998151547443
40
0.0438998151547443
40
0.0910785263126574
40
0.0910785263126574
40
0.114667881891615
40
0.114667881891615
40
0.138257237470572
40
0.138257237470572
40
0.185435948628486
40
0.185435948628486
40
0.209025304207444
40
0.209025304207444
40
0.232614659786401
40
0.232614659786401
40
0.279793370944317
40
0.279793370944317
40
0.303382726523275
40
0.303382726523275
40
0.326972082102233
40
0.326972082102233
40
0.374150793260151
40
0.374150793260151
40
0.397740148839109
40
0.397740148839109
40
0.421329504418068
40
0.421329504418068
40
0.515686926733903
40
0.515686926733903
40
0.539276282312862
40
0.539276282312862
40
0.56286563789182
40
0.56286563789182
40
0.610044349049736
40
0.610044349049736
40
0.633633704628695
40
0.633633704628695
40
0.657223060207652
40
0.657223060207652
40
0.704401771365567
40
0.704401771365567
40
0.727991126944524
40
0.727991126944524
40
0.751580482523482
40
0.751580482523482
40
0.798759193681396
40
0.798759193681396
40
0.845937904839311
40
0.845937904839311
40
0.893116615997226
40
0.893116615997226
40
0.916705971576183
40
0.916705971576183
40
0.940295327155141
40
0.940295327155141
40
0.963884682734098
40
0.963884682734098
40
0.987474038313056
40
0.987474038313056
40
1
40
1
40
1
40
1
41
1
10
66.1552265470766
20
4.51044708943147
30
-1E-16
41
1
10
66.592216073807
20
4.58117653813207
30
0
41
1
10
67.0296381092851
20
4.6349107319063
30
0
41
1
10
67.9344584543767
20
4.70898841703763
30
0
41
1
10
68.4026009935355
20
4.72671926629721
30
0
41
1
10
69.1057843330671
20
4.72224377538149
30
0
41
1
10
69.3403725486776
20
4.71557882651078
30
0
41
1
10
69.809931892458
20
4.69177489778735
30
0
41
1
10
70.0446362127019
20
4.67461187848517
30
0
41
1
10
70.7478298653454
20
4.60791011327075
30
-1E-16
41
1
10
71.2162741744941
20
4.54326598000227
30
-1E-16
41
1
10
71.9193439577814
20
4.41681008966341
30
0
41
1
10
72.1537828289202
20
4.36974114292471
30
0
41
1
10
72.6228978697528
20
4.2656745336524
30
2E-16
41
1
10
72.8577039816595
20
4.20857169122272
30
2E-16
41
1
10
73.5611764392598
20
4.02427934823152
30
2E-16
41
1
10
74.0298799695688
20
3.88424049654364
30
2E-16
41
1
10
74.7327341037008
20
3.64901505424595
30
2E-16
41
1
10
74.966999432061
20
3.56640732658002
30
-2E-16
41
1
10
75.4356442085549
20
3.39284083069072
30
-2E-16
41
1
10
75.6702137463452
20
3.30169621169688
30
-2E-16
41
1
10
76.373991877412
20
3.01870384420752
30
-2E-16
41
1
10
76.8429395077005
20
2.81793110119051
30
-2E-16
41
1
10
77.5458744525735
20
2.49881090975143
30
-2E-16
41
1
10
77.7801480610175
20
2.3894947562647
30
-1E-16
41
1
10
78.2486036589987
20
2.16486012200295
30
-1E-16
41
1
10
78.4827431636705
20
2.04945131989947
30
-1E-16
41
1
10
79.6567601109561
20
1.46309450702324
30
-1E-16
41
1
10
80.5914374661028
20
0.965188260408041
30
-1E-16
41
1
10
81.7649093270407
20
0.326789933943985
30
0
41
1
10
81.9998631948439
20
0.198492766022838
30
0
41
1
10
82.4684631178914
20
-0.0583014334906409
30
0
41
1
10
82.7022384496539
20
-0.187146138423458
30
0
41
1
10
83.4045065961863
20
-0.570398774825634
30
0
41
1
10
83.8731365554047
20
-0.823027743005724
30
1E-16
41
1
10
84.5770851560852
20
-1.19707027179956
30
1E-16
41
1
10
84.8121296411252
20
-1.32104401189088
30
1E-16
41
1
10
85.2808495174252
20
-1.56619538482025
30
1E-16
41
1
10
85.5147512614703
20
-1.6872880693883
30
1E-16
41
1
10
86.2169713817247
20
-2.04291848293443
30
1E-16
41
1
10
86.6855033132306
20
-2.27041899627923
30
1E-16
41
1
10
87.3888824378696
20
-2.59734251716091
30
2E-16
41
1
10
87.6236469233007
20
-2.70398738596504
30
2E-16
41
1
10
88.0925998580906
20
-2.91170949942662
30
2E-16
41
1
10
88.3266116466278
20
-3.01245870552134
30
2E-16
41
1
10
89.0290540722614
20
-3.3029382173018
30
2E-16
41
1
10
89.497478421779
20
-3.48161702796764
30
2E-16
41
1
10
90.4350258985785
20
-3.80871749818846
30
-2E-16
41
1
10
90.9047103691877
20
-3.95757393233689
30
-2E-16
41
1
10
91.8415105867808
20
-4.21777485534139
30
-2E-16
41
1
10
92.3087948675498
20
-4.32978444257432
30
0
41
1
10
93.0114728579848
20
-4.4682214062785
30
1E-16
41
1
10
93.2459372653198
20
-4.50949834648745
30
1E-16
41
1
10
93.7154630152591
20
-4.58222549333624
30
1E-16
41
1
10
93.9505604177702
20
-4.61367432019728
30
1E-16
41
1
10
94.4194460389833
20
-4.66635355067328
30
0
41
1
10
94.6535032985868
20
-4.68762163453113
30
0
41
1
10
95.1208850944319
20
-4.71987276766751
30
0
41
1
10
95.3544886505826
20
-4.73076637528092
30
0
41
1
10
95.7128382722709
20
-4.73943330898263
30
0
41
1
10
95.8372076247825
20
-4.74097547923674
30
0
41
1
10
95.961655749125
20
-4.74105728203804
30
0
0
SPLINE
5
DE
100
AcDbEntity
8
1
62
256
6
ByLayer
370
18
48
1
60
0
100
AcDbSpline
70
4
71
3
72
44
73
40
40
0
40
0
40
0
40
0
40
0.0140576427981932
40
0.0140576427981932
40
0.045862234965993
40
0.045862234965993
40
0.109471419301593
40
0.109471419301593
40
0.173080603637192
40
0.173080603637192
40
0.236689787972792
40
0.236689787972792
40
0.300298972308392
40
0.300298972308392
40
0.363908156643991
40
0.363908156643991
40
0.427517340979591
40
0.427517340979591
40
0.459321933147391
40
0.459321933147391
40
0.491126525315191
40
0.491126525315191
40
0.55473570965079
40
0.55473570965079
40
0.58654030181859
40
0.58654030181859
40
0.61834489398639
40
0.61834489398639
40
0.681954078321991
40
0.681954078321991
40
0.745563262657593
40
0.745563262657593
40
0.809172446993194
40
0.809172446993194
40
0.840977039160995
40
0.840977039160995
40
0.872781631328796
40
0.872781631328796
40
1
40
1
40
1
40
1
41
1
10
86.9033622509845
20
-4.51526348314383
30
1E-16
41
1
10
86.7986985644119
20
-4.53245243578451
30
1E-16
41
1
10
86.6939947392114
20
-4.54865493373768
30
1E-16
41
1
10
86.3522220524667
20
-4.59826350835286
30
1E-16
41
1
10
86.1146611893447
20
-4.62758667287156
30
1E-16
41
1
10
85.4029567278503
20
-4.6997052329686
30
0
41
1
10
84.9299557851584
20
-4.72675357461677
30
0
41
1
10
83.9834321389921
20
-4.73835074679602
30
0
41
1
10
83.5096434413707
20
-4.72290245531849
30
0
41
1
10
82.5600111502412
20
-4.64959670315343
30
0
41
1
10
82.0868563958101
20
-4.59186379100402
30
1E-16
41
1
10
81.140337320949
20
-4.43597586093065
30
0
41
1
10
80.6669794851305
20
-4.33785748938385
30
0
41
1
10
79.7173724390527
20
-4.10284637861844
30
-2E-16
41
1
10
79.2435195588372
20
-3.96651247325369
30
-2E-16
41
1
10
78.2967953284496
20
-3.65997032628712
30
-2E-16
41
1
10
77.8236664327647
20
-3.48958637964273
30
2E-16
41
1
10
77.1118865854154
20
-3.21112484743949
30
2E-16
41
1
10
76.874274315413
20
-3.11445360291899
30
2E-16
41
1
10
76.4001010958291
20
-2.91476171733174
30
2E-16
41
1
10
76.1632827562518
20
-2.81164216575064
30
2E-16
41
1
10
75.4531263163887
20
-2.49323851504474
30
2E-16
41
1
10
74.9800623606692
20
-2.26893795646851
30
1E-16
41
1
10
74.2686929434472
20
-1.91807712789404
30
1E-16
41
1
10
74.0310375136683
20
-1.79859446670204
30
1E-16
41
1
10
73.5565612816433
20
-1.55633561361952
30
1E-16
41
1
10
73.3196179853526
20
-1.43350601591993
30
1E-16
41
1
10
72.6091371709457
20
-1.06087932121056
30
1E-16
41
1
10
72.1361033788718
20
-0.806666066659147
30
0
41
1
10
71.1880587198709
20
-0.292413151235479
30
0
41
1
10
70.7125797909859
20
-0.0322836603782264
30
0
41
1
10
69.7652033553739
20
0.483839192175736
30
0
41
1
10
69.2923757724827
20
0.740565692579651
30
0
41
1
10
68.5820961257009
20
1.11939385151737
30
-1E-16
41
1
10
68.3451545113676
20
1.24461119497639
30
-1E-16
41
1
10
67.8705818887678
20
1.49233388224852
30
-1E-16
41
1
10
67.6328984181991
20
1.61485169593377
30
-1E-16
41
1
10
66.4473830871865
20
2.21601121248113
30
-1E-16
41
1
10
65.5039644709076
20
2.66303085152137
30
-2E-16
41
1
10
64.5538551221658
20
3.05745364579096
30
-2E-16
0
SPLINE
5
DF
100
AcDbEntity
8
1
62
256
6
ByLayer
370
18
48
1
60
0
100
AcDbSpline
70
4
71
3
72
20
73
16
40
0
40
0
40
0
40
0
40
0.250000000000011
40
0.250000000000011
40
0.500000000000022
40
0.500000000000022
40
0.562500000000023
40
0.562500000000023
40
0.625000000000023
40
0.625000000000023
40
0.750000000000016
40
0.750000000000016
40
0.875000000000008
40
0.875000000000008
40
1
40
1
40
1
40
1
41
1
10
110.350197102605
20
-4.55341828034267
30
0
41
1
10
110.444162290564
20
-4.28864134727755
30
0
41
1
10
110.537279787484
20
-4.02210817617865
30
0
41
1
10
110.725334344361
20
-3.48727439634206
30
0
41
1
10
110.820262632118
20
-3.21912188933794
30
0
41
1
10
110.94098861347
20
-2.88504858863655
30
0
41
1
10
110.965237586375
20
-2.81827174221422
30
0
41
1
10
111.013967397305
20
-2.68480240470214
30
0
41
1
10
111.038474483295
20
-2.61801649964318
30
0
41
1
10
111.113775403691
20
-2.42038008499682
30
0
41
1
10
111.165965595502
20
-2.29150454105266
30
0
41
1
10
111.275959524747
20
-2.04022253004948
30
0
41
1
10
111.333821834073
20
-1.91767421397094
30
0
41
1
10
111.456172610915
20
-1.67998112408426
30
0
41
1
10
111.519292395392
20
-1.5674823658141
30
0
41
1
10
111.584609140011
20
-1.46092414957954
30
0
0
SPLINE
5
E0
100
AcDbEntity
8
1
62
256
6
ByLayer
370
18
48
1
60
0
100
AcDbSpline
70
4
71
3
72
46
73
42
40
0
40
0
40
0
40
0
40
0.0644374227993478
40
0.0644374227993478
40
0.111215551659379
40
0.111215551659379
40
0.134604616089395
40
0.134604616089395
40
0.15799368051941
40
0.15799368051941
40
0.204771809379443
40
0.204771809379443
40
0.228160873809459
40
0.228160873809459
40
0.251549938239475
40
0.251549938239475
40
0.438662453679594
40
0.438662453679594
40
0.485440582539624
40
0.485440582539624
40
0.532218711399655
40
0.532218711399655
40
0.625774969119718
40
0.625774969119718
40
0.649164033549735
40
0.649164033549735
40
0.672553097979751
40
0.672553097979751
40
0.719331226839786
40
0.719331226839786
40
0.812887484559854
40
0.812887484559854
40
0.836276548989872
40
0.836276548989872
40
0.859665613419889
40
0.859665613419889
40
0.906443742279926
40
0.906443742279926
40
0.953221871139963
40
0.953221871139963
40
1
40
1
40
1
40
1
41
1
10
79.6470212884305
20
4.37360768075308
30
0
41
1
10
80.2975518263657
20
4.50946496171306
30
0
41
1
10
80.9458405193116
20
4.60785485393606
30
0
41
1
10
82.0672813604309
20
4.70986174277982
30
0
41
1
10
82.5397007871058
20
4.7320802124577
30
0
41
1
10
83.251655368089
20
4.73338763141601
30
0
41
1
10
83.4895299678853
20
4.72848778480045
30
0
41
1
10
83.9667798458622
20
4.70786952219697
30
0
41
1
10
84.2058851059523
20
4.69214399335203
30
0
41
1
10
84.921382938469
20
4.62913199467997
30
-1E-16
41
1
10
85.3973952944557
20
4.5659619111733
30
-1E-16
41
1
10
86.112069715962
20
4.44050946971191
30
0
41
1
10
86.3504060126233
20
4.39357612421284
30
0
41
1
10
86.8276803796047
20
4.28966849963484
30
2E-16
41
1
10
87.0668843215967
20
4.23261272916554
30
2E-16
41
1
10
89.2106533953348
20
3.67858236082259
30
2E-16
41
1
10
91.072537098741
20
2.89357913216193
30
-2E-16
41
1
10
93.4608173705913
20
1.70168416288132
30
-1E-16
41
1
10
93.9360462465861
20
1.4555568561714
30
-1E-16
41
1
10
94.8822709786671
20
0.954693188386329
30
-1E-16
41
1
10
95.3536709475822
20
0.699767998195796
30
0
41
1
10
96.7669540446676
20
-0.070637338318619
30
0
41
1
10
97.7078951892556
20
-0.591800375164382
30
0
41
1
10
98.8971324103794
20
-1.22545233920528
30
1E-16
41
1
10
99.1361363309199
20
-1.35156504407027
30
1E-16
41
1
10
99.6130851305491
20
-1.59992846743117
30
1E-16
41
1
10
99.8508096595624
20
-1.72206983902717
30
1E-16
41
1
10
100.562303311916
20
-2.08149224440768
30
1E-16
41
1
10
101.034397132423
20
-2.31175909079195
30
1E-16
41
1
10
102.448479780138
20
-2.96768702909324
30
2E-16
41
1
10
103.388229021538
20
-3.35855332888474
30
2E-16
41
1
10
104.573197216122
20
-3.76836848208129
30
-2E-16
41
1
10
104.81071476557
20
-3.84638069534091
30
-2E-16
41
1
10
105.287188549946
20
-3.99394362973769
30
-2E-16
41
1
10
105.52626768678
20
-4.06351106114303
30
-2E-16
41
1
10
106.241749421345
20
-4.25756871668426
30
-2E-16
41
1
10
106.717861721175
20
-4.3678948801128
30
0
41
1
10
107.671196253846
20
-4.54832206488996
30
1E-16
41
1
10
108.149133050752
20
-4.61842939581004
30
1E-16
41
1
10
109.10237086902
20
-4.71570283351136
30
0
41
1
10
109.57834568512
20
-4.74305818240433
30
0
41
1
10
110.055150273926
20
-4.74882534796367
30
0
0
SPLINE
5
E1
100
AcDbEntity
8
1
62
256
6
ByLayer
370
18
48
1
60
0
100
AcDbSpline
70
4
71
3
72
22
73
18
40
0
40
0
40
0
40
0
40
0.0031132091657102
40
0.0031132091657102
40
0.207267782619811
40
0.207267782619811
40
0.411422356073911
40
0.411422356073911
40
0.513499642800961
40
0.513499642800961
40
0.61557692952801
40
0.61557692952801
40
0.819731502982105
40
0.819731502982105
40
0.921808789709155
40
0.921808789709155
40
1
40
1
40
1
40
1
41
1
10
84.6355915022662
20
-4.50211370973778
30
0
41
1
10
84.6210106818678
20
-4.50243836970159
30
0
41
1
10
84.6064325913266
20
-4.50274356037997
30
0
41
1
10
83.6360589790895
20
-4.52176436499113
30
0
41
1
10
82.6898301030508
20
-4.45825443995386
30
1E-16
41
1
10
80.7955804586741
20
-4.17529725046293
30
0
41
1
10
79.8473384619956
20
-3.95618321357861
30
-2E-16
41
1
10
78.4070121980003
20
-3.5202674575676
30
2E-16
41
1
10
77.929151018646
20
-3.35874841843753
30
2E-16
41
1
10
76.9776529337488
20
-3.00841124104707
30
2E-16
41
1
10
76.5035930315092
20
-2.81958627124635
30
2E-16
41
1
10
75.0825074936452
20
-2.21835403409568
30
1E-16
41
1
10
74.1367994469705
20
-1.77074244932936
30
1E-16
41
1
10
72.7037941920699
20
-1.05769600993662
30
1E-16
41
1
10
72.222204910905
20
-0.811970508575712
30
0
41
1
10
71.3784796521513
20
-0.376724185682434
30
0
41
1
10
71.013867689067
20
-0.187258517841712
30
0
41
1
10
70.6500053450432
20
0.0017034919062269
30
0
0
SPLINE
5
E2
100
AcDbEntity
8
1
62
256
6
ByLayer
370
18
48
1
60
0
100
AcDbSpline
70
4
71
3
72
8
73
4
40
0
40
0
40
0
40
0
40
1
40
1
40
1
40
1
41
1
10
110.304436141261
20
-4.48282996159935
30
1E-16
41
1
10
110.297243713157
20
-4.50362659551368
30
1E-16
41
1
10
110.290083122332
20
-4.52442241771911
30
1E-16
41
1
10
110.282955012563
20
-4.54521762456662
30
-1E-16
0
SPLINE
5
E3
100
AcDbEntity
8
1
62
256
6
ByLayer
370
18
48
1
60
0
100
AcDbSpline
70
4
71
3
72
52
73
48
40
0
40
0
40
0
40
0
40
0.0551101192723847
40
0.0551101192723847
40
0.110220238544769
40
0.110220238544769
40
0.165330357817154
40
0.165330357817154
40
0.220440477089539
40
0.220440477089539
40
0.275550596361923
40
0.275550596361923
40
0.330660715634308
40
0.330660715634308
40
0.358215775270499
40
0.358215775270499
40
0.38577083490669
40
0.38577083490669
40
0.440880954179075
40
0.440880954179075
40
0.468436013815269
40
0.468436013815269
40
0.495991073451462
40
0.495991073451462
40
0.551101192723852
40
0.551101192723852
40
0.606211311996242
40
0.606211311996242
40
0.661321431268631
40
0.661321431268631
40
0.716431550541021
40
0.716431550541021
40
0.771541669813411
40
0.771541669813411
40
0.799096729449607
40
0.799096729449607
40
0.826651789085803
40
0.826651789085803
40
0.881761908358193
40
0.881761908358193
40
0.909316967994386
40
0.909316967994386
40
0.93687202763058
40
0.93687202763058
40
0.991982146902967
40
0.991982146902967
40
1
40
1
40
1
40
1
41
1
10
110.03795474945
20
-4.68655679114158
30
0
41
1
10
109.564367067107
20
-4.64391561179409
30
1E-16
41
1
10
109.091015008254
20
-4.5802803328794
30
1E-16
41
1
10
108.142124825428
20
-4.41226365860422
30
0
41
1
10
107.668313103931
20
-4.30815108795582
30
-2E-16
41
1
10
106.720800358846
20
-4.0622708846935
30
-2E-16
41
1
10
106.246060593473
20
-3.92022784836834
30
-2E-16
41
1
10
105.298325128821
20
-3.60259770619177
30
2E-16
41
1
10
104.824892399281
20
-3.42719300745512
30
2E-16
41
1
10
103.876251461533
20
-3.04642493495859
30
2E-16
41
1
10
103.402385592478
20
-2.84159726818064
30
2E-16
41
1
10
102.456300054095
20
-2.40934689760056
30
1E-16
41
1
10
101.98351679517
20
-2.1816627407614
30
1E-16
41
1
10
101.272603854887
20
-1.82612686449622
30
1E-16
41
1
10
101.035134128116
20
-1.70517619527942
30
1E-16
41
1
10
100.561130162086
20
-1.46026137848858
30
1E-16
41
1
10
100.324416275217
20
-1.33620390636517
30
1E-16
41
1
10
99.6146369704796
20
-0.960132847064244
30
1E-16
41
1
10
99.1419035895415
20
-0.704272750473734
30
0
41
1
10
98.4312556987335
20
-0.316770461033457
30
0
41
1
10
98.1938768803327
20
-0.186837239007701
30
0
41
1
10
97.7195744748705
20
0.0729936052885023
30
0
41
1
10
97.4827854516454
20
0.20281902164524
30
0
41
1
10
96.7728346005273
20
0.590801690060715
30
0
41
1
10
96.3000900261652
20
0.847468386162177
30
-1E-16
41
1
10
95.3528463575379
20
1.35163104206009
30
-1E-16
41
1
10
94.8777532302665
20
1.59972232967632
30
-1E-16
41
1
10
93.9307292772499
20
2.07751548899304
30
-1E-16
41
1
10
93.4579560380765
20
2.30763793511008
30
-1E-16
41
1
10
92.5110255746773
20
2.74572502929138
30
-2E-16
41
1
10
92.0359336839715
20
2.95415956176925
30
-2E-16
41
1
10
91.0883409807314
20
3.34135291484003
30
-2E-16
41
1
10
90.6155398079683
20
3.52043569212168
30
-2E-16
41
1
10
89.90550093367
20
3.76441354108172
30
2E-16
41
1
10
89.6686793302281
20
3.84163192090492
30
2E-16
41
1
10
89.194424688698
20
3.98745450506286
30
2E-16
41
1
10
88.9568552846257
20
4.05607587506552
30
2E-16
41
1
10
88.2456903218086
20
4.24756606529152
30
2E-16
41
1
10
87.7728439800623
20
4.35649174150689
30
0
41
1
10
87.0629742357177
20
4.48995479977884
30
-1E-16
41
1
10
86.8262478352952
20
4.52945829269638
30
-1E-16
41
1
10
86.3522220524666
20
4.59826350835286
30
-1E-16
41
1
10
86.1146611893446
20
4.62758667287156
30
-1E-16
41
1
10
85.4029567278502
20
4.6997052329686
30
0
41
1
10
84.9299557851584
20
4.72675357461677
30
0
41
1
10
84.3878401141066
20
4.73339578456444
30
0
41
1
10
84.3189751139342
20
4.73378968179392
30
0
41
1
10
84.250097420042
20
4.73373398263604
30
0
0
SPLINE
5
E4
100
AcDbEntity
8
1
62
256
6
ByLayer
370
18
48
1
60
0
100
AcDbSpline
70
4
71
3
72
56
73
52
40
0
40
0
40
0
40
0
40
0.0117106688491673
40
0.0117106688491673
40
0.034311529767089
40
0.034311529767089
40
0.124714973438778
40
0.124714973438778
40
0.169916695274622
40
0.169916695274622
40
0.192517556192543
40
0.192517556192543
40
0.215118417110465
40
0.215118417110465
40
0.305521860782151
40
0.305521860782151
40
0.350723582617995
40
0.350723582617995
40
0.373324443535917
40
0.373324443535917
40
0.395925304453839
40
0.395925304453839
40
0.44112702628968
40
0.44112702628968
40
0.486328748125522
40
0.486328748125522
40
0.531530469961363
40
0.531530469961363
40
0.554131330879284
40
0.554131330879284
40
0.576732191797205
40
0.576732191797205
40
0.621933913633047
40
0.621933913633047
40
0.667135635468888
40
0.667135635468888
40
0.71233735730473
40
0.71233735730473
40
0.757539079140572
40
0.757539079140572
40
0.802740800976413
40
0.802740800976413
40
0.847942522812255
40
0.847942522812255
40
0.870543383730176
40
0.870543383730176
40
0.893144244648096
40
0.893144244648096
40
0.938345966483937
40
0.938345966483937
40
1
40
1
40
1
40
1
41
1
10
104.582245090763
20
-3.11694515629196
30
2E-16
41
1
10
104.446303670392
20
-3.17315896965684
30
2E-16
41
1
10
104.310302111568
20
-3.22824177599156
30
2E-16
41
1
10
103.912663224383
20
-3.38571696800344
30
2E-16
41
1
10
103.6515914838
20
-3.48458581145417
30
2E-16
41
1
10
102.349181149347
20
-3.95339616916266
30
-2E-16
41
1
10
101.316584336758
20
-4.24661042829459
30
-2E-16
41
1
10
99.7592125774974
20
-4.54400260282929
30
1E-16
41
1
10
99.2390192925138
20
-4.61953410904948
30
1E-16
41
1
10
98.452893461313
20
-4.69444105716656
30
0
41
1
10
98.1897233023853
20
-4.71305409313547
30
0
41
1
10
97.6665435320804
20
-4.73714764842879
30
0
41
1
10
97.4057515772464
20
-4.74265931638806
30
0
41
1
10
96.104488584351
20
-4.73799464841028
30
0
41
1
10
95.0721971674173
20
-4.63110448356821
30
1E-16
41
1
10
93.5141145254892
20
-4.32530867421718
30
0
41
1
10
92.9932995374784
20
-4.19899513801999
30
-2E-16
41
1
10
92.2063332807602
20
-3.97492369364028
30
-2E-16
41
1
10
91.9434210526023
20
-3.89446173441323
30
-2E-16
41
1
10
91.4206348775039
20
-3.72362102305018
30
-2E-16
41
1
10
91.1600033355541
20
-3.63323768906562
30
-2E-16
41
1
10
90.3794729650811
20
-3.34853292951408
30
2E-16
41
1
10
89.8609453567706
20
-3.14069573849707
30
2E-16
41
1
10
88.8249400116531
20
-2.69287841696379
30
2E-16
41
1
10
88.3070421337053
20
-2.45347903168763
30
2E-16
41
1
10
87.2677807322717
20
-1.94925760609524
30
1E-16
41
1
10
86.7464378237381
20
-1.68438964430371
30
1E-16
41
1
10
85.9587589238789
20
-1.27275302971512
30
1E-16
41
1
10
85.6962812027676
20
-1.13363843460181
30
1E-16
41
1
10
85.173647266618
20
-0.853849476763088
30
1E-16
41
1
10
84.9130941147509
20
-0.712949935231876
30
0
41
1
10
84.1327930816753
20
-0.288981672819432
30
0
41
1
10
83.6144014615786
20
-0.0046434246867761
30
0
41
1
10
82.5782796265078
20
0.561908473022044
30
0
41
1
10
82.059768299123
20
0.842670432456856
30
-1E-16
41
1
10
81.0199224025872
20
1.39557643841809
30
-1E-16
41
1
10
80.4981989205295
20
1.66700431711322
30
-1E-16
41
1
10
79.4469067946544
20
2.19188716098091
30
-1E-16
41
1
10
78.9250800832304
20
2.44166974995139
30
-1E-16
41
1
10
77.8849929602096
20
2.91029705598319
30
-2E-16
41
1
10
77.3667103460127
20
3.12912506070029
30
-2E-16
41
1
10
76.3301928792292
20
3.53115134307893
30
-2E-16
41
1
10
75.8115011876855
20
3.7137962829448
30
2E-16
41
1
10
75.031207401055
20
3.9579041364949
30
2E-16
41
1
10
74.7706322917886
20
4.0341669968156
30
2E-16
41
1
10
74.2478660246886
20
4.17568877360438
30
2E-16
41
1
10
73.9852581762258
20
4.24102946123
30
2E-16
41
1
10
73.1970461546687
20
4.41913398717494
30
0
41
1
10
72.67567123634
20
4.51356036648005
30
-1E-16
41
1
10
71.4467477708623
20
4.67706751683951
30
0
41
1
10
70.7407814824175
20
4.72466144299986
30
0
41
1
10
70.0331516217444
20
4.72483563968592
30
0
0
SPLINE
5
E5
100
AcDbEntity
8
1
62
256
6
ByLayer
370
18
48
1
60
0
100
AcDbSpline
70
4
71
3
72
56
73
52
40
0
40
0
40
0
40
0
40
0.0173608055613742
40
0.0173608055613742
40
0.0639048870132083
40
0.0639048870132083
40
0.156993049916875
40
0.156993049916875
40
0.180265090642793
40
0.180265090642793
40
0.20353713136871
40
0.20353713136871
40
0.250081212820545
40
0.250081212820545
40
0.343169375724215
40
0.343169375724215
40
0.366441416450132
40
0.366441416450132
40
0.38971345717605
40
0.38971345717605
40
0.436257538627885
40
0.436257538627885
40
0.482801620079721
40
0.482801620079721
40
0.529345701531556
40
0.529345701531556
40
0.552617742257473
40
0.552617742257473
40
0.575889782983391
40
0.575889782983391
40
0.622433864435227
40
0.622433864435227
40
0.668977945887064
40
0.668977945887064
40
0.7155220273389
40
0.7155220273389
40
0.738794068064819
40
0.738794068064819
40
0.762066108790737
40
0.762066108790737
40
0.808610190242574
40
0.808610190242574
40
0.901698353146246
40
0.901698353146246
40
0.924970393872164
40
0.924970393872164
40
0.948242434598082
40
0.948242434598082
40
0.994786516049918
40
0.994786516049918
40
1
40
1
40
1
40
1
41
1
10
49.3002669579277
20
-3.45999322784419
30
2E-16
41
1
10
49.1042169834992
20
-3.53232115774898
30
2E-16
41
1
10
48.9078843605675
20
-3.60201676641319
30
2E-16
41
1
10
48.1881634194714
20
-3.84727924696585
30
-2E-16
41
1
10
47.6676519842524
20
-4.00515153347772
30
-2E-16
41
1
10
46.1089998741767
20
-4.4093854012211
30
0
41
1
10
45.0747729427292
20
-4.58761061165265
30
1E-16
41
1
10
43.7694026899671
20
-4.68378664688692
30
0
41
1
10
43.5077186402523
20
-4.69669361462138
30
0
41
1
10
42.9824684311049
20
-4.70952957671963
30
0
41
1
10
42.7190573511408
20
-4.70942661554562
30
0
41
1
10
41.93327774703
20
-4.68974503008636
30
0
41
1
10
41.4129984678505
20
-4.65069959721021
30
0
41
1
10
39.8538926983237
20
-4.46006053416264
30
1E-16
41
1
10
38.8197540186841
20
-4.23389009656159
30
-2E-16
41
1
10
37.5134809126182
20
-3.83996324634234
30
-2E-16
41
1
10
37.2515651419556
20
-3.7556132570991
30
-2E-16
41
1
10
36.7258604108907
20
-3.57620483077878
30
2E-16
41
1
10
36.4628175708627
20
-3.48138979237936
30
2E-16
41
1
10
35.6774636620343
20
-3.18430592666627
30
2E-16
41
1
10
35.157026778623
20
-2.96860262726119
30
2E-16
41
1
10
34.117667760703
20
-2.5094642224289
30
2E-16
41
1
10
33.5994061660131
20
-2.26500823040882
30
1E-16
41
1
10
32.5608048280454
20
-1.75424085168203
30
1E-16
41
1
10
32.0403546246718
20
-1.48819033853391
30
1E-16
41
1
10
31.2561459192313
20
-1.07593089523715
30
1E-16
41
1
10
30.9940363289379
20
-0.936524781517448
30
1E-16
41
1
10
30.4679040630565
20
-0.654586372058645
30
0
41
1
10
30.2052797002735
20
-0.512794260055358
30
0
41
1
10
29.420301683181
20
-0.0874843963548244
30
0
41
1
10
28.899874316469
20
0.196494937730847
30
0
41
1
10
27.8607429258217
20
0.757808356729157
30
0
41
1
10
27.3422130129282
20
1.03546905173815
30
-1E-16
41
1
10
26.3031903096972
20
1.57734842416795
30
-1E-16
41
1
10
25.7825609288876
20
1.84133377127503
30
-1E-16
41
1
10
24.9978230075557
20
2.22293135871513
30
-1E-16
41
1
10
24.7353806380331
20
2.34757258872872
30
-1E-16
41
1
10
24.2088394785822
20
2.59034193991207
30
-2E-16
41
1
10
23.9463725926565
20
2.70763581465161
30
-2E-16
41
1
10
23.1617400417788
20
3.04807303822977
30
-2E-16
41
1
10
22.6414986959021
20
3.25836437331154
30
-2E-16
41
1
10
21.0829883992957
20
3.83163266191443
30
2E-16
41
1
10
20.0472959150274
20
4.1375135421514
30
2E-16
41
1
10
18.7381783336672
20
4.40330931156683
30
0
41
1
10
18.4752332408184
20
4.4506952700626
30
-1E-16
41
1
10
17.9489565566497
20
4.53289249705347
30
-1E-16
41
1
10
17.6866341600423
20
4.56758267814661
30
-1E-16
41
1
10
16.9023932807563
20
4.65282226787818
30
0
41
1
10
16.382215389192
20
4.68403220317811
30
0
41
1
10
15.8042369496782
20
4.69052240511581
30
0
41
1
10
15.7460332785881
20
4.69085771608636
30
0
41
1
10
15.6878414957903
20
4.6908748046506
30
0
0
SPLINE
5
E6
100
AcDbEntity
8
1
62
256
6
ByLayer
370
18
48
1
60
0
100
AcDbSpline
70
4
71
3
72
8
73
4
40
0
40
0
40
0
40
0
40
1
40
1
40
1
40
1
41
1
10
110.57522068975
20
0.910265966829655
30
-1E-16
41
1
10
110.505011623573
20
0.945824043107564
30
-1E-16
41
1
10
110.439138638158
20
0.974536890239023
30
-1E-16
41
1
10
110.379294031772
20
0.993841219028496
30
-1E-16
0
SPLINE
5
E7
100
AcDbEntity
8
1
62
256
6
ByLayer
370
18
48
1
60
0
100
AcDbSpline
70
4
71
3
72
32
73
28
40
0
40
0
40
0
40
0
40
0.0015691889453316
40
0.0015691889453316
40
0.102804252155956
40
0.102804252155956
40
0.20403931536658
40
0.20403931536658
40
0.305274378577204
40
0.305274378577204
40
0.406509441787828
40
0.406509441787828
40
0.507744504998452
40
0.507744504998452
40
0.558362036603767
40
0.558362036603767
40
0.608979568209081
40
0.608979568209081
40
0.71021463141971
40
0.71021463141971
40
0.760832163025027
40
0.760832163025027
40
0.811449694630343
40
0.811449694630343
40
0.912684757840982
40
0.912684757840982
40
1
40
1
40
1
40
1
41
1
10
95.663768403868
20
4.51076359551698
30
0
41
1
10
95.6710358733322
20
4.51089587024868
30
0
41
1
10
95.6783040175449
20
4.5110226082106
30
0
41
1
10
96.1545159308315
20
4.51896220156542
30
0
41
1
10
96.6259200107324
20
4.50513763784633
30
0
41
1
10
97.5731361981748
20
4.44026214620339
30
0
41
1
10
98.0433634997007
20
4.39069060927582
30
0
41
1
10
98.9810505424958
20
4.24910388747455
30
0
41
1
10
99.4483197289048
20
4.1590833484845
30
0
41
1
10
100.381586740479
20
3.944755473898
30
2E-16
41
1
10
100.84701587285
20
3.82127109656858
30
2E-16
41
1
10
101.780790489368
20
3.53948892240493
30
-2E-16
41
1
10
102.248809249347
20
3.38203695173414
30
-2E-16
41
1
10
102.953278142283
20
3.12391303659723
30
-2E-16
41
1
10
103.188440496787
20
3.03424148520386
30
-2E-16
41
1
10
103.660138727592
20
2.84780520649755
30
-2E-16
41
1
10
103.897222041346
20
2.75076447376492
30
-2E-16
41
1
10
104.605653211164
20
2.45183963398631
30
-2E-16
41
1
10
105.075610025498
20
2.24193984384743
30
-1E-16
41
1
10
105.778123664814
20
1.91438470207777
30
-1E-16
41
1
10
106.011810535384
20
1.80303119235111
30
-1E-16
41
1
10
106.478997382381
20
1.57677738739858
30
-1E-16
41
1
10
106.712564817073
20
1.46190652971731
30
-1E-16
41
1
10
107.413537783444
20
1.11304428671164
30
-1E-16
41
1
10
107.881204819561
20
0.87483278551295
30
-1E-16
41
1
10
108.7543328446
20
0.424286305246483
30
0
41
1
10
109.159450624067
20
0.212834420680309
30
0
41
1
10
109.566062042982
20
-5.59012720487E-05
30
0
0
SPLINE
5
E8
100
AcDbEntity
8
1
62
256
6
ByLayer
370
18
48
1
60
0
100
AcDbSpline
70
4
71
3
72
10
73
6
40
0
40
0
40
0
40
0
40
0.5
40
0.5
40
1
40
1
40
1
40
1
41
1
10
110.037954749448
20
-4.68655679114201
30
0
41
1
10
110.040959471986
20
-4.7048036896241
30
0
41
1
10
110.043828944882
20
-4.71916640067732
30
0
41
1
10
110.049503805368
20
-4.73998962372448
30
0
41
1
10
110.052320023446
20
-4.74645378784913
30
0
41
1
10
110.055150273908
20
-4.74882534796373
30
0
0
SPLINE
5
E9
100
AcDbEntity
8
1
62
256
6
ByLayer
370
18
48
1
60
0
100
AcDbSpline
70
4
71
3
72
40
73
36
40
0
40
0
40
0
40
0
40
0.0128583564261584
40
0.0128583564261584
40
0.0728013929199242
40
0.0728013929199242
40
0.13274442941369
40
0.13274442941369
40
0.192687465907456
40
0.192687465907456
40
0.252630502401221
40
0.252630502401221
40
0.312573538894987
40
0.312573538894987
40
0.432459611882519
40
0.432459611882519
40
0.492402648376286
40
0.492402648376286
40
0.522374166623168
40
0.522374166623168
40
0.55234568487005
40
0.55234568487005
40
0.612288721363818
40
0.612288721363818
40
0.672231757857585
40
0.672231757857585
40
0.732174794351353
40
0.732174794351353
40
0.792117830845122
40
0.792117830845122
40
0.852060867338891
40
0.852060867338891
40
0.912003903832659
40
0.912003903832659
40
1
40
1
40
1
40
1
41
1
10
100.591264934307
20
-2.02522959768152
30
1E-16
41
1
10
100.488456136801
20
-1.97673308905655
30
1E-16
41
1
10
100.385677542365
20
-1.92782717402821
30
1E-16
41
1
10
99.8040082206366
20
-1.648826138771
30
1E-16
41
1
10
99.3259308733365
20
-1.41095375496468
30
1E-16
41
1
10
98.3685802818291
20
-0.923866814372275
30
1E-16
41
1
10
97.8888844207423
20
-0.67419487631085
30
0
41
1
10
96.9297907681653
20
-0.17112535133333
30
0
41
1
10
96.4498976195007
20
0.0823274233375173
30
0
41
1
10
95.491936552188
20
0.58548384396866
30
0
41
1
10
95.0138372205602
20
0.835048669349561
30
-1E-16
41
1
10
94.0565163062042
20
1.32466612538923
30
-1E-16
41
1
10
93.5763540466776
20
1.56548002979298
30
-1E-16
41
1
10
92.1438481893092
20
2.25872992287495
30
-1E-16
41
1
10
91.1964908559548
20
2.68441999188849
30
-2E-16
41
1
10
89.769928486278
20
3.24153891944314
30
-2E-16
41
1
10
89.2935578031406
20
3.41397980915235
30
-2E-16
41
1
10
88.5754799350136
20
3.64912571961261
30
2E-16
41
1
10
88.3354843165144
20
3.72357998079886
30
2E-16
41
1
10
87.8567453047128
20
3.86337366806606
30
2E-16
41
1
10
87.6176696927115
20
3.92885545449414
30
2E-16
41
1
10
86.9007605707028
20
4.11166454406435
30
0
41
1
10
86.4230786507201
20
4.21499743523819
30
0
41
1
10
85.4657022592138
20
4.38301219161639
30
0
41
1
10
84.9857979489879
20
4.44770430356377
30
-1E-16
41
1
10
84.0267145640758
20
4.53464957157729
30
1E-16
41
1
10
83.5469207795131
20
4.55714355247403
30
0
41
1
10
82.5890017051929
20
4.56049771616938
30
0
41
1
10
82.1108694096462
20
4.54131792062029
30
0
41
1
10
81.153597181847
20
4.46209173704983
30
-1E-16
41
1
10
80.6734221171796
20
4.40166773180144
30
0
41
1
10
79.7185209607132
20
4.24123683915965
30
0
41
1
10
79.2430246872544
20
4.14156553042486
30
0
41
1
10
78.0705150292135
20
3.8510366071153
30
2E-16
41
1
10
77.3741550659043
20
3.63912279526434
30
0
41
1
10
76.6743921975229
20
3.39300889338304
30
-1E-16
0
SPLINE
5
EA
100
AcDbEntity
8
1
62
256
6
ByLayer
370
18
48
1
60
0
100
AcDbSpline
70
4
71
3
72
61
73
57
40
0
40
0
40
0
40
0
40
0.0176376526984351
40
0.0176376526984351
40
0.0356308338620417
40
0.0356308338620417
40
0.0536240150256483
40
0.0536240150256483
40
0.0716171961892548
40
0.0716171961892548
40
0.0761154914801565
40
0.0761154914801565
40
0.0783646391256074
40
0.0786457825812888
40
0.0786457825812888
40
0.0789269260369701
40
0.0789269260369701
40
0.0794892129483329
40
0.0794892129483329
40
0.0806137867710583
40
0.0806137867710583
40
0.0896103773528621
40
0.0896103773528621
40
0.10760355851647
40
0.10760355851647
40
0.143589920843685
40
0.143589920843685
40
0.215562645498115
40
0.215562645498115
40
0.359508094806975
40
0.359508094806975
40
0.431480819461406
40
0.431480819461406
40
0.467467181788621
40
0.467467181788621
40
0.485460362952228
40
0.485460362952228
40
0.48995865824313
40
0.48995865824313
40
0.492207805888581
40
0.492207805888581
40
0.493332379711306
40
0.493332379711306
40
0.493894666622669
40
0.493894666622669
40
0.49403523835051
40
0.49403523835051
40
0.49417581007835
40
0.49417581007835
40
0.494456953534032
40
0.503453544115836
40
0.647398993424708
40
0.647398993424708
40
0.79134444273358
40
0.79134444273358
40
1
40
1
40
1
40
1
41
1
10
12.6711772869202
20
1.20976527671996
30
-1E-16
41
1
10
12.6310282819856
20
1.22152227920654
30
-1E-16
41
1
10
12.5902088018018
20
1.22948044450288
30
-1E-16
41
1
10
12.504703238545
20
1.23856300650732
30
-1E-16
41
1
10
12.4592615116882
20
1.23988557799578
30
-1E-16
41
1
10
12.3647308156795
20
1.23543539324913
30
-1E-16
41
1
10
12.3161160955075
20
1.22954225603652
30
-1E-16
41
1
10
12.215108044207
20
1.21111314742669
30
-1E-16
41
1
10
12.1627130048947
20
1.19855542450716
30
-1E-16
41
1
10
12.0955691162907
20
1.17850380704107
30
-1E-16
41
1
10
12.0820572920931
20
1.17427595634686
30
-1E-16
41
1
10
12.0616750218929
20
1.1676044182137
30
-1E-16
41
1
10
12.0540104878543
20
1.16504085858247
30
-1E-16
41
1
10
12.0463229990371
20
1.16240744103266
30
-1E-16
41
1
10
12.0446141122354
20
1.16182051375875
30
-1E-16
41
1
10
12.0434379192986
20
1.16153261076093
30
-1E-16
41
1
10
12.0465004896074
20
1.15915092836394
30
-1E-16
41
1
10
12.0495925827777
20
1.15762169537265
30
-1E-16
41
1
10
12.0581230833858
20
1.1530717540758
30
-1E-16
41
1
10
12.0640247037366
20
1.1500850003799
30
-1E-16
41
1
10
12.1172250865871
20
1.12328830057453
30
-1E-16
41
1
10
12.1659432546717
20
1.09987562561832
30
-1E-16
41
1
10
12.3112762144281
20
1.02928858423266
30
-1E-16
41
1
10
12.4085688610594
20
0.982204262581575
30
-1E-16
41
1
10
12.7005633538072
20
0.840486641330244
30
-1E-16
41
1
10
12.8955092417592
20
0.745404704336408
30
0
41
1
10
13.4802933288464
20
0.457905190778689
30
0
41
1
10
13.8701639727377
20
0.263397569343908
30
0
41
1
10
15.0391306240313
20
-0.329184335882616
30
0
41
1
10
15.81755878148
20
-0.736899177390882
30
0
41
1
10
16.9847513516959
20
-1.36485984220252
30
0
41
1
10
17.3737070654229
20
-1.57683776417287
30
0
41
1
10
17.9564234126645
20
-1.89952625920247
30
0
41
1
10
18.150583845751
20
-2.00778139065781
30
0
41
1
10
18.4412394131804
20
-2.17204153795063
30
0
41
1
10
18.5380902744965
20
-2.22698221452208
30
0
41
1
10
18.6583889683695
20
-2.29717860596909
30
0
41
1
10
18.6824128188493
20
-2.31128989712772
30
0
41
1
10
18.718225077179
20
-2.33287128216136
30
0
41
1
10
18.7301328568757
20
-2.34012040298904
30
0
41
1
10
18.747782651717
20
-2.35137940773086
30
0
41
1
10
18.7536426574068
20
-2.35516892464705
30
0
41
1
10
18.7621642956167
20
-2.36126536565485
30
0
41
1
10
18.7651030302882
20
-2.36324639957738
30
0
41
1
10
18.768057427105
20
-2.3665122881583
30
0
41
1
10
18.7689365226138
20
-2.36738318078864
30
0
41
1
10
18.7680709601981
20
-2.3689798900121
30
0
41
1
10
18.7669437136243
20
-2.36893029284505
30
0
41
1
10
18.7643420448001
20
-2.36930525390994
30
0
41
1
10
18.7071058502976
20
-2.37755403587136
30
0
41
1
10
17.7621203342601
20
-2.51358756114556
30
0
41
1
10
16.8237875267779
20
-2.64603030319026
30
0
41
1
10
15.0668999408996
20
-2.8876964399183
30
0
41
1
10
14.1930181241846
20
-3.00471212455346
30
0
41
1
10
12.0668859843032
20
-3.27944366246439
30
2E-16
41
1
10
10.8202732167189
20
-3.43198899151545
30
2E-16
41
1
10
9.58447395158862
20
-3.57321042878181
30
2E-16
0
SPLINE
5
EB
100
AcDbEntity
8
1
62
256
6
ByLayer
370
18
48
1
60
0
100
AcDbSpline
70
4
71
3
72
14
73
10
40
0
40
0
40
0
40
0
40
0.25
40
0.25
40
0.5
40
0.5
40
0.75
40
0.75
40
1
40
1
40
1
40
1
41
1
10
110.57522068975
20
0.910265966829627
30
-1E-16
41
1
10
110.494825264135
20
0.918198348275297
30
-1E-16
41
1
10
110.414073704969
20
0.915645165933682
30
-1E-16
41
1
10
110.253192387825
20
0.900109232158684
30
-1E-16
41
1
10
110.173052921047
20
0.883749467917369
30
-1E-16
41
1
10
110.014669923359
20
0.835275439242309
30
-1E-16
41
1
10
109.936418533255
20
0.803431000798241
30
0
41
1
10
109.782831711823
20
0.726616574556886
30
0
41
1
10
109.707560659081
20
0.680208047062365
30
0
41
1
10
109.635552961463
20
0.626033423959854
30
0
0
SPLINE
5
EC
100
AcDbEntity
8
1
62
256
6
ByLayer
370
18
48
1
60
0
100
AcDbSpline
70
4
71
3
72
10
73
6
40
0
40
0
40
0
40
0
40
0.5
40
0.5
40
1
40
1
40
1
40
1
41
1
10
64.5017313828506
20
-4.23827569569403
30
-2E-16
41
1
10
64.5017313828506
20
-4.22290430856131
30
-2E-16
41
1
10
64.5209154618791
20
-4.20773679421131
30
-2E-16
41
1
10
64.5807305905383
20
-4.19160382336969
30
-2E-16
41
1
10
64.6193428157063
20
-4.19131217796354
30
-2E-16
41
1
10
64.6499101912739
20
-4.19901365571616
30
-2E-16
0
SPLINE
5
ED
100
AcDbEntity
8
1
62
256
6
ByLayer
370
18
48
1
60
0
100
AcDbSpline
70
4
71
3
72
12
73
8
40
0
40
0
40
0
40
0
40
0.342289731792653
40
0.342289731792653
40
0.684579463585306
40
0.684579463585306
40
1
40
1
40
1
40
1
41
1
10
64.6499101912739
20
-4.19901365571616
30
-2E-16
41
1
10
65.1188535962241
20
-4.31716436814742
30
0
41
1
10
65.5877690553003
20
-4.41558019687389
30
0
41
1
10
66.526866348788
20
-4.57304910179781
30
1E-16
41
1
10
66.9970638908248
20
-4.63224387907567
30
0
41
1
10
67.8976664689104
20
-4.70597625541959
30
0
41
1
10
68.3291006970933
20
-4.72380838740082
30
0
41
1
10
68.7610037236668
20
-4.72405535044024
30
0
0
SPLINE
5
EE
100
AcDbEntity
8
1
62
256
6
ByLayer
370
18
48
1
60
0
100
AcDbSpline
70
4
71
3
72
38
73
34
40
0
40
0
40
0
40
0
40
0.011857789560571
40
0.011857789560571
40
0.0548204943622854
40
0.0548204943622854
40
0.0977831991639995
40
0.0977831991639995
40
0.140745903965713
40
0.140745903965713
40
0.183708608767428
40
0.183708608767428
40
0.226671313569142
40
0.226671313569142
40
0.31259672317257
40
0.31259672317257
40
0.398522132775999
40
0.398522132775999
40
0.484447542379427
40
0.484447542379427
40
0.570372951982855
40
0.570372951982855
40
0.656298361586283
40
0.656298361586283
40
0.742223771189712
40
0.742223771189712
40
0.785186475991428
40
0.785186475991428
40
0.828149180793144
40
0.828149180793144
40
0.914074590396572
40
0.914074590396572
40
1
40
1
40
1
40
1
41
1
10
93.2863820650754
20
4.5146307514805
30
-1E-16
41
1
10
93.3511328622241
20
4.52541480094877
30
-1E-16
41
1
10
93.4159051330599
20
4.53582550336497
30
-1E-16
41
1
10
93.7154630152543
20
4.58222549333556
30
-1E-16
41
1
10
93.9505604177654
20
4.61367432019668
30
-1E-16
41
1
10
94.4194460389783
20
4.6663535506728
30
0
41
1
10
94.6535032985818
20
4.68762163453073
30
0
41
1
10
95.1208850944268
20
4.71987276766725
30
0
41
1
10
95.3544886505775
20
4.73076637528072
30
0
41
1
10
95.8226133847645
20
4.74208829608048
30
0
41
1
10
96.0569669188456
20
4.74255775905706
30
0
41
1
10
96.5262118907613
20
4.73315958321595
30
0
41
1
10
96.7613521149238
20
4.72326893686233
30
0
41
1
10
97.4652722354214
20
4.67804160679486
30
0
41
1
10
97.9321226878612
20
4.62682711158322
30
-1E-16
41
1
10
98.8681108816934
20
4.48500505243001
30
-1E-16
41
1
10
99.3368370974148
20
4.39424456011568
30
0
41
1
10
100.276038483864
20
4.17432038549157
30
2E-16
41
1
10
100.743351795263
20
4.04505409633413
30
2E-16
41
1
10
101.679272611622
20
3.7535342834899
30
2E-16
41
1
10
102.14755280849
20
3.59112288379396
30
-2E-16
41
1
10
103.086100175405
20
3.23424130898681
30
-2E-16
41
1
10
103.554107796428
20
3.04006979426401
30
-2E-16
41
1
10
104.490173423041
20
2.62938940834135
30
-2E-16
41
1
10
104.958345234347
20
2.41230945267654
30
-1E-16
41
1
10
105.661589364397
20
2.07011061601182
30
-1E-16
41
1
10
105.896246508163
20
1.95310200921986
30
-1E-16
41
1
10
106.364680795223
20
1.71534257115323
30
-1E-16
41
1
10
106.598851296751
20
1.59482156189134
30
-1E-16
41
1
10
107.301547780542
20
1.22896003768037
30
-1E-16
41
1
10
107.770303559881
20
0.979125506706112
30
-1E-16
41
1
10
108.709376225017
20
0.471037961382478
30
0
41
1
10
109.177386447024
20
0.213928999059249
30
0
41
1
10
109.645296581987
20
-0.0436463538087821
30
0
0
SPLINE
5
EF
100
AcDbEntity
8
1
62
256
6
ByLayer
370
18
48
1
60
0
100
AcDbSpline
70
4
71
3
72
36
73
32
40
0
40
0
40
0
40
0
40
0.0320935197336628
40
0.0320935197336628
40
0.081620580592942
40
0.081620580592942
40
0.279728824030063
40
0.279728824030063
40
0.329255884889343
40
0.329255884889343
40
0.378782945748623
40
0.378782945748623
40
0.477837067467184
40
0.477837067467184
40
0.527364128326464
40
0.527364128326464
40
0.576891189185744
40
0.576891189185744
40
0.675945310904305
40
0.675945310904305
40
0.725472371763585
40
0.725472371763585
40
0.774999432622865
40
0.774999432622865
40
0.874053554341425
40
0.874053554341425
40
0.923580615200705
40
0.923580615200705
40
0.973107676059986
40
0.973107676059986
40
1
40
1
40
1
40
1
41
1
10
82.7348758962487
20
-0.205632562682894
30
0
41
1
10
82.5834205167342
20
-0.12676591258284
30
0
41
1
10
82.4321052053299
20
-0.0477252969188839
30
0
41
1
10
82.0470983167881
20
0.152727137149981
30
0
41
1
10
81.8133883552857
20
0.273979634334154
30
0
41
1
10
80.6444578545345
20
0.878359858279993
30
-1E-16
41
1
10
79.7074202736045
20
1.3547079694539
30
-1E-16
41
1
10
78.5222325390709
20
1.91807951150079
30
-1E-16
41
1
10
78.2859398835687
20
2.02852845867659
30
-1E-16
41
1
10
77.8141994700753
20
2.24385164901531
30
-1E-16
41
1
10
77.5786069845421
20
2.34882586314473
30
-1E-16
41
1
10
76.8729356436639
20
2.65522490811705
30
-2E-16
41
1
10
76.4038367585182
20
2.84828992828247
30
-2E-16
41
1
10
75.7023433596767
20
3.11672113708548
30
-2E-16
41
1
10
75.4688220489129
20
3.20268521027606
30
-2E-16
41
1
10
75.0012096360477
20
3.36772083659559
30
-2E-16
41
1
10
74.7671617008804
20
3.44676948556409
30
-2E-16
41
1
10
74.0641869104718
20
3.67293430163176
30
2E-16
41
1
10
73.5944279279965
20
3.80902065151255
30
2E-16
41
1
10
72.8872630006159
20
3.98597805058446
30
2E-16
41
1
10
72.6510971301923
20
4.04048817308845
30
0
41
1
10
72.1770904751847
20
4.14120831313534
30
0
41
1
10
71.939821407976
20
4.18724030641525
30
0
41
1
10
71.2307639188913
20
4.31093506649401
30
0
41
1
10
70.7603199104177
20
4.37448299651641
30
0
41
1
10
70.0572216814067
20
4.4384726560184
30
0
41
1
10
69.8232617449768
20
4.45463482829163
30
-1E-16
41
1
10
69.3552366004825
20
4.47790443314668
30
0
41
1
10
69.1211876420549
20
4.48497336671997
30
0
41
1
10
68.7600283535162
20
4.4881961031565
30
0
41
1
10
68.6329225558287
20
4.48788701331614
30
0
41
1
10
68.5057808335883
20
4.48612144790656
30
0
0
SPLINE
5
F0
100
AcDbEntity
8
1
62
256
6
ByLayer
370
18
48
1
60
0
100
AcDbSpline
70
4
71
3
72
24
73
20
40
0
40
0
40
0
40
0
40
0.125470509891415
40
0.125470509891415
40
0.250941019782829
40
0.250941019782829
40
0.376411529674244
40
0.376411529674244
40
0.439146784619954
40
0.439146784619954
40
0.501882039565664
40
0.501882039565664
40
0.752823059348508
40
0.752823059348508
40
0.878293569239931
40
0.878293569239931
40
0.941028824185642
40
0.941028824185642
40
1
40
1
40
1
40
1
41
1
10
109.635552961463
20
0.62603342395991
30
0
41
1
10
109.114198685037
20
0.90983537667293
30
-1E-16
41
1
10
108.595159607164
20
1.1882436708843
30
-1E-16
41
1
10
107.559182324587
20
1.72995303624233
30
-1E-16
41
1
10
107.041563553365
20
1.99203212800398
30
-1E-16
41
1
10
106.003874770557
20
2.49322333471537
30
-2E-16
41
1
10
105.484192735391
20
2.73293576257942
30
-2E-16
41
1
10
104.699496719144
20
3.06955658327439
30
-2E-16
41
1
10
104.436509362741
20
3.17826046945368
30
-2E-16
41
1
10
103.912663224383
20
3.38571696800344
30
-2E-16
41
1
10
103.6515914838
20
3.48458581145414
30
-2E-16
41
1
10
102.349181149347
20
3.9533961691628
30
2E-16
41
1
10
101.316584336758
20
4.24661042829462
30
2E-16
41
1
10
99.7592125774972
20
4.54400260282929
30
-1E-16
41
1
10
99.2390192925137
20
4.61953410904951
30
-1E-16
41
1
10
98.4528934613128
20
4.69444105716659
30
0
41
1
10
98.1897233023852
20
4.7130540931355
30
0
41
1
10
97.6822387743891
20
4.73642484871465
30
0
41
1
10
97.4370491836397
20
4.74197439664482
30
0
41
1
10
97.1923498771092
20
4.74182468931772
30
0
0
SPLINE
5
F1
100
AcDbEntity
8
1
62
256
6
ByLayer
370
18
48
1
60
0
100
AcDbSpline
70
4
71
3
72
64
73
60
40
0
40
0
40
0
40
0
40
0.0140115632587963
40
0.0140115632587963
40
0.0593566547649667
40
0.0593566547649667
40
0.0820292005180519
40
0.0820292005180519
40
0.104701746271137
40
0.104701746271137
40
0.150046837777307
40
0.150046837777307
40
0.240737020789646
40
0.240737020789646
40
0.263409566542731
40
0.263409566542731
40
0.286082112295816
40
0.286082112295816
40
0.331427203801987
40
0.331427203801987
40
0.354099749555072
40
0.354099749555072
40
0.376772295308158
40
0.376772295308158
40
0.422117386814329
40
0.422117386814329
40
0.444789932567414
40
0.444789932567414
40
0.467462478320499
40
0.467462478320499
40
0.512807569826669
40
0.512807569826669
40
0.535480115579755
40
0.535480115579755
40
0.55815266133284
40
0.55815266133284
40
0.603497752839012
40
0.603497752839012
40
0.626170298592098
40
0.626170298592098
40
0.648842844345184
40
0.648842844345184
40
0.694187935851355
40
0.694187935851355
40
0.739533027357526
40
0.739533027357526
40
0.784878118863697
40
0.784878118863697
40
0.807550664616782
40
0.807550664616782
40
0.830223210369867
40
0.830223210369867
40
0.875568301876037
40
0.875568301876037
40
0.966258484888377
40
0.966258484888377
40
0.988931030641462
40
0.988931030641462
40
1
40
1
40
1
40
1
41
1
10
77.3289331471894
20
-3.1387657784677
30
2E-16
41
1
10
77.1687361895278
20
-3.20421173741195
30
2E-16
41
1
10
77.0085927610042
20
-3.26802545164318
30
2E-16
41
1
10
76.3301928792292
20
-3.53115134307896
30
2E-16
41
1
10
75.8115011876854
20
-3.71379628294483
30
-2E-16
41
1
10
75.0312074010549
20
-3.95790413649496
30
-2E-16
41
1
10
74.7706322917885
20
-4.03416699681563
30
-2E-16
41
1
10
74.2478660246885
20
-4.17568877360441
30
-2E-16
41
1
10
73.9852581762257
20
-4.24102946123003
30
-2E-16
41
1
10
73.1970461546686
20
-4.41913398717497
30
0
41
1
10
72.6756712363399
20
-4.51356036648008
30
1E-16
41
1
10
71.1161074170271
20
-4.72105891546454
30
0
41
1
10
70.0830688614857
20
-4.7588831757808
30
0
41
1
10
68.7813267435644
20
-4.6778774632111
30
0
41
1
10
68.5204784771809
20
-4.65525784768201
30
0
41
1
10
67.9972071402052
20
-4.59715611026598
30
1E-16
41
1
10
67.7341325014158
20
-4.56159550143371
30
1E-16
41
1
10
66.9464959722455
20
-4.43646438873475
30
0
41
1
10
66.4255134731668
20
-4.32828708412279
30
0
41
1
10
65.6457189930931
20
-4.13303392332421
30
-2E-16
41
1
10
65.3860432738163
20
-4.06251146207447
30
-2E-16
41
1
10
64.8673086482896
20
-3.91055798287351
30
-2E-16
41
1
10
64.6082466383091
20
-3.82910675417935
30
-2E-16
41
1
10
63.8306029257663
20
-3.56977827244046
30
2E-16
41
1
10
63.3117884431956
20
-3.37671383603183
30
2E-16
41
1
10
62.5302574072252
20
-3.059942468299
30
2E-16
41
1
10
62.2691956849813
20
-2.9498206433226
30
2E-16
41
1
10
61.7454463386995
20
-2.72113192084609
30
2E-16
41
1
10
61.4821138968146
20
-2.60229463811365
30
2E-16
41
1
10
60.6951549758893
20
-2.23686501425351
30
1E-16
41
1
10
60.1740919987815
20
-1.98095985099513
30
1E-16
41
1
10
59.3944076526236
20
-1.58489017607584
30
1E-16
41
1
10
59.134745173461
20
-1.45099025124324
30
1E-16
41
1
10
58.6160896477456
20
-1.17908192734055
30
1E-16
41
1
10
58.3569988896419
20
-1.04124260326248
30
1E-16
41
1
10
57.5791375914522
20
-0.6244354470345
30
0
41
1
10
57.0596707033833
20
-0.342409970088994
30
0
41
1
10
56.2777260361261
20
0.0843591383053024
30
0
41
1
10
56.0164849066495
20
0.226983806625782
30
0
41
1
10
55.4923025546746
20
0.512018106777276
30
0
41
1
10
55.2288703480505
20
0.654692659838446
30
0
41
1
10
54.4424486049729
20
1.07727537990934
30
-1E-16
41
1
10
53.9215023599419
20
1.35280050454725
30
-1E-16
41
1
10
52.8821632252066
20
1.88450687193057
30
-1E-16
41
1
10
52.363853122496
20
2.14084413638878
30
-1E-16
41
1
10
51.3262866665652
20
2.62836525080957
30
-2E-16
41
1
10
50.8066425312842
20
2.85896007850707
30
-2E-16
41
1
10
50.0242030867938
20
3.1821705826336
30
-2E-16
41
1
10
49.7627626062699
20
3.28592269787157
30
-2E-16
41
1
10
49.2380105603447
20
3.48450394013938
30
-2E-16
41
1
10
48.9744589205817
20
3.57932985986591
30
-2E-16
41
1
10
48.1881634194713
20
3.84727924696585
30
2E-16
41
1
10
47.6676519842524
20
4.00515153347774
30
2E-16
41
1
10
46.1089998741767
20
4.40938540122113
30
0
41
1
10
45.0747729427292
20
4.58761061165265
30
-1E-16
41
1
10
43.7694026899671
20
4.68378664688692
30
0
41
1
10
43.5077186402522
20
4.69669361462138
30
0
41
1
10
43.1168772662323
20
4.70624491983935
30
0
41
1
10
42.9884736601384
20
4.70782398229562
30
0
41
1
10
42.8601469255107
20
4.70785615763242
30
0
0
SPLINE
5
F2
100
AcDbEntity
8
1
62
256
6
ByLayer
370
18
48
1
60
0
100
AcDbSpline
70
4
71
3
72
24
73
20
40
0
40
0
40
0
40
0
40
0.248308709271098
40
0.248308709271098
40
0.310949650165173
40
0.310949650165173
40
0.373590591059249
40
0.373590591059249
40
0.4988724728474
40
0.4988724728474
40
0.624154354635551
40
0.624154354635551
40
0.749436236423702
40
0.749436236423702
40
0.812077177317776
40
0.812077177317776
40
0.874718118211851
40
0.874718118211851
40
1
40
1
40
1
40
1
41
1
10
22.0939431162818
20
-3.45975399006494
30
1E-16
41
1
10
21.0643451566254
20
-3.83713091733074
30
-2E-16
41
1
10
20.0378703502267
20
-4.13942725508602
30
-2E-16
41
1
10
18.7381783336672
20
-4.40330931156686
30
0
41
1
10
18.4752332408183
20
-4.45069527006262
30
1E-16
41
1
10
17.9489565566497
20
-4.53289249705347
30
1E-16
41
1
10
17.6866341600422
20
-4.56758267814661
30
1E-16
41
1
10
16.9023932807563
20
-4.65282226787821
30
0
41
1
10
16.382215389192
20
-4.68403220317811
30
0
41
1
10
15.3426968045276
20
-4.6957051049184
30
0
41
1
10
14.824170997948
20
-4.67616103123709
30
0
41
1
10
13.7844805138266
20
-4.58662163323635
30
1E-16
41
1
10
13.2635152722415
20
-4.51663406289961
30
1E-16
41
1
10
12.477396463316
20
-4.37439271993793
30
0
41
1
10
12.2141197960404
20
-4.3207254823316
30
0
41
1
10
11.6876363080811
20
-4.20145496095435
30
-2E-16
41
1
10
11.4248006163907
20
-4.13593938617947
30
-2E-16
41
1
10
10.63672235174
20
-3.92243638446158
30
-2E-16
41
1
10
10.1117399067284
20
-3.75757811645158
30
-2E-16
41
1
10
9.58446749465031
20
-3.57321116665082
30
2E-16
0
SPLINE
5
F3
100
AcDbEntity
8
1
62
256
6
ByLayer
370
18
48
1
60
0
100
AcDbSpline
70
4
71
3
72
20
73
16
40
0
40
0
40
0
40
0
40
0.0350153416283632
40
0.0350153416283632
40
0.239054967891412
40
0.239054967891412
40
0.443094594154461
40
0.443094594154461
40
0.64713422041751
40
0.64713422041751
40
0.749154033549034
40
0.749154033549034
40
0.851173846680559
40
0.851173846680559
40
1
40
1
40
1
40
1
41
1
10
64.6020962616506
20
4.48426468941418
30
0
41
1
10
64.6020935502332
20
4.48425404565791
30
0
41
1
10
64.6020908448447
20
4.48362279124794
30
0
41
1
10
64.6020724370832
20
4.47507128756087
30
0
41
1
10
64.6020569239941
20
4.44688329494699
30
-1E-16
41
1
10
64.6020264199079
20
4.34839953390079
30
0
41
1
10
64.6020115831844
20
4.27861354010375
30
0
41
1
10
64.6019823204406
20
4.09889842421569
30
0
41
1
10
64.6019679951672
20
3.98959568228446
30
2E-16
41
1
10
64.6019463324921
20
3.79770334444453
30
2E-16
41
1
10
64.6019391113668
20
3.729365537539
30
2E-16
41
1
10
64.6019245046989
20
3.58399642539413
30
-2E-16
41
1
10
64.601917102704
20
3.50678388503184
30
-2E-16
41
1
10
64.6018985759652
20
3.30719118678672
30
-2E-16
41
1
10
64.601887337596
20
3.18076997828538
30
-2E-16
41
1
10
64.6018755506749
20
3.04631775976722
30
-2E-16
0
SPLINE
5
F4
100
AcDbEntity
8
1
62
256
6
ByLayer
370
18
48
1
60
0
100
AcDbSpline
70
4
71
3
72
16
73
12
40
0
40
0
40
0
40
0
40
0.221635145581173
40
0.221635145581173
40
0.443270291162347
40
0.443270291162347
40
0.66490543674352
40
0.66490543674352
40
0.886540582324693
40
0.886540582324693
40
1
40
1
40
1
40
1
41
1
10
110.342242293533
20
4.55877374824499
30
0
41
1
10
109.863950903535
20
4.56278058343912
30
0
41
1
10
109.384205553017
20
4.54555932743139
30
0
41
1
10
108.425187765269
20
4.46958999732655
30
-1E-16
41
1
10
107.945752641594
20
4.41102636033852
30
0
41
1
10
106.988716108427
20
4.25466293089232
30
0
41
1
10
106.510605683528
20
4.15680450976836
30
0
41
1
10
105.552581731059
20
3.92285827305273
30
2E-16
41
1
10
105.072648165938
20
3.78682797124591
30
2E-16
41
1
10
104.34783085456
20
3.5562013554877
30
0
41
1
10
104.102720702125
20
3.4738590309901
30
0
41
1
10
103.857755566916
20
3.3875209939155
30
-1E-16
0
SPLINE
5
F5
100
AcDbEntity
8
1
62
256
6
ByLayer
370
18
48
1
60
0
100
AcDbSpline
70
4
71
3
72
14
73
10
40
0
40
0
40
0
40
0
40
0.103253848658624
40
0.103253848658624
40
0.231360441707392
40
0.231360441707392
40
0.487573627804927
40
0.487573627804927
40
1
40
1
40
1
40
1
41
1
10
70.0762386476768
20
-0.352679344306296
30
0
41
1
10
69.8840736197936
20
-0.251841601814505
30
0
41
1
10
69.6915242839258
20
-0.15055649134797
30
0
41
1
10
69.2590225556621
20
0.0770534282172548
30
0
41
1
10
69.0193366478228
20
0.203300871916298
30
0
41
1
10
68.3030661020815
20
0.579679096141007
30
0
41
1
10
67.8275788352069
20
0.827886497552726
30
-1E-16
41
1
10
66.4029508421705
20
1.55693410572405
30
-1E-16
41
1
10
65.455671995126
20
2.02251095127667
30
-1E-16
41
1
10
64.5000000000054
20
2.44723581616802
30
-1E-16
0
SPLINE
5
F6
100
AcDbEntity
8
1
62
256
6
ByLayer
370
18
48
1
60
0
100
AcDbSpline
70
2053
71
3
72
60
73
56
40
0
40
0
40
0
40
0
40
0.0625000000000013
40
0.0625000000000013
40
0.125000000000002
40
0.125000000000002
40
0.187500000000004
40
0.187500000000004
40
0.250000000000005
40
0.250000000000005
40
0.281250000000005
40
0.281250000000005
40
0.312500000000005
40
0.312500000000005
40
0.343750000000004
40
0.343750000000004
40
0.375000000000004
40
0.375000000000004
40
0.406250000000004
40
0.406250000000004
40
0.437500000000004
40
0.437500000000004
40
0.468750000000003
40
0.468750000000003
40
0.500000000000003
40
0.500000000000003
40
0.531250000000003
40
0.531250000000003
40
0.562500000000002
40
0.562500000000002
40
0.593750000000002
40
0.593750000000002
40
0.625000000000002
40
0.625000000000002
40
0.656250000000002
40
0.656250000000002
40
0.687500000000002
40
0.687500000000002
40
0.718750000000002
40
0.718750000000002
40
0.750000000000001
40
0.750000000000001
40
0.781250000000001
40
0.781250000000001
40
0.812500000000001
40
0.812500000000001
40
0.843750000000001
40
0.843750000000001
40
0.875000000000001
40
0.875000000000001
40
0.937500000000001
40
0.937500000000001
40
0.96875
40
0.96875
40
1
40
1
40
1
40
1
41
1
10
110.773522703034
20
-1.87765090079534
30
-1E-16
41
1
10
110.740056497281
20
-1.91650766951804
30
-1E-16
41
1
10
110.708799678079
20
-1.94093182652818
30
-1E-16
41
1
10
110.649217581584
20
-1.96191905646339
30
-1E-16
41
1
10
110.62249063752
20
-1.95787605543296
30
1E-16
41
1
10
110.573600159256
20
-1.91999757721078
30
1E-16
41
1
10
110.552754216477
20
-1.88722088679711
30
1E-16
41
1
10
110.517519651536
20
-1.79213607409949
30
1E-16
41
1
10
110.504107534556
20
-1.73256386966764
30
1E-16
41
1
10
110.491318937285
20
-1.62362520519485
30
1E-16
41
1
10
110.48847933534
20
-1.58530672909541
30
1E-16
41
1
10
110.485864277614
20
-1.50462263150351
30
1E-16
41
1
10
110.486114864833
20
-1.46166924542612
30
1E-16
41
1
10
110.490304644017
20
-1.37396506312615
30
1E-16
41
1
10
110.494169565112
20
-1.32981214123467
30
1E-16
41
1
10
110.505878475481
20
-1.24092210037509
30
1E-16
41
1
10
110.513819305843
20
-1.19610652974603
30
1E-16
41
1
10
110.533201420299
20
-1.11121414593845
30
1E-16
41
1
10
110.544886133999
20
-1.06997197425076
30
1E-16
41
1
10
110.571366246799
20
-0.993400825871646
30
1E-16
41
1
10
110.586007530582
20
-0.958305124939614
30
1E-16
41
1
10
110.617986049896
20
-0.894021037762883
30
1E-16
41
1
10
110.63504550831
20
-0.865461340091287
30
1E-16
41
1
10
110.670383861593
20
-0.815750320192848
30
0
41
1
10
110.688928638976
20
-0.794276714038091
30
0
41
1
10
110.726198106558
20
-0.758968160455424
30
0
41
1
10
110.744987760389
20
-0.744973347100512
30
0
41
1
10
110.782727139671
20
-0.723707337796668
30
0
41
1
10
110.801628840827
20
-0.716526631642637
30
0
41
1
10
110.838320923183
20
-0.708958833601088
30
0
41
1
10
110.856258015104
20
-0.708482201328593
30
0
41
1
10
110.891143589861
20
-0.714097734031071
30
0
41
1
10
110.908038561583
20
-0.720248059784666
30
0
41
1
10
110.939570085964
20
-0.738853986862239
30
0
41
1
10
110.954350771908
20
-0.751317824798349
30
0
41
1
10
110.981655301619
20
-0.782981547260135
30
0
41
1
10
110.994258577282
20
-0.802408780420194
30
0
41
1
10
111.015910430058
20
-0.847445446191244
30
1E-16
41
1
10
111.025069335852
20
-0.873092681747778
30
1E-16
41
1
10
111.039573199956
20
-0.931454726677799
30
1E-16
41
1
10
111.044838103126
20
-0.964184486221171
30
1E-16
41
1
10
111.050569451798
20
-1.03457767216241
30
1E-16
41
1
10
111.051099702227
20
-1.07309117915346
30
1E-16
41
1
10
111.047094406448
20
-1.15392483752882
30
1E-16
41
1
10
111.042653009504
20
-1.19574691442696
30
1E-16
41
1
10
111.028982038035
20
-1.28235012860753
30
1E-16
41
1
10
111.019724106502
20
-1.32686291814255
30
1E-16
41
1
10
110.997743995918
20
-1.41379561996788
30
1E-16
41
1
10
110.984734316436
20
-1.45737012569393
30
1E-16
41
1
10
110.942387735463
20
-1.58173591397733
30
1E-16
41
1
10
110.90927486399
20
-1.6579722027256
30
1E-16
41
1
10
110.858590516081
20
-1.75412625917508
30
1E-16
41
1
10
110.841268941155
20
-1.78361240259932
30
1E-16
41
1
10
110.807191093828
20
-1.83549248069443
30
-1E-16
41
1
10
110.790255805911
20
-1.85822251643398
30
-1E-16
41
1
10
110.773522703034
20
-1.87765090079534
30
-1E-16
0
SPLINE
5
F7
100
AcDbEntity
8
1
62
256
6
ByLayer
370
18
48
1
60
0
100
AcDbSpline
70
4
71
3
72
14
73
10
40
0
40
0
40
0
40
0
40
0.266158533946752
40
0.266158533946752
40
0.499185685148646
40
0.499185685148646
40
0.777691876995936
40
0.777691876995936
40
1
40
1
40
1
40
1
41
1
10
109.760645131212
20
-0.101977128229947
30
0
41
1
10
109.761381889668
20
-0.102329762620315
30
0
41
1
10
109.762102165015
20
-0.103053685605431
30
0
41
1
10
109.763306314753
20
-0.104833129259418
30
0
41
1
10
109.763824890382
20
-0.105859958037257
30
0
41
1
10
109.764804255066
20
-0.108373647932467
30
0
41
1
10
109.76524972276
20
-0.109949522953457
30
0
41
1
10
109.765810901614
20
-0.112953993098984
30
0
41
1
10
109.765980473754
20
-0.114383184308764
30
0
41
1
10
109.766037427648
20
-0.115809112652442
30
0
0
SPLINE
5
F8
100
AcDbEntity
8
1
62
256
6
ByLayer
370
18
48
1
60
0
100
AcDbSpline
70
4
71
3
72
8
73
4
40
0
40
0
40
0
40
0
40
1
40
1
40
1
40
1
41
1
10
64.5
20
2.48728165190525
30
-2E-16
41
1
10
64.5
20
2.47484262698222
30
-2E-16
41
1
10
64.5
20
2.46148744603585
30
-2E-16
41
1
10
64.5
20
2.44723581623885
30
-1E-16
0
SPLINE
5
F9
100
AcDbEntity
8
1
62
256
6
ByLayer
370
18
48
1
60
0
100
AcDbSpline
70
4
71
3
72
8
73
4
40
0
40
0
40
0
40
0
40
1
40
1
40
1
40
1
41
1
10
64.5538551221659
20
3.05745364579093
30
-2E-16
41
1
10
64.5222102468647
20
3.07059051278114
30
-2E-16
41
1
10
64.5017313828506
20
3.09677668588662
30
-2E-16
41
1
10
64.5017313828506
20
3.12380384861146
30
-2E-16
0
SPLINE
5
FA
100
AcDbEntity
8
1
62
256
6
ByLayer
370
18
48
1
60
0
100
AcDbSpline
70
4
71
3
72
22
73
18
40
0
40
0
40
0
40
0
40
0.0049898021221516
40
0.0049898021221516
40
0.106822741671174
40
0.106822741671174
40
0.208655681220197
40
0.208655681220197
40
0.412321560318243
40
0.412321560318243
40
0.514154499867266
40
0.514154499867266
40
0.615987439416289
40
0.615987439416289
40
0.819653318514332
40
0.819653318514332
40
1
40
1
40
1
40
1
41
1
10
70.2460622068224
20
0.22212588896025
30
0
41
1
10
70.2692844212669
20
0.210111567235316
30
0
41
1
10
70.292509001676
20
0.19809379954512
30
0
41
1
10
70.7897598344323
20
-0.0592522012570953
30
0
41
1
10
71.264735878583
20
-0.306095592101656
30
0
41
1
10
72.2192608795812
20
-0.797577272590956
30
0
41
1
10
72.7003593568154
20
-1.04265589938976
30
1E-16
41
1
10
74.1320266414024
20
-1.75407871930022
30
1E-16
41
1
10
75.0768582357634
20
-2.20095048556311
30
1E-16
41
1
10
76.4965571444048
20
-2.80165947060354
30
2E-16
41
1
10
76.9701401491131
20
-2.99040577604899
30
2E-16
41
1
10
77.9206450603999
20
-3.34079150853472
30
2E-16
41
1
10
78.3978802586053
20
-3.5024039824803
30
2E-16
41
1
10
79.8369260325859
20
-3.93917007016302
30
-2E-16
41
1
10
80.7843190614334
20
-4.15927026281571
30
0
41
1
10
82.5684255761266
20
-4.4286473573033
30
0
41
1
10
83.4055609290787
20
-4.49434030009337
30
0
41
1
10
84.2491651492616
20
-4.49621524750586
30
0
0
SPLINE
5
FB
100
AcDbEntity
8
SK1
62
256
6
ByLayer
370
18
48
1
60
0
100
AcDbSpline
70
4
71
3
72
10
73
6
40
0
40
0
40
0
40
0
40
0.5
40
0.5
40
1
40
1
40
1
40
1
41
1
10
-39.5179491924311
20
2.92618575102338
30
-2E-16
41
1
10
-39.5876702969376
20
2.77658014650356
30
-2E-16
41
1
10
-39.6641392526984
20
2.62694811191031
30
-2E-16
41
1
10
-39.8261142497237
20
2.32748494765798
30
-1E-16
41
1
10
-39.9120447599511
20
2.17711836218894
30
-1E-16
41
1
10
-40
20
2.02903341310966
30
-1E-16
0
SPLINE
5
FC
100
AcDbEntity
8
SK1
62
256
6
ByLayer
370
18
48
1
60
0
100
AcDbSpline
70
4
71
3
72
8
73
4
40
0
40
0
40
0
40
0
40
1
40
1
40
1
40
1
41
1
10
-39.5179491924311
20
2.92618575102338
30
-2E-16
41
1
10
-39.4620006922657
20
2.97556239400745
30
-2E-16
41
1
10
-39.4060162431045
20
3.02490894197305
30
-2E-16
41
1
10
-39.35
20
3.07422887335895
30
-2E-16
0
SPLINE
5
FD
100
AcDbEntity
8
SK1
62
256
6
ByLayer
370
18
48
1
60
0
100
AcDbSpline
70
4
71
3
72
8
73
4
40
0
40
0
40
0
40
0
40
1
40
1
40
1
40
1
41
1
10
-39.35
20
4.10675127075157
30
0
41
1
10
-39.4060164959466
20
4.05743111674892
30
0
41
1
10
-39.4620009553414
20
4.00808455922592
30
0
41
1
10
-39.5179491924311
20
3.95870814841598
30
0
0
SPLINE
5
FE
100
AcDbEntity
8
SK1
62
256
6
ByLayer
370
18
48
1
60
0
100
AcDbSpline
70
4
71
3
72
12
73
8
40
0
40
0
40
0
40
0
40
0.500000000000002
40
0.500000000000002
40
0.750000000000001
40
0.750000000000001
40
1
40
1
40
1
40
1
41
1
10
-39.35
20
3.07422887335895
30
-2E-16
41
1
10
-39.3264103729719
20
3.09499854161879
30
-2E-16
41
1
10
-39.3036886178189
20
3.12077824772885
30
-2E-16
41
1
10
-39.275599229617
20
3.16258631388288
30
-2E-16
41
1
10
-39.2670477807072
20
3.17741370598483
30
-2E-16
41
1
10
-39.2542670006876
20
3.20653187164146
30
-2E-16
41
1
10
-39.25
20
3.22117245036918
30
-2E-16
41
1
10
-39.25
20
3.23273814327041
30
-2E-16
0
SPLINE
5
FF
100
AcDbEntity
8
SK1
62
256
6
ByLayer
370
18
48
1
60
0
100
AcDbSpline
70
4
71
3
72
12
73
8
40
0
40
0
40
0
40
0
40
0.5
40
0.5
40
0.75
40
0.75
40
1
40
1
40
1
40
1
41
1
10
-40.0000000000001
20
3.64105848936441
30
0
41
1
10
-39.9123015823215
20
3.71621255567857
30
0
41
1
10
-39.8274378507374
20
3.78219465573071
30
0
41
1
10
-39.7059807717948
20
3.86363921058958
30
0
41
1
10
-39.6664759830087
20
3.88784062120519
30
0
41
1
10
-39.589878798846
20
3.9291686049653
30
0
41
1
10
-39.5527407465257
20
3.94627396356248
30
0
41
1
10
-39.5179491924311
20
3.95870814841598
30
0
0
SPLINE
5
100
100
AcDbEntity
8
SK1
62
256
6
ByLayer
370
18
48
1
60
0
100
AcDbSpline
70
4
71
3
72
12
73
8
40
0
40
0
40
0
40
0
40
0.25
40
0.25
40
0.5
40
0.5
40
1
40
1
40
1
40
1
41
1
10
-39.25
20
4.16200830092379
30
0
41
1
10
-39.25
20
4.16763598252535
30
0
41
1
10
-39.254235624227
20
4.16906091217066
30
0
41
1
10
-39.2670201311554
20
4.16620213361603
30
0
41
1
10
-39.2754786511826
20
4.16207905332448
30
0
41
1
10
-39.3037388067419
20
4.14501355639962
30
0
41
1
10
-39.3264172660865
20
4.12751486991581
30
0
41
1
10
-39.35
20
4.10675127075163
30
0
0
SPLINE
5
101
100
AcDbEntity
8
1
62
256
6
ByLayer
370
18
48
1
60
0
100
AcDbSpline
70
4
71
3
72
14
73
10
40
0
40
0
40
0
40
0
40
0.223390833767416
40
0.362099094799659
40
0.490038475285057
40
0.586815971497578
40
0.679320924951053
40
0.817991159978199
40
1
40
1
40
1
40
1
41
1
10
68.7589043061966
20
4.48772323563264
30
0
41
1
10
68.4494000941899
20
4.48774956044213
30
0
41
1
10
67.9477076599108
20
4.48758236136339
30
0
41
1
10
67.2687604343541
20
4.48706338079265
30
0
41
1
10
66.7651817211955
20
4.48618802019143
30
0
41
1
10
66.3256030570283
20
4.4862670075764
30
0
41
1
10
65.8711595997691
20
4.48643266652266
30
0
41
1
10
65.2986091576894
20
4.48623903086735
30
0
41
1
10
64.8542459816062
20
4.48507705187299
30
0
41
1
10
64.6020377897782
20
4.48414789788455
30
0
0
SPLINE
5
102
100
AcDbEntity
8
1
62
256
6
ByLayer
370
18
48
1
60
0
100
AcDbSpline
70
4
71
3
72
15
73
11
40
0
40
0
40
0
40
0
40
0.0552632769621456
40
0.216867066939466
40
0.32715413185108
40
0.407102997177988
40
0.488483035705742
40
0.617882936330313
40
0.795711082191857
40
1
40
1
40
1
40
1
41
1
10
110.383314487246
20
0.994073953155123
30
-1E-16
41
1
10
110.274625510487
20
1.02822992956936
30
-1E-16
41
1
10
109.848530498556
20
1.16357592382792
30
-1E-16
41
1
10
109.209047746962
20
1.37805493573481
30
-1E-16
41
1
10
108.523339565252
20
1.61455040913646
30
-1E-16
41
1
10
107.995532946498
20
1.80158794483546
30
-1E-16
41
1
10
107.431864138873
20
2.00544395277498
30
-1E-16
41
1
10
106.680783393612
20
2.28448266537106
30
-1E-16
41
1
10
105.696614317694
20
2.66375629465028
30
-2E-16
41
1
10
104.966202255261
20
2.95907201213487
30
-2E-16
41
1
10
104.577017023271
20
3.1203035487199
30
-2E-16
0
SPLINE
5
103
100
AcDbEntity
8
1
62
256
6
ByLayer
370
18
48
1
60
0
100
AcDbSpline
70
4
71
2
72
6
73
3
40
0
40
0
40
0
40
1
40
1
40
1
41
1
10
70.6471858463292
20
0.0031698790170083
30
0
41
1
10
70.6471704818425
20
0.0031695255401587
30
0
41
1
10
70.6471551173783
20
0.0031695967071528
30
0
0
SPLINE
5
104
100
AcDbEntity
8
1
62
256
6
ByLayer
370
18
48
1
60
0
100
AcDbSpline
70
4
71
2
72
6
73
3
40
0
40
0
40
0
40
1
40
1
40
1
41
1
10
97.8556537371559
20
-0.0015383658036683
30
0
41
1
10
97.8556396302238
20
-0.0015359454115185
30
0
41
1
10
97.8556255233908
20
-0.0015330708773433
30
0
0
SPLINE
5
105
100
AcDbEntity
8
1
62
256
6
ByLayer
370
18
48
1
60
0
100
AcDbSpline
70
4
71
3
72
31
73
27
40
0
40
0
40
0
40
0
40
8.3941112623E-06
40
3.2011200055E-05
40
5.05229949339E-05
40
6.53469149763E-05
40
7.79910630954E-05
40
8.97747529329E-05
40
0.0001857905290068
40
0.0002552102835734
40
0.0003797762082511
40
0.0006077102930188
40
0.0010365959080667
40
0.001872628371543
40
0.0035912498509092
40
0.0073871317194596
40
0.0360777050491812
40
0.130331394055943
40
0.231806329544769
40
0.337067711369979
40
0.439496817254503
40
0.518753974312398
40
0.598860781686004
40
0.707279423179045
40
0.850232967533011
40
1
40
1
40
1
40
1
41
1
10
58.7796569187958
20
0.158366512828167
30
0
41
1
10
58.7796646326023
20
0.158364881934744
30
0
41
1
10
58.7796911231908
20
0.158359320219574
30
0
41
1
10
58.7797142735915
20
0.158354333430538
30
0
41
1
10
58.7797083284334
20
0.158364744955008
30
0
41
1
10
58.779676048595
20
0.158375473717058
30
0
41
1
10
58.7796158263246
20
0.158394488106694
30
0
41
1
10
58.7793430411667
20
0.158475018684612
30
0
41
1
10
58.7788035121592
20
0.158625109791956
30
0
41
1
10
58.7780432223647
20
0.158843079745338
30
0
41
1
10
58.7768969407394
20
0.159169140497284
30
0
41
1
10
58.7747915197181
20
0.159768600828841
30
0
41
1
10
58.7707238994642
20
0.160922451713645
30
0
41
1
10
58.7625238117641
20
0.16323951268248
30
0
41
1
10
58.7448316945601
20
0.168211030373698
30
0
41
1
10
58.6481558060106
20
0.195217932865603
30
0
41
1
10
58.2823867067339
20
0.297230653958422
30
0
41
1
10
57.635130147765
20
0.483462478717826
30
0
41
1
10
56.7703893395415
20
0.743476706619219
30
0
41
1
10
55.8856495337073
20
1.02189010885098
30
-1E-16
41
1
10
55.0678932949224
20
1.29067596340252
30
-1E-16
41
1
10
54.324617225553
20
1.54408783029319
30
-1E-16
41
1
10
53.5669012862737
20
1.81054611072079
30
-1E-16
41
1
10
52.6327659606805
20
2.15105582212502
30
-1E-16
41
1
10
51.5083137464825
20
2.57927130722231
30
-2E-16
41
1
10
50.6941013078919
20
2.90742187278244
30
-2E-16
41
1
10
50.2790691010651
20
3.07925120198863
30
-2E-16
0
SPLINE
5
106
100
AcDbEntity
8
1
62
256
6
ByLayer
370
18
48
1
60
0
100
AcDbSpline
70
4
71
3
72
31
73
27
40
0
40
0
40
0
40
0
40
1.47775605207E-05
40
3.63708768803E-05
40
5.27542672897E-05
40
6.6879721697E-05
40
0.0001219966371979
40
0.0001593858998478
40
0.0002266412546269
40
0.000348305065768
40
0.000570586224474
40
0.0009837182708828
40
0.0017740193334444
40
0.0033570424017437
40
0.0083271827585836
40
0.0281183075870035
40
0.061952541833038
40
0.105767562072954
40
0.199225446511788
40
0.299756136576081
40
0.399210126457903
40
0.492816629718045
40
0.581901331887099
40
0.695386074764601
40
0.844987904437644
40
1
40
1
40
1
40
1
41
1
10
31.6663431386971
20
0.134348982818551
30
0
41
1
10
31.6663511598497
20
0.134347112338219
30
0
41
1
10
31.6663642544066
20
0.134344748301601
30
0
41
1
10
31.6663580443447
20
0.1343522232564
30
0
41
1
10
31.6663073511089
20
0.134367139514211
30
0
41
1
10
31.6661271753108
20
0.134419151893866
30
0
41
1
10
31.6657945560588
20
0.134510896181098
30
0
41
1
10
31.6653829871442
20
0.134626979757087
30
0
41
1
10
31.6647719719246
20
0.134798271267499
30
0
41
1
10
31.6636742522637
20
0.135106317534877
30
0
41
1
10
31.6616299110801
20
0.135678839156668
30
0
41
1
10
31.6577475634225
20
0.136763878415536
30
0
41
1
10
31.6500397960546
20
0.13891080368316
30
0
41
1
10
31.6293233366709
20
0.144657433703145
30
0
41
1
10
31.5530930734969
20
0.165716296374512
30
0
41
1
10
31.3830288288948
20
0.212931851817473
30
0
41
1
10
31.0999168504247
20
0.292541958249927
30
0
41
1
10
30.6032369968546
20
0.434816548032188
30
0
41
1
10
29.9147641303399
20
0.638443710802363
30
0
41
1
10
29.0683180726496
20
0.899926199075622
30
-1E-16
41
1
10
28.2247826503617
20
1.17196523508989
30
-1E-16
41
1
10
27.417306287518
20
1.44295410520277
30
-1E-16
41
1
10
26.5729239877205
20
1.73675471667377
30
-1E-16
41
1
10
25.5733010178425
20
2.0984651270135
30
-1E-16
41
1
10
24.3930893408698
20
2.54570198615764
30
-2E-16
41
1
10
23.5401776492435
20
2.88886402116421
30
-2E-16
41
1
10
23.1078260611641
20
3.06778189650146
30
-2E-16
0
SPLINE
5
107
100
AcDbEntity
8
1
62
256
6
ByLayer
370
18
48
1
60
0
100
AcDbSpline
70
4
71
3
72
29
73
25
40
0
40
0
40
0
40
0
40
4.3488733679E-06
40
2.35326439242E-05
40
3.77684848151E-05
40
4.9872200537E-05
40
0.0001002145969087
40
0.0001350051523152
40
0.0001977653633908
40
0.0003118771804245
40
0.0005222479402054
40
0.0009194399889186
40
0.0016996771381071
40
0.0055302861690564
40
0.0223544539087353
40
0.0537131072053889
40
0.0967447690215016
40
0.238317608200465
40
0.388655764714254
40
0.527025484112
40
0.609683899702764
40
0.718807605199906
40
0.856243599481756
40
1
40
1
40
1
40
1
41
1
10
86.0718571483086
20
0.133088952765888
30
0
41
1
10
86.0718591059942
20
0.133088671091883
30
0
41
1
10
86.0718688322804
20
0.133087565682757
30
0
41
1
10
86.0718769117467
20
0.133089783988481
30
0
41
1
10
86.0718242029202
20
0.133102674370065
30
0
41
1
10
86.0716598600679
20
0.133149521659931
30
0
41
1
10
86.0713650313646
20
0.133230644225392
30
0
41
1
10
86.0710052194475
20
0.133331707271424
30
0
41
1
10
86.0704595100587
20
0.133484068246219
30
0
41
1
10
86.069470429768
20
0.13376040741332
30
0
41
1
10
86.0675902055253
20
0.134284496862961
30
0
41
1
10
86.0639049520898
20
0.135309244590047
30
0
41
1
10
86.0501960533012
20
0.139107350934211
30
0
41
1
10
85.988080861786
20
0.156226288058008
30
0
41
1
10
85.8357347085315
20
0.198396931219151
30
0
41
1
10
85.5685439568813
20
0.273248207881125
30
0
41
1
10
84.9359057071768
20
0.45371064653483
30
0
41
1
10
83.9583651880907
20
0.744923985930086
30
0
41
1
10
82.7094823976043
20
1.1419520573256
30
-1E-16
41
1
10
81.6379506953002
20
1.50379326652899
30
-1E-16
41
1
10
80.6897989188699
20
1.83826867377184
30
-1E-16
41
1
10
79.7482655468734
20
2.18286383970283
30
-1E-16
41
1
10
78.6379044203726
20
2.60737901540773
30
-2E-16
41
1
10
77.8438068476135
20
2.9277774959948
30
-2E-16
41
1
10
77.439273691458
20
3.09526091206902
30
-2E-16
0
SPLINE
5
108
100
AcDbEntity
8
1
62
256
6
ByLayer
370
18
48
1
60
0
100
AcDbSpline
70
4
71
3
72
16
73
12
40
0
40
0
40
0
40
0
40
0.0862749686738307
40
0.145068488131417
40
0.199366065305248
40
0.256661961748862
40
0.313995341515606
40
0.371321097924363
40
0.641488091666941
40
0.985349592393027
40
1
40
1
40
1
40
1
41
1
10
84.2551347032104
20
-4.49626265177022
30
0
41
1
10
84.5148747095692
20
-4.49632477785295
30
0
41
1
10
84.9516280574787
20
-4.49653544541241
30
0
41
1
10
85.5518776606984
20
-4.49706796556828
30
0
41
1
10
86.0648865652811
20
-4.49769056788668
30
0
41
1
10
86.5735352503825
20
-4.49773519769317
30
0
41
1
10
87.091291639821
20
-4.49750760312341
30
0
41
1
10
88.250009066826
20
-4.49777105487726
30
0
41
1
10
90.2714601580669
20
-4.49754311686695
30
0
41
1
10
92.1644352465799
20
-4.50217145258284
30
0
41
1
10
93.2439059005708
20
-4.50075143709429
30
0
41
1
10
93.2880180171468
20
-4.50068951356096
30
0
0
SPLINE
5
109
100
AcDbEntity
8
1
62
256
6
ByLayer
370
18
48
1
60
0
100
AcDbSpline
70
4
71
3
72
16
73
12
40
0
40
0
40
0
40
0
40
0.096714197701158
40
0.157682274007457
40
0.21186480697464
40
0.269015020689417
40
0.326202787484701
40
0.383388667153594
40
0.652891451881201
40
0.995930955820455
40
1
40
1
40
1
40
1
41
1
10
95.9612321742071
20
4.50326124687601
30
0
41
1
10
95.6693723489506
20
4.50319294299013
30
0
41
1
10
95.1935153538254
20
4.50279097760608
30
0
41
1
10
94.5541089350779
20
4.49936196952817
30
0
41
1
10
94.0341133663715
20
4.49965478959817
30
0
41
1
10
93.5254458642816
20
4.50030414880098
30
0
41
1
10
93.0077357082722
20
4.50114375840701
30
0
41
1
10
91.8490675357271
20
4.50158057770608
30
0
41
1
10
89.8276156197685
20
4.49720453895091
30
0
41
1
10
87.9664694366981
20
4.497328425858
30
0
41
1
10
86.9187875962962
20
4.49760982879135
30
0
41
1
10
86.9065059522365
20
4.49761313503504
30
0
0
SPLINE
5
10A
100
AcDbEntity
8
1
62
256
6
ByLayer
370
18
48
1
60
0
100
AcDbSpline
70
4
71
3
72
11
73
7
40
0
40
0
40
0
40
0
40
0.428890974496486
40
0.769063212071891
40
0.996678426634688
40
1
40
1
40
1
40
1
41
1
10
64.6020588038706
20
-4.48415996583279
30
0
41
1
10
64.8239928753628
20
-4.4849828772463
30
0
41
1
10
65.2219654204762
20
-4.48606847430506
30
0
41
1
10
65.737929329701
20
-4.48638227151582
30
0
41
1
10
66.0334273852473
20
-4.48635732554331
30
0
41
1
10
66.1529381789827
20
-4.48632738466682
30
0
41
1
10
66.1546571120667
20
-4.48632695012606
30
0
0
LINE
5
84
100
AcDbEntity
8
1
62
256
6
ByLayer
370
18
48
1
60
0
100
AcDbLine
10
0
20
5
30
0
11
0
21
0
31
0
39
0
210
0
220
0
230
1
0
LINE
5
85
100
AcDbEntity
8
1
62
256
6
ByLayer
370
18
48
1
60
0
100
AcDbLine
10
0
20
0
30
0
11
0
21
-5
31
0
39
0
210
0
220
0
230
1
0
LINE
5
86
100
AcDbEntity
8
1
62
256
6
ByLayer
370
18
48
1
60
0
100
AcDbLine
10
64.501731
20
-4.238276
30
0
11
64.501731
21
-4.721393
31
0
39
0
210
0
220
0
230
1
0
LINE
5
87
100
AcDbEntity
8
1
62
256
6
ByLayer
370
18
48
1
60
0
100
AcDbLine
10
64.501731
20
4.721393
30
0
11
64.501731
21
3.123804
31
0
39
0
210
0
220
0
230
1
0
LINE
5
88
100
AcDbEntity
8
1
62
256
6
ByLayer
370
18
48
1
60
0
100
AcDbLine
10
0.478879
20
4.840839
30
0
11
0.478879
21
0
31
0
39
0
210
0
220
0
230
1
0
LINE
5
89
100
AcDbEntity
8
1
62
256
6
ByLayer
370
18
48
1
60
0
100
AcDbLine
10
0.478879
20
0
30
0
11
0.478879
21
-4.840839
31
0
39
0
210
0
220
0
230
1
0
LINE
5
8A
100
AcDbEntity
8
1
62
256
6
ByLayer
370
18
48
1
60
0
100
AcDbLine
10
64.5
20
2.54631
30
0
11
64.5
21
2.487282
31
0
39
0
210
0
220
0
230
1
0
LINE
5
8B
100
AcDbEntity
8
1
62
256
6
ByLayer
370
18
48
1
60
0
100
AcDbLine
10
111.933761
20
0.057182
30
0
11
110.805748
21
1.302313
31
0
39
0
210
0
220
0
230
1
0
LINE
5
8C
100
AcDbEntity
8
1
62
256
6
ByLayer
370
18
48
1
60
0
100
AcDbLine
10
0.958258
20
4.681678
30
0
11
0.958258
21
0
31
0
39
0
210
0
220
0
230
1
0
LINE
5
8D
100
AcDbEntity
8
1
62
256
6
ByLayer
370
18
48
1
60
0
100
AcDbLine
10
0.958258
20
0
30
0
11
0.958258
21
-4.681678
31
0
39
0
210
0
220
0
230
1
0
LINE
5
8E
100
AcDbEntity
8
SK1
62
256
6
ByLayer
370
18
48
1
60
0
100
AcDbLine
10
-40
20
3.641058
30
0
11
-40
21
3.66
31
0
39
0
210
0
220
0
230
1
0
LINE
5
90
100
AcDbEntity
8
SK1
62
256
6
ByLayer
370
18
48
1
60
0
100
AcDbLine
10
-39.517949
20
2.926082
30
0
11
-39.517949
21
3.958708
31
0
39
0
210
0
220
0
230
1
0
LINE
5
91
100
AcDbEntity
8
SK1
62
256
6
ByLayer
370
18
48
1
60
0
100
AcDbLine
10
-39.35
20
3.074149
30
0
11
-39.35
21
4.106751
31
0
39
0
210
0
220
0
230
1
0
LINE
5
92
100
AcDbEntity
8
SK1
62
256
6
ByLayer
370
18
48
1
60
0
100
AcDbLine
10
-40
20
2.02898
30
0
11
-40
21
3.641058
31
0
39
0
210
0
220
0
230
1
0
LINE
5
93
100
AcDbEntity
8
SK1
62
256
6
ByLayer
370
18
48
1
60
0
100
AcDbLine
10
-38.66
20
-5
30
0
11
-38.66
21
5
31
0
39
0
210
0
220
0
230
1
0
LINE
5
94
100
AcDbEntity
8
SK1
62
256
6
ByLayer
370
18
48
1
60
0
100
AcDbLine
10
-40
20
-3.66
30
0
11
-40
21
2.029033
31
0
39
0
210
0
220
0
230
1
0
LINE
5
95
100
AcDbEntity
8
SK1
62
256
6
ByLayer
370
18
48
1
60
0
100
AcDbLine
10
-39.25
20
3.232738
30
0
11
-39.25
21
4.162008
31
0
39
0
210
0
220
0
230
1
0
LINE
5
96
100
AcDbEntity
8
SK1
62
256
6
ByLayer
370
18
48
1
60
0
100
AcDbLine
10
0
20
5
30
0
11
0
21
-5
31
0
39
0
210
0
220
0
230
1
0
LINE
5
97
100
AcDbEntity
8
SK1
62
256
6
ByLayer
370
18
48
1
60
0
100
AcDbLine
10
-38.66
20
-5
30
0
11
0
21
-5
31
0
39
0
210
0
220
0
230
1
0
LINE
5
98
100
AcDbEntity
8
SK1
62
256
6
ByLayer
370
18
48
1
60
0
100
AcDbLine
10
0
20
5
30
0
11
-38.66
21
5
31
0
39
0
210
0
220
0
230
1
0
LINE
5
99
100
AcDbEntity
8
SK1
62
256
6
ByLayer
370
18
48
1
60
0
100
AcDbLine
10
-40
20
-3.66
30
0
11
-38.66
21
-5
31
0
39
0
210
0
220
0
230
1
0
LINE
5
9A
100
AcDbEntity
8
SK1
62
256
6
ByLayer
370
18
48
1
60
0
100
AcDbLine
10
-38.66
20
5
30
0
11
-40
21
3.66
31
0
39
0
210
0
220
0
230
1
0
LINE
5
9B
100
AcDbEntity
8
1
62
256
6
ByLayer
370
18
48
1
60
0
100
AcDbLine
10
0.958258
20
-4.681678
30
0
11
15.672463
21
-4.690875
31
0
39
0
210
0
220
0
230
1
0
LINE
5
9C
100
AcDbEntity
8
1
62
256
6
ByLayer
370
18
48
1
60
0
100
AcDbLine
10
28.517766
20
-4.698903
30
0
11
42.846736
21
-4.707859
31
0
39
0
210
0
220
0
230
1
0
LINE
5
9D
100
AcDbEntity
8
1
62
256
6
ByLayer
370
18
48
1
60
0
100
AcDbLine
10
55.707466
20
-4.715897
30
0
11
64.501731
21
-4.721393
31
0
39
0
210
0
220
0
230
1
0
LINE
5
9E
100
AcDbEntity
8
1
62
256
6
ByLayer
370
18
48
1
60
0
100
AcDbLine
10
68.75973
20
-4.724054
30
0
11
70.01945
21
-4.724842
31
0
39
0
210
0
220
0
230
1
0
LINE
5
9F
100
AcDbEntity
8
1
62
256
6
ByLayer
370
18
48
1
60
0
100
AcDbLine
10
83.033333
20
-4.732975
30
0
11
84.252992
21
-4.733738
31
0
39
0
210
0
220
0
230
1
0
LINE
5
A0
100
AcDbEntity
8
1
62
256
6
ByLayer
370
18
48
1
60
0
100
AcDbLine
10
95.963555
20
-4.741057
30
0
11
97.19175
21
-4.741824
31
0
39
0
210
0
220
0
230
1
0
LINE
5
A1
100
AcDbEntity
8
1
62
256
6
ByLayer
370
18
48
1
60
0
100
AcDbLine
10
97.19175
20
4.741824
30
0
11
95.963555
21
4.741057
31
0
39
0
210
0
220
0
230
1
0
LINE
5
A2
100
AcDbEntity
8
1
62
256
6
ByLayer
370
18
48
1
60
0
100
AcDbLine
10
84.252992
20
4.733738
30
0
11
83.033333
21
4.732975
31
0
39
0
210
0
220
0
230
1
0
LINE
5
A3
100
AcDbEntity
8
1
62
256
6
ByLayer
370
18
48
1
60
0
100
AcDbLine
10
70.01945
20
4.724842
30
0
11
68.75973
21
4.724054
31
0
39
0
210
0
220
0
230
1
0
LINE
5
A4
100
AcDbEntity
8
1
62
256
6
ByLayer
370
18
48
1
60
0
100
AcDbLine
10
64.501731
20
4.721393
30
0
11
55.707466
21
4.715897
31
0
39
0
210
0
220
0
230
1
0
LINE
5
A5
100
AcDbEntity
8
1
62
256
6
ByLayer
370
18
48
1
60
0
100
AcDbLine
10
42.846736
20
4.707859
30
0
11
28.517766
21
4.698903
31
0
39
0
210
0
220
0
230
1
0
LINE
5
A6
100
AcDbEntity
8
1
62
256
6
ByLayer
370
18
48
1
60
0
100
AcDbLine
10
15.672463
20
4.690875
30
0
11
0.958258
21
4.681678
31
0
39
0
210
0
220
0
230
1
0
LINE
5
A7
100
AcDbEntity
8
SK4
62
256
6
ByLayer
370
18
48
0.05
60
0
100
AcDbLine
10
117
20
0
30
0
11
-45
21
0
31
0
39
0
210
0
220
0
230
1
0
LINE
5
A9
100
AcDbEntity
8
4
62
256
6
ByLayer
370
18
48
0.05
60
0
100
AcDbLine
10
-40
20
0
30
0
11
117
21
0
31
0
39
0
210
0
220
0
230
1
0
LINE
5
AB
100
AcDbEntity
8
80
62
256
6
ByLayer
370
18
48
1
60
0
100
AcDbLine
10
0
20
0
30
0
11
-6
21
0
31
0
39
0
210
0
220
0
230
1
0
LINE
5
AC
100
AcDbEntity
8
81
62
256
6
ByLayer
370
18
48
1
60
0
100
AcDbLine
10
112
20
0
30
0
11
118
21
0
31
0
39
0
210
0
220
0
230
1
0
LINE
5
AD
100
AcDbEntity
8
SK2
62
256
6
ByLayer
370
13
48
1
60
0
100
AcDbLine
10
112.542968
20
1.491758
30
0
11
120.017692
21
22.027899
31
0
39
0
210
0
220
0
230
1
0
LINE
5
AF
100
AcDbEntity
8
SK2
62
256
6
ByLayer
370
13
48
1
60
0
100
AcDbLine
10
112.542968
20
-1.491758
30
0
11
120.017692
21
-22.027899
31
0
39
0
210
0
220
0
230
1
0
LINE
5
B0
100
AcDbEntity
8
1
62
256
6
ByLayer
370
13
48
1
60
0
100
AcDbLine
10
118.931755
20
19.044384
30
0
11
122.028762
21
18.229595
31
0
39
0
210
0
220
0
230
1
0
LINE
5
B1
100
AcDbEntity
8
1
62
256
6
ByLayer
370
13
48
1
60
0
100
AcDbLine
10
118.931755
20
19.044384
30
0
11
121.712354
21
17.455792
31
0
39
0
210
0
220
0
230
1
0
LINE
5
B2
100
AcDbEntity
8
1
62
256
6
ByLayer
370
13
48
1
60
0
100
AcDbLine
10
122.028762
20
18.229595
30
0
11
121.712354
21
17.455792
31
0
39
0
210
0
220
0
230
1
0
LINE
5
B3
100
AcDbEntity
8
1
62
256
6
ByLayer
370
13
48
1
60
0
100
AcDbLine
10
118.931755
20
-19.044384
30
0
11
121.712351
21
-17.455794
31
0
39
0
210
0
220
0
230
1
0
LINE
5
B4
100
AcDbEntity
8
1
62
256
6
ByLayer
370
13
48
1
60
0
100
AcDbLine
10
118.931755
20
-19.044384
30
0
11
122.028765
21
-18.229594
31
0
39
0
210
0
220
0
230
1
0
LINE
5
B5
100
AcDbEntity
8
1
62
256
6
ByLayer
370
13
48
1
60
0
100
AcDbLine
10
121.712351
20
-17.455794
30
0
11
122.028765
21
-18.229594
31
0
39
0
210
0
220
0
230
1
0
MTEXT
5
10B
100
AcDbEntity
8
SK2
62
256
6
ByLayer
370
18
48
1
60
0
100
AcDbMText
10
125.984055
20
-2.467451
30
0
210
0
220
0
230
1
1
\W0.7237;140.00
40
3.50012
41
0
44
1.084337
50
0
71
7
72
5
7
iso_b_vert
0
MTEXT
5
10E
100
AcDbEntity
8
SK6
62
256
6
ByLayer
370
18
48
1
60
0
100
AcDbMText
10
-2.531571
20
-67.01372
30
0
210
0
220
0
230
1
1
\W0.7454;860.1-0950-077A1-GM X1BM
40
3.175
41
0
44
1.084337
50
0
71
7
72
5
7
iso_b_vert
0
DIMENSION
5
111
100
AcDbEntity
8
SK2
62
256
6
ByLayer
370
18
48
1
60
0
100
AcDbDimension
2
_U0
10
112
20
-28.766787
30
0
11
56
21
-28.766787
31
0
70
32
71
2
72
1
41
1
210
0
220
0
230
1
3
Standard
100
AcDbAlignedDimension
13
0
23
-5
33
0
14
112
24
0
34
0
50
0
100
AcDbRotatedDimension
1001
ACAD
1000
DSTYLE
1002
{
1070
   371
1070
    13
1070
   372
1070
    13
1070
     3
1000

1070
   170
1070
     0
1070
   144
1040
1.0
1070
   277
1070
     2
1070
   284
1070
     8
1070
   278
1070
    46
1070
   146
1040
0.999966
1070
   345
1005
16
1070
   347
1005
16
1070
   346
1005
16
1070
   344
1005
112
1070
   343
1005
112
1070
   172
1070
     1
1070
    76
1070
     0
1070
    75
1070
     0
1070
   282
1070
     0
1070
   281
1070
     0
1070
    71
1070
     0
1070
    74
1070
     0
1070
   279
1070
     0
1070
   173
1070
     1
1070
   340
1005
10C
1070
   271
1070
     1
1070
   272
1070
     2
1070
    77
1070
     1
1070
    73
1070
     1
1070
   171
1070
     3
1070
   274
1070
     4
1070
   177
1070
   150
1070
   176
1070
     9
1070
   178
1070
    43
1070
    78
1070
     8
1070
    48
1040
-0.1
1070
    41
1040
3.175
1070
   147
1040
1.75006
1070
    42
1040
1.5875
1070
    44
1040
3.175
1070
   140
1040
3.50012
1002
}
1001
ACAD_DSTYLE_DIM_LINETYPE
1070
   380
1005
16
1001
ACAD_DSTYLE_DIM_EXT1_LINETYPE
1070
   381
1005
16
1001
ACAD_DSTYLE_DIM_EXT2_LINETYPE
1070
   382
1005
16
0
DIMENSION
5
137
100
AcDbEntity
8
2
62
256
6
ByLayer
370
18
48
1
60
0
100
AcDbDimension
2
_U1
10
118.75006
20
4.75
30
0
11
118.75006
21
20.323233
31
0
70
32
71
1
72
1
41
1
210
0
220
0
230
1
3
Standard
100
AcDbAlignedDimension
13
110.2711
23
-4.75
33
0
14
110.2711
24
4.75
34
0
50
90
100
AcDbRotatedDimension
1001
ACAD
1000
DSTYLE
1002
{
1070
   371
1070
    13
1070
   372
1070
    13
1070
     3
1000

1070
   170
1070
     0
1070
   144
1040
1.0
1070
   277
1070
     2
1070
   284
1070
     8
1070
   278
1070
    46
1070
   146
1040
0.999966
1070
   345
1005
16
1070
   347
1005
16
1070
   346
1005
16
1070
   344
1005
112
1070
   343
1005
112
1070
   172
1070
     1
1070
    76
1070
     0
1070
    75
1070
     0
1070
   282
1070
     0
1070
   281
1070
     0
1070
    71
1070
     0
1070
    74
1070
     0
1070
   279
1070
     0
1070
   173
1070
     1
1070
   340
1005
10C
1070
   271
1070
     1
1070
   272
1070
     2
1070
    77
1070
     1
1070
    73
1070
     0
1070
   171
1070
     3
1070
   274
1070
     4
1070
   177
1070
   150
1070
   176
1070
     9
1070
   178
1070
    43
1070
    78
1070
     8
1070
    48
1040
-0.1
1070
    41
1040
3.175
1070
   147
1040
1.75006
1070
    42
1040
1.5875
1070
    44
1040
3.175
1070
   140
1040
3.50012
1002
}
1001
ACAD_DSTYLE_DIM_LINETYPE
1070
   380
1005
16
1001
ACAD_DSTYLE_DIM_EXT1_LINETYPE
1070
   381
1005
16
1001
ACAD_DSTYLE_DIM_EXT2_LINETYPE
1070
   382
1005
16
0
DIMENSION
5
156
100
AcDbEntity
8
SK2
62
256
6
ByLayer
370
18
48
1
60
0
100
AcDbDimension
2
_U2
10
-43.316607
20
-5
30
0
11
-43.316607
21
20.111003
31
0
70
32
71
1
72
1
41
1
210
0
220
0
230
1
3
Standard
100
AcDbAlignedDimension
13
-40
23
5
33
0
14
-40
24
-5
34
0
50
90
100
AcDbRotatedDimension
1001
ACAD
1000
DSTYLE
1002
{
1070
   371
1070
    13
1070
   372
1070
    13
1070
     3
1000

1070
   170
1070
     0
1070
   144
1040
1.0
1070
   277
1070
     2
1070
   284
1070
     8
1070
   278
1070
    46
1070
   146
1040
0.999966
1070
   345
1005
16
1070
   347
1005
16
1070
   346
1005
16
1070
   344
1005
112
1070
   343
1005
112
1070
   172
1070
     1
1070
    76
1070
     0
1070
    75
1070
     0
1070
   282
1070
     0
1070
   281
1070
     0
1070
    71
1070
     0
1070
    74
1070
     0
1070
   279
1070
     0
1070
   173
1070
     1
1070
   340
1005
10C
1070
   271
1070
     1
1070
   272
1070
     2
1070
    77
1070
     1
1070
    73
1070
     0
1070
   171
1070
     3
1070
   274
1070
     4
1070
   177
1070
   150
1070
   176
1070
     9
1070
   178
1070
    43
1070
    78
1070
     8
1070
    48
1040
-0.1
1070
    41
1040
3.175
1070
   147
1040
1.75006
1070
    42
1040
1.5875
1070
    44
1040
3.175
1070
   140
1040
3.50012
1002
}
1001
ACAD_DSTYLE_DIM_LINETYPE
1070
   380
1005
16
1001
ACAD_DSTYLE_DIM_EXT1_LINETYPE
1070
   381
1005
16
1001
ACAD_DSTYLE_DIM_EXT2_LINETYPE
1070
   382
1005
16
0
DIMENSION
5
174
100
AcDbEntity
8
SK2
62
256
6
ByLayer
370
18
48
1
60
0
100
AcDbDimension
2
_U3
10
0
20
-28.766787
30
0
11
-20
21
-28.766787
31
0
70
32
71
1
72
1
41
1
210
0
220
0
230
1
3
Standard
100
AcDbAlignedDimension
13
-40
23
-5
33
0
14
0
24
-5
34
0
50
0
100
AcDbRotatedDimension
1001
ACAD
1000
DSTYLE
1002
{
1070
   371
1070
    13
1070
   372
1070
    13
1070
     3
1000

1070
   170
1070
     0
1070
   144
1040
1.0
1070
   277
1070
     2
1070
   284
1070
     8
1070
   278
1070
    46
1070
   146
1040
0.999966
1070
   345
1005
16
1070
   347
1005
16
1070
   346
1005
16
1070
   344
1005
112
1070
   343
1005
112
1070
   172
1070
     1
1070
    76
1070
     0
1070
    75
1070
     0
1070
   282
1070
     0
1070
   281
1070
     0
1070
    71
1070
     0
1070
    74
1070
     0
1070
   279
1070
     0
1070
   173
1070
     1
1070
   340
1005
10C
1070
   271
1070
     1
1070
   272
1070
     2
1070
    77
1070
     1
1070
    73
1070
     1
1070
   171
1070
     3
1070
   274
1070
     4
1070
   177
1070
   150
1070
   176
1070
     9
1070
   178
1070
    43
1070
    78
1070
     8
1070
    48
1040
-0.1
1070
    41
1040
3.175
1070
   147
1040
1.75006
1070
    42
1040
1.5875
1070
    44
1040
3.175
1070
   140
1040
3.50012
1002
}
1001
ACAD_DSTYLE_DIM_LINETYPE
1070
   380
1005
16
1001
ACAD_DSTYLE_DIM_EXT1_LINETYPE
1070
   381
1005
16
1001
ACAD_DSTYLE_DIM_EXT2_LINETYPE
1070
   382
1005
16
0
DIMENSION
5
190
100
AcDbEntity
8
SK2
62
256
6
ByLayer
370
18
48
1
60
0
100
AcDbDimension
2
_U4
10
112
20
-20.016487
30
0
11
59
21
-20.016487
31
0
70
32
71
1
72
1
41
1
210
0
220
0
230
1
3
Standard
100
AcDbAlignedDimension
13
6
23
5.25
33
0
14
112
24
0
34
0
50
0
100
AcDbRotatedDimension
1001
ACAD
1000
DSTYLE
1002
{
1070
   371
1070
    13
1070
   372
1070
    13
1070
     3
1000

1070
   170
1070
     0
1070
   144
1040
1.0
1070
   277
1070
     2
1070
   284
1070
     8
1070
   278
1070
    46
1070
   146
1040
0.999966
1070
   345
1005
16
1070
   347
1005
16
1070
   346
1005
16
1070
   344
1005
112
1070
   343
1005
112
1070
   172
1070
     1
1070
    76
1070
     0
1070
    75
1070
     0
1070
   282
1070
     0
1070
   281
1070
     0
1070
    71
1070
     0
1070
    74
1070
     0
1070
   279
1070
     0
1070
   173
1070
     1
1070
   340
1005
10C
1070
   271
1070
     1
1070
   272
1070
     2
1070
    77
1070
     1
1070
    73
1070
     1
1070
   171
1070
     3
1070
   274
1070
     4
1070
   177
1070
   150
1070
   176
1070
     9
1070
   178
1070
    43
1070
    78
1070
     8
1070
    48
1040
-0.1
1070
    41
1040
3.175
1070
   147
1040
1.75006
1070
    42
1040
1.5875
1070
    44
1040
3.175
1070
   140
1040
3.50012
1002
}
1001
ACAD_DSTYLE_DIM_LINETYPE
1070
   380
1005
16
1001
ACAD_DSTYLE_DIM_EXT1_LINETYPE
1070
   381
1005
16
1001
ACAD_DSTYLE_DIM_EXT2_LINETYPE
1070
   382
1005
16
0
DIMENSION
5
1AC
100
AcDbEntity
8
SK2
62
256
6
ByLayer
370
18
48
1
60
0
100
AcDbDimension
2
_U5
10
112
20
-11.886667
30
0
11
73.15
21
-11.886667
31
0
70
32
71
1
72
1
41
1
210
0
220
0
230
1
3
Standard
100
AcDbAlignedDimension
13
34.3
23
-4.75
33
0
14
112
24
0
34
0
50
0
100
AcDbRotatedDimension
1001
ACAD
1000
DSTYLE
1002
{
1070
   371
1070
    13
1070
   372
1070
    13
1070
     3
1000

1070
   170
1070
     0
1070
   144
1040
1.0
1070
   277
1070
     2
1070
   284
1070
     8
1070
   278
1070
    46
1070
   146
1040
1.25
1070
   345
1005
16
1070
   347
1005
16
1070
   346
1005
16
1070
   344
1005
112
1070
   343
1005
112
1070
   172
1070
     1
1070
    76
1070
     0
1070
    75
1070
     0
1070
   282
1070
     0
1070
   281
1070
     0
1070
    71
1070
     0
1070
    74
1070
     0
1070
   279
1070
     0
1070
   173
1070
     1
1070
   340
1005
10C
1070
   271
1070
     1
1070
   272
1070
     2
1070
    77
1070
     1
1070
    73
1070
     1
1070
   171
1070
     3
1070
   274
1070
     4
1070
   177
1070
   150
1070
   176
1070
     9
1070
   178
1070
    43
1070
    78
1070
     8
1070
    48
1040
-0.1
1070
    41
1040
3.175
1070
   147
1040
0.42
1070
    42
1040
1.5875
1070
    44
1040
0.5
1070
   140
1040
2.8
1002
}
1001
ACAD_DSTYLE_DIM_LINETYPE
1070
   380
1005
16
1001
ACAD_DSTYLE_DIM_EXT1_LINETYPE
1070
   381
1005
16
1001
ACAD_DSTYLE_DIM_EXT2_LINETYPE
1070
   382
1005
16
0
DIMENSION
5
1C8
100
AcDbEntity
8
SK2
62
256
6
ByLayer
370
18
48
1
60
0
100
AcDbDimension
2
_U6
10
112
20
-38.90012
30
0
11
36
21
-38.90012
31
0
70
32
71
1
72
1
41
1
210
0
220
0
230
1
3
Standard
100
AcDbAlignedDimension
13
-40
23
0
33
0
14
112
24
0
34
0
50
0
100
AcDbRotatedDimension
1001
ACAD
1000
DSTYLE
1002
{
1070
   371
1070
    13
1070
   372
1070
    13
1070
     3
1000

1070
   170
1070
     0
1070
   144
1040
1.0
1070
   277
1070
     2
1070
   284
1070
     8
1070
   278
1070
    46
1070
   146
1040
0.999966
1070
   345
1005
16
1070
   347
1005
16
1070
   346
1005
16
1070
   344
1005
112
1070
   343
1005
112
1070
   172
1070
     1
1070
    76
1070
     0
1070
    75
1070
     0
1070
   282
1070
     0
1070
   281
1070
     0
1070
    71
1070
     0
1070
    74
1070
     0
1070
   279
1070
     0
1070
   173
1070
     1
1070
   340
1005
10C
1070
   271
1070
     1
1070
   272
1070
     2
1070
    77
1070
     1
1070
    73
1070
     1
1070
   171
1070
     3
1070
   274
1070
     4
1070
   177
1070
   150
1070
   176
1070
     9
1070
   178
1070
    43
1070
    78
1070
     8
1070
    48
1040
-0.1
1070
    41
1040
3.175
1070
   147
1040
1.75006
1070
    42
1040
1.5875
1070
    44
1040
3.175
1070
   140
1040
3.50012
1002
}
1001
ACAD_DSTYLE_DIM_LINETYPE
1070
   380
1005
16
1001
ACAD_DSTYLE_DIM_EXT1_LINETYPE
1070
   381
1005
16
1001
ACAD_DSTYLE_DIM_EXT2_LINETYPE
1070
   382
1005
16
0
ENDSEC
0
SECTION
2
OBJECTS
0
DICTIONARY
5
254
330
0
100
AcDbDictionary
280
0
281
1
3
ACAD_GROUP
350
255
3
ACAD_MLINESTYLE
350
256
0
DICTIONARY
5
255
330
0
100
AcDbDictionary
280
0
281
1
0
DICTIONARY
5
256
330
0
100
AcDbDictionary
280
0
281
1
3
Standard
350
18
0
MLINESTYLE
5
18
330
256
100
AcDbMlineStyle
2
Standard
70
0
3

62
256
51
90
52
90
71
2
49
-0.5
62
256
6
ByLayer
49
0.5
62
256
6
ByLayer
0
RASTERVARIABLES
5
242
330

100
AcDbRasterVariables
90
0
70
1
71
1
72
1
0
ENDSEC
0
EOF
