0
SECTION
2
HEADER
9
$ACADVER
1
AC1015
9
$DWGCODEPAGE
3
ANSI_1252
9
$HANDSEED
5
25f
9
$ANGBASE
50
0
9
$ANGDIR
70
0
9
$ATTMODE
70
1
9
$AUNITS
70
0
9
$AUPREC
70
0
9
$CECOLOR
62
256
9
$CELTSCALE
40
1
9
$CELTYPE
6
ByLayer
9
$CELWEIGHT
370
18
9
$CLAYER
8
0
9
$CMLJUST
70
0
9
$CMLSCALE
40
1
9
$CMLSTYLE
2
Standard
9
$DIMSTYLE
2
Standard
9
$TEXTSIZE
40
0.2
9
$TEXTSTYLE
7
Standard
9
$LUNITS
70
2
9
$LUPREC
70
4
9
$EXTNAMES
290
1
9
$INSUNITS
70
4
9
$LTSCALE
40
1
9
$LWDISPLAY
290
1
9
$PDMODE
70
0
9
$PDSIZE
40
0
9
$PLINEGEN
70
0
0
ENDSEC
0
SECTION
2
CLASSES
0
CLASS
1
RASTERVARIABLES
2
AcDbRasterVariables
3
ISM
90
0
280
0
281
0
0
ENDSEC
0
SECTION
2
TABLES
0
TABLE
2
VPORT
5
255
100
AcDbSymbolTable
0
VPORT
5
1
100
AcDbSymbolTableRecord
100
AcDbViewportTableRecord
2
*Active
70
0
10
0
20
0
11
1
21
1
12
-1
22
1
13
0
23
0
14
0.5
24
0.5
15
10
25
10
16
0
26
0
36
1
17
0
27
0
37
0
0
ENDTAB
0
TABLE
2
LTYPE
5
256
100
AcDbSymbolTable
0
LTYPE
5
14
100
AcDbSymbolTableRecord
100
AcDbLinetypeTableRecord
70
0
2
ByBlock
3

72
65
73
0
40
0
0
LTYPE
5
15
100
AcDbSymbolTableRecord
100
AcDbLinetypeTableRecord
70
0
2
ByLayer
3

72
65
73
0
40
0
0
LTYPE
5
16
100
AcDbSymbolTableRecord
100
AcDbLinetypeTableRecord
70
0
2
Continuous
3
Solid line
72
65
73
0
40
0
0
LTYPE
5
6E
100
AcDbSymbolTableRecord
100
AcDbLinetypeTableRecord
70
0
2
CENTER
3
____ _ ____ _ ____ _ ____
72
65
73
4
40
47.5
49
22
74
0
49
-8.5
74
0
49
8.5
74
0
49
-8.5
74
0
0
LTYPE
5
6F
100
AcDbSymbolTableRecord
100
AcDbLinetypeTableRecord
70
0
2
DASHED
3
__ __ __ __ __ __ __ __ __
72
65
73
2
40
25.72
49
12.86
74
0
49
-12.86
74
0
0
ENDTAB
0
TABLE
2
LAYER
5
257
100
AcDbSymbolTable
0
LAYER
5
10
100
AcDbSymbolTableRecord
100
AcDbLayerTableRecord
2
0
70
0
62
7
6
Continuous
290
1
370
-3
390
0
0
LAYER
5
71
100
AcDbSymbolTableRecord
100
AcDbLayerTableRecord
2
80
70
0
62
-6
6
Continuous
290
1
370
-3
390
0
0
LAYER
5
73
100
AcDbSymbolTableRecord
100
AcDbLayerTableRecord
2
81
70
0
62
-3
6
Continuous
290
1
370
-3
390
0
0
LAYER
5
75
100
AcDbSymbolTableRecord
100
AcDbLayerTableRecord
2
1
70
0
62
4
6
Continuous
290
1
370
-3
390
0
0
LAYER
5
AA
100
AcDbSymbolTableRecord
100
AcDbLayerTableRecord
2
4
70
0
62
-2
6
CENTER
290
1
370
-3
390
0
0
LAYER
5
119
100
AcDbSymbolTableRecord
100
AcDbLayerTableRecord
2
Defpoints
70
0
62
7
6
Continuous
290
0
370
-3
390
0
0
LAYER
5
146
100
AcDbSymbolTableRecord
100
AcDbLayerTableRecord
2
2
70
0
62
7
6
Continuous
290
1
370
-3
390
0
0
LAYER
5
241
100
AcDbSymbolTableRecord
100
AcDbLayerTableRecord
2
SK1
70
0
62
4
6
Continuous
290
1
370
-3
390
0
0
LAYER
5
242
100
AcDbSymbolTableRecord
100
AcDbLayerTableRecord
2
SK4
70
0
62
2
6
CENTER
290
1
370
-3
390
0
0
LAYER
5
243
100
AcDbSymbolTableRecord
100
AcDbLayerTableRecord
2
SK2
70
0
62
7
6
Continuous
290
1
370
-3
390
0
0
LAYER
5
244
100
AcDbSymbolTableRecord
100
AcDbLayerTableRecord
2
SK6
70
0
62
5
6
Continuous
290
1
370
-3
390
0
0
ENDTAB
0
TABLE
2
STYLE
5
258
100
AcDbSymbolTable
0
STYLE
5
11
100
AcDbSymbolTableRecord
100
AcDbTextStyleTableRecord
2
Standard
3
txt
70
0
71
0
40
0
41
1
42
0
50
0
0
STYLE
5
10A
100
AcDbSymbolTableRecord
100
AcDbTextStyleTableRecord
2
iso_b_vert
3
simplex.shx
70
0
71
0
40
0
41
1
42
0
50
0
0
STYLE
5
10B
100
AcDbSymbolTableRecord
100
AcDbTextStyleTableRecord
2
DWGDirectTextStyle
3
simplex
70
0
71
0
40
0
41
1
42
0
50
0
0
ENDTAB
0
TABLE
2
DIMSTYLE
5
259
100
AcDbSymbolTable
100
AcDbDimStyleTable
0
DIMSTYLE
105
27
100
AcDbSymbolTableRecord
100
AcDbDimStyleTableRecord
2
Standard
70
0
3
<>
41
0.18
42
0.0625
44
0.18
140
0.18
147
0.09
73
0
74
0
77
1
271
2
275
0
278
52
280
0
340
11
0
ENDTAB
0
TABLE
2
VIEW
5
25a
100
AcDbSymbolTable
0
ENDTAB
0
TABLE
2
UCS
5
25b
100
AcDbSymbolTable
0
ENDTAB
0
TABLE
2
APPID
5
25c
100
AcDbSymbolTable
0
APPID
5
12
100
AcDbSymbolTableRecord
100
AcDbRegAppTableRecord
2
ACAD
70
0
0
APPID
5
10E
100
AcDbSymbolTableRecord
100
AcDbRegAppTableRecord
2
ACAD_DSTYLE_DIMBREAK
70
0
0
APPID
5
200
100
AcDbSymbolTableRecord
100
AcDbRegAppTableRecord
2
ACAD_DSTYLE_DIM_LINETYPE
70
0
0
APPID
5
201
100
AcDbSymbolTableRecord
100
AcDbRegAppTableRecord
2
ACAD_DSTYLE_DIM_EXT1_LINETYPE
70
0
0
APPID
5
202
100
AcDbSymbolTableRecord
100
AcDbRegAppTableRecord
2
ACAD_DSTYLE_DIM_EXT2_LINETYPE
70
0
0
APPID
5
23D
100
AcDbSymbolTableRecord
100
AcDbRegAppTableRecord
2
ACAD_MLEADERVER
70
0
0
ENDTAB
0
TABLE
2
BLOCK_RECORD
5
25d
100
AcDbSymbolTable
0
BLOCK_RECORD
5
1F
100
AcDbSymbolTableRecord
100
AcDbBlockTableRecord
2
*Model_Space
340
0
70
0
0
BLOCK_RECORD
5
1B
100
AcDbSymbolTableRecord
100
AcDbBlockTableRecord
2
*Paper_Space
340
0
70
0
0
BLOCK_RECORD
5
23
100
AcDbSymbolTableRecord
100
AcDbBlockTableRecord
2
*Paper_Space0
340
0
70
0
0
BLOCK_RECORD
5
110
100
AcDbSymbolTableRecord
100
AcDbBlockTableRecord
2
_Closed
340
0
70
0
0
BLOCK_RECORD
5
11A
100
AcDbSymbolTableRecord
100
AcDbBlockTableRecord
2
*D2
340
0
70
0
0
BLOCK_RECORD
5
126
100
AcDbSymbolTableRecord
100
AcDbBlockTableRecord
2
_U0
340
0
70
0
0
BLOCK_RECORD
5
138
100
AcDbSymbolTableRecord
100
AcDbBlockTableRecord
2
*D4
340
0
70
0
0
BLOCK_RECORD
5
147
100
AcDbSymbolTableRecord
100
AcDbBlockTableRecord
2
_U1
340
0
70
0
0
BLOCK_RECORD
5
157
100
AcDbSymbolTableRecord
100
AcDbBlockTableRecord
2
*D6
340
0
70
0
0
BLOCK_RECORD
5
165
100
AcDbSymbolTableRecord
100
AcDbBlockTableRecord
2
_U2
340
0
70
0
0
BLOCK_RECORD
5
175
100
AcDbSymbolTableRecord
100
AcDbBlockTableRecord
2
*D8
340
0
70
0
0
BLOCK_RECORD
5
181
100
AcDbSymbolTableRecord
100
AcDbBlockTableRecord
2
_U3
340
0
70
0
0
BLOCK_RECORD
5
191
100
AcDbSymbolTableRecord
100
AcDbBlockTableRecord
2
*D10
340
0
70
0
0
BLOCK_RECORD
5
19D
100
AcDbSymbolTableRecord
100
AcDbBlockTableRecord
2
_U4
340
0
70
0
0
BLOCK_RECORD
5
1AD
100
AcDbSymbolTableRecord
100
AcDbBlockTableRecord
2
*D12
340
0
70
0
0
BLOCK_RECORD
5
1B9
100
AcDbSymbolTableRecord
100
AcDbBlockTableRecord
2
_U5
340
0
70
0
0
BLOCK_RECORD
5
1C9
100
AcDbSymbolTableRecord
100
AcDbBlockTableRecord
2
*D14
340
0
70
0
0
BLOCK_RECORD
5
1D5
100
AcDbSymbolTableRecord
100
AcDbBlockTableRecord
2
_U6
340
0
70
0
0
ENDTAB
0
ENDSEC
0
SECTION
2
BLOCKS
0
BLOCK
5
20
100
AcDbEntity
8
0
100
AcDbBlockBegin
2
*Model_Space
70
0
10
0
20
0
30
0
3
*Model_Space
0
ENDBLK
5
21
100
AcDbEntity
8
0
100
AcDbBlockEnd
0
BLOCK
5
1C
100
AcDbEntity
8
0
100
AcDbBlockBegin
2
*Paper_Space
70
0
10
0
20
0
30
0
3
*Paper_Space
0
ENDBLK
5
1D
100
AcDbEntity
8
0
100
AcDbBlockEnd
0
BLOCK
5
24
100
AcDbEntity
8
0
100
AcDbBlockBegin
2
*Paper_Space0
70
0
10
0
20
0
30
0
3
*Paper_Space0
0
ENDBLK
5
25
100
AcDbEntity
8
0
100
AcDbBlockEnd
0
BLOCK
5
111
100
AcDbEntity
8
0
100
AcDbBlockBegin
2
_Closed
70
0
10
0
20
0
30
0
3
_Closed
0
LINE
5
113
100
AcDbEntity
8
0
62
256
6
ByLayer
370
-2
48
1
60
0
100
AcDbLine
10
-1
20
0.166667
30
0
11
0
21
0
31
0
39
0
210
0
220
0
230
1
0
LINE
5
114
100
AcDbEntity
8
0
62
256
6
ByLayer
370
-2
48
1
60
0
100
AcDbLine
10
0
20
0
30
0
11
-1
21
-0.166667
31
0
39
0
210
0
220
0
230
1
0
LINE
5
115
100
AcDbEntity
8
0
62
256
6
ByLayer
370
-2
48
1
60
0
100
AcDbLine
10
-1
20
0.166667
30
0
11
-1
21
-0.166667
31
0
39
0
210
0
220
0
230
1
0
LINE
5
116
100
AcDbEntity
8
0
62
256
6
ByLayer
370
-2
48
1
60
0
100
AcDbLine
10
0
20
0
30
0
11
-1
21
0
31
0
39
0
210
0
220
0
230
1
0
ENDBLK
5
112
100
AcDbEntity
8
0
100
AcDbBlockEnd
0
BLOCK
5
11B
100
AcDbEntity
8
0
100
AcDbBlockBegin
2
*D2
70
1
10
0
20
0
30
0
3
*D2
0
LINE
5
11D
100
AcDbEntity
8
0
62
256
6
ByLayer
370
-2
48
1
60
0
100
AcDbLine
10
0
20
-6.5875
30
0
11
0
21
-31.941787
31
0
39
0
210
0
220
0
230
1
0
LINE
5
11E
100
AcDbEntity
8
0
62
256
6
ByLayer
370
-2
48
1
60
0
100
AcDbLine
10
112
20
-1.5875
30
0
11
112
21
-31.941787
31
0
39
0
210
0
220
0
230
1
0
LINE
5
11F
100
AcDbEntity
8
0
62
256
6
ByLayer
370
-2
48
1
60
0
100
AcDbLine
10
3.175
20
-28.766787
30
0
11
108.825
21
-28.766787
31
0
39
0
210
0
220
0
230
1
0
SOLID
5
120
100
AcDbEntity
8
0
62
256
6
ByLayer
370
-1
48
1
60
0
100
AcDbTrace
10
3.175
20
-28.23762
30
0
11
3.175
21
-29.295953
31
0
12
0
22
-28.766787
32
0
13
0
23
-28.766787
33
0
39
0
210
0
220
0
230
1
0
SOLID
5
121
100
AcDbEntity
8
0
62
256
6
ByLayer
370
-1
48
1
60
0
100
AcDbTrace
10
108.825
20
-29.295953
30
0
11
108.825
21
-28.23762
31
0
12
112
22
-28.766787
32
0
13
112
23
-28.766787
33
0
39
0
210
0
220
0
230
1
0
MTEXT
5
122
100
AcDbEntity
8
0
62
256
6
ByLayer
370
18
48
1
60
0
100
AcDbMText
10
56
20
-21.460286
30
0
210
0
220
0
230
1
1
\A1;112
40
3.50012
41
0
44
1
50
0
71
5
72
5
7
iso_b_vert
0
POINT
5
123
100
AcDbEntity
8
Defpoints
62
0
6
ByLayer
370
-1
48
1
60
0
100
AcDbPoint
10
0
20
-5
30
0
39
0
210
0
220
0
230
1
50
360
0
POINT
5
124
100
AcDbEntity
8
Defpoints
62
0
6
ByLayer
370
-1
48
1
60
0
100
AcDbPoint
10
112
20
0
30
0
39
0
210
0
220
0
230
1
50
360
0
POINT
5
125
100
AcDbEntity
8
Defpoints
62
0
6
ByLayer
370
-1
48
1
60
0
100
AcDbPoint
10
112
20
-28.766787
30
0
39
0
210
0
220
0
230
1
50
360
0
ENDBLK
5
11C
100
AcDbEntity
8
0
100
AcDbBlockEnd
0
BLOCK
5
133
100
AcDbEntity
8
0
100
AcDbBlockBegin
2
_U0
70
0
10
0
20
0
30
0
3
_U0
0
MTEXT
5
127
100
AcDbEntity
8
SK2
62
256
6
ByLayer
370
18
48
1
60
0
100
AcDbMText
10
50.337507
20
-27.734118
30
0
210
0
220
0
230
1
1
\W0.6532;112.00
40
3.50012
41
0
44
1.084337
50
0
71
7
72
5
7
iso_b_vert
0
MTEXT
5
128
100
AcDbEntity
8
SK2
62
256
6
ByLayer
370
18
48
1
60
0
100
AcDbMText
10
46.811448
20
-27.667481
30
0
210
0
220
0
230
1
1
\W0.1790;(
40
3.175
41
0
44
1.084337
50
0
71
7
72
5
7
iso_b_vert
0
MTEXT
5
129
100
AcDbEntity
8
SK2
62
256
6
ByLayer
370
18
48
1
60
0
100
AcDbMText
10
65.191274
20
-27.667481
30
0
210
0
220
0
230
1
1
\W0.1969;)
40
3.175
41
0
44
1.084337
50
0
71
7
72
5
7
iso_b_vert
0
LINE
5
12A
100
AcDbEntity
8
SK2
62
256
6
ByLayer
370
13
48
1
60
0
100
AcDbLine
10
0
20
-6.5875
30
0
11
0
21
-31.941787
31
0
39
0
210
0
220
0
230
1
0
LINE
5
12B
100
AcDbEntity
8
SK2
62
256
6
ByLayer
370
13
48
1
60
0
100
AcDbLine
10
112
20
-1.5875
30
0
11
112
21
-31.941787
31
0
39
0
210
0
220
0
230
1
0
LINE
5
12C
100
AcDbEntity
8
SK2
62
256
6
ByLayer
370
13
48
1
60
0
100
AcDbLine
10
0
20
-28.766787
30
0
11
112
21
-28.766787
31
0
39
0
210
0
220
0
230
1
0
LINE
5
12D
100
AcDbEntity
8
SK2
62
256
6
ByLayer
370
13
48
1
60
0
100
AcDbLine
10
0
20
-28.766787
30
0
11
3.174998
21
-28.34879
31
0
39
0
210
0
220
0
230
1
0
LINE
5
12E
100
AcDbEntity
8
SK2
62
256
6
ByLayer
370
13
48
1
60
0
100
AcDbLine
10
0
20
-28.766787
30
0
11
3.175002
21
-29.184783
31
0
39
0
210
0
220
0
230
1
0
LINE
5
12F
100
AcDbEntity
8
SK2
62
256
6
ByLayer
370
13
48
1
60
0
100
AcDbLine
10
3.174998
20
-28.34879
30
0
11
3.175002
21
-29.184783
31
0
39
0
210
0
220
0
230
1
0
LINE
5
130
100
AcDbEntity
8
SK2
62
256
6
ByLayer
370
13
48
1
60
0
100
AcDbLine
10
112
20
-28.766787
30
0
11
108.825002
21
-29.184783
31
0
39
0
210
0
220
0
230
1
0
LINE
5
131
100
AcDbEntity
8
SK2
62
256
6
ByLayer
370
13
48
1
60
0
100
AcDbLine
10
112
20
-28.766787
30
0
11
108.824998
21
-28.34879
31
0
39
0
210
0
220
0
230
1
0
LINE
5
132
100
AcDbEntity
8
SK2
62
256
6
ByLayer
370
13
48
1
60
0
100
AcDbLine
10
108.825002
20
-29.184783
30
0
11
108.824998
21
-28.34879
31
0
39
0
210
0
220
0
230
1
0
ENDBLK
5
134
100
AcDbEntity
8
0
100
AcDbBlockEnd
0
BLOCK
5
139
100
AcDbEntity
8
0
100
AcDbBlockBegin
2
*D4
70
1
10
0
20
0
30
0
3
*D4
0
LINE
5
13B
100
AcDbEntity
8
0
62
256
6
ByLayer
370
-2
48
1
60
0
100
AcDbLine
10
111.9496
20
-4.5
30
0
11
121.92506
21
-4.5
31
0
39
0
210
0
220
0
230
1
0
LINE
5
13C
100
AcDbEntity
8
0
62
256
6
ByLayer
370
-2
48
1
60
0
100
AcDbLine
10
111.9496
20
4.5
30
0
11
121.92506
21
4.5
31
0
39
0
210
0
220
0
230
1
0
LINE
5
13D
100
AcDbEntity
8
0
62
256
6
ByLayer
370
-2
48
1
60
0
100
AcDbLine
10
118.75006
20
4.5
30
0
11
118.75006
21
24.129622
31
0
39
0
210
0
220
0
230
1
0
LINE
5
13E
100
AcDbEntity
8
0
62
256
6
ByLayer
370
-2
48
1
60
0
100
AcDbLine
10
118.75006
20
-7.675
30
0
11
118.75006
21
-10.85
31
0
39
0
210
0
220
0
230
1
0
LINE
5
13F
100
AcDbEntity
8
0
62
256
6
ByLayer
370
-2
48
1
60
0
100
AcDbLine
10
118.75006
20
7.675
30
0
11
118.75006
21
10.85
31
0
39
0
210
0
220
0
230
1
0
SOLID
5
140
100
AcDbEntity
8
0
62
256
6
ByLayer
370
-1
48
1
60
0
100
AcDbTrace
10
119.279227
20
-7.675
30
0
11
118.220893
21
-7.675
31
0
12
118.75006
22
-4.5
32
0
13
118.75006
23
-4.5
33
0
39
0
210
0
220
0
230
1
0
SOLID
5
141
100
AcDbEntity
8
0
62
256
6
ByLayer
370
-1
48
1
60
0
100
AcDbTrace
10
118.220893
20
7.675
30
0
11
119.279227
21
7.675
31
0
12
118.75006
22
4.5
32
0
13
118.75006
23
4.5
33
0
39
0
210
0
220
0
230
1
0
MTEXT
5
142
100
AcDbEntity
8
0
62
256
6
ByLayer
370
18
48
1
60
0
100
AcDbMText
10
111.443559
20
17.489811
30
0
210
0
220
0
230
1
1
\A1;9
40
3.50012
41
0
44
1
50
90
71
5
72
5
7
iso_b_vert
0
POINT
5
143
100
AcDbEntity
8
Defpoints
62
0
6
ByLayer
370
-1
48
1
60
0
100
AcDbPoint
10
110.3621
20
-4.5
30
0
39
0
210
0
220
0
230
1
50
360
0
POINT
5
144
100
AcDbEntity
8
Defpoints
62
0
6
ByLayer
370
-1
48
1
60
0
100
AcDbPoint
10
110.3621
20
4.5
30
0
39
0
210
0
220
0
230
1
50
360
0
POINT
5
145
100
AcDbEntity
8
Defpoints
62
0
6
ByLayer
370
-1
48
1
60
0
100
AcDbPoint
10
118.75006
20
4.5
30
0
39
0
210
0
220
0
230
1
50
360
0
ENDBLK
5
13A
100
AcDbEntity
8
0
100
AcDbBlockEnd
0
BLOCK
5
152
100
AcDbEntity
8
0
100
AcDbBlockBegin
2
_U1
70
0
10
0
20
0
30
0
3
_U1
0
MTEXT
5
148
100
AcDbEntity
8
2
62
256
6
ByLayer
370
18
48
1
60
0
100
AcDbMText
10
118.060403
20
8.657505
30
0
210
0
220
0
230
1
1
\W0.7346;9.00
40
3.50012
41
0
44
1.084337
50
90
71
7
72
5
7
iso_b_vert
0
LINE
5
149
100
AcDbEntity
8
2
62
256
6
ByLayer
370
13
48
1
60
0
100
AcDbLine
10
111.9496
20
-4.5
30
0
11
121.92506
21
-4.5
31
0
39
0
210
0
220
0
230
1
0
LINE
5
14A
100
AcDbEntity
8
2
62
256
6
ByLayer
370
13
48
1
60
0
100
AcDbLine
10
111.9496
20
4.5
30
0
11
121.92506
21
4.5
31
0
39
0
210
0
220
0
230
1
0
LINE
5
14B
100
AcDbEntity
8
2
62
256
6
ByLayer
370
13
48
1
60
0
100
AcDbLine
10
118.75006
20
-4.5
30
0
11
118.75006
21
16.71468
31
0
39
0
210
0
220
0
230
1
0
LINE
5
14C
100
AcDbEntity
8
2
62
256
6
ByLayer
370
13
48
1
60
0
100
AcDbLine
10
118.75006
20
-4.5
30
0
11
118.332063
21
-1.325002
31
0
39
0
210
0
220
0
230
1
0
LINE
5
14D
100
AcDbEntity
8
2
62
256
6
ByLayer
370
13
48
1
60
0
100
AcDbLine
10
118.75006
20
-4.5
30
0
11
119.168057
21
-1.324998
31
0
39
0
210
0
220
0
230
1
0
LINE
5
14E
100
AcDbEntity
8
2
62
256
6
ByLayer
370
13
48
1
60
0
100
AcDbLine
10
118.332063
20
-1.325002
30
0
11
119.168057
21
-1.324998
31
0
39
0
210
0
220
0
230
1
0
LINE
5
14F
100
AcDbEntity
8
2
62
256
6
ByLayer
370
13
48
1
60
0
100
AcDbLine
10
118.75006
20
4.5
30
0
11
119.168057
21
1.325002
31
0
39
0
210
0
220
0
230
1
0
LINE
5
150
100
AcDbEntity
8
2
62
256
6
ByLayer
370
13
48
1
60
0
100
AcDbLine
10
118.75006
20
4.5
30
0
11
118.332063
21
1.324998
31
0
39
0
210
0
220
0
230
1
0
LINE
5
151
100
AcDbEntity
8
2
62
256
6
ByLayer
370
13
48
1
60
0
100
AcDbLine
10
119.168057
20
1.325002
30
0
11
118.332063
21
1.324998
31
0
39
0
210
0
220
0
230
1
0
ENDBLK
5
153
100
AcDbEntity
8
0
100
AcDbBlockEnd
0
BLOCK
5
158
100
AcDbEntity
8
0
100
AcDbBlockBegin
2
*D6
70
1
10
0
20
0
30
0
3
*D6
0
LINE
5
15A
100
AcDbEntity
8
0
62
256
6
ByLayer
370
-2
48
1
60
0
100
AcDbLine
10
-41.5875
20
5
30
0
11
-46.491607
21
5
31
0
39
0
210
0
220
0
230
1
0
LINE
5
15B
100
AcDbEntity
8
0
62
256
6
ByLayer
370
-2
48
1
60
0
100
AcDbLine
10
-41.5875
20
-5
30
0
11
-46.491607
21
-5
31
0
39
0
210
0
220
0
230
1
0
LINE
5
15C
100
AcDbEntity
8
0
62
256
6
ByLayer
370
-2
48
1
60
0
100
AcDbLine
10
-43.316607
20
5
30
0
11
-43.316607
21
28.250865
31
0
39
0
210
0
220
0
230
1
0
LINE
5
15D
100
AcDbEntity
8
0
62
256
6
ByLayer
370
-2
48
1
60
0
100
AcDbLine
10
-43.316607
20
8.175
30
0
11
-43.316607
21
11.35
31
0
39
0
210
0
220
0
230
1
0
LINE
5
15E
100
AcDbEntity
8
0
62
256
6
ByLayer
370
-2
48
1
60
0
100
AcDbLine
10
-43.316607
20
-8.175
30
0
11
-43.316607
21
-11.35
31
0
39
0
210
0
220
0
230
1
0
SOLID
5
15F
100
AcDbEntity
8
0
62
256
6
ByLayer
370
-1
48
1
60
0
100
AcDbTrace
10
-43.845773
20
8.175
30
0
11
-42.78744
21
8.175
31
0
12
-43.316607
22
5
32
0
13
-43.316607
23
5
33
0
39
0
210
0
220
0
230
1
0
SOLID
5
160
100
AcDbEntity
8
0
62
256
6
ByLayer
370
-1
48
1
60
0
100
AcDbTrace
10
-42.78744
20
-8.175
30
0
11
-43.845773
21
-8.175
31
0
12
-43.316607
22
-5
32
0
13
-43.316607
23
-5
33
0
39
0
210
0
220
0
230
1
0
MTEXT
5
161
100
AcDbEntity
8
0
62
256
6
ByLayer
370
18
48
1
60
0
100
AcDbMText
10
-50.623107
20
20.111003
30
0
210
0
220
0
230
1
1
\A1;10
40
3.50012
41
0
44
1
50
90
71
5
72
5
7
iso_b_vert
0
POINT
5
162
100
AcDbEntity
8
Defpoints
62
0
6
ByLayer
370
-1
48
1
60
0
100
AcDbPoint
10
-40
20
5
30
0
39
0
210
0
220
0
230
1
50
360
0
POINT
5
163
100
AcDbEntity
8
Defpoints
62
0
6
ByLayer
370
-1
48
1
60
0
100
AcDbPoint
10
-40
20
-5
30
0
39
0
210
0
220
0
230
1
50
360
0
POINT
5
164
100
AcDbEntity
8
Defpoints
62
0
6
ByLayer
370
-1
48
1
60
0
100
AcDbPoint
10
-43.316607
20
-5
30
0
39
0
210
0
220
0
230
1
50
360
0
ENDBLK
5
159
100
AcDbEntity
8
0
100
AcDbBlockEnd
0
BLOCK
5
170
100
AcDbEntity
8
0
100
AcDbBlockBegin
2
_U2
70
0
10
0
20
0
30
0
3
_U2
0
MTEXT
5
166
100
AcDbEntity
8
SK2
62
256
6
ByLayer
370
18
48
1
60
0
100
AcDbMText
10
-44.006264
20
15.290839
30
0
210
0
220
0
230
1
1
\W0.6864;10.00
40
3.50012
41
0
44
1.084337
50
90
71
7
72
5
7
iso_b_vert
0
LINE
5
167
100
AcDbEntity
8
SK2
62
256
6
ByLayer
370
13
48
1
60
0
100
AcDbLine
10
-41.5875
20
5
30
0
11
-46.491607
21
5
31
0
39
0
210
0
220
0
230
1
0
LINE
5
168
100
AcDbEntity
8
SK2
62
256
6
ByLayer
370
13
48
1
60
0
100
AcDbLine
10
-41.5875
20
-5
30
0
11
-46.491607
21
-5
31
0
39
0
210
0
220
0
230
1
0
LINE
5
169
100
AcDbEntity
8
SK2
62
256
6
ByLayer
370
13
48
1
60
0
100
AcDbLine
10
-43.316607
20
-5
30
0
11
-43.316607
21
25.088672
31
0
39
0
210
0
220
0
230
1
0
LINE
5
16A
100
AcDbEntity
8
SK2
62
256
6
ByLayer
370
13
48
1
60
0
100
AcDbLine
10
-43.316607
20
5
30
0
11
-42.89861
21
1.825002
31
0
39
0
210
0
220
0
230
1
0
LINE
5
16B
100
AcDbEntity
8
SK2
62
256
6
ByLayer
370
13
48
1
60
0
100
AcDbLine
10
-43.316607
20
5
30
0
11
-43.734603
21
1.824998
31
0
39
0
210
0
220
0
230
1
0
LINE
5
16C
100
AcDbEntity
8
SK2
62
256
6
ByLayer
370
13
48
1
60
0
100
AcDbLine
10
-42.89861
20
1.825002
30
0
11
-43.734603
21
1.824998
31
0
39
0
210
0
220
0
230
1
0
LINE
5
16D
100
AcDbEntity
8
SK2
62
256
6
ByLayer
370
13
48
1
60
0
100
AcDbLine
10
-43.316607
20
-5
30
0
11
-43.734603
21
-1.825002
31
0
39
0
210
0
220
0
230
1
0
LINE
5
16E
100
AcDbEntity
8
SK2
62
256
6
ByLayer
370
13
48
1
60
0
100
AcDbLine
10
-43.316607
20
-5
30
0
11
-42.89861
21
-1.824998
31
0
39
0
210
0
220
0
230
1
0
LINE
5
16F
100
AcDbEntity
8
SK2
62
256
6
ByLayer
370
13
48
1
60
0
100
AcDbLine
10
-43.734603
20
-1.825002
30
0
11
-42.89861
21
-1.824998
31
0
39
0
210
0
220
0
230
1
0
ENDBLK
5
171
100
AcDbEntity
8
0
100
AcDbBlockEnd
0
BLOCK
5
176
100
AcDbEntity
8
0
100
AcDbBlockBegin
2
*D8
70
1
10
0
20
0
30
0
3
*D8
0
LINE
5
178
100
AcDbEntity
8
0
62
256
6
ByLayer
370
-2
48
1
60
0
100
AcDbLine
10
-40
20
-6.5875
30
0
11
-40
21
-31.941787
31
0
39
0
210
0
220
0
230
1
0
LINE
5
179
100
AcDbEntity
8
0
62
256
6
ByLayer
370
-2
48
1
60
0
100
AcDbLine
10
0
20
-6.5875
30
0
11
0
21
-31.941787
31
0
39
0
210
0
220
0
230
1
0
LINE
5
17A
100
AcDbEntity
8
0
62
256
6
ByLayer
370
-2
48
1
60
0
100
AcDbLine
10
-36.825
20
-28.766787
30
0
11
-3.175
21
-28.766787
31
0
39
0
210
0
220
0
230
1
0
SOLID
5
17B
100
AcDbEntity
8
0
62
256
6
ByLayer
370
-1
48
1
60
0
100
AcDbTrace
10
-36.825
20
-28.23762
30
0
11
-36.825
21
-29.295953
31
0
12
-40
22
-28.766787
32
0
13
-40
23
-28.766787
33
0
39
0
210
0
220
0
230
1
0
SOLID
5
17C
100
AcDbEntity
8
0
62
256
6
ByLayer
370
-1
48
1
60
0
100
AcDbTrace
10
-3.175
20
-29.295953
30
0
11
-3.175
21
-28.23762
31
0
12
0
22
-28.766787
32
0
13
0
23
-28.766787
33
0
39
0
210
0
220
0
230
1
0
MTEXT
5
17D
100
AcDbEntity
8
0
62
256
6
ByLayer
370
18
48
1
60
0
100
AcDbMText
10
-20
20
-21.460286
30
0
210
0
220
0
230
1
1
\A1;40
40
3.50012
41
0
44
1
50
0
71
5
72
5
7
iso_b_vert
0
POINT
5
17E
100
AcDbEntity
8
Defpoints
62
0
6
ByLayer
370
-1
48
1
60
0
100
AcDbPoint
10
-40
20
-5
30
0
39
0
210
0
220
0
230
1
50
360
0
POINT
5
17F
100
AcDbEntity
8
Defpoints
62
0
6
ByLayer
370
-1
48
1
60
0
100
AcDbPoint
10
0
20
-5
30
0
39
0
210
0
220
0
230
1
50
360
0
POINT
5
180
100
AcDbEntity
8
Defpoints
62
0
6
ByLayer
370
-1
48
1
60
0
100
AcDbPoint
10
0
20
-28.766787
30
0
39
0
210
0
220
0
230
1
50
360
0
ENDBLK
5
177
100
AcDbEntity
8
0
100
AcDbBlockEnd
0
BLOCK
5
18C
100
AcDbEntity
8
0
100
AcDbBlockBegin
2
_U3
70
0
10
0
20
0
30
0
3
_U3
0
MTEXT
5
182
100
AcDbEntity
8
SK2
62
256
6
ByLayer
370
18
48
1
60
0
100
AcDbMText
10
-25.413884
20
-27.734118
30
0
210
0
220
0
230
1
1
\W0.7694;40.00
40
3.50012
41
0
44
1.084337
50
0
71
7
72
5
7
iso_b_vert
0
LINE
5
183
100
AcDbEntity
8
SK2
62
256
6
ByLayer
370
13
48
1
60
0
100
AcDbLine
10
-40
20
-6.5875
30
0
11
-40
21
-31.941787
31
0
39
0
210
0
220
0
230
1
0
LINE
5
184
100
AcDbEntity
8
SK2
62
256
6
ByLayer
370
13
48
1
60
0
100
AcDbLine
10
0
20
-6.5875
30
0
11
0
21
-31.941787
31
0
39
0
210
0
220
0
230
1
0
LINE
5
185
100
AcDbEntity
8
SK2
62
256
6
ByLayer
370
13
48
1
60
0
100
AcDbLine
10
-40
20
-28.766787
30
0
11
0
21
-28.766787
31
0
39
0
210
0
220
0
230
1
0
LINE
5
186
100
AcDbEntity
8
SK2
62
256
6
ByLayer
370
13
48
1
60
0
100
AcDbLine
10
-40
20
-28.766787
30
0
11
-36.825002
21
-28.34879
31
0
39
0
210
0
220
0
230
1
0
LINE
5
187
100
AcDbEntity
8
SK2
62
256
6
ByLayer
370
13
48
1
60
0
100
AcDbLine
10
-40
20
-28.766787
30
0
11
-36.824998
21
-29.184783
31
0
39
0
210
0
220
0
230
1
0
LINE
5
188
100
AcDbEntity
8
SK2
62
256
6
ByLayer
370
13
48
1
60
0
100
AcDbLine
10
-36.825002
20
-28.34879
30
0
11
-36.824998
21
-29.184783
31
0
39
0
210
0
220
0
230
1
0
LINE
5
189
100
AcDbEntity
8
SK2
62
256
6
ByLayer
370
13
48
1
60
0
100
AcDbLine
10
0
20
-28.766787
30
0
11
-3.174998
21
-29.184783
31
0
39
0
210
0
220
0
230
1
0
LINE
5
18A
100
AcDbEntity
8
SK2
62
256
6
ByLayer
370
13
48
1
60
0
100
AcDbLine
10
0
20
-28.766787
30
0
11
-3.175002
21
-28.34879
31
0
39
0
210
0
220
0
230
1
0
LINE
5
18B
100
AcDbEntity
8
SK2
62
256
6
ByLayer
370
13
48
1
60
0
100
AcDbLine
10
-3.174998
20
-29.184783
30
0
11
-3.175002
21
-28.34879
31
0
39
0
210
0
220
0
230
1
0
ENDBLK
5
18D
100
AcDbEntity
8
0
100
AcDbBlockEnd
0
BLOCK
5
192
100
AcDbEntity
8
0
100
AcDbBlockBegin
2
*D10
70
1
10
0
20
0
30
0
3
*D10
0
LINE
5
194
100
AcDbEntity
8
0
62
256
6
ByLayer
370
-2
48
1
60
0
100
AcDbLine
10
6
20
3.4125
30
0
11
6
21
-23.191487
31
0
39
0
210
0
220
0
230
1
0
LINE
5
195
100
AcDbEntity
8
0
62
256
6
ByLayer
370
-2
48
1
60
0
100
AcDbLine
10
112
20
-1.5875
30
0
11
112
21
-23.191487
31
0
39
0
210
0
220
0
230
1
0
LINE
5
196
100
AcDbEntity
8
0
62
256
6
ByLayer
370
-2
48
1
60
0
100
AcDbLine
10
9.175
20
-20.016487
30
0
11
108.825
21
-20.016487
31
0
39
0
210
0
220
0
230
1
0
SOLID
5
197
100
AcDbEntity
8
0
62
256
6
ByLayer
370
-1
48
1
60
0
100
AcDbTrace
10
9.175
20
-19.48732
30
0
11
9.175
21
-20.545653
31
0
12
6
22
-20.016487
32
0
13
6
23
-20.016487
33
0
39
0
210
0
220
0
230
1
0
SOLID
5
198
100
AcDbEntity
8
0
62
256
6
ByLayer
370
-1
48
1
60
0
100
AcDbTrace
10
108.825
20
-20.545653
30
0
11
108.825
21
-19.48732
31
0
12
112
22
-20.016487
32
0
13
112
23
-20.016487
33
0
39
0
210
0
220
0
230
1
0
MTEXT
5
199
100
AcDbEntity
8
0
62
256
6
ByLayer
370
18
48
1
60
0
100
AcDbMText
10
59
20
-12.709986
30
0
210
0
220
0
230
1
1
\A1;106
40
3.50012
41
0
44
1
50
0
71
5
72
5
7
iso_b_vert
0
POINT
5
19A
100
AcDbEntity
8
Defpoints
62
0
6
ByLayer
370
-1
48
1
60
0
100
AcDbPoint
10
6
20
5
30
0
39
0
210
0
220
0
230
1
50
360
0
POINT
5
19B
100
AcDbEntity
8
Defpoints
62
0
6
ByLayer
370
-1
48
1
60
0
100
AcDbPoint
10
112
20
0
30
0
39
0
210
0
220
0
230
1
50
360
0
POINT
5
19C
100
AcDbEntity
8
Defpoints
62
0
6
ByLayer
370
-1
48
1
60
0
100
AcDbPoint
10
112
20
-20.016487
30
0
39
0
210
0
220
0
230
1
50
360
0
ENDBLK
5
193
100
AcDbEntity
8
0
100
AcDbBlockEnd
0
BLOCK
5
1A8
100
AcDbEntity
8
0
100
AcDbBlockBegin
2
_U4
70
0
10
0
20
0
30
0
3
_U4
0
MTEXT
5
19E
100
AcDbEntity
8
SK2
62
256
6
ByLayer
370
18
48
1
60
0
100
AcDbMText
10
52.900059
20
-18.983818
30
0
210
0
220
0
230
1
1
\W0.7022;106.00
40
3.50012
41
0
44
1.084337
50
0
71
7
72
5
7
iso_b_vert
0
LINE
5
19F
100
AcDbEntity
8
SK2
62
256
6
ByLayer
370
13
48
1
60
0
100
AcDbLine
10
6
20
3.4125
30
0
11
6
21
-23.191487
31
0
39
0
210
0
220
0
230
1
0
LINE
5
1A0
100
AcDbEntity
8
SK2
62
256
6
ByLayer
370
13
48
1
60
0
100
AcDbLine
10
112
20
-1.5875
30
0
11
112
21
-23.191487
31
0
39
0
210
0
220
0
230
1
0
LINE
5
1A1
100
AcDbEntity
8
SK2
62
256
6
ByLayer
370
13
48
1
60
0
100
AcDbLine
10
6
20
-20.016487
30
0
11
112
21
-20.016487
31
0
39
0
210
0
220
0
230
1
0
LINE
5
1A2
100
AcDbEntity
8
SK2
62
256
6
ByLayer
370
13
48
1
60
0
100
AcDbLine
10
6
20
-20.016487
30
0
11
9.174998
21
-19.59849
31
0
39
0
210
0
220
0
230
1
0
LINE
5
1A3
100
AcDbEntity
8
SK2
62
256
6
ByLayer
370
13
48
1
60
0
100
AcDbLine
10
6
20
-20.016487
30
0
11
9.175002
21
-20.434483
31
0
39
0
210
0
220
0
230
1
0
LINE
5
1A4
100
AcDbEntity
8
SK2
62
256
6
ByLayer
370
13
48
1
60
0
100
AcDbLine
10
9.174998
20
-19.59849
30
0
11
9.175002
21
-20.434483
31
0
39
0
210
0
220
0
230
1
0
LINE
5
1A5
100
AcDbEntity
8
SK2
62
256
6
ByLayer
370
13
48
1
60
0
100
AcDbLine
10
112
20
-20.016487
30
0
11
108.825002
21
-20.434483
31
0
39
0
210
0
220
0
230
1
0
LINE
5
1A6
100
AcDbEntity
8
SK2
62
256
6
ByLayer
370
13
48
1
60
0
100
AcDbLine
10
112
20
-20.016487
30
0
11
108.824998
21
-19.59849
31
0
39
0
210
0
220
0
230
1
0
LINE
5
1A7
100
AcDbEntity
8
SK2
62
256
6
ByLayer
370
13
48
1
60
0
100
AcDbLine
10
108.825002
20
-20.434483
30
0
11
108.824998
21
-19.59849
31
0
39
0
210
0
220
0
230
1
0
ENDBLK
5
1A9
100
AcDbEntity
8
0
100
AcDbBlockEnd
0
BLOCK
5
1AE
100
AcDbEntity
8
0
100
AcDbBlockBegin
2
*D12
70
1
10
0
20
0
30
0
3
*D12
0
LINE
5
1B0
100
AcDbEntity
8
0
62
256
6
ByLayer
370
-2
48
1
60
0
100
AcDbLine
10
38.4
20
-6.0875
30
0
11
38.4
21
-12.386667
31
0
39
0
210
0
220
0
230
1
0
LINE
5
1B1
100
AcDbEntity
8
0
62
256
6
ByLayer
370
-2
48
1
60
0
100
AcDbLine
10
112
20
-1.5875
30
0
11
112
21
-12.386667
31
0
39
0
210
0
220
0
230
1
0
LINE
5
1B2
100
AcDbEntity
8
0
62
256
6
ByLayer
370
-2
48
1
60
0
100
AcDbLine
10
41.575
20
-11.886667
30
0
11
108.825
21
-11.886667
31
0
39
0
210
0
220
0
230
1
0
SOLID
5
1B3
100
AcDbEntity
8
0
62
256
6
ByLayer
370
-1
48
1
60
0
100
AcDbTrace
10
41.575
20
-11.3575
30
0
11
41.575
21
-12.415833
31
0
12
38.4
22
-11.886667
32
0
13
38.4
23
-11.886667
33
0
39
0
210
0
220
0
230
1
0
SOLID
5
1B4
100
AcDbEntity
8
0
62
256
6
ByLayer
370
-1
48
1
60
0
100
AcDbTrace
10
108.825
20
-12.415833
30
0
11
108.825
21
-11.3575
31
0
12
112
22
-11.886667
32
0
13
112
23
-11.886667
33
0
39
0
210
0
220
0
230
1
0
MTEXT
5
1B5
100
AcDbEntity
8
0
62
256
6
ByLayer
370
18
48
1
60
0
100
AcDbMText
10
75.2
20
-6.041667
30
0
210
0
220
0
230
1
1
\A1;73.6
40
2.8
41
0
44
1
50
0
71
5
72
5
7
iso_b_vert
0
POINT
5
1B6
100
AcDbEntity
8
Defpoints
62
0
6
ByLayer
370
-1
48
1
60
0
100
AcDbPoint
10
38.4
20
-4.5
30
0
39
0
210
0
220
0
230
1
50
360
0
POINT
5
1B7
100
AcDbEntity
8
Defpoints
62
0
6
ByLayer
370
-1
48
1
60
0
100
AcDbPoint
10
112
20
0
30
0
39
0
210
0
220
0
230
1
50
360
0
POINT
5
1B8
100
AcDbEntity
8
Defpoints
62
0
6
ByLayer
370
-1
48
1
60
0
100
AcDbPoint
10
112
20
-11.886667
30
0
39
0
210
0
220
0
230
1
50
360
0
ENDBLK
5
1AF
100
AcDbEntity
8
0
100
AcDbBlockEnd
0
BLOCK
5
1C4
100
AcDbEntity
8
0
100
AcDbBlockBegin
2
_U5
70
0
10
0
20
0
30
0
3
_U5
0
MTEXT
5
1BA
100
AcDbEntity
8
SK2
62
256
6
ByLayer
370
18
48
1
60
0
100
AcDbMText
10
71.016454
20
-12.04056
30
0
210
0
220
0
230
1
1
\W0.7468;73.60
40
2.8
41
0
44
1.084337
50
0
71
7
72
5
7
iso_b_vert
0
LINE
5
1BB
100
AcDbEntity
8
SK2
62
256
6
ByLayer
370
13
48
1
60
0
100
AcDbLine
10
38.4
20
-6.0875
30
0
11
38.4
21
-12.386667
31
0
39
0
210
0
220
0
230
1
0
LINE
5
1BC
100
AcDbEntity
8
SK2
62
256
6
ByLayer
370
13
48
1
60
0
100
AcDbLine
10
112
20
-1.5875
30
0
11
112
21
-12.386667
31
0
39
0
210
0
220
0
230
1
0
LINE
5
1BD
100
AcDbEntity
8
SK2
62
256
6
ByLayer
370
13
48
1
60
0
100
AcDbLine
10
38.4
20
-11.886667
30
0
11
112
21
-11.886667
31
0
39
0
210
0
220
0
230
1
0
LINE
5
1BE
100
AcDbEntity
8
SK2
62
256
6
ByLayer
370
13
48
1
60
0
100
AcDbLine
10
38.4
20
-11.886667
30
0
11
41.574998
21
-11.46867
31
0
39
0
210
0
220
0
230
1
0
LINE
5
1BF
100
AcDbEntity
8
SK2
62
256
6
ByLayer
370
13
48
1
60
0
100
AcDbLine
10
38.4
20
-11.886667
30
0
11
41.575002
21
-12.304663
31
0
39
0
210
0
220
0
230
1
0
LINE
5
1C0
100
AcDbEntity
8
SK2
62
256
6
ByLayer
370
13
48
1
60
0
100
AcDbLine
10
41.574998
20
-11.46867
30
0
11
41.575002
21
-12.304663
31
0
39
0
210
0
220
0
230
1
0
LINE
5
1C1
100
AcDbEntity
8
SK2
62
256
6
ByLayer
370
13
48
1
60
0
100
AcDbLine
10
112
20
-11.886667
30
0
11
108.825002
21
-12.304663
31
0
39
0
210
0
220
0
230
1
0
LINE
5
1C2
100
AcDbEntity
8
SK2
62
256
6
ByLayer
370
13
48
1
60
0
100
AcDbLine
10
112
20
-11.886667
30
0
11
108.824998
21
-11.46867
31
0
39
0
210
0
220
0
230
1
0
LINE
5
1C3
100
AcDbEntity
8
SK2
62
256
6
ByLayer
370
13
48
1
60
0
100
AcDbLine
10
108.825002
20
-12.304663
30
0
11
108.824998
21
-11.46867
31
0
39
0
210
0
220
0
230
1
0
ENDBLK
5
1C5
100
AcDbEntity
8
0
100
AcDbBlockEnd
0
BLOCK
5
1CA
100
AcDbEntity
8
0
100
AcDbBlockBegin
2
*D14
70
1
10
0
20
0
30
0
3
*D14
0
LINE
5
1CC
100
AcDbEntity
8
0
62
256
6
ByLayer
370
-2
48
1
60
0
100
AcDbLine
10
-40
20
-1.5875
30
0
11
-40
21
-42.07512
31
0
39
0
210
0
220
0
230
1
0
LINE
5
1CD
100
AcDbEntity
8
0
62
256
6
ByLayer
370
-2
48
1
60
0
100
AcDbLine
10
112
20
-1.5875
30
0
11
112
21
-42.07512
31
0
39
0
210
0
220
0
230
1
0
LINE
5
1CE
100
AcDbEntity
8
0
62
256
6
ByLayer
370
-2
48
1
60
0
100
AcDbLine
10
-36.825
20
-38.90012
30
0
11
108.825
21
-38.90012
31
0
39
0
210
0
220
0
230
1
0
SOLID
5
1CF
100
AcDbEntity
8
0
62
256
6
ByLayer
370
-1
48
1
60
0
100
AcDbTrace
10
-36.825
20
-38.370953
30
0
11
-36.825
21
-39.429287
31
0
12
-40
22
-38.90012
32
0
13
-40
23
-38.90012
33
0
39
0
210
0
220
0
230
1
0
SOLID
5
1D0
100
AcDbEntity
8
0
62
256
6
ByLayer
370
-1
48
1
60
0
100
AcDbTrace
10
108.825
20
-39.429287
30
0
11
108.825
21
-38.370953
31
0
12
112
22
-38.90012
32
0
13
112
23
-38.90012
33
0
39
0
210
0
220
0
230
1
0
MTEXT
5
1D1
100
AcDbEntity
8
0
62
256
6
ByLayer
370
18
48
1
60
0
100
AcDbMText
10
36
20
-31.593619
30
0
210
0
220
0
230
1
1
\A1;152
40
3.50012
41
0
44
1
50
0
71
5
72
5
7
iso_b_vert
0
POINT
5
1D2
100
AcDbEntity
8
Defpoints
62
0
6
ByLayer
370
-1
48
1
60
0
100
AcDbPoint
10
-40
20
0
30
0
39
0
210
0
220
0
230
1
50
360
0
POINT
5
1D3
100
AcDbEntity
8
Defpoints
62
0
6
ByLayer
370
-1
48
1
60
0
100
AcDbPoint
10
112
20
0
30
0
39
0
210
0
220
0
230
1
50
360
0
POINT
5
1D4
100
AcDbEntity
8
Defpoints
62
0
6
ByLayer
370
-1
48
1
60
0
100
AcDbPoint
10
112
20
-38.90012
30
0
39
0
210
0
220
0
230
1
50
360
0
ENDBLK
5
1CB
100
AcDbEntity
8
0
100
AcDbBlockEnd
0
BLOCK
5
1E0
100
AcDbEntity
8
0
100
AcDbBlockBegin
2
_U6
70
0
10
0
20
0
30
0
3
_U6
0
MTEXT
5
1D6
100
AcDbEntity
8
SK2
62
256
6
ByLayer
370
18
48
1
60
0
100
AcDbMText
10
29.900059
20
-37.867451
30
0
210
0
220
0
230
1
1
\W0.7022;152.00
40
3.50012
41
0
44
1.084337
50
0
71
7
72
5
7
iso_b_vert
0
LINE
5
1D7
100
AcDbEntity
8
SK2
62
256
6
ByLayer
370
13
48
1
60
0
100
AcDbLine
10
-40
20
-1.5875
30
0
11
-40
21
-42.07512
31
0
39
0
210
0
220
0
230
1
0
LINE
5
1D8
100
AcDbEntity
8
SK2
62
256
6
ByLayer
370
13
48
1
60
0
100
AcDbLine
10
112
20
-1.5875
30
0
11
112
21
-42.07512
31
0
39
0
210
0
220
0
230
1
0
LINE
5
1D9
100
AcDbEntity
8
SK2
62
256
6
ByLayer
370
13
48
1
60
0
100
AcDbLine
10
-40
20
-38.90012
30
0
11
112
21
-38.90012
31
0
39
0
210
0
220
0
230
1
0
LINE
5
1DA
100
AcDbEntity
8
SK2
62
256
6
ByLayer
370
13
48
1
60
0
100
AcDbLine
10
-40
20
-38.90012
30
0
11
-36.825002
21
-38.482123
31
0
39
0
210
0
220
0
230
1
0
LINE
5
1DB
100
AcDbEntity
8
SK2
62
256
6
ByLayer
370
13
48
1
60
0
100
AcDbLine
10
-40
20
-38.90012
30
0
11
-36.824998
21
-39.318117
31
0
39
0
210
0
220
0
230
1
0
LINE
5
1DC
100
AcDbEntity
8
SK2
62
256
6
ByLayer
370
13
48
1
60
0
100
AcDbLine
10
-36.825002
20
-38.482123
30
0
11
-36.824998
21
-39.318117
31
0
39
0
210
0
220
0
230
1
0
LINE
5
1DD
100
AcDbEntity
8
SK2
62
256
6
ByLayer
370
13
48
1
60
0
100
AcDbLine
10
112
20
-38.90012
30
0
11
108.825002
21
-39.318117
31
0
39
0
210
0
220
0
230
1
0
LINE
5
1DE
100
AcDbEntity
8
SK2
62
256
6
ByLayer
370
13
48
1
60
0
100
AcDbLine
10
112
20
-38.90012
30
0
11
108.824998
21
-38.482123
31
0
39
0
210
0
220
0
230
1
0
LINE
5
1DF
100
AcDbEntity
8
SK2
62
256
6
ByLayer
370
13
48
1
60
0
100
AcDbLine
10
108.825002
20
-39.318117
30
0
11
108.824998
21
-38.482123
31
0
39
0
210
0
220
0
230
1
0
ENDBLK
5
1E1
100
AcDbEntity
8
0
100
AcDbBlockEnd
0
ENDSEC
0
SECTION
2
ENTITIES
0
ARC
5
B6
100
AcDbEntity
8
1
62
256
6
ByLayer
370
18
48
1
60
0
100
AcDbCircle
39
0
10
1.222872
20
5.231787
30
0
40
0.799999999999997
210
0
220
0
230
1
100
AcDbArc
50
220.155698
51
270.03581
0
ARC
5
B7
100
AcDbEntity
8
1
62
256
6
ByLayer
370
18
48
1
60
0
100
AcDbCircle
39
0
10
1.222872
20
-5.231787
30
0
40
0.799999999999997
210
0
220
0
230
1
100
AcDbArc
50
89.96419
51
139.844302
0
ARC
5
B8
100
AcDbEntity
8
1
62
256
6
ByLayer
370
18
48
1
60
0
100
AcDbCircle
39
0
10
0
20
4.2
30
0
40
0.800000000000002
210
0
220
0
230
1
100
AcDbArc
50
40.155698
51
90
0
ARC
5
B9
100
AcDbEntity
8
1
62
256
6
ByLayer
370
18
48
1
60
0
100
AcDbCircle
39
0
10
0
20
-4.2
30
0
40
0.800000000000002
210
0
220
0
230
1
100
AcDbArc
50
270
51
319.844302
0
ARC
5
BA
100
AcDbEntity
8
SK2
62
256
6
ByLayer
370
13
48
1
60
0
100
AcDbCircle
39
0
10
112
20
0
30
0
40
20.2666666666666
210
0
220
0
230
1
100
AcDbArc
50
9.478775
51
69.999618
0
ARC
5
BB
100
AcDbEntity
8
SK2
62
256
6
ByLayer
370
13
48
1
60
0
100
AcDbCircle
39
0
10
112
20
0
30
0
40
20.2666666666666
210
0
220
0
230
1
100
AcDbArc
50
290.000382
51
350.521225
0
ELLIPSE
5
BC
100
AcDbEntity
8
1
62
256
6
ByLayer
370
18
48
1
60
0
100
AcDbEllipse
10
67.101725
20
4.348285
30
0
11
-0.1
21
1.22460635382238E-17
31
0
210
0
220
0
230
1
40
1
41
0.00235508405963291
42
1.5991960031326
0
POINT
5
70
100
AcDbEntity
8
80
62
256
6
ByLayer
370
18
48
1
60
0
100
AcDbPoint
10
0
20
0
30
0
39
0
210
0
220
0
230
1
50
360
0
POINT
5
72
100
AcDbEntity
8
81
62
256
6
ByLayer
370
18
48
1
60
0
100
AcDbPoint
10
112
20
0
30
0
39
0
210
0
220
0
230
1
50
360
0
POINT
5
74
100
AcDbEntity
8
1
62
256
6
ByLayer
370
18
48
1
60
0
100
AcDbPoint
10
-40
20
0
30
0
39
0
210
0
220
0
230
1
50
360
0
POINT
5
76
100
AcDbEntity
8
1
62
256
6
ByLayer
370
18
48
1
60
1
100
AcDbPoint
10
0
20
-5
30
0
39
0
210
0
220
0
230
1
50
360
0
POINT
5
77
100
AcDbEntity
8
1
62
256
6
ByLayer
370
18
48
1
60
1
100
AcDbPoint
10
112
20
0
30
0
39
0
210
0
220
0
230
1
50
360
0
POINT
5
78
100
AcDbEntity
8
1
62
256
6
ByLayer
370
18
48
1
60
1
100
AcDbPoint
10
110.3621
20
-4.5
30
0
39
0
210
0
220
0
230
1
50
360
0
POINT
5
79
100
AcDbEntity
8
1
62
256
6
ByLayer
370
18
48
1
60
1
100
AcDbPoint
10
110.3621
20
4.5
30
0
39
0
210
0
220
0
230
1
50
360
0
POINT
5
7A
100
AcDbEntity
8
1
62
256
6
ByLayer
370
18
48
1
60
1
100
AcDbPoint
10
-40
20
5
30
0
39
0
210
0
220
0
230
1
50
360
0
POINT
5
7B
100
AcDbEntity
8
1
62
256
6
ByLayer
370
18
48
1
60
1
100
AcDbPoint
10
-40
20
-5
30
0
39
0
210
0
220
0
230
1
50
360
0
POINT
5
7C
100
AcDbEntity
8
1
62
256
6
ByLayer
370
18
48
1
60
1
100
AcDbPoint
10
-40
20
-5
30
0
39
0
210
0
220
0
230
1
50
360
0
POINT
5
7D
100
AcDbEntity
8
1
62
256
6
ByLayer
370
18
48
1
60
1
100
AcDbPoint
10
0
20
-5
30
0
39
0
210
0
220
0
230
1
50
360
0
POINT
5
7E
100
AcDbEntity
8
1
62
256
6
ByLayer
370
18
48
1
60
1
100
AcDbPoint
10
6
20
5
30
0
39
0
210
0
220
0
230
1
50
360
0
POINT
5
7F
100
AcDbEntity
8
1
62
256
6
ByLayer
370
18
48
1
60
1
100
AcDbPoint
10
112
20
0
30
0
39
0
210
0
220
0
230
1
50
360
0
POINT
5
80
100
AcDbEntity
8
1
62
256
6
ByLayer
370
18
48
1
60
1
100
AcDbPoint
10
38.4
20
-4.5
30
0
39
0
210
0
220
0
230
1
50
360
0
POINT
5
81
100
AcDbEntity
8
1
62
256
6
ByLayer
370
18
48
1
60
1
100
AcDbPoint
10
112
20
0
30
0
39
0
210
0
220
0
230
1
50
360
0
POINT
5
82
100
AcDbEntity
8
1
62
256
6
ByLayer
370
18
48
1
60
1
100
AcDbPoint
10
-40
20
0
30
0
39
0
210
0
220
0
230
1
50
360
0
POINT
5
83
100
AcDbEntity
8
1
62
256
6
ByLayer
370
18
48
1
60
1
100
AcDbPoint
10
112
20
0
30
0
39
0
210
0
220
0
230
1
50
360
0
SPLINE
5
BD
100
AcDbEntity
8
SK1
62
256
6
ByLayer
370
18
48
1
60
0
100
AcDbSpline
70
4
71
3
72
8
73
4
40
0
40
0
40
0
40
0
40
1
40
1
40
1
40
1
41
1
10
-39.5179491924311
20
2.88428947372716
30
-2E-16
41
1
10
-39.4620007015838
20
2.93323874944633
30
-2E-16
41
1
10
-39.40601625206
20
2.98215819910996
30
-2E-16
41
1
10
-39.35
20
3.03105127004375
30
-2E-16
0
SPLINE
5
BE
100
AcDbEntity
8
SK1
62
256
6
ByLayer
370
18
48
1
60
0
100
AcDbSpline
70
4
71
3
72
10
73
6
40
0
40
0
40
0
40
0
40
0.5
40
0.5
40
1
40
1
40
1
40
1
41
1
10
-39.5179491924311
20
2.88428947372716
30
-2E-16
41
1
10
-39.5876702969376
20
2.73397773091713
30
-2E-16
41
1
10
-39.6641392526985
20
2.58391665487181
30
-2E-16
41
1
10
-39.8261142497238
20
2.28397936357101
30
-1E-16
41
1
10
-39.9120447599511
20
2.133572347811
30
-1E-16
41
1
10
-40
20
1.98560222621194
30
-1E-16
0
SPLINE
5
BF
100
AcDbEntity
8
SK1
62
256
6
ByLayer
370
18
48
1
60
0
100
AcDbSpline
70
4
71
3
72
12
73
8
40
0
40
0
40
0
40
0
40
0.250000000000001
40
0.250000000000001
40
0.500000000000002
40
0.500000000000002
40
1
40
1
40
1
40
1
41
1
10
-39.25
20
4.14089865740249
30
0
41
1
10
-39.25
20
4.14675374594123
30
0
41
1
10
-39.254235624227
20
4.14842258475554
30
0
41
1
10
-39.2670201311554
20
4.14601056068639
30
0
41
1
10
-39.2754786511826
20
4.1420926924115
30
0
41
1
10
-39.3037388067419
20
4.12557650821228
30
0
41
1
10
-39.3264172660865
20
4.10836075869247
30
0
41
1
10
-39.35
20
4.08777687027359
30
0
0
SPLINE
5
C0
100
AcDbEntity
8
SK1
62
256
6
ByLayer
370
18
48
1
60
0
100
AcDbSpline
70
4
71
3
72
8
73
4
40
0
40
0
40
0
40
0
40
1
40
1
40
1
40
1
41
1
10
-39.35
20
4.08777687027356
30
0
41
1
10
-39.4060164970468
20
4.03888358550617
30
0
41
1
10
-39.4620009564862
20
3.98996412666227
30
0
41
1
10
-39.5179491924311
20
3.941015073957
30
0
0
SPLINE
5
C1
100
AcDbEntity
8
SK1
62
256
6
ByLayer
370
18
48
1
60
0
100
AcDbSpline
70
4
71
3
72
12
73
8
40
0
40
0
40
0
40
0
40
0.5
40
0.5
40
0.75
40
0.75
40
1
40
1
40
1
40
1
41
1
10
-40.0000000000001
20
3.63541454078498
30
0
41
1
10
-39.9123015823215
20
3.70875468874769
30
0
41
1
10
-39.8274378507374
20
3.77284232343143
30
0
41
1
10
-39.7059807717948
20
3.85128763066183
30
0
41
1
10
-39.6664759830087
20
3.87446281138003
30
0
41
1
10
-39.589878798846
20
3.91367426600129
30
0
41
1
10
-39.5527407465257
20
3.92968702167266
30
0
41
1
10
-39.5179491924311
20
3.941015073957
30
0
0
SPLINE
5
C2
100
AcDbEntity
8
SK1
62
256
6
ByLayer
370
18
48
1
60
0
100
AcDbSpline
70
4
71
3
72
12
73
8
40
0
40
0
40
0
40
0
40
0.499999999999998
40
0.499999999999998
40
0.749999999999999
40
0.749999999999999
40
1
40
1
40
1
40
1
41
1
10
-39.35
20
3.03105127004372
30
-2E-16
41
1
10
-39.3264103729719
20
3.05164117502969
30
-2E-16
41
1
10
-39.3036886178189
20
3.07733040501498
30
-2E-16
41
1
10
-39.275599229617
20
3.11917512462125
30
-2E-16
41
1
10
-39.2670477807072
20
3.13404508265072
30
-2E-16
41
1
10
-39.2542670006876
20
3.16333242568715
30
-2E-16
41
1
10
-39.25
20
3.17810420304207
30
-2E-16
41
1
10
-39.25
20
3.18984561719563
30
-2E-16
0
SPLINE
5
C3
100
AcDbEntity
8
1
62
256
6
ByLayer
370
18
48
1
60
0
100
AcDbSpline
70
4
71
3
72
10
73
6
40
0
40
0
40
0
40
0
40
0.5
40
0.5
40
1
40
1
40
1
40
1
41
1
10
110.141484234415
20
-4.44112517743923
30
0
41
1
10
110.144322991645
20
-4.45821988466
30
1E-16
41
1
10
110.147036118229
20
-4.47164067930132
30
1E-16
41
1
10
110.152404986589
20
-4.49100610033221
30
0
41
1
10
110.155071237901
20
-4.49695301934003
30
0
41
1
10
110.157750433111
20
-4.49902923182674
30
0
0
SPLINE
5
C4
100
AcDbEntity
8
1
62
256
6
ByLayer
370
18
48
1
60
0
100
AcDbSpline
70
4
71
3
72
16
73
12
40
0
40
0
40
0
40
0
40
0.229752877082386
40
0.229752877082386
40
0.462028777141138
40
0.462028777141138
40
0.659548866589638
40
0.659548866589638
40
0.831550613346237
40
0.831550613346237
40
1
40
1
40
1
40
1
41
1
10
110.396099636754
20
-4.23619286952774
30
0
41
1
10
110.396181001264
20
-4.23636106898553
30
0
41
1
10
110.396205656882
20
-4.23671070439437
30
0
41
1
10
110.396114195545
20
-4.23778936275156
30
0
41
1
10
110.39599368161
20
-4.23854407224303
30
0
41
1
10
110.39563270955
20
-4.24024127222361
30
0
41
1
10
110.395406588988
20
-4.24116617377737
30
0
41
1
10
110.394910553789
20
-4.24299377584063
30
0
41
1
10
110.394643669576
20
-4.24390766201083
30
0
41
1
10
110.394091201783
20
-4.24568775800992
30
0
41
1
10
110.393799787399
20
-4.24657546628325
30
0
41
1
10
110.393510686983
20
-4.24741408590262
30
0
0
SPLINE
5
C5
100
AcDbEntity
8
1
62
256
6
ByLayer
370
18
48
1
60
0
100
AcDbSpline
70
4
71
3
72
8
73
4
40
0
40
0
40
0
40
0
40
1
40
1
40
1
40
1
41
1
10
111.995850253035
20
0.248442097224256
30
0
41
1
10
111.976412726373
20
0.183655315363382
30
0
41
1
10
111.956878255456
20
0.118898818482307
30
0
41
1
10
111.937247202762
20
0.0541724933441117
30
0
0
SPLINE
5
C6
100
AcDbEntity
8
1
62
256
6
ByLayer
370
18
48
1
60
0
100
AcDbSpline
70
4
71
3
72
14
73
10
40
0
40
0
40
0
40
0
40
0.210725696831672
40
0.210725696831672
40
0.473817131221115
40
0.473817131221115
40
0.736908565610557
40
0.736908565610557
40
1
40
1
40
1
40
1
41
1
10
110.201977017935
20
0.952443813138274
30
1E-16
41
1
10
110.231236299891
20
0.976498334423667
30
1E-16
41
1
10
110.264578494639
20
1.0016981382621
30
0
41
1
10
110.349524426546
20
1.05972396829867
30
0
41
1
10
110.402387708798
20
1.09189364870204
30
0
41
1
10
110.518340119188
20
1.15096108368024
30
0
41
1
10
110.582346462931
20
1.1781257046575
30
0
41
1
10
110.714565389136
20
1.22143817312579
30
0
41
1
10
110.784175621563
20
1.23812164036011
30
0
41
1
10
110.855083648164
20
1.24869328199222
30
0
0
SPLINE
5
C7
100
AcDbEntity
8
1
62
256
6
ByLayer
370
18
48
1
60
0
100
AcDbSpline
70
4
71
3
72
8
73
4
40
0
40
0
40
0
40
0
40
1
40
1
40
1
40
1
41
1
10
111.601287845979
20
1.39869382739192
30
0
41
1
10
111.736456110286
20
1.01658186503442
30
0
41
1
10
111.867995160149
20
0.633171151700964
30
0
41
1
10
111.995850253035
20
0.248442097224228
30
0
0
SPLINE
5
C8
100
AcDbEntity
8
1
62
256
6
ByLayer
370
18
48
1
60
0
100
AcDbSpline
70
4
71
3
72
8
73
4
40
0
40
0
40
0
40
0
40
1
40
1
40
1
40
1
41
1
10
110.393510686983
20
-4.24741408590262
30
0
41
1
10
110.386763956711
20
-4.26698493413122
30
0
41
1
10
110.380045937586
20
-4.28655537684179
30
0
41
1
10
110.373357206848
20
-4.3061255767725
30
0
0
SPLINE
5
C9
100
AcDbEntity
8
1
62
256
6
ByLayer
370
18
48
1
60
0
100
AcDbSpline
70
4
71
3
72
26
73
22
40
0
40
0
40
0
40
0
40
0.160060891816911
40
0.160060891816911
40
0.265053280339796
40
0.265053280339796
40
0.317549474601238
40
0.317549474601238
40
0.370045668862681
40
0.370045668862681
40
0.580030445908456
40
0.580030445908456
40
0.79001522295423
40
0.79001522295423
40
0.842511417215673
40
0.842511417215673
40
0.895007611477115
40
0.895007611477115
40
0.947503805738558
40
0.947503805738558
40
1
40
1
40
1
40
1
41
1
10
97.5326108000176
20
0.212687481916674
30
0
41
1
10
98.2165368170837
20
-0.123948458798281
30
0
41
1
10
98.8982878157686
20
-0.461629653992873
30
0
41
1
10
100.029755066261
20
-1.00981004088112
30
1E-16
41
1
10
100.478559655943
20
-1.22419603090029
30
1E-16
41
1
10
101.154364599958
20
-1.53816269360084
30
1E-16
41
1
10
101.380063559527
20
-1.64155448258086
30
1E-16
41
1
10
101.832547508904
20
-1.84534924248075
30
1E-16
41
1
10
102.059769882329
20
-1.94592884380944
30
1E-16
41
1
10
103.193104522436
20
-2.43708119050413
30
1E-16
41
1
10
104.090069992039
20
-2.79191989228562
30
2E-16
41
1
10
105.881520164932
20
-3.40178033564814
30
2E-16
41
1
10
106.775959589794
20
-3.65630675578089
30
-2E-16
41
1
10
107.902853619245
20
-3.8984554139594
30
0
41
1
10
108.128677036369
20
-3.94308237001195
30
0
41
1
10
108.581475213257
20
-4.02437986035218
30
0
41
1
10
108.808673094022
20
-4.06107468280282
30
0
41
1
10
109.262393408164
20
-4.12586520246575
30
0
41
1
10
109.48911514194
20
-4.15400665796352
30
0
41
1
10
109.942548820504
20
-4.20162613340923
30
0
41
1
10
110.169250157098
20
-4.22072056411238
30
0
41
1
10
110.396099636754
20
-4.23619286952777
30
0
0
SPLINE
5
CA
100
AcDbEntity
8
1
62
256
6
ByLayer
370
18
48
1
60
0
100
AcDbSpline
70
4
71
3
72
10
73
6
40
0
40
0
40
0
40
0
40
0.5
40
0.5
40
1
40
1
40
1
40
1
41
1
10
110.855083648164
20
1.2486932819923
30
0
41
1
10
110.980661602065
20
1.26741563528799
30
0
41
1
10
111.1057836207
20
1.28855655406591
30
0
41
1
10
111.35473879853
20
1.33767530727644
30
0
41
1
10
111.478799601147
20
1.36575522606535
30
0
41
1
10
111.601287845984
20
1.39869382739371
30
0
0
SPLINE
5
CB
100
AcDbEntity
8
1
62
256
6
ByLayer
370
18
48
1
60
0
100
AcDbSpline
70
4
71
3
72
10
73
6
40
0
40
0
40
0
40
0
40
0.5
40
0.5
40
1
40
1
40
1
40
1
41
1
10
110.436837908795
20
-4.3139347013138
30
0
41
1
10
110.422432944911
20
-4.32343356757511
30
0
41
1
10
110.410178082224
20
-4.32741696444268
30
0
41
1
10
110.389301887347
20
-4.32456623591131
30
0
41
1
10
110.380705807941
20
-4.31780575900964
30
0
41
1
10
110.373357206849
20
-4.30612557677244
30
0
0
SPLINE
5
CC
100
AcDbEntity
8
1
62
256
6
ByLayer
370
18
48
1
60
0
100
AcDbSpline
70
2053
71
3
72
60
73
56
40
0
40
0
40
0
40
0
40
0.0624999999999991
40
0.0624999999999991
40
0.124999999999998
40
0.124999999999998
40
0.187499999999997
40
0.187499999999997
40
0.249999999999996
40
0.249999999999996
40
0.281249999999997
40
0.281249999999997
40
0.312499999999997
40
0.312499999999997
40
0.343749999999997
40
0.343749999999997
40
0.374999999999998
40
0.374999999999998
40
0.406249999999998
40
0.406249999999998
40
0.437499999999998
40
0.437499999999998
40
0.468749999999999
40
0.468749999999999
40
0.499999999999999
40
0.499999999999999
40
0.53125
40
0.53125
40
0.5625
40
0.5625
40
0.59375
40
0.59375
40
0.625000000000001
40
0.625000000000001
40
0.656250000000001
40
0.656250000000001
40
0.687500000000002
40
0.687500000000002
40
0.718750000000003
40
0.718750000000003
40
0.750000000000003
40
0.750000000000003
40
0.781250000000004
40
0.781250000000004
40
0.812500000000004
40
0.812500000000004
40
0.843750000000005
40
0.843750000000005
40
0.875000000000005
40
0.875000000000005
40
0.937500000000006
40
0.937500000000006
40
0.968750000000003
40
0.968750000000003
40
1
40
1
40
1
40
1
41
1
10
110.792574843047
20
-1.90412179990452
30
-1E-16
41
1
10
110.75999558871
20
-1.9445557241244
30
-1E-16
41
1
10
110.729577779081
20
-1.97055604545466
30
-1E-16
41
1
10
110.671617230315
20
-1.99459971352104
30
-1E-16
41
1
10
110.64560410127
20
-1.99195475518337
30
1E-16
41
1
10
110.597911625485
20
-1.9567034887495
30
1E-16
41
1
10
110.577499625895
20
-1.92511482965043
30
1E-16
41
1
10
110.542541882288
20
-1.83205950884366
30
1E-16
41
1
10
110.529018218409
20
-1.77334519957253
30
1E-16
41
1
10
110.515485909281
20
-1.66593628430868
30
1E-16
41
1
10
110.512294302388
20
-1.62805502660274
30
1E-16
41
1
10
110.508770186271
20
-1.54805322177327
30
1E-16
41
1
10
110.5084584915
20
-1.5053179418934
30
1E-16
41
1
10
110.511331083373
20
-1.41812076553003
30
1E-16
41
1
10
110.51445325153
20
-1.37407547067255
30
1E-16
41
1
10
110.524547214883
20
-1.28508893747062
30
1E-16
41
1
10
110.531607882007
20
-1.24009458744837
30
1E-16
41
1
10
110.549245146652
20
-1.15455690930722
30
1E-16
41
1
10
110.56004257537
20
-1.11284057984
30
1E-16
41
1
10
110.584866789329
20
-1.03505705570376
30
1E-16
41
1
10
110.598730371359
20
-0.999281893743017
30
1E-16
41
1
10
110.629276802483
20
-0.933531860810461
30
1E-16
41
1
10
110.645712150824
20
-0.904172603555395
30
1E-16
41
1
10
110.679932534931
20
-0.852926042237272
30
1E-16
41
1
10
110.69798878703
20
-0.830680183493996
30
1E-16
41
1
10
110.734419592385
20
-0.793898510240581
30
0
41
1
10
110.752857261163
20
-0.779195669349576
30
0
41
1
10
110.790011398341
20
-0.756552028351877
30
0
41
1
10
110.808655151251
20
-0.748716470337627
30
0
41
1
10
110.844952428732
20
-0.73987920976262
30
0
41
1
10
110.862747197041
20
-0.738786901877319
30
0
41
1
10
110.897447901791
20
-0.743197988680549
30
0
41
1
10
110.914247741283
20
-0.748745192051899
30
0
41
1
10
110.945722943149
20
-0.76617146932216
30
0
41
1
10
110.960528960401
20
-0.778057019989973
30
0
41
1
10
110.987983713462
20
-0.80859508493927
30
0
41
1
10
111.00068336097
20
-0.827435022703042
30
1E-16
41
1
10
111.022605708307
20
-0.871265553764118
30
1E-16
41
1
10
111.031958610082
20
-0.896332539407041
30
1E-16
41
1
10
111.046958016533
20
-0.953614266411392
30
1E-16
41
1
10
111.052504683048
20
-0.985736773845048
30
1E-16
41
1
10
111.058909722774
20
-1.05510413225875
30
1E-16
41
1
10
111.059828051164
20
-1.09319574781824
30
1E-16
41
1
10
111.05667284507
20
-1.17319362064688
30
1E-16
41
1
10
111.052688052895
20
-1.21471213405431
30
1E-16
41
1
10
111.03997267197
20
-1.30096396929761
30
1E-16
41
1
10
111.03121724325
20
-1.34539976812678
30
1E-16
41
1
10
111.010230089273
20
-1.43244809208485
30
1E-16
41
1
10
110.997723085851
20
-1.47621629492636
30
1E-16
41
1
10
110.956843882625
20
-1.60149654967617
30
1E-16
41
1
10
110.924679836045
20
-1.67878919132568
30
1E-16
41
1
10
110.875380027118
20
-1.77686942123054
30
1E-16
41
1
10
110.858518504804
20
-1.80706656935996
30
1E-16
41
1
10
110.825347161877
20
-1.86041298664779
30
-1E-16
41
1
10
110.808864470216
20
-1.88390483779457
30
-1E-16
41
1
10
110.792574843047
20
-1.90412179990452
30
-1E-16
0
SPLINE
5
CD
100
AcDbEntity
8
1
62
256
6
ByLayer
370
18
48
1
60
0
100
AcDbSpline
70
4
71
3
72
34
73
30
40
0
40
0
40
0
40
0
40
0.04837457535352
40
0.04837457535352
40
0.0967491507070397
40
0.0967491507070397
40
0.19349830141408
40
0.19349830141408
40
0.241872876767599
40
0.241872876767599
40
0.290247452121119
40
0.290247452121119
40
0.386996602828159
40
0.386996602828159
40
0.483745753535198
40
0.483745753535198
40
0.532120328888718
40
0.532120328888718
40
0.580494904242238
40
0.580494904242238
40
0.677244054949278
40
0.677244054949278
40
0.773993205656317
40
0.773993205656317
40
0.870742356363357
40
0.870742356363357
40
0.967491507070397
40
0.967491507070397
40
1
40
1
40
1
40
1
41
1
10
109.883489010577
20
-0.0991514896945205
30
0
41
1
10
109.659785761549
20
0.0118881679117919
30
0
41
1
10
109.435989045079
20
0.122715869502343
30
0
41
1
10
108.988039741775
20
0.343605914348046
30
0
41
1
10
108.76365869869
20
0.453774743866035
30
0
41
1
10
108.09239736812
20
0.781348053901326
30
0
41
1
10
107.646897267654
20
0.996109709380107
30
-1E-16
41
1
10
106.981133757138
20
1.31074617941144
30
-1E-16
41
1
10
106.7596224543
20
1.41435985151611
30
-1E-16
41
1
10
106.317338679977
20
1.61856390908216
30
-1E-16
41
1
10
106.09643047758
20
1.71908514706277
30
-1E-16
41
1
10
105.433235681617
20
2.01489490716753
30
-1E-16
41
1
10
104.990869098694
20
2.20465705203569
30
-1E-16
41
1
10
104.105266688553
20
2.56635203206733
30
-2E-16
41
1
10
103.662216382972
20
2.73793151295686
30
-2E-16
41
1
10
102.994493804403
20
2.9792340391605
30
-2E-16
41
1
10
102.771429289706
20
3.05698227377462
30
-2E-16
41
1
10
102.324160363273
20
3.20662005345875
30
-2E-16
41
1
10
102.099602654848
20
3.27862575481842
30
-2E-16
41
1
10
101.428795288637
20
3.48354257484013
30
-2E-16
41
1
10
100.984645389677
20
3.60511521228605
30
-2E-16
41
1
10
100.097362759665
20
3.8202580944174
30
0
41
1
10
99.6547982976433
20
3.91324072612764
30
0
41
1
10
98.7706871885732
20
4.06712000668983
30
0
41
1
10
98.3295365674999
20
4.12668405634773
30
0
41
1
10
97.4444638520439
20
4.21702906921058
30
0
41
1
10
97.0008718804078
20
4.24712926916627
30
0
41
1
10
96.4064141062769
20
4.26313200280342
30
0
41
1
10
96.2567640920754
20
4.2649850246593
30
0
41
1
10
96.1069095883514
20
4.26471421709621
30
0
0
SPLINE
5
CE
100
AcDbEntity
8
1
62
256
6
ByLayer
370
18
48
1
60
0
100
AcDbSpline
70
4
71
3
72
30
73
26
40
0
40
0
40
0
40
0
40
0.0836820080876308
40
0.0836820080876308
40
0.167364016175262
40
0.167364016175262
40
0.251046024262893
40
0.251046024262893
40
0.334728032350523
40
0.334728032350523
40
0.418410040438154
40
0.418410040438154
40
0.460251044481971
40
0.460251044481971
40
0.502092048525787
40
0.502092048525787
40
0.669456064701057
40
0.669456064701057
40
0.836820080876327
40
0.836820080876327
40
0.878661084920144
40
0.878661084920144
40
0.920502088963962
40
0.920502088963962
40
1
40
1
40
1
40
1
41
1
10
67.0000000000001
20
1.2840006360145
30
-1E-16
41
1
10
67.4526057201155
20
1.06008811903561
30
-1E-16
41
1
10
67.9052617769037
20
0.830901764690452
30
-1E-16
41
1
10
68.8076436343227
20
0.36916458086921
30
0
41
1
10
69.2580147388456
20
0.136254932386834
30
0
41
1
10
70.1592948424835
20
-0.329402764338909
30
0
41
1
10
70.6102089178732
20
-0.562141177652023
30
0
41
1
10
71.5150039498728
20
-1.02271902272864
30
1E-16
41
1
10
71.9668865058381
20
-1.24949781617585
30
1E-16
41
1
10
72.8692770981258
20
-1.69028044819106
30
1E-16
41
1
10
73.3202024290419
20
-1.9045400762231
30
1E-16
41
1
10
73.9978725818503
20
-2.21368412464057
30
1E-16
41
1
10
74.2242476556497
20
-2.31480501355244
30
1E-16
41
1
10
74.6764373569274
20
-2.51187584265017
30
2E-16
41
1
10
74.9018848812432
20
-2.60767408837918
30
2E-16
41
1
10
76.0265961421624
20
-3.07204673828008
30
2E-16
41
1
10
76.9183303160227
20
-3.39659593291759
30
2E-16
41
1
10
78.7038636288883
20
-3.92926194899522
30
-2E-16
41
1
10
79.5974491684688
20
-4.13760479266151
30
0
41
1
10
80.7270330187454
20
-4.31253521765416
30
0
41
1
10
80.9534975402031
20
-4.34322110581635
30
0
41
1
10
81.405279415755
20
-4.39551908684248
30
0
41
1
10
81.6309292687374
20
-4.41718561611387
30
0
41
1
10
82.285028076532
20
-4.46692183345198
30
0
41
1
10
82.7132189354445
20
-4.48319865580066
30
0
41
1
10
83.1420620206021
20
-4.48297534331678
30
0
0
SPLINE
5
CF
100
AcDbEntity
8
1
62
256
6
ByLayer
370
18
48
1
60
0
100
AcDbSpline
70
4
71
3
72
8
73
4
40
0
40
0
40
0
40
0
40
1
40
1
40
1
40
1
41
1
10
109.448636731586
20
4.47639599541313
30
0
41
1
10
109.684879352198
20
4.48894803972667
30
0
41
1
10
109.9211940735
20
4.4965045154151
30
0
41
1
10
110.157750433124
20
4.49902923182668
30
0
0
SPLINE
5
D0
100
AcDbEntity
8
1
62
256
6
ByLayer
370
18
48
1
60
0
100
AcDbSpline
70
4
71
3
72
10
73
6
40
0
40
0
40
0
40
0
40
0.5
40
0.5
40
1
40
1
40
1
40
1
41
1
10
109.768776543901
20
-0.0327437780223079
30
0
41
1
10
109.763233163635
20
0.0737783644597698
30
0
41
1
10
109.759543398794
20
0.180333332607916
30
0
41
1
10
109.756508275975
20
0.391259470129228
30
0
41
1
10
109.757143490288
20
0.495978113092406
30
0
41
1
10
109.760195595964
20
0.599950793089789
30
0
0
SPLINE
5
D1
100
AcDbEntity
8
1
62
256
6
ByLayer
370
18
48
1
60
0
100
AcDbSpline
70
4
71
3
72
28
73
24
40
0
40
0
40
0
40
0
40
0.124999999999998
40
0.124999999999998
40
0.187499999999998
40
0.187499999999998
40
0.249999999999997
40
0.249999999999997
40
0.374999999999996
40
0.374999999999996
40
0.437499999999996
40
0.437499999999996
40
0.499999999999995
40
0.499999999999995
40
0.624999999999996
40
0.624999999999996
40
0.687499999999997
40
0.687499999999997
40
0.749999999999997
40
0.749999999999997
40
0.874999999999999
40
0.874999999999999
40
1
40
1
40
1
40
1
41
1
10
109.883489010564
20
-0.0991514896957426
30
0
41
1
10
109.893345299421
20
-0.353907683879612
30
0
41
1
10
109.913504930917
20
-0.603447700126139
30
0
41
1
10
109.951843000915
20
-0.97097421542972
30
1E-16
41
1
10
109.966000423648
20
-1.09234259504424
30
1E-16
41
1
10
109.996105764842
20
-1.33286548388372
30
1E-16
41
1
10
110.012130831888
20
-1.45255857727213
30
1E-16
41
1
10
110.061026026179
20
-1.80411469854343
30
1E-16
41
1
10
110.094419424789
20
-2.02733163273021
30
1E-16
41
1
10
110.141722901317
20
-2.34631336177793
30
1E-16
41
1
10
110.157047367024
20
-2.4499800550087
30
2E-16
41
1
10
110.186368168654
20
-2.65190791351526
30
2E-16
41
1
10
110.200412222838
20
-2.75053694190547
30
2E-16
41
1
10
110.239391157909
20
-3.03275501069774
30
2E-16
41
1
10
110.261329837636
20
-3.20430024809241
30
2E-16
41
1
10
110.28865579326
20
-3.43703419837468
30
2E-16
41
1
10
110.29685258203
20
-3.51049021066288
30
2E-16
41
1
10
110.311742899324
20
-3.64890992307556
30
-2E-16
41
1
10
110.318437244373
20
-3.71389920925884
30
-2E-16
41
1
10
110.33669016028
20
-3.89208925680427
30
0
41
1
10
110.346518850744
20
-3.99011485477834
30
0
41
1
10
110.367903710827
20
-4.14502227467312
30
0
41
1
10
110.379547628458
20
-4.20197600025634
30
0
41
1
10
110.396099636754
20
-4.23619286952777
30
0
0
SPLINE
5
D2
100
AcDbEntity
8
1
62
256
6
ByLayer
370
18
48
1
60
0
100
AcDbSpline
70
4
71
3
72
36
73
32
40
0
40
0
40
0
40
0
40
0.327400022651189
40
0.327400022651189
40
0.552410461977634
40
0.552410461977634
40
0.702371815249258
40
0.702371815249258
40
0.802264486636511
40
0.802264486636511
40
0.868831736730391
40
0.868831736730391
40
0.913208303619732
40
0.913208303619732
40
0.942805337409048
40
0.942805337409048
40
0.962588342918459
40
0.962588342918459
40
0.975832927913559
40
0.975832927913559
40
0.984560592823957
40
0.984560592823957
40
0.990280007052306
40
0.990280007052306
40
0.994099146447943
40
0.994099146447943
40
0.996679124428236
40
0.996679124428236
40
0.999215828488963
40
0.999215828488963
40
1
40
1
40
1
40
1
41
1
10
110.157750433125
20
-4.49902923181696
30
0
41
1
10
110.18730184566
20
-4.47972994327398
30
0
41
1
10
110.216882537012
20
-4.46031336884687
30
0
41
1
10
110.266830199898
20
-4.42736730874205
30
0
41
1
10
110.287183504512
20
-4.41389717634638
30
0
41
1
10
110.32112920677
20
-4.39135692519773
30
0
41
1
10
110.334713268686
20
-4.3823171206592
30
0
41
1
10
110.357366636675
20
-4.36720921660571
30
0
41
1
10
110.366429111806
20
-4.36115659739295
30
0
41
1
10
110.38154190539
20
-4.35104881427728
30
0
41
1
10
110.387588513543
20
-4.34700089832171
30
0
41
1
10
110.39767160038
20
-4.3402444922319
30
0
41
1
10
110.401707287103
20
-4.33753860037726
30
0
41
1
10
110.408432643217
20
-4.33302663517495
30
0
41
1
10
110.411124189862
20
-4.33122018136322
30
0
41
1
10
110.415596016687
20
-4.32821790479386
30
0
41
1
10
110.417377693429
20
-4.32702152548535
30
0
41
1
10
110.42034838121
20
-4.32502617234536
30
0
41
1
10
110.421543254157
20
-4.32422339684942
30
0
41
1
10
110.423548817106
20
-4.32287546992126
30
0
41
1
10
110.42435155972
20
-4.32233582795305
30
0
41
1
10
110.425691045616
20
-4.32143516351715
30
0
41
1
10
110.426225207205
20
-4.32107593498912
30
0
41
1
10
110.427110297374
20
-4.32048072641464
30
0
41
1
10
110.427463413815
20
-4.32024326673576
30
0
41
1
10
110.428044556525
20
-4.31985253566509
30
0
41
1
10
110.428276468544
20
-4.31969662807373
30
0
41
1
10
110.428720007156
20
-4.31939854467143
30
0
41
1
10
110.428936426181
20
-4.31925313888041
30
0
41
1
10
110.429177837053
20
-4.31909114011589
30
0
41
1
10
110.42923183473
20
-4.31905492277602
30
0
41
1
10
110.429279072328
20
-4.31902327393703
30
0
0
SPLINE
5
D3
100
AcDbEntity
8
1
62
256
6
ByLayer
370
18
48
1
60
0
100
AcDbSpline
70
4
71
3
72
48
73
44
40
0
40
0
40
0
40
0
40
0.0204766912919323
40
0.0204766912919323
40
0.0671206583732716
40
0.0671206583732716
40
0.113764625454611
40
0.113764625454611
40
0.137086608995281
40
0.137086608995281
40
0.16040859253595
40
0.16040859253595
40
0.253696526698622
40
0.253696526698622
40
0.346984460861294
40
0.346984460861294
40
0.370306444401963
40
0.370306444401963
40
0.393628427942631
40
0.393628427942631
40
0.440272395023966
40
0.440272395023966
40
0.533560329186638
40
0.533560329186638
40
0.580204296267974
40
0.580204296267974
40
0.603526279808643
40
0.603526279808643
40
0.626848263349312
40
0.626848263349312
40
0.673492230430648
40
0.673492230430648
40
0.720136197511984
40
0.720136197511984
40
0.813424131674656
40
0.813424131674656
40
0.906712065837328
40
0.906712065837328
40
0.930034049377997
40
0.930034049377997
40
0.953356032918665
40
0.953356032918665
40
1
40
1
40
1
40
1
41
1
10
81.2620543530749
20
4.37874044795345
30
0
41
1
10
81.4603367115885
20
4.40073852077677
30
0
41
1
10
81.6584466273628
20
4.41927797481085
30
0
41
1
10
82.3075831891388
20
4.4686368740075
30
0
41
1
10
82.7582906314911
20
4.48486682693456
30
0
41
1
10
83.6612685621206
20
4.48073904428171
30
0
41
1
10
84.1140309671144
20
4.46030008958493
30
-1E-16
41
1
10
84.7922130778026
20
4.40244383142277
30
0
41
1
10
85.018246806979
20
4.37863491378607
30
0
41
1
10
85.4705580966461
20
4.32207058629697
30
0
41
1
10
85.6967846797707
20
4.28930781576915
30
0
41
1
10
86.8236820098928
20
4.10449709195757
30
0
41
1
10
87.7162398707588
20
3.88901754089875
30
2E-16
41
1
10
89.5010076842184
20
3.34252363670942
30
-2E-16
41
1
10
90.3932102224534
20
3.01145353741984
30
-2E-16
41
1
10
91.5195680303917
20
2.53920243847188
30
-2E-16
41
1
10
91.7457928611046
20
2.44165165579722
30
-1E-16
41
1
10
92.1976191750497
20
2.24197235126533
30
-1E-16
41
1
10
92.422884989797
20
2.14000415052422
30
-1E-16
41
1
10
93.0971864282125
20
1.82856105120021
30
-1E-16
41
1
10
93.544729921777
20
1.61355324416289
30
-1E-16
41
1
10
94.8849081736014
20
0.953133084051728
30
-1E-16
41
1
10
95.7750694601387
20
0.492280355332838
30
0
41
1
10
97.1184507531287
20
-0.204549379281701
30
0
41
1
10
97.567624962209
20
-0.437701982186184
30
0
41
1
10
98.2452123433212
20
-0.785306145729265
30
0
41
1
10
98.4715098787388
20
-0.900711824759242
30
1E-16
41
1
10
98.923007129995
20
-1.12892775007416
30
1E-16
41
1
10
99.1485198721501
20
-1.2419011839379
30
1E-16
41
1
10
99.8247783271446
20
-1.57663181686354
30
1E-16
41
1
10
100.275242345306
20
-1.79420030210733
30
1E-16
41
1
10
101.177798316415
20
-2.21383801918935
30
1E-16
41
1
10
101.630729329611
20
-2.41619610477113
30
1E-16
41
1
10
102.979887574427
20
-2.98731919935761
30
2E-16
41
1
10
103.871059343257
20
-3.32244338784636
30
2E-16
41
1
10
105.655199622607
20
-3.87821699395443
30
-2E-16
41
1
10
106.548116623155
20
-4.09901782483922
30
0
41
1
10
107.67617314824
20
-4.29078983796009
30
0
41
1
10
107.902469416878
20
-4.32492007686253
30
0
41
1
10
108.353946796624
20
-4.3841153516274
30
0
41
1
10
108.579453858254
20
-4.40924101703456
30
0
41
1
10
109.255745202056
20
-4.47106743048374
30
1E-16
41
1
10
109.706307798314
20
-4.49421107926972
30
0
41
1
10
110.157750433125
20
-4.49902923182671
30
0
0
SPLINE
5
D4
100
AcDbEntity
8
1
62
256
6
ByLayer
370
18
48
1
60
0
100
AcDbSpline
70
4
71
3
72
8
73
4
40
0
40
0
40
0
40
0
40
1
40
1
40
1
40
1
41
1
10
67
20
1.22275026087374
30
-1E-16
41
1
10
67
20
1.22512544328362
30
-1E-16
41
1
10
67
20
1.22669799231178
30
-1E-16
41
1
10
67
20
1.22747628434121
30
-1E-16
0
SPLINE
5
D5
100
AcDbEntity
8
1
62
256
6
ByLayer
370
18
48
1
60
0
100
AcDbSpline
70
4
71
3
72
24
73
20
40
0
40
0
40
0
40
0
40
0.209544451225796
40
0.209544451225796
40
0.314316676838694
40
0.314316676838694
40
0.366702789645144
40
0.366702789645144
40
0.419088902451594
40
0.419088902451594
40
0.628633353677392
40
0.628633353677392
40
0.73340557929029
40
0.73340557929029
40
0.785791692096738
40
0.785791692096738
40
0.838177804903186
40
0.838177804903186
40
1
40
1
40
1
40
1
41
1
10
12.2836114688444
20
1.37924716957474
30
-1E-16
41
1
10
13.4352723224563
20
0.81810037226029
30
-1E-16
41
1
10
14.5698140035579
20
0.22868587812394
30
0
41
1
10
16.2735161747364
20
-0.642823604218933
30
0
41
1
10
16.8416670794502
20
-0.931355823151421
30
1E-16
41
1
10
17.6978259910236
20
-1.35412708402652
30
1E-16
41
1
10
17.9838396340311
20
-1.49343522265971
30
1E-16
41
1
10
18.5577208128244
20
-1.76763068198218
30
1E-16
41
1
10
18.8460104007099
20
-1.90269484785642
30
1E-16
41
1
10
20.2799096590729
20
-2.55744922180799
30
2E-16
41
1
10
21.4124530744067
20
-3.02099211858754
30
2E-16
41
1
10
23.1167327893482
20
-3.58628105260342
30
2E-16
41
1
10
23.6858008181108
20
-3.75300828038971
30
-2E-16
41
1
10
24.5441074816971
20
-3.96613638175208
30
-2E-16
41
1
10
24.8313483365576
20
-4.03108092127053
30
0
41
1
10
25.4065541274767
20
-4.14750246597546
30
0
41
1
10
25.6931168518297
20
-4.19871239741479
30
0
41
1
10
26.8616571328343
20
-4.37933398300831
30
0
41
1
10
27.7370650890332
20
-4.44832572800425
30
0
41
1
10
28.6135621841649
20
-4.44887534993779
30
0
0
SPLINE
5
D6
100
AcDbEntity
8
1
62
256
6
ByLayer
370
18
48
1
60
0
100
AcDbSpline
70
4
71
3
72
30
73
26
40
0
40
0
40
0
40
0
40
0.0301614669160738
40
0.0301614669160738
40
0.0786533935702698
40
0.0786533935702698
40
0.127145320224466
40
0.127145320224466
40
0.224129173532856
40
0.224129173532856
40
0.418096880149637
40
0.418096880149637
40
0.466588806803834
40
0.466588806803834
40
0.51508073345803
40
0.51508073345803
40
0.612064586766422
40
0.612064586766422
40
0.806032293383208
40
0.806032293383208
40
0.854524220037406
40
0.854524220037406
40
0.903016146691603
40
0.903016146691603
40
1
40
1
40
1
40
1
41
1
10
49.3740226146015
20
3.28680204650448
30
-2E-16
41
1
10
49.5510875575629
20
3.34862693616591
30
-2E-16
41
1
10
49.7283729417731
20
3.40846781160846
30
-2E-16
41
1
10
50.1914422803259
20
3.5590576268589
30
-2E-16
41
1
10
50.477712584114
20
3.64646378733954
30
2E-16
41
1
10
51.0523074813562
20
3.8096142421283
30
2E-16
41
1
10
51.339554679658
20
3.88502314970953
30
2E-16
41
1
10
52.1973174549607
20
4.09081736748448
30
0
41
1
10
52.7658873302694
20
4.20126313675308
30
0
41
1
10
54.4682491915502
20
4.4494145388401
30
-1E-16
41
1
10
55.5989338622304
20
4.50350776843129
30
0
41
1
10
57.029884523002
20
4.42420579361126
30
0
41
1
10
57.3176671969845
20
4.40092260276356
30
0
41
1
10
57.8914291989848
20
4.34002317675544
30
0
41
1
10
58.177300448844
20
4.30246459810263
30
0
41
1
10
59.0328811039304
20
4.16934907307808
30
0
41
1
10
59.6004126379146
20
4.0532585119812
30
0
41
1
10
61.3013939654003
20
3.62965783879835
30
2E-16
41
1
10
62.4332697182914
20
3.24673668873203
30
-2E-16
41
1
10
63.8681901326106
20
2.66710652355732
30
-2E-16
41
1
10
64.1556886626601
20
2.54631668467908
30
-2E-16
41
1
10
64.7276585603277
20
2.29812088554957
30
-1E-16
41
1
10
65.0128019078259
20
2.17046209226859
30
-1E-16
41
1
10
65.8664514945777
20
1.77821226800452
30
-1E-16
41
1
10
66.4331966698785
20
1.5043713685252
30
-1E-16
41
1
10
67
20
1.22275026087326
30
-1E-16
0
SPLINE
5
D7
100
AcDbEntity
8
1
62
256
6
ByLayer
370
18
48
1
60
0
100
AcDbSpline
70
4
71
3
72
48
73
44
40
0
40
0
40
0
40
0
40
0.0098246361270311
40
0.0098246361270311
40
0.0324603394877545
40
0.0324603394877545
40
0.123003152930646
40
0.123003152930646
40
0.168274559652092
40
0.168274559652092
40
0.190910263012814
40
0.190910263012814
40
0.213545966373536
40
0.213545966373536
40
0.304088779816422
40
0.304088779816422
40
0.349360186537865
40
0.349360186537865
40
0.371995889898587
40
0.371995889898587
40
0.394631593259308
40
0.394631593259308
40
0.485174406702188
40
0.485174406702188
40
0.530445813423628
40
0.530445813423628
40
0.553081516784348
40
0.553081516784348
40
0.575717220145068
40
0.575717220145068
40
0.666260033587945
40
0.666260033587945
40
0.711531440309383
40
0.711531440309383
40
0.734167143670103
40
0.734167143670103
40
0.756802847030822
40
0.756802847030822
40
0.8473456604737
40
0.8473456604737
40
0.937888473916577
40
0.937888473916577
40
1
40
1
40
1
40
1
41
1
10
104.645937577041
20
-2.98172872222932
30
2E-16
41
1
10
104.532311482322
20
-3.02588429812621
30
2E-16
41
1
10
104.418541107383
20
-3.06932401174882
30
2E-16
41
1
10
104.042164133211
20
-3.21036231513142
30
2E-16
41
1
10
103.780621208311
20
-3.30409150042496
30
2E-16
41
1
10
102.476264984577
20
-3.74838369245589
30
-2E-16
41
1
10
101.443345659513
20
-4.02555495259722
30
-2E-16
41
1
10
99.8888855204142
20
-4.30586433101365
30
0
41
1
10
99.3699789553496
20
-4.37679678898027
30
0
41
1
10
98.587569800715
20
-4.4472652551481
30
1E-16
41
1
10
98.3261090777819
20
-4.46478001464467
30
1E-16
41
1
10
97.8014487524849
20
-4.48753913621323
30
0
41
1
10
97.5393011394499
20
-4.4927186928692
30
0
41
1
10
96.2338441150695
20
-4.48782700722657
30
1E-16
41
1
10
95.2006413216388
20
-4.38556710773108
30
0
41
1
10
93.6466648921179
20
-4.09604940854564
30
0
41
1
10
93.1280696119053
20
-3.97679698196481
30
-2E-16
41
1
10
92.3463634944995
20
-3.76574495771266
30
-2E-16
41
1
10
92.0851793439975
20
-3.69001867830716
30
-2E-16
41
1
10
91.5611552501246
20
-3.52809538070844
30
2E-16
41
1
10
91.298347208801
20
-3.44186666025888
30
2E-16
41
1
10
89.9911030480531
20
-2.99004866602121
30
2E-16
41
1
10
88.9572318141742
20
-2.5595946974473
30
2E-16
41
1
10
87.4033631672649
20
-1.84555441189369
30
1E-16
41
1
10
86.8849858660542
20
-1.59599573742733
30
1E-16
41
1
10
86.1038942557142
20
-1.20938536081323
30
1E-16
41
1
10
85.8429652090716
20
-1.07843052887392
30
1E-16
41
1
10
85.3195511195795
20
-0.813092404436588
30
0
41
1
10
85.0565492989541
20
-0.678419493101586
30
0
41
1
10
83.7473697528695
20
-0.0044971375004366
30
0
41
1
10
82.7127344322014
20
0.53933444593747
30
0
41
1
10
81.1588495272025
20
1.32133398571469
30
-1E-16
41
1
10
80.6406518690461
20
1.57654282089661
30
-1E-16
41
1
10
79.8601245233876
20
1.94565736629596
30
-1E-16
41
1
10
79.5994341957525
20
2.06645818042827
30
-1E-16
41
1
10
79.0765985783644
20
2.30276900435405
30
-1E-16
41
1
10
78.8139012119562
20
2.41853032891925
30
-1E-16
41
1
10
77.5026439067149
20
2.9786132236124
30
-2E-16
41
1
10
76.4671542794685
20
3.36438771764986
30
-2E-16
41
1
10
74.3951263137126
20
3.97764147723043
30
2E-16
41
1
10
73.3585235152444
20
4.2052938501545
30
0
41
1
10
71.5869075108555
20
4.42990126174192
30
0
41
1
10
70.8728291183981
20
4.47509371178108
30
0
41
1
10
70.1609518690667
20
4.47485055716317
30
0
0
SPLINE
5
D8
100
AcDbEntity
8
1
62
256
6
ByLayer
370
18
48
1
60
0
100
AcDbSpline
70
4
71
3
72
48
73
44
40
0
40
0
40
0
40
0
40
0.0619468617879014
40
0.0619468617879014
40
0.0852351696754894
40
0.0852351696754894
40
0.108523477563077
40
0.108523477563077
40
0.155100093338254
40
0.155100093338254
40
0.248253324888608
40
0.248253324888608
40
0.271541632776196
40
0.271541632776196
40
0.294829940663784
40
0.294829940663784
40
0.341406556438961
40
0.341406556438961
40
0.434559787989314
40
0.434559787989314
40
0.457848095876903
40
0.457848095876903
40
0.481136403764491
40
0.481136403764491
40
0.527713019539668
40
0.527713019539668
40
0.620866251090021
40
0.620866251090021
40
0.644154558977609
40
0.644154558977609
40
0.667442866865198
40
0.667442866865198
40
0.714019482640375
40
0.714019482640375
40
0.807172714190731
40
0.807172714190731
40
0.853749329965908
40
0.853749329965908
40
0.900325945741086
40
0.900325945741086
40
0.993479177291441
40
0.993479177291441
40
1
40
1
40
1
40
1
41
1
10
49.3951617899615
20
-3.29099727172377
30
1E-16
41
1
10
48.7055856298661
20
-3.53090203293618
30
0
41
1
10
48.015173539195
20
-3.73966679088335
30
-2E-16
41
1
10
47.058348915163
20
-3.97626616920306
30
-2E-16
41
1
10
46.7959765756938
20
-4.03575385918396
30
0
41
1
10
46.270369533428
20
-4.14358349026091
30
0
41
1
10
46.0084729942675
20
-4.19165812805647
30
0
41
1
10
45.2248023304342
20
-4.31816855745731
30
0
41
1
10
44.7049166610743
20
-4.37882119795256
30
0
41
1
10
43.1481433484103
20
-4.48911310009521
30
0
41
1
10
42.1139656817864
20
-4.46677827994716
30
0
41
1
10
40.8082445078424
20
-4.31836652621345
30
0
41
1
10
40.54644461279
20
-4.28267587217874
30
0
41
1
10
40.0211266733427
20
-4.19927902492739
30
0
41
1
10
39.7583085216473
20
-4.15165688351843
30
0
41
1
10
38.9734574022212
20
-3.99256933027849
30
0
41
1
10
38.4530024944316
20
-3.86470403956682
30
-2E-16
41
1
10
36.8951963421428
20
-3.42165394111689
30
2E-16
41
1
10
35.8611746177955
20
-3.04706601897019
30
2E-16
41
1
10
34.5567589422747
20
-2.50283264725397
30
2E-16
41
1
10
34.2952801626464
20
-2.39019854108793
30
1E-16
41
1
10
33.7707202813012
20
-2.15791013943155
30
1E-16
41
1
10
33.5073408506304
20
-2.03809291042768
30
1E-16
41
1
10
32.721204880617
20
-1.67256638358162
30
1E-16
41
1
10
32.2001182751938
20
-1.42003252926565
30
1E-16
41
1
10
30.6411005931606
20
-0.645269605009617
30
0
41
1
10
29.607129155341
20
-0.106394704506982
30
0
41
1
10
28.3038980824119
20
0.560571398773362
30
0
41
1
10
28.0427164299935
20
0.693637462927029
30
0
41
1
10
27.5188676958091
20
0.958292602878231
30
-1E-16
41
1
10
27.2556013331864
20
1.09019242686085
30
-1E-16
41
1
10
26.4680739059311
20
1.47959957394824
30
-1E-16
41
1
10
25.9462927493991
20
1.73053537219661
30
-1E-16
41
1
10
24.3858782845338
20
2.44942739888299
30
-1E-16
41
1
10
23.3518434616241
20
2.88271776467215
30
-2E-16
41
1
10
21.7892395307117
20
3.43012469629099
30
-2E-16
41
1
10
21.2661389508415
20
3.59572559235397
30
-2E-16
41
1
10
20.2140973817001
20
3.88692847729899
30
2E-16
41
1
10
19.6915552864426
20
4.01063698004435
30
0
41
1
10
18.1295521982796
20
4.3138165035611
30
0
41
1
10
17.0953402926436
20
4.42480666081127
30
0
41
1
10
15.9814801351097
20
4.440290855743
30
0
41
1
10
15.9085781612461
20
4.44083161004539
30
0
41
1
10
15.8356395050725
20
4.44089875432127
30
0
0
SPLINE
5
D9
100
AcDbEntity
8
1
62
256
6
ByLayer
370
18
48
1
60
0
100
AcDbSpline
70
4
71
3
72
8
73
4
40
0
40
0
40
0
40
0
40
1
40
1
40
1
40
1
41
1
10
111.601287845979
20
-1.39869382739198
30
0
41
1
10
111.736456110288
20
-1.01658186502681
30
0
41
1
10
111.867995160154
20
-0.633171151685588
30
0
41
1
10
111.995850253043
20
-0.248442097201092
30
0
0
SPLINE
5
DA
100
AcDbEntity
8
1
62
256
6
ByLayer
370
18
48
1
60
0
100
AcDbSpline
70
4
71
3
72
8
73
4
40
0
40
0
40
0
40
0
40
1
40
1
40
1
40
1
41
1
10
110.429279072332
20
4.31902327393416
30
0
41
1
10
110.431798644697
20
4.31732727604938
30
0
41
1
10
110.434318256751
20
4.31563108515309
30
0
41
1
10
110.436837908796
20
4.31393470131374
30
0
0
SPLINE
5
DB
100
AcDbEntity
8
1
62
256
6
ByLayer
370
18
48
1
60
0
100
AcDbSpline
70
4
71
3
72
14
73
10
40
0
40
0
40
0
40
0
40
0.210546657007058
40
0.210546657007058
40
0.421093314014117
40
0.421093314014117
40
0.842186628028233
40
0.842186628028233
40
1
40
1
40
1
40
1
41
1
10
110.429279072333
20
4.31902327394116
30
0
41
1
10
109.977077709378
20
4.3224336479426
30
0
41
1
10
109.526826712062
20
4.30805678401018
30
0
41
1
10
108.627881250241
20
4.24484164446912
30
0
41
1
10
108.179195306423
20
4.19557725459018
30
0
41
1
10
106.83232209191
20
3.99954543371467
30
0
41
1
10
105.933357911674
20
3.80295165297346
30
2E-16
41
1
10
104.684411478961
20
3.44668138004445
30
-2E-16
41
1
10
104.342980749662
20
3.34095822744905
30
-2E-16
41
1
10
104.001686107479
20
3.22778080579707
30
-2E-16
0
SPLINE
5
DC
100
AcDbEntity
8
1
62
256
6
ByLayer
370
18
48
1
60
0
100
AcDbSpline
70
4
71
3
72
12
73
8
40
0
40
0
40
0
40
0
40
0.169778596138242
40
0.169778596138242
40
0.58488929806912
40
0.58488929806912
40
1
40
1
40
1
40
1
41
1
10
70.2738447578517
20
-0.387948354181333
30
0
41
1
10
70.0899636312237
20
-0.296585145250845
30
0
41
1
10
69.9059327906238
20
-0.204895882717324
30
0
41
1
10
69.2711776256296
20
0.11158061460344
30
0
41
1
10
68.8193098391085
20
0.337229083204164
30
0
41
1
10
67.9108602036288
20
0.786700760879114
30
0
41
1
10
67.4551112631826
20
1.00985727867393
30
-1E-16
41
1
10
67
20
1.22747628434118
30
-1E-16
0
SPLINE
5
DD
100
AcDbEntity
8
1
62
256
6
ByLayer
370
18
48
1
60
0
100
AcDbSpline
70
4
71
3
72
46
73
42
40
0
40
0
40
0
40
0
40
0.0099279249278792
40
0.0099279249278792
40
0.0608404979323724
40
0.0608404979323724
40
0.086296784434619
40
0.086296784434619
40
0.111753070936866
40
0.111753070936866
40
0.21357821694585
40
0.21357821694585
40
0.264490789950342
40
0.264490789950342
40
0.289947076452588
40
0.289947076452588
40
0.315403362954833
40
0.315403362954833
40
0.417228508963816
40
0.417228508963816
40
0.468141081968307
40
0.468141081968307
40
0.519053654972798
40
0.519053654972798
40
0.62087880098178
40
0.62087880098178
40
0.646335087484025
40
0.646335087484025
40
0.671791373986271
40
0.671791373986271
40
0.722703946990761
40
0.722703946990761
40
0.824529092999743
40
0.824529092999743
40
0.849985379501988
40
0.849985379501988
40
0.875441666004233
40
0.875441666004233
40
0.926354239008723
40
0.926354239008723
40
1
40
1
40
1
40
1
41
1
10
22.2163929126391
20
3.28517275888376
30
-2E-16
41
1
10
22.3271184180152
20
3.32354001335162
30
-2E-16
41
1
10
22.4378616686927
20
3.36110772643806
30
-2E-16
41
1
10
23.1167327893485
20
3.58628105260348
30
-2E-16
41
1
10
23.6858008181111
20
3.75300828038976
30
2E-16
41
1
10
24.5441074816974
20
3.96613638175217
30
2E-16
41
1
10
24.831348336558
20
4.03108092127061
30
0
41
1
10
25.4065541274769
20
4.14750246597555
30
0
41
1
10
25.69311685183
20
4.19871239741485
30
0
41
1
10
27.1219896060843
20
4.41957364343273
30
0
41
1
10
28.2527504393166
20
4.48315108218554
30
0
41
1
10
29.9578964520305
20
4.40564337415969
30
0
41
1
10
30.5277293668944
20
4.35105479310908
30
0
41
1
10
31.3881022836725
20
4.22607285841775
30
0
41
1
10
31.676336536817
20
4.17713523604155
30
0
41
1
10
32.2497031909713
20
4.06616760008643
30
0
41
1
10
32.5354363507207
20
4.00406318518191
30
0
41
1
10
33.9608686849554
20
3.66220354603058
30
2E-16
41
1
10
35.0910350164033
20
3.28843325579226
30
-2E-16
41
1
10
36.7981029913007
20
2.61212122576202
30
-2E-16
41
1
10
37.3690139999128
20
2.36729997998384
30
-1E-16
41
1
10
38.5196088487058
20
1.84592628081566
30
-1E-16
41
1
10
39.0909386525234
20
1.57285831159569
30
-1E-16
41
1
10
40.798163897799
20
0.732043687441575
30
0
41
1
10
41.9280995511319
20
0.141832384841621
30
0
41
1
10
43.3527565723246
20
-0.588588324555559
30
0
41
1
10
43.6382974611272
20
-0.734308935923366
30
0
41
1
10
44.2112596783258
20
-1.02370286706986
30
1E-16
41
1
10
44.4993475523949
20
-1.16775136978225
30
1E-16
41
1
10
45.35972270614
20
-1.59167524521771
30
1E-16
41
1
10
45.9294126465301
20
-1.86382143173412
30
1E-16
41
1
10
47.6339544724461
20
-2.63688272174503
30
2E-16
41
1
10
48.7639689456347
20
-3.09484432692878
30
2E-16
41
1
10
50.1914422803261
20
-3.55905762685896
30
2E-16
41
1
10
50.4777125841142
20
-3.64646378733963
30
-2E-16
41
1
10
51.0523074813564
20
-3.80961424212836
30
-2E-16
41
1
10
51.3395546796582
20
-3.88502314970958
30
-2E-16
41
1
10
52.1973174549609
20
-4.09081736748451
30
0
41
1
10
52.7658873302695
20
-4.20126313675311
30
0
41
1
10
54.1541714991614
20
-4.40363178165833
30
0
41
1
10
54.9727925355144
20
-4.46504070072967
30
0
41
1
10
55.7961276069034
20
-4.46586369892225
30
0
0
SPLINE
5
DE
100
AcDbEntity
8
1
62
256
6
ByLayer
370
18
48
1
60
0
100
AcDbSpline
70
4
71
3
72
26
73
22
40
0
40
0
40
0
40
0
40
0.100003731464667
40
0.100003731464667
40
0.196673534950621
40
0.196673534950621
40
0.293343338436574
40
0.293343338436574
40
0.341678240179552
40
0.341678240179552
40
0.39001314192253
40
0.39001314192253
40
0.486682945408483
40
0.486682945408483
40
0.680022552380393
40
0.680022552380393
40
0.776692355866348
40
0.776692355866348
40
0.873362159352303
40
0.873362159352303
40
1
40
1
40
1
40
1
41
1
10
84.7067692363847
20
-4.26535982532869
30
0
41
1
10
84.2417889077996
20
-4.27469872799568
30
0
41
1
10
83.7780832368008
20
-4.26556817054771
30
0
41
1
10
82.8664901121273
20
-4.21180995446377
30
0
41
1
10
82.4184879397212
20
-4.16839880102003
30
0
41
1
10
81.5204088111896
20
-4.04795250443541
30
0
41
1
10
81.070632423621
20
-3.97126872255655
30
0
41
1
10
80.3928679192455
20
-3.83161156083486
30
0
41
1
10
80.1664262275033
20
-3.78099258531213
30
0
41
1
10
79.7122979367487
20
-3.67175486235018
30
-2E-16
41
1
10
79.4852675667782
20
-3.61328214830871
30
2E-16
41
1
10
78.8066161633788
20
-3.42767541195693
30
2E-16
41
1
10
78.3562848808836
20
-3.29010152983011
30
2E-16
41
1
10
77.0085561220638
20
-2.84042074727296
30
2E-16
41
1
10
76.1144478791263
20
-2.49105711470696
30
2E-16
41
1
10
74.7671409515814
20
-1.91410499416276
30
1E-16
41
1
10
74.3170888114148
20
-1.71276700529526
30
1E-16
41
1
10
73.4129578405815
20
-1.29589328052137
30
1E-16
41
1
10
72.9574039633897
20
-1.0798021993316
30
1E-16
41
1
10
71.911978240433
20
-0.575992148703335
30
0
41
1
10
71.3224042590697
20
-0.285766722598112
30
0
41
1
10
70.7337081078053
20
0.003983734420018
30
0
0
SPLINE
5
DF
100
AcDbEntity
8
1
62
256
6
ByLayer
370
18
48
1
60
0
100
AcDbSpline
70
4
71
3
72
24
73
20
40
0
40
0
40
0
40
0
40
0.112362584170149
40
0.112362584170149
40
0.187383501454092
40
0.187383501454092
40
0.262404418738035
40
0.262404418738035
40
0.412446253305921
40
0.412446253305921
40
0.562488087873808
40
0.562488087873808
40
0.637509005157751
40
0.637509005157751
40
0.712529922441694
40
0.712529922441694
40
0.862571757009579
40
0.862571757009579
40
1
40
1
40
1
40
1
41
1
10
67.1020899274625
20
4.24812639460873
30
0
41
1
10
67.1020811042943
20
4.24652668960249
30
0
41
1
10
67.1020719965546
20
4.23372929086094
30
0
41
1
10
67.1020565726764
20
4.19396335439311
30
0
41
1
10
67.1020503312748
20
4.1730918388233
30
0
41
1
10
67.1020377628782
20
4.12121822069776
30
0
41
1
10
67.1020314238571
20
4.09011014207582
30
0
41
1
10
67.1020125993126
20
3.98276675082605
30
0
41
1
10
67.1020002034332
20
3.89209425960601
30
0
41
1
10
67.1019757659435
20
3.67339937165667
30
2E-16
41
1
10
67.1019638330141
20
3.54635211026567
30
-2E-16
41
1
10
67.1019460955188
20
3.33061842172421
30
-2E-16
41
1
10
67.1019402340173
20
3.25484055518297
30
-2E-16
41
1
10
67.1019285129799
20
3.09560020491227
30
-2E-16
41
1
10
67.1019226346204
20
3.01185462177389
30
-2E-16
41
1
10
67.1019049654884
20
2.75104090989296
30
-2E-16
41
1
10
67.10189320736
20
2.56549498821369
30
-2E-16
41
1
10
67.1018696847847
20
2.18837166650414
30
-1E-16
41
1
10
67.1018579764959
20
1.99810668718675
30
-1E-16
41
1
10
67.1018453946918
20
1.79888542186703
30
-1E-16
0
SPLINE
5
E0
100
AcDbEntity
8
1
62
256
6
ByLayer
370
18
48
1
60
0
100
AcDbSpline
70
4
71
3
72
14
73
10
40
0
40
0
40
0
40
0
40
0.25
40
0.25
40
0.5
40
0.5
40
0.75
40
0.75
40
1
40
1
40
1
40
1
41
1
10
110.680938372678
20
0.801559797192567
30
0
41
1
10
110.604363051631
20
0.818842360675433
30
-1E-16
41
1
10
110.525440718331
20
0.825286373319699
30
-1E-16
41
1
10
110.368428902597
20
0.822267375002667
30
-1E-16
41
1
10
110.289973770568
20
0.812514069996041
30
0
41
1
10
110.134498689874
20
0.77753971515935
30
0
41
1
10
110.057464074157
20
0.752614850078174
30
0
41
1
10
109.906059339638
20
0.687752907303292
30
0
41
1
10
109.831663859684
20
0.647676354495871
30
0
41
1
10
109.760195595964
20
0.599950793089818
30
0
0
SPLINE
5
E1
100
AcDbEntity
8
1
62
256
6
ByLayer
370
18
48
1
60
0
100
AcDbSpline
70
4
71
3
72
8
73
4
40
0
40
0
40
0
40
0
40
1
40
1
40
1
40
1
41
1
10
109.768776543901
20
-0.0327437780223079
30
0
41
1
10
109.805447089236
20
-0.0513887130725266
30
0
41
1
10
109.841879436572
20
-0.0689884106812997
30
0
41
1
10
109.87811749383
20
-0.0855692186828492
30
0
0
SPLINE
5
E2
100
AcDbEntity
8
1
62
256
6
ByLayer
370
18
48
1
60
0
100
AcDbSpline
70
4
71
3
72
60
73
56
40
0
40
0
40
0
40
0
40
0.0460087390302384
40
0.0460087390302384
40
0.0920174780604767
40
0.0920174780604767
40
0.138026217090715
40
0.138026217090715
40
0.161030586605834
40
0.161030586605834
40
0.184034956120953
40
0.184034956120953
40
0.230043695151192
40
0.230043695151192
40
0.27605243418143
40
0.27605243418143
40
0.322061173211668
40
0.322061173211668
40
0.345065542726787
40
0.345065542726787
40
0.368069912241906
40
0.368069912241906
40
0.414078651272143
40
0.414078651272143
40
0.46008739030238
40
0.46008739030238
40
0.483091759817499
40
0.483091759817499
40
0.506096129332617
40
0.506096129332617
40
0.552104868362853
40
0.552104868362853
40
0.575109237877972
40
0.575109237877972
40
0.59811360739309
40
0.59811360739309
40
0.644122346423326
40
0.644122346423326
40
0.690131085453562
40
0.690131085453562
40
0.71313545496868
40
0.71313545496868
40
0.736139824483798
40
0.736139824483798
40
0.782148563514034
40
0.782148563514034
40
0.82815730254427
40
0.82815730254427
40
0.874166041574506
40
0.874166041574506
40
0.920174780604742
40
0.920174780604742
40
0.966183519634978
40
0.966183519634978
40
1
40
1
40
1
40
1
41
1
10
67.147871016162
20
4.38169331982863
30
0
41
1
10
67.5921356726545
20
4.42841588088214
30
0
41
1
10
68.0362900278132
20
4.45730012016531
30
0
41
1
10
68.9254808360383
20
4.47995238965663
30
0
41
1
10
69.3706570507978
20
4.47361314172977
30
0
41
1
10
70.259477252121
20
4.42561844201381
30
0
41
1
10
70.7036287173675
20
4.38407808311675
30
0
41
1
10
71.3709134694642
20
4.29598528909361
30
0
41
1
10
71.5935431637274
20
4.26232526626373
30
0
41
1
10
72.0379763253947
20
4.18656660749664
30
0
41
1
10
72.2599353602219
20
4.14443558033611
30
0
41
1
10
72.9261711856191
20
4.0061135225146
30
2E-16
41
1
10
73.3712708718274
20
3.89793189843525
30
2E-16
41
1
10
74.2610400504289
20
3.65146323146763
30
2E-16
41
1
10
74.7046716707717
20
3.51288702551687
30
-2E-16
41
1
10
75.5930532920746
20
3.20905382639734
30
-2E-16
41
1
10
76.0387617075247
20
3.04452359272216
30
-2E-16
41
1
10
76.7055888668555
20
2.78057883585126
30
-2E-16
41
1
10
76.9276790358314
20
2.68964314832624
30
-2E-16
41
1
10
77.3716076390726
20
2.501967453931
30
-2E-16
41
1
10
77.5934145346569
20
2.40516179961173
30
-1E-16
41
1
10
78.2601048803923
20
2.10864475536937
30
-1E-16
41
1
10
78.7049192115191
20
1.90372187355535
30
-1E-16
41
1
10
79.5925992352012
20
1.48025375535366
30
-1E-16
41
1
10
80.0356274540599
20
1.26111072256575
30
-1E-16
41
1
10
80.70116685859
20
0.925215082652869
30
-1E-16
41
1
10
80.9233923828899
20
0.812269116603886
30
0
41
1
10
81.3679678036317
20
0.584405290761481
30
0
41
1
10
81.5897894252073
20
0.469646914677838
30
0
41
1
10
82.2556023190636
20
0.126288493862546
30
0
41
1
10
82.6994096691953
20
-0.102433144246618
30
0
41
1
10
83.3650165656699
20
-0.445247130667155
30
0
41
1
10
83.5868847350645
20
-0.559441217429509
30
0
41
1
10
84.0306895778551
20
-0.787535854395571
30
0
41
1
10
84.2527595050676
20
-0.901704225281975
30
1E-16
41
1
10
84.9191338815126
20
-1.23858670890812
30
1E-16
41
1
10
85.3630452705011
20
-1.45719942064329
30
1E-16
41
1
10
86.2500398344684
20
-1.88296521662156
30
1E-16
41
1
10
86.6929675593398
20
-2.09032504602965
30
1E-16
41
1
10
87.3593779699673
20
-2.38790443830422
30
1E-16
41
1
10
87.5819606980783
20
-2.4846959709154
30
2E-16
41
1
10
88.0263300035002
20
-2.67266748689707
30
2E-16
41
1
10
88.2483090342777
20
-2.76398758727609
30
2E-16
41
1
10
88.9136175225037
20
-3.02996969048451
30
2E-16
41
1
10
89.3559985523841
20
-3.19702542769747
30
2E-16
41
1
10
90.2432128777075
20
-3.50371993840716
30
2E-16
41
1
10
90.6889794007517
20
-3.64339283805407
30
-2E-16
41
1
10
91.5770122485445
20
-3.89325610319565
30
-2E-16
41
1
10
92.0197419938485
20
-4.00367004617027
30
-2E-16
41
1
10
92.9061296467202
20
-4.19201658017002
30
0
41
1
10
93.3499142888144
20
-4.27031603755975
30
0
41
1
10
94.2391332296977
20
-4.39204783659412
30
0
41
1
10
94.682931176021
20
-4.43558561140836
30
0
41
1
10
95.4520258073649
20
-4.48104109374776
30
0
41
1
10
95.7772578312631
20
-4.49084955245854
30
0
41
1
10
96.1031219679191
20
-4.49106436862047
30
0
0
SPLINE
5
E3
100
AcDbEntity
8
1
62
256
6
ByLayer
370
18
48
1
60
0
100
AcDbSpline
70
4
71
3
72
26
73
22
40
0
40
0
40
0
40
0
40
0.0543271648011306
40
0.0543271648011306
40
0.108654329602261
40
0.108654329602261
40
0.162981494403391
40
0.162981494403391
40
0.217308659204522
40
0.217308659204522
40
0.434617318409056
40
0.434617318409056
40
0.651925977613589
40
0.651925977613589
40
0.706253142414722
40
0.706253142414722
40
0.760580307215855
40
0.760580307215855
40
0.869234636818116
40
0.869234636818116
40
1
40
1
40
1
40
1
41
1
10
110.393510686983
20
-4.24741408590262
30
0
41
1
10
110.166675875595
20
-4.23213388678766
30
0
41
1
10
109.939940958862
20
-4.21327577112098
30
0
41
1
10
109.48648349024
20
-4.16604849285053
30
0
41
1
10
109.2597493096
20
-4.13808964042934
30
0
41
1
10
108.806001934446
20
-4.0736376241739
30
0
41
1
10
108.578786226783
20
-4.03709821904903
30
0
41
1
10
108.125955260185
20
-3.95608362535654
30
0
41
1
10
107.900117880473
20
-3.91158461478693
30
0
41
1
10
106.773164729997
20
-3.67000892242234
30
-2E-16
41
1
10
105.878717755401
20
-3.41572037649607
30
2E-16
41
1
10
104.087238566065
20
-2.80589616841343
30
2E-16
41
1
10
103.190265048816
20
-2.45084359013003
30
2E-16
41
1
10
102.056872868532
20
-1.95913241954639
30
1E-16
41
1
10
101.829630997183
20
-1.85842339712133
30
1E-16
41
1
10
101.377117814573
20
-1.6543461262338
30
1E-16
41
1
10
101.15140722885
20
-1.55080002370048
30
1E-16
41
1
10
100.475572182248
20
-1.23633764516916
30
1E-16
41
1
10
100.026754071521
20
-1.02157712165601
30
1E-16
41
1
10
99.0391366232585
20
-0.542177813919182
30
0
41
1
10
98.5006778797449
20
-0.276135095512103
30
0
41
1
10
97.9613465369641
20
-0.0096776657410658
30
0
0
SPLINE
5
E4
100
AcDbEntity
8
1
62
256
6
ByLayer
370
18
48
1
60
0
100
AcDbSpline
70
4
71
3
72
8
73
4
40
0
40
0
40
0
40
0
40
1
40
1
40
1
40
1
41
1
10
111.245361246386
20
-0.473152665027044
30
0
41
1
10
111.095643528046
20
-0.0734983029561533
30
0
41
1
10
110.907245310142
20
0.351574909259711
30
0
41
1
10
110.680938372678
20
0.801559797192567
30
0
0
SPLINE
5
E5
100
AcDbEntity
8
1
62
256
6
ByLayer
370
18
48
1
60
0
100
AcDbSpline
70
4
71
3
72
22
73
18
40
0
40
0
40
0
40
0
40
0.251035425179819
40
0.251035425179819
40
0.376553137769729
40
0.376553137769729
40
0.439311994064686
40
0.439311994064686
40
0.502070850359644
40
0.502070850359644
40
0.753106275539474
40
0.753106275539474
40
0.878623988129389
40
0.878623988129389
40
0.941382844424349
40
0.941382844424349
40
1
40
1
40
1
40
1
41
1
10
109.760195595964
20
0.599950793089846
30
0
41
1
10
108.717615732902
20
1.1375448078318
30
-1E-16
41
1
10
107.685130950724
20
1.65615960127553
30
-1E-16
41
1
10
106.130609463565
20
2.36747009466677
30
-1E-16
41
1
10
105.611565230004
20
2.59364029689968
30
-2E-16
41
1
10
104.828770250778
20
2.91131674612902
30
-2E-16
41
1
10
104.567085170613
20
3.01366066331579
30
-2E-16
41
1
10
104.042164133211
20
3.21036231513139
30
-2E-16
41
1
10
103.780621208311
20
3.30409150042496
30
-2E-16
41
1
10
102.476264984577
20
3.74838369245589
30
2E-16
41
1
10
101.443345659513
20
4.02555495259716
30
2E-16
41
1
10
99.8888855204143
20
4.30586433101368
30
0
41
1
10
99.3699789553496
20
4.37679678898027
30
0
41
1
10
98.587569800715
20
4.4472652551481
30
-1E-16
41
1
10
98.3261090777819
20
4.46478001464467
30
-1E-16
41
1
10
97.8187609389631
20
4.48678815479215
30
0
41
1
10
97.5739022131288
20
4.49200805252749
30
0
41
1
10
97.3299145915631
20
4.49185357999608
30
0
0
SPLINE
5
E6
100
AcDbEntity
8
1
62
256
6
ByLayer
370
18
48
1
60
0
100
AcDbSpline
70
4
71
3
72
46
73
42
40
0
40
0
40
0
40
0
40
0.058879045322925
40
0.058879045322925
40
0.149532695718597
40
0.149532695718597
40
0.240186346114268
40
0.240186346114268
40
0.33083999650994
40
0.33083999650994
40
0.353503409108858
40
0.353503409108858
40
0.376166821707776
40
0.376166821707776
40
0.421493646905612
40
0.421493646905612
40
0.512147297301286
40
0.512147297301286
40
0.534810709900205
40
0.534810709900205
40
0.557474122499124
40
0.557474122499124
40
0.602800947696962
40
0.602800947696962
40
0.693454598092638
40
0.693454598092638
40
0.716118010691557
40
0.716118010691557
40
0.738781423290476
40
0.738781423290476
40
0.784108248488313
40
0.784108248488313
40
0.874761898883988
40
0.874761898883988
40
0.897425311482907
40
0.897425311482907
40
0.920088724081825
40
0.920088724081825
40
0.965415549279663
40
0.965415549279663
40
1
40
1
40
1
40
1
41
1
10
77.4529796943204
20
-2.97801181271495
30
2E-16
41
1
10
76.7766898223696
20
-3.23932179400723
30
2E-16
41
1
10
76.1040256573765
20
-3.4718621322763
30
1E-16
41
1
10
74.3951263137127
20
-3.97764147723046
30
-2E-16
41
1
10
73.3585235152444
20
-4.2052938501545
30
0
41
1
10
71.2569508003703
20
-4.4717335338
30
1E-16
41
1
10
70.220511011881
20
-4.5067876983039
30
0
41
1
10
68.1481344233754
20
-4.38527023733764
30
0
41
1
10
67.1123615895073
20
-4.22861719739072
30
0
41
1
10
65.8003759203009
20
-3.91865088056895
30
-2E-16
41
1
10
65.5376063314717
20
-3.85108792510152
30
-2E-16
41
1
10
65.0146111051324
20
-3.70624100092118
30
-2E-16
41
1
10
64.7538517648495
20
-3.6288387964909
30
-2E-16
41
1
10
63.9731335865044
20
-3.38262776686455
30
2E-16
41
1
10
63.4546057925977
20
-3.19997549325916
30
2E-16
41
1
10
61.8999304775412
20
-2.60386036977036
30
2E-16
41
1
10
60.8646869488615
20
-2.14209921405211
30
1E-16
41
1
10
59.5544052367177
20
-1.51203949393687
30
1E-16
41
1
10
59.2911717144793
20
-1.38325816105575
30
1E-16
41
1
10
58.7673742417377
20
-1.12350608677846
30
1E-16
41
1
10
58.5062683516641
20
-0.992288634099395
30
1E-16
41
1
10
57.7246617991818
20
-0.595937755681774
30
0
41
1
10
57.2057381394402
20
-0.328373585933178
30
0
41
1
10
55.6505237665714
20
0.474627614874123
30
0
41
1
10
54.6157299003643
20
1.01024548478335
30
-1E-16
41
1
10
53.3070674499827
20
1.64512957302608
30
-1E-16
41
1
10
53.0439536630188
20
1.77062291085602
30
-1E-16
41
1
10
52.5192857124777
20
2.01567185701305
30
-1E-16
41
1
10
52.2578009388475
20
2.13520298195925
30
-1E-16
41
1
10
51.4752113034339
20
2.4837751155595
30
-2E-16
41
1
10
50.9558361151263
20
2.70256367040739
30
-2E-16
41
1
10
49.3999249886747
20
3.31122578914537
30
-2E-16
41
1
10
48.3654869500679
20
3.65304283373607
30
2E-16
41
1
10
47.058348915163
20
3.97626616920309
30
2E-16
41
1
10
46.7959765756937
20
4.03575385918396
30
0
41
1
10
46.2703695334279
20
4.14358349026091
30
0
41
1
10
46.0084729942675
20
4.19165812805647
30
0
41
1
10
45.2248023304342
20
4.31816855745731
30
0
41
1
10
44.7049166610743
20
4.37882119795259
30
0
41
1
10
43.7900519263587
20
4.44363613984177
30
0
41
1
10
43.3946459477087
20
4.45773496626512
30
0
41
1
10
42.9989930273669
20
4.45785211498077
30
0
0
SPLINE
5
E7
100
AcDbEntity
8
1
62
256
6
ByLayer
370
18
48
1
60
0
100
AcDbSpline
70
4
71
3
72
22
73
18
40
0
40
0
40
0
40
0
40
0.120050402042064
40
0.120050402042064
40
0.245757487464627
40
0.245757487464627
40
0.497171658309754
40
0.497171658309754
40
0.622878743732316
40
0.622878743732316
40
0.685732286443596
40
0.685732286443596
40
0.748585829154877
40
0.748585829154877
40
0.874292914577438
40
0.874292914577438
40
1
40
1
40
1
40
1
41
1
10
22.2397783896066
20
-3.27218568710413
30
2E-16
41
1
10
21.7421556927915
20
-3.44498792307564
30
2E-16
41
1
10
21.2424685823823
20
-3.60227750036333
30
2E-16
41
1
10
20.2140973817
20
-3.88692847729899
30
-2E-16
41
1
10
19.6915552864426
20
-4.01063698004438
30
0
41
1
10
18.1295521982796
20
-4.3138165035611
30
0
41
1
10
17.0953402926436
20
-4.42480666081127
30
0
41
1
10
15.5338556022555
20
-4.44651345512051
30
0
41
1
10
15.0117480020832
20
-4.42965566312023
30
0
41
1
10
14.2233948628649
20
-4.36748241984117
30
0
41
1
10
13.9601664222324
20
-4.34063912045863
30
0
41
1
10
13.435566145429
20
-4.27525192735936
30
0
41
1
10
13.1737399836942
20
-4.2366761707803
30
0
41
1
10
12.3890359640623
20
-4.10379421087481
30
0
41
1
10
11.8667071001418
20
-3.99251839750224
30
0
41
1
10
10.8209955519886
20
-3.72671628405141
30
-2E-16
41
1
10
10.2974003947662
20
-3.57223292953023
30
2E-16
41
1
10
9.77025331765324
20
-3.39940717294294
30
2E-16
0
SPLINE
5
E8
100
AcDbEntity
8
1
62
256
6
ByLayer
370
18
48
1
60
0
100
AcDbSpline
70
4
71
3
72
8
73
4
40
0
40
0
40
0
40
0
40
1
40
1
40
1
40
1
41
1
10
67.0558278129885
20
1.84709492713372
30
-1E-16
41
1
10
67.023139538127
20
1.86246607246494
30
-1E-16
41
1
10
67.0017248948337
20
1.89443224273438
30
-1E-16
41
1
10
67.0017248948337
20
1.92763267090984
30
-1E-16
0
SPLINE
5
E9
100
AcDbEntity
8
1
62
256
6
ByLayer
370
18
48
1
60
0
100
AcDbSpline
70
4
71
3
72
48
73
44
40
0
40
0
40
0
40
0
40
0.0521728230437111
40
0.0521728230437111
40
0.104345646087422
40
0.104345646087422
40
0.156518469131133
40
0.156518469131133
40
0.208691292174845
40
0.208691292174845
40
0.260864115218556
40
0.260864115218556
40
0.313036938262267
40
0.313036938262267
40
0.365209761305978
40
0.365209761305978
40
0.417382584349689
40
0.417382584349689
40
0.4695554073934
40
0.4695554073934
40
0.495641818915256
40
0.495641818915256
40
0.521728230437111
40
0.521728230437111
40
0.626073876524541
40
0.626073876524541
40
0.678246699568258
40
0.678246699568258
40
0.730419522611974
40
0.730419522611974
40
0.78259234565569
40
0.78259234565569
40
0.834765168699406
40
0.834765168699406
40
0.860851580221266
40
0.860851580221266
40
0.886937991743125
40
0.886937991743125
40
0.939110814786844
40
0.939110814786844
40
0.991283637830563
40
0.991283637830563
40
1
40
1
40
1
40
1
41
1
10
110.141484234418
20
-4.44112517743829
30
0
41
1
10
109.692823901946
20
-4.4032310750134
30
0
41
1
10
109.244370838512
20
-4.34747378897359
30
0
41
1
10
108.345774445542
20
-4.20127743831878
30
0
41
1
10
107.896657161686
20
-4.11096331850979
30
0
41
1
10
106.999119361272
20
-3.89812030608982
30
-2E-16
41
1
10
106.549556084582
20
-3.77534374500297
30
-2E-16
41
1
10
105.65177780647
20
-3.50060561532777
30
2E-16
41
1
10
105.203855227461
20
-3.34899409610503
30
2E-16
41
1
10
104.307893524593
20
-3.02006217675759
30
2E-16
41
1
10
103.859823145606
20
-2.8427725728842
30
2E-16
41
1
10
102.961120503779
20
-2.46585156520547
30
2E-16
41
1
10
102.51233277666
20
-2.26694593139484
30
1E-16
41
1
10
101.616147969366
20
-1.85315834343933
30
1E-16
41
1
10
101.168313372388
20
-1.63818191213989
30
1E-16
41
1
10
100.270917608907
20
-1.19602278995185
30
1E-16
41
1
10
99.8209788720739
20
-0.968626554592021
30
1E-16
41
1
10
98.924051676701
20
-0.509507792204943
30
0
41
1
10
98.4762745600492
20
-0.277283712083232
30
0
41
1
10
97.8038701598516
20
0.0716338540476613
30
0
41
1
10
97.579604907201
20
0.188022217928392
30
0
41
1
10
97.1305350845911
20
0.420424730359144
30
0
41
1
10
96.9055726098609
20
0.536516009984837
30
0
41
1
10
95.7829267094019
20
1.11250877794396
30
-1E-16
41
1
10
94.8891517092224
20
1.56088564231359
30
-1E-16
41
1
10
93.5404930219152
20
2.18792482820382
30
-1E-16
41
1
10
93.0917081355741
20
2.38870935080365
30
-1E-16
41
1
10
92.1952993265547
20
2.7688463654334
30
-2E-16
41
1
10
91.7473832763848
20
2.94843849142256
30
-2E-16
41
1
10
90.8497424034163
20
3.283016361108
30
-2E-16
41
1
10
90.3996609188394
20
3.43800264481882
30
-2E-16
41
1
10
89.5024659513284
20
3.71803609219609
30
2E-16
41
1
10
89.0545733629203
20
3.84350497849482
30
2E-16
41
1
10
88.3819747634595
20
4.00797584078276
30
2E-16
41
1
10
88.1576405191798
20
4.0588389803419
30
0
41
1
10
87.7084141673073
20
4.15236590799324
30
0
41
1
10
87.4833887623007
20
4.1950483691086
30
0
41
1
10
86.8096792916384
20
4.31002941027623
30
0
41
1
10
86.361607303828
20
4.36943085304142
30
0
41
1
10
85.4651370967719
20
4.45270709261652
30
-1E-16
41
1
10
85.0167144679538
20
4.47658193197347
30
0
41
1
10
84.4918226027837
20
4.48332258697215
30
0
41
1
10
84.4167133199941
20
4.48378026733167
30
0
41
1
10
84.3416305308746
20
4.48373204988718
30
0
0
SPLINE
5
EA
100
AcDbEntity
8
1
62
256
6
ByLayer
370
18
48
1
60
0
100
AcDbSpline
70
4
71
3
72
30
73
26
40
0
40
0
40
0
40
0
40
0.125000000000007
40
0.125000000000007
40
0.187500000000011
40
0.187500000000011
40
0.250000000000014
40
0.250000000000014
40
0.312500000000018
40
0.312500000000018
40
0.375000000000022
40
0.375000000000022
40
0.437500000000025
40
0.437500000000025
40
0.500000000000029
40
0.500000000000029
40
0.562500000000033
40
0.562500000000033
40
0.625000000000036
40
0.625000000000036
40
0.750000000000024
40
0.750000000000024
40
0.875000000000012
40
0.875000000000012
40
1
40
1
40
1
40
1
41
1
10
111.937247202762
20
0.0541724933441117
30
0
41
1
10
111.915464332876
20
-0.0176486739021584
30
0
41
1
10
111.890420466975
20
-0.0878278502543992
30
0
41
1
10
111.847779017112
20
-0.190456590194827
30
0
41
1
10
111.832576796555
20
-0.224487522970719
30
0
41
1
10
111.801160602501
20
-0.289831221593886
30
0
41
1
10
111.784938929768
20
-0.321212877837695
30
0
41
1
10
111.75149218039
20
-0.381315650434232
30
0
41
1
10
111.734267792613
20
-0.41003851352599
30
0
41
1
10
111.698764129496
20
-0.464588120612262
30
0
41
1
10
111.680526642258
20
-0.490291175548009
30
0
41
1
10
111.644466304267
20
-0.536543390322976
30
0
41
1
10
111.626461014155
20
-0.55738472700142
30
0
41
1
10
111.590476228849
20
-0.594403060630555
30
0
41
1
10
111.572332741556
20
-0.610681467368892
30
0
41
1
10
111.537212326641
20
-0.637373963974653
30
0
41
1
10
111.520150973791
20
-0.647921129583835
30
0
41
1
10
111.486895115445
20
-0.663636504082888
30
0
41
1
10
111.470579549312
20
-0.668806188197692
30
0
41
1
10
111.423934063304
20
-0.676060715369488
30
0
41
1
10
111.3955234476
20
-0.670126979905064
30
0
41
1
10
111.343875008167
20
-0.639988285473521
30
0
41
1
10
111.321134167833
20
-0.616268554000641
30
0
41
1
10
111.279965864356
20
-0.554600286422215
30
0
41
1
10
111.261600580538
20
-0.516501714177139
30
0
41
1
10
111.245361246386
20
-0.473152665027158
30
0
0
SPLINE
5
EB
100
AcDbEntity
8
1
62
256
6
ByLayer
370
18
48
1
60
0
100
AcDbSpline
70
4
71
3
72
20
73
16
40
0
40
0
40
0
40
0
40
0.499999999999974
40
0.499999999999974
40
0.562499999999974
40
0.562499999999974
40
0.624999999999973
40
0.624999999999973
40
0.749999999999982
40
0.749999999999982
40
0.812499999999987
40
0.812499999999987
40
0.874999999999991
40
0.874999999999991
40
1
40
1
40
1
40
1
41
1
10
110.436837908795
20
-4.31393470131385
30
0
41
1
10
110.614435849285
20
-3.81372420804931
30
0
41
1
10
110.789189995789
20
-3.30628851294506
30
0
41
1
10
110.992277063121
20
-2.73799605212622
30
0
41
1
10
111.014835235745
20
-2.6747033551672
30
0
41
1
10
111.060733842735
20
-2.54918401427918
30
0
41
1
10
111.084073814368
20
-2.48696999637011
30
0
41
1
10
111.15556352498
20
-2.30209745477555
30
0
41
1
10
111.205185133199
20
-2.1812062847375
30
0
41
1
10
111.283625764148
20
-2.00383438285454
30
0
41
1
10
111.310438475826
20
-1.94536945712164
30
0
41
1
10
111.365559425691
20
-1.82982452345772
30
0
41
1
10
111.393953048053
20
-1.7725941261229
30
0
41
1
10
111.480293265183
20
-1.60554201475304
30
0
41
1
10
111.539738744603
20
-1.49958889633012
30
0
41
1
10
111.601287845979
20
-1.3986938273913
30
0
0
SPLINE
5
EC
100
AcDbEntity
8
1
62
256
6
ByLayer
370
18
48
1
60
0
100
AcDbSpline
70
4
71
3
72
36
73
32
40
0
40
0
40
0
40
0
40
0.327400022659674
40
0.327400022659674
40
0.552410461979781
40
0.552410461979781
40
0.702371815247061
40
0.702371815247061
40
0.802264486631007
40
0.802264486631007
40
0.868831736722786
40
0.868831736722786
40
0.913208303610667
40
0.913208303610667
40
0.942805337398941
40
0.942805337398941
40
0.96258834290762
40
0.96258834290762
40
0.975832927902257
40
0.975832927902257
40
0.984560592812496
40
0.984560592812496
40
0.990280007040638
40
0.990280007040638
40
0.994099146436191
40
0.994099146436191
40
0.996679124416683
40
0.996679124416683
40
0.999215828477683
40
0.999215828477683
40
1
40
1
40
1
40
1
41
1
10
110.15775043312
20
4.49902923182037
30
0
41
1
10
110.187301845656
20
4.47972994327631
30
0
41
1
10
110.21688253701
20
4.46031336884806
30
0
41
1
10
110.266830199898
20
4.42736730874208
30
0
41
1
10
110.287183504512
20
4.41389717634641
30
0
41
1
10
110.32112920677
20
4.3913569251977
30
0
41
1
10
110.334713268686
20
4.38231712065914
30
0
41
1
10
110.357366636675
20
4.36720921660566
30
0
41
1
10
110.366429111806
20
4.36115659739286
30
0
41
1
10
110.38154190539
20
4.35104881427722
30
0
41
1
10
110.387588513543
20
4.34700089832168
30
0
41
1
10
110.39767160038
20
4.34024449223188
30
0
41
1
10
110.401707287103
20
4.33753860037726
30
0
41
1
10
110.408432643217
20
4.33302663517495
30
0
41
1
10
110.411124189862
20
4.33122018136322
30
0
41
1
10
110.415596016687
20
4.32821790479386
30
0
41
1
10
110.417377693428
20
4.32702152548532
30
0
41
1
10
110.42034838121
20
4.32502617234536
30
0
41
1
10
110.421543254157
20
4.32422339684945
30
0
41
1
10
110.423548817106
20
4.32287546992129
30
0
41
1
10
110.42435155972
20
4.32233582795314
30
0
41
1
10
110.425691045616
20
4.32143516351718
30
0
41
1
10
110.426225207205
20
4.32107593498915
30
0
41
1
10
110.427110297374
20
4.32048072641467
30
0
41
1
10
110.427463413815
20
4.32024326673579
30
0
41
1
10
110.428044556525
20
4.31985253566512
30
0
41
1
10
110.428276468544
20
4.31969662807373
30
0
41
1
10
110.428720007156
20
4.3193985446714
30
0
41
1
10
110.428936426181
20
4.31925313888036
30
0
41
1
10
110.429177837054
20
4.31909114011526
30
0
41
1
10
110.429231834646
20
4.31905492283315
30
0
41
1
10
110.42927907233
20
4.31902327393561
30
0
0
SPLINE
5
ED
100
AcDbEntity
8
1
62
256
6
ByLayer
370
18
48
1
60
0
100
AcDbSpline
70
4
71
3
72
34
73
30
40
0
40
0
40
0
40
0
40
0.0541178775036603
40
0.0541178775036603
40
0.121680886253397
40
0.121680886253397
40
0.189243895003133
40
0.189243895003133
40
0.256806903752872
40
0.256806903752872
40
0.32436991250261
40
0.32436991250261
40
0.391932921252349
40
0.391932921252349
40
0.425714425627218
40
0.425714425627218
40
0.459495930002087
40
0.459495930002087
40
0.594621947501566
40
0.594621947501566
40
0.729747965001044
40
0.729747965001044
40
0.797310973750783
40
0.797310973750783
40
0.864873982500522
40
0.864873982500522
40
0.932436991250261
40
0.932436991250261
40
1
40
1
40
1
40
1
41
1
10
86.9907978680131
20
-4.27708444004296
30
0
41
1
10
86.6313389538869
20
-4.33296789212449
30
0
41
1
10
86.2724079045183
20
-4.3777168958886
30
0
41
1
10
85.4651370967719
20
-4.45270709261652
30
1E-16
41
1
10
85.0167144679538
20
-4.47658193197347
30
0
41
1
10
84.1172085769572
20
-4.4881333757713
30
0
41
1
10
83.6685174508531
20
-4.47573543171387
30
0
41
1
10
82.771910710189
20
-4.41517334538801
30
0
41
1
10
82.3237619166025
20
-4.36704723052404
30
0
41
1
10
81.425607830843
20
-4.23594557717897
30
0
41
1
10
80.9755951239318
20
-4.15265620984366
30
0
41
1
10
80.0783098378333
20
-3.95403753986898
30
-2E-16
41
1
10
79.6302680311338
20
-3.83856363357589
30
-2E-16
41
1
10
78.9574090357745
20
-3.64278461853417
30
-2E-16
41
1
10
78.7329825524812
20
-3.57377308360506
30
2E-16
41
1
10
78.283590265455
20
-3.42850907041677
30
2E-16
41
1
10
78.0585123471526
20
-3.35221044895189
30
2E-16
41
1
10
76.9354700871655
20
-2.95486092864678
30
2E-16
41
1
10
76.0410042306029
20
-2.58558790429811
30
2E-16
41
1
10
74.2416406453824
20
-1.77222153500369
30
1E-16
41
1
10
73.3467338093484
20
-1.33200904526535
30
1E-16
41
1
10
71.9991976134651
20
-0.648970206432807
30
0
41
1
10
71.5489870503205
20
-0.417117876310186
30
0
41
1
10
70.6507411145795
20
0.046863619916536
30
0
41
1
10
70.2018996707646
20
0.279332540908683
30
0
41
1
10
69.3026231260172
20
0.741040561085413
30
0
41
1
10
68.8528880654638
20
0.969850061568991
30
-1E-16
41
1
10
67.9547613430732
20
1.41694170975467
30
-1E-16
41
1
10
67.5057884171077
20
1.63550805482109
30
-1E-16
41
1
10
67.0558278129886
20
1.84709492713372
30
-1E-16
0
SPLINE
5
EE
100
AcDbEntity
8
1
62
256
6
ByLayer
370
18
48
1
60
0
100
AcDbSpline
70
4
71
3
72
26
73
22
40
0
40
0
40
0
40
0
40
0.158629132794571
40
0.158629132794571
40
0.25470952215609
40
0.25470952215609
40
0.350789911517608
40
0.350789911517608
40
0.542950690240643
40
0.542950690240643
40
0.63903107960216
40
0.63903107960216
40
0.687071274282919
40
0.687071274282919
40
0.735111468963678
40
0.735111468963678
40
0.831191858325195
40
0.831191858325195
40
0.927272247686712
40
0.927272247686712
40
1
40
1
40
1
40
1
41
1
10
70.2783509464082
20
0.238567313272171
30
0
41
1
10
71.0198876662735
20
-0.12495832657271
30
0
41
1
10
71.7618249811077
20
-0.491395407939535
30
0
41
1
10
72.9615059669644
20
-1.06844338756125
30
1E-16
41
1
10
73.4170244897432
20
-1.28414732729999
30
1E-16
41
1
10
74.3211135514764
20
-1.70036333747544
30
1E-16
41
1
10
74.7711549730213
20
-1.90142368757492
30
1E-16
41
1
10
76.1184345004242
20
-2.47771440070409
30
2E-16
41
1
10
77.0125364206968
20
-2.82685514869186
30
2E-16
41
1
10
78.3602321247675
20
-3.27652448174621
30
2E-16
41
1
10
78.8105459057154
20
-3.41414739022662
30
2E-16
41
1
10
79.4891591781005
20
-3.59990979018548
30
2E-16
41
1
10
79.7161723975338
20
-3.65844762642385
30
-2E-16
41
1
10
80.1702735344382
20
-3.76784585532363
30
0
41
1
10
80.3967045393189
20
-3.81855973422404
30
0
41
1
10
81.0744411133427
20
-3.95854391108293
30
0
41
1
10
81.5242094320719
20
-4.03549783903054
30
0
41
1
10
82.4222665818311
20
-4.15658979555769
30
0
41
1
10
82.8702607933585
20
-4.20036660158908
30
0
41
1
10
83.6574834535467
20
-4.24751814808025
30
0
41
1
10
83.9967408198908
20
-4.25811253353663
30
0
41
1
10
84.3365216022474
20
-4.25888086336241
30
0
0
SPLINE
5
EF
100
AcDbEntity
8
1
62
256
6
ByLayer
370
18
48
1
60
0
100
AcDbSpline
70
4
71
3
72
8
73
4
40
0
40
0
40
0
40
0
40
1
40
1
40
1
40
1
41
1
10
110.429279072331
20
-4.31902327393433
30
0
41
1
10
110.431798644697
20
-4.31732727604953
30
0
41
1
10
110.434318256751
20
-4.3156310851532
30
0
41
1
10
110.436837908795
20
-4.3139347013138
30
0
0
SPLINE
5
F0
100
AcDbEntity
8
1
62
256
6
ByLayer
370
18
48
1
60
0
100
AcDbSpline
70
4
71
3
72
8
73
4
40
0
40
0
40
0
40
0
40
1
40
1
40
1
40
1
41
1
10
111.995850253035
20
0.248442097224228
30
0
41
1
10
112.001390598739
20
0.0825940207098483
30
0
41
1
10
112.001375918726
20
-0.0830334611453623
30
0
41
1
10
111.995850253036
20
-0.2484420972078
30
0
0
SPLINE
5
F1
100
AcDbEntity
8
1
62
256
6
ByLayer
370
18
48
1
60
0
100
AcDbSpline
70
4
71
3
72
8
73
4
40
0
40
0
40
0
40
0
40
1
40
1
40
1
40
1
41
1
10
67.1478710161619
20
4.38169331982837
30
0
41
1
10
67.1475019602358
20
4.33714537710762
30
0
41
1
10
67.1471293268338
20
4.29259825727428
30
0
41
1
10
67.1467531141921
20
4.24805199548359
30
0
0
SPLINE
5
F2
100
AcDbEntity
8
1
62
256
6
ByLayer
370
18
48
1
60
0
100
AcDbSpline
70
4
71
3
72
64
73
60
40
0
40
0
40
0
40
0
40
0.0624999999999981
40
0.0624999999999981
40
0.124999999999996
40
0.124999999999996
40
0.187499999999994
40
0.187499999999994
40
0.218749999999993
40
0.218749999999993
40
0.249999999999991
40
0.249999999999991
40
0.28124999999999
40
0.28124999999999
40
0.312499999999988
40
0.312499999999988
40
0.343749999999987
40
0.343749999999987
40
0.374999999999985
40
0.374999999999985
40
0.390624999999984
40
0.390624999999984
40
0.406249999999984
40
0.421874999999983
40
0.421874999999983
40
0.437499999999983
40
0.437499999999983
40
0.468749999999981
40
0.468749999999981
40
0.48437499999998
40
0.48437499999998
40
0.499999999999979
40
0.499999999999979
40
0.531249999999978
40
0.531249999999978
40
0.562499999999976
40
0.562499999999976
40
0.624999999999973
40
0.624999999999973
40
0.68749999999997
40
0.68749999999997
40
0.695312499999969
40
0.69921874999997
40
0.69921874999997
40
0.70312499999997
40
0.70312499999997
40
0.70703124999997
40
0.70703124999997
40
0.71093749999997
40
0.71093749999997
40
0.718749999999971
40
0.718749999999971
40
0.749999999999974
40
0.749999999999974
40
0.874999999999988
40
0.874999999999988
40
0.937499999999994
40
0.937499999999994
40
1
40
1
40
1
40
1
41
1
10
9.77036041248044
20
-3.39943447429931
30
2E-16
41
1
10
9.515849624624
20
-3.31556430486066
30
2E-16
41
1
10
9.26466387778655
20
-3.22441812022828
30
2E-16
41
1
10
8.77018974491065
20
-3.0243074358128
30
2E-16
41
1
10
8.52688342031539
20
-2.91538724173583
30
2E-16
41
1
10
8.05016942947438
20
-2.67459468983887
30
2E-16
41
1
10
7.81671314378397
20
-2.54284213852179
30
2E-16
41
1
10
7.47669568800464
20
-2.32107931282511
30
1E-16
41
1
10
7.36530249602791
20
-2.24320975265917
30
1E-16
41
1
10
7.14906305469617
20
-2.07929516278887
30
1E-16
41
1
10
7.04396190795012
20
-1.99310489632293
30
1E-16
41
1
10
6.84119720250041
20
-1.81023240424665
30
1E-16
41
1
10
6.74312985771539
20
-1.71308140032127
30
1E-16
41
1
10
6.55966348434109
20
-1.50874966033675
30
1E-16
41
1
10
6.47400234594832
20
-1.40144755343027
30
1E-16
41
1
10
6.31801978738278
20
-1.17383397429822
30
1E-16
41
1
10
6.24745946789449
20
-1.05317529851175
30
1E-16
41
1
10
6.12781141722519
20
-0.795911098675703
30
0
41
1
10
6.08032229463251
20
-0.662722862663259
30
0
41
1
10
6.03124435216421
20
-0.454757364336416
30
0
41
1
10
6.01854700232161
20
-0.383578106552534
30
0
41
1
10
6.00170327401491
20
-0.240627041575522
30
0
41
1
10
5.99337833977813
20
-0.0978544016777221
30
0
41
1
10
6.00193506693833
20
0.0445642453078676
30
0
41
1
10
6.01892987372131
20
0.186805671368319
30
0
41
1
10
6.03178189149895
20
0.258319816959642
30
0
41
1
10
6.08192169462734
20
0.468156737330162
30
0
41
1
10
6.13042774319069
20
0.602023369399831
30
0
41
1
10
6.22187206778378
20
0.795379919170443
30
0
41
1
10
6.25547823670723
20
0.858480681790923
30
-1E-16
41
1
10
6.32698175195065
20
0.98013956667117
30
-1E-16
41
1
10
6.36502995721301
20
1.03902982902173
30
-1E-16
41
1
10
6.48515267539679
20
1.21066489414736
30
-1E-16
41
1
10
6.57316160826574
20
1.31841129474171
30
-1E-16
41
1
10
6.76171863342884
20
1.52340047894935
30
-1E-16
41
1
10
6.86210809114093
20
1.62031401362961
30
-1E-16
41
1
10
7.17214385369252
20
1.89290739973296
30
-1E-16
41
1
10
7.39265621242762
20
2.0531854358475
30
-1E-16
41
1
10
7.85206232269789
20
2.34576927755205
30
-1E-16
41
1
10
8.09164964793905
20
2.4780664360535
30
-2E-16
41
1
10
8.36695012941539
20
2.61410356710331
30
-2E-16
41
1
10
8.41295587536808
20
2.63650784523514
30
-2E-16
41
1
10
8.45913904318874
20
2.65852422726581
30
-2E-16
41
1
10
8.48996583792393
20
2.67311678933294
30
-2E-16
41
1
10
8.50521472738265
20
2.68114354975322
30
-2E-16
41
1
10
8.53923330114065
20
2.68933073109574
30
-2E-16
41
1
10
8.55730191786219
20
2.69027509758573
30
-2E-16
41
1
10
8.59248616793386
20
2.6884703806692
30
-2E-16
41
1
10
8.60980804868191
20
2.68503087577693
30
-2E-16
41
1
10
8.66122194073199
20
2.67346301942302
30
-2E-16
41
1
10
8.6954693608844
20
2.66565094052072
30
-2E-16
41
1
10
8.86653457920468
20
2.62602016925987
30
-2E-16
41
1
10
9.00284914269483
20
2.59256383123966
30
-2E-16
41
1
10
9.68169191446447
20
2.41637611825561
30
-1E-16
41
1
10
10.2144439894176
20
2.24699635669046
30
-1E-16
41
1
10
11.0001406194224
20
1.95084933367468
30
-1E-16
41
1
10
11.2600547264609
20
1.84506280846031
30
-1E-16
41
1
10
11.7749800762233
20
1.62114604040249
30
-1E-16
41
1
10
12.0301491499633
20
1.5029478674054
30
-1E-16
41
1
10
12.2836121214409
20
1.37924695426952
30
-1E-16
0
SPLINE
5
F3
100
AcDbEntity
8
1
62
256
6
ByLayer
370
18
48
1
60
0
100
AcDbSpline
70
4
71
3
72
20
73
16
40
0
40
0
40
0
40
0
40
0.5
40
0.5
40
0.562500000000002
40
0.562500000000002
40
0.625000000000004
40
0.625000000000004
40
0.749999999999999
40
0.749999999999999
40
0.812499999999996
40
0.812499999999996
40
0.874999999999994
40
0.874999999999994
40
1
40
1
40
1
40
1
41
1
10
110.436837908795
20
4.31393470131374
30
0
41
1
10
110.614435849285
20
3.81372420804902
30
0
41
1
10
110.789189995789
20
3.3062885129446
30
0
41
1
10
110.992277063121
20
2.73799605212557
30
0
41
1
10
111.014835235745
20
2.67470335516651
30
0
41
1
10
111.060733842735
20
2.54918401427861
30
0
41
1
10
111.084073814368
20
2.4869699963696
30
0
41
1
10
111.155563524981
20
2.30209745477509
30
0
41
1
10
111.2051851332
20
2.18120628473713
30
0
41
1
10
111.283625764148
20
2.00383438285414
30
0
41
1
10
111.310438475826
20
1.94536945712116
30
0
41
1
10
111.365559425691
20
1.82982452345718
30
0
41
1
10
111.393953048053
20
1.7725941261225
30
0
41
1
10
111.480293265183
20
1.60554201475293
30
0
41
1
10
111.539738744603
20
1.49958889633012
30
0
41
1
10
111.601287845979
20
1.39869382739133
30
0
0
SPLINE
5
F4
100
AcDbEntity
8
1
62
256
6
ByLayer
370
18
48
1
60
0
100
AcDbSpline
70
4
71
3
72
10
73
6
40
0
40
0
40
0
40
0
40
0.760461178006217
40
0.760461178006217
40
1
40
1
40
1
40
1
41
1
10
67.147871016162
20
-4.38169331982863
30
0
41
1
10
67.5921356726545
20
-4.42841588088214
30
0
41
1
10
68.0362900278132
20
-4.45730012016531
30
0
41
1
10
68.6209292138374
20
-4.47219389130476
30
0
41
1
10
68.7610306235824
20
-4.47400877448251
30
0
41
1
10
68.9011475652495
20
-4.47407113199179
30
0
0
SPLINE
5
F5
100
AcDbEntity
8
1
62
256
6
ByLayer
370
18
48
1
60
0
100
AcDbSpline
70
4
71
3
72
36
73
32
40
0
40
0
40
0
40
0
40
0.0240854132370568
40
0.0240854132370568
40
0.105411628800628
40
0.105411628800628
40
0.186737844364199
40
0.186737844364199
40
0.227400952145987
40
0.227400952145987
40
0.268064059927774
40
0.268064059927774
40
0.349390275491353
40
0.349390275491353
40
0.430716491054933
40
0.430716491054933
40
0.512042706618512
40
0.512042706618512
40
0.593368922182091
40
0.593368922182091
40
0.674695137745671
40
0.674695137745671
40
0.75602135330925
40
0.75602135330925
40
0.796684461091042
40
0.796684461091042
40
0.837347568872833
40
0.837347568872833
40
0.918673784436417
40
0.918673784436417
40
1
40
1
40
1
40
1
41
1
10
93.3997106982213
20
4.27255740440322
30
0
41
1
10
93.5312467590043
20
4.29360099491782
30
0
41
1
10
93.6628490864524
20
4.31315601109773
30
0
41
1
10
94.2391332296977
20
4.39204783659414
30
0
41
1
10
94.682931176021
20
4.43558561140836
30
0
41
1
10
95.569494957521
20
4.48798382441149
30
0
41
1
10
96.0117018985147
20
4.49669413424965
30
0
41
1
10
96.6779815866898
20
4.48297589762745
30
0
41
1
10
96.9006190031429
20
4.47397382689465
30
0
41
1
10
97.3450386163172
20
4.44726343619766
30
-1E-16
41
1
10
97.5670191434364
20
4.42955887091043
30
0
41
1
10
98.2322825740631
20
4.36340130826312
30
0
41
1
10
98.6744611206962
20
4.30155972171985
30
0
41
1
10
99.5615847955536
20
4.14504689284291
30
0
41
1
10
100.006857982551
20
4.05001205388561
30
0
41
1
10
100.894647418281
20
3.82913951436885
30
2E-16
41
1
10
101.337018164083
20
3.70266065159279
30
2E-16
41
1
10
102.223485374099
20
3.4227301482106
30
-2E-16
41
1
10
102.667596959919
20
3.26897768229708
30
-2E-16
41
1
10
103.55656415058
20
2.93541367406687
30
-2E-16
41
1
10
103.999217905707
20
2.75589992577659
30
-2E-16
41
1
10
104.885631227321
20
2.37880914410826
30
-1E-16
41
1
10
105.329085545024
20
2.18086697888458
30
-1E-16
41
1
10
105.994947298862
20
1.87023012982485
30
-1E-16
41
1
10
106.217139360716
20
1.76420368186504
30
-1E-16
41
1
10
106.660887763112
20
1.54893383594512
30
-1E-16
41
1
10
106.882752371339
20
1.44004895472003
30
-1E-16
41
1
10
107.548530940694
20
1.11009640592894
30
-1E-16
41
1
10
107.992564065173
20
0.885621052212059
30
-1E-16
41
1
10
108.882010731292
20
0.429553437835153
30
0
41
1
10
109.325618021862
20
0.198810305744871
30
0
41
1
10
109.768776543901
20
-0.0327437780223079
30
0
0
SPLINE
5
F6
100
AcDbEntity
8
1
62
256
6
ByLayer
370
18
48
1
60
0
100
AcDbSpline
70
4
71
3
72
40
73
36
40
0
40
0
40
0
40
0
40
0.0240278180359499
40
0.0240278180359499
40
0.0858686000430632
40
0.0858686000430632
40
0.147709382050177
40
0.147709382050177
40
0.178629773053733
40
0.178629773053733
40
0.20955016405729
40
0.20955016405729
40
0.333231728071523
40
0.333231728071523
40
0.456913292085756
40
0.456913292085756
40
0.487833683089312
40
0.487833683089312
40
0.518754074092869
40
0.518754074092869
40
0.580594856099986
40
0.580594856099986
40
0.642435638107102
40
0.642435638107102
40
0.67335602911066
40
0.67335602911066
40
0.704276420114218
40
0.704276420114218
40
0.827957984128453
40
0.827957984128453
40
0.88979876613557
40
0.88979876613557
40
0.951639548142687
40
0.951639548142687
40
1
40
1
40
1
40
1
41
1
10
98.7366859919118
20
-1.00909261172512
30
1E-16
41
1
10
98.559891271877
20
-0.923341966102242
30
1E-16
41
1
10
98.3830288096543
20
-0.836926765444588
30
1E-16
41
1
10
97.7509792216364
20
-0.52641842026037
30
0
41
1
10
97.295815394119
20
-0.299633129424222
30
0
41
1
10
96.385470700706
20
0.154481924804884
30
0
41
1
10
95.9301423528314
20
0.381772705540271
30
0
41
1
10
95.2479124968592
20
0.718688717633313
30
0
41
1
10
95.0205820700484
20
0.830370116826884
30
-1E-16
41
1
10
94.5657742823449
20
1.05183979650735
30
-1E-16
41
1
10
94.338033669904
20
1.1617616058644
30
-1E-16
41
1
10
93.2017139290614
20
1.70349074884507
30
-1E-16
41
1
10
92.3025274642988
20
2.1110409922718
30
-1E-16
41
1
10
90.5065665068457
20
2.84483584110447
30
-2E-16
41
1
10
89.6099205766023
20
3.17083735723887
30
-2E-16
41
1
10
88.4799931115345
20
3.51131134057602
30
-2E-16
41
1
10
88.2535515167979
20
3.57604413139512
30
-2E-16
41
1
10
87.799460495067
20
3.69829525538495
30
2E-16
41
1
10
87.571627899858
20
3.75585208017034
30
2E-16
41
1
10
86.8898063922492
20
3.91630517621118
30
0
41
1
10
86.4363641936965
20
4.00730111096968
30
0
41
1
10
85.5291872359556
20
4.15527313308712
30
0
41
1
10
85.0754726922341
20
4.21244997800846
30
0
41
1
10
84.393127834183
20
4.27218146199991
30
0
41
1
10
84.1657077596869
20
4.28767937333714
30
0
41
1
10
83.7125024988769
20
4.30963031302548
30
0
41
1
10
83.4864437092993
20
4.31610984598862
30
0
41
1
10
82.3581827121895
20
4.32656656895972
30
0
41
1
10
81.4619793715975
20
4.26496571489213
30
0
41
1
10
80.114759814028
20
4.07164992983087
30
0
41
1
10
79.6651809164425
20
3.99019259775034
30
0
41
1
10
78.7628043292531
20
3.79497279880027
30
2E-16
41
1
10
78.3097101072496
20
3.68121241810442
30
2E-16
41
1
10
77.49887988462
20
3.45109678997184
30
0
41
1
10
77.1438536915461
20
3.34123269718046
30
-1E-16
41
1
10
76.7890758225292
20
3.22332377382364
30
-1E-16
0
SPLINE
5
F7
100
AcDbEntity
8
1
62
256
6
ByLayer
370
18
48
1
60
0
100
AcDbSpline
70
4
71
3
72
10
73
6
40
0
40
0
40
0
40
0
40
0.5
40
0.5
40
1
40
1
40
1
40
1
41
1
10
67.0017248948338
20
-4.39857465961668
30
0
41
1
10
67.0017248948338
20
-4.3923092791525
30
0
41
1
10
67.0204222449356
20
-4.38583729137613
30
0
41
1
10
67.0793085789571
20
-4.37871917761098
30
0
41
1
10
67.11725301985
20
-4.37847327704307
30
0
41
1
10
67.147871016162
20
-4.38169331982863
30
0
0
SPLINE
5
F8
100
AcDbEntity
8
1
62
256
6
ByLayer
370
18
48
1
60
0
100
AcDbSpline
70
4
71
3
72
8
73
4
40
0
40
0
40
0
40
0
40
1
40
1
40
1
40
1
41
1
10
110.141484234417
20
-4.44112517743679
30
0
41
1
10
110.218576775413
20
-4.39698150550279
30
0
41
1
10
110.295856544071
20
-4.35197322420345
30
0
41
1
10
110.373357206848
20
-4.30612557677247
30
0
0
SPLINE
5
F9
100
AcDbEntity
8
1
62
256
6
ByLayer
370
18
48
1
60
0
100
AcDbSpline
70
4
71
3
72
10
73
6
40
0
40
0
40
0
40
0
40
0.5
40
0.5
40
1
40
1
40
1
40
1
41
1
10
67.0017248948338
20
4.39857465961668
30
0
41
1
10
67.0017248948338
20
4.39230927915247
30
0
41
1
10
67.0204222449356
20
4.38583729137616
30
0
41
1
10
67.0793085789571
20
4.37871917761098
30
0
41
1
10
67.11725301985
20
4.37847327704307
30
0
41
1
10
67.147871016162
20
4.38169331982863
30
0
0
SPLINE
5
FA
100
AcDbEntity
8
1
62
256
6
ByLayer
370
18
48
1
60
0
100
AcDbSpline
70
4
71
3
72
8
73
4
40
0
40
0
40
0
40
0
40
1
40
1
40
1
40
1
41
1
10
110.680938372678
20
0.801559797192539
30
0
41
1
10
110.659759955514
20
0.810018369973164
30
0
41
1
10
110.63930792824
20
0.817440066918891
30
-1E-16
41
1
10
110.619654837306
20
0.823721332539321
30
-1E-16
0
SPLINE
5
FB
100
AcDbEntity
8
1
62
256
6
ByLayer
370
18
48
1
60
0
100
AcDbSpline
70
4
71
3
72
65
73
61
40
0
40
0
40
0
40
0
40
0.0186836682323297
40
0.0186836682323297
40
0.0373954366798894
40
0.0373954366798894
40
0.0561072051274491
40
0.0561072051274491
40
0.0748189735750086
40
0.0748189735750086
40
0.0794969156868986
40
0.0800816584508848
40
0.0800816584508848
40
0.0802278441418813
40
0.0802278441418813
40
0.0803740298328778
40
0.0803740298328778
40
0.0806664012148709
40
0.0806664012148709
40
0.0818358867428432
40
0.0818358867428432
40
0.0841748577987877
40
0.0841748577987877
40
0.093530742022566
40
0.093530742022566
40
0.112242510470123
40
0.112242510470123
40
0.149666047365236
40
0.149666047365236
40
0.224513121155461
40
0.224513121155461
40
0.374207268735913
40
0.374207268735913
40
0.449054342526139
40
0.449054342526139
40
0.486477879421252
40
0.486477879421252
40
0.505189647868809
40
0.505189647868809
40
0.509867589980698
40
0.509867589980698
40
0.514545532092587
40
0.514545532092587
40
0.515130274856573
40
0.515130274856573
40
0.515422646238566
40
0.515422646238566
40
0.515568831929562
40
0.515568831929562
40
0.515715017620559
40
0.515715017620559
40
0.516007389002552
40
0.516007389002552
40
0.516299760384545
40
0.51688450314853
40
0.519223474204473
40
0.523901416316359
40
0.823289711477062
40
0.823289711477062
40
1
40
1
40
1
40
1
41
1
10
12.1269462168087
20
1.42757944186263
30
-1E-16
41
1
10
12.0896369072396
20
1.43313865999639
30
-1E-16
41
1
10
12.0515318098923
20
1.43481260612467
30
-1E-16
41
1
10
11.9707694370128
20
1.43162452487411
30
-1E-16
41
1
10
11.9278454407747
20
1.42685391654467
30
-1E-16
41
1
10
11.8382473482095
20
1.4103387830441
30
-1E-16
41
1
10
11.7919636538882
20
1.39851977054414
30
-1E-16
41
1
10
11.6951343828145
20
1.36854850674877
30
-1E-16
41
1
10
11.6447732256248
20
1.35031180460291
30
-1E-16
41
1
10
11.5801018363617
20
1.32325907485546
30
-1E-16
41
1
10
11.5654536036039
20
1.31693298720882
30
-1E-16
41
1
10
11.5507060403444
20
1.31033500404811
30
-1E-16
41
1
10
11.5486562555051
20
1.30941441783744
30
-1E-16
41
1
10
11.5480990901856
20
1.30924670537448
30
-1E-16
41
1
10
11.5486892783221
20
1.30843363113468
30
-1E-16
41
1
10
11.5493282356706
20
1.30800143453567
30
-1E-16
41
1
10
11.5511845474335
20
1.30676101467154
30
-1E-16
41
1
10
11.5525772940223
20
1.30595101948558
30
-1E-16
41
1
10
11.5595677064834
20
1.30195239195638
30
-1E-16
41
1
10
11.5655172877898
20
1.29884483318051
30
-1E-16
41
1
10
11.5833173982669
20
1.28954091784189
30
-1E-16
41
1
10
11.5953666345039
20
1.28340230838529
30
-1E-16
41
1
10
11.6557508482553
20
1.25275043661293
30
-1E-16
41
1
10
11.704568419397
20
1.22840149844504
30
-1E-16
41
1
10
11.8510292925116
20
1.1552314795988
30
-1E-16
41
1
10
11.94898798322
20
1.10642528699236
30
-1E-16
41
1
10
12.2430000670778
20
0.959564566848712
30
-1E-16
41
1
10
12.4392686213663
20
0.861075424735219
30
-1E-16
41
1
10
13.027985507072
20
0.563455749131833
30
0
41
1
10
13.4204831278327
20
0.362298968316509
30
0
41
1
10
14.597374765492
20
-0.249962887323221
30
0
41
1
10
15.3812405982936
20
-0.670466423873904
30
0
41
1
10
16.5560876005973
20
-1.31670620572981
30
0
41
1
10
16.9475434545716
20
-1.5346511733874
30
0
41
1
10
17.5340409044104
20
-1.86610949691939
30
0
41
1
10
17.7294704535461
20
-1.97727607274481
30
0
41
1
10
18.0220941849757
20
-2.14580561750049
30
0
41
1
10
18.1196006667009
20
-2.20219770991005
30
0
41
1
10
18.2408713892003
20
-2.27395680385874
30
0
41
1
10
18.2650915909382
20
-2.2883745877634
30
0
41
1
10
18.3133436502224
20
-2.31755279352734
30
0
41
1
10
18.33757614174
20
-2.33196322304667
30
0
41
1
10
18.363843492205
20
-2.34991929834862
30
0
41
1
10
18.3667413811835
20
-2.35194503533671
30
0
41
1
10
18.3709703623747
20
-2.35515754356436
30
0
41
1
10
18.3723660780417
20
-2.35625454311398
30
0
41
1
10
18.3743402786683
20
-2.35803095757845
30
0
41
1
10
18.3749836510595
20
-2.35863971479696
30
0
41
1
10
18.3761243370076
20
-2.36002238457513
30
0
41
1
10
18.376751262651
20
-2.36119911865615
30
0
41
1
10
18.3744416817032
20
-2.36265229643104
30
0
41
1
10
18.3725022887397
20
-2.36238682972962
30
0
41
1
10
18.3689752753559
20
-2.36286263588244
30
0
41
1
10
18.3636848046654
20
-2.36357630371037
30
0
41
1
10
18.3442869563614
20
-2.36619262987873
30
0
41
1
10
18.2984417745121
20
-2.37237308015494
30
0
41
1
10
16.4509491108928
20
-2.62114237628705
30
0
41
1
10
14.6351892274834
20
-2.85295728583205
30
0
41
1
10
11.8297735787405
20
-3.18027966658917
30
2E-16
41
1
10
10.796331745439
20
-3.29405130935555
30
2E-16
41
1
10
9.77030332902106
20
-3.3994020378729
30
2E-16
0
SPLINE
5
FC
100
AcDbEntity
8
1
62
256
6
ByLayer
370
18
48
1
60
0
100
AcDbSpline
70
4
71
3
72
40
73
36
40
0
40
0
40
0
40
0
40
0.0760937991837182
40
0.0760937991837182
40
0.174345116118286
40
0.174345116118286
40
0.22347077458557
40
0.22347077458557
40
0.272596433052855
40
0.272596433052855
40
0.321722091520138
40
0.321722091520138
40
0.370847749987422
40
0.370847749987422
40
0.419973408454707
40
0.419973408454707
40
0.469099066921991
40
0.469099066921991
40
0.567350383856561
40
0.567350383856561
40
0.616476042323847
40
0.616476042323847
40
0.665601700791132
40
0.665601700791132
40
0.7638530177257
40
0.7638530177257
40
0.812978676192984
40
0.812978676192984
40
0.862104334660268
40
0.862104334660268
40
0.911229993127552
40
0.911229993127552
40
0.960355651594837
40
0.960355651594837
40
1
40
1
40
1
40
1
41
1
10
68.7856157422877
20
4.25988474061958
30
0
41
1
10
69.1297793266609
20
4.26211845886689
30
0
41
1
10
69.4733057394835
20
4.25449063640929
30
0
41
1
10
70.260178456281
20
4.21414315727154
30
0
41
1
10
70.7035692789447
20
4.17438021172313
30
0
41
1
10
71.3699532099043
20
4.09025922331713
30
0
41
1
10
71.5923127935217
20
4.05810039827367
30
0
41
1
10
72.0374387947262
20
3.98611205769592
30
0
41
1
10
72.260197041304
20
3.94630265870089
30
0
41
1
10
72.706898876939
20
3.8583288450655
30
0
41
1
10
72.9311524251999
20
3.81006808301495
30
0
41
1
10
73.3795889451576
20
3.70586214412157
30
2E-16
41
1
10
73.6032037525994
20
3.65006308534896
30
2E-16
41
1
10
74.0494384209858
20
3.5316978125947
30
-2E-16
41
1
10
74.2720607981766
20
3.46913212915084
30
-2E-16
41
1
10
74.7163713551037
20
3.3377322325027
30
-2E-16
41
1
10
74.9380463738372
20
3.26891892046737
30
-2E-16
41
1
10
75.6026663436675
20
3.05289706563593
30
-2E-16
41
1
10
76.0453667201468
20
2.89604851177719
30
-2E-16
41
1
10
76.7091947114135
20
2.64509425080172
30
-2E-16
41
1
10
76.9304005189754
20
2.55882067077843
30
-2E-16
41
1
10
77.3727011912425
20
2.3812857382137
30
-1E-16
41
1
10
77.5937512165914
20
2.29002228678055
30
-1E-16
41
1
10
78.258300631936
20
2.00941009130483
30
-1E-16
41
1
10
78.7034333691516
20
1.81325568833057
30
-1E-16
41
1
10
79.3738772963525
20
1.50814781130976
30
-1E-16
41
1
10
79.5979857642041
20
1.4045397634797
30
-1E-16
41
1
10
80.0464578618574
20
1.19418008666261
30
-1E-16
41
1
10
80.2699834161423
20
1.08777273537226
30
-1E-16
41
1
10
80.7160750539607
20
0.873575054343831
30
-1E-16
41
1
10
80.9386665393658
20
0.765850908398988
30
0
41
1
10
81.3829557557628
20
0.549092550719678
30
0
41
1
10
81.6046248210938
20
0.43998802809989
30
0
41
1
10
82.0050927064332
20
0.243299215006345
30
0
41
1
10
82.1838673949765
20
0.155521212435133
30
0
41
1
10
82.3625793470237
20
0.0678122128733492
30
0
0
SPLINE
5
FD
100
AcDbEntity
8
1
62
256
6
ByLayer
370
18
48
1
60
0
100
AcDbSpline
70
4
71
3
72
14
73
10
40
0
40
0
40
0
40
0
40
0.269168313786713
40
0.269168313786713
40
0.50392044934208
40
0.50392044934208
40
0.780350348966861
40
0.780350348966861
40
1
40
1
40
1
40
1
41
1
10
109.87811749383
20
-0.0855692186828207
30
0
41
1
10
109.878856509195
20
-0.0859073568944382
30
0
41
1
10
109.879580806392
20
-0.0866164558878779
30
0
41
1
10
109.880789791658
20
-0.0883739745178787
30
0
41
1
10
109.881309878779
20
-0.0893910708896044
30
0
41
1
10
109.882281991644
20
-0.0918694518839516
30
0
41
1
10
109.882721147052
20
-0.0934157173702772
30
0
41
1
10
109.883270511937
20
-0.0963599876197918
30
0
41
1
10
109.883435090329
20
-0.0977578095807132
30
0
41
1
10
109.883489010564
20
-0.0991514896882109
30
0
0
SPLINE
5
FE
100
AcDbEntity
8
1
62
256
6
ByLayer
370
18
48
1
60
0
100
AcDbSpline
70
4
71
3
72
40
73
36
40
0
40
0
40
0
40
0
40
0.0772863528281296
40
0.0772863528281296
40
0.124498561689824
40
0.124498561689824
40
0.171710770551519
40
0.171710770551519
40
0.218922979413214
40
0.218922979413214
40
0.266135188274908
40
0.266135188274908
40
0.360559605998298
40
0.360559605998298
40
0.407771814859992
40
0.407771814859992
40
0.454984023721687
40
0.454984023721687
40
0.549408441445079
40
0.549408441445079
40
0.596620650306774
40
0.596620650306774
40
0.64383285916847
40
0.64383285916847
40
0.691045068030166
40
0.691045068030166
40
0.738257276891862
40
0.738257276891862
40
0.785469485753558
40
0.785469485753558
40
0.832681694615253
40
0.832681694615253
40
0.927106112338643
40
0.927106112338643
40
1
40
1
40
1
40
1
41
1
10
82.9131052868813
20
-0.212878917316885
30
0
41
1
10
82.5507392206119
20
-0.0356580870156904
30
0
41
1
10
82.188161615541
20
0.14190271632981
30
0
41
1
10
81.6036163215487
20
0.42838933741649
30
0
41
1
10
81.3818978553825
20
0.537298049647603
30
0
41
1
10
80.9375099648618
20
0.753675990118921
30
0
41
1
10
80.7148731291057
20
0.861223398334943
30
-1E-16
41
1
10
80.2686940123061
20
1.07508783093695
30
-1E-16
41
1
10
80.045124943239
20
1.18133549434532
30
-1E-16
41
1
10
79.5965724181503
20
1.39139659395835
30
-1E-16
41
1
10
79.372405842498
20
1.49487764775682
30
-1E-16
41
1
10
78.7018076341947
20
1.79963897622889
30
-1E-16
41
1
10
78.2565712614736
20
1.99562643829836
30
-1E-16
41
1
10
77.5918567605028
20
2.27607147826382
30
-1E-16
41
1
10
77.3707477111895
20
2.36728377014126
30
-1E-16
41
1
10
76.9283304070114
20
2.54473707041808
30
-2E-16
41
1
10
76.7070676103293
20
2.63098335571857
30
-2E-16
41
1
10
76.0430725098805
20
2.88189573204568
30
-2E-16
41
1
10
75.6002682362907
20
3.03877764495439
30
-2E-16
41
1
10
74.9354946394059
20
3.25492475016617
30
-2E-16
41
1
10
74.7137663954871
20
3.32378653339123
30
-2E-16
41
1
10
74.2693520056326
20
3.45530228046121
30
-2E-16
41
1
10
74.0466806915471
20
3.51793912404383
30
-2E-16
41
1
10
73.6003534827783
20
3.63647212428029
30
2E-16
41
1
10
73.376695124967
20
3.69236774186027
30
2E-16
41
1
10
72.9281768966859
20
3.7967918690255
30
0
41
1
10
72.7038747654729
20
3.84517663522792
30
0
41
1
10
72.2570745906128
20
3.933420588259
30
0
41
1
10
72.034263322072
20
3.97337377093092
30
0
41
1
10
71.5890282140877
20
4.04566792041373
30
0
41
1
10
71.3666141747695
20
4.07799139457896
30
0
41
1
10
70.7000660510435
20
4.16263848490186
30
0
41
1
10
70.2565612402704
20
4.20279050307474
30
0
41
1
10
69.4705963040165
20
4.24383597470586
30
0
41
1
10
69.1280881433183
20
4.25181952653469
30
0
41
1
10
68.7849512951022
20
4.25002287543845
30
0
0
SPLINE
5
FF
100
AcDbEntity
8
1
62
256
6
ByLayer
370
18
48
1
60
0
100
AcDbSpline
70
4
71
3
72
36
73
32
40
0
40
0
40
0
40
0
40
0.0042715881372109
40
0.0042715881372109
40
0.0522723803920186
40
0.0522723803920186
40
0.148273964901629
40
0.148273964901629
40
0.244275549411239
40
0.244275549411239
40
0.34027713392085
40
0.34027713392085
40
0.43627871843046
40
0.43627871843046
40
0.484279510685265
40
0.484279510685265
40
0.53228030294007
40
0.53228030294007
40
0.628281887449685
40
0.628281887449685
40
0.7242834719593
40
0.7242834719593
40
0.772284264214108
40
0.772284264214108
40
0.820285056468916
40
0.820285056468916
40
0.916286640978526
40
0.916286640978526
40
0.964287433233331
40
0.964287433233331
40
1
40
1
40
1
40
1
41
1
10
95.825619722213
20
4.27137226271941
30
0
41
1
10
95.8455027929841
20
4.27176952055811
30
0
41
1
10
95.8653793102949
20
4.2721367641681
30
0
41
1
10
96.1085222070719
20
4.27626361901156
30
0
41
1
10
96.3312770726814
20
4.27541841287621
30
0
41
1
10
96.9985800781598
20
4.25837670834548
30
0
41
1
10
97.4420804248012
20
4.22883959733019
30
0
41
1
10
98.3269507585319
20
4.13951166703489
30
0
41
1
10
98.767987105872
20
4.08043620465267
30
0
41
1
10
99.6518698472888
20
3.92745063934794
30
0
41
1
10
100.094315816304
20
3.83486210481854
30
0
41
1
10
100.981363145746
20
3.62039027376079
30
-2E-16
41
1
10
101.425387997317
20
3.49911475799172
30
-2E-16
41
1
10
102.096012206186
20
3.29456760603119
30
-2E-16
41
1
10
102.320527939383
20
3.2226615992335
30
-2E-16
41
1
10
102.767732126566
20
3.07318563703936
30
-2E-16
41
1
10
102.99076087896
20
2.99550328952799
30
-2E-16
41
1
10
103.658365811151
20
2.75435290351499
30
-2E-16
41
1
10
104.101323068463
20
2.58283007466616
30
-2E-16
41
1
10
104.986726772808
20
2.2211323079712
30
-1E-16
41
1
10
105.428986484007
20
2.03130139459441
30
-1E-16
41
1
10
106.092013821981
20
1.73530545615455
30
-1E-16
41
1
10
106.312865286748
20
1.63470508862326
30
-1E-16
41
1
10
106.755025489239
20
1.43033178230584
30
-1E-16
41
1
10
106.976473712721
20
1.32661593571913
30
-1E-16
41
1
10
107.642050275813
20
1.01162586564354
30
-1E-16
41
1
10
108.087426511865
20
0.796565884758422
30
0
41
1
10
108.758505619367
20
0.468458109822052
30
0
41
1
10
108.982840897837
20
0.358088515291769
30
0
41
1
10
109.37338000893
20
0.165095917791461
30
0
41
1
10
109.539886410172
20
0.0825456439057746
30
0
41
1
10
109.706327997699
20
-0.0001529286641642
30
0
0
SPLINE
5
100
100
AcDbEntity
8
1
62
256
6
ByLayer
370
18
48
1
60
0
100
AcDbSpline
70
4
71
2
72
6
73
3
40
0
40
0
40
0
40
1
40
1
40
1
41
1
10
68.8964725936148
20
4.25015599727814
30
0
41
1
10
67.9994376381645
20
4.25114938881069
30
0
41
1
10
67.1020579196235
20
4.24794106150281
30
0
0
SPLINE
5
101
100
AcDbEntity
8
1
62
256
6
ByLayer
370
18
48
1
60
0
100
AcDbSpline
70
4
71
3
72
12
73
8
40
0
40
0
40
0
40
0
40
0.0877634508134543
40
0.23259742626481
40
0.436882758139467
40
0.700914486871864
40
1
40
1
40
1
40
1
41
1
10
110.626775311583
20
0.821809516217826
30
-1E-16
41
1
10
110.461433600672
20
0.87366109234253
30
-1E-16
41
1
10
110.023755545135
20
1.01269804448606
30
-1E-16
41
1
10
109.2043454491
20
1.28225420861449
30
-1E-16
41
1
10
108.05959076874
20
1.676288152154
30
-1E-16
41
1
10
106.635906076981
20
2.1956177101454
30
-1E-16
41
1
10
105.600348106866
20
2.60050092451743
30
-2E-16
41
1
10
105.052811976681
20
2.82219441346481
30
-2E-16
0
SPLINE
5
102
100
AcDbEntity
8
1
62
256
6
ByLayer
370
18
48
1
60
0
100
AcDbSpline
70
4
71
1
72
4
73
2
40
0
40
0
40
1
40
1
41
1
10
97.9468528445198
20
-0.0025762653622223
30
0
41
1
10
97.9468541953618
20
-0.0025619036109106
30
0
0
SPLINE
5
103
100
AcDbEntity
8
1
62
256
6
ByLayer
370
18
48
1
60
0
100
AcDbSpline
70
4
71
1
72
4
73
2
40
0
40
0
40
1
40
1
41
1
10
70.7387214721367
20
0.0015035458762327
30
0
41
1
10
70.7387090368984
20
0.0015040523107075
30
0
0
SPLINE
5
104
100
AcDbEntity
8
1
62
256
6
ByLayer
370
18
48
1
60
0
100
AcDbSpline
70
4
71
3
72
27
73
23
40
0
40
0
40
0
40
0
40
4.5336805273E-06
40
2.16820084862E-05
40
5.67267454243E-05
40
0.0001227383905555
40
0.000576641692932
40
0.0009384247693226
40
0.0016019334565142
40
0.00284248492359
40
0.0052354864292592
40
0.0100757607475707
40
0.0205286156348076
40
0.0449685766424804
40
0.164891743512439
40
0.303250800673848
40
0.440661170811712
40
0.519685544411697
40
0.601346978246942
40
0.712674571039216
40
0.857538068408593
40
1
40
1
40
1
40
1
41
1
10
31.5732437669786
20
0.0713192078476368
30
0
41
1
10
31.5732421141639
20
0.0713199740573884
30
0
41
1
10
31.5732320744038
20
0.0713241329659127
30
0
41
1
10
31.5731776315473
20
0.0713407753328283
30
0
41
1
10
31.5729278406505
20
0.0714122311946426
30
0
41
1
10
31.5716574460083
20
0.071771415174652
30
0
41
1
10
31.5690644206873
20
0.0724761296191332
30
0
41
1
10
31.5651789437033
20
0.0735512777009149
30
0
41
1
10
31.559056032053
20
0.0752378578622768
30
0
41
1
10
31.5475458885629
20
0.0784136564123514
30
0
41
1
10
31.5247480467729
20
0.0847025657397751
30
0
41
1
10
31.4771479966554
20
0.0978481842300596
30
0
41
1
10
31.3699845458268
20
0.127520854193961
30
0
41
1
10
30.9517975365324
20
0.244154592384262
30
0
41
1
10
30.1891683830763
20
0.463748090269547
30
0
41
1
10
29.1259054696051
20
0.787238464785332
30
0
41
1
10
28.1771472352999
20
1.09238006409777
30
-1E-16
41
1
10
27.3832879335659
20
1.35853810807595
30
-1E-16
41
1
10
26.6611198765498
20
1.60796012509093
30
-1E-16
41
1
10
25.7675831235727
20
1.92764990321774
30
-1E-16
41
1
10
24.7183573775167
20
2.31910532653285
30
-1E-16
41
1
10
23.9675463785006
20
2.61511960804495
30
-2E-16
41
1
10
23.5965032053527
20
2.76510565338015
30
-2E-16
0
SPLINE
5
105
100
AcDbEntity
8
1
62
256
6
ByLayer
370
18
48
1
60
0
100
AcDbSpline
70
4
71
3
72
28
73
24
40
0
40
0
40
0
40
0
40
1.32814086017E-05
40
2.23630431335E-05
40
4.60891180853E-05
40
9.76779663142E-05
40
0.0001406365987977
40
0.000371777729544
40
0.0005561443922282
40
0.000894498113594
40
0.0015279924143805
40
0.0027535443122499
40
0.0052468104994373
40
0.0106813502316585
40
0.0586476095888532
40
0.139027685757266
40
0.225936401226379
40
0.30539338241928
40
0.377397146169375
40
0.477913189751572
40
0.620078090487596
40
0.804189792542699
40
1
40
1
40
1
40
1
41
1
10
58.7923284241826
20
0.0659897285019042
30
0
41
1
10
58.792340381716
20
0.0659869211270632
30
0
41
1
10
58.7923561035305
20
0.0659834158778381
30
0
41
1
10
58.7923654804487
20
0.0659825316795377
30
0
41
1
10
58.7922682967787
20
0.0660118814527095
30
0
41
1
10
58.7920932701175
20
0.0660632595104005
30
0
41
1
10
58.791300194655
20
0.0662854069497314
30
0
41
1
10
58.7900047870383
20
0.0666397189145016
30
0
41
1
10
58.7880835147428
20
0.0671738332140706
30
0
41
1
10
58.7850465130403
20
0.0680138963201387
30
0
41
1
10
58.7792883820023
20
0.0696070884757205
30
0
41
1
10
58.7677394368261
20
0.0727959047404738
30
0
41
1
10
58.7431824267709
20
0.0795665665857541
30
0
41
1
10
58.5913361279463
20
0.12141328269459
30
0
41
1
10
58.2271982575046
20
0.222928865505906
30
0
41
1
10
57.6416118507307
20
0.390974549001754
30
0
41
1
10
56.9722329840082
20
0.590190611317382
30
0
41
1
10
56.3274819915774
20
0.788890949545277
30
0
41
1
10
55.6477892887814
20
1.00490312300056
30
-1E-16
41
1
10
54.8016322551082
20
1.28306893663378
30
-1E-16
41
1
10
53.6593950337235
20
1.67639158440224
30
-1E-16
41
1
10
52.2707913621742
20
2.18251248418579
30
-1E-16
41
1
10
51.2693107353652
20
2.57417322948234
30
-2E-16
41
1
10
50.7553999692172
20
2.78204789143814
30
-2E-16
0
SPLINE
5
106
100
AcDbEntity
8
1
62
256
6
ByLayer
370
18
48
1
60
0
100
AcDbSpline
70
4
71
3
72
29
73
25
40
0
40
0
40
0
40
0
40
4.8616613621E-06
40
2.92745658768E-05
40
5.03047852977E-05
40
6.0119436348E-05
40
8.97792667815E-05
40
0.0001636676550888
40
0.0005568160466162
40
0.0008689765347266
40
0.001439734704791
40
0.0025014620900827
40
0.0045330476090099
40
0.0085937285072182
40
0.0172265152299993
40
0.103341593007588
40
0.20374938318279
40
0.31261257599054
40
0.41875062286103
40
0.500586789136135
40
0.582827486456285
40
0.694063773141077
40
0.841164815452235
40
1
40
1
40
1
40
1
41
1
10
85.9747065818649
20
0.0706894536133404
30
0
41
1
10
85.9747116252657
20
0.0706881814589053
30
0
41
1
10
85.9747409979562
20
0.0706807523273199
30
0
41
1
10
85.9747806119846
20
0.0706704873720412
30
0
41
1
10
85.9747704344359
20
0.0706795946740328
30
0
41
1
10
85.9747201039072
20
0.0706950500385517
30
0
41
1
10
85.974494212294
20
0.0707601797544726
30
0
41
1
10
85.9733575429367
20
0.0710822019965462
30
0
41
1
10
85.9710388022345
20
0.0717125223814605
30
0
41
1
10
85.9676563139561
20
0.0726491757490919
30
0
41
1
10
85.9623497239709
20
0.0741117142145811
30
0
41
1
10
85.9524398933669
20
0.0768473970613854
30
0
41
1
10
85.9330017527513
20
0.0822114044916304
30
0
41
1
10
85.8929691201456
20
0.0932676713497074
30
0
41
1
10
85.6236117970673
20
0.167797326899176
30
0
41
1
10
85.0899796151133
20
0.318457367801386
30
0
41
1
10
84.2857024016233
20
0.555189504017733
30
0
41
1
10
83.4289630521798
20
0.818755149218504
30
-1E-16
41
1
10
82.6260074282588
20
1.07679485486608
30
-1E-16
41
1
10
81.8976141598916
20
1.31960366869544
30
-1E-16
41
1
10
81.1578371509146
20
1.57393986384363
30
-1E-16
41
1
10
80.2461959408554
20
1.89876062633621
30
-1E-16
41
1
10
79.1351423771314
20
2.31234362665953
30
-1E-16
41
1
10
78.3262393986148
20
2.63084585412994
30
-2E-16
41
1
10
77.9077749002574
20
2.8001657294985
30
-2E-16
0
SPLINE
5
107
100
AcDbEntity
8
1
62
256
6
ByLayer
370
18
48
1
60
0
100
AcDbSpline
70
4
71
3
72
18
73
14
40
0
40
0
40
0
40
0
40
0.11957593972298
40
0.215187859888418
40
0.286892901744612
40
0.372828355724157
40
0.451068511525271
40
0.525015310450746
40
0.593869287378229
40
0.657801992629066
40
0.877373838670912
40
0.933881783297559
40
1
40
1
40
1
40
1
41
1
10
84.3427026809883
20
-4.25875184769387
30
0
41
1
10
84.7036331948698
20
-4.25912008836613
30
0
41
1
10
85.3531790681841
20
-4.25967022321839
30
0
41
1
10
86.2192619661747
20
-4.25946751976605
30
0
41
1
10
86.9837412877658
20
-4.26013224739535
30
0
41
1
10
87.6958088999322
20
-4.26073968315947
30
0
41
1
10
88.4146377753272
20
-4.26026682847512
30
0
41
1
10
89.0819062996741
20
-4.26062676710481
30
0
41
1
10
89.7059806918814
20
-4.26198868425945
30
0
41
1
10
90.7696630099911
20
-4.26191167782676
30
0
41
1
10
91.7960714440002
20
-4.26148002526236
30
0
41
1
10
92.8290877125534
20
-4.26264838215511
30
0
41
1
10
93.199253713533
20
-4.26357358939825
30
0
41
1
10
93.3988425619561
20
-4.26379269841584
30
0
0
SPLINE
5
108
100
AcDbEntity
8
1
62
256
6
ByLayer
370
18
48
1
60
0
100
AcDbSpline
70
4
71
3
72
18
73
14
40
0
40
0
40
0
40
0
40
0.119019278931881
40
0.214154564684226
40
0.285461596769384
40
0.370958657273371
40
0.448787112556041
40
0.522551103167982
40
0.592241688843307
40
0.658012362704968
40
0.878947689127925
40
0.935122000240972
40
1
40
1
40
1
40
1
41
1
10
96.1045637864219
20
4.26479609908915
30
0
41
1
10
95.7430750718225
20
4.26332724768631
30
0
41
1
10
95.0926176327417
20
4.2616860118942
30
0
41
1
10
94.225468747942
20
4.26352299714012
30
0
41
1
10
93.4602052492295
20
4.2642875111986
30
0
41
1
10
92.7474756426867
20
4.26236849813446
30
0
41
1
10
92.0272916128321
20
4.26194295684758
30
0
41
1
10
91.3551172961755
20
4.26073349403399
30
0
41
1
10
90.7195745805284
20
4.26157594931502
30
0
41
1
10
89.6369782278922
20
4.26258894586445
30
0
41
1
10
88.5954422979753
20
4.26008256006691
30
0
41
1
10
87.5566072004352
20
4.26069126964413
30
0
41
1
10
87.1889083244986
20
4.26030580512781
30
0
41
1
10
86.9918384038318
20
4.26012994121842
30
0
0
LINE
5
84
100
AcDbEntity
8
SK1
62
256
6
ByLayer
370
18
48
1
60
0
100
AcDbLine
10
-40
20
1.985558
30
0
11
-40
21
3.635415
31
0
39
0
210
0
220
0
230
1
0
LINE
5
86
100
AcDbEntity
8
SK1
62
256
6
ByLayer
370
18
48
1
60
0
100
AcDbLine
10
-38.66
20
-5
30
0
11
-38.66
21
5
31
0
39
0
210
0
220
0
230
1
0
LINE
5
87
100
AcDbEntity
8
SK1
62
256
6
ByLayer
370
18
48
1
60
0
100
AcDbLine
10
-40
20
-3.66
30
0
11
-40
21
1.985602
31
0
39
0
210
0
220
0
230
1
0
LINE
5
88
100
AcDbEntity
8
SK1
62
256
6
ByLayer
370
18
48
1
60
0
100
AcDbLine
10
0
20
5
30
0
11
0
21
-5
31
0
39
0
210
0
220
0
230
1
0
LINE
5
89
100
AcDbEntity
8
SK1
62
256
6
ByLayer
370
18
48
1
60
0
100
AcDbLine
10
-40
20
3.635415
30
0
11
-40
21
3.66
31
0
39
0
210
0
220
0
230
1
0
LINE
5
8A
100
AcDbEntity
8
SK1
62
256
6
ByLayer
370
18
48
1
60
0
100
AcDbLine
10
-39.35
20
3.030965
30
0
11
-39.35
21
4.087777
31
0
39
0
210
0
220
0
230
1
0
LINE
5
8B
100
AcDbEntity
8
SK1
62
256
6
ByLayer
370
18
48
1
60
0
100
AcDbLine
10
-39.25
20
3.189846
30
0
11
-39.25
21
4.140899
31
0
39
0
210
0
220
0
230
1
0
LINE
5
8C
100
AcDbEntity
8
SK1
62
256
6
ByLayer
370
18
48
1
60
0
100
AcDbLine
10
-39.517949
20
2.884266
30
0
11
-39.517949
21
3.941015
31
0
39
0
210
0
220
0
230
1
0
LINE
5
8D
100
AcDbEntity
8
1
62
256
6
ByLayer
370
18
48
1
60
0
100
AcDbLine
10
0
20
5
30
0
11
0
21
0
31
0
39
0
210
0
220
0
230
1
0
LINE
5
8E
100
AcDbEntity
8
1
62
256
6
ByLayer
370
18
48
1
60
0
100
AcDbLine
10
0
20
0
30
0
11
0
21
-5
31
0
39
0
210
0
220
0
230
1
0
LINE
5
8F
100
AcDbEntity
8
1
62
256
6
ByLayer
370
18
48
1
60
0
100
AcDbLine
10
111.937247
20
0.054172
30
0
11
110.855084
21
1.248693
31
0
39
0
210
0
220
0
230
1
0
LINE
5
90
100
AcDbEntity
8
1
62
256
6
ByLayer
370
18
48
1
60
0
100
AcDbLine
10
67
20
1.284001
30
0
11
67
21
1.22275
31
0
39
0
210
0
220
0
230
1
0
LINE
5
91
100
AcDbEntity
8
1
62
256
6
ByLayer
370
18
48
1
60
0
100
AcDbLine
10
0.611436
20
4.715894
30
0
11
0.611436
21
0
31
0
39
0
210
0
220
0
230
1
0
LINE
5
92
100
AcDbEntity
8
1
62
256
6
ByLayer
370
18
48
1
60
0
100
AcDbLine
10
0.611436
20
0
30
0
11
0.611436
21
-4.715894
31
0
39
0
210
0
220
0
230
1
0
LINE
5
93
100
AcDbEntity
8
1
62
256
6
ByLayer
370
18
48
1
60
0
100
AcDbLine
10
1.223372
20
4.431787
30
0
11
1.223372
21
0
31
0
39
0
210
0
220
0
230
1
0
LINE
5
94
100
AcDbEntity
8
1
62
256
6
ByLayer
370
18
48
1
60
0
100
AcDbLine
10
1.223372
20
0
30
0
11
1.223372
21
-4.431787
31
0
39
0
210
0
220
0
230
1
0
LINE
5
95
100
AcDbEntity
8
1
62
256
6
ByLayer
370
18
48
1
60
0
100
AcDbLine
10
67.001725
20
-4.398575
30
0
11
67.001725
21
-4.472899
31
0
39
0
210
0
220
0
230
1
0
LINE
5
96
100
AcDbEntity
8
1
62
256
6
ByLayer
370
18
48
1
60
0
100
AcDbLine
10
67.001725
20
4.472899
30
0
11
67.001725
21
1.927633
31
0
39
0
210
0
220
0
230
1
0
LINE
5
97
100
AcDbEntity
8
SK1
62
256
6
ByLayer
370
18
48
1
60
0
100
AcDbLine
10
-40
20
-3.66
30
0
11
-38.66
21
-5
31
0
39
0
210
0
220
0
230
1
0
LINE
5
98
100
AcDbEntity
8
SK1
62
256
6
ByLayer
370
18
48
1
60
0
100
AcDbLine
10
-38.66
20
5
30
0
11
-40
21
3.66
31
0
39
0
210
0
220
0
230
1
0
LINE
5
99
100
AcDbEntity
8
SK1
62
256
6
ByLayer
370
18
48
1
60
0
100
AcDbLine
10
-38.66
20
-5
30
0
11
0
21
-5
31
0
39
0
210
0
220
0
230
1
0
LINE
5
9A
100
AcDbEntity
8
SK1
62
256
6
ByLayer
370
18
48
1
60
0
100
AcDbLine
10
0
20
5
30
0
11
-38.66
21
5
31
0
39
0
210
0
220
0
230
1
0
LINE
5
9B
100
AcDbEntity
8
1
62
256
6
ByLayer
370
18
48
1
60
0
100
AcDbLine
10
1.223372
20
-4.431787
30
0
11
15.809827
21
-4.440904
31
0
39
0
210
0
220
0
230
1
0
LINE
5
9C
100
AcDbEntity
8
1
62
256
6
ByLayer
370
18
48
1
60
0
100
AcDbLine
10
28.612281
20
-4.448905
30
0
11
42.983497
21
-4.457887
31
0
39
0
210
0
220
0
230
1
0
LINE
5
9D
100
AcDbEntity
8
1
62
256
6
ByLayer
370
18
48
1
60
0
100
AcDbLine
10
55.801566
20
-4.465899
30
0
11
67.001725
21
-4.472899
31
0
39
0
210
0
220
0
230
1
0
LINE
5
9E
100
AcDbEntity
8
1
62
256
6
ByLayer
370
18
48
1
60
0
100
AcDbLine
10
68.900062
20
-4.474085
30
0
11
70.156759
21
-4.474871
31
0
39
0
210
0
220
0
230
1
0
LINE
5
9F
100
AcDbEntity
8
1
62
256
6
ByLayer
370
18
48
1
60
0
100
AcDbLine
10
83.12283
20
-4.482974
30
0
11
84.34181
21
-4.483736
31
0
39
0
210
0
220
0
230
1
0
LINE
5
A0
100
AcDbEntity
8
1
62
256
6
ByLayer
370
18
48
1
60
0
100
AcDbLine
10
96.103617
20
-4.491087
30
0
11
97.330178
21
-4.491854
31
0
39
0
210
0
220
0
230
1
0
LINE
5
A1
100
AcDbEntity
8
1
62
256
6
ByLayer
370
18
48
1
60
0
100
AcDbLine
10
97.330178
20
4.491854
30
0
11
96.103617
21
4.491087
31
0
39
0
210
0
220
0
230
1
0
LINE
5
A2
100
AcDbEntity
8
1
62
256
6
ByLayer
370
18
48
1
60
0
100
AcDbLine
10
84.34181
20
4.483736
30
0
11
83.12283
21
4.482974
31
0
39
0
210
0
220
0
230
1
0
LINE
5
A3
100
AcDbEntity
8
1
62
256
6
ByLayer
370
18
48
1
60
0
100
AcDbLine
10
70.156759
20
4.474871
30
0
11
68.900062
21
4.474085
31
0
39
0
210
0
220
0
230
1
0
LINE
5
A4
100
AcDbEntity
8
1
62
256
6
ByLayer
370
18
48
1
60
0
100
AcDbLine
10
67.001725
20
4.472899
30
0
11
55.801566
21
4.465899
31
0
39
0
210
0
220
0
230
1
0
LINE
5
A5
100
AcDbEntity
8
1
62
256
6
ByLayer
370
18
48
1
60
0
100
AcDbLine
10
42.983497
20
4.457887
30
0
11
28.612281
21
4.448905
31
0
39
0
210
0
220
0
230
1
0
LINE
5
A6
100
AcDbEntity
8
1
62
256
6
ByLayer
370
18
48
1
60
0
100
AcDbLine
10
15.809827
20
4.440904
30
0
11
1.223372
21
4.431787
31
0
39
0
210
0
220
0
230
1
0
LINE
5
A7
100
AcDbEntity
8
SK4
62
256
6
ByLayer
370
18
48
0.05
60
0
100
AcDbLine
10
117
20
0
30
0
11
-45
21
0
31
0
39
0
210
0
220
0
230
1
0
LINE
5
A9
100
AcDbEntity
8
4
62
256
6
ByLayer
370
18
48
0.05
60
0
100
AcDbLine
10
-40
20
0
30
0
11
117
21
0
31
0
39
0
210
0
220
0
230
1
0
LINE
5
AB
100
AcDbEntity
8
80
62
256
6
ByLayer
370
18
48
1
60
0
100
AcDbLine
10
0
20
0
30
0
11
-6
21
0
31
0
39
0
210
0
220
0
230
1
0
LINE
5
AC
100
AcDbEntity
8
81
62
256
6
ByLayer
370
18
48
1
60
0
100
AcDbLine
10
112
20
0
30
0
11
118
21
0
31
0
39
0
210
0
220
0
230
1
0
LINE
5
AD
100
AcDbEntity
8
SK2
62
256
6
ByLayer
370
13
48
1
60
0
100
AcDbLine
10
112.542967
20
1.491758
30
0
11
120.017669
21
22.027908
31
0
39
0
210
0
220
0
230
1
0
LINE
5
AF
100
AcDbEntity
8
SK2
62
256
6
ByLayer
370
13
48
1
60
0
100
AcDbLine
10
112.542967
20
-1.491758
30
0
11
120.017669
21
-22.027908
31
0
39
0
210
0
220
0
230
1
0
LINE
5
B0
100
AcDbEntity
8
1
62
256
6
ByLayer
370
13
48
1
60
0
100
AcDbLine
10
118.931735
20
19.044391
30
0
11
122.028744
21
18.229606
31
0
39
0
210
0
220
0
230
1
0
LINE
5
B1
100
AcDbEntity
8
1
62
256
6
ByLayer
370
13
48
1
60
0
100
AcDbLine
10
118.931735
20
19.044391
30
0
11
121.712336
21
17.455802
31
0
39
0
210
0
220
0
230
1
0
LINE
5
B2
100
AcDbEntity
8
1
62
256
6
ByLayer
370
13
48
1
60
0
100
AcDbLine
10
122.028744
20
18.229606
30
0
11
121.712336
21
17.455802
31
0
39
0
210
0
220
0
230
1
0
LINE
5
B3
100
AcDbEntity
8
1
62
256
6
ByLayer
370
13
48
1
60
0
100
AcDbLine
10
118.931735
20
-19.044391
30
0
11
121.712333
21
-17.455804
31
0
39
0
210
0
220
0
230
1
0
LINE
5
B4
100
AcDbEntity
8
1
62
256
6
ByLayer
370
13
48
1
60
0
100
AcDbLine
10
118.931735
20
-19.044391
30
0
11
122.028746
21
-18.229604
31
0
39
0
210
0
220
0
230
1
0
LINE
5
B5
100
AcDbEntity
8
1
62
256
6
ByLayer
370
13
48
1
60
0
100
AcDbLine
10
121.712333
20
-17.455804
30
0
11
122.028746
21
-18.229604
31
0
39
0
210
0
220
0
230
1
0
MTEXT
5
109
100
AcDbEntity
8
SK2
62
256
6
ByLayer
370
18
48
1
60
0
100
AcDbMText
10
125.984055
20
-2.467451
30
0
210
0
220
0
230
1
1
\W0.7237;140.00
40
3.50012
41
0
44
1.084337
50
0
71
7
72
5
7
iso_b_vert
0
MTEXT
5
10C
100
AcDbEntity
8
SK6
62
256
6
ByLayer
370
18
48
1
60
0
100
AcDbMText
10
-2.7546
20
-67.856168
30
0
210
0
220
0
230
1
1
\W0.7454;860.1-0900-073A1-GM X1BM
40
3.175
41
0
44
1.084337
50
0
71
7
72
5
7
iso_b_vert
0
DIMENSION
5
10F
100
AcDbEntity
8
SK2
62
256
6
ByLayer
370
18
48
1
60
0
100
AcDbDimension
2
_U0
10
112
20
-28.766787
30
0
11
56
21
-28.766787
31
0
70
32
71
2
72
1
41
1
210
0
220
0
230
1
3
Standard
100
AcDbAlignedDimension
13
0
23
-5
33
0
14
112
24
0
34
0
50
0
100
AcDbRotatedDimension
1001
ACAD
1000
DSTYLE
1002
{
1070
   371
1070
    13
1070
   372
1070
    13
1070
     3
1000

1070
   170
1070
     0
1070
   144
1040
1.0
1070
   277
1070
     2
1070
   284
1070
     8
1070
   278
1070
    46
1070
   146
1040
0.999966
1070
   345
1005
16
1070
   347
1005
16
1070
   346
1005
16
1070
   344
1005
110
1070
   343
1005
110
1070
   172
1070
     1
1070
    76
1070
     0
1070
    75
1070
     0
1070
   282
1070
     0
1070
   281
1070
     0
1070
    71
1070
     0
1070
    74
1070
     0
1070
   279
1070
     0
1070
   173
1070
     1
1070
   340
1005
10A
1070
   271
1070
     1
1070
   272
1070
     2
1070
    77
1070
     1
1070
    73
1070
     1
1070
   171
1070
     3
1070
   274
1070
     4
1070
   177
1070
   150
1070
   176
1070
     9
1070
   178
1070
    43
1070
    78
1070
     8
1070
    48
1040
-0.1
1070
    41
1040
3.175
1070
   147
1040
1.75006
1070
    42
1040
1.5875
1070
    44
1040
3.175
1070
   140
1040
3.50012
1002
}
1001
ACAD_DSTYLE_DIM_LINETYPE
1070
   380
1005
16
1001
ACAD_DSTYLE_DIM_EXT1_LINETYPE
1070
   381
1005
16
1001
ACAD_DSTYLE_DIM_EXT2_LINETYPE
1070
   382
1005
16
0
DIMENSION
5
135
100
AcDbEntity
8
2
62
256
6
ByLayer
370
18
48
1
60
0
100
AcDbDimension
2
_U1
10
118.75006
20
4.5
30
0
11
118.75006
21
17.489811
31
0
70
32
71
1
72
1
41
1
210
0
220
0
230
1
3
Standard
100
AcDbAlignedDimension
13
110.3621
23
-4.5
33
0
14
110.3621
24
4.5
34
0
50
90
100
AcDbRotatedDimension
1001
ACAD
1000
DSTYLE
1002
{
1070
   371
1070
    13
1070
   372
1070
    13
1070
     3
1000

1070
   170
1070
     0
1070
   144
1040
1.0
1070
   277
1070
     2
1070
   284
1070
     8
1070
   278
1070
    46
1070
   146
1040
0.999966
1070
   345
1005
16
1070
   347
1005
16
1070
   346
1005
16
1070
   344
1005
110
1070
   343
1005
110
1070
   172
1070
     1
1070
    76
1070
     0
1070
    75
1070
     0
1070
   282
1070
     0
1070
   281
1070
     0
1070
    71
1070
     0
1070
    74
1070
     0
1070
   279
1070
     0
1070
   173
1070
     1
1070
   340
1005
10A
1070
   271
1070
     1
1070
   272
1070
     2
1070
    77
1070
     1
1070
    73
1070
     0
1070
   171
1070
     3
1070
   274
1070
     4
1070
   177
1070
   150
1070
   176
1070
     9
1070
   178
1070
    43
1070
    78
1070
     8
1070
    48
1040
-0.1
1070
    41
1040
3.175
1070
   147
1040
1.75006
1070
    42
1040
1.5875
1070
    44
1040
3.175
1070
   140
1040
3.50012
1002
}
1001
ACAD_DSTYLE_DIM_LINETYPE
1070
   380
1005
16
1001
ACAD_DSTYLE_DIM_EXT1_LINETYPE
1070
   381
1005
16
1001
ACAD_DSTYLE_DIM_EXT2_LINETYPE
1070
   382
1005
16
0
DIMENSION
5
154
100
AcDbEntity
8
SK2
62
256
6
ByLayer
370
18
48
1
60
0
100
AcDbDimension
2
_U2
10
-43.316607
20
-5
30
0
11
-43.316607
21
20.111003
31
0
70
32
71
1
72
1
41
1
210
0
220
0
230
1
3
Standard
100
AcDbAlignedDimension
13
-40
23
5
33
0
14
-40
24
-5
34
0
50
90
100
AcDbRotatedDimension
1001
ACAD
1000
DSTYLE
1002
{
1070
   371
1070
    13
1070
   372
1070
    13
1070
     3
1000

1070
   170
1070
     0
1070
   144
1040
1.0
1070
   277
1070
     2
1070
   284
1070
     8
1070
   278
1070
    46
1070
   146
1040
0.999966
1070
   345
1005
16
1070
   347
1005
16
1070
   346
1005
16
1070
   344
1005
110
1070
   343
1005
110
1070
   172
1070
     1
1070
    76
1070
     0
1070
    75
1070
     0
1070
   282
1070
     0
1070
   281
1070
     0
1070
    71
1070
     0
1070
    74
1070
     0
1070
   279
1070
     0
1070
   173
1070
     1
1070
   340
1005
10A
1070
   271
1070
     1
1070
   272
1070
     2
1070
    77
1070
     1
1070
    73
1070
     0
1070
   171
1070
     3
1070
   274
1070
     4
1070
   177
1070
   150
1070
   176
1070
     9
1070
   178
1070
    43
1070
    78
1070
     8
1070
    48
1040
-0.1
1070
    41
1040
3.175
1070
   147
1040
1.75006
1070
    42
1040
1.5875
1070
    44
1040
3.175
1070
   140
1040
3.50012
1002
}
1001
ACAD_DSTYLE_DIM_LINETYPE
1070
   380
1005
16
1001
ACAD_DSTYLE_DIM_EXT1_LINETYPE
1070
   381
1005
16
1001
ACAD_DSTYLE_DIM_EXT2_LINETYPE
1070
   382
1005
16
0
DIMENSION
5
172
100
AcDbEntity
8
SK2
62
256
6
ByLayer
370
18
48
1
60
0
100
AcDbDimension
2
_U3
10
0
20
-28.766787
30
0
11
-20
21
-28.766787
31
0
70
32
71
1
72
1
41
1
210
0
220
0
230
1
3
Standard
100
AcDbAlignedDimension
13
-40
23
-5
33
0
14
0
24
-5
34
0
50
0
100
AcDbRotatedDimension
1001
ACAD
1000
DSTYLE
1002
{
1070
   371
1070
    13
1070
   372
1070
    13
1070
     3
1000

1070
   170
1070
     0
1070
   144
1040
1.0
1070
   277
1070
     2
1070
   284
1070
     8
1070
   278
1070
    46
1070
   146
1040
0.999966
1070
   345
1005
16
1070
   347
1005
16
1070
   346
1005
16
1070
   344
1005
110
1070
   343
1005
110
1070
   172
1070
     1
1070
    76
1070
     0
1070
    75
1070
     0
1070
   282
1070
     0
1070
   281
1070
     0
1070
    71
1070
     0
1070
    74
1070
     0
1070
   279
1070
     0
1070
   173
1070
     1
1070
   340
1005
10A
1070
   271
1070
     1
1070
   272
1070
     2
1070
    77
1070
     1
1070
    73
1070
     1
1070
   171
1070
     3
1070
   274
1070
     4
1070
   177
1070
   150
1070
   176
1070
     9
1070
   178
1070
    43
1070
    78
1070
     8
1070
    48
1040
-0.1
1070
    41
1040
3.175
1070
   147
1040
1.75006
1070
    42
1040
1.5875
1070
    44
1040
3.175
1070
   140
1040
3.50012
1002
}
1001
ACAD_DSTYLE_DIM_LINETYPE
1070
   380
1005
16
1001
ACAD_DSTYLE_DIM_EXT1_LINETYPE
1070
   381
1005
16
1001
ACAD_DSTYLE_DIM_EXT2_LINETYPE
1070
   382
1005
16
0
DIMENSION
5
18E
100
AcDbEntity
8
SK2
62
256
6
ByLayer
370
18
48
1
60
0
100
AcDbDimension
2
_U4
10
112
20
-20.016487
30
0
11
59
21
-20.016487
31
0
70
32
71
1
72
1
41
1
210
0
220
0
230
1
3
Standard
100
AcDbAlignedDimension
13
6
23
5
33
0
14
112
24
0
34
0
50
0
100
AcDbRotatedDimension
1001
ACAD
1000
DSTYLE
1002
{
1070
   371
1070
    13
1070
   372
1070
    13
1070
     3
1000

1070
   170
1070
     0
1070
   144
1040
1.0
1070
   277
1070
     2
1070
   284
1070
     8
1070
   278
1070
    46
1070
   146
1040
0.999966
1070
   345
1005
16
1070
   347
1005
16
1070
   346
1005
16
1070
   344
1005
110
1070
   343
1005
110
1070
   172
1070
     1
1070
    76
1070
     0
1070
    75
1070
     0
1070
   282
1070
     0
1070
   281
1070
     0
1070
    71
1070
     0
1070
    74
1070
     0
1070
   279
1070
     0
1070
   173
1070
     1
1070
   340
1005
10A
1070
   271
1070
     1
1070
   272
1070
     2
1070
    77
1070
     1
1070
    73
1070
     1
1070
   171
1070
     3
1070
   274
1070
     4
1070
   177
1070
   150
1070
   176
1070
     9
1070
   178
1070
    43
1070
    78
1070
     8
1070
    48
1040
-0.1
1070
    41
1040
3.175
1070
   147
1040
1.75006
1070
    42
1040
1.5875
1070
    44
1040
3.175
1070
   140
1040
3.50012
1002
}
1001
ACAD_DSTYLE_DIM_LINETYPE
1070
   380
1005
16
1001
ACAD_DSTYLE_DIM_EXT1_LINETYPE
1070
   381
1005
16
1001
ACAD_DSTYLE_DIM_EXT2_LINETYPE
1070
   382
1005
16
0
DIMENSION
5
1AA
100
AcDbEntity
8
SK2
62
256
6
ByLayer
370
18
48
1
60
0
100
AcDbDimension
2
_U5
10
112
20
-11.886667
30
0
11
75.2
21
-11.886667
31
0
70
32
71
1
72
1
41
1
210
0
220
0
230
1
3
Standard
100
AcDbAlignedDimension
13
38.4
23
-4.5
33
0
14
112
24
0
34
0
50
0
100
AcDbRotatedDimension
1001
ACAD
1000
DSTYLE
1002
{
1070
   371
1070
    13
1070
   372
1070
    13
1070
     3
1000

1070
   170
1070
     0
1070
   144
1040
1.0
1070
   277
1070
     2
1070
   284
1070
     8
1070
   278
1070
    46
1070
   146
1040
1.25
1070
   345
1005
16
1070
   347
1005
16
1070
   346
1005
16
1070
   344
1005
110
1070
   343
1005
110
1070
   172
1070
     1
1070
    76
1070
     0
1070
    75
1070
     0
1070
   282
1070
     0
1070
   281
1070
     0
1070
    71
1070
     0
1070
    74
1070
     0
1070
   279
1070
     0
1070
   173
1070
     1
1070
   340
1005
10A
1070
   271
1070
     1
1070
   272
1070
     2
1070
    77
1070
     1
1070
    73
1070
     1
1070
   171
1070
     3
1070
   274
1070
     4
1070
   177
1070
   150
1070
   176
1070
     9
1070
   178
1070
    43
1070
    78
1070
     8
1070
    48
1040
-0.1
1070
    41
1040
3.175
1070
   147
1040
0.42
1070
    42
1040
1.5875
1070
    44
1040
0.5
1070
   140
1040
2.8
1002
}
1001
ACAD_DSTYLE_DIM_LINETYPE
1070
   380
1005
16
1001
ACAD_DSTYLE_DIM_EXT1_LINETYPE
1070
   381
1005
16
1001
ACAD_DSTYLE_DIM_EXT2_LINETYPE
1070
   382
1005
16
0
DIMENSION
5
1C6
100
AcDbEntity
8
SK2
62
256
6
ByLayer
370
18
48
1
60
0
100
AcDbDimension
2
_U6
10
112
20
-38.90012
30
0
11
36
21
-38.90012
31
0
70
32
71
1
72
1
41
1
210
0
220
0
230
1
3
Standard
100
AcDbAlignedDimension
13
-40
23
0
33
0
14
112
24
0
34
0
50
0
100
AcDbRotatedDimension
1001
ACAD
1000
DSTYLE
1002
{
1070
   371
1070
    13
1070
   372
1070
    13
1070
     3
1000

1070
   170
1070
     0
1070
   144
1040
1.0
1070
   277
1070
     2
1070
   284
1070
     8
1070
   278
1070
    46
1070
   146
1040
0.999966
1070
   345
1005
16
1070
   347
1005
16
1070
   346
1005
16
1070
   344
1005
110
1070
   343
1005
110
1070
   172
1070
     1
1070
    76
1070
     0
1070
    75
1070
     0
1070
   282
1070
     0
1070
   281
1070
     0
1070
    71
1070
     0
1070
    74
1070
     0
1070
   279
1070
     0
1070
   173
1070
     1
1070
   340
1005
10A
1070
   271
1070
     1
1070
   272
1070
     2
1070
    77
1070
     1
1070
    73
1070
     1
1070
   171
1070
     3
1070
   274
1070
     4
1070
   177
1070
   150
1070
   176
1070
     9
1070
   178
1070
    43
1070
    78
1070
     8
1070
    48
1040
-0.1
1070
    41
1040
3.175
1070
   147
1040
1.75006
1070
    42
1040
1.5875
1070
    44
1040
3.175
1070
   140
1040
3.50012
1002
}
1001
ACAD_DSTYLE_DIM_LINETYPE
1070
   380
1005
16
1001
ACAD_DSTYLE_DIM_EXT1_LINETYPE
1070
   381
1005
16
1001
ACAD_DSTYLE_DIM_EXT2_LINETYPE
1070
   382
1005
16
0
ENDSEC
0
SECTION
2
OBJECTS
0
DICTIONARY
5
252
330
0
100
AcDbDictionary
280
0
281
1
3
ACAD_GROUP
350
253
3
ACAD_MLINESTYLE
350
254
0
DICTIONARY
5
253
330
0
100
AcDbDictionary
280
0
281
1
0
DICTIONARY
5
254
330
0
100
AcDbDictionary
280
0
281
1
3
Standard
350
18
0
MLINESTYLE
5
18
330
254
100
AcDbMlineStyle
2
Standard
70
0
3

62
256
51
90
52
90
71
2
49
-0.5
62
256
6
ByLayer
49
0.5
62
256
6
ByLayer
0
RASTERVARIABLES
5
240
330

100
AcDbRasterVariables
90
0
70
1
71
1
72
1
0
ENDSEC
0
EOF
