0
SECTION
2
HEADER
9
$ACADVER
1
AC1015
9
$DWGCODEPAGE
3
ANSI_1252
9
$HANDSEED
5
263
9
$ANGBASE
50
0
9
$ANGDIR
70
0
9
$ATTMODE
70
1
9
$AUNITS
70
0
9
$AUPREC
70
0
9
$CECOLOR
62
256
9
$CELTSCALE
40
1
9
$CELTYPE
6
ByLayer
9
$CELWEIGHT
370
18
9
$CLAYER
8
0
9
$CMLJUST
70
0
9
$CMLSCALE
40
1
9
$CMLSTYLE
2
Standard
9
$DIMSTYLE
2
Standard
9
$TEXTSIZE
40
0.2
9
$TEXTSTYLE
7
Standard
9
$LUNITS
70
2
9
$LUPREC
70
4
9
$EXTNAMES
290
1
9
$INSUNITS
70
4
9
$LTSCALE
40
1
9
$LWDISPLAY
290
1
9
$PDMODE
70
0
9
$PDSIZE
40
0
9
$PLINEGEN
70
0
0
ENDSEC
0
SECTION
2
CLASSES
0
CLASS
1
RASTERVARIABLES
2
AcDbRasterVariables
3
ISM
90
0
280
0
281
0
0
ENDSEC
0
SECTION
2
TABLES
0
TABLE
2
VPORT
5
259
100
AcDbSymbolTable
0
VPORT
5
1
100
AcDbSymbolTableRecord
100
AcDbViewportTableRecord
2
*Active
70
0
10
0
20
0
11
1
21
1
12
-1
22
1
13
0
23
0
14
0.5
24
0.5
15
10
25
10
16
0
26
0
36
1
17
0
27
0
37
0
0
ENDTAB
0
TABLE
2
LTYPE
5
25a
100
AcDbSymbolTable
0
LTYPE
5
14
100
AcDbSymbolTableRecord
100
AcDbLinetypeTableRecord
70
0
2
ByBlock
3

72
65
73
0
40
0
0
LTYPE
5
15
100
AcDbSymbolTableRecord
100
AcDbLinetypeTableRecord
70
0
2
ByLayer
3

72
65
73
0
40
0
0
LTYPE
5
16
100
AcDbSymbolTableRecord
100
AcDbLinetypeTableRecord
70
0
2
Continuous
3
Solid line
72
65
73
0
40
0
0
LTYPE
5
6E
100
AcDbSymbolTableRecord
100
AcDbLinetypeTableRecord
70
0
2
CENTER
3
____ _ ____ _ ____ _ ____
72
65
73
4
40
47.5
49
22
74
0
49
-8.5
74
0
49
8.5
74
0
49
-8.5
74
0
0
LTYPE
5
6F
100
AcDbSymbolTableRecord
100
AcDbLinetypeTableRecord
70
0
2
DASHED
3
__ __ __ __ __ __ __ __ __
72
65
73
2
40
25.72
49
12.86
74
0
49
-12.86
74
0
0
ENDTAB
0
TABLE
2
LAYER
5
25b
100
AcDbSymbolTable
0
LAYER
5
10
100
AcDbSymbolTableRecord
100
AcDbLayerTableRecord
2
0
70
0
62
7
6
Continuous
290
1
370
-3
390
0
0
LAYER
5
71
100
AcDbSymbolTableRecord
100
AcDbLayerTableRecord
2
80
70
0
62
-6
6
Continuous
290
1
370
-3
390
0
0
LAYER
5
73
100
AcDbSymbolTableRecord
100
AcDbLayerTableRecord
2
81
70
0
62
-3
6
Continuous
290
1
370
-3
390
0
0
LAYER
5
75
100
AcDbSymbolTableRecord
100
AcDbLayerTableRecord
2
1
70
0
62
4
6
Continuous
290
1
370
-3
390
0
0
LAYER
5
A7
100
AcDbSymbolTableRecord
100
AcDbLayerTableRecord
2
4
70
0
62
-2
6
CENTER
290
1
370
-3
390
0
0
LAYER
5
11D
100
AcDbSymbolTableRecord
100
AcDbLayerTableRecord
2
Defpoints
70
0
62
7
6
Continuous
290
0
370
-3
390
0
0
LAYER
5
14A
100
AcDbSymbolTableRecord
100
AcDbLayerTableRecord
2
2
70
0
62
7
6
Continuous
290
1
370
-3
390
0
0
LAYER
5
245
100
AcDbSymbolTableRecord
100
AcDbLayerTableRecord
2
SK1
70
0
62
4
6
Continuous
290
1
370
-3
390
0
0
LAYER
5
246
100
AcDbSymbolTableRecord
100
AcDbLayerTableRecord
2
SK4
70
0
62
2
6
CENTER
290
1
370
-3
390
0
0
LAYER
5
247
100
AcDbSymbolTableRecord
100
AcDbLayerTableRecord
2
SK2
70
0
62
7
6
Continuous
290
1
370
-3
390
0
0
LAYER
5
248
100
AcDbSymbolTableRecord
100
AcDbLayerTableRecord
2
SK6
70
0
62
5
6
Continuous
290
1
370
-3
390
0
0
ENDTAB
0
TABLE
2
STYLE
5
25c
100
AcDbSymbolTable
0
STYLE
5
11
100
AcDbSymbolTableRecord
100
AcDbTextStyleTableRecord
2
Standard
3
txt
70
0
71
0
40
0
41
1
42
0
50
0
0
STYLE
5
10E
100
AcDbSymbolTableRecord
100
AcDbTextStyleTableRecord
2
iso_b_vert
3
simplex.shx
70
0
71
0
40
0
41
1
42
0
50
0
0
STYLE
5
10F
100
AcDbSymbolTableRecord
100
AcDbTextStyleTableRecord
2
DWGDirectTextStyle
3
simplex
70
0
71
0
40
0
41
1
42
0
50
0
0
ENDTAB
0
TABLE
2
DIMSTYLE
5
25d
100
AcDbSymbolTable
100
AcDbDimStyleTable
0
DIMSTYLE
105
27
100
AcDbSymbolTableRecord
100
AcDbDimStyleTableRecord
2
Standard
70
0
3
<>
41
0.18
42
0.0625
44
0.18
140
0.18
147
0.09
73
0
74
0
77
1
271
2
275
0
278
52
280
0
340
11
0
ENDTAB
0
TABLE
2
VIEW
5
25e
100
AcDbSymbolTable
0
ENDTAB
0
TABLE
2
UCS
5
25f
100
AcDbSymbolTable
0
ENDTAB
0
TABLE
2
APPID
5
260
100
AcDbSymbolTable
0
APPID
5
12
100
AcDbSymbolTableRecord
100
AcDbRegAppTableRecord
2
ACAD
70
0
0
APPID
5
112
100
AcDbSymbolTableRecord
100
AcDbRegAppTableRecord
2
ACAD_DSTYLE_DIMBREAK
70
0
0
APPID
5
204
100
AcDbSymbolTableRecord
100
AcDbRegAppTableRecord
2
ACAD_DSTYLE_DIM_LINETYPE
70
0
0
APPID
5
205
100
AcDbSymbolTableRecord
100
AcDbRegAppTableRecord
2
ACAD_DSTYLE_DIM_EXT1_LINETYPE
70
0
0
APPID
5
206
100
AcDbSymbolTableRecord
100
AcDbRegAppTableRecord
2
ACAD_DSTYLE_DIM_EXT2_LINETYPE
70
0
0
APPID
5
241
100
AcDbSymbolTableRecord
100
AcDbRegAppTableRecord
2
ACAD_MLEADERVER
70
0
0
ENDTAB
0
TABLE
2
BLOCK_RECORD
5
261
100
AcDbSymbolTable
0
BLOCK_RECORD
5
1F
100
AcDbSymbolTableRecord
100
AcDbBlockTableRecord
2
*Model_Space
340
0
70
0
0
BLOCK_RECORD
5
1B
100
AcDbSymbolTableRecord
100
AcDbBlockTableRecord
2
*Paper_Space
340
0
70
0
0
BLOCK_RECORD
5
23
100
AcDbSymbolTableRecord
100
AcDbBlockTableRecord
2
*Paper_Space0
340
0
70
0
0
BLOCK_RECORD
5
114
100
AcDbSymbolTableRecord
100
AcDbBlockTableRecord
2
_Closed
340
0
70
0
0
BLOCK_RECORD
5
11E
100
AcDbSymbolTableRecord
100
AcDbBlockTableRecord
2
*D2
340
0
70
0
0
BLOCK_RECORD
5
12A
100
AcDbSymbolTableRecord
100
AcDbBlockTableRecord
2
_U0
340
0
70
0
0
BLOCK_RECORD
5
13C
100
AcDbSymbolTableRecord
100
AcDbBlockTableRecord
2
*D4
340
0
70
0
0
BLOCK_RECORD
5
14B
100
AcDbSymbolTableRecord
100
AcDbBlockTableRecord
2
_U1
340
0
70
0
0
BLOCK_RECORD
5
15B
100
AcDbSymbolTableRecord
100
AcDbBlockTableRecord
2
*D6
340
0
70
0
0
BLOCK_RECORD
5
169
100
AcDbSymbolTableRecord
100
AcDbBlockTableRecord
2
_U2
340
0
70
0
0
BLOCK_RECORD
5
179
100
AcDbSymbolTableRecord
100
AcDbBlockTableRecord
2
*D8
340
0
70
0
0
BLOCK_RECORD
5
185
100
AcDbSymbolTableRecord
100
AcDbBlockTableRecord
2
_U3
340
0
70
0
0
BLOCK_RECORD
5
195
100
AcDbSymbolTableRecord
100
AcDbBlockTableRecord
2
*D10
340
0
70
0
0
BLOCK_RECORD
5
1A1
100
AcDbSymbolTableRecord
100
AcDbBlockTableRecord
2
_U4
340
0
70
0
0
BLOCK_RECORD
5
1B1
100
AcDbSymbolTableRecord
100
AcDbBlockTableRecord
2
*D12
340
0
70
0
0
BLOCK_RECORD
5
1BD
100
AcDbSymbolTableRecord
100
AcDbBlockTableRecord
2
_U5
340
0
70
0
0
BLOCK_RECORD
5
1CD
100
AcDbSymbolTableRecord
100
AcDbBlockTableRecord
2
*D14
340
0
70
0
0
BLOCK_RECORD
5
1D9
100
AcDbSymbolTableRecord
100
AcDbBlockTableRecord
2
_U6
340
0
70
0
0
ENDTAB
0
ENDSEC
0
SECTION
2
BLOCKS
0
BLOCK
5
20
100
AcDbEntity
8
0
100
AcDbBlockBegin
2
*Model_Space
70
0
10
0
20
0
30
0
3
*Model_Space
0
ENDBLK
5
21
100
AcDbEntity
8
0
100
AcDbBlockEnd
0
BLOCK
5
1C
100
AcDbEntity
8
0
100
AcDbBlockBegin
2
*Paper_Space
70
0
10
0
20
0
30
0
3
*Paper_Space
0
ENDBLK
5
1D
100
AcDbEntity
8
0
100
AcDbBlockEnd
0
BLOCK
5
24
100
AcDbEntity
8
0
100
AcDbBlockBegin
2
*Paper_Space0
70
0
10
0
20
0
30
0
3
*Paper_Space0
0
ENDBLK
5
25
100
AcDbEntity
8
0
100
AcDbBlockEnd
0
BLOCK
5
115
100
AcDbEntity
8
0
100
AcDbBlockBegin
2
_Closed
70
0
10
0
20
0
30
0
3
_Closed
0
LINE
5
117
100
AcDbEntity
8
0
62
256
6
ByLayer
370
-2
48
1
60
0
100
AcDbLine
10
-1
20
0.166667
30
0
11
0
21
0
31
0
39
0
210
0
220
0
230
1
0
LINE
5
118
100
AcDbEntity
8
0
62
256
6
ByLayer
370
-2
48
1
60
0
100
AcDbLine
10
0
20
0
30
0
11
-1
21
-0.166667
31
0
39
0
210
0
220
0
230
1
0
LINE
5
119
100
AcDbEntity
8
0
62
256
6
ByLayer
370
-2
48
1
60
0
100
AcDbLine
10
-1
20
0.166667
30
0
11
-1
21
-0.166667
31
0
39
0
210
0
220
0
230
1
0
LINE
5
11A
100
AcDbEntity
8
0
62
256
6
ByLayer
370
-2
48
1
60
0
100
AcDbLine
10
0
20
0
30
0
11
-1
21
0
31
0
39
0
210
0
220
0
230
1
0
ENDBLK
5
116
100
AcDbEntity
8
0
100
AcDbBlockEnd
0
BLOCK
5
11F
100
AcDbEntity
8
0
100
AcDbBlockBegin
2
*D2
70
1
10
0
20
0
30
0
3
*D2
0
LINE
5
121
100
AcDbEntity
8
0
62
256
6
ByLayer
370
-2
48
1
60
0
100
AcDbLine
10
0
20
-5.5875
30
0
11
0
21
-30.67512
31
0
39
0
210
0
220
0
230
1
0
LINE
5
122
100
AcDbEntity
8
0
62
256
6
ByLayer
370
-2
48
1
60
0
100
AcDbLine
10
90
20
-1.5875
30
0
11
90
21
-30.67512
31
0
39
0
210
0
220
0
230
1
0
LINE
5
123
100
AcDbEntity
8
0
62
256
6
ByLayer
370
-2
48
1
60
0
100
AcDbLine
10
3.175
20
-27.50012
30
0
11
86.825
21
-27.50012
31
0
39
0
210
0
220
0
230
1
0
SOLID
5
124
100
AcDbEntity
8
0
62
256
6
ByLayer
370
-1
48
1
60
0
100
AcDbTrace
10
3.175
20
-26.970953
30
0
11
3.175
21
-28.029287
31
0
12
0
22
-27.50012
32
0
13
0
23
-27.50012
33
0
39
0
210
0
220
0
230
1
0
SOLID
5
125
100
AcDbEntity
8
0
62
256
6
ByLayer
370
-1
48
1
60
0
100
AcDbTrace
10
86.825
20
-28.029287
30
0
11
86.825
21
-26.970953
31
0
12
90
22
-27.50012
32
0
13
90
23
-27.50012
33
0
39
0
210
0
220
0
230
1
0
MTEXT
5
126
100
AcDbEntity
8
0
62
256
6
ByLayer
370
18
48
1
60
0
100
AcDbMText
10
45
20
-20.193619
30
0
210
0
220
0
230
1
1
\A1;90
40
3.50012
41
0
44
1
50
0
71
5
72
5
7
iso_b_vert
0
POINT
5
127
100
AcDbEntity
8
Defpoints
62
0
6
ByLayer
370
-1
48
1
60
0
100
AcDbPoint
10
0
20
-4
30
0
39
0
210
0
220
0
230
1
50
360
0
POINT
5
128
100
AcDbEntity
8
Defpoints
62
0
6
ByLayer
370
-1
48
1
60
0
100
AcDbPoint
10
90
20
0
30
0
39
0
210
0
220
0
230
1
50
360
0
POINT
5
129
100
AcDbEntity
8
Defpoints
62
0
6
ByLayer
370
-1
48
1
60
0
100
AcDbPoint
10
90
20
-27.50012
30
0
39
0
210
0
220
0
230
1
50
360
0
ENDBLK
5
120
100
AcDbEntity
8
0
100
AcDbBlockEnd
0
BLOCK
5
137
100
AcDbEntity
8
0
100
AcDbBlockBegin
2
_U0
70
0
10
0
20
0
30
0
3
_U0
0
MTEXT
5
12B
100
AcDbEntity
8
SK2
62
256
6
ByLayer
370
18
48
1
60
0
100
AcDbMText
10
39.770389
20
-26.467451
30
0
210
0
220
0
230
1
1
\W0.7468;90.00
40
3.50012
41
0
44
1.084337
50
0
71
7
72
5
7
iso_b_vert
0
MTEXT
5
12C
100
AcDbEntity
8
SK2
62
256
6
ByLayer
370
18
48
1
60
0
100
AcDbMText
10
36.244329
20
-26.400814
30
0
210
0
220
0
230
1
1
\W0.1790;(
40
3.175
41
0
44
1.084337
50
0
71
7
72
5
7
iso_b_vert
0
MTEXT
5
12D
100
AcDbEntity
8
SK2
62
256
6
ByLayer
370
18
48
1
60
0
100
AcDbMText
10
53.758393
20
-26.400814
30
0
210
0
220
0
230
1
1
\W0.1969;)
40
3.175
41
0
44
1.084337
50
0
71
7
72
5
7
iso_b_vert
0
LINE
5
12E
100
AcDbEntity
8
SK2
62
256
6
ByLayer
370
13
48
1
60
0
100
AcDbLine
10
0
20
-5.5875
30
0
11
0
21
-30.67512
31
0
39
0
210
0
220
0
230
1
0
LINE
5
12F
100
AcDbEntity
8
SK2
62
256
6
ByLayer
370
13
48
1
60
0
100
AcDbLine
10
90
20
-1.5875
30
0
11
90
21
-30.67512
31
0
39
0
210
0
220
0
230
1
0
LINE
5
130
100
AcDbEntity
8
SK2
62
256
6
ByLayer
370
13
48
1
60
0
100
AcDbLine
10
0
20
-27.50012
30
0
11
90
21
-27.50012
31
0
39
0
210
0
220
0
230
1
0
LINE
5
131
100
AcDbEntity
8
SK2
62
256
6
ByLayer
370
13
48
1
60
0
100
AcDbLine
10
0
20
-27.50012
30
0
11
3.174998
21
-27.082123
31
0
39
0
210
0
220
0
230
1
0
LINE
5
132
100
AcDbEntity
8
SK2
62
256
6
ByLayer
370
13
48
1
60
0
100
AcDbLine
10
0
20
-27.50012
30
0
11
3.175002
21
-27.918117
31
0
39
0
210
0
220
0
230
1
0
LINE
5
133
100
AcDbEntity
8
SK2
62
256
6
ByLayer
370
13
48
1
60
0
100
AcDbLine
10
3.174998
20
-27.082123
30
0
11
3.175002
21
-27.918117
31
0
39
0
210
0
220
0
230
1
0
LINE
5
134
100
AcDbEntity
8
SK2
62
256
6
ByLayer
370
13
48
1
60
0
100
AcDbLine
10
90
20
-27.50012
30
0
11
86.825002
21
-27.918117
31
0
39
0
210
0
220
0
230
1
0
LINE
5
135
100
AcDbEntity
8
SK2
62
256
6
ByLayer
370
13
48
1
60
0
100
AcDbLine
10
90
20
-27.50012
30
0
11
86.824998
21
-27.082123
31
0
39
0
210
0
220
0
230
1
0
LINE
5
136
100
AcDbEntity
8
SK2
62
256
6
ByLayer
370
13
48
1
60
0
100
AcDbLine
10
86.825002
20
-27.918117
30
0
11
86.824998
21
-27.082123
31
0
39
0
210
0
220
0
230
1
0
ENDBLK
5
138
100
AcDbEntity
8
0
100
AcDbBlockEnd
0
BLOCK
5
13D
100
AcDbEntity
8
0
100
AcDbBlockBegin
2
*D4
70
1
10
0
20
0
30
0
3
*D4
0
LINE
5
13F
100
AcDbEntity
8
0
62
256
6
ByLayer
370
-2
48
1
60
0
100
AcDbLine
10
90.35
20
-3.4
30
0
11
99.92506
21
-3.4
31
0
39
0
210
0
220
0
230
1
0
LINE
5
140
100
AcDbEntity
8
0
62
256
6
ByLayer
370
-2
48
1
60
0
100
AcDbLine
10
90.35
20
3.4
30
0
11
99.92506
21
3.4
31
0
39
0
210
0
220
0
230
1
0
LINE
5
141
100
AcDbEntity
8
0
62
256
6
ByLayer
370
-2
48
1
60
0
100
AcDbLine
10
96.75006
20
3.4
30
0
11
96.75006
21
28.029793
31
0
39
0
210
0
220
0
230
1
0
LINE
5
142
100
AcDbEntity
8
0
62
256
6
ByLayer
370
-2
48
1
60
0
100
AcDbLine
10
96.75006
20
-6.575
30
0
11
96.75006
21
-9.75
31
0
39
0
210
0
220
0
230
1
0
LINE
5
143
100
AcDbEntity
8
0
62
256
6
ByLayer
370
-2
48
1
60
0
100
AcDbLine
10
96.75006
20
6.575
30
0
11
96.75006
21
9.75
31
0
39
0
210
0
220
0
230
1
0
SOLID
5
144
100
AcDbEntity
8
0
62
256
6
ByLayer
370
-1
48
1
60
0
100
AcDbTrace
10
97.279227
20
-6.575
30
0
11
96.220893
21
-6.575
31
0
12
96.75006
22
-3.4
32
0
13
96.75006
23
-3.4
33
0
39
0
210
0
220
0
230
1
0
SOLID
5
145
100
AcDbEntity
8
0
62
256
6
ByLayer
370
-1
48
1
60
0
100
AcDbTrace
10
96.220893
20
6.575
30
0
11
97.279227
21
6.575
31
0
12
96.75006
22
3.4
32
0
13
96.75006
23
3.4
33
0
39
0
210
0
220
0
230
1
0
MTEXT
5
146
100
AcDbEntity
8
0
62
256
6
ByLayer
370
18
48
1
60
0
100
AcDbMText
10
89.44356
20
18.889897
30
0
210
0
220
0
230
1
1
\A1;6.8
40
3.50012
41
0
44
1
50
90
71
5
72
5
7
iso_b_vert
0
POINT
5
147
100
AcDbEntity
8
Defpoints
62
0
6
ByLayer
370
-1
48
1
60
0
100
AcDbPoint
10
88.7625
20
-3.4
30
0
39
0
210
0
220
0
230
1
50
360
0
POINT
5
148
100
AcDbEntity
8
Defpoints
62
0
6
ByLayer
370
-1
48
1
60
0
100
AcDbPoint
10
88.7625
20
3.4
30
0
39
0
210
0
220
0
230
1
50
360
0
POINT
5
149
100
AcDbEntity
8
Defpoints
62
0
6
ByLayer
370
-1
48
1
60
0
100
AcDbPoint
10
96.75006
20
3.4
30
0
39
0
210
0
220
0
230
1
50
360
0
ENDBLK
5
13E
100
AcDbEntity
8
0
100
AcDbBlockEnd
0
BLOCK
5
156
100
AcDbEntity
8
0
100
AcDbBlockBegin
2
_U1
70
0
10
0
20
0
30
0
3
_U1
0
MTEXT
5
14C
100
AcDbEntity
8
2
62
256
6
ByLayer
370
18
48
1
60
0
100
AcDbMText
10
96.060403
20
7.557505
30
0
210
0
220
0
230
1
1
\W0.7346;6.80
40
3.50012
41
0
44
1.084337
50
90
71
7
72
5
7
iso_b_vert
0
LINE
5
14D
100
AcDbEntity
8
2
62
256
6
ByLayer
370
13
48
1
60
0
100
AcDbLine
10
90.35
20
-3.4
30
0
11
99.92506
21
-3.4
31
0
39
0
210
0
220
0
230
1
0
LINE
5
14E
100
AcDbEntity
8
2
62
256
6
ByLayer
370
13
48
1
60
0
100
AcDbLine
10
90.35
20
3.4
30
0
11
99.92506
21
3.4
31
0
39
0
210
0
220
0
230
1
0
LINE
5
14F
100
AcDbEntity
8
2
62
256
6
ByLayer
370
13
48
1
60
0
100
AcDbLine
10
96.75006
20
-3.4
30
0
11
96.75006
21
15.61468
31
0
39
0
210
0
220
0
230
1
0
LINE
5
150
100
AcDbEntity
8
2
62
256
6
ByLayer
370
13
48
1
60
0
100
AcDbLine
10
96.75006
20
-3.4
30
0
11
96.332063
21
-0.225002
31
0
39
0
210
0
220
0
230
1
0
LINE
5
151
100
AcDbEntity
8
2
62
256
6
ByLayer
370
13
48
1
60
0
100
AcDbLine
10
96.75006
20
-3.4
30
0
11
97.168057
21
-0.224998
31
0
39
0
210
0
220
0
230
1
0
LINE
5
152
100
AcDbEntity
8
2
62
256
6
ByLayer
370
13
48
1
60
0
100
AcDbLine
10
96.332063
20
-0.225002
30
0
11
97.168057
21
-0.224998
31
0
39
0
210
0
220
0
230
1
0
LINE
5
153
100
AcDbEntity
8
2
62
256
6
ByLayer
370
13
48
1
60
0
100
AcDbLine
10
96.75006
20
3.4
30
0
11
97.168057
21
0.225002
31
0
39
0
210
0
220
0
230
1
0
LINE
5
154
100
AcDbEntity
8
2
62
256
6
ByLayer
370
13
48
1
60
0
100
AcDbLine
10
96.75006
20
3.4
30
0
11
96.332063
21
0.224998
31
0
39
0
210
0
220
0
230
1
0
LINE
5
155
100
AcDbEntity
8
2
62
256
6
ByLayer
370
13
48
1
60
0
100
AcDbLine
10
97.168057
20
0.225002
30
0
11
96.332063
21
0.224998
31
0
39
0
210
0
220
0
230
1
0
ENDBLK
5
157
100
AcDbEntity
8
0
100
AcDbBlockEnd
0
BLOCK
5
15C
100
AcDbEntity
8
0
100
AcDbBlockBegin
2
*D6
70
1
10
0
20
0
30
0
3
*D6
0
LINE
5
15E
100
AcDbEntity
8
0
62
256
6
ByLayer
370
-2
48
1
60
0
100
AcDbLine
10
-37.5875
20
4
30
0
11
-42.42494
21
4
31
0
39
0
210
0
220
0
230
1
0
LINE
5
15F
100
AcDbEntity
8
0
62
256
6
ByLayer
370
-2
48
1
60
0
100
AcDbLine
10
-37.5875
20
-4
30
0
11
-42.42494
21
-4
31
0
39
0
210
0
220
0
230
1
0
LINE
5
160
100
AcDbEntity
8
0
62
256
6
ByLayer
370
-2
48
1
60
0
100
AcDbLine
10
-39.24994
20
4
30
0
11
-39.24994
21
24.830487
31
0
39
0
210
0
220
0
230
1
0
LINE
5
161
100
AcDbEntity
8
0
62
256
6
ByLayer
370
-2
48
1
60
0
100
AcDbLine
10
-39.24994
20
7.175
30
0
11
-39.24994
21
10.35
31
0
39
0
210
0
220
0
230
1
0
LINE
5
162
100
AcDbEntity
8
0
62
256
6
ByLayer
370
-2
48
1
60
0
100
AcDbLine
10
-39.24994
20
-7.175
30
0
11
-39.24994
21
-10.35
31
0
39
0
210
0
220
0
230
1
0
SOLID
5
163
100
AcDbEntity
8
0
62
256
6
ByLayer
370
-1
48
1
60
0
100
AcDbTrace
10
-39.779107
20
7.175
30
0
11
-38.720773
21
7.175
31
0
12
-39.24994
22
4
32
0
13
-39.24994
23
4
33
0
39
0
210
0
220
0
230
1
0
SOLID
5
164
100
AcDbEntity
8
0
62
256
6
ByLayer
370
-1
48
1
60
0
100
AcDbTrace
10
-38.720773
20
-7.175
30
0
11
-39.779107
21
-7.175
31
0
12
-39.24994
22
-4
32
0
13
-39.24994
23
-4
33
0
39
0
210
0
220
0
230
1
0
MTEXT
5
165
100
AcDbEntity
8
0
62
256
6
ByLayer
370
18
48
1
60
0
100
AcDbMText
10
-46.556441
20
18.10734
30
0
210
0
220
0
230
1
1
\A1;8
40
3.50012
41
0
44
1
50
90
71
5
72
5
7
iso_b_vert
0
POINT
5
166
100
AcDbEntity
8
Defpoints
62
0
6
ByLayer
370
-1
48
1
60
0
100
AcDbPoint
10
-36
20
4
30
0
39
0
210
0
220
0
230
1
50
360
0
POINT
5
167
100
AcDbEntity
8
Defpoints
62
0
6
ByLayer
370
-1
48
1
60
0
100
AcDbPoint
10
-36
20
-4
30
0
39
0
210
0
220
0
230
1
50
360
0
POINT
5
168
100
AcDbEntity
8
Defpoints
62
0
6
ByLayer
370
-1
48
1
60
0
100
AcDbPoint
10
-39.24994
20
-4
30
0
39
0
210
0
220
0
230
1
50
360
0
ENDBLK
5
15D
100
AcDbEntity
8
0
100
AcDbBlockEnd
0
BLOCK
5
174
100
AcDbEntity
8
0
100
AcDbBlockBegin
2
_U2
70
0
10
0
20
0
30
0
3
_U2
0
MTEXT
5
16A
100
AcDbEntity
8
SK2
62
256
6
ByLayer
370
18
48
1
60
0
100
AcDbMText
10
-39.939597
20
14.157505
30
0
210
0
220
0
230
1
1
\W0.7346;8.00
40
3.50012
41
0
44
1.084337
50
90
71
7
72
5
7
iso_b_vert
0
LINE
5
16B
100
AcDbEntity
8
SK2
62
256
6
ByLayer
370
13
48
1
60
0
100
AcDbLine
10
-37.5875
20
4
30
0
11
-42.42494
21
4
31
0
39
0
210
0
220
0
230
1
0
LINE
5
16C
100
AcDbEntity
8
SK2
62
256
6
ByLayer
370
13
48
1
60
0
100
AcDbLine
10
-37.5875
20
-4
30
0
11
-42.42494
21
-4
31
0
39
0
210
0
220
0
230
1
0
LINE
5
16D
100
AcDbEntity
8
SK2
62
256
6
ByLayer
370
13
48
1
60
0
100
AcDbLine
10
-39.24994
20
-4
30
0
11
-39.24994
21
22.21468
31
0
39
0
210
0
220
0
230
1
0
LINE
5
16E
100
AcDbEntity
8
SK2
62
256
6
ByLayer
370
13
48
1
60
0
100
AcDbLine
10
-39.24994
20
4
30
0
11
-38.831943
21
0.825002
31
0
39
0
210
0
220
0
230
1
0
LINE
5
16F
100
AcDbEntity
8
SK2
62
256
6
ByLayer
370
13
48
1
60
0
100
AcDbLine
10
-39.24994
20
4
30
0
11
-39.667937
21
0.824998
31
0
39
0
210
0
220
0
230
1
0
LINE
5
170
100
AcDbEntity
8
SK2
62
256
6
ByLayer
370
13
48
1
60
0
100
AcDbLine
10
-38.831943
20
0.825002
30
0
11
-39.667937
21
0.824998
31
0
39
0
210
0
220
0
230
1
0
LINE
5
171
100
AcDbEntity
8
SK2
62
256
6
ByLayer
370
13
48
1
60
0
100
AcDbLine
10
-39.24994
20
-4
30
0
11
-39.667937
21
-0.825002
31
0
39
0
210
0
220
0
230
1
0
LINE
5
172
100
AcDbEntity
8
SK2
62
256
6
ByLayer
370
13
48
1
60
0
100
AcDbLine
10
-39.24994
20
-4
30
0
11
-38.831943
21
-0.824998
31
0
39
0
210
0
220
0
230
1
0
LINE
5
173
100
AcDbEntity
8
SK2
62
256
6
ByLayer
370
13
48
1
60
0
100
AcDbLine
10
-39.667937
20
-0.825002
30
0
11
-38.831943
21
-0.824998
31
0
39
0
210
0
220
0
230
1
0
ENDBLK
5
175
100
AcDbEntity
8
0
100
AcDbBlockEnd
0
BLOCK
5
17A
100
AcDbEntity
8
0
100
AcDbBlockBegin
2
*D8
70
1
10
0
20
0
30
0
3
*D8
0
LINE
5
17C
100
AcDbEntity
8
0
62
256
6
ByLayer
370
-2
48
1
60
0
100
AcDbLine
10
-36
20
-5.5875
30
0
11
-36
21
-30.67512
31
0
39
0
210
0
220
0
230
1
0
LINE
5
17D
100
AcDbEntity
8
0
62
256
6
ByLayer
370
-2
48
1
60
0
100
AcDbLine
10
0
20
-5.5875
30
0
11
0
21
-30.67512
31
0
39
0
210
0
220
0
230
1
0
LINE
5
17E
100
AcDbEntity
8
0
62
256
6
ByLayer
370
-2
48
1
60
0
100
AcDbLine
10
-32.825
20
-27.50012
30
0
11
-3.175
21
-27.50012
31
0
39
0
210
0
220
0
230
1
0
SOLID
5
17F
100
AcDbEntity
8
0
62
256
6
ByLayer
370
-1
48
1
60
0
100
AcDbTrace
10
-32.825
20
-26.970953
30
0
11
-32.825
21
-28.029287
31
0
12
-36
22
-27.50012
32
0
13
-36
23
-27.50012
33
0
39
0
210
0
220
0
230
1
0
SOLID
5
180
100
AcDbEntity
8
0
62
256
6
ByLayer
370
-1
48
1
60
0
100
AcDbTrace
10
-3.175
20
-28.029287
30
0
11
-3.175
21
-26.970953
31
0
12
0
22
-27.50012
32
0
13
0
23
-27.50012
33
0
39
0
210
0
220
0
230
1
0
MTEXT
5
181
100
AcDbEntity
8
0
62
256
6
ByLayer
370
18
48
1
60
0
100
AcDbMText
10
-18
20
-20.193619
30
0
210
0
220
0
230
1
1
\A1;36
40
3.50012
41
0
44
1
50
0
71
5
72
5
7
iso_b_vert
0
POINT
5
182
100
AcDbEntity
8
Defpoints
62
0
6
ByLayer
370
-1
48
1
60
0
100
AcDbPoint
10
-36
20
-4
30
0
39
0
210
0
220
0
230
1
50
360
0
POINT
5
183
100
AcDbEntity
8
Defpoints
62
0
6
ByLayer
370
-1
48
1
60
0
100
AcDbPoint
10
0
20
-4
30
0
39
0
210
0
220
0
230
1
50
360
0
POINT
5
184
100
AcDbEntity
8
Defpoints
62
0
6
ByLayer
370
-1
48
1
60
0
100
AcDbPoint
10
0
20
-27.50012
30
0
39
0
210
0
220
0
230
1
50
360
0
ENDBLK
5
17B
100
AcDbEntity
8
0
100
AcDbBlockEnd
0
BLOCK
5
190
100
AcDbEntity
8
0
100
AcDbBlockBegin
2
_U3
70
0
10
0
20
0
30
0
3
_U3
0
MTEXT
5
186
100
AcDbEntity
8
SK2
62
256
6
ByLayer
370
18
48
1
60
0
100
AcDbMText
10
-23.229611
20
-26.467451
30
0
210
0
220
0
230
1
1
\W0.7468;36.00
40
3.50012
41
0
44
1.084337
50
0
71
7
72
5
7
iso_b_vert
0
LINE
5
187
100
AcDbEntity
8
SK2
62
256
6
ByLayer
370
13
48
1
60
0
100
AcDbLine
10
-36
20
-5.5875
30
0
11
-36
21
-30.67512
31
0
39
0
210
0
220
0
230
1
0
LINE
5
188
100
AcDbEntity
8
SK2
62
256
6
ByLayer
370
13
48
1
60
0
100
AcDbLine
10
0
20
-5.5875
30
0
11
0
21
-30.67512
31
0
39
0
210
0
220
0
230
1
0
LINE
5
189
100
AcDbEntity
8
SK2
62
256
6
ByLayer
370
13
48
1
60
0
100
AcDbLine
10
-36
20
-27.50012
30
0
11
0
21
-27.50012
31
0
39
0
210
0
220
0
230
1
0
LINE
5
18A
100
AcDbEntity
8
SK2
62
256
6
ByLayer
370
13
48
1
60
0
100
AcDbLine
10
-36
20
-27.50012
30
0
11
-32.825002
21
-27.082123
31
0
39
0
210
0
220
0
230
1
0
LINE
5
18B
100
AcDbEntity
8
SK2
62
256
6
ByLayer
370
13
48
1
60
0
100
AcDbLine
10
-36
20
-27.50012
30
0
11
-32.824998
21
-27.918117
31
0
39
0
210
0
220
0
230
1
0
LINE
5
18C
100
AcDbEntity
8
SK2
62
256
6
ByLayer
370
13
48
1
60
0
100
AcDbLine
10
-32.825002
20
-27.082123
30
0
11
-32.824998
21
-27.918117
31
0
39
0
210
0
220
0
230
1
0
LINE
5
18D
100
AcDbEntity
8
SK2
62
256
6
ByLayer
370
13
48
1
60
0
100
AcDbLine
10
0
20
-27.50012
30
0
11
-3.174998
21
-27.918117
31
0
39
0
210
0
220
0
230
1
0
LINE
5
18E
100
AcDbEntity
8
SK2
62
256
6
ByLayer
370
13
48
1
60
0
100
AcDbLine
10
0
20
-27.50012
30
0
11
-3.175002
21
-27.082123
31
0
39
0
210
0
220
0
230
1
0
LINE
5
18F
100
AcDbEntity
8
SK2
62
256
6
ByLayer
370
13
48
1
60
0
100
AcDbLine
10
-3.174998
20
-27.918117
30
0
11
-3.175002
21
-27.082123
31
0
39
0
210
0
220
0
230
1
0
ENDBLK
5
191
100
AcDbEntity
8
0
100
AcDbBlockEnd
0
BLOCK
5
196
100
AcDbEntity
8
0
100
AcDbBlockBegin
2
*D10
70
1
10
0
20
0
30
0
3
*D10
0
LINE
5
198
100
AcDbEntity
8
0
62
256
6
ByLayer
370
-2
48
1
60
0
100
AcDbLine
10
6
20
2.3125
30
0
11
6
21
-21.92482
31
0
39
0
210
0
220
0
230
1
0
LINE
5
199
100
AcDbEntity
8
0
62
256
6
ByLayer
370
-2
48
1
60
0
100
AcDbLine
10
90
20
-1.5875
30
0
11
90
21
-21.92482
31
0
39
0
210
0
220
0
230
1
0
LINE
5
19A
100
AcDbEntity
8
0
62
256
6
ByLayer
370
-2
48
1
60
0
100
AcDbLine
10
9.175
20
-18.74982
30
0
11
86.825
21
-18.74982
31
0
39
0
210
0
220
0
230
1
0
SOLID
5
19B
100
AcDbEntity
8
0
62
256
6
ByLayer
370
-1
48
1
60
0
100
AcDbTrace
10
9.175
20
-18.220653
30
0
11
9.175
21
-19.278987
31
0
12
6
22
-18.74982
32
0
13
6
23
-18.74982
33
0
39
0
210
0
220
0
230
1
0
SOLID
5
19C
100
AcDbEntity
8
0
62
256
6
ByLayer
370
-1
48
1
60
0
100
AcDbTrace
10
86.825
20
-19.278987
30
0
11
86.825
21
-18.220653
31
0
12
90
22
-18.74982
32
0
13
90
23
-18.74982
33
0
39
0
210
0
220
0
230
1
0
MTEXT
5
19D
100
AcDbEntity
8
0
62
256
6
ByLayer
370
18
48
1
60
0
100
AcDbMText
10
48
20
-11.443319
30
0
210
0
220
0
230
1
1
\A1;84
40
3.50012
41
0
44
1
50
0
71
5
72
5
7
iso_b_vert
0
POINT
5
19E
100
AcDbEntity
8
Defpoints
62
0
6
ByLayer
370
-1
48
1
60
0
100
AcDbPoint
10
6
20
3.9
30
0
39
0
210
0
220
0
230
1
50
360
0
POINT
5
19F
100
AcDbEntity
8
Defpoints
62
0
6
ByLayer
370
-1
48
1
60
0
100
AcDbPoint
10
90
20
0
30
0
39
0
210
0
220
0
230
1
50
360
0
POINT
5
1A0
100
AcDbEntity
8
Defpoints
62
0
6
ByLayer
370
-1
48
1
60
0
100
AcDbPoint
10
90
20
-18.74982
30
0
39
0
210
0
220
0
230
1
50
360
0
ENDBLK
5
197
100
AcDbEntity
8
0
100
AcDbBlockEnd
0
BLOCK
5
1AC
100
AcDbEntity
8
0
100
AcDbBlockBegin
2
_U4
70
0
10
0
20
0
30
0
3
_U4
0
MTEXT
5
1A2
100
AcDbEntity
8
SK2
62
256
6
ByLayer
370
18
48
1
60
0
100
AcDbMText
10
42.586116
20
-17.717151
30
0
210
0
220
0
230
1
1
\W0.7694;84.00
40
3.50012
41
0
44
1.084337
50
0
71
7
72
5
7
iso_b_vert
0
LINE
5
1A3
100
AcDbEntity
8
SK2
62
256
6
ByLayer
370
13
48
1
60
0
100
AcDbLine
10
6
20
2.3125
30
0
11
6
21
-21.92482
31
0
39
0
210
0
220
0
230
1
0
LINE
5
1A4
100
AcDbEntity
8
SK2
62
256
6
ByLayer
370
13
48
1
60
0
100
AcDbLine
10
90
20
-1.5875
30
0
11
90
21
-21.92482
31
0
39
0
210
0
220
0
230
1
0
LINE
5
1A5
100
AcDbEntity
8
SK2
62
256
6
ByLayer
370
13
48
1
60
0
100
AcDbLine
10
6
20
-18.74982
30
0
11
90
21
-18.74982
31
0
39
0
210
0
220
0
230
1
0
LINE
5
1A6
100
AcDbEntity
8
SK2
62
256
6
ByLayer
370
13
48
1
60
0
100
AcDbLine
10
6
20
-18.74982
30
0
11
9.174998
21
-18.331823
31
0
39
0
210
0
220
0
230
1
0
LINE
5
1A7
100
AcDbEntity
8
SK2
62
256
6
ByLayer
370
13
48
1
60
0
100
AcDbLine
10
6
20
-18.74982
30
0
11
9.175002
21
-19.167817
31
0
39
0
210
0
220
0
230
1
0
LINE
5
1A8
100
AcDbEntity
8
SK2
62
256
6
ByLayer
370
13
48
1
60
0
100
AcDbLine
10
9.174998
20
-18.331823
30
0
11
9.175002
21
-19.167817
31
0
39
0
210
0
220
0
230
1
0
LINE
5
1A9
100
AcDbEntity
8
SK2
62
256
6
ByLayer
370
13
48
1
60
0
100
AcDbLine
10
90
20
-18.74982
30
0
11
86.825002
21
-19.167817
31
0
39
0
210
0
220
0
230
1
0
LINE
5
1AA
100
AcDbEntity
8
SK2
62
256
6
ByLayer
370
13
48
1
60
0
100
AcDbLine
10
90
20
-18.74982
30
0
11
86.824998
21
-18.331823
31
0
39
0
210
0
220
0
230
1
0
LINE
5
1AB
100
AcDbEntity
8
SK2
62
256
6
ByLayer
370
13
48
1
60
0
100
AcDbLine
10
86.825002
20
-19.167817
30
0
11
86.824998
21
-18.331823
31
0
39
0
210
0
220
0
230
1
0
ENDBLK
5
1AD
100
AcDbEntity
8
0
100
AcDbBlockEnd
0
BLOCK
5
1B2
100
AcDbEntity
8
0
100
AcDbBlockBegin
2
*D12
70
1
10
0
20
0
30
0
3
*D12
0
LINE
5
1B4
100
AcDbEntity
8
0
62
256
6
ByLayer
370
-2
48
1
60
0
100
AcDbLine
10
34.4
20
-4.9875
30
0
11
34.4
21
-11.32
31
0
39
0
210
0
220
0
230
1
0
LINE
5
1B5
100
AcDbEntity
8
0
62
256
6
ByLayer
370
-2
48
1
60
0
100
AcDbLine
10
90
20
-1.5875
30
0
11
90
21
-11.32
31
0
39
0
210
0
220
0
230
1
0
LINE
5
1B6
100
AcDbEntity
8
0
62
256
6
ByLayer
370
-2
48
1
60
0
100
AcDbLine
10
37.575
20
-10.82
30
0
11
86.825
21
-10.82
31
0
39
0
210
0
220
0
230
1
0
SOLID
5
1B7
100
AcDbEntity
8
0
62
256
6
ByLayer
370
-1
48
1
60
0
100
AcDbTrace
10
37.575
20
-10.290833
30
0
11
37.575
21
-11.349167
31
0
12
34.4
22
-10.82
32
0
13
34.4
23
-10.82
33
0
39
0
210
0
220
0
230
1
0
SOLID
5
1B8
100
AcDbEntity
8
0
62
256
6
ByLayer
370
-1
48
1
60
0
100
AcDbTrace
10
86.825
20
-11.349167
30
0
11
86.825
21
-10.290833
31
0
12
90
22
-10.82
32
0
13
90
23
-10.82
33
0
39
0
210
0
220
0
230
1
0
MTEXT
5
1B9
100
AcDbEntity
8
0
62
256
6
ByLayer
370
18
48
1
60
0
100
AcDbMText
10
62.2
20
-4.975
30
0
210
0
220
0
230
1
1
\A1;55.6
40
2.8
41
0
44
1
50
0
71
5
72
5
7
iso_b_vert
0
POINT
5
1BA
100
AcDbEntity
8
Defpoints
62
0
6
ByLayer
370
-1
48
1
60
0
100
AcDbPoint
10
34.4
20
-3.4
30
0
39
0
210
0
220
0
230
1
50
360
0
POINT
5
1BB
100
AcDbEntity
8
Defpoints
62
0
6
ByLayer
370
-1
48
1
60
0
100
AcDbPoint
10
90
20
0
30
0
39
0
210
0
220
0
230
1
50
360
0
POINT
5
1BC
100
AcDbEntity
8
Defpoints
62
0
6
ByLayer
370
-1
48
1
60
0
100
AcDbPoint
10
90
20
-10.82
30
0
39
0
210
0
220
0
230
1
50
360
0
ENDBLK
5
1B3
100
AcDbEntity
8
0
100
AcDbBlockEnd
0
BLOCK
5
1C8
100
AcDbEntity
8
0
100
AcDbBlockBegin
2
_U5
70
0
10
0
20
0
30
0
3
_U5
0
MTEXT
5
1BE
100
AcDbEntity
8
SK2
62
256
6
ByLayer
370
18
48
1
60
0
100
AcDbMText
10
58.016454
20
-10.973893
30
0
210
0
220
0
230
1
1
\W0.7468;55.60
40
2.8
41
0
44
1.084337
50
0
71
7
72
5
7
iso_b_vert
0
LINE
5
1BF
100
AcDbEntity
8
SK2
62
256
6
ByLayer
370
13
48
1
60
0
100
AcDbLine
10
34.4
20
-4.9875
30
0
11
34.4
21
-11.32
31
0
39
0
210
0
220
0
230
1
0
LINE
5
1C0
100
AcDbEntity
8
SK2
62
256
6
ByLayer
370
13
48
1
60
0
100
AcDbLine
10
90
20
-1.5875
30
0
11
90
21
-11.32
31
0
39
0
210
0
220
0
230
1
0
LINE
5
1C1
100
AcDbEntity
8
SK2
62
256
6
ByLayer
370
13
48
1
60
0
100
AcDbLine
10
34.4
20
-10.82
30
0
11
90
21
-10.82
31
0
39
0
210
0
220
0
230
1
0
LINE
5
1C2
100
AcDbEntity
8
SK2
62
256
6
ByLayer
370
13
48
1
60
0
100
AcDbLine
10
34.4
20
-10.82
30
0
11
37.574998
21
-10.402003
31
0
39
0
210
0
220
0
230
1
0
LINE
5
1C3
100
AcDbEntity
8
SK2
62
256
6
ByLayer
370
13
48
1
60
0
100
AcDbLine
10
34.4
20
-10.82
30
0
11
37.575002
21
-11.237997
31
0
39
0
210
0
220
0
230
1
0
LINE
5
1C4
100
AcDbEntity
8
SK2
62
256
6
ByLayer
370
13
48
1
60
0
100
AcDbLine
10
37.574998
20
-10.402003
30
0
11
37.575002
21
-11.237997
31
0
39
0
210
0
220
0
230
1
0
LINE
5
1C5
100
AcDbEntity
8
SK2
62
256
6
ByLayer
370
13
48
1
60
0
100
AcDbLine
10
90
20
-10.82
30
0
11
86.825002
21
-11.237997
31
0
39
0
210
0
220
0
230
1
0
LINE
5
1C6
100
AcDbEntity
8
SK2
62
256
6
ByLayer
370
13
48
1
60
0
100
AcDbLine
10
90
20
-10.82
30
0
11
86.824998
21
-10.402003
31
0
39
0
210
0
220
0
230
1
0
LINE
5
1C7
100
AcDbEntity
8
SK2
62
256
6
ByLayer
370
13
48
1
60
0
100
AcDbLine
10
86.825002
20
-11.237997
30
0
11
86.824998
21
-10.402003
31
0
39
0
210
0
220
0
230
1
0
ENDBLK
5
1C9
100
AcDbEntity
8
0
100
AcDbBlockEnd
0
BLOCK
5
1CE
100
AcDbEntity
8
0
100
AcDbBlockBegin
2
*D14
70
1
10
0
20
0
30
0
3
*D14
0
LINE
5
1D0
100
AcDbEntity
8
0
62
256
6
ByLayer
370
-2
48
1
60
0
100
AcDbLine
10
-36
20
-1.5875
30
0
11
-36
21
-40.67512
31
0
39
0
210
0
220
0
230
1
0
LINE
5
1D1
100
AcDbEntity
8
0
62
256
6
ByLayer
370
-2
48
1
60
0
100
AcDbLine
10
90
20
-1.5875
30
0
11
90
21
-40.67512
31
0
39
0
210
0
220
0
230
1
0
LINE
5
1D2
100
AcDbEntity
8
0
62
256
6
ByLayer
370
-2
48
1
60
0
100
AcDbLine
10
-32.825
20
-37.50012
30
0
11
86.825
21
-37.50012
31
0
39
0
210
0
220
0
230
1
0
SOLID
5
1D3
100
AcDbEntity
8
0
62
256
6
ByLayer
370
-1
48
1
60
0
100
AcDbTrace
10
-32.825
20
-36.970953
30
0
11
-32.825
21
-38.029287
31
0
12
-36
22
-37.50012
32
0
13
-36
23
-37.50012
33
0
39
0
210
0
220
0
230
1
0
SOLID
5
1D4
100
AcDbEntity
8
0
62
256
6
ByLayer
370
-1
48
1
60
0
100
AcDbTrace
10
86.825
20
-38.029287
30
0
11
86.825
21
-36.970953
31
0
12
90
22
-37.50012
32
0
13
90
23
-37.50012
33
0
39
0
210
0
220
0
230
1
0
MTEXT
5
1D5
100
AcDbEntity
8
0
62
256
6
ByLayer
370
18
48
1
60
0
100
AcDbMText
10
27
20
-30.193619
30
0
210
0
220
0
230
1
1
\A1;126
40
3.50012
41
0
44
1
50
0
71
5
72
5
7
iso_b_vert
0
POINT
5
1D6
100
AcDbEntity
8
Defpoints
62
0
6
ByLayer
370
-1
48
1
60
0
100
AcDbPoint
10
-36
20
0
30
0
39
0
210
0
220
0
230
1
50
360
0
POINT
5
1D7
100
AcDbEntity
8
Defpoints
62
0
6
ByLayer
370
-1
48
1
60
0
100
AcDbPoint
10
90
20
0
30
0
39
0
210
0
220
0
230
1
50
360
0
POINT
5
1D8
100
AcDbEntity
8
Defpoints
62
0
6
ByLayer
370
-1
48
1
60
0
100
AcDbPoint
10
90
20
-37.50012
30
0
39
0
210
0
220
0
230
1
50
360
0
ENDBLK
5
1CF
100
AcDbEntity
8
0
100
AcDbBlockEnd
0
BLOCK
5
1E4
100
AcDbEntity
8
0
100
AcDbBlockBegin
2
_U6
70
0
10
0
20
0
30
0
3
_U6
0
MTEXT
5
1DA
100
AcDbEntity
8
SK2
62
256
6
ByLayer
370
18
48
1
60
0
100
AcDbMText
10
20.900059
20
-36.467451
30
0
210
0
220
0
230
1
1
\W0.7022;126.00
40
3.50012
41
0
44
1.084337
50
0
71
7
72
5
7
iso_b_vert
0
LINE
5
1DB
100
AcDbEntity
8
SK2
62
256
6
ByLayer
370
13
48
1
60
0
100
AcDbLine
10
-36
20
-1.5875
30
0
11
-36
21
-40.67512
31
0
39
0
210
0
220
0
230
1
0
LINE
5
1DC
100
AcDbEntity
8
SK2
62
256
6
ByLayer
370
13
48
1
60
0
100
AcDbLine
10
90
20
-1.5875
30
0
11
90
21
-40.67512
31
0
39
0
210
0
220
0
230
1
0
LINE
5
1DD
100
AcDbEntity
8
SK2
62
256
6
ByLayer
370
13
48
1
60
0
100
AcDbLine
10
-36
20
-37.50012
30
0
11
90
21
-37.50012
31
0
39
0
210
0
220
0
230
1
0
LINE
5
1DE
100
AcDbEntity
8
SK2
62
256
6
ByLayer
370
13
48
1
60
0
100
AcDbLine
10
-36
20
-37.50012
30
0
11
-32.825002
21
-37.082123
31
0
39
0
210
0
220
0
230
1
0
LINE
5
1DF
100
AcDbEntity
8
SK2
62
256
6
ByLayer
370
13
48
1
60
0
100
AcDbLine
10
-36
20
-37.50012
30
0
11
-32.824998
21
-37.918117
31
0
39
0
210
0
220
0
230
1
0
LINE
5
1E0
100
AcDbEntity
8
SK2
62
256
6
ByLayer
370
13
48
1
60
0
100
AcDbLine
10
-32.825002
20
-37.082123
30
0
11
-32.824998
21
-37.918117
31
0
39
0
210
0
220
0
230
1
0
LINE
5
1E1
100
AcDbEntity
8
SK2
62
256
6
ByLayer
370
13
48
1
60
0
100
AcDbLine
10
90
20
-37.50012
30
0
11
86.825002
21
-37.918117
31
0
39
0
210
0
220
0
230
1
0
LINE
5
1E2
100
AcDbEntity
8
SK2
62
256
6
ByLayer
370
13
48
1
60
0
100
AcDbLine
10
90
20
-37.50012
30
0
11
86.824998
21
-37.082123
31
0
39
0
210
0
220
0
230
1
0
LINE
5
1E3
100
AcDbEntity
8
SK2
62
256
6
ByLayer
370
13
48
1
60
0
100
AcDbLine
10
86.825002
20
-37.918117
30
0
11
86.824998
21
-37.082123
31
0
39
0
210
0
220
0
230
1
0
ENDBLK
5
1E5
100
AcDbEntity
8
0
100
AcDbBlockEnd
0
ENDSEC
0
SECTION
2
ENTITIES
0
ARC
5
B3
100
AcDbEntity
8
1
62
256
6
ByLayer
370
18
48
1
60
0
100
AcDbCircle
39
0
10
1.290873
20
4.145329
30
0
40
0.799999999999999
210
0
220
0
230
1
100
AcDbArc
50
216.215989
51
270.03581
0
ARC
5
B4
100
AcDbEntity
8
1
62
256
6
ByLayer
370
18
48
1
60
0
100
AcDbCircle
39
0
10
1.290873
20
-4.145329
30
0
40
0.799999999999999
210
0
220
0
230
1
100
AcDbArc
50
89.96419
51
143.784011
0
ARC
5
B5
100
AcDbEntity
8
1
62
256
6
ByLayer
370
18
48
1
60
0
100
AcDbCircle
39
0
10
0
20
3.2
30
0
40
0.800000000000001
210
0
220
0
230
1
100
AcDbArc
50
36.215989
51
90
0
ARC
5
B6
100
AcDbEntity
8
1
62
256
6
ByLayer
370
18
48
1
60
0
100
AcDbCircle
39
0
10
0
20
-3.2
30
0
40
0.800000000000001
210
0
220
0
230
1
100
AcDbArc
50
270
51
323.784011
0
ARC
5
B7
100
AcDbEntity
8
SK2
62
256
6
ByLayer
370
13
48
1
60
0
100
AcDbCircle
39
0
10
90
20
0
30
0
40
20
210
0
220
0
230
1
100
AcDbArc
50
9.606349
51
69.999982
0
ARC
5
B8
100
AcDbEntity
8
SK2
62
256
6
ByLayer
370
13
48
1
60
0
100
AcDbCircle
39
0
10
90
20
0
30
0
40
20
210
0
220
0
230
1
100
AcDbArc
50
290.000018
51
350.393651
0
ELLIPSE
5
B9
100
AcDbEntity
8
1
62
256
6
ByLayer
370
18
48
1
60
0
100
AcDbEllipse
10
56.140083
20
3.214232
30
0
11
-0.000227091469691171
21
-0.00999742114069391
31
0
210
0
220
0
230
1
40
0.426027
41
0.0693277700014634
42
1.63463190186298
0
ELLIPSE
5
BA
100
AcDbEntity
8
1
62
256
6
ByLayer
370
18
48
1
60
0
100
AcDbEllipse
10
56.102341
20
3.214496
30
0
11
-6.70656104539025E-05
21
0.00999977510766589
31
0
210
0
220
0
230
1
40
0.007563
41
-3.08156806678342
42
-1.51097608930202
0
POINT
5
70
100
AcDbEntity
8
80
62
256
6
ByLayer
370
18
48
1
60
0
100
AcDbPoint
10
0
20
0
30
0
39
0
210
0
220
0
230
1
50
360
0
POINT
5
72
100
AcDbEntity
8
81
62
256
6
ByLayer
370
18
48
1
60
0
100
AcDbPoint
10
90
20
0
30
0
39
0
210
0
220
0
230
1
50
360
0
POINT
5
74
100
AcDbEntity
8
1
62
256
6
ByLayer
370
18
48
1
60
0
100
AcDbPoint
10
-36
20
0
30
0
39
0
210
0
220
0
230
1
50
360
0
POINT
5
76
100
AcDbEntity
8
1
62
256
6
ByLayer
370
18
48
1
60
1
100
AcDbPoint
10
0
20
-4
30
0
39
0
210
0
220
0
230
1
50
360
0
POINT
5
77
100
AcDbEntity
8
1
62
256
6
ByLayer
370
18
48
1
60
1
100
AcDbPoint
10
90
20
0
30
0
39
0
210
0
220
0
230
1
50
360
0
POINT
5
78
100
AcDbEntity
8
1
62
256
6
ByLayer
370
18
48
1
60
1
100
AcDbPoint
10
88.7625
20
-3.4
30
0
39
0
210
0
220
0
230
1
50
360
0
POINT
5
79
100
AcDbEntity
8
1
62
256
6
ByLayer
370
18
48
1
60
1
100
AcDbPoint
10
88.7625
20
3.4
30
0
39
0
210
0
220
0
230
1
50
360
0
POINT
5
7A
100
AcDbEntity
8
1
62
256
6
ByLayer
370
18
48
1
60
1
100
AcDbPoint
10
-36
20
4
30
0
39
0
210
0
220
0
230
1
50
360
0
POINT
5
7B
100
AcDbEntity
8
1
62
256
6
ByLayer
370
18
48
1
60
1
100
AcDbPoint
10
-36
20
-4
30
0
39
0
210
0
220
0
230
1
50
360
0
POINT
5
7C
100
AcDbEntity
8
1
62
256
6
ByLayer
370
18
48
1
60
1
100
AcDbPoint
10
-36
20
-4
30
0
39
0
210
0
220
0
230
1
50
360
0
POINT
5
7D
100
AcDbEntity
8
1
62
256
6
ByLayer
370
18
48
1
60
1
100
AcDbPoint
10
0
20
-4
30
0
39
0
210
0
220
0
230
1
50
360
0
POINT
5
7E
100
AcDbEntity
8
1
62
256
6
ByLayer
370
18
48
1
60
1
100
AcDbPoint
10
6
20
3.9
30
0
39
0
210
0
220
0
230
1
50
360
0
POINT
5
7F
100
AcDbEntity
8
1
62
256
6
ByLayer
370
18
48
1
60
1
100
AcDbPoint
10
90
20
0
30
0
39
0
210
0
220
0
230
1
50
360
0
POINT
5
80
100
AcDbEntity
8
1
62
256
6
ByLayer
370
18
48
1
60
1
100
AcDbPoint
10
34.4
20
-3.4
30
0
39
0
210
0
220
0
230
1
50
360
0
POINT
5
81
100
AcDbEntity
8
1
62
256
6
ByLayer
370
18
48
1
60
1
100
AcDbPoint
10
90
20
0
30
0
39
0
210
0
220
0
230
1
50
360
0
POINT
5
82
100
AcDbEntity
8
1
62
256
6
ByLayer
370
18
48
1
60
1
100
AcDbPoint
10
-36
20
0
30
0
39
0
210
0
220
0
230
1
50
360
0
POINT
5
83
100
AcDbEntity
8
1
62
256
6
ByLayer
370
18
48
1
60
1
100
AcDbPoint
10
90
20
0
30
0
39
0
210
0
220
0
230
1
50
360
0
SPLINE
5
BB
100
AcDbEntity
8
1
62
256
6
ByLayer
370
18
48
1
60
0
100
AcDbSpline
70
4
71
3
72
8
73
4
40
0
40
0
40
0
40
0
40
1
40
1
40
1
40
1
41
1
10
88.8143362261524
20
3.26349006283175
30
0
41
1
10
88.8158625113055
20
3.26246170752231
30
0
41
1
10
88.817388817379
20
3.26143326640784
30
0
41
1
10
88.8189151445241
20
3.26040473951341
30
0
0
SPLINE
5
BC
100
AcDbEntity
8
1
62
256
6
ByLayer
370
18
48
1
60
0
100
AcDbSpline
70
4
71
3
72
12
73
8
40
0
40
0
40
0
40
0
40
0.25
40
0.25
40
0.5
40
0.5
40
1
40
1
40
1
40
1
41
1
10
56.102412648888
20
3.21509400660332
30
0
41
1
10
56.0867869229208
20
3.21500035580291
30
0
41
1
10
56.0716159883729
20
3.21806833067737
30
0
41
1
10
56.045572468432
20
3.22846857571389
30
0
41
1
10
56.0348123774316
20
3.2356179085219
30
0
41
1
10
56.0094553985717
20
3.25972828179926
30
0
41
1
10
56.0016978334697
20
3.27886364130114
30
0
41
1
10
56.0016978334697
20
3.29771145439403
30
0
0
SPLINE
5
BD
100
AcDbEntity
8
1
62
256
6
ByLayer
370
18
48
1
60
0
100
AcDbSpline
70
4
71
3
72
30
73
26
40
0
40
0
40
0
40
0
40
0.499811695129662
40
0.499811695129662
40
0.669294515781914
40
0.669294515781914
40
0.782366879378651
40
0.782366879378651
40
0.857593094863348
40
0.857593094863348
40
0.907551189542863
40
0.907551189542863
40
0.940686948142809
40
0.940686948142809
40
0.962645825545344
40
0.962645825545344
40
0.977196624735285
40
0.977196624735285
40
0.986950250223274
40
0.986950250223274
40
0.993366150531204
40
0.993366150531204
40
0.997532732453549
40
0.997532732453549
40
1
40
1
40
1
40
1
41
1
10
88.6098665260737
20
-3.39945011947154
30
0
41
1
10
88.6438397986015
20
-3.37716587308319
30
0
41
1
10
88.6778606114668
20
-3.35469256878329
30
0
41
1
10
88.7234784208432
20
-3.32435655940316
30
0
41
1
10
88.7350356539716
20
-3.31665363403889
30
0
41
1
10
88.7543122142265
20
-3.30377733511705
30
0
41
1
10
88.7620286533801
20
-3.29861534641287
30
0
41
1
10
88.774882694567
20
-3.29000401304185
30
0
41
1
10
88.7800189985257
20
-3.28655971879249
30
0
41
1
10
88.7885680781655
20
-3.2808214064986
30
0
41
1
10
88.7919802755894
20
-3.27852961845292
30
0
41
1
10
88.7976564483212
20
-3.27471483550619
30
0
41
1
10
88.7999201674953
20
-3.27319282260677
30
0
41
1
10
88.8036843762228
20
-3.27066090042342
30
0
41
1
10
88.8051843103104
20
-3.26965172302005
30
0
41
1
10
88.8076798606551
20
-3.26797220924783
30
0
41
1
10
88.8086763817116
20
-3.26730141275809
30
0
41
1
10
88.8103534706497
20
-3.26617225681284
30
0
41
1
10
88.8110316405855
20
-3.26571558702577
30
0
41
1
10
88.8121505023217
20
-3.26496210662685
30
0
41
1
10
88.8125931094471
20
-3.26466402567127
30
0
41
1
10
88.8133112023457
20
-3.26418040462093
30
0
41
1
10
88.8135912493959
20
-3.26399179596893
30
0
41
1
10
88.8140246130868
20
-3.2636999301038
30
0
41
1
10
88.8141832015239
20
-3.2635931224394
30
0
41
1
10
88.8143362261525
20
-3.26349006283166
30
0
0
SPLINE
5
BE
100
AcDbEntity
8
1
62
256
6
ByLayer
370
18
48
1
60
0
100
AcDbSpline
70
4
71
3
72
10
73
6
40
0
40
0
40
0
40
0
40
0.5
40
0.5
40
1
40
1
40
1
40
1
41
1
10
88.8189151445241
20
-3.26040473951338
30
0
41
1
10
88.8079985341578
20
-3.26774852518815
30
0
41
1
10
88.7987341391267
20
-3.27086937000854
30
0
41
1
10
88.7830096081552
20
-3.26871308480847
30
0
41
1
10
88.7765872940521
20
-3.26347681633516
30
0
41
1
10
88.7711348028111
20
-3.2544304589438
30
0
0
SPLINE
5
BF
100
AcDbEntity
8
1
62
256
6
ByLayer
370
18
48
1
60
0
100
AcDbSpline
70
4
71
3
72
76
73
72
40
0
40
0
40
0
40
0
40
0.0082977462295671
40
0.0082977462295671
40
0.0307242801656779
40
0.0307242801656779
40
0.0531508141017887
40
0.0531508141017887
40
0.0755773480378996
40
0.0755773480378996
40
0.120430415910122
40
0.120430415910122
40
0.165283483782345
40
0.165283483782345
40
0.210136551654568
40
0.210136551654568
40
0.23256308559068
40
0.23256308559068
40
0.254989619526792
40
0.254989619526792
40
0.299842687399017
40
0.299842687399017
40
0.344695755271243
40
0.344695755271243
40
0.389548823143468
40
0.389548823143468
40
0.41197535707958
40
0.41197535707958
40
0.434401891015692
40
0.434401891015692
40
0.479254958887916
40
0.479254958887916
40
0.52410802676014
40
0.52410802676014
40
0.546534560696252
40
0.546534560696252
40
0.568961094632364
40
0.568961094632364
40
0.591387628568477
40
0.591387628568477
40
0.613814162504589
40
0.613814162504589
40
0.658667230376813
40
0.658667230376813
40
0.703520298249037
40
0.703520298249037
40
0.725946832185149
40
0.725946832185149
40
0.748373366121261
40
0.748373366121261
40
0.770799900057373
40
0.770799900057373
40
0.793226433993485
40
0.793226433993485
40
0.815652967929597
40
0.815652967929597
40
0.838079501865709
40
0.838079501865709
40
0.882932569737934
40
0.882932569737934
40
0.905359103674045
40
0.905359103674045
40
0.927785637610157
40
0.927785637610157
40
0.950212171546268
40
0.950212171546268
40
0.972638705482379
40
0.972638705482379
40
0.995065239418491
40
0.995065239418491
40
1
40
1
40
1
40
1
41
1
10
84.2311968118013
20
-2.28292517824457
30
1E-16
41
1
10
84.1548678652682
20
-2.31073150833254
30
1E-16
41
1
10
84.0784720887713
20
-2.33816054590514
30
1E-16
41
1
10
83.7952483829375
20
-2.43814524781706
30
1E-16
41
1
10
83.5876988201119
20
-2.50809135283623
30
2E-16
41
1
10
83.1743767906512
20
-2.64006139335652
30
2E-16
41
1
10
82.9680929040908
20
-2.70217430277
30
2E-16
41
1
10
82.5569926694551
20
-2.81967338172501
30
0
41
1
10
82.3520047861291
20
-2.87479573106373
30
0
41
1
10
81.7373976903767
20
-3.02786145215757
30
0
41
1
10
81.3280100450106
20
-3.11360455704107
30
0
41
1
10
80.5104882578537
20
-3.25307340572181
30
0
41
1
10
80.1012323267118
20
-3.30582109899049
30
0
41
1
10
79.2794645408371
20
-3.37625342602638
30
0
41
1
10
78.8680660561035
20
-3.39413783796275
30
0
41
1
10
78.2457188872927
20
-3.39325788141724
30
0
41
1
10
78.0387242542902
20
-3.38843940947146
30
0
41
1
10
77.6264679956251
20
-3.36975090294746
30
0
41
1
10
77.4209739623192
20
-3.35587537163565
30
0
41
1
10
76.8051815406328
20
-3.30119396228071
30
0
41
1
10
76.3954461402727
20
-3.24760408908023
30
0
41
1
10
75.577990478466
20
-3.10618090872774
30
0
41
1
10
75.1691382046996
20
-3.01903053612057
30
0
41
1
10
74.349081731013
20
-2.8141037689683
30
0
41
1
10
73.938944144548
20
-2.69495367662964
30
2E-16
41
1
10
73.3191119881658
20
-2.4961539138381
30
2E-16
41
1
10
73.1113178310229
20
-2.42642415539382
30
1E-16
41
1
10
72.6973854897351
20
-2.27988816271912
30
1E-16
41
1
10
72.4911437444757
20
-2.20352885822297
30
1E-16
41
1
10
71.8734657606926
20
-1.9671454069605
30
1E-16
41
1
10
71.4629512020497
20
-1.80011921857647
30
1E-16
41
1
10
70.644755810663
20
-1.44688213726914
30
1E-16
41
1
10
70.2359362940423
20
-1.26271856427476
30
1E-16
41
1
10
69.6217041210757
20
-0.978049405568186
30
1E-16
41
1
10
69.4171679554817
20
-0.880994284175699
30
1E-16
41
1
10
69.0072216529598
20
-0.685101650982745
30
0
41
1
10
68.8018841854373
20
-0.586124693429554
30
0
41
1
10
68.3900686002689
20
-0.386981206053377
30
0
41
1
10
68.1835436153653
20
-0.286930334192249
30
0
41
1
10
67.7699727178575
20
-0.0842137571580395
30
0
41
1
10
67.5623821940411
20
0.0179593462953562
30
0
41
1
10
66.9422308200104
20
0.321714556207326
30
0
41
1
10
66.5305673903133
20
0.521138632411493
30
0
41
1
10
65.7109088531207
20
0.914380961587966
30
-1E-16
41
1
10
65.3017594022838
20
1.10576012514895
30
-1E-16
41
1
10
64.6878000303053
20
1.38266341665317
30
-1E-16
41
1
10
64.4834642821218
20
1.47394605916273
30
-1E-16
41
1
10
64.0741113373235
20
1.65192033753968
30
-1E-16
41
1
10
63.8691779983908
20
1.73877915978281
30
-1E-16
41
1
10
63.4584034454403
20
1.90753266929784
30
-1E-16
41
1
10
63.2525287159776
20
1.98938037527799
30
-1E-16
41
1
10
62.8405019551838
20
2.14916354704226
30
-1E-16
41
1
10
62.6340370560555
20
2.22654220981042
30
-1E-16
41
1
10
62.2195714966491
20
2.37516325713003
30
-1E-16
41
1
10
62.0121200555667
20
2.44618939351201
30
-1E-16
41
1
10
61.5988803906604
20
2.58080000352794
30
-2E-16
41
1
10
61.392973899463
20
2.64483085387008
30
-2E-16
41
1
10
60.7766551573961
20
2.82604437458818
30
0
41
1
10
60.3668527913948
20
2.9314064021778
30
0
41
1
10
59.7527126860282
20
3.06576780789524
30
0
41
1
10
59.5484169021475
20
3.10687154651913
30
0
41
1
10
59.1393399533779
20
3.18049318330611
30
0
41
1
10
58.934648678441
20
3.21310738346105
30
0
41
1
10
58.5245835424102
20
3.26974938058731
30
0
41
1
10
58.3191946201212
20
3.29379855168537
30
0
41
1
10
57.9083590349165
20
3.33350378043517
30
0
41
1
10
57.7025810792697
20
3.34898155082132
30
0
41
1
10
57.2897337329146
20
3.37093054972848
30
0
41
1
10
57.0823965936552
20
3.37741258980475
30
0
41
1
10
56.8292151952565
20
3.37978482269037
30
0
41
1
10
56.7835939952137
20
3.37999295894491
30
0
41
1
10
56.7380110081671
20
3.37998159019153
30
0
0
SPLINE
5
C0
100
AcDbEntity
8
1
62
256
6
ByLayer
370
18
48
1
60
0
100
AcDbSpline
70
4
71
3
72
80
73
76
40
0
40
0
40
0
40
0
40
0.0404779870987512
40
0.0404779870987512
40
0.06352893914973
40
0.06352893914973
40
0.0865798912007092
40
0.0865798912007092
40
0.109630843251688
40
0.109630843251688
40
0.132681795302667
40
0.132681795302667
40
0.155732747353646
40
0.155732747353646
40
0.178783699404625
40
0.178783699404625
40
0.224885603506583
40
0.224885603506583
40
0.247936555557561
40
0.247936555557561
40
0.27098750760854
40
0.27098750760854
40
0.294038459659518
40
0.294038459659518
40
0.317089411710496
40
0.317089411710496
40
0.340140363761474
40
0.340140363761474
40
0.363191315812453
40
0.363191315812453
40
0.386242267863431
40
0.386242267863431
40
0.409293219914409
40
0.409293219914409
40
0.455395124016364
40
0.455395124016364
40
0.478446076067342
40
0.478446076067342
40
0.501497028118319
40
0.501497028118319
40
0.524547980169298
40
0.524547980169298
40
0.547598932220276
40
0.547598932220276
40
0.570649884271255
40
0.570649884271255
40
0.593700836322233
40
0.593700836322233
40
0.639802740424189
40
0.639802740424189
40
0.662853692475167
40
0.662853692475167
40
0.685904644526145
40
0.685904644526145
40
0.708955596577123
40
0.708955596577123
40
0.732006548628101
40
0.732006548628101
40
0.778108452730057
40
0.778108452730057
40
0.801159404781035
40
0.801159404781035
40
0.824210356832013
40
0.824210356832013
40
0.847261308882991
40
0.847261308882991
40
0.87031226093397
40
0.87031226093397
40
0.893363212984948
40
0.893363212984948
40
0.916414165035926
40
0.916414165035926
40
0.962516069137882
40
0.962516069137882
40
1
40
1
40
1
40
1
41
1
10
40.0640580163127
20
-2.5067369012574
30
1E-16
41
1
10
39.7018650123954
20
-2.62465277340226
30
1E-16
41
1
10
39.3413771228044
20
-2.73192825688093
30
-1E-16
41
1
10
38.7758642021997
20
-2.88095008754988
30
0
41
1
10
38.5709138767803
20
-2.93128534200366
30
0
41
1
10
38.1616329968965
20
-3.02453526487022
30
0
41
1
10
37.9570411574384
20
-3.06717504562994
30
0
41
1
10
37.5474803378489
20
-3.14412364863608
30
0
41
1
10
37.3424757043007
20
-3.17841637453699
30
0
41
1
10
36.9320087953059
20
-3.23866933734968
30
0
41
1
10
36.72686937409
20
-3.26480671225181
30
0
41
1
10
36.3156518375484
20
-3.30827252429154
30
0
41
1
10
36.1095983552551
20
-3.32563193204146
30
0
41
1
10
35.6961581234404
20
-3.35142319811658
30
0
41
1
10
35.4883916880479
20
-3.35987670703466
30
0
41
1
10
34.8660489448746
20
-3.37173239340467
30
0
41
1
10
34.4540094228132
20
-3.36128406849721
30
0
41
1
10
33.8370657481263
20
-3.31951914151287
30
0
41
1
10
33.6318205691542
20
-3.30122035394564
30
0
41
1
10
33.2220964321117
20
-3.25580901147478
30
0
41
1
10
33.0173947888879
20
-3.22879028497036
30
0
41
1
10
32.6078358216378
20
-3.16650048121647
30
0
41
1
10
32.4029381186815
20
-3.1312714160982
30
0
41
1
10
31.9929621179097
20
-3.05266241153001
30
0
41
1
10
31.7882052327438
20
-3.00897703676597
30
0
41
1
10
31.3779221403991
20
-2.91380943729152
30
0
41
1
10
31.1724479842959
20
-2.86229814014518
30
0
41
1
10
30.7604060973763
20
-2.75191239119664
30
-1E-16
41
1
10
30.5537733997814
20
-2.69315418031263
30
2E-16
41
1
10
30.1400422555947
20
-2.56731134457115
30
2E-16
41
1
10
29.9322589982341
20
-2.50035100981708
30
2E-16
41
1
10
29.5178736521536
20
-2.3607226956033
30
1E-16
41
1
10
29.3111831454062
20
-2.28802193234085
30
1E-16
41
1
10
28.6922607809341
20
-2.06200551476817
30
1E-16
41
1
10
28.2822075562421
20
-1.89899745246018
30
1E-16
41
1
10
27.6672664684942
20
-1.64253963067827
30
1E-16
41
1
10
27.4622748424756
20
-1.55514969291002
30
1E-16
41
1
10
27.0524106245405
20
-1.37633259630948
30
1E-16
41
1
10
26.8478372243579
20
-1.28431750982068
30
1E-16
41
1
10
26.4380976227968
20
-1.09755563609025
30
1E-16
41
1
10
26.2330051624904
20
-1.00267489514761
30
1E-16
41
1
10
25.821962504592
20
-0.8107713085314
30
0
41
1
10
25.6159610094904
20
-0.713871328419316
30
0
41
1
10
25.2037647332069
20
-0.516468197672936
30
0
41
1
10
24.9972785980959
20
-0.41656980703678
30
0
41
1
10
24.582822711994
20
-0.215882860964797
30
0
41
1
10
24.3747366099206
20
-0.115030208823185
30
0
41
1
10
23.7533414644588
20
0.18568035811748
30
0
41
1
10
23.342156317646
20
0.386779754936811
30
0
41
1
10
22.7261180142875
20
0.681103483270903
30
0
41
1
10
22.5208633400529
20
0.777944493323645
30
0
41
1
10
22.1107822118877
20
0.969632533819862
30
-1E-16
41
1
10
21.9062101004955
20
1.06498365545778
30
-1E-16
41
1
10
21.4966613610548
20
1.25196575005862
30
-1E-16
41
1
10
21.2917726958432
20
1.3437810245901
30
-1E-16
41
1
10
20.881378582257
20
1.52332904280164
30
-1E-16
41
1
10
20.6758433764605
20
1.6110162922636
30
-1E-16
41
1
10
20.0593140251752
20
1.86978726017583
30
-1E-16
41
1
10
19.6468583461398
20
2.0336552391928
30
-1E-16
41
1
10
19.0236092654432
20
2.26205480692627
30
-1E-16
41
1
10
18.816043731519
20
2.33554386265951
30
-1E-16
41
1
10
18.4027473971386
20
2.47563657531904
30
-2E-16
41
1
10
18.1966016581442
20
2.54218389567922
30
-2E-16
41
1
10
17.78483805203
20
2.66778587394754
30
-2E-16
41
1
10
17.5791553741949
20
2.72677609878039
30
1E-16
41
1
10
17.168551256924
20
2.83769154278889
30
0
41
1
10
16.9638151919818
20
2.88978946802408
30
0
41
1
10
16.5541472245096
20
2.9857514338955
30
0
41
1
10
16.3493076707306
20
3.02973743507067
30
0
41
1
10
15.9392534357671
20
3.10948238055741
30
0
41
1
10
15.7340384766316
20
3.14526951814804
30
0
41
1
10
15.1187876329529
20
3.2408823377705
30
0
41
1
10
14.7075737177354
20
3.28773780628222
30
0
41
1
10
13.9574863492274
20
3.34061803022027
30
0
41
1
10
13.6195857022655
20
3.35270279431529
30
0
41
1
10
13.2825895448835
20
3.35279088086668
30
0
0
SPLINE
5
C1
100
AcDbEntity
8
1
62
256
6
ByLayer
370
18
48
1
60
0
100
AcDbSpline
70
4
71
3
72
8
73
4
40
0
40
0
40
0
40
0
40
1
40
1
40
1
40
1
41
1
10
88.7856511640587
20
-3.21204624642277
30
0
41
1
10
88.7807932167361
20
-3.22617429212394
30
0
41
1
10
88.7759543081619
20
-3.24030233126749
30
0
41
1
10
88.771134802811
20
-3.2544304589438
30
0
0
SPLINE
5
C2
100
AcDbEntity
8
1
62
256
6
ByLayer
370
18
48
1
60
0
100
AcDbSpline
70
4
71
3
72
8
73
4
40
0
40
0
40
0
40
0
40
1
40
1
40
1
40
1
41
1
10
88.8143362261525
20
-3.26349006283166
30
0
41
1
10
88.8158625113056
20
-3.26246170752225
30
0
41
1
10
88.817388817379
20
-3.26143326640778
30
0
41
1
10
88.8189151445241
20
-3.26040473951338
30
0
0
SPLINE
5
C3
100
AcDbEntity
8
1
62
256
6
ByLayer
370
18
48
1
60
0
100
AcDbSpline
70
4
71
3
72
8
73
4
40
0
40
0
40
0
40
0
40
1
40
1
40
1
40
1
41
1
10
88.3118147126891
20
0.0241779149215233
30
0
41
1
10
88.3393239259015
20
0.0102032341381175
30
0
41
1
10
88.3666584241844
20
-0.0030470730193315
30
0
41
1
10
88.3938477971958
20
-0.0155900231614226
30
0
0
SPLINE
5
C4
100
AcDbEntity
8
1
62
256
6
ByLayer
370
18
48
1
60
0
100
AcDbSpline
70
4
71
3
72
26
73
22
40
0
40
0
40
0
40
0
40
0.132674706527779
40
0.132674706527779
40
0.219333569729823
40
0.219333569729823
40
0.305992432931867
40
0.305992432931867
40
0.479310159335954
40
0.479310159335954
40
0.652627885740042
40
0.652627885740042
40
0.695957317341063
40
0.695957317341063
40
0.739286748942084
40
0.739286748942084
40
0.825945612144126
40
0.825945612144126
40
0.999263338548211
40
0.999263338548211
40
1
40
1
40
1
40
1
41
1
10
56.5843707763696
20
0.236548520254644
30
0
41
1
10
57.108895278245
20
-0.0058229825456522
30
0
41
1
10
57.6319305929194
20
-0.249706898303515
30
0
41
1
10
58.4980354224504
20
-0.646979772135381
30
0
41
1
10
58.8411537700125
20
-0.802588802673029
30
0
41
1
10
59.527232173577
20
-1.10663055579613
30
1E-16
41
1
10
59.8686163137374
20
-1.25434510929406
30
1E-16
41
1
10
60.8896005973705
20
-1.68106667741563
30
1E-16
41
1
10
61.5659370943669
20
-1.94385231191649
30
1E-16
41
1
10
62.9207819736847
20
-2.40707304571711
30
1E-16
41
1
10
63.5988197113896
20
-2.60802720208895
30
-1E-16
41
1
10
64.4542238138764
20
-2.81007981241103
30
0
41
1
10
64.6259433285028
20
-2.84809162408641
30
0
41
1
10
64.9689375422373
20
-2.91872643427945
30
0
41
1
10
65.1400061386645
20
-2.95131978308643
30
0
41
1
10
65.6522354908093
20
-3.04087062169188
30
0
41
1
10
65.992317300699
20
-3.0893478356511
30
0
41
1
10
67.0105302077022
20
-3.20108704872206
30
0
41
1
10
67.6864757522474
20
-3.22956190292376
30
0
41
1
10
68.3674601567336
20
-3.21214012357581
30
0
41
1
10
68.3703423693715
20
-3.21206553878557
30
0
41
1
10
68.3732246214874
20
-3.21199010466188
30
0
0
SPLINE
5
C5
100
AcDbEntity
8
1
62
256
6
ByLayer
370
18
48
1
60
0
100
AcDbSpline
70
4
71
3
72
36
73
32
40
0
40
0
40
0
40
0
40
0.0537363007144987
40
0.0537363007144987
40
0.0849239914838935
40
0.0849239914838935
40
0.116111682253288
40
0.116111682253288
40
0.365613208408446
40
0.365613208408446
40
0.427988589947235
40
0.427988589947235
40
0.490363971486025
40
0.490363971486025
40
0.552739353024814
40
0.552739353024814
40
0.615114734563603
40
0.615114734563603
40
0.677490116102392
40
0.677490116102392
40
0.708677806871785
40
0.708677806871785
40
0.739865497641179
40
0.739865497641179
40
0.802240879179966
40
0.802240879179966
40
0.864616260718752
40
0.864616260718752
40
0.989367023796324
40
0.989367023796324
40
1
40
1
40
1
40
1
41
1
10
78.4333625061086
20
-0.287004193744309
30
0
41
1
10
78.1405545701537
20
-0.149486202762119
30
0
41
1
10
77.8472919075828
20
-0.0109422607762042
30
0
41
1
10
77.3823808199774
20
0.208101098669857
30
0
41
1
10
77.2113112245934
20
0.288526805675616
30
0
41
1
10
76.868420588866
20
0.449081787158775
30
0
41
1
10
76.6962906153448
20
0.529306892602563
30
0
41
1
10
75.1498945925848
20
1.24537487066524
30
-1E-16
41
1
10
73.8029325327609
20
1.83224828921925
30
-1E-16
41
1
10
72.1001930984256
20
2.40402406228353
30
-1E-16
41
1
10
71.7586923385444
20
2.51034715876489
30
-2E-16
41
1
10
71.0726571228583
20
2.70524159614871
30
1E-16
41
1
10
70.7280426617516
20
2.79353684585178
30
1E-16
41
1
10
70.0401169232027
20
2.94793092208911
30
0
41
1
10
69.6961462350731
20
3.01446950919498
30
0
41
1
10
69.0100945393464
20
3.12425862083521
30
0
41
1
10
68.6675389620748
20
3.16743300614431
30
0
41
1
10
67.9821394818605
20
3.23097829938135
30
0
41
1
10
67.6393338582236
20
3.25119810675787
30
0
41
1
10
67.1237710923789
20
3.26322967049847
30
0
41
1
10
66.9516396559328
20
3.26421374377824
30
0
41
1
10
66.6086066659433
20
3.26023374888553
30
0
41
1
10
66.4374896434622
20
3.25530467994562
30
0
41
1
10
65.9250499269243
20
3.23193094521082
30
0
41
1
10
65.5846030330977
20
3.20445333322508
30
0
41
1
10
64.9048982142346
20
3.12671120238542
30
0
41
1
10
64.5656908033275
20
3.07679639727576
30
0
41
1
10
63.5477634707211
20
2.89220105035775
30
0
41
1
10
62.8688513549828
20
2.72604723162507
30
1E-16
41
1
10
62.1258893556498
20
2.50345368992527
30
-1E-16
41
1
10
62.0674801250555
20
2.48568063242439
30
-1E-16
41
1
10
62.0090244276773
20
2.46762715741184
30
-1E-16
0
SPLINE
5
C6
100
AcDbEntity
8
1
62
256
6
ByLayer
370
18
48
1
60
0
100
AcDbSpline
70
4
71
3
72
8
73
4
40
0
40
0
40
0
40
0
40
1
40
1
40
1
40
1
41
1
10
88.7856511640587
20
-3.2120462464228
30
0
41
1
10
88.6182184911123
20
-3.20147398232805
30
0
41
1
10
88.4511155001506
20
-3.18833780954017
30
0
41
1
10
88.2842859342269
20
-3.17251591932549
30
0
0
SPLINE
5
C7
100
AcDbEntity
8
1
62
256
6
ByLayer
370
18
48
1
60
0
100
AcDbSpline
70
4
71
3
72
18
73
14
40
0
40
0
40
0
40
0
40
0.0032761537847087
40
0.0032761537847087
40
0.260229994115243
40
0.260229994115243
40
0.388706914280511
40
0.388706914280511
40
0.51718383444578
40
0.51718383444578
40
0.774137674776314
40
0.774137674776314
40
1
40
1
40
1
40
1
41
1
10
86.7696144852175
20
-2.95375038143558
30
0
41
1
10
86.7609687316544
20
-2.9520853660446
30
0
41
1
10
86.752323156944
20
-2.9504134956731
30
0
41
1
10
86.0656051725422
20
-2.81707061996224
30
0
41
1
10
85.388605835933
20
-2.6433229208703
30
-1E-16
41
1
10
84.3663692347448
20
-2.32734006415353
30
1E-16
41
1
10
84.0241585303953
20
-2.21273813460948
30
1E-16
41
1
10
83.3382515557643
20
-1.96758892954335
30
1E-16
41
1
10
82.9970518997781
20
-1.83793083783081
30
1E-16
41
1
10
81.9766507445676
20
-1.43205894561297
30
1E-16
41
1
10
81.3009876844214
20
-1.13859429754564
30
1E-16
41
1
10
80.0299432353194
20
-0.564543597360085
30
0
41
1
10
79.4348890885616
20
-0.286551242717451
30
0
41
1
10
78.8358087809907
20
-0.006715290586186
30
0
0
SPLINE
5
C8
100
AcDbEntity
8
1
62
256
6
ByLayer
370
18
48
1
60
0
100
AcDbSpline
70
4
71
3
72
8
73
4
40
0
40
0
40
0
40
0
40
1
40
1
40
1
40
1
41
1
10
89.6886447075152
20
-1.08533176007151
30
0
41
1
10
89.7943242545512
20
-0.787176950840205
30
0
41
1
10
89.8970794182463
20
-0.487975734213506
30
0
41
1
10
89.9968646356242
20
-0.187711806776377
30
0
0
SPLINE
5
C9
100
AcDbEntity
8
1
62
256
6
ByLayer
370
18
48
1
60
0
100
AcDbSpline
70
4
71
3
72
10
73
6
40
0
40
0
40
0
40
0
40
0.5
40
0.5
40
1
40
1
40
1
40
1
41
1
10
56.0578151332691
20
0.492767189869937
30
0
41
1
10
56.0409457722284
20
0.500915942429884
30
0
41
1
10
56.0267385416911
20
0.513656505631531
30
0
41
1
10
56.0070870780992
20
0.544691818481112
30
0
41
1
10
56.0016978334698
20
0.562991352925309
30
0
41
1
10
56.0016978334697
20
0.581484887201157
30
0
0
SPLINE
5
CA
100
AcDbEntity
8
1
62
256
6
ByLayer
370
18
48
1
60
0
100
AcDbSpline
70
4
71
3
72
48
73
44
40
0
40
0
40
0
40
0
40
0.027431834454437
40
0.027431834454437
40
0.080441584288582
40
0.080441584288582
40
0.106946459205655
40
0.106946459205655
40
0.133451334122727
40
0.133451334122727
40
0.239470833791016
40
0.239470833791016
40
0.292480583625161
40
0.292480583625161
40
0.318985458542234
40
0.318985458542234
40
0.345490333459306
40
0.345490333459306
40
0.451509833127595
40
0.451509833127595
40
0.478014708044668
40
0.478014708044668
40
0.50451958296174
40
0.50451958296174
40
0.557529332795884
40
0.557529332795884
40
0.663548832464169
40
0.663548832464169
40
0.690053707381242
40
0.690053707381242
40
0.716558582298313
40
0.716558582298313
40
0.769568332132457
40
0.769568332132457
40
0.875587831800744
40
0.875587831800744
40
0.902092706717816
40
0.902092706717816
40
0.928597581634888
40
0.928597581634888
40
0.981607331469032
40
0.981607331469032
40
1
40
1
40
1
40
1
41
1
10
18.3216743928219
20
2.49598910305306
30
-1E-16
41
1
10
18.5660566948798
20
2.5753500067452
30
-1E-16
41
1
10
18.8104516617368
20
2.6500580028036
30
-1E-16
41
1
10
19.5279212375717
20
2.85435865214811
30
0
41
1
10
20.0017947697145
20
2.97018736933791
30
0
41
1
10
20.7167753160614
20
3.1122524979568
30
0
41
1
10
20.9563633893554
20
3.15431885521346
30
0
41
1
10
21.4332130797334
20
3.22669068239719
30
0
41
1
10
21.670868403257
20
3.2570789585379
30
0
41
1
10
22.8561252259826
20
3.37998808440557
30
0
41
1
10
23.7957840916364
20
3.38456840352339
30
0
41
1
10
25.2143281229761
20
3.25166851297138
30
0
41
1
10
25.6886135868305
20
3.18406898663451
30
0
41
1
10
26.4052652149945
20
3.04852676212559
30
0
41
1
10
26.6442190335749
20
2.99779359531342
30
0
41
1
10
27.1197678486841
20
2.88626145233644
30
0
41
1
10
27.3568726679601
20
2.82546360952136
30
0
41
1
10
28.5402069185505
20
2.49800721086135
30
-2E-16
41
1
10
29.4794414758949
20
2.16019212338054
30
-1E-16
41
1
10
30.6627540775123
20
1.67126587364905
30
-1E-16
41
1
10
30.8999277921891
20
1.57025256005824
30
-1E-16
41
1
10
31.375644607687
20
1.36231833831718
30
-1E-16
41
1
10
31.6147312175345
20
1.25520120255496
30
-1E-16
41
1
10
32.3308413005326
20
0.9278156051179
30
-1E-16
41
1
10
32.8050095775744
20
0.703200576362718
30
0
41
1
10
34.2227298810535
20
0.0206906591077711
30
0
41
1
10
35.1619337766925
20
-0.444937327870349
30
0
41
1
10
36.3470620468458
20
-1.00113620533685
30
1E-16
41
1
10
36.5846386263002
20
-1.11109561317687
30
1E-16
41
1
10
37.0613205792874
20
-1.32755405223779
30
1E-16
41
1
10
37.3007393930919
20
-1.4339975617977
30
1E-16
41
1
10
38.015031767042
20
-1.74339522081047
30
1E-16
41
1
10
38.4881017836933
20
-1.93765149591982
30
1E-16
41
1
10
39.9042053618162
20
-2.47436158957467
30
2E-16
41
1
10
40.8436973655925
20
-2.7714103604213
30
-1E-16
41
1
10
42.0307491460852
20
-3.04026392550912
30
0
41
1
10
42.2688471807472
20
-3.08887100506263
30
0
41
1
10
42.7468084809805
20
-3.17523343657712
30
0
41
1
10
42.9850821453879
20
-3.21267769717312
30
0
41
1
10
43.6974746002495
20
-3.30760284957981
30
0
41
1
10
44.1698384180067
20
-3.34753865485419
30
0
41
1
10
44.8050297706099
20
-3.36975270545341
30
0
41
1
10
44.9685492835957
20
-3.37264056270189
30
0
41
1
10
45.1320481017377
20
-3.37270262566059
30
0
0
SPLINE
5
CB
100
AcDbEntity
8
1
62
256
6
ByLayer
370
18
48
1
60
0
100
AcDbSpline
70
4
71
3
72
28
73
24
40
0
40
0
40
0
40
0
40
0.125000000000001
40
0.125000000000001
40
0.187500000000001
40
0.187500000000001
40
0.250000000000001
40
0.250000000000001
40
0.312500000000002
40
0.312500000000002
40
0.375000000000002
40
0.375000000000002
40
0.500000000000002
40
0.500000000000002
40
0.625000000000001
40
0.625000000000001
40
0.750000000000001
40
0.750000000000001
40
0.875
40
0.875
40
0.9375
40
0.9375
40
1
40
1
40
1
40
1
41
1
10
88.3991785050835
20
-0.0290384459474922
30
0
41
1
10
88.4053724109726
20
-0.222913090791934
30
0
41
1
10
88.4197838867192
20
-0.413062626522617
30
0
41
1
10
88.4480004828754
20
-0.693456791936512
30
0
41
1
10
88.4585277852175
20
-0.786109413306576
30
0
41
1
10
88.4810721501332
20
-0.969840463860749
30
1E-16
41
1
10
88.4931362083721
20
-1.06124664946398
30
1E-16
41
1
10
88.5178321091968
20
-1.240649730775
30
1E-16
41
1
10
88.5304478344393
20
-1.32858132193894
30
1E-16
41
1
10
88.5556142536
20
-1.50098717526123
30
1E-16
41
1
10
88.5681893645644
20
-1.58562132237125
30
1E-16
41
1
10
88.6047706030375
20
-1.83217104697789
30
1E-16
41
1
10
88.6277485883227
20
-1.9880543433722
30
1E-16
41
1
10
88.6678518066548
20
-2.2769725305736
30
1E-16
41
1
10
88.6850494182045
20
-2.41060231624789
30
1E-16
41
1
10
88.7133049675558
20
-2.65024688895815
30
-1E-16
41
1
10
88.7244624860033
20
-2.75705620179445
30
-1E-16
41
1
10
88.7429997193005
20
-2.93796105489355
30
0
41
1
10
88.7504834169352
20
-3.01289783367594
30
0
41
1
10
88.7627057721419
20
-3.10182437123188
30
0
41
1
10
88.7669750313796
20
-3.12759455696042
30
0
41
1
10
88.7765985836681
20
-3.17062264906505
30
0
41
1
10
88.781942109903
20
-3.18786801044612
30
0
41
1
10
88.7882441168462
20
-3.20084231490063
30
0
0
SPLINE
5
CC
100
AcDbEntity
8
1
62
256
6
ByLayer
370
18
48
1
60
0
100
AcDbSpline
70
4
71
3
72
10
73
6
40
0
40
0
40
0
40
0
40
0.978286856445071
40
0.978286856445071
40
1
40
1
40
1
40
1
41
1
10
67.9752105219345
20
3.21713765409166
30
0
41
1
10
68.1049440867553
20
3.21717772884972
30
0
41
1
10
68.2347214897296
20
3.21553600717056
30
0
41
1
10
68.3674601568779
20
3.21214012357211
30
0
41
1
10
68.37034236966
20
3.21206553877809
30
0
41
1
10
68.3732246219201
20
3.21199010465054
30
0
0
SPLINE
5
CD
100
AcDbEntity
8
1
62
256
6
ByLayer
370
18
48
1
60
0
100
AcDbSpline
70
4
71
3
72
22
73
18
40
0
40
0
40
0
40
0
40
0.0234749338664769
40
0.0234749338664769
40
0.218779947093181
40
0.218779947093181
40
0.414084960319886
40
0.414084960319886
40
0.511737466933239
40
0.511737466933239
40
0.609389973546591
40
0.609389973546591
40
0.804694986773295
40
0.804694986773295
40
0.902347493386647
40
0.902347493386647
40
1
40
1
40
1
40
1
41
1
10
78.3445139226088
20
0.232861372815421
30
0
41
1
10
78.426816210234
20
0.194644321111838
30
0
41
1
10
78.5090375662538
20
0.156413591847013
30
0
41
1
10
79.2739588137221
20
-0.19951595901054
30
0
41
1
10
79.950988832174
20
-0.516371865447894
30
0
41
1
10
81.3038569518396
20
-1.12598157640994
30
1E-16
41
1
10
81.9795133126185
20
-1.41890131546458
30
1E-16
41
1
10
82.9998514250267
20
-1.82425739751426
30
1E-16
41
1
10
83.3410238497272
20
-1.95378874900649
30
1E-16
41
1
10
84.0268620161599
20
-2.19877113926256
30
1E-16
41
1
10
84.3690612617909
20
-2.31335156232794
30
1E-16
41
1
10
85.3912543829454
20
-2.62943865770794
30
-1E-16
41
1
10
86.0682567169371
20
-2.8034542023311
30
-1E-16
41
1
10
87.0853529266448
20
-3.0016488448544
30
0
41
1
10
87.4246444609898
20
-3.05723545647058
30
0
41
1
10
88.1048615464802
20
-3.14609482856403
30
0
41
1
10
88.4458247791971
20
-3.17885304297363
30
0
41
1
10
88.7882441168459
20
-3.20084231490063
30
0
0
SPLINE
5
CE
100
AcDbEntity
8
1
62
256
6
ByLayer
370
18
48
1
60
0
100
AcDbSpline
70
4
71
3
72
20
73
16
40
0
40
0
40
0
40
0
40
0.250000000000022
40
0.250000000000022
40
0.375000000000033
40
0.375000000000033
40
0.437500000000033
40
0.437500000000033
40
0.500000000000033
40
0.500000000000033
40
0.625000000000021
40
0.625000000000021
40
0.75000000000001
40
0.75000000000001
40
1
40
1
40
1
40
1
41
1
10
88.8189151445241
20
3.26040473951343
30
0
41
1
10
88.8852051150174
20
3.07422102860644
30
0
41
1
10
88.9507924393646
20
2.88684266023793
30
0
41
1
10
89.0494922497336
20
2.60503303763008
30
0
41
1
10
89.0824293876673
20
2.51100291460983
30
0
41
1
10
89.132009477662
20
2.36991078784917
30
0
41
1
10
89.1485647322033
20
2.3228727230852
30
0
41
1
10
89.1817394732203
20
2.2288104195122
30
0
41
1
10
89.198295608527
20
2.18176658949983
30
0
41
1
10
89.248454265137
20
2.04104221030647
30
0
41
1
10
89.2829173735933
20
1.94805461505717
30
0
41
1
10
89.3550530507049
20
1.76422505995583
30
0
41
1
10
89.3928946937382
20
1.67300727950391
30
0
41
1
10
89.5117780348831
20
1.40579600144997
30
0
41
1
10
89.5964952186457
20
1.23967458102302
30
0
41
1
10
89.6886447075151
20
1.08533176007145
30
0
0
SPLINE
5
CF
100
AcDbEntity
8
1
62
256
6
ByLayer
370
18
48
1
60
0
100
AcDbSpline
70
4
71
3
72
10
73
6
40
0
40
0
40
0
40
0
40
0.5
40
0.5
40
1
40
1
40
1
40
1
41
1
10
89.1152769760271
20
0.96517505791536
30
0
41
1
10
89.2116157576038
20
0.980302573986393
30
0
41
1
10
89.307646468581
20
0.997625050761116
30
0
41
1
10
89.4990115314043
20
1.03723146746654
30
0
41
1
10
89.5943970437912
20
1.05947355690108
30
0
41
1
10
89.6886447075152
20
1.08533176007148
30
0
0
SPLINE
5
D0
100
AcDbEntity
8
1
62
256
6
ByLayer
370
18
48
1
60
0
100
AcDbSpline
70
4
71
3
72
28
73
24
40
0
40
0
40
0
40
0
40
0.0626017260703872
40
0.0626017260703872
40
0.125203452140774
40
0.125203452140774
40
0.250406904281549
40
0.250406904281549
40
0.375610356422323
40
0.375610356422323
40
0.43821208249271
40
0.43821208249271
40
0.500813808563098
40
0.500813808563098
40
0.563415534633485
40
0.563415534633485
40
0.626017260703872
40
0.626017260703872
40
0.75122071284465
40
0.75122071284465
40
0.876424164985428
40
0.876424164985428
40
1
40
1
40
1
40
1
41
1
10
88.309281338116
20
0.499676836391558
30
0
41
1
10
88.103309904204
20
0.599615372378196
30
0
41
1
10
87.8976144555321
20
0.6982360838837
30
0
41
1
10
87.4874564273443
20
0.894295475254097
30
-1E-16
41
1
10
87.2828761879012
20
0.99146967383777
30
-1E-16
41
1
10
86.6691850460097
20
1.27752767132097
30
-1E-16
41
1
10
86.260007665142
20
1.4608256210866
30
-1E-16
41
1
10
85.4422023819658
20
1.81380493993564
30
-1E-16
41
1
10
85.0324563884008
20
1.98135749515592
30
-1E-16
41
1
10
84.4147551033871
20
2.21608803560289
30
-1E-16
41
1
10
84.2087146067932
20
2.29218184047744
30
-1E-16
41
1
10
83.7952483829375
20
2.43814524781706
30
-1E-16
41
1
10
83.5876988201118
20
2.50809135283626
30
-2E-16
41
1
10
83.1743767906511
20
2.64006139335652
30
-2E-16
41
1
10
82.9680929040907
20
2.70217430276998
30
-2E-16
41
1
10
82.556992669455
20
2.81967338172504
30
0
41
1
10
82.3520047861291
20
2.87479573106373
30
0
41
1
10
81.7373976903768
20
3.02786145215757
30
0
41
1
10
81.3280100450107
20
3.11360455704107
30
0
41
1
10
80.5104882578537
20
3.25307340572181
30
0
41
1
10
80.1012323267118
20
3.30582109899052
30
0
41
1
10
79.284805940372
20
3.37579562370638
30
0
41
1
10
78.8787621473687
20
3.39366992221448
30
0
41
1
10
78.4693469263698
20
3.39356471674588
30
0
0
SPLINE
5
D1
100
AcDbEntity
8
1
62
256
6
ByLayer
370
18
48
1
60
0
100
AcDbSpline
70
4
71
3
72
90
73
86
40
0
40
0
40
0
40
0
40
0.0031405710519771
40
0.0031405710519771
40
0.0255732066192574
40
0.0255732066192574
40
0.0480058421865376
40
0.0480058421865376
40
0.0928711133210972
40
0.0928711133210972
40
0.115303748888377
40
0.115303748888377
40
0.137736384455657
40
0.137736384455657
40
0.160169020022936
40
0.160169020022936
40
0.182601655590216
40
0.182601655590216
40
0.205034291157495
40
0.205034291157495
40
0.227466926724775
40
0.227466926724775
40
0.272332197859336
40
0.272332197859336
40
0.294764833426616
40
0.294764833426616
40
0.317197468993897
40
0.317197468993897
40
0.339630104561177
40
0.339630104561177
40
0.362062740128457
40
0.362062740128457
40
0.384495375695738
40
0.384495375695738
40
0.406928011263018
40
0.406928011263018
40
0.429360646830298
40
0.429360646830298
40
0.451793282397578
40
0.451793282397578
40
0.474225917964859
40
0.474225917964859
40
0.496658553532139
40
0.496658553532139
40
0.519091189099419
40
0.519091189099419
40
0.5415238246667
40
0.5415238246667
40
0.56395646023398
40
0.56395646023398
40
0.586389095801261
40
0.586389095801261
40
0.608821731368541
40
0.608821731368541
40
0.631254366935822
40
0.631254366935822
40
0.676119638070384
40
0.676119638070384
40
0.698552273637665
40
0.698552273637665
40
0.720984909204946
40
0.720984909204946
40
0.743417544772227
40
0.743417544772227
40
0.765850180339508
40
0.765850180339508
40
0.788282815906789
40
0.788282815906789
40
0.81071545147407
40
0.81071545147407
40
0.855580722608631
40
0.855580722608631
40
0.878013358175911
40
0.878013358175911
40
0.900445993743192
40
0.900445993743192
40
0.922878629310472
40
0.922878629310472
40
0.945311264877753
40
0.945311264877753
40
0.967743900445033
40
0.967743900445033
40
0.990176536012314
40
0.990176536012314
40
1
40
1
40
1
40
1
41
1
10
62.5137978179277
20
-2.26946340963448
30
1E-16
41
1
10
62.4848144424826
20
-2.2799856375085
30
1E-16
41
1
10
62.455816884657
20
-2.29044925329231
30
1E-16
41
1
10
62.219571496649
20
-2.37516325713006
30
1E-16
41
1
10
62.0121200555666
20
-2.44618939351204
30
1E-16
41
1
10
61.5988803906603
20
-2.58080000352797
30
2E-16
41
1
10
61.392973899463
20
-2.64483085387008
30
2E-16
41
1
10
60.776655157396
20
-2.82604437458821
30
0
41
1
10
60.3668527913948
20
-2.93140640217783
30
0
41
1
10
59.7527126860282
20
-3.06576780789524
30
0
41
1
10
59.5484169021475
20
-3.10687154651916
30
0
41
1
10
59.1393399533779
20
-3.18049318330611
30
0
41
1
10
58.9346486784409
20
-3.21310738346105
30
0
41
1
10
58.5245835424102
20
-3.26974938058731
30
0
41
1
10
58.3191946201212
20
-3.29379855168537
30
0
41
1
10
57.9083590349165
20
-3.33350378043517
30
0
41
1
10
57.7025810792696
20
-3.34898155082132
30
0
41
1
10
57.2897337329145
20
-3.37093054972851
30
0
41
1
10
57.0823965936551
20
-3.37741258980478
30
0
41
1
10
56.6673591238802
20
-3.38130136497065
30
0
41
1
10
56.4606967517461
20
-3.37870800758341
30
0
41
1
10
55.8423634394437
20
-3.35737215516889
30
0
41
1
10
55.4316190108173
20
-3.32530461843334
30
0
41
1
10
54.8168765940433
20
-3.25154573979529
30
0
41
1
10
54.6124688376896
20
-3.2224922568997
30
0
41
1
10
54.2033790804534
20
-3.15618511206438
30
0
41
1
10
53.9987870962388
20
-3.11889636853061
30
0
41
1
10
53.5891545811233
20
-3.03641948091652
30
0
41
1
10
53.3841229664897
20
-2.99125108400941
30
0
41
1
10
52.9742045425749
20
-2.8923340959947
30
0
41
1
10
52.7689800504506
20
-2.83890499491832
30
0
41
1
10
52.3574765524972
20
-2.72467122060942
30
-1E-16
41
1
10
52.1511726283909
20
-2.66390953210447
30
2E-16
41
1
10
51.7373418001272
20
-2.53522279958079
30
2E-16
41
1
10
51.529627028516
20
-2.46674642772572
30
2E-16
41
1
10
51.1156602107472
20
-2.32370084314795
30
1E-16
41
1
10
50.9092533360648
20
-2.24923014098016
30
1E-16
41
1
10
50.4971169621579
20
-2.09527168662206
30
1E-16
41
1
10
50.2913145853195
20
-2.01591864550809
30
1E-16
41
1
10
49.8807325405687
20
-1.85166439392518
30
1E-16
41
1
10
49.6760299097612
20
-1.76660519636459
30
1E-16
41
1
10
49.2665771369111
20
-1.59281483632833
30
1E-16
41
1
10
49.0619101297942
20
-1.503943335499
30
1E-16
41
1
10
48.6523614192711
20
-1.32292619104163
30
1E-16
41
1
10
48.4475181926516
20
-1.23071744424135
30
1E-16
41
1
10
48.0381564656616
20
-1.04193354242148
30
1E-16
41
1
10
47.8333098894161
20
-0.945997578412346
30
1E-16
41
1
10
47.4227982317236
20
-0.752027158075265
30
0
41
1
10
47.2171019850634
20
-0.654062420756389
30
0
41
1
10
46.8047418217732
20
-0.456354175350441
30
0
41
1
10
46.5983620791511
20
-0.35598976079072
30
0
41
1
10
46.1843338784486
20
-0.154019409600323
30
0
41
1
10
45.9765484573541
20
-0.0524522801882199
30
0
41
1
10
45.5627762322985
20
0.148991602317437
30
0
41
1
10
45.3562626933041
20
0.248922190137534
30
0
41
1
10
44.7387296213129
20
0.548344331022776
30
0
41
1
10
44.3291944412968
20
0.746239658197112
30
0
41
1
10
43.7144623896551
20
1.03306941151951
30
-1E-16
41
1
10
43.5096377421552
20
1.12734996781379
30
-1E-16
41
1
10
43.1004678589572
20
1.31381997028549
30
-1E-16
41
1
10
42.8958230915986
20
1.4054132870391
30
-1E-16
41
1
10
42.485935928549
20
1.584408047708
30
-1E-16
41
1
10
42.2806599473436
20
1.6717502716167
30
-1E-16
41
1
10
41.8693881565661
20
1.84202867322472
30
-1E-16
41
1
10
41.6637005873188
20
1.92551952775111
30
-1E-16
41
1
10
41.2512245045319
20
2.08732130658575
30
-1E-16
41
1
10
41.0444303980386
20
2.16562825116338
30
-1E-16
41
1
10
40.6292781196153
20
2.31625619621141
30
-1E-16
41
1
10
40.4216719963246
20
2.38816171106157
30
-1E-16
41
1
10
39.8020389209132
20
2.59460564535911
30
-2E-16
41
1
10
39.3914393113484
20
2.71873605788366
30
1E-16
41
1
10
38.7758642021997
20
2.88095008754991
30
0
41
1
10
38.5709138767802
20
2.93128534200369
30
0
41
1
10
38.1616329968965
20
3.02453526487022
30
0
41
1
10
37.9570411574383
20
3.06717504562997
30
0
41
1
10
37.5474803378488
20
3.14412364863608
30
0
41
1
10
37.3424757043006
20
3.17841637453702
30
0
41
1
10
36.9320087953059
20
3.2386693373497
30
0
41
1
10
36.7268693740899
20
3.26480671225181
30
0
41
1
10
36.3156518375483
20
3.30827252429157
30
0
41
1
10
36.1095983552551
20
3.32563193204146
30
0
41
1
10
35.6961581234403
20
3.35142319811658
30
0
41
1
10
35.4883916880478
20
3.35987670703466
30
0
41
1
10
35.190100842687
20
3.36555917501303
30
0
41
1
10
35.0993944811383
20
3.3664099254425
30
0
41
1
10
35.0088028538262
20
3.36639090099814
30
0
0
SPLINE
5
D2
100
AcDbEntity
8
1
62
256
6
ByLayer
370
18
48
1
60
0
100
AcDbSpline
70
4
71
3
72
28
73
24
40
0
40
0
40
0
40
0
40
0.0368740242411162
40
0.0368740242411162
40
0.105668736795323
40
0.105668736795323
40
0.174463449349529
40
0.174463449349529
40
0.243258161903734
40
0.243258161903734
40
0.312052874457941
40
0.312052874457941
40
0.449642299566352
40
0.449642299566352
40
0.587231724674764
40
0.587231724674764
40
0.65602643722897
40
0.65602643722897
40
0.724821149783176
40
0.724821149783176
40
0.862410574891588
40
0.862410574891588
40
1
40
1
40
1
40
1
41
1
10
18.3220425276242
20
-2.5008098877901
30
2E-16
41
1
10
18.2115013249639
20
-2.53658580861827
30
2E-16
41
1
10
18.1010726760361
20
-2.57132350140586
30
2E-16
41
1
10
17.78483805203
20
-2.66778587394756
30
2E-16
41
1
10
17.5791553741948
20
-2.72677609878042
30
-1E-16
41
1
10
17.168551256924
20
-2.83769154278892
30
0
41
1
10
16.9638151919818
20
-2.88978946802411
30
0
41
1
10
16.5541472245096
20
-2.98575143389553
30
0
41
1
10
16.3493076707306
20
-3.02973743507067
30
0
41
1
10
15.9392534357671
20
-3.10948238055744
30
0
41
1
10
15.7340384766316
20
-3.14526951814807
30
0
41
1
10
15.1187876329529
20
-3.2408823377705
30
0
41
1
10
14.7075737177354
20
-3.28773780628225
30
0
41
1
10
13.8801498857928
20
-3.34607015443498
30
0
41
1
10
13.4641308365681
20
-3.35764492412159
30
0
41
1
10
12.8434220712495
20
-3.34759469346116
30
0
41
1
10
12.636697728869
20
-3.33980449452184
30
0
41
1
10
12.2241173536418
20
-3.31533410637107
30
0
41
1
10
12.0183833948114
20
-3.29856395174036
30
0
41
1
10
11.4007648150363
20
-3.23533320823782
30
0
41
1
10
10.9885938725988
20
-3.17621217824893
30
0
41
1
10
10.1641244765348
20
-3.02322764136491
30
0
41
1
10
9.75061172098091
20
-2.93006742049948
30
0
41
1
10
9.33402201050635
20
-2.82232241946542
30
0
0
SPLINE
5
D3
100
AcDbEntity
8
1
62
256
6
ByLayer
370
18
48
1
60
0
100
AcDbSpline
70
4
71
3
72
8
73
4
40
0
40
0
40
0
40
0
40
1
40
1
40
1
40
1
41
1
10
56.144347675739
20
3.21477348639795
30
0
41
1
10
56.1311788168033
20
3.21507985860922
30
0
41
1
10
56.1169715704245
20
3.21518126364714
30
0
41
1
10
56.102412648888
20
3.21509400660332
30
0
0
SPLINE
5
D4
100
AcDbEntity
8
1
62
256
6
ByLayer
370
18
48
1
60
0
100
AcDbSpline
70
4
71
3
72
26
73
22
40
0
40
0
40
0
40
0
40
0.124999999999993
40
0.124999999999993
40
0.249999999999987
40
0.249999999999987
40
0.312499999999997
40
0.312499999999997
40
0.375000000000008
40
0.375000000000008
40
0.437500000000019
40
0.437500000000019
40
0.500000000000029
40
0.500000000000029
40
0.625000000000022
40
0.625000000000022
40
0.750000000000015
40
0.750000000000015
40
0.875000000000007
40
0.875000000000007
40
1
40
1
40
1
40
1
41
1
10
89.9525867754146
20
0.0409303283106226
30
0
41
1
10
89.936128607056
20
-0.0133345536088143
30
0
41
1
10
89.9172065750424
20
-0.0663588201860819
30
0
41
1
10
89.8742492625883
20
-0.169747773015104
30
0
41
1
10
89.8501448522516
20
-0.219988682490595
30
0
41
1
10
89.8122385362904
20
-0.288105158100166
30
0
41
1
10
89.7992245544143
20
-0.309806876880714
30
0
41
1
10
89.7723995645036
20
-0.351022135568286
30
0
41
1
10
89.7586201297017
20
-0.370442221519852
30
0
41
1
10
89.7313745409978
20
-0.405388339350054
30
0
41
1
10
89.7177705440242
20
-0.42113512706274
30
0
41
1
10
89.6905820395708
20
-0.449104534693845
30
0
41
1
10
89.6768736269497
20
-0.461403775340642
30
0
41
1
10
89.6370704900456
20
-0.491655271494181
30
0
41
1
10
89.6117411892866
20
-0.503493164975993
30
0
41
1
10
89.5647501811593
20
-0.510801429386447
30
0
41
1
10
89.5432843826283
20
-0.506318162591185
30
0
41
1
10
89.5042611172784
20
-0.483546704576469
30
0
41
1
10
89.4870791490264
20
-0.465625129685975
30
0
41
1
10
89.4559742086211
20
-0.419031327515739
30
0
41
1
10
89.4420982164035
20
-0.390245739597276
30
0
41
1
10
89.4298284972665
20
-0.357493124683998
30
0
0
SPLINE
5
D5
100
AcDbEntity
8
1
62
256
6
ByLayer
370
18
48
1
60
0
100
AcDbSpline
70
4
71
3
72
8
73
4
40
0
40
0
40
0
40
0
40
1
40
1
40
1
40
1
41
1
10
88.5961023776335
20
-3.35705855082438
30
0
41
1
10
88.6013095022594
20
-3.38249631434093
30
0
41
1
10
88.6058536450879
20
-3.39681729916114
30
0
41
1
10
88.6098665260737
20
-3.39945011947151
30
0
0
SPLINE
5
D6
100
AcDbEntity
8
1
62
256
6
ByLayer
370
18
48
1
60
0
100
AcDbSpline
70
4
71
3
72
10
73
6
40
0
40
0
40
0
40
0
40
0.5
40
0.5
40
1
40
1
40
1
40
1
41
1
10
56.0016978334697
20
3.36685972964534
30
0
41
1
10
56.0016978334698
20
3.36981481434546
30
0
41
1
10
56.0199417835228
20
3.3720489763349
30
0
41
1
10
56.0779653297849
20
3.37429751452078
30
0
41
1
10
56.1154280375291
20
3.37440794589031
30
0
41
1
10
56.1460508045648
20
3.37351722815495
30
0
0
SPLINE
5
D7
100
AcDbEntity
8
1
62
256
6
ByLayer
370
18
48
1
60
0
100
AcDbSpline
70
4
71
3
72
24
73
20
40
0
40
0
40
0
40
0
40
0.127970280690263
40
0.127970280690263
40
0.273308567241892
40
0.273308567241892
40
0.309643138879797
40
0.309643138879797
40
0.345977710517703
40
0.345977710517703
40
0.418646853793513
40
0.418646853793513
40
0.563985140345135
40
0.563985140345135
40
0.709323426896757
40
0.709323426896757
40
0.854661713448378
40
0.854661713448378
40
1
40
1
40
1
40
1
41
1
10
70.0534848378878
20
-3.23254773258645
30
0
41
1
10
69.4558458125951
20
-3.31984211105424
30
0
41
1
10
68.8621071381687
20
-3.37037977650803
30
0
41
1
10
67.5943373008588
20
-3.39844859873492
30
0
41
1
10
66.9202819710968
20
-3.36517186196477
30
0
41
1
10
66.0712069253401
20
-3.26339923759201
30
0
41
1
10
65.9010706953499
20
-3.24003431266542
30
0
41
1
10
65.559922246568
20
-3.18734639674759
30
0
41
1
10
65.3887316685614
20
-3.15797993027042
30
0
41
1
10
64.877209588248
20
-3.06168209987317
30
0
41
1
10
64.5378283815282
20
-2.9864329495621
30
0
41
1
10
63.5224252717928
20
-2.7303346311281
30
2E-16
41
1
10
62.8495127004514
20
-2.51859942185797
30
2E-16
41
1
10
61.4996647172289
20
-2.0299364154925
30
1E-16
41
1
10
60.8232444832736
20
-1.75223261841538
30
1E-16
41
1
10
59.4555280154982
20
-1.1485223969166
30
1E-16
41
1
10
58.7767240420519
20
-0.827558106533104
30
1E-16
41
1
10
57.4200073109504
20
-0.171999975532202
30
0
41
1
10
56.7415774462865
20
0.162475492091488
30
0
41
1
10
56.0578151332691
20
0.492767189869937
30
0
0
SPLINE
5
D8
100
AcDbEntity
8
1
62
256
6
ByLayer
370
18
48
1
60
0
100
AcDbSpline
70
4
71
3
72
8
73
4
40
0
40
0
40
0
40
0
40
1
40
1
40
1
40
1
41
1
10
89.9968646356189
20
0.187711806792464
30
0
41
1
10
89.9821783748158
20
0.138761362039503
30
0
41
1
10
89.9674189956657
20
0.0898342320133452
30
0
41
1
10
89.9525867754145
20
0.0409303283106226
30
0
0
SPLINE
5
D9
100
AcDbEntity
8
1
62
256
6
ByLayer
370
18
48
1
60
0
100
AcDbSpline
70
4
71
3
72
8
73
4
40
0
40
0
40
0
40
0
40
1
40
1
40
1
40
1
41
1
10
56.1401511880256
20
3.20425217153863
30
0
41
1
10
56.1282962263993
20
3.20452039302276
30
0
41
1
10
56.1155115215117
20
3.20460180412829
30
0
41
1
10
56.102412648888
20
3.20451393234762
30
0
0
SPLINE
5
DA
100
AcDbEntity
8
1
62
256
6
ByLayer
370
18
48
1
60
0
100
AcDbSpline
70
4
71
3
72
14
73
10
40
0
40
0
40
0
40
0
40
0.272186153935778
40
0.272186153935778
40
0.510211557079903
40
0.510211557079903
40
0.785073674576069
40
0.785073674576069
40
1
40
1
40
1
40
1
41
1
10
88.3938477971958
20
-0.0155900231613941
30
0
41
1
10
88.3945934888195
20
-0.0159340242111341
30
0
41
1
10
88.3953242240036
20
-0.0166447554884144
30
0
41
1
10
88.3965437984459
20
-0.0184114294972915
30
0
41
1
10
88.3970683406188
20
-0.0194368375419742
30
0
41
1
10
88.3980321523394
20
-0.0219126250213719
30
0
41
1
10
88.3984612247569
20
-0.0234430514639143
30
0
41
1
10
88.3989840184186
20
-0.0263320403863929
30
0
41
1
10
88.3991354007683
20
-0.027689243367405
30
0
41
1
10
88.3991785050835
20
-0.0290384459476059
30
0
0
SPLINE
5
DB
100
AcDbEntity
8
1
62
256
6
ByLayer
370
18
48
1
60
0
100
AcDbSpline
70
4
71
3
72
8
73
4
40
0
40
0
40
0
40
0
40
1
40
1
40
1
40
1
41
1
10
89.9968646356189
20
0.187711806792436
30
0
41
1
10
90.001046371109
20
0.0625331943721221
30
0
41
1
10
90.0010438725483
20
-0.0626079878014139
30
0
41
1
10
89.9968646356193
20
-0.187711806781209
30
0
0
SPLINE
5
DC
100
AcDbEntity
8
1
62
256
6
ByLayer
370
18
48
1
60
0
100
AcDbSpline
70
4
71
3
72
52
73
48
40
0
40
0
40
0
40
0
40
0.0471186715396851
40
0.0471186715396851
40
0.0942373430793703
40
0.0942373430793703
40
0.141356014619055
40
0.141356014619055
40
0.188474686158741
40
0.188474686158741
40
0.235593357698426
40
0.235593357698426
40
0.282712029238111
40
0.282712029238111
40
0.329830700777796
40
0.329830700777796
40
0.353390036547639
40
0.353390036547639
40
0.376949372317481
40
0.376949372317481
40
0.424068043857166
40
0.424068043857166
40
0.471186715396851
40
0.471186715396851
40
0.518305386936536
40
0.518305386936536
40
0.565424058476222
40
0.565424058476222
40
0.588983394246064
40
0.588983394246064
40
0.612542730015905
40
0.612542730015905
40
0.659661401555587
40
0.659661401555587
40
0.706780073095269
40
0.706780073095269
40
0.753898744634951
40
0.753898744634951
40
0.801017416174633
40
0.801017416174633
40
0.848136087714315
40
0.848136087714315
40
0.942373430793677
40
0.942373430793677
40
0.989492102333359
40
0.989492102333359
40
1
40
1
40
1
40
1
41
1
10
56.1460508045648
20
3.37351722815495
30
0
41
1
10
56.4831076199187
20
3.36371333019542
30
0
41
1
10
56.8202033081336
20
3.34172067129788
30
0
41
1
10
57.495128241755
20
3.27451745863971
30
0
41
1
10
57.8331770132409
20
3.22925663305307
30
0
41
1
10
58.5094939796827
20
3.11593521364699
30
0
41
1
10
58.8454429977129
20
3.0478768733571
30
0
41
1
10
59.5153587261204
20
2.89136845347352
30
0
41
1
10
59.8493060753593
20
2.80293812564602
30
1E-16
41
1
10
60.5166894305153
20
2.60784536876767
30
-2E-16
41
1
10
60.8501685362836
20
2.50126995060217
30
-2E-16
41
1
10
61.5173185096622
20
2.27096249549376
30
-1E-16
41
1
10
61.850635131572
20
2.14661777788714
30
-1E-16
41
1
10
62.5196266785086
20
1.88381032070032
30
-1E-16
41
1
10
62.8555456996872
20
1.74588891336637
30
-1E-16
41
1
10
63.3613929426019
20
1.52875125684329
30
-1E-16
41
1
10
63.5306309391765
20
1.45454126455724
30
-1E-16
41
1
10
63.8677615573754
20
1.30359056923658
30
-1E-16
41
1
10
64.0357869998642
20
1.22681143041072
30
-1E-16
41
1
10
64.5393337203025
20
0.994807458494364
30
-1E-16
41
1
10
64.8742560919912
20
0.83778196902017
30
-1E-16
41
1
10
65.5424780813135
20
0.518917593073411
30
0
41
1
10
65.8756284588832
20
0.35676272721588
30
0
41
1
10
66.5418232622777
20
0.0307794172129263
30
0
41
1
10
66.8749219591466
20
-0.132934597248891
30
0
41
1
10
67.5426997476514
20
-0.4584911561426
30
0
41
1
10
67.8777427105666
20
-0.619558873980083
30
0
41
1
10
68.3818320617098
20
-0.85904506192972
30
1E-16
41
1
10
68.5501188810623
20
-0.938516277965221
30
1E-16
41
1
10
68.887354856903
20
-1.09643728297715
30
1E-16
41
1
10
69.0562850000001
20
-1.17493664969993
30
1E-16
41
1
10
69.5613823323734
20
-1.40529006345275
30
1E-16
41
1
10
69.8970853922549
20
-1.55262218797853
30
1E-16
41
1
10
70.5661555168296
20
-1.83587985580206
30
1E-16
41
1
10
70.8994453692653
20
-1.97185440600234
30
1E-16
41
1
10
71.5658902599751
20
-2.22841890855847
30
1E-16
41
1
10
71.899313251185
20
-2.34865185480584
30
1E-16
41
1
10
72.566384759411
20
-2.57333060394595
30
2E-16
41
1
10
72.8999083920698
20
-2.6778574706033
30
2E-16
41
1
10
73.5697594042023
20
-2.8671801426309
30
0
41
1
10
73.9062172737658
20
-2.95191355722758
30
0
41
1
10
74.920184547256
20
-3.17589676009197
30
0
41
1
10
75.5885688655277
20
-3.28126628731977
30
0
41
1
10
76.5893165585663
20
-3.36809019523997
30
0
41
1
10
76.9227391316812
20
-3.38536096809136
30
0
41
1
10
77.3302675126544
20
-3.39220578006726
30
0
41
1
10
77.4045590972279
20
-3.39286477623273
30
0
41
1
10
77.4788514224555
20
-3.39293490886064
30
0
0
SPLINE
5
DD
100
AcDbEntity
8
1
62
256
6
ByLayer
370
18
48
1
60
0
100
AcDbSpline
70
4
71
3
72
26
73
22
40
0
40
0
40
0
40
0
40
0.0929152008979733
40
0.0929152008979733
40
0.185830401795947
40
0.185830401795947
40
0.371660803591896
40
0.371660803591896
40
0.418118404040882
40
0.418118404040882
40
0.464576004489868
40
0.464576004489868
40
0.55749120538784
40
0.55749120538784
40
0.743321607183783
40
0.743321607183783
40
0.836236808081755
40
0.836236808081755
40
0.929152008979727
40
0.929152008979727
40
1
40
1
40
1
40
1
41
1
10
56
20
0.0463730729671283
30
0
41
1
10
56.3421972341081
20
-0.120616197443667
30
0
41
1
10
56.6847693572431
20
-0.288067856347738
30
0
41
1
10
57.3673369281043
20
-0.618474866785334
30
0
41
1
10
57.7076272316514
20
-0.781562329819792
30
0
41
1
10
58.7277086257677
20
-1.26013976302005
30
1E-16
41
1
10
59.4066294559913
20
-1.56508929882654
30
1E-16
41
1
10
60.2608862858855
20
-1.91504405885254
30
1E-16
41
1
10
60.4322011690243
20
-1.98353633614536
30
1E-16
41
1
10
60.7735860438837
20
-2.11629472468496
30
1E-16
41
1
10
60.943866249411
20
-2.18065031706738
30
1E-16
41
1
10
61.4537370831255
20
-2.36729587808549
30
1E-16
41
1
10
61.7923622440505
20
-2.48315606552441
30
2E-16
41
1
10
62.8064002989363
20
-2.80249491852536
30
-1E-16
41
1
10
63.4798681231607
20
-2.97778085543081
30
0
41
1
10
64.4947701056129
20
-3.17456638430787
30
0
41
1
10
64.8338826136793
20
-3.22913789926923
30
0
41
1
10
65.5150849296421
20
-3.31491170650347
30
0
41
1
10
65.8578607240964
20
-3.34611224234098
30
0
41
1
10
66.4597595953909
20
-3.37920292739747
30
0
41
1
10
66.7198137074853
20
-3.38636502089759
30
0
41
1
10
66.9798374609717
20
-3.38637188105707
30
0
0
SPLINE
5
DE
100
AcDbEntity
8
1
62
256
6
ByLayer
370
18
48
1
60
0
100
AcDbSpline
70
4
71
3
72
8
73
4
40
0
40
0
40
0
40
0
40
1
40
1
40
1
40
1
41
1
10
88.3795236305139
20
3.39557782581375
30
0
41
1
10
88.4562833331435
20
3.3974949233336
30
0
41
1
10
88.5330614533635
20
3.39878627638848
30
0
41
1
10
88.6098665260737
20
3.39945011947154
30
0
0
SPLINE
5
DF
100
AcDbEntity
8
1
62
256
6
ByLayer
370
18
48
1
60
0
100
AcDbSpline
70
4
71
3
72
8
73
4
40
0
40
0
40
0
40
0
40
1
40
1
40
1
40
1
41
1
10
88.3118147126891
20
0.0241779149214949
30
0
41
1
10
88.3046543086686
20
0.183643078263685
30
0
41
1
10
88.3031798583719
20
0.342143786178212
30
0
41
1
10
88.3092813381163
20
0.499676836400368
30
0
0
SPLINE
5
E0
100
AcDbEntity
8
1
62
256
6
ByLayer
370
18
48
1
60
0
100
AcDbSpline
70
4
71
3
72
12
73
8
40
0
40
0
40
0
40
0
40
0.499999999999998
40
0.499999999999998
40
0.749999999999999
40
0.749999999999999
40
1
40
1
40
1
40
1
41
1
10
56.0016978334697
20
3.29771145439403
30
0
41
1
10
56.0016978334697
20
3.27642640450495
30
0
41
1
10
56.0094514263935
20
3.2548284675037
30
0
41
1
10
56.034815814988
20
3.22763556089376
30
0
41
1
10
56.0455799919111
20
3.21957709448984
30
0
41
1
10
56.0716253103076
20
3.20786096522801
30
0
41
1
10
56.0867928651849
20
3.20440848653865
30
0
41
1
10
56.102412648888
20
3.20451393234762
30
0
0
SPLINE
5
E1
100
AcDbEntity
8
1
62
256
6
ByLayer
370
18
48
1
60
0
100
AcDbSpline
70
4
71
3
72
56
73
52
40
0
40
0
40
0
40
0
40
0.124999999999994
40
0.124999999999994
40
0.187499999999992
40
0.187499999999992
40
0.249999999999989
40
0.249999999999989
40
0.281249999999987
40
0.281249999999987
40
0.312499999999985
40
0.312499999999985
40
0.343749999999982
40
0.343749999999982
40
0.37499999999998
40
0.37499999999998
40
0.406249999999978
40
0.406249999999978
40
0.437499999999976
40
0.437499999999976
40
0.453124999999975
40
0.453124999999975
40
0.468749999999974
40
0.468749999999974
40
0.499999999999972
40
0.499999999999972
40
0.515624999999971
40
0.515624999999971
40
0.53124999999997
40
0.53124999999997
40
0.562499999999967
40
0.562499999999967
40
0.624999999999964
40
0.624999999999964
40
0.687499999999961
40
0.687499999999961
40
0.718749999999959
40
0.718749999999959
40
0.734374999999959
40
0.734374999999959
40
0.738281249999959
40
0.738281249999959
40
0.74218749999996
40
0.74218749999996
40
0.746093749999961
40
0.746093749999961
40
0.749999999999962
40
0.749999999999962
40
0.874999999999981
40
0.874999999999981
40
1
40
1
40
1
40
1
41
1
10
9.33366730765829
20
-2.82223067544965
30
0
41
1
10
8.9364559492289
20
-2.71841956421886
30
-1E-16
41
1
10
8.54706001287161
20
-2.59508338443203
30
2E-16
41
1
10
7.97938596101002
20
-2.36636972359639
30
1E-16
41
1
10
7.79292666253954
20
-2.28276501717204
30
1E-16
41
1
10
7.42722386223838
20
-2.09585815100243
30
1E-16
41
1
10
7.24790875019625
20
-1.99248659519807
30
1E-16
41
1
10
6.99133721666527
20
-1.81925510327187
30
1E-16
41
1
10
6.90772879030129
20
-1.75837435419049
30
1E-16
41
1
10
6.74524473459462
20
-1.62882758392229
30
1E-16
41
1
10
6.66635546852382
20
-1.56009299853423
30
1E-16
41
1
10
6.51716999168463
20
-1.41518560365418
30
1E-16
41
1
10
6.44654808847372
20
-1.33879847465101
30
1E-16
41
1
10
6.3154602818872
20
-1.17595321939777
30
1E-16
41
1
10
6.25495234654269
20
-1.08953638829189
30
1E-16
41
1
10
6.14786542317898
20
-0.902893720325778
30
1E-16
41
1
10
6.1026108331065
20
-0.804712908333386
30
0
41
1
10
6.03421553900927
20
-0.598852441564077
30
0
41
1
10
6.01107195992481
20
-0.489595888209379
30
0
41
1
10
5.99775821632866
20
-0.325948844633842
30
0
41
1
10
5.99673437317631
20
-0.271142110309626
30
0
41
1
10
6.00168968973802
20
-0.1610026632477
30
0
41
1
10
6.00774962927261
20
-0.105261119482861
30
0
41
1
10
6.03619006886993
20
0.059584785610042
30
0
41
1
10
6.06833964455348
20
0.165396215363842
30
0
41
1
10
6.13315084779521
20
0.318981115239495
30
0
41
1
10
6.15750215114898
20
0.369155247994542
30
0
41
1
10
6.21007023252309
20
0.465870122352811
30
0
41
1
10
6.2384069949201
20
0.512705004108426
30
0
41
1
10
6.32873295370214
20
0.649274293460451
30
0
41
1
10
6.39599713075191
20
0.73510382028087
30
0
41
1
10
6.61437824117769
20
0.980362466635114
30
-1E-16
41
1
10
6.77593587096186
20
1.12179313092349
30
-1E-16
41
1
10
7.11750254770658
20
1.37887015041349
30
-1E-16
41
1
10
7.29845205905306
20
1.49447360032937
30
-1E-16
41
1
10
7.57744331026981
20
1.65271900217635
30
-1E-16
41
1
10
7.67173994562876
20
1.70292628448939
30
-1E-16
41
1
10
7.81479434084315
20
1.77498122330229
30
-1E-16
41
1
10
7.86273312237273
20
1.79844753007242
30
-1E-16
41
1
10
7.92293970202917
20
1.82713642666192
30
-1E-16
41
1
10
7.93501749201124
20
1.83314040812547
30
-1E-16
41
1
10
7.96114243394558
20
1.84008889854607
30
-1E-16
41
1
10
7.97493832292156
20
1.84142374380991
30
-1E-16
41
1
10
8.00231686007777
20
1.84164000363683
30
-1E-16
41
1
10
8.01584256366215
20
1.84031362341352
30
-1E-16
41
1
10
8.04264330312941
20
1.83545637208269
30
-1E-16
41
1
10
8.05581774125125
20
1.83198195681368
30
-1E-16
41
1
10
8.49096094645574
20
1.72367881771734
30
-1E-16
41
1
10
8.90678558180559
20
1.59757895734452
30
-1E-16
41
1
10
9.72266998048906
20
1.30486357927953
30
-1E-16
41
1
10
10.1233684488086
20
1.13810118718996
30
-1E-16
41
1
10
10.5195042632743
20
0.954155898970328
30
-1E-16
0
SPLINE
5
E2
100
AcDbEntity
8
1
62
256
6
ByLayer
370
18
48
1
60
0
100
AcDbSpline
70
4
71
3
72
16
73
12
40
0
40
0
40
0
40
0
40
0.226295594101653
40
0.226295594101653
40
0.454858624330985
40
0.454858624330985
40
0.652237598495692
40
0.652237598495692
40
0.826633544968479
40
0.826633544968479
40
1
40
1
40
1
40
1
41
1
10
88.7882441168469
20
-3.20084231490068
30
0
41
1
10
88.7883239933409
20
-3.20100676123676
30
0
41
1
10
88.7883478846858
20
-3.20135011392026
30
0
41
1
10
88.7882582116629
20
-3.20240645830475
30
0
41
1
10
88.7881406162982
20
-3.20314348065418
30
0
41
1
10
88.7877879812534
20
-3.20480845382951
30
0
41
1
10
88.7875651675904
20
-3.20572296915293
30
0
41
1
10
88.7870725205601
20
-3.20754533970887
30
0
41
1
10
88.786804843562
20
-3.20846521189435
30
0
41
1
10
88.7862454014458
20
-3.21027421965221
30
0
41
1
10
88.7859472336565
20
-3.21118520686611
30
0
41
1
10
88.7856511640587
20
-3.2120462464228
30
0
0
SPLINE
5
E3
100
AcDbEntity
8
1
62
256
6
ByLayer
370
18
48
1
60
0
100
AcDbSpline
70
4
71
3
72
16
73
12
40
0
40
0
40
0
40
0
40
0.20206104497464
40
0.20206104497464
40
0.404122089949279
40
0.404122089949279
40
0.606183134923919
40
0.606183134923919
40
0.808244179898558
40
0.808244179898558
40
1
40
1
40
1
40
1
41
1
10
88.8143362261524
20
3.26349006283172
30
0
41
1
10
88.471260571045
20
3.26609920502375
30
0
41
1
10
88.1283171769096
20
3.25643371206939
30
0
41
1
10
87.4414245064447
20
3.21370644294242
30
0
41
1
10
87.0969898241057
20
3.18019788533997
30
0
41
1
10
86.4120466981501
20
3.0909256794296
30
0
41
1
10
86.0708703117385
20
3.0352496094159
30
0
41
1
10
85.389791823602
20
2.90212493827607
30
0
41
1
10
85.0498592571695
20
2.82464142924152
30
0
41
1
10
84.3873131203208
20
2.65441543315225
30
1E-16
41
1
10
84.0647084510944
20
2.5627028965196
30
-1E-16
41
1
10
83.7414587631537
20
2.46249626886183
30
-1E-16
0
SPLINE
5
E4
100
AcDbEntity
8
1
62
256
6
ByLayer
370
18
48
1
60
0
100
AcDbSpline
70
4
71
3
72
8
73
4
40
0
40
0
40
0
40
0
40
1
40
1
40
1
40
1
41
1
10
56.585534870816
20
-0.240973182108661
30
0
41
1
10
56.3904002655471
20
-0.149211630449514
30
0
41
1
10
56.1952726391178
20
-0.0571696490034412
30
0
41
1
10
55.9999999999918
20
0.034836708356238
30
0
0
SPLINE
5
E5
100
AcDbEntity
8
1
62
256
6
ByLayer
370
18
48
1
60
0
100
AcDbSpline
70
4
71
3
72
8
73
4
40
0
40
0
40
0
40
0
40
1
40
1
40
1
40
1
41
1
10
89.6886447075152
20
1.08533176007145
30
0
41
1
10
89.7943242545493
20
0.787176950845492
30
0
41
1
10
89.8970794182426
20
0.487975734224165
30
0
41
1
10
89.9968646356189
20
0.187711806792464
30
0
0
SPLINE
5
E6
100
AcDbEntity
8
1
62
256
6
ByLayer
370
18
48
1
60
0
100
AcDbSpline
70
4
71
3
72
63
73
59
40
0
40
0
40
0
40
0
40
0.0186395720909697
40
0.0186395720909697
40
0.0383928051940754
40
0.0383928051940754
40
0.058146038297181
40
0.058146038297181
40
0.0778992714002867
40
0.0778992714002867
40
0.0782079156675227
40
0.0782079156675227
40
0.0785165599347586
40
0.0785165599347586
40
0.0791338484692306
40
0.0791338484692306
40
0.0803684255381747
40
0.0803684255381747
40
0.0828375796760626
40
0.0828375796760626
40
0.0877758879518388
40
0.0877758879518388
40
0.097652504503391
40
0.097652504503391
40
0.117405737606496
40
0.117405737606496
40
0.156912203812705
40
0.156912203812705
40
0.235925136225123
40
0.235925136225123
40
0.393951001049959
40
0.393951001049959
40
0.472963933462377
40
0.472963933462377
40
0.512470399668586
40
0.512470399668586
40
0.53222363277169
40
0.53222363277169
40
0.537161941047466
40
0.537161941047466
40
0.542100249323243
40
0.542100249323243
40
0.542408893590479
40
0.542408893590479
40
0.542717537857715
40
0.542717537857715
40
0.542871859991333
40
0.542871859991333
40
0.54302618212495
40
0.543334826392186
40
0.54456940346113
40
0.547038557599016
40
0.551976865874789
40
0.710002730699535
40
0.710002730699535
40
0.868028595524281
40
0.868028595524281
40
1
40
1
40
1
40
1
41
1
10
10.4591131915418
20
0.978676510673182
30
-1E-16
41
1
10
10.4316840080036
20
0.987380069199446
30
-1E-16
41
1
10
10.403433042268
20
0.993168610208983
30
-1E-16
41
1
10
10.3406603064396
20
1.0002140409253
30
-1E-16
41
1
10
10.3061947146941
20
1.00106045362585
30
-1E-16
41
1
10
10.2345035082258
20
0.996745420785572
30
-1E-16
41
1
10
10.1971667833143
20
0.991604713124701
30
-1E-16
41
1
10
10.1176364794269
20
0.976247295736613
30
-1E-16
41
1
10
10.075773756977
20
0.965845243424923
30
-1E-16
41
1
10
10.0318309757138
20
0.952366879642625
30
-1E-16
41
1
10
10.0311676212299
20
0.952086885999165
30
-1E-16
41
1
10
10.0330240471882
20
0.950842209421467
30
-1E-16
41
1
10
10.0341836883054
20
0.950224832190315
30
-1E-16
41
1
10
10.0376269209276
20
0.948391902516306
30
-1E-16
41
1
10
10.040037664994
20
0.947183383666385
30
-1E-16
41
1
10
10.0472971597652
20
0.943575799840119
30
-1E-16
41
1
10
10.0522300924271
20
0.941189465417921
30
-1E-16
41
1
10
10.0670876552305
20
0.934041912845288
30
-1E-16
41
1
10
10.0770870821998
20
0.92930009537568
30
-1E-16
41
1
10
10.1071504457194
20
0.915085916758358
30
-1E-16
41
1
10
10.1272947664663
20
0.905628369958265
30
-1E-16
41
1
10
10.1877953406315
20
0.877249161670306
30
-1E-16
41
1
10
10.2282425208431
20
0.85832848515679
30
-1E-16
41
1
10
10.3496575356291
20
0.8014844587656
30
0
41
1
10
10.4307224250922
20
0.763485372956922
30
0
41
1
10
10.6739608907197
20
0.649083191837832
30
0
41
1
10
10.8362020175444
20
0.572281925618569
30
0
41
1
10
11.3230438033516
20
0.340265830854776
30
0
41
1
10
11.6478601276977
20
0.183496412763134
30
0
41
1
10
12.6214425249386
20
-0.293967934199202
30
0
41
1
10
13.2694019183452
20
-0.621902042775304
30
0
41
1
10
14.2416938414865
20
-1.12594609465387
30
0
41
1
10
14.5659184160361
20
-1.29586529468219
30
0
41
1
10
15.0515954881394
20
-1.55446269817426
30
0
41
1
10
15.2134133784005
20
-1.64124095326096
30
0
41
1
10
15.4559346932093
20
-1.77246209530725
30
0
41
1
10
15.5367724015482
20
-1.8163160988465
30
0
41
1
10
15.6374565719213
20
-1.87195621243203
30
0
41
1
10
15.6575736126849
20
-1.88312853263625
30
0
41
1
10
15.697669208838
20
-1.90574984705842
30
0
41
1
10
15.7180412598162
20
-1.91659418669857
30
0
41
1
10
15.7383098789859
20
-1.93035750501667
30
0
41
1
10
15.7394935625925
20
-1.93118479595199
30
0
41
1
10
15.7417825814692
20
-1.93293439813905
30
0
41
1
10
15.743174579068
20
-1.93367496986977
30
0
41
1
10
15.7439974029938
20
-1.93580002696169
30
0
41
1
10
15.7429009251092
20
-1.93609342198565
30
0
41
1
10
15.7414358085871
20
-1.93632637239042
30
0
41
1
10
15.7392381225872
20
-1.9366756035017
30
0
41
1
10
15.7311800743346
20
-1.93795613548579
30
0
41
1
10
15.7121346765673
20
-1.94098168985298
30
0
41
1
10
15.6711184818281
20
-1.94749226873643
30
0
41
1
10
14.8861329337685
20
-2.07189253809119
30
0
41
1
10
14.1166711952848
20
-2.18938992287553
30
0
41
1
10
12.6333818095321
20
-2.40502688364418
30
0
41
1
10
11.8960376331942
20
-2.5067141445046
30
0
41
1
10
10.5500385888667
20
-2.68006028159206
30
-1E-16
41
1
10
9.94017541498482
20
-2.75395108131056
30
-1E-16
41
1
10
9.33385052667796
20
-2.82234176219487
30
0
0
SPLINE
5
E7
100
AcDbEntity
8
1
62
256
6
ByLayer
370
18
48
1
60
0
100
AcDbSpline
70
4
71
3
72
8
73
4
40
0
40
0
40
0
40
0
40
1
40
1
40
1
40
1
41
1
10
89.4298284972667
20
-0.357493124683771
30
0
41
1
10
89.3283038852538
20
-0.0864847597523806
30
0
41
1
10
89.2032093896157
20
0.2001053245896
30
0
41
1
10
89.0548554373711
20
0.502071909395795
30
0
0
SPLINE
5
E8
100
AcDbEntity
8
1
62
256
6
ByLayer
370
18
48
1
60
0
100
AcDbSpline
70
4
71
3
72
8
73
4
40
0
40
0
40
0
40
0
40
1
40
1
40
1
40
1
41
1
10
89.054855437371
20
0.502071909395852
30
0
41
1
10
89.0486104060039
20
0.500881376010028
30
0
41
1
10
89.0432812825575
20
0.498495858487615
30
0
41
1
10
89.0387873541424
20
0.495221895601901
30
0
0
SPLINE
5
E9
100
AcDbEntity
8
1
62
256
6
ByLayer
370
18
48
1
60
0
100
AcDbSpline
70
4
71
3
72
30
73
26
40
0
40
0
40
0
40
0
40
0.499811695129869
40
0.499811695129869
40
0.669294515780365
40
0.669294515780365
40
0.782366879380744
40
0.782366879380744
40
0.85759309486786
40
0.85759309486786
40
0.907551189546294
40
0.907551189546294
40
0.94068694814602
40
0.94068694814602
40
0.962645825548456
40
0.962645825548456
40
0.977196624737748
40
0.977196624737748
40
0.986950250225601
40
0.986950250225601
40
0.993366150533152
40
0.993366150533152
40
0.997532732455207
40
0.997532732455207
40
1
40
1
40
1
40
1
41
1
10
88.6098665260736
20
3.39945011947154
30
0
41
1
10
88.6438397986015
20
3.37716587308321
30
0
41
1
10
88.6778606114667
20
3.35469256878329
30
0
41
1
10
88.7234784208431
20
3.32435655940324
30
0
41
1
10
88.7350356539714
20
3.31665363403911
30
0
41
1
10
88.7543122142263
20
3.30377733511719
30
0
41
1
10
88.7620286533802
20
3.29861534641282
30
0
41
1
10
88.7748826945675
20
3.29000401304151
30
0
41
1
10
88.7800189985264
20
3.28655971879209
30
0
41
1
10
88.7885680781663
20
3.28082140649812
30
0
41
1
10
88.7919802755901
20
3.27852961845247
30
0
41
1
10
88.7976564483217
20
3.27471483550579
30
0
41
1
10
88.7999201674959
20
3.27319282260638
30
0
41
1
10
88.8036843762234
20
3.27066090042305
30
0
41
1
10
88.8051843103109
20
3.26965172301968
30
0
41
1
10
88.8076798606556
20
3.26797220924749
30
0
41
1
10
88.808676381712
20
3.26730141275777
30
0
41
1
10
88.8103534706501
20
3.26617225681255
30
0
41
1
10
88.8110316405859
20
3.26571558702551
30
0
41
1
10
88.812150502322
20
3.26496210662663
30
0
41
1
10
88.8125931094474
20
3.26466402567104
30
0
41
1
10
88.8133112023459
20
3.26418040462076
30
0
41
1
10
88.8135912493962
20
3.26399179596882
30
0
41
1
10
88.8140246130869
20
3.26369993010377
30
0
41
1
10
88.8141832015239
20
3.2635931224394
30
0
41
1
10
88.8143362261524
20
3.26349006283172
30
0
0
SPLINE
5
EA
100
AcDbEntity
8
1
62
256
6
ByLayer
370
18
48
1
60
0
100
AcDbSpline
70
4
71
3
72
42
73
38
40
0
40
0
40
0
40
0
40
0.0708909965809879
40
0.0708909965809879
40
0.117346446751943
40
0.117346446751943
40
0.163801896922898
40
0.163801896922898
40
0.256712797264806
40
0.256712797264806
40
0.303168247435759
40
0.303168247435759
40
0.326395972521235
40
0.326395972521235
40
0.349623697606711
40
0.349623697606711
40
0.442534597948613
40
0.442534597948613
40
0.535445498290515
40
0.535445498290515
40
0.558673223375991
40
0.558673223375991
40
0.581900948461466
40
0.581900948461466
40
0.628356398632415
40
0.628356398632415
40
0.721267298974312
40
0.721267298974312
40
0.76772274914526
40
0.76772274914526
40
0.814178199316208
40
0.814178199316208
40
0.907089099658104
40
0.907089099658104
40
0.953544549829052
40
0.953544549829052
40
1
40
1
40
1
40
1
41
1
10
66.684658679826
20
3.38329120173304
30
0
41
1
10
67.2051812574908
20
3.3941406379287
30
0
41
1
10
67.725109720139
20
3.37633397573083
30
0
41
1
10
68.5889053257305
20
3.29940413313099
30
0
41
1
10
68.929942782186
20
3.25677080784467
30
0
41
1
10
69.6087450232114
20
3.14882456713528
30
0
41
1
10
69.9469772585226
20
3.08347779917455
30
0
41
1
10
70.9603196573175
20
2.85564464344736
30
0
41
1
10
71.6339597290437
20
2.66122883171616
30
-2E-16
41
1
10
72.6495670892745
20
2.3152082835434
30
-1E-16
41
1
10
72.9889745605012
20
2.19083020993827
30
-1E-16
41
1
10
73.5004429823059
20
1.99205420123818
30
-1E-16
41
1
10
73.6716308049659
20
1.92363263612293
30
-1E-16
41
1
10
74.0131588814999
20
1.78370083154516
30
-1E-16
41
1
10
74.1834842428815
20
1.71220603767423
30
-1E-16
41
1
10
75.0333725191331
20
1.3479935299427
30
-1E-16
41
1
10
75.707781541002
20
1.03515955626361
30
-1E-16
41
1
10
77.0568020570347
20
0.389268861313042
30
0
41
1
10
77.7312565286972
20
0.0558900968904652
30
0
41
1
10
78.5812804508582
20
-0.359372750174231
30
0
41
1
10
78.7516352989518
20
-0.442346103300935
30
0
41
1
10
79.0932233827712
20
-0.607761119103145
30
0
41
1
10
79.2643183457276
20
-0.690133253231124
30
0
41
1
10
79.7755206559266
20
-0.934179805239921
30
1E-16
41
1
10
80.1147260074234
20
-1.09335754225461
30
1E-16
41
1
10
81.1296682742702
20
-1.55638287162608
30
1E-16
41
1
10
81.8027760225858
20
-1.84561072316225
30
1E-16
41
1
10
82.8152721867268
20
-2.23575342146182
30
1E-16
41
1
10
83.153237967724
20
-2.35853159169454
30
1E-16
41
1
10
83.8315433007339
20
-2.5870864632935
30
2E-16
41
1
10
84.1722287271824
20
-2.69295397803268
30
2E-16
41
1
10
85.197884411525
20
-2.98081508757735
30
0
41
1
10
85.878787874039
20
-3.13094491021482
30
0
41
1
10
86.9039492524047
20
-3.28609340418694
30
0
41
1
10
87.2456098101636
20
-3.32598250082063
30
0
41
1
10
87.9276888657917
20
-3.38115411000922
30
0
41
1
10
88.2685114998294
20
-3.3964997131371
30
0
41
1
10
88.6098665260737
20
-3.39945011947154
30
0
0
SPLINE
5
EB
100
AcDbEntity
8
1
62
256
6
ByLayer
370
18
48
1
60
0
100
AcDbSpline
70
4
71
3
72
28
73
24
40
0
40
0
40
0
40
0
40
0.125
40
0.125
40
0.1875
40
0.1875
40
0.25
40
0.25
40
0.375
40
0.375
40
0.5
40
0.5
40
0.5625
40
0.5625
40
0.625
40
0.625
40
0.75
40
0.75
40
0.8125
40
0.8125
40
0.875
40
0.875
40
1
40
1
40
1
40
1
41
1
10
56.102412648888
20
3.20451393234762
30
0
41
1
10
56.1024022737245
20
3.19345305334616
30
0
41
1
10
56.1023891882566
20
3.16680784726285
30
0
41
1
10
56.1023662610083
20
3.10438841097368
30
0
41
1
10
56.1023580627792
20
3.07981863190378
30
0
41
1
10
56.1023406166721
20
3.02305650587724
30
0
41
1
10
56.1023313386151
20
2.99075187123933
30
0
41
1
10
56.1023021638409
20
2.8827586664957
30
0
41
1
10
56.1022812570943
20
2.79726542038998
30
1E-16
41
1
10
56.1022368056337
20
2.60026508117144
30
1E-16
41
1
10
56.10221319255
20
2.48841383048185
30
-2E-16
41
1
10
56.102175758674
20
2.30123162514508
30
-1E-16
41
1
10
56.1021629776418
20
2.23576994150534
30
-1E-16
41
1
10
56.1021370776981
20
2.1004349502993
30
-1E-16
41
1
10
56.1021239458568
20
2.03050628513199
30
-1E-16
41
1
10
56.1020838996345
20
1.81409400791674
30
-1E-16
41
1
10
56.1020563490221
20
1.66103177166721
30
-1E-16
41
1
10
56.1020130859057
20
1.41800793626749
30
-1E-16
41
1
10
56.1019982766107
20
1.33439912420798
30
-1E-16
41
1
10
56.1019683490883
20
1.16532688882057
30
-1E-16
41
1
10
56.1019531936371
20
1.07965696741479
30
-1E-16
41
1
10
56.1019069635257
20
0.819303007681924
30
-1E-16
41
1
10
56.1018751352411
20
0.641299689263008
30
0
41
1
10
56.1018417017245
20
0.458717768562138
30
0
0
SPLINE
5
EC
100
AcDbEntity
8
1
62
256
6
ByLayer
370
18
48
1
60
0
100
AcDbSpline
70
4
71
3
72
20
73
16
40
0
40
0
40
0
40
0
40
0.125000000000001
40
0.125000000000001
40
0.187500000000001
40
0.187500000000001
40
0.250000000000001
40
0.250000000000001
40
0.375
40
0.375
40
0.5
40
0.5
40
0.75
40
0.75
40
1
40
1
40
1
40
1
41
1
10
89.0548554373711
20
0.502071909395823
30
0
41
1
10
89.0262254623414
20
0.520538506787119
30
0
41
1
10
88.9961083601786
20
0.533169355567196
30
0
41
1
10
88.950422907623
20
0.550731317866564
30
0
41
1
10
88.9351813290864
20
0.556811666636548
30
0
41
1
10
88.9044524573375
20
0.566967202859786
30
0
41
1
10
88.8889915608883
20
0.571258548260971
30
0
41
1
10
88.8423782675732
20
0.58183799016328
30
0
41
1
10
88.8110136424081
20
0.586041188810924
30
0
41
1
10
88.7480354691254
20
0.590660863876536
30
0
41
1
10
88.7164576500991
20
0.591968840414665
30
0
41
1
10
88.6215573443003
20
0.590813896213916
30
0
41
1
10
88.5580407957048
20
0.58160017882409
30
0
41
1
10
88.4319812330961
20
0.549507505027719
30
0
41
1
10
88.3696852605801
20
0.528200338719842
30
0
41
1
10
88.3092813381301
20
0.499676836398265
30
0
0
SPLINE
5
ED
100
AcDbEntity
8
1
62
256
6
ByLayer
370
18
48
1
60
0
100
AcDbSpline
70
4
71
3
72
24
73
20
40
0
40
0
40
0
40
0
40
0.220993413317476
40
0.220993413317476
40
0.331490119976214
40
0.331490119976214
40
0.386738473305583
40
0.386738473305583
40
0.441986826634952
40
0.441986826634952
40
0.662980239952428
40
0.662980239952428
40
0.773476946611165
40
0.773476946611165
40
0.828725299940534
40
0.828725299940534
40
0.883973653269903
40
0.883973653269903
40
1
40
1
40
1
40
1
41
1
10
10.5194989996616
20
0.954157039867454
30
-1E-16
41
1
10
11.476699034664
20
0.510233194434392
30
0
41
1
10
12.4200899113638
20
0.0449353481976118
30
0
41
1
10
13.8373697878421
20
-0.636593006801775
30
0
41
1
10
14.3100641110645
20
-0.861244101694837
30
1E-16
41
1
10
15.0224838441849
20
-1.18819167959575
30
1E-16
41
1
10
15.2604987313964
20
-1.29554767013812
30
1E-16
41
1
10
15.7380410503309
20
-1.50610572547137
30
1E-16
41
1
10
15.9773910944543
20
-1.60903783388153
30
1E-16
41
1
10
17.1679978569206
20
-2.10594728700175
30
1E-16
41
1
10
18.1095174456168
20
-2.45046582450891
30
2E-16
41
1
10
19.5279212375734
20
-2.85435865214859
30
0
41
1
10
20.0017947697167
20
-2.97018736933845
30
0
41
1
10
20.7167753160645
20
-3.11225249795737
30
0
41
1
10
20.9563633893586
20
-3.154318855214
30
0
41
1
10
21.4332130797359
20
-3.22669068239753
30
0
41
1
10
21.6708684032592
20
-3.25707895853816
30
0
41
1
10
22.4057482488008
20
-3.33328475436346
30
0
41
1
10
22.9012208801216
20
-3.35906757305955
30
0
41
1
10
23.3964482378331
20
-3.35909125837569
30
0
0
SPLINE
5
EE
100
AcDbEntity
8
1
62
256
6
ByLayer
370
18
48
1
60
0
100
AcDbSpline
70
4
71
3
72
30
73
26
40
0
40
0
40
0
40
0
40
0.1088538674576
40
0.1088538674576
40
0.153411174084718
40
0.153411174084718
40
0.197968480711836
40
0.197968480711836
40
0.287083093966072
40
0.287083093966072
40
0.465312320474547
40
0.465312320474547
40
0.509869627101667
40
0.509869627101667
40
0.554426933728787
40
0.554426933728787
40
0.643541546983029
40
0.643541546983029
40
0.821770773491515
40
0.821770773491515
40
0.866328080118635
40
0.866328080118635
40
0.910885386745757
40
0.910885386745757
40
1
40
1
40
1
40
1
41
1
10
40.0613551629551
20
2.50551364846535
30
-1E-16
41
1
10
40.6371337926672
20
2.69319385235733
30
0
41
1
10
41.2133433326302
20
2.8551309172594
30
0
41
1
10
42.0307491460871
20
3.04026392550952
30
0
41
1
10
42.2688471807493
20
3.08887100506306
30
0
41
1
10
42.7468084809834
20
3.1752334365776
30
0
41
1
10
42.9850821453898
20
3.21267769717341
30
0
41
1
10
43.6974746002506
20
3.30760284957989
30
0
41
1
10
44.1698384180073
20
3.34753865485425
30
0
41
1
10
45.5845524628225
20
3.39701434315845
30
0
41
1
10
46.5243562035363
20
3.33582491806922
30
0
41
1
10
47.714040858033
20
3.1436572652695
30
0
41
1
10
47.9533254964485
20
3.09933787259399
30
0
41
1
10
48.4299755728537
20
3.00002510094055
30
0
41
1
10
48.6675058361173
20
2.94511787975455
30
0
41
1
10
49.3784505334157
20
2.76567193518449
30
1E-16
41
1
10
49.8500351501466
20
2.62617594388317
30
-2E-16
41
1
10
51.2637400128918
20
2.15669713581846
30
-1E-16
41
1
10
52.2045560414961
20
1.77530772069761
30
-1E-16
41
1
10
53.3968782716906
20
1.24167204659781
30
-1E-16
41
1
10
53.6358710472652
20
1.13235495909848
30
-1E-16
41
1
10
54.1113252655948
20
0.911312891773946
30
-1E-16
41
1
10
54.3483362854756
20
0.799310587713506
30
0
41
1
10
55.0578627674478
20
0.460208201396966
30
0
41
1
10
55.5289370489712
20
0.230150256441277
30
0
41
1
10
56
20
0.0001615767085923
30
0
0
SPLINE
5
EF
100
AcDbEntity
8
1
62
256
6
ByLayer
370
18
48
1
60
0
100
AcDbSpline
70
4
71
3
72
32
73
28
40
0
40
0
40
0
40
0
40
0.192724794441096
40
0.192724794441096
40
0.240905993051371
40
0.240905993051371
40
0.289087191661646
40
0.289087191661646
40
0.385449588882195
40
0.385449588882195
40
0.481811986102745
40
0.481811986102745
40
0.529993184713022
40
0.529993184713022
40
0.578174383323298
40
0.578174383323298
40
0.674536780543855
40
0.674536780543855
40
0.722717979154134
40
0.722717979154134
40
0.770899177764414
40
0.770899177764414
40
0.86726157498497
40
0.86726157498497
40
0.963623972205527
40
0.963623972205527
40
1
40
1
40
1
40
1
41
1
10
56.144347675739
20
3.21477348639795
30
0
41
1
10
56.8202613991138
20
3.20031598977982
30
0
41
1
10
57.4944580193006
20
3.13342649944579
30
0
41
1
10
58.3390547792073
20
2.99705239965598
30
0
41
1
10
58.5080374467696
20
2.96714888200648
30
0
41
1
10
58.8460796610152
20
2.90244391140717
30
0
41
1
10
59.0153663953445
20
2.86755390161474
30
0
41
1
10
59.5228585348613
20
2.75500239243425
30
1E-16
41
1
10
59.8594966224912
20
2.66999336104755
30
1E-16
41
1
10
60.5309084043387
20
2.48217926625037
30
-2E-16
41
1
10
60.8657093994195
20
2.37929417252443
30
-1E-16
41
1
10
61.3671392371143
20
2.21352110980445
30
-1E-16
41
1
10
61.5341486984576
20
2.15634956728428
30
-1E-16
41
1
10
61.8678718924408
20
2.03839267010483
30
-1E-16
41
1
10
62.0346014686181
20
1.97761378861461
30
-1E-16
41
1
10
62.5353337824155
20
1.79016437584218
30
-1E-16
41
1
10
62.8698388829403
20
1.65835810730258
30
-1E-16
41
1
10
63.3724321172898
20
1.45217737380173
30
-1E-16
41
1
10
63.5401022563009
20
1.38203906686806
30
-1E-16
41
1
10
63.8756639528862
20
1.23901746091164
30
-1E-16
41
1
10
64.0435596820502
20
1.16613354368397
30
-1E-16
41
1
10
64.5488621816859
20
0.944398822922238
30
-1E-16
41
1
10
64.8886910559945
20
0.792073322119933
30
0
41
1
10
65.5635428770263
20
0.484705383655637
30
0
41
1
10
65.8994187579541
20
0.328889610846744
30
0
41
1
10
66.3609433399207
20
0.113689629090828
30
0
41
1
10
66.4873000363556
20
0.0546552302853911
30
0
41
1
10
66.613581224606
20
-0.004338058456824
30
0
0
SPLINE
5
F0
100
AcDbEntity
8
1
62
256
6
ByLayer
370
18
48
1
60
0
100
AcDbSpline
70
4
71
3
72
30
73
26
40
0
40
0
40
0
40
0
40
0.184221516104629
40
0.184221516104629
40
0.276332274156946
40
0.276332274156946
40
0.368443032209262
40
0.368443032209262
40
0.414498411235418
40
0.414498411235418
40
0.460553790261575
40
0.460553790261575
40
0.552664548313888
40
0.552664548313888
40
0.644775306366201
40
0.644775306366201
40
0.736886064418514
40
0.736886064418514
40
0.828996822470827
40
0.828996822470827
40
0.875052201496982
40
0.875052201496982
40
0.921107580523136
40
0.921107580523136
40
1
40
1
40
1
40
1
41
1
10
88.3991785050835
20
-0.0290384459474922
30
0
41
1
10
87.7256896216004
20
0.286986627644609
30
0
41
1
10
87.054599251145
20
0.59790946952333
30
0
41
1
10
86.0486550347516
20
1.04767264062522
30
-1E-16
41
1
10
85.7136666576332
20
1.19494333309569
30
-1E-16
41
1
10
85.0414854921711
20
1.4798322779653
30
-1E-16
41
1
10
84.704458125804
20
1.61767463053926
30
-1E-16
41
1
10
84.1970291736198
20
1.8160208845843
30
-1E-16
41
1
10
84.0274565466873
20
1.88074887381632
30
-1E-16
41
1
10
83.6897794507551
20
2.00617144506003
30
-1E-16
41
1
10
83.5213224492028
20
2.06700152823322
30
-1E-16
41
1
10
83.016578257596
20
2.24360159651121
30
-1E-16
41
1
10
82.68106645742
20
2.35347687051964
30
-1E-16
41
1
10
82.0117286731175
20
2.55546717623105
30
1E-16
41
1
10
81.6781133246679
20
2.64715087151794
30
1E-16
41
1
10
81.0102483191302
20
2.81232887052883
30
0
41
1
10
80.6761361488547
20
2.8857098794555
30
0
41
1
10
80.0071397121338
20
3.01145761622621
30
0
41
1
10
79.672370929135
20
3.0631137810351
30
0
41
1
10
79.1679896879409
20
3.1259206705769
30
0
41
1
10
78.9995146450026
20
3.14433663960358
30
0
41
1
10
78.6618159025846
20
3.17559280828601
30
0
41
1
10
78.4923447035118
20
3.18844453750887
30
0
41
1
10
78.0330648482868
20
3.21492186730154
30
0
41
1
10
77.7449162624537
20
3.22189214155577
30
0
41
1
10
77.4573316290708
20
3.22137140547494
30
0
0
SPLINE
5
F1
100
AcDbEntity
8
1
62
256
6
ByLayer
370
18
48
1
60
0
100
AcDbSpline
70
4
71
3
72
26
73
22
40
0
40
0
40
0
40
0
40
0.0049044221233212
40
0.0049044221233212
40
0.184881911184419
40
0.184881911184419
40
0.27487065571497
40
0.27487065571497
40
0.319865027980247
40
0.319865027980247
40
0.364859400245523
40
0.364859400245523
40
0.544836889306625
40
0.544836889306625
40
0.724814378367726
40
0.724814378367726
40
0.814803122898277
40
0.814803122898277
40
0.904791867428827
40
0.904791867428827
40
1
40
1
40
1
40
1
41
1
10
68.4164847138703
20
-3.22003279114844
30
0
41
1
10
68.3980023375987
20
-3.22060209469294
30
0
41
1
10
68.3795216835644
20
-3.22113640459347
30
0
41
1
10
67.682917401878
20
-3.23995754121751
30
0
41
1
10
67.0069616623158
20
-3.2123117409719
30
0
41
1
10
65.9887180797264
20
-3.10156728398704
30
0
41
1
10
65.6486228918644
20
-3.05337733383158
30
0
41
1
10
65.1363605358884
20
-2.96418527678992
30
0
41
1
10
64.9652792982778
20
-2.93169874734164
30
0
41
1
10
64.622255296317
20
-2.86125328311232
30
0
41
1
10
64.4505173607816
20
-2.82332340692628
30
0
41
1
10
63.5950429496783
20
-2.62162149909611
30
-1E-16
41
1
10
62.9169842678087
20
-2.42074832368081
30
1E-16
41
1
10
61.5621046771098
20
-1.9573083799406
30
1E-16
41
1
10
60.8857577551776
20
-1.69421780670095
30
1E-16
41
1
10
59.8647241865608
20
-1.26674651073648
30
1E-16
41
1
10
59.5233186555165
20
-1.11873382642216
30
1E-16
41
1
10
58.837182338259
20
-0.813989373469099
30
0
41
1
10
58.4940309800145
20
-0.657983760691934
30
0
41
1
10
57.7897235364307
20
-0.334070731138326
30
0
41
1
10
57.4280618188883
20
-0.165800739889647
30
0
41
1
10
57.066034733564
20
0.0025387432981745
30
0
0
SPLINE
5
F2
100
AcDbEntity
8
1
62
256
6
ByLayer
370
18
48
1
60
0
100
AcDbSpline
70
4
71
3
72
8
73
4
40
0
40
0
40
0
40
0
40
1
40
1
40
1
40
1
41
1
10
56.1460508045648
20
3.37351722815495
30
0
41
1
10
56.1454908311645
20
3.32060318927702
30
0
41
1
10
56.1449231135524
20
3.26768861781352
30
0
41
1
10
56.144347675739
20
3.21477348639795
30
0
0
SPLINE
5
F3
100
AcDbEntity
8
1
62
256
6
ByLayer
370
18
48
1
60
0
100
AcDbSpline
70
4
71
3
72
20
73
16
40
0
40
0
40
0
40
0
40
0.24999999999999
40
0.24999999999999
40
0.374999999999991
40
0.374999999999991
40
0.437499999999986
40
0.437499999999986
40
0.499999999999981
40
0.499999999999981
40
0.624999999999982
40
0.624999999999982
40
0.749999999999983
40
0.749999999999983
40
1
40
1
40
1
40
1
41
1
10
88.8189151445241
20
-3.26040473951341
30
0
41
1
10
88.8852051150174
20
-3.07422102860644
30
0
41
1
10
88.9507924393646
20
-2.88684266023802
30
0
41
1
10
89.0494922497336
20
-2.60503303763025
30
0
41
1
10
89.0824293876672
20
-2.51100291461
30
0
41
1
10
89.1320094776619
20
-2.36991078784936
30
0
41
1
10
89.1485647322032
20
-2.32287272308543
30
0
41
1
10
89.1817394732202
20
-2.22881041951243
30
0
41
1
10
89.1982956085269
20
-2.18176658950006
30
0
41
1
10
89.248454265137
20
-2.04104221030678
30
0
41
1
10
89.2829173735931
20
-1.94805461505746
30
0
41
1
10
89.3550530507048
20
-1.76422505995598
30
0
41
1
10
89.3928946937382
20
-1.67300727950385
30
0
41
1
10
89.511778034883
20
-1.40579600145026
30
0
41
1
10
89.5964952186456
20
-1.23967458102328
30
0
41
1
10
89.6886447075151
20
-1.08533176007148
30
0
0
SPLINE
5
F4
100
AcDbEntity
8
1
62
256
6
ByLayer
370
18
48
1
60
0
100
AcDbSpline
70
4
71
3
72
32
73
28
40
0
40
0
40
0
40
0
40
0.0761695173033433
40
0.0761695173033433
40
0.168552565573005
40
0.168552565573005
40
0.260935613842668
40
0.260935613842668
40
0.3071271379775
40
0.3071271379775
40
0.353318662112333
40
0.353318662112333
40
0.445701710382002
40
0.445701710382002
40
0.491893234516834
40
0.491893234516834
40
0.538084758651667
40
0.538084758651667
40
0.630467806921332
40
0.630467806921332
40
0.722850855190997
40
0.722850855190997
40
0.769042379325832
40
0.769042379325832
40
0.815233903460666
40
0.815233903460666
40
1
40
1
40
1
40
1
41
1
10
67.0609363034055
20
-0.223403672613102
30
0
41
1
10
66.785284718577
20
-0.0954612691039642
30
0
41
1
10
66.5095286224595
20
0.0332692612787184
30
0
41
1
10
65.8980563157198
20
0.31755659698706
30
0
41
1
10
65.5620826729316
20
0.472988910273642
30
0
41
1
10
64.8870604398174
20
0.779672962759548
30
0
41
1
10
64.5471537050806
20
0.931701009865037
30
-1E-16
41
1
10
64.0417023283982
20
1.15308025599074
30
-1E-16
41
1
10
63.8737537364907
20
1.22585341264636
30
-1E-16
41
1
10
63.5380835545294
20
1.3686656475403
30
-1E-16
41
1
10
63.3703594131608
20
1.43871186710749
30
-1E-16
41
1
10
62.8676046812253
20
1.64465331245188
30
-1E-16
41
1
10
62.5329947461334
20
1.77635497575895
30
-1E-16
41
1
10
62.0321025409122
20
1.96372164483626
30
-1E-16
41
1
10
61.8653169850956
20
2.02447947056854
30
-1E-16
41
1
10
61.5314808655448
20
2.14240772088959
30
-1E-16
41
1
10
61.3644163943209
20
2.19957634692153
30
-1E-16
41
1
10
60.8628265187671
20
2.36537725778914
30
-1E-16
41
1
10
60.5279246363867
20
2.46832730511153
30
-2E-16
41
1
10
59.8563210668314
20
2.65635952098827
30
1E-16
41
1
10
59.5195885542835
20
2.74151457849141
30
1E-16
41
1
10
59.0119712250725
20
2.85435517828441
30
0
41
1
10
58.8426393545344
20
2.88935268500967
30
0
41
1
10
58.5045027589511
20
2.95428699243698
30
0
41
1
10
58.335472455874
20
2.98431429456073
30
0
41
1
10
57.4906415865936
20
3.12136249381112
30
0
41
1
10
56.8162583350963
20
3.18895507753251
30
0
41
1
10
56.1401511880256
20
3.20425217153863
30
0
0
SPLINE
5
F5
100
AcDbEntity
8
1
62
256
6
ByLayer
370
18
48
1
60
0
100
AcDbSpline
70
4
71
3
72
40
73
36
40
0
40
0
40
0
40
0
40
0.0492295512390715
40
0.0492295512390715
40
0.0984591024781431
40
0.0984591024781431
40
0.196918204956286
40
0.196918204956286
40
0.295377307434429
40
0.295377307434429
40
0.319992083053965
40
0.319992083053965
40
0.344606858673501
40
0.344606858673501
40
0.393836409912574
40
0.393836409912574
40
0.492295512390719
40
0.492295512390719
40
0.590754614868863
40
0.590754614868863
40
0.615369390488398
40
0.615369390488398
40
0.639984166107933
40
0.639984166107933
40
0.689213717347003
40
0.689213717347003
40
0.787672819825141
40
0.787672819825141
40
0.836902371064211
40
0.836902371064211
40
0.886131922303281
40
0.886131922303281
40
0.984591024781421
40
0.984591024781421
40
1
40
1
40
1
40
1
41
1
10
88.5961023776366
20
-3.35705855082335
30
0
41
1
10
88.2551064961175
20
-3.33030189606495
30
0
41
1
10
87.9144115860597
20
-3.29134512652305
30
0
41
1
10
87.2322295459901
20
-3.1898348472661
30
0
41
1
10
86.8899686277042
20
-3.12707325221098
30
0
41
1
10
85.8691719488214
20
-2.90649291094451
30
0
41
1
10
85.1947962908829
20
-2.71640685279064
30
2E-16
41
1
10
83.8467071879254
20
-2.26642413412168
30
1E-16
41
1
10
83.1735400391313
20
-2.00569598738144
30
1E-16
41
1
10
82.3254784921342
20
-1.64693915408438
30
1E-16
41
1
10
82.1555603739754
20
-1.57351087827925
30
1E-16
41
1
10
81.8149988606706
20
-1.42344838859219
30
1E-16
41
1
10
81.6440328329523
20
-1.34670159345066
30
1E-16
41
1
10
81.1322805181747
20
-1.11370839057338
30
1E-16
41
1
10
80.7927713967155
20
-0.95470158917496
30
1E-16
41
1
10
79.7773933119327
20
-0.470468070803861
30
0
41
1
10
79.1045209035687
20
-0.13834469065992
30
0
41
1
10
77.7559143430239
20
0.521597401698415
30
0
41
1
10
77.0802587223668
20
0.849581319399562
30
-1E-16
41
1
10
76.2268087656402
20
1.24201619933453
30
-1E-16
41
1
10
76.0558229163497
20
1.31956442924485
30
-1E-16
41
1
10
75.7152557842439
20
1.47155624724871
30
-1E-16
41
1
10
75.5453744508937
20
1.54612062082373
30
-1E-16
41
1
10
75.0366091365123
20
1.76495980977632
30
-1E-16
41
1
10
74.6986926689103
20
1.90454569762076
30
-1E-16
41
1
10
73.6864513016216
20
2.30069068320014
30
-1E-16
41
1
10
73.0136021118584
20
2.53459462886798
30
-2E-16
41
1
10
71.9994841532423
20
2.82841292917595
30
0
41
1
10
71.6605590983082
20
2.91675206919888
30
0
41
1
10
70.9796372858719
20
3.07240728887305
30
0
41
1
10
70.6370583856673
20
3.13974575759323
30
0
41
1
10
69.6170116129026
20
3.30543545725683
30
0
41
1
10
68.9426704157396
20
3.36859608024898
30
0
41
1
10
68.1629959315019
20
3.38585831811651
30
0
41
1
10
68.0574907289651
20
3.38701367765296
30
0
41
1
10
67.9519678740159
20
3.38698865434981
30
0
0
SPLINE
5
F6
100
AcDbEntity
8
1
62
256
6
ByLayer
370
18
48
1
60
0
100
AcDbSpline
70
4
71
3
72
8
73
4
40
0
40
0
40
0
40
0
40
1
40
1
40
1
40
1
41
1
10
88.5961023776356
20
-3.35705855082168
30
0
41
1
10
88.6543132051518
20
-3.323439695686
30
0
41
1
10
88.7126503503726
20
-3.28922581365058
30
0
41
1
10
88.7711348028114
20
-3.25443045894355
30
0
0
SPLINE
5
F7
100
AcDbEntity
8
1
62
256
6
ByLayer
370
18
48
1
60
0
100
AcDbSpline
70
2053
71
3
72
52
73
48
40
0
40
0
40
0
40
0
40
0.0624999999999998
40
0.0624999999999998
40
0.125
40
0.125
40
0.187499999999999
40
0.187499999999999
40
0.249999999999999
40
0.249999999999999
40
0.281249999999999
40
0.281249999999999
40
0.312499999999999
40
0.312499999999999
40
0.343749999999999
40
0.343749999999999
40
0.374999999999999
40
0.374999999999999
40
0.406249999999999
40
0.406249999999999
40
0.437499999999999
40
0.437499999999999
40
0.499999999999999
40
0.499999999999999
40
0.562499999999999
40
0.562499999999999
40
0.624999999999999
40
0.624999999999999
40
0.656249999999999
40
0.656249999999999
40
0.687499999999999
40
0.687499999999999
40
0.718749999999999
40
0.718749999999999
40
0.749999999999999
40
0.749999999999999
40
0.781249999999999
40
0.781249999999999
40
0.812499999999999
40
0.812499999999999
40
0.875
40
0.875
40
0.9375
40
0.9375
40
0.96875
40
0.96875
40
1
40
1
40
1
40
1
41
1
10
89.1415620090267
20
-1.42881786595766
30
1E-16
41
1
10
89.115775436554
20
-1.46279226269132
30
1E-16
41
1
10
89.0916482230049
20
-1.48595823488395
30
1E-16
41
1
10
89.0457428343636
20
-1.51112683727848
30
1E-16
41
1
10
89.025170102923
20
-1.51242605833818
30
1E-16
41
1
10
88.9876165480927
20
-1.49174134719971
30
1E-16
41
1
10
88.9716162549533
20
-1.47032887804596
30
1E-16
41
1
10
88.9444463816206
20
-1.40394820728787
30
1E-16
41
1
10
88.9340128778091
20
-1.360725552026
30
1E-16
41
1
10
88.9237431873165
20
-1.28070901396705
30
1E-16
41
1
10
88.9213463655097
20
-1.25227861751637
30
1E-16
41
1
10
88.9187636945852
20
-1.19182536233799
30
1E-16
41
1
10
88.9186002082268
20
-1.15930458627648
30
1E-16
41
1
10
88.9209324335364
20
-1.09298802367877
30
1E-16
41
1
10
88.9233815822801
20
-1.05927995226551
30
1E-16
41
1
10
88.9312228843098
20
-0.990741748874655
30
1E-16
41
1
10
88.9366468773276
20
-0.956104870022614
30
1E-16
41
1
10
88.9501741613295
20
-0.889699419898449
30
1E-16
41
1
10
88.9584609574367
20
-0.857029790506772
30
1E-16
41
1
10
88.9774328681457
20
-0.795901212807678
30
0
41
1
10
88.9880427333648
20
-0.767498053965085
30
0
41
1
10
89.0232105207454
20
-0.688400559643611
30
0
41
1
10
89.0502848852752
20
-0.646023248510517
30
0
41
1
10
89.1066799847662
20
-0.583463864781208
30
0
41
1
10
89.1361686553724
20
-0.563011085853645
30
0
41
1
10
89.1929827610908
20
-0.543087959645021
30
0
41
1
10
89.2208595621087
20
-0.543449672400328
30
0
41
1
10
89.2582116206548
20
-0.55917251240183
30
0
41
1
10
89.2699643440582
20
-0.566907220789034
30
0
41
1
10
89.2918357255981
20
-0.587707543698542
30
0
41
1
10
89.3019777177612
20
-0.600892698938907
30
0
41
1
10
89.3195547150922
20
-0.63217770941597
30
0
41
1
10
89.3271007703248
20
-0.650338709036134
30
0
41
1
10
89.3393020579282
20
-0.692389730684511
30
0
41
1
10
89.3438535242322
20
-0.716106333387813
30
0
41
1
10
89.3492850760082
20
-0.767827221803316
30
0
41
1
10
89.3502019524074
20
-0.796472126097086
30
0
41
1
10
89.3480930955877
20
-0.856742715570647
30
1E-16
41
1
10
89.3451379000905
20
-0.888220819318718
30
1E-16
41
1
10
89.3306035807762
20
-0.98692175546546
30
-1E-16
41
1
10
89.3133834331194
20
-1.05623949849706
30
0
41
1
10
89.27094121392
20
-1.18575104076317
30
0
41
1
10
89.2457426764863
20
-1.24646637448166
30
0
41
1
10
89.2069482677119
20
-1.32470605193333
30
0
41
1
10
89.1936590362153
20
-1.34901729262768
30
0
41
1
10
89.1674822482681
20
-1.3924399601913
30
0
41
1
10
89.154455295263
20
-1.41183066759083
30
1E-16
41
1
10
89.1415620090267
20
-1.42881786595766
30
1E-16
0
SPLINE
5
F8
100
AcDbEntity
8
1
62
256
6
ByLayer
370
18
48
1
60
0
100
AcDbSpline
70
4
71
3
72
18
73
14
40
0
40
0
40
0
40
0
40
0.100073500751887
40
0.100073500751887
40
0.325055125563926
40
0.325055125563926
40
0.437545937969963
40
0.437545937969963
40
0.550036750375999
40
0.550036750375999
40
0.775018375188027
40
0.775018375188027
40
1
40
1
40
1
40
1
41
1
10
88.5988814699227
20
0.664462946102248
30
0
41
1
10
88.6060576808204
20
0.675429279631913
30
0
41
1
10
88.6144187615241
20
0.68683037172076
30
0
41
1
10
88.645543127177
20
0.725113888089027
30
0
41
1
10
88.6724408667679
20
0.752526271817743
30
0
41
1
10
88.7215421044705
20
0.793858667302004
30
0
41
1
10
88.7395356749142
20
0.807753135879295
30
0
41
1
10
88.7775600698428
20
0.834513659636258
30
0
41
1
10
88.7976757105843
20
0.847466945680736
30
0
41
1
10
88.8614353498315
20
0.88464957686287
30
0
41
1
10
88.9091608927979
20
0.907376506695812
30
0
41
1
10
89.0086636922356
20
0.943210045047209
30
0
41
1
10
89.0614248282977
20
0.956718969755343
30
0
41
1
10
89.1152769760271
20
0.965175057915303
30
0
0
SPLINE
5
F9
100
AcDbEntity
8
1
62
256
6
ByLayer
370
18
48
1
60
0
100
AcDbSpline
70
4
71
3
72
34
73
30
40
0
40
0
40
0
40
0
40
0.070583089251357
40
0.070583089251357
40
0.14803449848041
40
0.14803449848041
40
0.225485907709463
40
0.225485907709463
40
0.302937316938516
40
0.302937316938516
40
0.341663021553043
40
0.341663021553043
40
0.380388726167569
40
0.380388726167569
40
0.457840135396622
40
0.457840135396622
40
0.535291544625675
40
0.535291544625675
40
0.612742953854728
40
0.612742953854728
40
0.690194363083781
40
0.690194363083781
40
0.728920067698309
40
0.728920067698309
40
0.767645772312836
40
0.767645772312836
40
0.845097181541892
40
0.845097181541892
40
1
40
1
40
1
40
1
41
1
10
75.3423691914012
20
3.23078019713017
30
0
41
1
10
75.6474793216017
20
3.27653972251986
30
0
41
1
10
75.951733225915
20
3.31277407815006
30
0
41
1
10
76.5893165585663
20
3.36809019523997
30
0
41
1
10
76.9227391316813
20
3.38536096809136
30
0
41
1
10
77.5891746384499
20
3.39655436209986
30
0
41
1
10
77.9220094876387
20
3.3903054528584
30
0
41
1
10
78.5904809143502
20
3.35416245379085
30
0
41
1
10
78.9259473994741
20
3.32441605324988
30
0
41
1
10
79.4309676691417
20
3.26192907043651
30
0
41
1
10
79.5998497842653
20
3.23803724157543
30
0
41
1
10
79.937125057427
20
3.18447653686883
30
0
41
1
10
80.1053556942373
20
3.15490298615973
30
0
41
1
10
80.6092791415884
20
3.0583309921044
30
0
41
1
10
80.9440926468857
20
2.98343329305979
30
0
41
1
10
81.6118374515537
20
2.81333420860543
30
0
41
1
10
81.9446053042019
20
2.71785126653501
30
-2E-16
41
1
10
82.610874693601
20
2.50973757251558
30
-2E-16
41
1
10
82.944160102511
20
2.39691412275093
30
-1E-16
41
1
10
83.6114785334113
20
2.15425646552473
30
-1E-16
41
1
10
83.9453421117983
20
2.02405254782909
30
-1E-16
41
1
10
84.4487681821146
20
1.81914731620151
30
-1E-16
41
1
10
84.6169599149204
20
1.74916791180485
30
-1E-16
41
1
10
84.9540995476174
20
1.60578552905977
30
-1E-16
41
1
10
85.1232494962915
20
1.53230643863174
30
-1E-16
41
1
10
85.6289893940382
20
1.30826630458591
30
-1E-16
41
1
10
85.9644582474091
20
1.15329972664483
30
-1E-16
41
1
10
86.9707980974935
20
0.681483123397896
30
0
41
1
10
87.6404951068668
20
0.355680517879847
30
0
41
1
10
88.3118147126891
20
0.0241779149214949
30
0
0
SPLINE
5
FA
100
AcDbEntity
8
1
62
256
6
ByLayer
370
18
48
1
60
0
100
AcDbSpline
70
4
71
3
72
32
73
28
40
0
40
0
40
0
40
0
40
0.0115025754144113
40
0.0115025754144113
40
0.101365977649463
40
0.101365977649463
40
0.146297678766989
40
0.146297678766989
40
0.191229379884515
40
0.191229379884515
40
0.281092782119571
40
0.281092782119571
40
0.370956184354626
40
0.370956184354626
40
0.460819586589681
40
0.460819586589681
40
0.550682988824736
40
0.550682988824736
40
0.595614689942262
40
0.595614689942262
40
0.640546391059788
40
0.640546391059788
40
0.73040979329484
40
0.73040979329484
40
0.820273195529893
40
0.820273195529893
40
1
40
1
40
1
40
1
41
1
10
77.1819727336342
20
3.2281366615031
30
0
41
1
10
77.2248910595284
20
3.22899128710992
30
0
41
1
10
77.2678210790312
20
3.2296753675715
30
0
41
1
10
77.6462393219344
20
3.23423237217304
30
0
41
1
10
77.9821871178244
20
3.22857445026995
30
0
41
1
10
78.489884899129
20
3.20011626096897
30
0
41
1
10
78.6593361930597
20
3.18752441578536
30
0
41
1
10
78.9969648769428
20
3.15676224818131
30
0
41
1
10
79.1654021600034
20
3.13858040605922
30
0
41
1
10
79.6696605051621
20
3.07643669444789
30
0
41
1
10
80.00433475241
20
3.02519996964264
30
0
41
1
10
80.6731330343115
20
2.90020909530833
30
0
41
1
10
81.0071403855381
20
2.82715281283805
30
0
41
1
10
81.6747883111434
20
2.66252932946634
30
1E-16
41
1
10
82.0082872601624
20
2.57109196606666
30
1E-16
41
1
10
82.6773893095885
20
2.36948905023311
30
-1E-16
41
1
10
83.0127840702341
20
2.25974901902288
30
-1E-16
41
1
10
83.5173561565789
20
2.08327702945064
30
-1E-16
41
1
10
83.6857566809731
20
2.02247509494674
30
-1E-16
41
1
10
84.0233159123317
20
1.89709250438975
30
-1E-16
41
1
10
84.1928368930283
20
1.83237325016054
30
-1E-16
41
1
10
84.7001686265552
20
1.63397200426871
30
-1E-16
41
1
10
85.037120374975
20
1.49603362251565
30
-1E-16
41
1
10
85.7091362835848
20
1.21086215438106
30
-1E-16
41
1
10
86.044030220379
20
1.06340288513959
30
-1E-16
41
1
10
87.049681815447
20
0.612919862548068
30
0
41
1
10
87.7205672131431
20
0.301304537421629
30
0
41
1
10
88.3938477971958
20
-0.0155900231613941
30
0
0
SPLINE
5
FB
100
AcDbEntity
8
SK1
62
256
6
ByLayer
370
18
48
1
60
0
100
AcDbSpline
70
4
71
3
72
8
73
4
40
0
40
0
40
0
40
0
40
1
40
1
40
1
40
1
41
1
10
-35.5
20
-3.12351915777984
30
0
41
1
10
-35.5336695970742
20
-3.08898017886784
30
0
41
1
10
-35.5673240755523
20
-3.05442683747083
30
0
41
1
10
-35.6009618943233
20
-3.01985766955161
30
0
0
SPLINE
5
FC
100
AcDbEntity
8
SK1
62
256
6
ByLayer
370
18
48
1
60
0
100
AcDbSpline
70
4
71
3
72
10
73
6
40
0
40
0
40
0
40
0
40
0.5
40
0.5
40
1
40
1
40
1
40
1
41
1
10
-36.0000000000001
20
-2.41141420956231
30
-1E-16
41
1
10
-35.9272396278271
20
-2.52155253383955
30
-1E-16
41
1
10
-35.8568055726535
20
-2.62823166545348
30
-1E-16
41
1
10
-35.7224295033876
20
-2.83277726983343
30
0
41
1
10
-35.6578574543336
20
-2.93160666936356
30
0
41
1
10
-35.6009618943233
20
-3.01985766955161
30
0
0
SPLINE
5
FD
100
AcDbEntity
8
SK1
62
256
6
ByLayer
370
18
48
1
60
0
100
AcDbSpline
70
4
71
3
72
12
73
8
40
0
40
0
40
0
40
0
40
0.249999999999999
40
0.249999999999999
40
0.499999999999998
40
0.499999999999998
40
1
40
1
40
1
40
1
41
1
10
-35.4
20
-3.25310404554634
30
0
41
1
10
-35.4
20
-3.24885200781375
30
0
41
1
10
-35.4042405317345
20
-3.24044802149737
30
0
41
1
10
-35.4170629445097
20
-3.22047638456508
30
0
41
1
10
-35.4255309618335
20
-3.20898356884808
30
0
41
1
10
-35.4538111153162
20
-3.17323515803341
30
0
41
1
10
-35.4764597265186
20
-3.14766726408371
30
0
41
1
10
-35.5
20
-3.12351915777984
30
0
0
SPLINE
5
FE
100
AcDbEntity
8
SK1
62
256
6
ByLayer
370
18
48
1
60
0
100
AcDbSpline
70
4
71
3
72
8
73
4
40
0
40
0
40
0
40
0
40
1
40
1
40
1
40
1
41
1
10
-35.6009618943233
20
3.10716947639491
30
0
41
1
10
-35.5673242043941
20
3.14173851190503
30
0
41
1
10
-35.5336697219354
20
3.17629185762581
30
0
41
1
10
-35.5
20
3.21083096462317
30
0
0
SPLINE
5
FF
100
AcDbEntity
8
SK1
62
256
6
ByLayer
370
18
48
1
60
0
100
AcDbSpline
70
4
71
3
72
10
73
6
40
0
40
0
40
0
40
0
40
0.5
40
0.5
40
1
40
1
40
1
40
1
41
1
10
-35.6009618943233
20
-3.10716947639491
30
0
41
1
10
-35.657625994603
20
-3.03070312936421
30
0
41
1
10
-35.7212304684705
20
-2.9432316480964
30
0
41
1
10
-35.8564778377541
20
-2.75471359227293
30
-1E-16
41
1
10
-35.9271669955654
20
-2.65500218797567
30
1E-16
41
1
10
-36.0000000000001
20
-2.5511131005116
30
-1E-16
0
SPLINE
5
100
100
AcDbEntity
8
SK1
62
256
6
ByLayer
370
18
48
1
60
0
100
AcDbSpline
70
4
71
3
72
10
73
6
40
0
40
0
40
0
40
0
40
0.5
40
0.5
40
1
40
1
40
1
40
1
41
1
10
-35.6009618943233
20
3.10716947639491
30
0
41
1
10
-35.657625994603
20
3.03070312936421
30
0
41
1
10
-35.7212304684705
20
2.9432316480964
30
0
41
1
10
-35.8564778377541
20
2.75471359227293
30
1E-16
41
1
10
-35.9271669955654
20
2.65500218797567
30
-1E-16
41
1
10
-36.0000000000001
20
2.5511131005116
30
1E-16
0
SPLINE
5
101
100
AcDbEntity
8
SK1
62
256
6
ByLayer
370
18
48
1
60
0
100
AcDbSpline
70
4
71
3
72
12
73
8
40
0
40
0
40
0
40
0
40
0.5
40
0.5
40
0.75
40
0.75
40
1
40
1
40
1
40
1
41
1
10
-35.5
20
-3.2108309646232
30
0
41
1
10
-35.4764535706457
20
-3.23498538575063
30
0
41
1
10
-35.453758325367
20
-3.25969322563114
30
0
41
1
10
-35.4256589034923
20
-3.29240557637337
30
0
41
1
10
-35.4170915256394
20
-3.30282502847717
30
0
41
1
10
-35.4042768359918
20
-3.31981023453289
30
0
41
1
10
-35.4
20
-3.32646611530146
30
0
41
1
10
-35.4
20
-3.32877427814387
30
0
0
SPLINE
5
102
100
AcDbEntity
8
SK1
62
256
6
ByLayer
370
18
48
1
60
0
100
AcDbSpline
70
4
71
3
72
12
73
8
40
0
40
0
40
0
40
0
40
0.5
40
0.5
40
0.75
40
0.75
40
1
40
1
40
1
40
1
41
1
10
-35.5
20
3.2108309646232
30
0
41
1
10
-35.4764535706457
20
3.23498538575063
30
0
41
1
10
-35.453758325367
20
3.25969322563114
30
0
41
1
10
-35.4256589034923
20
3.29240557637337
30
0
41
1
10
-35.4170915256394
20
3.30282502847717
30
0
41
1
10
-35.4042768359918
20
3.31981023453289
30
0
41
1
10
-35.4
20
3.32646611530146
30
0
41
1
10
-35.4
20
3.32877427814387
30
0
0
SPLINE
5
103
100
AcDbEntity
8
1
62
256
6
ByLayer
370
18
48
1
60
0
100
AcDbSpline
70
4
71
1
72
4
73
2
40
0
40
0
40
1
40
1
41
1
10
78.8212286663679
20
9.28207915081E-05
30
0
41
1
10
78.8212166964441
20
9.07935568364E-05
30
0
0
SPLINE
5
104
100
AcDbEntity
8
1
62
256
6
ByLayer
370
18
48
1
60
0
100
AcDbSpline
70
4
71
3
72
11
73
7
40
0
40
0
40
0
40
0
40
0.0082513316179399
40
0.261173139460585
40
0.607336301928498
40
1
40
1
40
1
40
1
41
1
10
88.9375264404747
20
0.555917397311276
30
0
41
1
10
88.9270383027156
20
0.559295844411793
30
0
41
1
10
88.5951014270149
20
0.66634625073101
30
0
41
1
10
87.8266651477951
20
0.926591093579987
30
-1E-16
41
1
10
86.578765869242
20
1.37225519632139
30
-1E-16
41
1
10
85.6581022987393
20
1.72874345251643
30
-1E-16
41
1
10
85.1710996367138
20
1.92462819942071
30
-1E-16
0
SPLINE
5
105
100
AcDbEntity
8
1
62
256
6
ByLayer
370
18
48
1
60
0
100
AcDbSpline
70
4
71
1
72
4
73
2
40
0
40
0
40
1
40
1
41
1
10
85.1710996367138
20
1.92462819942071
30
-1E-16
41
1
10
84.996381662606
20
1.99221085184371
30
-1E-16
0
SPLINE
5
106
100
AcDbEntity
8
1
62
256
6
ByLayer
370
18
48
1
60
0
100
AcDbSpline
70
4
71
3
72
19
73
15
40
0
40
0
40
0
40
0
40
0.131944638746596
40
0.231336807533009
40
0.298205949438305
40
0.429061316681732
40
0.546625252973984
40
0.666308102088111
40
0.730724004235035
40
0.798342083710441
40
0.86623812826079
40
0.933488738644424
40
0.997328889993658
40
1
40
1
40
1
40
1
41
1
10
67.9460645726764
20
-3.21711805054861
30
0
41
1
10
68.2711403858393
20
-3.21731740202461
30
0
41
1
10
68.8411016960308
20
-3.21763279267569
30
0
41
1
10
69.575861734123
20
-3.21854987577339
30
0
41
1
10
70.3079118984808
20
-3.21842893337637
30
0
41
1
10
71.0847605992624
20
-3.21933217321887
30
0
41
1
10
71.9917255699948
20
-3.21929890371033
30
0
41
1
10
72.7349943989417
20
-3.21979118613774
30
0
41
1
10
73.3552004989586
20
-3.22089369308537
30
0
41
1
10
73.8478105095541
20
-3.22056552104561
30
0
41
1
10
74.3474008890828
20
-3.21989015022635
30
0
41
1
10
74.8376953167934
20
-3.22064122588785
30
0
41
1
10
75.1672439461936
20
-3.22089952668122
30
0
41
1
10
75.3310815273256
20
-3.22113677093318
30
0
41
1
10
75.3376612506654
20
-3.22114645631106
30
0
0
SPLINE
5
107
100
AcDbEntity
8
1
62
256
6
ByLayer
370
18
48
1
60
0
100
AcDbSpline
70
4
71
3
72
27
73
23
40
0
40
0
40
0
40
0
40
1.50968618966E-05
40
2.69475986109E-05
40
3.82458162335E-05
40
6.06597222054E-05
40
0.000109193909922
40
0.0005170478138293
40
0.0008361483314314
40
0.0014217118185458
40
0.0025175771699372
40
0.0046347137727375
40
0.0089267275989034
40
0.0182236401103655
40
0.0400369396134248
40
0.0953632403617461
40
0.199607242708431
40
0.279977922508422
40
0.34855059200708
40
0.5105103635098
40
0.739077077414467
40
1
40
1
40
1
40
1
41
1
10
47.4253781020479
20
-0.0509017057185019
30
0
41
1
10
47.4253860867842
20
-0.050903379720495
30
0
41
1
10
47.4253943594893
20
-0.0509045521721703
30
0
41
1
10
47.4253813742513
20
-0.0508984183363452
30
0
41
1
10
47.4253570003701
20
-0.0508895806277962
30
0
41
1
10
47.4252665083696
20
-0.0508607299503012
30
0
41
1
10
47.4244350082483
20
-0.050613840260155
30
0
41
1
10
47.4228685970448
20
-0.0501667262863634
30
0
41
1
10
47.4203729085587
20
-0.049443880532607
30
0
41
1
10
47.4165105425709
20
-0.0483296372608777
30
0
41
1
10
47.4092050931863
20
-0.0462206786152706
30
0
41
1
10
47.3947217185616
20
-0.0420444711432424
30
0
41
1
10
47.3643584393764
20
-0.0332939897422762
30
0
41
1
10
47.2957145484115
20
-0.0135044764259646
30
0
41
1
10
47.1277185458328
20
0.0351296220102313
30
0
41
1
10
46.7746143455238
20
0.138817386688459
30
0
41
1
10
46.30860221611
20
0.279976963437321
30
0
41
1
10
45.8183006493804
20
0.433703336112245
30
0
41
1
10
45.2175219379547
20
0.627206295580237
30
0
41
1
10
44.3337714449296
20
0.923676319798176
30
-1E-16
41
1
10
43.0879497575781
20
1.36862131272287
30
-1E-16
41
1
10
42.1610030372914
20
1.72723972838006
30
-1E-16
41
1
10
41.6693628755195
20
1.92517381828458
30
-1E-16
0
SPLINE
5
108
100
AcDbEntity
8
1
62
256
6
ByLayer
370
18
48
1
60
0
100
AcDbSpline
70
4
71
3
72
8
73
4
40
0
40
0
40
0
40
0
40
1
40
1
40
1
40
1
41
1
10
10.7216817713219
20
0.841284854081408
30
-1E-16
41
1
10
10.609718530853
20
0.891045349566809
30
-1E-16
41
1
10
10.5001244582422
20
0.9419752913563
30
-1E-16
41
1
10
10.3924956641964
20
0.994022460898861
30
-1E-16
0
SPLINE
5
109
100
AcDbEntity
8
1
62
256
6
ByLayer
370
18
48
1
60
0
100
AcDbSpline
70
4
71
3
72
27
73
23
40
0
40
0
40
0
40
0
40
2.28770096539E-05
40
4.35086680377E-05
40
6.35880469715E-05
40
0.0001060099451761
40
0.0003893139712493
40
0.0006065970356026
40
0.0009997141884637
40
0.0017180147338325
40
0.0030527259198162
40
0.0056022369857761
40
0.0106854322698967
40
0.0214577172289592
40
0.0461107036703635
40
0.176923182363798
40
0.315954690166736
40
0.459009240859422
40
0.572250445698184
40
0.690903144656496
40
0.835842858315909
40
1
40
1
40
1
40
1
41
1
10
25.7076493076392
20
-0.061098015828037
30
0
41
1
10
25.7076630106526
20
-0.0611009877435436
30
0
41
1
10
25.7076784203186
20
-0.0611035250257999
30
0
41
1
10
25.7076516622522
20
-0.0610932030272977
30
0
41
1
10
25.7075595149072
20
-0.061063955661723
30
0
41
1
10
25.7069720522508
20
-0.0608885188320869
30
0
41
1
10
25.7058934901781
20
-0.0605745273821015
30
0
41
1
10
25.7042209649918
20
-0.0600831088736129
30
0
41
1
10
25.7016974709664
20
-0.0593437630610651
30
0
41
1
10
25.6970697617778
20
-0.0579880472958507
30
0
41
1
10
25.6883343557645
20
-0.0554333496347681
30
0
41
1
10
25.6712825411182
20
-0.0504570403242894
30
0
41
1
10
25.6361550742989
20
-0.0402357498861079
30
0
41
1
10
25.5585152791727
20
-0.0177013641200574
30
0
41
1
10
25.2384823996276
20
0.0752698235426692
30
0
41
1
10
24.6696751896972
20
0.244767909677961
30
0
41
1
10
23.8762455053681
20
0.493638116295074
30
0
41
1
10
23.1185580128986
20
0.743494120449071
30
0
41
1
10
22.4032094634677
20
0.989734044270023
30
-1E-16
41
1
10
21.6870620720436
20
1.24568959273128
30
-1E-16
41
1
10
20.8777195986361
20
1.54623272064282
30
-1E-16
41
1
10
20.2967171690058
20
1.77363559512131
30
-1E-16
41
1
10
19.989163777897
20
1.89713314131171
30
-1E-16
0
SPLINE
5
10A
100
AcDbEntity
8
1
62
256
6
ByLayer
370
18
48
1
60
0
100
AcDbSpline
70
4
71
3
72
26
73
22
40
0
40
0
40
0
40
0
40
3.27654916547E-05
40
5.14245975959E-05
40
6.81757931654E-05
40
8.4168326626E-05
40
0.0001003156635445
40
0.0001348614766913
40
0.000212333226646
40
0.000960406520092
40
0.0015479996468765
40
0.002606440032823
40
0.0045257446703042
40
0.0080462948207498
40
0.131804008494916
40
0.287447491869103
40
0.432354495785748
40
0.53101746084973
40
0.654791572474201
40
0.819954921670922
40
1
40
1
40
1
40
1
41
1
10
69.0157849250475
20
-0.0058812632197487
30
0
41
1
10
69.0158178094745
20
-0.0058880584761027
30
0
41
1
10
69.0158623065196
20
-0.0058965599082512
30
0
41
1
10
69.0158855376098
20
-0.0058971569687571
30
0
41
1
10
69.0158776449351
20
-0.005890380950234
30
0
41
1
10
69.0158452097531
20
-0.005877143765332
30
0
41
1
10
69.0157731860176
20
-0.0058519087933746
30
0
41
1
10
69.0155781179802
20
-0.0057895775194083
30
0
41
1
10
69.0139889664812
20
-0.0053164232592735
30
0
41
1
10
69.0112587841423
20
-0.004535847968441
30
0
41
1
10
69.0067238104686
20
-0.0032154816741183
30
0
41
1
10
68.9999379443444
20
-0.0012478093596826
30
0
41
1
10
68.9875876143658
20
0.002339818785714
30
0
41
1
10
68.7418320908436
20
0.0737377073558036
30
0
41
1
10
68.2030292122599
20
0.233551101010391
30
0
41
1
10
67.3972887713325
20
0.485450046172161
30
0
41
1
10
66.6430814870915
20
0.734050544940004
30
0
41
1
10
65.9518877681467
20
0.971359188408798
30
-1E-16
41
1
10
65.2252527616604
20
1.23002696841857
30
-1E-16
41
1
10
64.3503204358986
20
1.55529965982535
30
-1E-16
41
1
10
63.7107367959745
20
1.80620995648138
30
-1E-16
41
1
10
63.3783056918803
20
1.94013804483265
30
-1E-16
0
SPLINE
5
10B
100
AcDbEntity
8
1
62
256
6
ByLayer
370
18
48
1
60
0
100
AcDbSpline
70
4
71
3
72
20
73
16
40
0
40
0
40
0
40
0
40
0.129967922047478
40
0.225914761947589
40
0.291593511837938
40
0.355117313073018
40
0.422034673333942
40
0.489594269411195
40
0.556877277826955
40
0.620973976814632
40
0.740063755859551
40
0.857045122031278
40
0.919867065257926
40
0.987252096379416
40
1
40
1
40
1
40
1
41
1
10
77.4836707821938
20
3.22140702101763
30
0
41
1
10
77.1619700424069
20
3.22170574331057
30
0
41
1
10
76.6027427392733
20
3.22190223156929
30
0
41
1
10
75.8805711422656
20
3.22218141792527
30
0
41
1
10
75.3232814662305
20
3.22102182377691
30
0
41
1
10
74.8376953164247
20
3.2206412459422
30
0
41
1
10
74.3474008905497
20
3.21989007042623
30
0
41
1
10
73.8478105040392
20
3.22056582104645
30
0
41
1
10
73.355200519028
20
3.22089260133958
30
0
41
1
10
72.7349943023597
20
3.21979644003736
30
0
41
1
10
71.9917262834784
20
3.219260091389
30
0
41
1
10
71.2516148979184
20
3.21943799983441
30
0
41
1
10
70.6395354065804
20
3.21859882617059
30
0
41
1
10
70.2855508767379
20
3.21853610188495
30
0
41
1
10
70.087130023651
20
3.21852475985852
30
0
41
1
10
70.0555644184007
20
3.21852287217914
30
0
0
SPLINE
5
10C
100
AcDbEntity
8
1
62
256
6
ByLayer
370
18
48
1
60
0
100
AcDbSpline
70
4
71
2
72
6
73
3
40
0
40
0
40
0
40
1
40
1
40
1
41
1
10
57.0600549952361
20
0.0053962432506864
30
0
41
1
10
57.0600479817475
20
0.0054189635402224
30
0
41
1
10
57.0600409682742
20
0.0054418102913303
30
0
0
LINE
5
84
100
AcDbEntity
8
1
62
256
6
ByLayer
370
18
48
1
60
0
100
AcDbLine
10
56.001698
20
0.581485
30
0
11
56.001698
21
3.36686
31
0
39
0
210
0
220
0
230
1
0
LINE
5
85
100
AcDbEntity
8
1
62
256
6
ByLayer
370
18
48
1
60
0
100
AcDbLine
10
89.952587
20
0.04093
30
0
11
89.115277
21
0.965175
31
0
39
0
210
0
220
0
230
1
0
LINE
5
86
100
AcDbEntity
8
1
62
256
6
ByLayer
370
18
48
1
60
0
100
AcDbLine
10
0.645436
20
3.672665
30
0
11
0.645436
21
0
31
0
39
0
210
0
220
0
230
1
0
LINE
5
87
100
AcDbEntity
8
1
62
256
6
ByLayer
370
18
48
1
60
0
100
AcDbLine
10
0.645436
20
0
30
0
11
0.645436
21
-3.672665
31
0
39
0
210
0
220
0
230
1
0
LINE
5
88
100
AcDbEntity
8
1
62
256
6
ByLayer
370
18
48
1
60
0
100
AcDbLine
10
0
20
4
30
0
11
0
21
0
31
0
39
0
210
0
220
0
230
1
0
LINE
5
89
100
AcDbEntity
8
1
62
256
6
ByLayer
370
18
48
1
60
0
100
AcDbLine
10
0
20
0
30
0
11
0
21
-4
31
0
39
0
210
0
220
0
230
1
0
LINE
5
8A
100
AcDbEntity
8
1
62
256
6
ByLayer
370
18
48
1
60
0
100
AcDbLine
10
56
20
0.046373
30
0
11
56
21
0.000162
31
0
39
0
210
0
220
0
230
1
0
LINE
5
8B
100
AcDbEntity
8
1
62
256
6
ByLayer
370
18
48
1
60
0
100
AcDbLine
10
1.291373
20
3.345329
30
0
11
1.291373
21
0
31
0
39
0
210
0
220
0
230
1
0
LINE
5
8C
100
AcDbEntity
8
1
62
256
6
ByLayer
370
18
48
1
60
0
100
AcDbLine
10
1.291373
20
0
30
0
11
1.291373
21
-3.345329
31
0
39
0
210
0
220
0
230
1
0
LINE
5
8D
100
AcDbEntity
8
SK1
62
256
6
ByLayer
370
18
48
1
60
0
100
AcDbLine
10
-35.4
20
3.36
30
0
11
-35.4
21
3.328774
31
0
39
0
210
0
220
0
230
1
0
LINE
5
8F
100
AcDbEntity
8
SK1
62
256
6
ByLayer
370
18
48
1
60
0
100
AcDbLine
10
-35.4
20
-3.36
30
0
11
-35.4
21
-3.253104
31
0
39
0
210
0
220
0
230
1
0
LINE
5
90
100
AcDbEntity
8
SK1
62
256
6
ByLayer
370
18
48
1
60
0
100
AcDbLine
10
0
20
4
30
0
11
0
21
-4
31
0
39
0
210
0
220
0
230
1
0
LINE
5
91
100
AcDbEntity
8
SK1
62
256
6
ByLayer
370
18
48
1
60
0
100
AcDbLine
10
-36
20
2.551113
30
0
11
-36
21
-2.411414
31
0
39
0
210
0
220
0
230
1
0
LINE
5
92
100
AcDbEntity
8
SK1
62
256
6
ByLayer
370
18
48
1
60
0
100
AcDbLine
10
-36
20
-2.551113
30
0
11
-36
21
-2.411387
31
0
39
0
210
0
220
0
230
1
0
LINE
5
93
100
AcDbEntity
8
SK1
62
256
6
ByLayer
370
18
48
1
60
0
100
AcDbLine
10
-35.5
20
-3.210831
30
0
11
-35.5
21
-3.123437
31
0
39
0
210
0
220
0
230
1
0
LINE
5
94
100
AcDbEntity
8
SK1
62
256
6
ByLayer
370
18
48
1
60
0
100
AcDbLine
10
-34.76
20
-4
30
0
11
-34.76
21
4
31
0
39
0
210
0
220
0
230
1
0
LINE
5
95
100
AcDbEntity
8
SK1
62
256
6
ByLayer
370
18
48
1
60
0
100
AcDbLine
10
-35.600962
20
-3.107169
30
0
11
-35.600962
21
-3.019764
31
0
39
0
210
0
220
0
230
1
0
LINE
5
96
100
AcDbEntity
8
SK1
62
256
6
ByLayer
370
18
48
1
60
0
100
AcDbLine
10
-35.4
20
-3.36
30
0
11
-34.76
21
-4
31
0
39
0
210
0
220
0
230
1
0
LINE
5
97
100
AcDbEntity
8
SK1
62
256
6
ByLayer
370
18
48
1
60
0
100
AcDbLine
10
-34.76
20
4
30
0
11
-35.4
21
3.36
31
0
39
0
210
0
220
0
230
1
0
LINE
5
98
100
AcDbEntity
8
SK1
62
256
6
ByLayer
370
18
48
1
60
0
100
AcDbLine
10
-34.76
20
-4
30
0
11
0
21
-4
31
0
39
0
210
0
220
0
230
1
0
LINE
5
99
100
AcDbEntity
8
SK1
62
256
6
ByLayer
370
18
48
1
60
0
100
AcDbLine
10
0
20
4
30
0
11
-34.76
21
4
31
0
39
0
210
0
220
0
230
1
0
LINE
5
9A
100
AcDbEntity
8
1
62
256
6
ByLayer
370
18
48
1
60
0
100
AcDbLine
10
1.291373
20
-3.345329
30
0
11
13.273649
21
-3.352818
31
0
39
0
210
0
220
0
230
1
0
LINE
5
9B
100
AcDbEntity
8
1
62
256
6
ByLayer
370
18
48
1
60
0
100
AcDbLine
10
23.388669
20
-3.35914
30
0
11
35.002205
21
-3.366399
31
0
39
0
210
0
220
0
230
1
0
LINE
5
9C
100
AcDbEntity
8
1
62
256
6
ByLayer
370
18
48
1
60
0
100
AcDbLine
10
45.129681
20
-3.372728
30
0
11
56.733581
21
-3.379981
31
0
39
0
210
0
220
0
230
1
0
LINE
5
9D
100
AcDbEntity
8
1
62
256
6
ByLayer
370
18
48
1
60
0
100
AcDbLine
10
66.971602
20
-3.38638
30
0
11
67.946622
21
-3.386989
31
0
39
0
210
0
220
0
230
1
0
LINE
5
9E
100
AcDbEntity
8
1
62
256
6
ByLayer
370
18
48
1
60
0
100
AcDbLine
10
77.482809
20
-3.392949
30
0
11
78.464246
21
-3.393563
31
0
39
0
210
0
220
0
230
1
0
LINE
5
9F
100
AcDbEntity
8
1
62
256
6
ByLayer
370
18
48
1
60
0
100
AcDbLine
10
78.464246
20
3.393563
30
0
11
77.482809
21
3.392949
31
0
39
0
210
0
220
0
230
1
0
LINE
5
A0
100
AcDbEntity
8
1
62
256
6
ByLayer
370
18
48
1
60
0
100
AcDbLine
10
67.946622
20
3.386989
30
0
11
66.971602
21
3.38638
31
0
39
0
210
0
220
0
230
1
0
LINE
5
A1
100
AcDbEntity
8
1
62
256
6
ByLayer
370
18
48
1
60
0
100
AcDbLine
10
56.733581
20
3.379981
30
0
11
45.129681
21
3.372728
31
0
39
0
210
0
220
0
230
1
0
LINE
5
A2
100
AcDbEntity
8
1
62
256
6
ByLayer
370
18
48
1
60
0
100
AcDbLine
10
35.002205
20
3.366399
30
0
11
23.388669
21
3.35914
31
0
39
0
210
0
220
0
230
1
0
LINE
5
A3
100
AcDbEntity
8
1
62
256
6
ByLayer
370
18
48
1
60
0
100
AcDbLine
10
13.273649
20
3.352818
30
0
11
1.291373
21
3.345329
31
0
39
0
210
0
220
0
230
1
0
LINE
5
A4
100
AcDbEntity
8
SK4
62
256
6
ByLayer
370
18
48
0.05
60
0
100
AcDbLine
10
95
20
0
30
0
11
-41
21
0
31
0
39
0
210
0
220
0
230
1
0
LINE
5
A6
100
AcDbEntity
8
4
62
256
6
ByLayer
370
18
48
0.05
60
0
100
AcDbLine
10
-36
20
0
30
0
11
95
21
0
31
0
39
0
210
0
220
0
230
1
0
LINE
5
A8
100
AcDbEntity
8
80
62
256
6
ByLayer
370
18
48
1
60
0
100
AcDbLine
10
0
20
0
30
0
11
-6
21
0
31
0
39
0
210
0
220
0
230
1
0
LINE
5
A9
100
AcDbEntity
8
81
62
256
6
ByLayer
370
18
48
1
60
0
100
AcDbLine
10
90
20
0
30
0
11
96
21
0
31
0
39
0
210
0
220
0
230
1
0
LINE
5
AA
100
AcDbEntity
8
SK2
62
256
6
ByLayer
370
13
48
1
60
0
100
AcDbLine
10
90.542957
20
1.491762
30
0
11
97.926324
21
21.777374
31
0
39
0
210
0
220
0
230
1
0
LINE
5
AC
100
AcDbEntity
8
SK2
62
256
6
ByLayer
370
13
48
1
60
0
100
AcDbLine
10
90.542957
20
-1.491762
30
0
11
97.926324
21
-21.777374
31
0
39
0
210
0
220
0
230
1
0
LINE
5
AD
100
AcDbEntity
8
1
62
256
6
ByLayer
370
13
48
1
60
0
100
AcDbLine
10
96.840409
20
18.79385
30
0
11
99.936999
21
17.977477
31
0
39
0
210
0
220
0
230
1
0
LINE
5
AE
100
AcDbEntity
8
1
62
256
6
ByLayer
370
13
48
1
60
0
100
AcDbLine
10
96.840409
20
18.79385
30
0
11
99.620195
21
17.203837
31
0
39
0
210
0
220
0
230
1
0
LINE
5
AF
100
AcDbEntity
8
1
62
256
6
ByLayer
370
13
48
1
60
0
100
AcDbLine
10
99.936999
20
17.977477
30
0
11
99.620195
21
17.203837
31
0
39
0
210
0
220
0
230
1
0
LINE
5
B0
100
AcDbEntity
8
1
62
256
6
ByLayer
370
13
48
1
60
0
100
AcDbLine
10
96.840409
20
-18.79385
30
0
11
99.620192
21
-17.203838
31
0
39
0
210
0
220
0
230
1
0
LINE
5
B1
100
AcDbEntity
8
1
62
256
6
ByLayer
370
13
48
1
60
0
100
AcDbLine
10
96.840409
20
-18.79385
30
0
11
99.937002
21
-17.977476
31
0
39
0
210
0
220
0
230
1
0
LINE
5
B2
100
AcDbEntity
8
1
62
256
6
ByLayer
370
13
48
1
60
0
100
AcDbLine
10
99.620192
20
-17.203838
30
0
11
99.937002
21
-17.977476
31
0
39
0
210
0
220
0
230
1
0
MTEXT
5
10D
100
AcDbEntity
8
SK2
62
256
6
ByLayer
370
18
48
1
60
0
100
AcDbMText
10
103.717388
20
-2.467451
30
0
210
0
220
0
230
1
1
\W0.7237;140.00
40
3.50012
41
0
44
1.084337
50
0
71
7
72
5
7
iso_b_vert
0
MTEXT
5
110
100
AcDbEntity
8
SK6
62
256
6
ByLayer
370
18
48
1
60
0
100
AcDbMText
10
-12.331725
20
-66.127465
30
0
210
0
220
0
230
1
1
\W0.7454;860.1-0680-055A1-GM X1BM
40
3.175
41
0
44
1.084337
50
0
71
7
72
5
7
iso_b_vert
0
DIMENSION
5
113
100
AcDbEntity
8
SK2
62
256
6
ByLayer
370
18
48
1
60
0
100
AcDbDimension
2
_U0
10
90
20
-27.50012
30
0
11
45
21
-27.50012
31
0
70
32
71
2
72
1
41
1
210
0
220
0
230
1
3
Standard
100
AcDbAlignedDimension
13
0
23
-4
33
0
14
90
24
0
34
0
50
0
100
AcDbRotatedDimension
1001
ACAD
1000
DSTYLE
1002
{
1070
   371
1070
    13
1070
   372
1070
    13
1070
     3
1000

1070
   170
1070
     0
1070
   144
1040
1.0
1070
   277
1070
     2
1070
   284
1070
     8
1070
   278
1070
    46
1070
   146
1040
0.999966
1070
   345
1005
16
1070
   347
1005
16
1070
   346
1005
16
1070
   344
1005
114
1070
   343
1005
114
1070
   172
1070
     1
1070
    76
1070
     0
1070
    75
1070
     0
1070
   282
1070
     0
1070
   281
1070
     0
1070
    71
1070
     0
1070
    74
1070
     0
1070
   279
1070
     0
1070
   173
1070
     1
1070
   340
1005
10E
1070
   271
1070
     1
1070
   272
1070
     2
1070
    77
1070
     1
1070
    73
1070
     1
1070
   171
1070
     3
1070
   274
1070
     4
1070
   177
1070
   150
1070
   176
1070
     9
1070
   178
1070
    43
1070
    78
1070
     8
1070
    48
1040
-0.1
1070
    41
1040
3.175
1070
   147
1040
1.75006
1070
    42
1040
1.5875
1070
    44
1040
3.175
1070
   140
1040
3.50012
1002
}
1001
ACAD_DSTYLE_DIM_LINETYPE
1070
   380
1005
16
1001
ACAD_DSTYLE_DIM_EXT1_LINETYPE
1070
   381
1005
16
1001
ACAD_DSTYLE_DIM_EXT2_LINETYPE
1070
   382
1005
16
0
DIMENSION
5
139
100
AcDbEntity
8
2
62
256
6
ByLayer
370
18
48
1
60
0
100
AcDbDimension
2
_U1
10
96.75006
20
3.4
30
0
11
96.75006
21
18.889897
31
0
70
32
71
1
72
1
41
1
210
0
220
0
230
1
3
Standard
100
AcDbAlignedDimension
13
88.7625
23
-3.4
33
0
14
88.7625
24
3.4
34
0
50
90
100
AcDbRotatedDimension
1001
ACAD
1000
DSTYLE
1002
{
1070
   371
1070
    13
1070
   372
1070
    13
1070
     3
1000

1070
   170
1070
     0
1070
   144
1040
1.0
1070
   277
1070
     2
1070
   284
1070
     8
1070
   278
1070
    46
1070
   146
1040
0.999966
1070
   345
1005
16
1070
   347
1005
16
1070
   346
1005
16
1070
   344
1005
114
1070
   343
1005
114
1070
   172
1070
     1
1070
    76
1070
     0
1070
    75
1070
     0
1070
   282
1070
     0
1070
   281
1070
     0
1070
    71
1070
     0
1070
    74
1070
     0
1070
   279
1070
     0
1070
   173
1070
     1
1070
   340
1005
10E
1070
   271
1070
     1
1070
   272
1070
     2
1070
    77
1070
     1
1070
    73
1070
     0
1070
   171
1070
     3
1070
   274
1070
     4
1070
   177
1070
   150
1070
   176
1070
     9
1070
   178
1070
    43
1070
    78
1070
     8
1070
    48
1040
-0.1
1070
    41
1040
3.175
1070
   147
1040
1.75006
1070
    42
1040
1.5875
1070
    44
1040
3.175
1070
   140
1040
3.50012
1002
}
1001
ACAD_DSTYLE_DIM_LINETYPE
1070
   380
1005
16
1001
ACAD_DSTYLE_DIM_EXT1_LINETYPE
1070
   381
1005
16
1001
ACAD_DSTYLE_DIM_EXT2_LINETYPE
1070
   382
1005
16
0
DIMENSION
5
158
100
AcDbEntity
8
SK2
62
256
6
ByLayer
370
18
48
1
60
0
100
AcDbDimension
2
_U2
10
-39.24994
20
-4
30
0
11
-39.24994
21
18.10734
31
0
70
32
71
1
72
1
41
1
210
0
220
0
230
1
3
Standard
100
AcDbAlignedDimension
13
-36
23
4
33
0
14
-36
24
-4
34
0
50
90
100
AcDbRotatedDimension
1001
ACAD
1000
DSTYLE
1002
{
1070
   371
1070
    13
1070
   372
1070
    13
1070
     3
1000

1070
   170
1070
     0
1070
   144
1040
1.0
1070
   277
1070
     2
1070
   284
1070
     8
1070
   278
1070
    46
1070
   146
1040
0.999966
1070
   345
1005
16
1070
   347
1005
16
1070
   346
1005
16
1070
   344
1005
114
1070
   343
1005
114
1070
   172
1070
     1
1070
    76
1070
     0
1070
    75
1070
     0
1070
   282
1070
     0
1070
   281
1070
     0
1070
    71
1070
     0
1070
    74
1070
     0
1070
   279
1070
     0
1070
   173
1070
     1
1070
   340
1005
10E
1070
   271
1070
     1
1070
   272
1070
     2
1070
    77
1070
     1
1070
    73
1070
     0
1070
   171
1070
     3
1070
   274
1070
     4
1070
   177
1070
   150
1070
   176
1070
     9
1070
   178
1070
    43
1070
    78
1070
     8
1070
    48
1040
-0.1
1070
    41
1040
3.175
1070
   147
1040
1.75006
1070
    42
1040
1.5875
1070
    44
1040
3.175
1070
   140
1040
3.50012
1002
}
1001
ACAD_DSTYLE_DIM_LINETYPE
1070
   380
1005
16
1001
ACAD_DSTYLE_DIM_EXT1_LINETYPE
1070
   381
1005
16
1001
ACAD_DSTYLE_DIM_EXT2_LINETYPE
1070
   382
1005
16
0
DIMENSION
5
176
100
AcDbEntity
8
SK2
62
256
6
ByLayer
370
18
48
1
60
0
100
AcDbDimension
2
_U3
10
0
20
-27.50012
30
0
11
-18
21
-27.50012
31
0
70
32
71
1
72
1
41
1
210
0
220
0
230
1
3
Standard
100
AcDbAlignedDimension
13
-36
23
-4
33
0
14
0
24
-4
34
0
50
0
100
AcDbRotatedDimension
1001
ACAD
1000
DSTYLE
1002
{
1070
   371
1070
    13
1070
   372
1070
    13
1070
     3
1000

1070
   170
1070
     0
1070
   144
1040
1.0
1070
   277
1070
     2
1070
   284
1070
     8
1070
   278
1070
    46
1070
   146
1040
0.999966
1070
   345
1005
16
1070
   347
1005
16
1070
   346
1005
16
1070
   344
1005
114
1070
   343
1005
114
1070
   172
1070
     1
1070
    76
1070
     0
1070
    75
1070
     0
1070
   282
1070
     0
1070
   281
1070
     0
1070
    71
1070
     0
1070
    74
1070
     0
1070
   279
1070
     0
1070
   173
1070
     1
1070
   340
1005
10E
1070
   271
1070
     1
1070
   272
1070
     2
1070
    77
1070
     1
1070
    73
1070
     1
1070
   171
1070
     3
1070
   274
1070
     4
1070
   177
1070
   150
1070
   176
1070
     9
1070
   178
1070
    43
1070
    78
1070
     8
1070
    48
1040
-0.1
1070
    41
1040
3.175
1070
   147
1040
1.75006
1070
    42
1040
1.5875
1070
    44
1040
3.175
1070
   140
1040
3.50012
1002
}
1001
ACAD_DSTYLE_DIM_LINETYPE
1070
   380
1005
16
1001
ACAD_DSTYLE_DIM_EXT1_LINETYPE
1070
   381
1005
16
1001
ACAD_DSTYLE_DIM_EXT2_LINETYPE
1070
   382
1005
16
0
DIMENSION
5
192
100
AcDbEntity
8
SK2
62
256
6
ByLayer
370
18
48
1
60
0
100
AcDbDimension
2
_U4
10
90
20
-18.74982
30
0
11
48
21
-18.74982
31
0
70
32
71
1
72
1
41
1
210
0
220
0
230
1
3
Standard
100
AcDbAlignedDimension
13
6
23
3.9
33
0
14
90
24
0
34
0
50
0
100
AcDbRotatedDimension
1001
ACAD
1000
DSTYLE
1002
{
1070
   371
1070
    13
1070
   372
1070
    13
1070
     3
1000

1070
   170
1070
     0
1070
   144
1040
1.0
1070
   277
1070
     2
1070
   284
1070
     8
1070
   278
1070
    46
1070
   146
1040
0.999966
1070
   345
1005
16
1070
   347
1005
16
1070
   346
1005
16
1070
   344
1005
114
1070
   343
1005
114
1070
   172
1070
     1
1070
    76
1070
     0
1070
    75
1070
     0
1070
   282
1070
     0
1070
   281
1070
     0
1070
    71
1070
     0
1070
    74
1070
     0
1070
   279
1070
     0
1070
   173
1070
     1
1070
   340
1005
10E
1070
   271
1070
     1
1070
   272
1070
     2
1070
    77
1070
     1
1070
    73
1070
     1
1070
   171
1070
     3
1070
   274
1070
     4
1070
   177
1070
   150
1070
   176
1070
     9
1070
   178
1070
    43
1070
    78
1070
     8
1070
    48
1040
-0.1
1070
    41
1040
3.175
1070
   147
1040
1.75006
1070
    42
1040
1.5875
1070
    44
1040
3.175
1070
   140
1040
3.50012
1002
}
1001
ACAD_DSTYLE_DIM_LINETYPE
1070
   380
1005
16
1001
ACAD_DSTYLE_DIM_EXT1_LINETYPE
1070
   381
1005
16
1001
ACAD_DSTYLE_DIM_EXT2_LINETYPE
1070
   382
1005
16
0
DIMENSION
5
1AE
100
AcDbEntity
8
SK2
62
256
6
ByLayer
370
18
48
1
60
0
100
AcDbDimension
2
_U5
10
90
20
-10.82
30
0
11
62.2
21
-10.82
31
0
70
32
71
1
72
1
41
1
210
0
220
0
230
1
3
Standard
100
AcDbAlignedDimension
13
34.4
23
-3.4
33
0
14
90
24
0
34
0
50
0
100
AcDbRotatedDimension
1001
ACAD
1000
DSTYLE
1002
{
1070
   371
1070
    13
1070
   372
1070
    13
1070
     3
1000

1070
   170
1070
     0
1070
   144
1040
1.0
1070
   277
1070
     2
1070
   284
1070
     8
1070
   278
1070
    46
1070
   146
1040
1.25
1070
   345
1005
16
1070
   347
1005
16
1070
   346
1005
16
1070
   344
1005
114
1070
   343
1005
114
1070
   172
1070
     1
1070
    76
1070
     0
1070
    75
1070
     0
1070
   282
1070
     0
1070
   281
1070
     0
1070
    71
1070
     0
1070
    74
1070
     0
1070
   279
1070
     0
1070
   173
1070
     1
1070
   340
1005
10E
1070
   271
1070
     1
1070
   272
1070
     2
1070
    77
1070
     1
1070
    73
1070
     1
1070
   171
1070
     3
1070
   274
1070
     4
1070
   177
1070
   150
1070
   176
1070
     9
1070
   178
1070
    43
1070
    78
1070
     8
1070
    48
1040
-0.1
1070
    41
1040
3.175
1070
   147
1040
0.42
1070
    42
1040
1.5875
1070
    44
1040
0.5
1070
   140
1040
2.8
1002
}
1001
ACAD_DSTYLE_DIM_LINETYPE
1070
   380
1005
16
1001
ACAD_DSTYLE_DIM_EXT1_LINETYPE
1070
   381
1005
16
1001
ACAD_DSTYLE_DIM_EXT2_LINETYPE
1070
   382
1005
16
0
DIMENSION
5
1CA
100
AcDbEntity
8
SK2
62
256
6
ByLayer
370
18
48
1
60
0
100
AcDbDimension
2
_U6
10
90
20
-37.50012
30
0
11
27
21
-37.50012
31
0
70
32
71
1
72
1
41
1
210
0
220
0
230
1
3
Standard
100
AcDbAlignedDimension
13
-36
23
0
33
0
14
90
24
0
34
0
50
0
100
AcDbRotatedDimension
1001
ACAD
1000
DSTYLE
1002
{
1070
   371
1070
    13
1070
   372
1070
    13
1070
     3
1000

1070
   170
1070
     0
1070
   144
1040
1.0
1070
   277
1070
     2
1070
   284
1070
     8
1070
   278
1070
    46
1070
   146
1040
0.999966
1070
   345
1005
16
1070
   347
1005
16
1070
   346
1005
16
1070
   344
1005
114
1070
   343
1005
114
1070
   172
1070
     1
1070
    76
1070
     0
1070
    75
1070
     0
1070
   282
1070
     0
1070
   281
1070
     0
1070
    71
1070
     0
1070
    74
1070
     0
1070
   279
1070
     0
1070
   173
1070
     1
1070
   340
1005
10E
1070
   271
1070
     1
1070
   272
1070
     2
1070
    77
1070
     1
1070
    73
1070
     1
1070
   171
1070
     3
1070
   274
1070
     4
1070
   177
1070
   150
1070
   176
1070
     9
1070
   178
1070
    43
1070
    78
1070
     8
1070
    48
1040
-0.1
1070
    41
1040
3.175
1070
   147
1040
1.75006
1070
    42
1040
1.5875
1070
    44
1040
3.175
1070
   140
1040
3.50012
1002
}
1001
ACAD_DSTYLE_DIM_LINETYPE
1070
   380
1005
16
1001
ACAD_DSTYLE_DIM_EXT1_LINETYPE
1070
   381
1005
16
1001
ACAD_DSTYLE_DIM_EXT2_LINETYPE
1070
   382
1005
16
0
ENDSEC
0
SECTION
2
OBJECTS
0
DICTIONARY
5
256
330
0
100
AcDbDictionary
280
0
281
1
3
ACAD_GROUP
350
257
3
ACAD_MLINESTYLE
350
258
0
DICTIONARY
5
257
330
0
100
AcDbDictionary
280
0
281
1
0
DICTIONARY
5
258
330
0
100
AcDbDictionary
280
0
281
1
3
Standard
350
18
0
MLINESTYLE
5
18
330
258
100
AcDbMlineStyle
2
Standard
70
0
3

62
256
51
90
52
90
71
2
49
-0.5
62
256
6
ByLayer
49
0.5
62
256
6
ByLayer
0
RASTERVARIABLES
5
244
330

100
AcDbRasterVariables
90
0
70
1
71
1
72
1
0
ENDSEC
0
EOF
