0
SECTION
2
HEADER
9
$ACADVER
1
AC1015
9
$DWGCODEPAGE
3
ANSI_1252
9
$HANDSEED
5
26c
9
$ANGBASE
50
0
9
$ANGDIR
70
0
9
$ATTMODE
70
1
9
$AUNITS
70
0
9
$AUPREC
70
0
9
$CECOLOR
62
256
9
$CELTSCALE
40
1
9
$CELTYPE
6
ByLayer
9
$CELWEIGHT
370
18
9
$CLAYER
8
0
9
$CMLJUST
70
0
9
$CMLSCALE
40
1
9
$CMLSTYLE
2
Standard
9
$DIMSTYLE
2
Standard
9
$TEXTSIZE
40
0.2
9
$TEXTSTYLE
7
Standard
9
$LUNITS
70
2
9
$LUPREC
70
4
9
$EXTNAMES
290
1
9
$INSUNITS
70
4
9
$LTSCALE
40
1
9
$LWDISPLAY
290
1
9
$PDMODE
70
0
9
$PDSIZE
40
0
9
$PLINEGEN
70
0
0
ENDSEC
0
SECTION
2
CLASSES
0
CLASS
1
RASTERVARIABLES
2
AcDbRasterVariables
3
ISM
90
0
280
0
281
0
0
ENDSEC
0
SECTION
2
TABLES
0
TABLE
2
VPORT
5
262
100
AcDbSymbolTable
0
VPORT
5
1
100
AcDbSymbolTableRecord
100
AcDbViewportTableRecord
2
*Active
70
0
10
0
20
0
11
1
21
1
12
-1
22
1
13
0
23
0
14
0.5
24
0.5
15
10
25
10
16
0
26
0
36
1
17
0
27
0
37
0
0
ENDTAB
0
TABLE
2
LTYPE
5
263
100
AcDbSymbolTable
0
LTYPE
5
14
100
AcDbSymbolTableRecord
100
AcDbLinetypeTableRecord
70
0
2
ByBlock
3

72
65
73
0
40
0
0
LTYPE
5
15
100
AcDbSymbolTableRecord
100
AcDbLinetypeTableRecord
70
0
2
ByLayer
3

72
65
73
0
40
0
0
LTYPE
5
16
100
AcDbSymbolTableRecord
100
AcDbLinetypeTableRecord
70
0
2
Continuous
3
Solid line
72
65
73
0
40
0
0
LTYPE
5
6E
100
AcDbSymbolTableRecord
100
AcDbLinetypeTableRecord
70
0
2
CENTER
3
____ _ ____ _ ____ _ ____
72
65
73
4
40
47.5
49
22
74
0
49
-8.5
74
0
49
8.5
74
0
49
-8.5
74
0
0
LTYPE
5
6F
100
AcDbSymbolTableRecord
100
AcDbLinetypeTableRecord
70
0
2
DASHED
3
__ __ __ __ __ __ __ __ __
72
65
73
2
40
25.72
49
12.86
74
0
49
-12.86
74
0
0
ENDTAB
0
TABLE
2
LAYER
5
264
100
AcDbSymbolTable
0
LAYER
5
10
100
AcDbSymbolTableRecord
100
AcDbLayerTableRecord
2
0
70
0
62
7
6
Continuous
290
1
370
-3
390
0
0
LAYER
5
71
100
AcDbSymbolTableRecord
100
AcDbLayerTableRecord
2
80
70
0
62
-6
6
Continuous
290
1
370
-3
390
0
0
LAYER
5
73
100
AcDbSymbolTableRecord
100
AcDbLayerTableRecord
2
81
70
0
62
-3
6
Continuous
290
1
370
-3
390
0
0
LAYER
5
75
100
AcDbSymbolTableRecord
100
AcDbLayerTableRecord
2
1
70
0
62
4
6
Continuous
290
1
370
-3
390
0
0
LAYER
5
AE
100
AcDbSymbolTableRecord
100
AcDbLayerTableRecord
2
4
70
0
62
-2
6
CENTER
290
1
370
-3
390
0
0
LAYER
5
126
100
AcDbSymbolTableRecord
100
AcDbLayerTableRecord
2
Defpoints
70
0
62
7
6
Continuous
290
0
370
-3
390
0
0
LAYER
5
153
100
AcDbSymbolTableRecord
100
AcDbLayerTableRecord
2
2
70
0
62
7
6
Continuous
290
1
370
-3
390
0
0
LAYER
5
24e
100
AcDbSymbolTableRecord
100
AcDbLayerTableRecord
2
SK1
70
0
62
4
6
Continuous
290
1
370
-3
390
0
0
LAYER
5
24f
100
AcDbSymbolTableRecord
100
AcDbLayerTableRecord
2
SK4
70
0
62
2
6
CENTER
290
1
370
-3
390
0
0
LAYER
5
250
100
AcDbSymbolTableRecord
100
AcDbLayerTableRecord
2
SK2
70
0
62
7
6
Continuous
290
1
370
-3
390
0
0
LAYER
5
251
100
AcDbSymbolTableRecord
100
AcDbLayerTableRecord
2
SK6
70
0
62
5
6
Continuous
290
1
370
-3
390
0
0
ENDTAB
0
TABLE
2
STYLE
5
265
100
AcDbSymbolTable
0
STYLE
5
11
100
AcDbSymbolTableRecord
100
AcDbTextStyleTableRecord
2
Standard
3
txt
70
0
71
0
40
0
41
1
42
0
50
0
0
STYLE
5
117
100
AcDbSymbolTableRecord
100
AcDbTextStyleTableRecord
2
iso_b_vert
3
simplex.shx
70
0
71
0
40
0
41
1
42
0
50
0
0
STYLE
5
118
100
AcDbSymbolTableRecord
100
AcDbTextStyleTableRecord
2
DWGDirectTextStyle
3
simplex
70
0
71
0
40
0
41
1
42
0
50
0
0
ENDTAB
0
TABLE
2
DIMSTYLE
5
266
100
AcDbSymbolTable
100
AcDbDimStyleTable
0
DIMSTYLE
105
27
100
AcDbSymbolTableRecord
100
AcDbDimStyleTableRecord
2
Standard
70
0
3
<>
41
0.18
42
0.0625
44
0.18
140
0.18
147
0.09
73
0
74
0
77
1
271
2
275
0
278
52
280
0
340
11
0
ENDTAB
0
TABLE
2
VIEW
5
267
100
AcDbSymbolTable
0
ENDTAB
0
TABLE
2
UCS
5
268
100
AcDbSymbolTable
0
ENDTAB
0
TABLE
2
APPID
5
269
100
AcDbSymbolTable
0
APPID
5
12
100
AcDbSymbolTableRecord
100
AcDbRegAppTableRecord
2
ACAD
70
0
0
APPID
5
11B
100
AcDbSymbolTableRecord
100
AcDbRegAppTableRecord
2
ACAD_DSTYLE_DIMBREAK
70
0
0
APPID
5
20D
100
AcDbSymbolTableRecord
100
AcDbRegAppTableRecord
2
ACAD_DSTYLE_DIM_LINETYPE
70
0
0
APPID
5
20E
100
AcDbSymbolTableRecord
100
AcDbRegAppTableRecord
2
ACAD_DSTYLE_DIM_EXT1_LINETYPE
70
0
0
APPID
5
20F
100
AcDbSymbolTableRecord
100
AcDbRegAppTableRecord
2
ACAD_DSTYLE_DIM_EXT2_LINETYPE
70
0
0
APPID
5
24A
100
AcDbSymbolTableRecord
100
AcDbRegAppTableRecord
2
ACAD_MLEADERVER
70
0
0
ENDTAB
0
TABLE
2
BLOCK_RECORD
5
26a
100
AcDbSymbolTable
0
BLOCK_RECORD
5
1F
100
AcDbSymbolTableRecord
100
AcDbBlockTableRecord
2
*Model_Space
340
0
70
0
0
BLOCK_RECORD
5
1B
100
AcDbSymbolTableRecord
100
AcDbBlockTableRecord
2
*Paper_Space
340
0
70
0
0
BLOCK_RECORD
5
23
100
AcDbSymbolTableRecord
100
AcDbBlockTableRecord
2
*Paper_Space0
340
0
70
0
0
BLOCK_RECORD
5
11D
100
AcDbSymbolTableRecord
100
AcDbBlockTableRecord
2
_Closed
340
0
70
0
0
BLOCK_RECORD
5
127
100
AcDbSymbolTableRecord
100
AcDbBlockTableRecord
2
*D2
340
0
70
0
0
BLOCK_RECORD
5
133
100
AcDbSymbolTableRecord
100
AcDbBlockTableRecord
2
_U0
340
0
70
0
0
BLOCK_RECORD
5
145
100
AcDbSymbolTableRecord
100
AcDbBlockTableRecord
2
*D4
340
0
70
0
0
BLOCK_RECORD
5
154
100
AcDbSymbolTableRecord
100
AcDbBlockTableRecord
2
_U1
340
0
70
0
0
BLOCK_RECORD
5
164
100
AcDbSymbolTableRecord
100
AcDbBlockTableRecord
2
*D6
340
0
70
0
0
BLOCK_RECORD
5
172
100
AcDbSymbolTableRecord
100
AcDbBlockTableRecord
2
_U2
340
0
70
0
0
BLOCK_RECORD
5
182
100
AcDbSymbolTableRecord
100
AcDbBlockTableRecord
2
*D8
340
0
70
0
0
BLOCK_RECORD
5
18E
100
AcDbSymbolTableRecord
100
AcDbBlockTableRecord
2
_U3
340
0
70
0
0
BLOCK_RECORD
5
19E
100
AcDbSymbolTableRecord
100
AcDbBlockTableRecord
2
*D10
340
0
70
0
0
BLOCK_RECORD
5
1AA
100
AcDbSymbolTableRecord
100
AcDbBlockTableRecord
2
_U4
340
0
70
0
0
BLOCK_RECORD
5
1BA
100
AcDbSymbolTableRecord
100
AcDbBlockTableRecord
2
*D12
340
0
70
0
0
BLOCK_RECORD
5
1C6
100
AcDbSymbolTableRecord
100
AcDbBlockTableRecord
2
_U5
340
0
70
0
0
BLOCK_RECORD
5
1D6
100
AcDbSymbolTableRecord
100
AcDbBlockTableRecord
2
*D14
340
0
70
0
0
BLOCK_RECORD
5
1E2
100
AcDbSymbolTableRecord
100
AcDbBlockTableRecord
2
_U6
340
0
70
0
0
ENDTAB
0
ENDSEC
0
SECTION
2
BLOCKS
0
BLOCK
5
20
100
AcDbEntity
8
0
100
AcDbBlockBegin
2
*Model_Space
70
0
10
0
20
0
30
0
3
*Model_Space
0
ENDBLK
5
21
100
AcDbEntity
8
0
100
AcDbBlockEnd
0
BLOCK
5
1C
100
AcDbEntity
8
0
100
AcDbBlockBegin
2
*Paper_Space
70
0
10
0
20
0
30
0
3
*Paper_Space
0
ENDBLK
5
1D
100
AcDbEntity
8
0
100
AcDbBlockEnd
0
BLOCK
5
24
100
AcDbEntity
8
0
100
AcDbBlockBegin
2
*Paper_Space0
70
0
10
0
20
0
30
0
3
*Paper_Space0
0
ENDBLK
5
25
100
AcDbEntity
8
0
100
AcDbBlockEnd
0
BLOCK
5
11E
100
AcDbEntity
8
0
100
AcDbBlockBegin
2
_Closed
70
0
10
0
20
0
30
0
3
_Closed
0
LINE
5
120
100
AcDbEntity
8
0
62
256
6
ByLayer
370
-2
48
1
60
0
100
AcDbLine
10
-1
20
0.166667
30
0
11
0
21
0
31
0
39
0
210
0
220
0
230
1
0
LINE
5
121
100
AcDbEntity
8
0
62
256
6
ByLayer
370
-2
48
1
60
0
100
AcDbLine
10
0
20
0
30
0
11
-1
21
-0.166667
31
0
39
0
210
0
220
0
230
1
0
LINE
5
122
100
AcDbEntity
8
0
62
256
6
ByLayer
370
-2
48
1
60
0
100
AcDbLine
10
-1
20
0.166667
30
0
11
-1
21
-0.166667
31
0
39
0
210
0
220
0
230
1
0
LINE
5
123
100
AcDbEntity
8
0
62
256
6
ByLayer
370
-2
48
1
60
0
100
AcDbLine
10
0
20
0
30
0
11
-1
21
0
31
0
39
0
210
0
220
0
230
1
0
ENDBLK
5
11F
100
AcDbEntity
8
0
100
AcDbBlockEnd
0
BLOCK
5
128
100
AcDbEntity
8
0
100
AcDbBlockBegin
2
*D2
70
1
10
0
20
0
30
0
3
*D2
0
LINE
5
12A
100
AcDbEntity
8
0
62
256
6
ByLayer
370
-2
48
1
60
0
100
AcDbLine
10
0
20
-4.5875
30
0
11
0
21
-29.67512
31
0
39
0
210
0
220
0
230
1
0
LINE
5
12B
100
AcDbEntity
8
0
62
256
6
ByLayer
370
-2
48
1
60
0
100
AcDbLine
10
68
20
-1.5875
30
0
11
68
21
-29.67512
31
0
39
0
210
0
220
0
230
1
0
LINE
5
12C
100
AcDbEntity
8
0
62
256
6
ByLayer
370
-2
48
1
60
0
100
AcDbLine
10
3.175
20
-26.50012
30
0
11
64.825
21
-26.50012
31
0
39
0
210
0
220
0
230
1
0
SOLID
5
12D
100
AcDbEntity
8
0
62
256
6
ByLayer
370
-1
48
1
60
0
100
AcDbTrace
10
3.175
20
-25.970953
30
0
11
3.175
21
-27.029287
31
0
12
0
22
-26.50012
32
0
13
0
23
-26.50012
33
0
39
0
210
0
220
0
230
1
0
SOLID
5
12E
100
AcDbEntity
8
0
62
256
6
ByLayer
370
-1
48
1
60
0
100
AcDbTrace
10
64.825
20
-27.029287
30
0
11
64.825
21
-25.970953
31
0
12
68
22
-26.50012
32
0
13
68
23
-26.50012
33
0
39
0
210
0
220
0
230
1
0
MTEXT
5
12F
100
AcDbEntity
8
0
62
256
6
ByLayer
370
18
48
1
60
0
100
AcDbMText
10
34
20
-19.193619
30
0
210
0
220
0
230
1
1
\A1;68
40
3.50012
41
0
44
1
50
0
71
5
72
5
7
iso_b_vert
0
POINT
5
130
100
AcDbEntity
8
Defpoints
62
0
6
ByLayer
370
-1
48
1
60
0
100
AcDbPoint
10
0
20
-3
30
0
39
0
210
0
220
0
230
1
50
360
0
POINT
5
131
100
AcDbEntity
8
Defpoints
62
0
6
ByLayer
370
-1
48
1
60
0
100
AcDbPoint
10
68
20
0
30
0
39
0
210
0
220
0
230
1
50
360
0
POINT
5
132
100
AcDbEntity
8
Defpoints
62
0
6
ByLayer
370
-1
48
1
60
0
100
AcDbPoint
10
68
20
-26.50012
30
0
39
0
210
0
220
0
230
1
50
360
0
ENDBLK
5
129
100
AcDbEntity
8
0
100
AcDbBlockEnd
0
BLOCK
5
140
100
AcDbEntity
8
0
100
AcDbBlockBegin
2
_U0
70
0
10
0
20
0
30
0
3
_U0
0
MTEXT
5
134
100
AcDbEntity
8
SK2
62
256
6
ByLayer
370
18
48
1
60
0
100
AcDbMText
10
28.770389
20
-25.467451
30
0
210
0
220
0
230
1
1
\W0.7468;68.00
40
3.50012
41
0
44
1.084337
50
0
71
7
72
5
7
iso_b_vert
0
MTEXT
5
135
100
AcDbEntity
8
SK2
62
256
6
ByLayer
370
18
48
1
60
0
100
AcDbMText
10
25.244329
20
-25.400814
30
0
210
0
220
0
230
1
1
\W0.1790;(
40
3.175
41
0
44
1.084337
50
0
71
7
72
5
7
iso_b_vert
0
MTEXT
5
136
100
AcDbEntity
8
SK2
62
256
6
ByLayer
370
18
48
1
60
0
100
AcDbMText
10
42.758393
20
-25.400814
30
0
210
0
220
0
230
1
1
\W0.1969;)
40
3.175
41
0
44
1.084337
50
0
71
7
72
5
7
iso_b_vert
0
LINE
5
137
100
AcDbEntity
8
SK2
62
256
6
ByLayer
370
13
48
1
60
0
100
AcDbLine
10
0
20
-4.5875
30
0
11
0
21
-29.67512
31
0
39
0
210
0
220
0
230
1
0
LINE
5
138
100
AcDbEntity
8
SK2
62
256
6
ByLayer
370
13
48
1
60
0
100
AcDbLine
10
68
20
-1.5875
30
0
11
68
21
-29.67512
31
0
39
0
210
0
220
0
230
1
0
LINE
5
139
100
AcDbEntity
8
SK2
62
256
6
ByLayer
370
13
48
1
60
0
100
AcDbLine
10
0
20
-26.50012
30
0
11
68
21
-26.50012
31
0
39
0
210
0
220
0
230
1
0
LINE
5
13A
100
AcDbEntity
8
SK2
62
256
6
ByLayer
370
13
48
1
60
0
100
AcDbLine
10
0
20
-26.50012
30
0
11
3.174998
21
-26.082123
31
0
39
0
210
0
220
0
230
1
0
LINE
5
13B
100
AcDbEntity
8
SK2
62
256
6
ByLayer
370
13
48
1
60
0
100
AcDbLine
10
0
20
-26.50012
30
0
11
3.175002
21
-26.918117
31
0
39
0
210
0
220
0
230
1
0
LINE
5
13C
100
AcDbEntity
8
SK2
62
256
6
ByLayer
370
13
48
1
60
0
100
AcDbLine
10
3.174998
20
-26.082123
30
0
11
3.175002
21
-26.918117
31
0
39
0
210
0
220
0
230
1
0
LINE
5
13D
100
AcDbEntity
8
SK2
62
256
6
ByLayer
370
13
48
1
60
0
100
AcDbLine
10
68
20
-26.50012
30
0
11
64.825002
21
-26.918117
31
0
39
0
210
0
220
0
230
1
0
LINE
5
13E
100
AcDbEntity
8
SK2
62
256
6
ByLayer
370
13
48
1
60
0
100
AcDbLine
10
68
20
-26.50012
30
0
11
64.824998
21
-26.082123
31
0
39
0
210
0
220
0
230
1
0
LINE
5
13F
100
AcDbEntity
8
SK2
62
256
6
ByLayer
370
13
48
1
60
0
100
AcDbLine
10
64.825002
20
-26.918117
30
0
11
64.824998
21
-26.082123
31
0
39
0
210
0
220
0
230
1
0
ENDBLK
5
141
100
AcDbEntity
8
0
100
AcDbBlockEnd
0
BLOCK
5
146
100
AcDbEntity
8
0
100
AcDbBlockBegin
2
*D4
70
1
10
0
20
0
30
0
3
*D4
0
LINE
5
148
100
AcDbEntity
8
0
62
256
6
ByLayer
370
-2
48
1
60
0
100
AcDbLine
10
68.5866
20
-2.75
30
0
11
77.92506
21
-2.75
31
0
39
0
210
0
220
0
230
1
0
LINE
5
149
100
AcDbEntity
8
0
62
256
6
ByLayer
370
-2
48
1
60
0
100
AcDbLine
10
68.5866
20
2.75
30
0
11
77.92506
21
2.75
31
0
39
0
210
0
220
0
230
1
0
LINE
5
14A
100
AcDbEntity
8
0
62
256
6
ByLayer
370
-2
48
1
60
0
100
AcDbLine
10
74.75006
20
2.75
30
0
11
74.75006
21
27.546466
31
0
39
0
210
0
220
0
230
1
0
LINE
5
14B
100
AcDbEntity
8
0
62
256
6
ByLayer
370
-2
48
1
60
0
100
AcDbLine
10
74.75006
20
-5.925
30
0
11
74.75006
21
-9.1
31
0
39
0
210
0
220
0
230
1
0
LINE
5
14C
100
AcDbEntity
8
0
62
256
6
ByLayer
370
-2
48
1
60
0
100
AcDbLine
10
74.75006
20
5.925
30
0
11
74.75006
21
9.1
31
0
39
0
210
0
220
0
230
1
0
SOLID
5
14D
100
AcDbEntity
8
0
62
256
6
ByLayer
370
-1
48
1
60
0
100
AcDbTrace
10
75.279227
20
-5.925
30
0
11
74.220893
21
-5.925
31
0
12
74.75006
22
-2.75
32
0
13
74.75006
23
-2.75
33
0
39
0
210
0
220
0
230
1
0
SOLID
5
14E
100
AcDbEntity
8
0
62
256
6
ByLayer
370
-1
48
1
60
0
100
AcDbTrace
10
74.220893
20
5.925
30
0
11
75.279227
21
5.925
31
0
12
74.75006
22
2.75
32
0
13
74.75006
23
2.75
33
0
39
0
210
0
220
0
230
1
0
MTEXT
5
14F
100
AcDbEntity
8
0
62
256
6
ByLayer
370
18
48
1
60
0
100
AcDbMText
10
67.44356
20
18.323233
30
0
210
0
220
0
230
1
1
\A1;5.5
40
3.50012
41
0
44
1
50
90
71
5
72
5
7
iso_b_vert
0
POINT
5
150
100
AcDbEntity
8
Defpoints
62
0
6
ByLayer
370
-1
48
1
60
0
100
AcDbPoint
10
66.9991
20
-2.75
30
0
39
0
210
0
220
0
230
1
50
360
0
POINT
5
151
100
AcDbEntity
8
Defpoints
62
0
6
ByLayer
370
-1
48
1
60
0
100
AcDbPoint
10
66.9991
20
2.75
30
0
39
0
210
0
220
0
230
1
50
360
0
POINT
5
152
100
AcDbEntity
8
Defpoints
62
0
6
ByLayer
370
-1
48
1
60
0
100
AcDbPoint
10
74.75006
20
2.75
30
0
39
0
210
0
220
0
230
1
50
360
0
ENDBLK
5
147
100
AcDbEntity
8
0
100
AcDbBlockEnd
0
BLOCK
5
15F
100
AcDbEntity
8
0
100
AcDbBlockBegin
2
_U1
70
0
10
0
20
0
30
0
3
_U1
0
MTEXT
5
155
100
AcDbEntity
8
2
62
256
6
ByLayer
370
18
48
1
60
0
100
AcDbMText
10
74.060403
20
6.907505
30
0
210
0
220
0
230
1
1
\W0.7346;5.50
40
3.50012
41
0
44
1.084337
50
90
71
7
72
5
7
iso_b_vert
0
LINE
5
156
100
AcDbEntity
8
2
62
256
6
ByLayer
370
13
48
1
60
0
100
AcDbLine
10
68.5866
20
-2.75
30
0
11
77.92506
21
-2.75
31
0
39
0
210
0
220
0
230
1
0
LINE
5
157
100
AcDbEntity
8
2
62
256
6
ByLayer
370
13
48
1
60
0
100
AcDbLine
10
68.5866
20
2.75
30
0
11
77.92506
21
2.75
31
0
39
0
210
0
220
0
230
1
0
LINE
5
158
100
AcDbEntity
8
2
62
256
6
ByLayer
370
13
48
1
60
0
100
AcDbLine
10
74.75006
20
14.96468
30
0
11
74.75006
21
-11.5003
31
0
39
0
210
0
220
0
230
1
0
LINE
5
159
100
AcDbEntity
8
2
62
256
6
ByLayer
370
13
48
1
60
0
100
AcDbLine
10
74.75006
20
-2.75
30
0
11
75.168057
21
-5.924998
31
0
39
0
210
0
220
0
230
1
0
LINE
5
15A
100
AcDbEntity
8
2
62
256
6
ByLayer
370
13
48
1
60
0
100
AcDbLine
10
74.75006
20
-2.75
30
0
11
74.332063
21
-5.925002
31
0
39
0
210
0
220
0
230
1
0
LINE
5
15B
100
AcDbEntity
8
2
62
256
6
ByLayer
370
13
48
1
60
0
100
AcDbLine
10
75.168057
20
-5.924998
30
0
11
74.332063
21
-5.925002
31
0
39
0
210
0
220
0
230
1
0
LINE
5
15C
100
AcDbEntity
8
2
62
256
6
ByLayer
370
13
48
1
60
0
100
AcDbLine
10
74.75006
20
2.75
30
0
11
74.332063
21
5.924998
31
0
39
0
210
0
220
0
230
1
0
LINE
5
15D
100
AcDbEntity
8
2
62
256
6
ByLayer
370
13
48
1
60
0
100
AcDbLine
10
74.75006
20
2.75
30
0
11
75.168057
21
5.925002
31
0
39
0
210
0
220
0
230
1
0
LINE
5
15E
100
AcDbEntity
8
2
62
256
6
ByLayer
370
13
48
1
60
0
100
AcDbLine
10
74.332063
20
5.924998
30
0
11
75.168057
21
5.925002
31
0
39
0
210
0
220
0
230
1
0
ENDBLK
5
160
100
AcDbEntity
8
0
100
AcDbBlockEnd
0
BLOCK
5
165
100
AcDbEntity
8
0
100
AcDbBlockBegin
2
*D6
70
1
10
0
20
0
30
0
3
*D6
0
LINE
5
167
100
AcDbEntity
8
0
62
256
6
ByLayer
370
-2
48
1
60
0
100
AcDbLine
10
-37.5875
20
3
30
0
11
-42.42494
21
3
31
0
39
0
210
0
220
0
230
1
0
LINE
5
168
100
AcDbEntity
8
0
62
256
6
ByLayer
370
-2
48
1
60
0
100
AcDbLine
10
-37.5875
20
-3
30
0
11
-42.42494
21
-3
31
0
39
0
210
0
220
0
230
1
0
LINE
5
169
100
AcDbEntity
8
0
62
256
6
ByLayer
370
-2
48
1
60
0
100
AcDbLine
10
-39.24994
20
3
30
0
11
-39.24994
21
23.747151
31
0
39
0
210
0
220
0
230
1
0
LINE
5
16A
100
AcDbEntity
8
0
62
256
6
ByLayer
370
-2
48
1
60
0
100
AcDbLine
10
-39.24994
20
6.175
30
0
11
-39.24994
21
9.35
31
0
39
0
210
0
220
0
230
1
0
LINE
5
16B
100
AcDbEntity
8
0
62
256
6
ByLayer
370
-2
48
1
60
0
100
AcDbLine
10
-39.24994
20
-6.175
30
0
11
-39.24994
21
-9.35
31
0
39
0
210
0
220
0
230
1
0
SOLID
5
16C
100
AcDbEntity
8
0
62
256
6
ByLayer
370
-1
48
1
60
0
100
AcDbTrace
10
-39.779107
20
6.175
30
0
11
-38.720773
21
6.175
31
0
12
-39.24994
22
3
32
0
13
-39.24994
23
3
33
0
39
0
210
0
220
0
230
1
0
SOLID
5
16D
100
AcDbEntity
8
0
62
256
6
ByLayer
370
-1
48
1
60
0
100
AcDbTrace
10
-38.720773
20
-6.175
30
0
11
-39.779107
21
-6.175
31
0
12
-39.24994
22
-3
32
0
13
-39.24994
23
-3
33
0
39
0
210
0
220
0
230
1
0
MTEXT
5
16E
100
AcDbEntity
8
0
62
256
6
ByLayer
370
18
48
1
60
0
100
AcDbMText
10
-46.556441
20
17.10734
30
0
210
0
220
0
230
1
1
\A1;6
40
3.50012
41
0
44
1
50
90
71
5
72
5
7
iso_b_vert
0
POINT
5
16F
100
AcDbEntity
8
Defpoints
62
0
6
ByLayer
370
-1
48
1
60
0
100
AcDbPoint
10
-36
20
3
30
0
39
0
210
0
220
0
230
1
50
360
0
POINT
5
170
100
AcDbEntity
8
Defpoints
62
0
6
ByLayer
370
-1
48
1
60
0
100
AcDbPoint
10
-36
20
-3
30
0
39
0
210
0
220
0
230
1
50
360
0
POINT
5
171
100
AcDbEntity
8
Defpoints
62
0
6
ByLayer
370
-1
48
1
60
0
100
AcDbPoint
10
-39.24994
20
-3
30
0
39
0
210
0
220
0
230
1
50
360
0
ENDBLK
5
166
100
AcDbEntity
8
0
100
AcDbBlockEnd
0
BLOCK
5
17D
100
AcDbEntity
8
0
100
AcDbBlockBegin
2
_U2
70
0
10
0
20
0
30
0
3
_U2
0
MTEXT
5
173
100
AcDbEntity
8
SK2
62
256
6
ByLayer
370
18
48
1
60
0
100
AcDbMText
10
-39.939597
20
13.157505
30
0
210
0
220
0
230
1
1
\W0.7346;6.00
40
3.50012
41
0
44
1.084337
50
90
71
7
72
5
7
iso_b_vert
0
LINE
5
174
100
AcDbEntity
8
SK2
62
256
6
ByLayer
370
13
48
1
60
0
100
AcDbLine
10
-37.5875
20
3
30
0
11
-42.42494
21
3
31
0
39
0
210
0
220
0
230
1
0
LINE
5
175
100
AcDbEntity
8
SK2
62
256
6
ByLayer
370
13
48
1
60
0
100
AcDbLine
10
-37.5875
20
-3
30
0
11
-42.42494
21
-3
31
0
39
0
210
0
220
0
230
1
0
LINE
5
176
100
AcDbEntity
8
SK2
62
256
6
ByLayer
370
13
48
1
60
0
100
AcDbLine
10
-39.24994
20
-11.7503
30
0
11
-39.24994
21
21.21468
31
0
39
0
210
0
220
0
230
1
0
LINE
5
177
100
AcDbEntity
8
SK2
62
256
6
ByLayer
370
13
48
1
60
0
100
AcDbLine
10
-39.24994
20
3
30
0
11
-39.667937
21
6.174998
31
0
39
0
210
0
220
0
230
1
0
LINE
5
178
100
AcDbEntity
8
SK2
62
256
6
ByLayer
370
13
48
1
60
0
100
AcDbLine
10
-39.24994
20
3
30
0
11
-38.831943
21
6.175002
31
0
39
0
210
0
220
0
230
1
0
LINE
5
179
100
AcDbEntity
8
SK2
62
256
6
ByLayer
370
13
48
1
60
0
100
AcDbLine
10
-39.667937
20
6.174998
30
0
11
-38.831943
21
6.175002
31
0
39
0
210
0
220
0
230
1
0
LINE
5
17A
100
AcDbEntity
8
SK2
62
256
6
ByLayer
370
13
48
1
60
0
100
AcDbLine
10
-39.24994
20
-3
30
0
11
-38.831943
21
-6.174998
31
0
39
0
210
0
220
0
230
1
0
LINE
5
17B
100
AcDbEntity
8
SK2
62
256
6
ByLayer
370
13
48
1
60
0
100
AcDbLine
10
-39.24994
20
-3
30
0
11
-39.667937
21
-6.175002
31
0
39
0
210
0
220
0
230
1
0
LINE
5
17C
100
AcDbEntity
8
SK2
62
256
6
ByLayer
370
13
48
1
60
0
100
AcDbLine
10
-38.831943
20
-6.174998
30
0
11
-39.667937
21
-6.175002
31
0
39
0
210
0
220
0
230
1
0
ENDBLK
5
17E
100
AcDbEntity
8
0
100
AcDbBlockEnd
0
BLOCK
5
183
100
AcDbEntity
8
0
100
AcDbBlockBegin
2
*D8
70
1
10
0
20
0
30
0
3
*D8
0
LINE
5
185
100
AcDbEntity
8
0
62
256
6
ByLayer
370
-2
48
1
60
0
100
AcDbLine
10
-36
20
-4.5875
30
0
11
-36
21
-29.67512
31
0
39
0
210
0
220
0
230
1
0
LINE
5
186
100
AcDbEntity
8
0
62
256
6
ByLayer
370
-2
48
1
60
0
100
AcDbLine
10
0
20
-4.5875
30
0
11
0
21
-29.67512
31
0
39
0
210
0
220
0
230
1
0
LINE
5
187
100
AcDbEntity
8
0
62
256
6
ByLayer
370
-2
48
1
60
0
100
AcDbLine
10
-32.825
20
-26.50012
30
0
11
-3.175
21
-26.50012
31
0
39
0
210
0
220
0
230
1
0
SOLID
5
188
100
AcDbEntity
8
0
62
256
6
ByLayer
370
-1
48
1
60
0
100
AcDbTrace
10
-32.825
20
-25.970953
30
0
11
-32.825
21
-27.029287
31
0
12
-36
22
-26.50012
32
0
13
-36
23
-26.50012
33
0
39
0
210
0
220
0
230
1
0
SOLID
5
189
100
AcDbEntity
8
0
62
256
6
ByLayer
370
-1
48
1
60
0
100
AcDbTrace
10
-3.175
20
-27.029287
30
0
11
-3.175
21
-25.970953
31
0
12
0
22
-26.50012
32
0
13
0
23
-26.50012
33
0
39
0
210
0
220
0
230
1
0
MTEXT
5
18A
100
AcDbEntity
8
0
62
256
6
ByLayer
370
18
48
1
60
0
100
AcDbMText
10
-18
20
-19.193619
30
0
210
0
220
0
230
1
1
\A1;36
40
3.50012
41
0
44
1
50
0
71
5
72
5
7
iso_b_vert
0
POINT
5
18B
100
AcDbEntity
8
Defpoints
62
0
6
ByLayer
370
-1
48
1
60
0
100
AcDbPoint
10
-36
20
-3
30
0
39
0
210
0
220
0
230
1
50
360
0
POINT
5
18C
100
AcDbEntity
8
Defpoints
62
0
6
ByLayer
370
-1
48
1
60
0
100
AcDbPoint
10
0
20
-3
30
0
39
0
210
0
220
0
230
1
50
360
0
POINT
5
18D
100
AcDbEntity
8
Defpoints
62
0
6
ByLayer
370
-1
48
1
60
0
100
AcDbPoint
10
0
20
-26.50012
30
0
39
0
210
0
220
0
230
1
50
360
0
ENDBLK
5
184
100
AcDbEntity
8
0
100
AcDbBlockEnd
0
BLOCK
5
199
100
AcDbEntity
8
0
100
AcDbBlockBegin
2
_U3
70
0
10
0
20
0
30
0
3
_U3
0
MTEXT
5
18F
100
AcDbEntity
8
SK2
62
256
6
ByLayer
370
18
48
1
60
0
100
AcDbMText
10
-23.229611
20
-25.467451
30
0
210
0
220
0
230
1
1
\W0.7468;36.00
40
3.50012
41
0
44
1.084337
50
0
71
7
72
5
7
iso_b_vert
0
LINE
5
190
100
AcDbEntity
8
SK2
62
256
6
ByLayer
370
13
48
1
60
0
100
AcDbLine
10
-36
20
-4.5875
30
0
11
-36
21
-29.67512
31
0
39
0
210
0
220
0
230
1
0
LINE
5
191
100
AcDbEntity
8
SK2
62
256
6
ByLayer
370
13
48
1
60
0
100
AcDbLine
10
0
20
-4.5875
30
0
11
0
21
-29.67512
31
0
39
0
210
0
220
0
230
1
0
LINE
5
192
100
AcDbEntity
8
SK2
62
256
6
ByLayer
370
13
48
1
60
0
100
AcDbLine
10
-36
20
-26.50012
30
0
11
0
21
-26.50012
31
0
39
0
210
0
220
0
230
1
0
LINE
5
193
100
AcDbEntity
8
SK2
62
256
6
ByLayer
370
13
48
1
60
0
100
AcDbLine
10
-36
20
-26.50012
30
0
11
-32.825002
21
-26.082123
31
0
39
0
210
0
220
0
230
1
0
LINE
5
194
100
AcDbEntity
8
SK2
62
256
6
ByLayer
370
13
48
1
60
0
100
AcDbLine
10
-36
20
-26.50012
30
0
11
-32.824998
21
-26.918117
31
0
39
0
210
0
220
0
230
1
0
LINE
5
195
100
AcDbEntity
8
SK2
62
256
6
ByLayer
370
13
48
1
60
0
100
AcDbLine
10
-32.825002
20
-26.082123
30
0
11
-32.824998
21
-26.918117
31
0
39
0
210
0
220
0
230
1
0
LINE
5
196
100
AcDbEntity
8
SK2
62
256
6
ByLayer
370
13
48
1
60
0
100
AcDbLine
10
0
20
-26.50012
30
0
11
-3.174998
21
-26.918117
31
0
39
0
210
0
220
0
230
1
0
LINE
5
197
100
AcDbEntity
8
SK2
62
256
6
ByLayer
370
13
48
1
60
0
100
AcDbLine
10
0
20
-26.50012
30
0
11
-3.175002
21
-26.082123
31
0
39
0
210
0
220
0
230
1
0
LINE
5
198
100
AcDbEntity
8
SK2
62
256
6
ByLayer
370
13
48
1
60
0
100
AcDbLine
10
-3.174998
20
-26.918117
30
0
11
-3.175002
21
-26.082123
31
0
39
0
210
0
220
0
230
1
0
ENDBLK
5
19A
100
AcDbEntity
8
0
100
AcDbBlockEnd
0
BLOCK
5
19F
100
AcDbEntity
8
0
100
AcDbBlockBegin
2
*D10
70
1
10
0
20
0
30
0
3
*D10
0
LINE
5
1A1
100
AcDbEntity
8
0
62
256
6
ByLayer
370
-2
48
1
60
0
100
AcDbLine
10
6
20
1.6625
30
0
11
6
21
-20.92482
31
0
39
0
210
0
220
0
230
1
0
LINE
5
1A2
100
AcDbEntity
8
0
62
256
6
ByLayer
370
-2
48
1
60
0
100
AcDbLine
10
68
20
-1.5875
30
0
11
68
21
-20.92482
31
0
39
0
210
0
220
0
230
1
0
LINE
5
1A3
100
AcDbEntity
8
0
62
256
6
ByLayer
370
-2
48
1
60
0
100
AcDbLine
10
9.175
20
-17.74982
30
0
11
64.825
21
-17.74982
31
0
39
0
210
0
220
0
230
1
0
SOLID
5
1A4
100
AcDbEntity
8
0
62
256
6
ByLayer
370
-1
48
1
60
0
100
AcDbTrace
10
9.175
20
-17.220653
30
0
11
9.175
21
-18.278987
31
0
12
6
22
-17.74982
32
0
13
6
23
-17.74982
33
0
39
0
210
0
220
0
230
1
0
SOLID
5
1A5
100
AcDbEntity
8
0
62
256
6
ByLayer
370
-1
48
1
60
0
100
AcDbTrace
10
64.825
20
-18.278987
30
0
11
64.825
21
-17.220653
31
0
12
68
22
-17.74982
32
0
13
68
23
-17.74982
33
0
39
0
210
0
220
0
230
1
0
MTEXT
5
1A6
100
AcDbEntity
8
0
62
256
6
ByLayer
370
18
48
1
60
0
100
AcDbMText
10
37
20
-10.44332
30
0
210
0
220
0
230
1
1
\A1;62
40
3.50012
41
0
44
1
50
0
71
5
72
5
7
iso_b_vert
0
POINT
5
1A7
100
AcDbEntity
8
Defpoints
62
0
6
ByLayer
370
-1
48
1
60
0
100
AcDbPoint
10
6
20
3.25
30
0
39
0
210
0
220
0
230
1
50
360
0
POINT
5
1A8
100
AcDbEntity
8
Defpoints
62
0
6
ByLayer
370
-1
48
1
60
0
100
AcDbPoint
10
68
20
0
30
0
39
0
210
0
220
0
230
1
50
360
0
POINT
5
1A9
100
AcDbEntity
8
Defpoints
62
0
6
ByLayer
370
-1
48
1
60
0
100
AcDbPoint
10
68
20
-17.74982
30
0
39
0
210
0
220
0
230
1
50
360
0
ENDBLK
5
1A0
100
AcDbEntity
8
0
100
AcDbBlockEnd
0
BLOCK
5
1B5
100
AcDbEntity
8
0
100
AcDbBlockBegin
2
_U4
70
0
10
0
20
0
30
0
3
_U4
0
MTEXT
5
1AB
100
AcDbEntity
8
SK2
62
256
6
ByLayer
370
18
48
1
60
0
100
AcDbMText
10
31.770389
20
-16.717151
30
0
210
0
220
0
230
1
1
\W0.7468;62.00
40
3.50012
41
0
44
1.084337
50
0
71
7
72
5
7
iso_b_vert
0
LINE
5
1AC
100
AcDbEntity
8
SK2
62
256
6
ByLayer
370
13
48
1
60
0
100
AcDbLine
10
6
20
1.6625
30
0
11
6
21
-20.92482
31
0
39
0
210
0
220
0
230
1
0
LINE
5
1AD
100
AcDbEntity
8
SK2
62
256
6
ByLayer
370
13
48
1
60
0
100
AcDbLine
10
68
20
-1.5875
30
0
11
68
21
-20.92482
31
0
39
0
210
0
220
0
230
1
0
LINE
5
1AE
100
AcDbEntity
8
SK2
62
256
6
ByLayer
370
13
48
1
60
0
100
AcDbLine
10
6
20
-17.74982
30
0
11
68
21
-17.74982
31
0
39
0
210
0
220
0
230
1
0
LINE
5
1AF
100
AcDbEntity
8
SK2
62
256
6
ByLayer
370
13
48
1
60
0
100
AcDbLine
10
6
20
-17.74982
30
0
11
9.174998
21
-17.331823
31
0
39
0
210
0
220
0
230
1
0
LINE
5
1B0
100
AcDbEntity
8
SK2
62
256
6
ByLayer
370
13
48
1
60
0
100
AcDbLine
10
6
20
-17.74982
30
0
11
9.175002
21
-18.167817
31
0
39
0
210
0
220
0
230
1
0
LINE
5
1B1
100
AcDbEntity
8
SK2
62
256
6
ByLayer
370
13
48
1
60
0
100
AcDbLine
10
9.174998
20
-17.331823
30
0
11
9.175002
21
-18.167817
31
0
39
0
210
0
220
0
230
1
0
LINE
5
1B2
100
AcDbEntity
8
SK2
62
256
6
ByLayer
370
13
48
1
60
0
100
AcDbLine
10
68
20
-17.74982
30
0
11
64.825002
21
-18.167817
31
0
39
0
210
0
220
0
230
1
0
LINE
5
1B3
100
AcDbEntity
8
SK2
62
256
6
ByLayer
370
13
48
1
60
0
100
AcDbLine
10
68
20
-17.74982
30
0
11
64.824998
21
-17.331823
31
0
39
0
210
0
220
0
230
1
0
LINE
5
1B4
100
AcDbEntity
8
SK2
62
256
6
ByLayer
370
13
48
1
60
0
100
AcDbLine
10
64.825002
20
-18.167817
30
0
11
64.824998
21
-17.331823
31
0
39
0
210
0
220
0
230
1
0
ENDBLK
5
1B6
100
AcDbEntity
8
0
100
AcDbBlockEnd
0
BLOCK
5
1BB
100
AcDbEntity
8
0
100
AcDbBlockBegin
2
*D12
70
1
10
0
20
0
30
0
3
*D12
0
LINE
5
1BD
100
AcDbEntity
8
0
62
256
6
ByLayer
370
-2
48
1
60
0
100
AcDbLine
10
22.6
20
-4.3375
30
0
11
22.6
21
-10.32
31
0
39
0
210
0
220
0
230
1
0
LINE
5
1BE
100
AcDbEntity
8
0
62
256
6
ByLayer
370
-2
48
1
60
0
100
AcDbLine
10
68
20
-1.5875
30
0
11
68
21
-10.32
31
0
39
0
210
0
220
0
230
1
0
LINE
5
1BF
100
AcDbEntity
8
0
62
256
6
ByLayer
370
-2
48
1
60
0
100
AcDbLine
10
25.775
20
-9.82
30
0
11
64.825
21
-9.82
31
0
39
0
210
0
220
0
230
1
0
SOLID
5
1C0
100
AcDbEntity
8
0
62
256
6
ByLayer
370
-1
48
1
60
0
100
AcDbTrace
10
25.775
20
-9.290833
30
0
11
25.775
21
-10.349167
31
0
12
22.6
22
-9.82
32
0
13
22.6
23
-9.82
33
0
39
0
210
0
220
0
230
1
0
SOLID
5
1C1
100
AcDbEntity
8
0
62
256
6
ByLayer
370
-1
48
1
60
0
100
AcDbTrace
10
64.825
20
-10.349167
30
0
11
64.825
21
-9.290833
31
0
12
68
22
-9.82
32
0
13
68
23
-9.82
33
0
39
0
210
0
220
0
230
1
0
MTEXT
5
1C2
100
AcDbEntity
8
0
62
256
6
ByLayer
370
18
48
1
60
0
100
AcDbMText
10
45.3
20
-3.975
30
0
210
0
220
0
230
1
1
\A1;45.4
40
2.8
41
0
44
1
50
0
71
5
72
5
7
iso_b_vert
0
POINT
5
1C3
100
AcDbEntity
8
Defpoints
62
0
6
ByLayer
370
-1
48
1
60
0
100
AcDbPoint
10
22.6
20
-2.75
30
0
39
0
210
0
220
0
230
1
50
360
0
POINT
5
1C4
100
AcDbEntity
8
Defpoints
62
0
6
ByLayer
370
-1
48
1
60
0
100
AcDbPoint
10
68
20
0
30
0
39
0
210
0
220
0
230
1
50
360
0
POINT
5
1C5
100
AcDbEntity
8
Defpoints
62
0
6
ByLayer
370
-1
48
1
60
0
100
AcDbPoint
10
68
20
-9.82
30
0
39
0
210
0
220
0
230
1
50
360
0
ENDBLK
5
1BC
100
AcDbEntity
8
0
100
AcDbBlockEnd
0
BLOCK
5
1D1
100
AcDbEntity
8
0
100
AcDbBlockBegin
2
_U5
70
0
10
0
20
0
30
0
3
_U5
0
MTEXT
5
1C7
100
AcDbEntity
8
SK2
62
256
6
ByLayer
370
18
48
1
60
0
100
AcDbMText
10
40.821628
20
-9.973893
30
0
210
0
220
0
230
1
1
\W0.7958;45.40
40
2.8
41
0
44
1.084337
50
0
71
7
72
5
7
iso_b_vert
0
LINE
5
1C8
100
AcDbEntity
8
SK2
62
256
6
ByLayer
370
13
48
1
60
0
100
AcDbLine
10
22.6
20
-4.3375
30
0
11
22.6
21
-10.32
31
0
39
0
210
0
220
0
230
1
0
LINE
5
1C9
100
AcDbEntity
8
SK2
62
256
6
ByLayer
370
13
48
1
60
0
100
AcDbLine
10
68
20
-1.5875
30
0
11
68
21
-10.32
31
0
39
0
210
0
220
0
230
1
0
LINE
5
1CA
100
AcDbEntity
8
SK2
62
256
6
ByLayer
370
13
48
1
60
0
100
AcDbLine
10
22.6
20
-9.82
30
0
11
68
21
-9.82
31
0
39
0
210
0
220
0
230
1
0
LINE
5
1CB
100
AcDbEntity
8
SK2
62
256
6
ByLayer
370
13
48
1
60
0
100
AcDbLine
10
22.6
20
-9.82
30
0
11
25.774998
21
-9.402003
31
0
39
0
210
0
220
0
230
1
0
LINE
5
1CC
100
AcDbEntity
8
SK2
62
256
6
ByLayer
370
13
48
1
60
0
100
AcDbLine
10
22.6
20
-9.82
30
0
11
25.775002
21
-10.237997
31
0
39
0
210
0
220
0
230
1
0
LINE
5
1CD
100
AcDbEntity
8
SK2
62
256
6
ByLayer
370
13
48
1
60
0
100
AcDbLine
10
25.774998
20
-9.402003
30
0
11
25.775002
21
-10.237997
31
0
39
0
210
0
220
0
230
1
0
LINE
5
1CE
100
AcDbEntity
8
SK2
62
256
6
ByLayer
370
13
48
1
60
0
100
AcDbLine
10
68
20
-9.82
30
0
11
64.825002
21
-10.237997
31
0
39
0
210
0
220
0
230
1
0
LINE
5
1CF
100
AcDbEntity
8
SK2
62
256
6
ByLayer
370
13
48
1
60
0
100
AcDbLine
10
68
20
-9.82
30
0
11
64.824998
21
-9.402003
31
0
39
0
210
0
220
0
230
1
0
LINE
5
1D0
100
AcDbEntity
8
SK2
62
256
6
ByLayer
370
13
48
1
60
0
100
AcDbLine
10
64.825002
20
-10.237997
30
0
11
64.824998
21
-9.402003
31
0
39
0
210
0
220
0
230
1
0
ENDBLK
5
1D2
100
AcDbEntity
8
0
100
AcDbBlockEnd
0
BLOCK
5
1D7
100
AcDbEntity
8
0
100
AcDbBlockBegin
2
*D14
70
1
10
0
20
0
30
0
3
*D14
0
LINE
5
1D9
100
AcDbEntity
8
0
62
256
6
ByLayer
370
-2
48
1
60
0
100
AcDbLine
10
-36
20
-1.5875
30
0
11
-36
21
-39.67512
31
0
39
0
210
0
220
0
230
1
0
LINE
5
1DA
100
AcDbEntity
8
0
62
256
6
ByLayer
370
-2
48
1
60
0
100
AcDbLine
10
68
20
-1.5875
30
0
11
68
21
-39.67512
31
0
39
0
210
0
220
0
230
1
0
LINE
5
1DB
100
AcDbEntity
8
0
62
256
6
ByLayer
370
-2
48
1
60
0
100
AcDbLine
10
-32.825
20
-36.50012
30
0
11
64.825
21
-36.50012
31
0
39
0
210
0
220
0
230
1
0
SOLID
5
1DC
100
AcDbEntity
8
0
62
256
6
ByLayer
370
-1
48
1
60
0
100
AcDbTrace
10
-32.825
20
-35.970953
30
0
11
-32.825
21
-37.029287
31
0
12
-36
22
-36.50012
32
0
13
-36
23
-36.50012
33
0
39
0
210
0
220
0
230
1
0
SOLID
5
1DD
100
AcDbEntity
8
0
62
256
6
ByLayer
370
-1
48
1
60
0
100
AcDbTrace
10
64.825
20
-37.029287
30
0
11
64.825
21
-35.970953
31
0
12
68
22
-36.50012
32
0
13
68
23
-36.50012
33
0
39
0
210
0
220
0
230
1
0
MTEXT
5
1DE
100
AcDbEntity
8
0
62
256
6
ByLayer
370
18
48
1
60
0
100
AcDbMText
10
16
20
-29.193619
30
0
210
0
220
0
230
1
1
\A1;104
40
3.50012
41
0
44
1
50
0
71
5
72
5
7
iso_b_vert
0
POINT
5
1DF
100
AcDbEntity
8
Defpoints
62
0
6
ByLayer
370
-1
48
1
60
0
100
AcDbPoint
10
-36
20
0
30
0
39
0
210
0
220
0
230
1
50
360
0
POINT
5
1E0
100
AcDbEntity
8
Defpoints
62
0
6
ByLayer
370
-1
48
1
60
0
100
AcDbPoint
10
68
20
0
30
0
39
0
210
0
220
0
230
1
50
360
0
POINT
5
1E1
100
AcDbEntity
8
Defpoints
62
0
6
ByLayer
370
-1
48
1
60
0
100
AcDbPoint
10
68
20
-36.50012
30
0
39
0
210
0
220
0
230
1
50
360
0
ENDBLK
5
1D8
100
AcDbEntity
8
0
100
AcDbBlockEnd
0
BLOCK
5
1ED
100
AcDbEntity
8
0
100
AcDbBlockBegin
2
_U6
70
0
10
0
20
0
30
0
3
_U6
0
MTEXT
5
1E3
100
AcDbEntity
8
SK2
62
256
6
ByLayer
370
18
48
1
60
0
100
AcDbMText
10
9.715786
20
-35.467451
30
0
210
0
220
0
230
1
1
\W0.7237;104.00
40
3.50012
41
0
44
1.084337
50
0
71
7
72
5
7
iso_b_vert
0
LINE
5
1E4
100
AcDbEntity
8
SK2
62
256
6
ByLayer
370
13
48
1
60
0
100
AcDbLine
10
-36
20
-1.5875
30
0
11
-36
21
-39.67512
31
0
39
0
210
0
220
0
230
1
0
LINE
5
1E5
100
AcDbEntity
8
SK2
62
256
6
ByLayer
370
13
48
1
60
0
100
AcDbLine
10
68
20
-1.5875
30
0
11
68
21
-39.67512
31
0
39
0
210
0
220
0
230
1
0
LINE
5
1E6
100
AcDbEntity
8
SK2
62
256
6
ByLayer
370
13
48
1
60
0
100
AcDbLine
10
-36
20
-36.50012
30
0
11
68
21
-36.50012
31
0
39
0
210
0
220
0
230
1
0
LINE
5
1E7
100
AcDbEntity
8
SK2
62
256
6
ByLayer
370
13
48
1
60
0
100
AcDbLine
10
-36
20
-36.50012
30
0
11
-32.825002
21
-36.082123
31
0
39
0
210
0
220
0
230
1
0
LINE
5
1E8
100
AcDbEntity
8
SK2
62
256
6
ByLayer
370
13
48
1
60
0
100
AcDbLine
10
-36
20
-36.50012
30
0
11
-32.824998
21
-36.918117
31
0
39
0
210
0
220
0
230
1
0
LINE
5
1E9
100
AcDbEntity
8
SK2
62
256
6
ByLayer
370
13
48
1
60
0
100
AcDbLine
10
-32.825002
20
-36.082123
30
0
11
-32.824998
21
-36.918117
31
0
39
0
210
0
220
0
230
1
0
LINE
5
1EA
100
AcDbEntity
8
SK2
62
256
6
ByLayer
370
13
48
1
60
0
100
AcDbLine
10
68
20
-36.50012
30
0
11
64.825002
21
-36.918117
31
0
39
0
210
0
220
0
230
1
0
LINE
5
1EB
100
AcDbEntity
8
SK2
62
256
6
ByLayer
370
13
48
1
60
0
100
AcDbLine
10
68
20
-36.50012
30
0
11
64.824998
21
-36.082123
31
0
39
0
210
0
220
0
230
1
0
LINE
5
1EC
100
AcDbEntity
8
SK2
62
256
6
ByLayer
370
13
48
1
60
0
100
AcDbLine
10
64.825002
20
-36.918117
30
0
11
64.824998
21
-36.082123
31
0
39
0
210
0
220
0
230
1
0
ENDBLK
5
1EE
100
AcDbEntity
8
0
100
AcDbBlockEnd
0
ENDSEC
0
SECTION
2
ENTITIES
0
ARC
5
BA
100
AcDbEntity
8
1
62
256
6
ByLayer
370
18
48
1
60
0
100
AcDbCircle
39
0
10
0.920492
20
3.5087
30
0
40
0.800000000000005
210
0
220
0
230
1
100
AcDbArc
50
234.878843
51
270.03581
0
ARC
5
BB
100
AcDbEntity
8
1
62
256
6
ByLayer
370
18
48
1
60
0
100
AcDbCircle
39
0
10
0.920492
20
-3.5087
30
0
40
0.800000000000005
210
0
220
0
230
1
100
AcDbArc
50
89.96419
51
125.121157
0
ARC
5
BC
100
AcDbEntity
8
1
62
256
6
ByLayer
370
18
48
1
60
0
100
AcDbCircle
39
0
10
0
20
2.2
30
0
40
0.799999999999998
210
0
220
0
230
1
100
AcDbArc
50
54.878843
51
90
0
ARC
5
BD
100
AcDbEntity
8
1
62
256
6
ByLayer
370
18
48
1
60
0
100
AcDbCircle
39
0
10
0
20
-2.2
30
0
40
0.799999999999998
210
0
220
0
230
1
100
AcDbArc
50
270
51
305.121157
0
ARC
5
BE
100
AcDbEntity
8
SK2
62
256
6
ByLayer
370
13
48
1
60
0
100
AcDbCircle
39
0
10
68
20
0
30
0
40
20
210
0
220
0
230
1
100
AcDbArc
50
9.606349
51
70.000334
0
ARC
5
BF
100
AcDbEntity
8
SK2
62
256
6
ByLayer
370
13
48
1
60
0
100
AcDbCircle
39
0
10
68
20
0
30
0
40
20
210
0
220
0
230
1
100
AcDbArc
50
289.999666
51
350.393651
0
ELLIPSE
5
C0
100
AcDbEntity
8
1
62
256
6
ByLayer
370
18
48
1
60
0
100
AcDbEllipse
10
40.602062
20
2.696734
30
0
11
0.1
21
0
31
0
210
0
220
0
230
1
40
1
41
-3.14159137111627
42
-1.56172158255157
0
ELLIPSE
5
C1
100
AcDbEntity
8
1
62
256
6
ByLayer
370
18
48
1
60
0
100
AcDbEllipse
10
40.602062
20
-2.696734
30
0
11
0.1
21
0
31
0
210
0
220
0
230
1
40
1
41
2.70033137099255
42
3.14159137111628
0
POINT
5
70
100
AcDbEntity
8
80
62
256
6
ByLayer
370
18
48
1
60
0
100
AcDbPoint
10
0
20
0
30
0
39
0
210
0
220
0
230
1
50
360
0
POINT
5
72
100
AcDbEntity
8
81
62
256
6
ByLayer
370
18
48
1
60
0
100
AcDbPoint
10
68
20
0
30
0
39
0
210
0
220
0
230
1
50
360
0
POINT
5
74
100
AcDbEntity
8
1
62
256
6
ByLayer
370
18
48
1
60
0
100
AcDbPoint
10
-36
20
0
30
0
39
0
210
0
220
0
230
1
50
360
0
POINT
5
76
100
AcDbEntity
8
1
62
256
6
ByLayer
370
18
48
1
60
1
100
AcDbPoint
10
0
20
-3
30
0
39
0
210
0
220
0
230
1
50
360
0
POINT
5
77
100
AcDbEntity
8
1
62
256
6
ByLayer
370
18
48
1
60
1
100
AcDbPoint
10
68
20
0
30
0
39
0
210
0
220
0
230
1
50
360
0
POINT
5
78
100
AcDbEntity
8
1
62
256
6
ByLayer
370
18
48
1
60
1
100
AcDbPoint
10
66.9991
20
-2.75
30
0
39
0
210
0
220
0
230
1
50
360
0
POINT
5
79
100
AcDbEntity
8
1
62
256
6
ByLayer
370
18
48
1
60
1
100
AcDbPoint
10
66.9991
20
2.75
30
0
39
0
210
0
220
0
230
1
50
360
0
POINT
5
7A
100
AcDbEntity
8
1
62
256
6
ByLayer
370
18
48
1
60
1
100
AcDbPoint
10
-36
20
3
30
0
39
0
210
0
220
0
230
1
50
360
0
POINT
5
7B
100
AcDbEntity
8
1
62
256
6
ByLayer
370
18
48
1
60
1
100
AcDbPoint
10
-36
20
-3
30
0
39
0
210
0
220
0
230
1
50
360
0
POINT
5
7C
100
AcDbEntity
8
1
62
256
6
ByLayer
370
18
48
1
60
1
100
AcDbPoint
10
-36
20
-3
30
0
39
0
210
0
220
0
230
1
50
360
0
POINT
5
7D
100
AcDbEntity
8
1
62
256
6
ByLayer
370
18
48
1
60
1
100
AcDbPoint
10
0
20
-3
30
0
39
0
210
0
220
0
230
1
50
360
0
POINT
5
7E
100
AcDbEntity
8
1
62
256
6
ByLayer
370
18
48
1
60
1
100
AcDbPoint
10
6
20
3.25
30
0
39
0
210
0
220
0
230
1
50
360
0
POINT
5
7F
100
AcDbEntity
8
1
62
256
6
ByLayer
370
18
48
1
60
1
100
AcDbPoint
10
68
20
0
30
0
39
0
210
0
220
0
230
1
50
360
0
POINT
5
80
100
AcDbEntity
8
1
62
256
6
ByLayer
370
18
48
1
60
1
100
AcDbPoint
10
22.6
20
-2.75
30
0
39
0
210
0
220
0
230
1
50
360
0
POINT
5
81
100
AcDbEntity
8
1
62
256
6
ByLayer
370
18
48
1
60
1
100
AcDbPoint
10
68
20
0
30
0
39
0
210
0
220
0
230
1
50
360
0
POINT
5
82
100
AcDbEntity
8
1
62
256
6
ByLayer
370
18
48
1
60
1
100
AcDbPoint
10
-36
20
0
30
0
39
0
210
0
220
0
230
1
50
360
0
POINT
5
83
100
AcDbEntity
8
1
62
256
6
ByLayer
370
18
48
1
60
1
100
AcDbPoint
10
68
20
0
30
0
39
0
210
0
220
0
230
1
50
360
0
SPLINE
5
C2
100
AcDbEntity
8
1
62
256
6
ByLayer
370
18
48
1
60
0
100
AcDbSpline
70
4
71
3
72
10
73
6
40
0
40
0
40
0
40
0
40
0.373917846113658
40
0.373917846113658
40
1
40
1
40
1
40
1
41
1
10
40.5107359787894
20
2.65534056832746
30
-1E-16
41
1
10
40.5190466623668
20
2.65090686735584
30
-1E-16
41
1
10
40.5329311150528
20
2.64690825360282
30
-1E-16
41
1
10
40.5803069364958
20
2.63973929325849
30
-1E-16
41
1
10
40.6184919793032
20
2.63949046537843
30
-1E-16
41
1
10
40.6491026957964
20
2.64365874695
30
-1E-16
0
SPLINE
5
C3
100
AcDbEntity
8
1
62
256
6
ByLayer
370
18
48
1
60
0
100
AcDbSpline
70
4
71
3
72
10
73
6
40
0
40
0
40
0
40
0
40
0.5
40
0.5
40
1
40
1
40
1
40
1
41
1
10
40.5020617079268
20
-2.66463344984229
30
1E-16
41
1
10
40.5020617079268
20
-2.65689949556534
30
1E-16
41
1
10
40.5209846238334
20
-2.64871600952551
30
1E-16
41
1
10
40.5803069364957
20
-2.63973929325849
30
1E-16
41
1
10
40.6184919793032
20
-2.63949046537843
30
1E-16
41
1
10
40.6491026957964
20
-2.64365874695
30
1E-16
0
SPLINE
5
C4
100
AcDbEntity
8
1
62
256
6
ByLayer
370
18
48
1
60
0
100
AcDbSpline
70
4
71
3
72
8
73
4
40
0
40
0
40
0
40
0
40
1
40
1
40
1
40
1
41
1
10
66.8651714799489
20
2.71505965347006
30
0
41
1
10
66.9092216582712
20
2.68995810322224
30
0
41
1
10
66.9533712723822
20
2.66437984503133
30
0
41
1
10
66.9976351494228
20
2.63833440199195
30
0
0
SPLINE
5
C5
100
AcDbEntity
8
1
62
256
6
ByLayer
370
18
48
1
60
0
100
AcDbSpline
70
4
71
3
72
10
73
6
40
0
40
0
40
0
40
0
40
0.588346152833406
40
0.588346152833406
40
1
40
1
40
1
40
1
41
1
10
12.9267043246439
20
-1.56168448470908
30
0
41
1
10
12.0028190742919
20
-1.76057696640527
30
0
41
1
10
11.085340138156
20
-1.95859488546787
30
0
41
1
10
9.53892373450464
20
-2.28783938052052
30
0
41
1
10
8.90602516613728
20
-2.42127490141255
30
0
41
1
10
8.27650452157411
20
-2.55201795035299
30
0
0
SPLINE
5
C6
100
AcDbEntity
8
1
62
256
6
ByLayer
370
18
48
1
60
0
100
AcDbSpline
70
4
71
3
72
20
73
16
40
0
40
0
40
0
40
0
40
0.266973089520946
40
0.266973089520946
40
0.400459634281403
40
0.400459634281403
40
0.533946179041861
40
0.533946179041861
40
0.667432723802318
40
0.667432723802318
40
0.800919268562774
40
0.800919268562774
40
0.93440581332323
40
0.93440581332323
40
1
40
1
40
1
40
1
41
1
10
66.8716675780387
20
0.454926983995392
30
0
41
1
10
66.8351605569196
20
0.487100939883362
30
0
41
1
10
66.7997880370217
20
0.517468006720861
30
0
41
1
10
66.750528914569
20
0.558189128824637
30
0
41
1
10
66.7346768789805
20
0.57102100906809
30
0
41
1
10
66.7036464321654
20
0.595804484962855
30
0
41
1
10
66.6884695711055
20
0.607754054874079
30
0
41
1
10
66.6595925700551
20
0.629723432535002
30
0
41
1
10
66.6459019239165
20
0.639730833827969
30
0
41
1
10
66.6203551830431
20
0.657348265674528
30
0
41
1
10
66.6084509213704
20
0.6649633978233
30
0
41
1
10
66.5875142929911
20
0.676886566329131
30
0
41
1
10
66.5780667652407
20
0.681658885193201
30
0
41
1
10
66.5649227017849
20
0.687674261368954
30
0
41
1
10
66.5608966999369
20
0.689293223801911
30
0
41
1
10
66.5573018551045
20
0.690414229663674
30
0
0
SPLINE
5
C7
100
AcDbEntity
8
1
62
256
6
ByLayer
370
18
48
1
60
0
100
AcDbSpline
70
4
71
3
72
8
73
4
40
0
40
0
40
0
40
0
40
1
40
1
40
1
40
1
41
1
10
40.5555543151472
20
1.31582460732093
30
-1E-16
41
1
10
40.5231836541032
20
1.33072070239402
30
-1E-16
41
1
10
40.5020617079265
20
1.36125039841969
30
-1E-16
41
1
10
40.5020617079266
20
1.39271391910273
30
-1E-16
0
SPLINE
5
C8
100
AcDbEntity
8
1
62
256
6
ByLayer
370
18
48
1
60
0
100
AcDbSpline
70
4
71
3
72
8
73
4
40
0
40
0
40
0
40
0
40
1
40
1
40
1
40
1
41
1
10
66.6377315972163
20
-0.0638882565378935
30
0
41
1
10
66.6324412074243
20
0.0652587716084554
30
0
41
1
10
66.6314177305356
20
0.193942915824579
30
0
41
1
10
66.6361515740471
20
0.322161815715162
30
0
0
SPLINE
5
C9
100
AcDbEntity
8
1
62
256
6
ByLayer
370
18
48
1
60
0
100
AcDbSpline
70
4
71
3
72
32
73
28
40
0
40
0
40
0
40
0
40
0.0618032518278686
40
0.0618032518278686
40
0.191846523927833
40
0.191846523927833
40
0.256868159977815
40
0.256868159977815
40
0.321889796027798
40
0.321889796027798
40
0.45193306812776
40
0.45193306812776
40
0.516954704177741
40
0.516954704177741
40
0.581976340227722
40
0.581976340227722
40
0.646997976277703
40
0.646997976277703
40
0.712019612327684
40
0.712019612327684
40
0.842062884427643
40
0.842062884427643
40
0.907084520477623
40
0.907084520477623
40
0.972106156527602
40
0.972106156527602
40
1
40
1
40
1
40
1
41
1
10
59.5439712227066
20
-0.391196976537316
30
0
41
1
10
59.2794005070362
20
-0.258477580507275
30
0
41
1
10
59.0147496728491
20
-0.124095320056057
30
0
41
1
10
58.1954975883001
20
0.291668894753201
30
0
41
1
10
57.64247623921
20
0.57185457524119
30
0
41
1
10
56.8081515825511
20
0.973072849017967
30
-1E-16
41
1
10
56.5304198294742
20
1.10297967563349
30
-1E-16
41
1
10
55.9781707834152
20
1.35101490315597
30
-1E-16
41
1
10
55.7030632429297
20
1.46941518503488
30
-1E-16
41
1
10
54.878900313306
20
1.80419097849295
30
-1E-16
41
1
10
54.3308711980632
20
2.00013500719803
30
1E-16
41
1
10
53.5025915826583
20
2.2418625298962
30
1E-16
41
1
10
53.2248978048858
20
2.31375677310845
30
1E-16
41
1
10
52.6685664787516
20
2.43671756089654
30
1E-16
41
1
10
52.3911767529502
20
2.48764695693427
30
0
41
1
10
51.8363526811003
20
2.56806042958877
30
0
41
1
10
51.5589406489634
20
2.59748360818031
30
0
41
1
10
51.0026700937769
20
2.63434861122823
30
0
41
1
10
50.724685860699
20
2.64172050120388
30
0
41
1
10
49.8959004843687
20
2.63090545876514
30
0
41
1
10
49.3477305282788
20
2.57948707484977
30
0
41
1
10
48.523819810081
20
2.43773781231823
30
1E-16
41
1
10
48.2488890270348
20
2.37957012468124
30
1E-16
41
1
10
47.6969357772132
20
2.24363627603123
30
1E-16
41
1
10
47.419378756997
20
2.16576499052823
30
1E-16
41
1
10
47.0219366356239
20
2.04181369292124
30
1E-16
41
1
10
46.9029193923263
20
2.00305203663052
30
1E-16
41
1
10
46.784144047514
20
1.9628306263547
30
1E-16
0
SPLINE
5
CA
100
AcDbEntity
8
1
62
256
6
ByLayer
370
18
48
1
60
0
100
AcDbSpline
70
4
71
3
72
34
73
30
40
0
40
0
40
0
40
0
40
0.329602564852976
40
0.329602564852976
40
0.554178906668203
40
0.554178906668203
40
0.703902973990247
40
0.703902973990247
40
0.80372820453578
40
0.80372820453578
40
0.870271518935799
40
0.870271518935799
40
0.914611545890793
40
0.914611545890793
40
0.94423818875941
40
0.94423818875941
40
0.964090107524501
40
0.964090107524501
40
0.977280130005342
40
0.977280130005342
40
0.985950129280565
40
0.985950129280565
40
0.991666184820244
40
0.991666184820244
40
0.995572862470332
40
0.995572862470332
40
0.998830476195928
40
0.998830476195928
40
1
40
1
40
1
40
1
41
1
10
66.8763253535716
20
2.74953309236378
30
0
41
1
10
66.8945516209594
20
2.73760392576239
30
0
41
1
10
66.9128006991284
20
2.72559445968594
30
0
41
1
10
66.9435086294713
20
2.70528039698712
30
0
41
1
10
66.9559593186227
20
2.69701484932821
30
0
41
1
10
66.9767150894595
20
2.6831882842223
30
0
41
1
10
66.9850188030487
20
2.67764402878666
30
0
41
1
10
66.998858777888
20
2.66838228146875
30
0
41
1
10
67.0043934457904
20
2.66467286307176
30
0
41
1
10
67.0136351879492
20
2.65846937129612
30
0
41
1
10
67.0173365892462
20
2.65598228609252
30
0
41
1
10
67.0235183060797
20
2.65182453355399
30
0
41
1
10
67.0259943554042
20
2.65015811063893
30
0
41
1
10
67.0301071477709
20
2.6473884101724
30
0
41
1
10
67.0317499036716
20
2.6462816534976
30
0
41
1
10
67.0344753303761
20
2.64444459630218
30
0
41
1
10
67.0355628857208
20
2.64371128063365
30
0
41
1
10
67.0373950713181
20
2.64247556509613
30
0
41
1
10
67.0381324593716
20
2.64197815742884
30
0
41
1
10
67.0393673915859
20
2.64114506502091
30
0
41
1
10
67.0398613803627
20
2.64081180630865
30
0
41
1
10
67.0406829661302
20
2.6402575060842
30
0
41
1
10
67.0410094875305
20
2.64003719882064
30
0
41
1
10
67.0415526186009
20
2.63967067267183
30
0
41
1
10
67.041771595143
20
2.63952287972799
30
0
41
1
10
67.0421631491127
20
2.63925852923987
30
0
41
1
10
67.0423386259419
20
2.63914003092003
30
0
41
1
10
67.0425601408611
20
2.63899033469485
30
0
41
1
10
67.0426170658124
20
2.63895185391817
30
0
41
1
10
67.0426707383316
20
2.63891555223813
30
0
0
SPLINE
5
CB
100
AcDbEntity
8
1
62
256
6
ByLayer
370
18
48
1
60
0
100
AcDbSpline
70
4
71
3
72
22
73
18
40
0
40
0
40
0
40
0
40
0.151357264580481
40
0.151357264580481
40
0.302714529160962
40
0.302714529160962
40
0.454071793741444
40
0.454071793741444
40
0.605429058321925
40
0.605429058321925
40
0.681107690612165
40
0.681107690612165
40
0.756786322902406
40
0.756786322902406
40
0.908143587482887
40
0.908143587482887
40
1
40
1
40
1
40
1
41
1
10
67.9505835736387
20
0.042686248153899
30
0
41
1
10
67.935805901111
20
-0.006617680959863
30
0
41
1
10
67.9190056188118
20
-0.0549116633334847
30
0
41
1
10
67.8813514739691
20
-0.149403011234824
30
0
41
1
10
67.8602260465733
20
-0.196036875291526
30
0
41
1
10
67.8160232298407
20
-0.281907630043435
30
0
41
1
10
67.792713817098
20
-0.321825109052668
30
0
41
1
10
67.7438876763709
20
-0.394146638837043
30
0
41
1
10
67.7196033420489
20
-0.42474880968058
30
0
41
1
10
67.6833152787802
20
-0.462217425891737
30
0
41
1
10
67.6711481634088
20
-0.473341842495529
30
0
41
1
10
67.6475695721401
20
-0.491980201126467
30
0
41
1
10
67.6360918518026
20
-0.499584650512588
30
0
41
1
10
67.6024716447818
20
-0.517421896454721
30
0
41
1
10
67.5810256798896
20
-0.522547794461985
30
0
41
1
10
67.5495739151894
20
-0.520319444170667
30
0
41
1
10
67.5382019269368
20
-0.517091623772131
30
0
41
1
10
67.527416990827
20
-0.511740624954086
30
0
0
SPLINE
5
CC
100
AcDbEntity
8
1
62
256
6
ByLayer
370
18
48
1
60
0
100
AcDbSpline
70
4
71
3
72
8
73
4
40
0
40
0
40
0
40
0
40
1
40
1
40
1
40
1
41
1
10
67.4888884832459
20
-0.481255938383242
30
0
41
1
10
67.4794891233237
20
-0.470766075721798
30
0
41
1
10
67.4706323872669
20
-0.458415005873348
30
0
41
1
10
67.4622112223414
20
-0.444360864104311
30
0
0
SPLINE
5
CD
100
AcDbEntity
8
1
62
256
6
ByLayer
370
18
48
1
60
0
100
AcDbSpline
70
4
71
3
72
14
73
10
40
0
40
0
40
0
40
0
40
0.270297153604244
40
0.270297153604244
40
0.504877811042764
40
0.504877811042764
40
0.780633004530309
40
0.780633004530309
40
1
40
1
40
1
40
1
41
1
10
66.7013198905812
20
-0.0930448286168257
30
0
41
1
10
66.7020493716384
20
-0.0933607622072827
30
0
41
1
10
66.7027612590492
20
-0.094050103282683
30
0
41
1
10
66.7039405994069
20
-0.0957737177704701
30
0
41
1
10
66.7044441620724
20
-0.0967736185319268
30
0
41
1
10
66.7053786406789
20
-0.0992159736869951
30
0
41
1
10
66.7057962648131
20
-0.10074286552566
30
0
41
1
10
66.7063094997834
20
-0.103658712414557
30
0
41
1
10
66.7064584168456
20
-0.105046244652243
30
0
41
1
10
66.706498796493
20
-0.106432513958254
30
0
0
SPLINE
5
CE
100
AcDbEntity
8
1
62
256
6
ByLayer
370
18
48
1
60
0
100
AcDbSpline
70
4
71
3
72
34
73
30
40
0
40
0
40
0
40
0
40
0.105928931237115
40
0.105928931237115
40
0.211857862474229
40
0.211857862474229
40
0.317786793711344
40
0.317786793711344
40
0.370751259329902
40
0.370751259329902
40
0.423715724948459
40
0.423715724948459
40
0.529644656185574
40
0.529644656185574
40
0.582609121804131
40
0.582609121804131
40
0.60909135461341
40
0.60909135461341
40
0.635573587422688
40
0.635573587422688
40
0.741502518659799
40
0.741502518659799
40
0.794466984278354
40
0.794466984278354
40
0.820949217087633
40
0.820949217087633
40
0.847431449896912
40
0.847431449896912
40
1
40
1
40
1
40
1
41
1
10
66.8651714799502
20
-2.71505965347234
30
0
41
1
10
66.3144192673046
20
-2.66842806499184
30
1E-16
41
1
10
65.7650828628762
20
-2.57629894650165
30
-1E-16
41
1
10
64.6603782329295
20
-2.30793277928657
30
-1E-16
41
1
10
64.1148397078821
20
-2.13393443210248
30
-1E-16
41
1
10
63.0246111249223
20
-1.72394075756867
30
1E-16
41
1
10
62.4806253666269
20
-1.48693815083376
30
1E-16
41
1
10
61.6564883957251
20
-1.09800387588334
30
1E-16
41
1
10
61.379580138097
20
-0.961949159845403
30
1E-16
41
1
10
60.8296559927847
20
-0.684980251854711
30
0
41
1
10
60.5560280974348
20
-0.543823677680621
30
0
41
1
10
59.7370773417071
20
-0.11634846989844
30
0
41
1
10
59.1937057966439
20
0.174012026481506
30
0
41
1
10
58.3735930062135
20
0.600271255120362
30
0
41
1
10
58.0994546385708
20
0.740956489744434
30
0
41
1
10
57.6858812423706
20
0.947527039898802
30
-1E-16
41
1
10
57.5475396214528
20
1.01567083095324
30
-1E-16
41
1
10
57.2721296069035
20
1.14901245519445
30
-1E-16
41
1
10
57.1347838222635
20
1.21434957009868
30
-1E-16
41
1
10
56.4493871406619
20
1.53367265656945
30
-1E-16
41
1
10
55.9055486355866
20
1.7659011272747
30
-1E-16
41
1
10
55.0876320487404
20
2.06620489963751
30
1E-16
41
1
10
54.8145805208034
20
2.15824320025985
30
1E-16
41
1
10
54.4033725732788
20
2.28279258211054
30
1E-16
41
1
10
54.2660347018603
20
2.32206180406627
30
1E-16
41
1
10
53.9906838294424
20
2.39589139423805
30
1E-16
41
1
10
53.8523790261384
20
2.43050371121075
30
1E-16
41
1
10
52.9199021384767
20
2.64609671479209
30
0
41
1
10
52.138077652617
20
2.73997065333137
30
0
41
1
10
51.351863553975
20
2.74013470279561
30
0
0
SPLINE
5
CF
100
AcDbEntity
8
1
62
256
6
ByLayer
370
18
48
1
60
0
100
AcDbSpline
70
4
71
3
72
10
73
6
40
0
40
0
40
0
40
0
40
0.5
40
0.5
40
1
40
1
40
1
40
1
41
1
10
66.865171479946
20
2.71505965347359
30
0
41
1
10
66.8673132971828
20
2.72536584702374
30
0
41
1
10
66.8693448780346
20
2.73342198827726
30
0
41
1
10
66.8730415138498
20
2.74495352798661
30
0
41
1
10
66.8747374041475
20
2.7484289311605
30
0
41
1
10
66.8763253535717
20
2.74953309236375
30
0
0
SPLINE
5
D0
100
AcDbEntity
8
1
62
256
6
ByLayer
370
18
48
1
60
0
100
AcDbSpline
70
4
71
3
72
14
73
10
40
0
40
0
40
0
40
0
40
0.420919552264715
40
0.420919552264715
40
0.631379328397072
40
0.631379328397072
40
0.84183910452943
40
0.84183910452943
40
1
40
1
40
1
40
1
41
1
10
67.0426707383317
20
2.63891555223592
30
0
41
1
10
66.4935202705825
20
2.64413631239631
30
0
41
1
10
65.9450129041861
20
2.60524136979362
30
0
41
1
10
65.1149028200141
20
2.48144988378226
30
0
41
1
10
64.8359174942718
20
2.42905188475007
30
1E-16
41
1
10
64.2816356331305
20
2.30481409896387
30
1E-16
41
1
10
64.0058685101335
20
2.23298204659693
30
1E-16
41
1
10
63.5241224268943
20
2.09144108141874
30
1E-16
41
1
10
63.317810727226
20
2.02567714439968
30
1E-16
41
1
10
63.1115872521761
20
1.95533279253237
30
0
0
SPLINE
5
D1
100
AcDbEntity
8
1
62
256
6
ByLayer
370
18
48
1
60
0
100
AcDbSpline
70
4
71
3
72
12
73
8
40
0
40
0
40
0
40
0
40
0.309512678589588
40
0.309512678589588
40
0.654756339294794
40
0.654756339294794
40
1
40
1
40
1
40
1
41
1
10
42.9164818181278
20
-0.251261830591403
30
0
41
1
10
42.6668991342963
20
-0.125180879600379
30
0
41
1
10
42.4173155085984
20
0.0017392495181525
30
0
41
1
10
41.8902585197341
20
0.268678016599921
30
0
41
1
10
41.6127011795401
20
0.408691369447155
30
0
41
1
10
41.0569160949029
20
0.684439953210529
30
0
41
1
10
40.7784213939593
20
0.820322523932816
30
-1E-16
41
1
10
40.4999999999931
20
0.952055341846062
30
-1E-16
0
SPLINE
5
D2
100
AcDbEntity
8
1
62
256
6
ByLayer
370
18
48
1
60
0
100
AcDbSpline
70
4
71
3
72
8
73
4
40
0
40
0
40
0
40
0
40
1
40
1
40
1
40
1
41
1
10
67.0111540981185
20
-2.59993176188362
30
0
41
1
10
67.0066284517758
20
-2.61273364872926
30
0
41
1
10
67.0021219870664
20
-2.62553447947326
30
0
41
1
10
66.9976351494229
20
-2.63833440199201
30
0
0
SPLINE
5
D3
100
AcDbEntity
8
1
62
256
6
ByLayer
370
18
48
1
60
0
100
AcDbSpline
70
4
71
3
72
10
73
6
40
0
40
0
40
0
40
0
40
0.5
40
0.5
40
1
40
1
40
1
40
1
41
1
10
66.865171479946
20
-2.71505965347356
30
0
41
1
10
66.8673132971828
20
-2.72536584702371
30
0
41
1
10
66.8693448780346
20
-2.73342198827723
30
0
41
1
10
66.8730415138498
20
-2.74495352798661
30
0
41
1
10
66.8747374041475
20
-2.7484289311605
30
0
41
1
10
66.8763253535717
20
-2.74953309236375
30
0
0
SPLINE
5
D4
100
AcDbEntity
8
1
62
256
6
ByLayer
370
18
48
1
60
0
100
AcDbSpline
70
2053
71
3
72
50
73
46
40
0
40
0
40
0
40
0
40
0.0624999999999984
40
0.0624999999999984
40
0.124999999999997
40
0.124999999999997
40
0.187499999999995
40
0.187499999999995
40
0.249999999999994
40
0.249999999999994
40
0.281249999999993
40
0.281249999999993
40
0.312499999999993
40
0.312499999999993
40
0.343749999999993
40
0.343749999999993
40
0.374999999999993
40
0.374999999999993
40
0.406249999999993
40
0.406249999999993
40
0.437499999999993
40
0.437499999999993
40
0.499999999999998
40
0.499999999999998
40
0.562500000000003
40
0.562500000000003
40
0.625000000000009
40
0.625000000000009
40
0.656250000000009
40
0.656250000000009
40
0.687500000000009
40
0.687500000000009
40
0.718750000000008
40
0.718750000000008
40
0.750000000000008
40
0.750000000000008
40
0.781250000000008
40
0.781250000000008
40
0.812500000000008
40
0.812500000000008
40
0.875000000000005
40
0.875000000000005
40
0.937500000000003
40
0.937500000000003
40
1
40
1
40
1
40
1
41
1
10
67.3046645720267
20
-1.1147314943335
30
0
41
1
10
67.2834410686645
20
-1.14026801771541
30
0
41
1
10
67.2636009457785
20
-1.15710382757237
30
0
41
1
10
67.2258315383623
20
-1.17388116259809
30
1E-16
41
1
10
67.2089078646316
20
-1.17334612890454
30
1E-16
41
1
10
67.1780629752018
20
-1.15385675194938
30
1E-16
41
1
10
67.1649599044375
20
-1.13543505476642
30
1E-16
41
1
10
67.142953924659
20
-1.08003600565391
30
1E-16
41
1
10
67.134649156972
20
-1.04461315778698
30
1E-16
41
1
10
67.1268558350891
20
-0.979052044510667
30
1E-16
41
1
10
67.1251564536606
20
-0.955877674220773
30
1E-16
41
1
10
67.1236770220718
20
-0.906849830930014
30
1E-16
41
1
10
67.1239167673775
20
-0.880619586210457
30
1E-16
41
1
10
67.1266805472447
20
-0.826997879043233
30
1E-16
41
1
10
67.1291588468345
20
-0.799891972531071
30
0
41
1
10
67.1365801996021
20
-0.745095153650396
30
0
41
1
10
67.1415694281742
20
-0.717432729839004
30
0
41
1
10
67.1537025874392
20
-0.664770013711205
30
0
41
1
10
67.1610058358944
20
-0.63904394850465
30
0
41
1
10
67.17749759631
20
-0.591133141815789
30
0
41
1
10
67.1866123392726
20
-0.569026674631857
30
0
41
1
10
67.2164901312876
20
-0.50787288306023
30
0
41
1
10
67.2390945035477
20
-0.475645223381633
30
0
41
1
10
67.28562834506
20
-0.428881858129927
30
0
41
1
10
67.3096954486799
20
-0.41415188957356
30
0
41
1
10
67.3557645599586
20
-0.401241870675022
30
0
41
1
10
67.3781926166897
20
-0.402964532534526
30
0
41
1
10
67.4080924221577
20
-0.417543510941726
30
0
41
1
10
67.4174561830215
20
-0.424371127072277
30
0
41
1
10
67.4347950657632
20
-0.442223465906096
30
0
41
1
10
67.4428204682926
20
-0.453381819016613
30
0
41
1
10
67.4566490498415
20
-0.479611907183994
30
0
41
1
10
67.4625236651656
20
-0.494703335487458
30
0
41
1
10
67.4718799108703
20
-0.529357737296095
30
0
41
1
10
67.4753061374733
20
-0.548911933280152
30
0
41
1
10
67.4791246430826
20
-0.59124078049382
30
0
41
1
10
67.4795562784131
20
-0.614542585525754
30
0
41
1
10
67.4772022277425
20
-0.663581376228706
30
0
41
1
10
67.4744756906953
20
-0.68906752083555
30
0
41
1
10
67.4617097297869
20
-0.768578585020123
30
0
41
1
10
67.4470821711675
20
-0.824106894019536
30
1E-16
41
1
10
67.411533597147
20
-0.926811482728112
30
-1E-16
41
1
10
67.3906258907905
20
-0.974449191773459
30
-1E-16
41
1
10
67.3478652496137
20
-1.05546020621225
30
0
41
1
10
67.3258880753888
20
-1.08919497095158
30
0
41
1
10
67.3046645720267
20
-1.1147314943335
30
0
0
SPLINE
5
D5
100
AcDbEntity
8
1
62
256
6
ByLayer
370
18
48
1
60
0
100
AcDbSpline
70
4
71
3
72
8
73
4
40
0
40
0
40
0
40
0
40
1
40
1
40
1
40
1
41
1
10
67.9959972842455
20
0.195224931159885
30
0
41
1
10
68.0013376532333
20
0.0649917054971638
30
0
41
1
10
68.001330828298
20
-0.0651581421892615
30
0
41
1
10
67.9959972842455
20
-0.195224931159913
30
0
0
SPLINE
5
D6
100
AcDbEntity
8
1
62
256
6
ByLayer
370
18
48
1
60
0
100
AcDbSpline
70
4
71
3
72
10
73
6
40
0
40
0
40
0
40
0
40
0.5
40
0.5
40
1
40
1
40
1
40
1
41
1
10
67.0464036387466
20
-2.63639763894284
30
0
41
1
10
67.0357231451153
20
-2.64378332084661
30
0
41
1
10
67.0264228341652
20
-2.6476105297732
30
0
41
1
10
67.0103604077964
20
-2.64813442492581
30
0
41
1
10
67.0035658804366
20
-2.64487485014783
30
0
41
1
10
66.997635149423
20
-2.63833440199176
30
0
0
SPLINE
5
D7
100
AcDbEntity
8
1
62
256
6
ByLayer
370
18
48
1
60
0
100
AcDbSpline
70
4
71
3
72
28
73
24
40
0
40
0
40
0
40
0
40
0.194117242965416
40
0.194117242965416
40
0.291175864448125
40
0.291175864448125
40
0.388234485930835
40
0.388234485930835
40
0.485293107413545
40
0.485293107413545
40
0.582351728896255
40
0.582351728896255
40
0.679410350378965
40
0.679410350378965
40
0.776468971861674
40
0.776468971861674
40
0.873527593344384
40
0.873527593344384
40
0.922056904085739
40
0.922056904085739
40
0.970586214827094
40
0.970586214827094
40
1
40
1
40
1
40
1
41
1
10
66.7064987964931
20
-0.106432513958168
30
0
41
1
10
66.1633954875658
20
0.167079006404748
30
0
41
1
10
65.6238076590003
20
0.437747462578443
30
0
41
1
10
64.8149889857972
20
0.828166199468541
30
-1E-16
41
1
10
64.5456811079063
20
0.955807358485998
30
-1E-16
41
1
10
64.005123992336
20
1.20246951543126
30
-1E-16
41
1
10
63.7339888911399
20
1.32162664411706
30
-1E-16
41
1
10
63.1891931177302
20
1.54946391590172
30
-1E-16
41
1
10
62.9149045686086
20
1.65818843975066
30
-1E-16
41
1
10
62.370193140062
20
1.85960282388544
30
1E-16
41
1
10
62.0989195158107
20
1.95272312708269
30
1E-16
41
1
10
61.5580931674047
20
2.12185016443056
30
1E-16
41
1
10
61.2887569527039
20
2.19739504514891
30
1E-16
41
1
10
60.7493884759424
20
2.33134448918608
30
1E-16
41
1
10
60.4796477731359
20
2.38940204131981
30
1E-16
41
1
10
59.9392108328816
20
2.48557813759717
30
0
41
1
10
59.6686871252141
20
2.52277943626351
30
0
41
1
10
59.2606286768836
20
2.56478702240804
30
0
41
1
10
59.1242415252066
20
2.57644905902359
30
0
41
1
10
58.8506693432673
20
2.59449708208328
30
0
41
1
10
58.7134898236162
20
2.60086268415236
30
0
41
1
10
58.4943991746153
20
2.60636886649195
30
0
41
1
10
58.4119204285642
20
2.60728956431905
30
0
41
1
10
58.3295872655487
20
2.60715598030035
30
0
0
SPLINE
5
D8
100
AcDbEntity
8
1
62
256
6
ByLayer
370
18
48
1
60
0
100
AcDbSpline
70
4
71
3
72
8
73
4
40
0
40
0
40
0
40
0
40
1
40
1
40
1
40
1
41
1
10
67.3141399906499
20
0.745209528901853
30
0
41
1
10
67.4691384037415
20
0.766772346637822
30
0
41
1
10
67.623784423684
20
0.794031194082095
30
0
41
1
10
67.7757325998935
20
0.832056054585962
30
0
0
SPLINE
5
D9
100
AcDbEntity
8
1
62
256
6
ByLayer
370
18
48
1
60
0
100
AcDbSpline
70
4
71
3
72
16
73
12
40
0
40
0
40
0
40
0
40
0.101584153927768
40
0.101584153927768
40
0.326188115445826
40
0.326188115445826
40
0.550792076963884
40
0.550792076963884
40
0.775396038481942
40
0.775396038481942
40
1
40
1
40
1
40
1
41
1
10
66.7616996114873
20
0.536517295800763
30
0
41
1
10
66.7744304814565
20
0.543013237535774
30
0
41
1
10
66.7878749702991
20
0.549965498325093
30
0
41
1
10
66.833388506202
20
0.573585605090784
30
0
41
1
10
66.868695285883
20
0.59201499303839
30
0
41
1
10
66.9443624782113
20
0.629220196530582
30
0
41
1
10
66.9849867887022
20
0.648175073004381
30
0
41
1
10
67.0729286935033
20
0.684158449876037
30
0
41
1
10
67.1187990116796
20
0.700441658842379
30
0
41
1
10
67.2140001230216
20
0.72742118704241
30
0
41
1
10
67.2637763473898
20
0.738203121297516
30
0
41
1
10
67.3141399906499
20
0.745209528901825
30
0
0
SPLINE
5
DA
100
AcDbEntity
8
1
62
256
6
ByLayer
370
18
48
1
60
0
100
AcDbSpline
70
4
71
3
72
8
73
4
40
0
40
0
40
0
40
0
40
1
40
1
40
1
40
1
41
1
10
67.7757325998938
20
0.832056054586701
30
0
41
1
10
67.8508994323336
20
0.620406805853179
30
0
41
1
10
67.924328585466
20
0.408132495519084
30
0
41
1
10
67.9959972842455
20
0.195224931159913
30
0
0
SPLINE
5
DB
100
AcDbEntity
8
1
62
256
6
ByLayer
370
18
48
1
60
0
100
AcDbSpline
70
4
71
3
72
8
73
4
40
0
40
0
40
0
40
0
40
1
40
1
40
1
40
1
41
1
10
66.6377315972163
20
-0.0638882565378651
30
0
41
1
10
66.6590353850255
20
-0.0741939844355386
30
0
41
1
10
66.6802236547756
20
-0.0839081835205207
30
0
41
1
10
66.7013198905813
20
-0.0930448286168541
30
0
0
SPLINE
5
DC
100
AcDbEntity
8
1
62
256
6
ByLayer
370
18
48
1
60
0
100
AcDbSpline
70
4
71
3
72
34
73
30
40
0
40
0
40
0
40
0
40
0.0231465021092828
40
0.0231465021092828
40
0.117237373168069
40
0.117237373168069
40
0.211328244226855
40
0.211328244226855
40
0.305419115285642
40
0.305419115285642
40
0.399509986344428
40
0.399509986344428
40
0.446555421873819
40
0.446555421873819
40
0.493600857403211
40
0.493600857403211
40
0.587691728461993
40
0.587691728461993
40
0.634737163991386
40
0.634737163991386
40
0.681782599520779
40
0.681782599520779
40
0.775873470579562
40
0.775873470579562
40
0.869964341638344
40
0.869964341638344
40
0.964055212697127
40
0.964055212697127
40
1
40
1
40
1
40
1
41
1
10
50.6223702123899
20
-0.240131677166858
30
0
41
1
10
50.5557954433861
20
-0.20690100907359
30
0
41
1
10
50.4892377823394
20
-0.173678683472446
30
0
41
1
10
50.1520830175207
20
-0.0056925919703303
30
0
41
1
10
49.8816977120978
20
0.128828334940152
30
0
41
1
10
49.3416093147845
20
0.397466935632053
30
0
41
1
10
49.0716474577139
20
0.531122802121956
30
0
41
1
10
48.5299858473544
20
0.793314461477706
30
0
41
1
10
48.2583513302453
20
0.921983159280899
30
-1E-16
41
1
10
47.7119340685528
20
1.17150739451606
30
-1E-16
41
1
10
47.437823071829
20
1.29235265823559
30
-1E-16
41
1
10
47.0289329402591
20
1.46421586761937
30
-1E-16
41
1
10
46.8928592761852
20
1.51999280872906
30
-1E-16
41
1
10
46.6204447161057
20
1.62833079557959
30
-1E-16
41
1
10
46.4840958550135
20
1.68088862382325
30
-1E-16
41
1
10
46.0746178659637
20
1.8334860458705
30
1E-16
41
1
10
45.8002042251306
20
1.92872644800823
30
1E-16
41
1
10
45.3918075017553
20
2.05743861341665
30
1E-16
41
1
10
45.2561765203823
20
2.09800797148787
30
1E-16
41
1
10
44.9851468932875
20
2.17489901493704
30
1E-16
41
1
10
44.8497340501238
20
2.21122941523095
30
1E-16
41
1
10
44.4438873549048
20
2.31346304986465
30
1E-16
41
1
10
44.1738640867532
20
2.37261008507386
30
1E-16
41
1
10
43.6341104927258
20
2.4709242589781
30
0
41
1
10
43.3643935209656
20
2.5100858158965
30
0
41
1
10
42.8238743696685
20
2.56712755326797
30
0
41
1
10
42.5529732148777
20
2.58527699251854
30
0
41
1
10
42.1764340848705
20
2.5972890505013
30
0
41
1
10
42.0721006103442
20
2.59911306428245
30
0
41
1
10
41.9676773669923
20
2.59937190065094
30
0
0
SPLINE
5
DD
100
AcDbEntity
8
1
62
256
6
ByLayer
370
18
48
1
60
0
100
AcDbSpline
70
4
71
3
72
10
73
6
40
0
40
0
40
0
40
0
40
0.5
40
0.5
40
1
40
1
40
1
40
1
41
1
10
66.8716675780387
20
0.454926983995477
30
0
41
1
10
66.8305331810374
20
0.440386243731069
30
0
41
1
10
66.7902394143332
20
0.421524396147447
30
0
41
1
10
66.711490325815
20
0.377860773046223
30
0
41
1
10
66.6731426144712
20
0.352160643513343
30
0
41
1
10
66.636151574053
20
0.322161815714622
30
0
0
SPLINE
5
DE
100
AcDbEntity
8
1
62
256
6
ByLayer
370
18
48
1
60
0
100
AcDbSpline
70
4
71
3
72
24
73
20
40
0
40
0
40
0
40
0
40
0.123411452198813
40
0.123411452198813
40
0.317454330227775
40
0.317454330227775
40
0.414475769242255
40
0.414475769242255
40
0.511497208256736
40
0.511497208256736
40
0.608518647271217
40
0.608518647271217
40
0.705540086285697
40
0.705540086285697
40
0.899582964314655
40
0.899582964314655
40
0.996604403329134
40
0.996604403329134
40
1
40
1
40
1
40
1
41
1
10
42.8663062195537
20
0.162576001176888
30
0
41
1
10
43.2156787570648
20
-0.011396422937878
30
0
41
1
10
43.5637653936893
20
-0.185798995135599
30
0
41
1
10
44.4592061996538
20
-0.628630426995642
30
0
41
1
10
45.0065844276228
20
-0.893837692239316
30
1E-16
41
1
10
45.8362001202534
20
-1.26612184878101
30
1E-16
41
1
10
46.1140313317106
20
-1.38598588060214
30
1E-16
41
1
10
46.6673090547779
20
-1.61209742980534
30
1E-16
41
1
10
46.9436070708432
20
-1.71866095374625
30
1E-16
41
1
10
47.4969556818094
20
-1.91654456085226
30
-1E-16
41
1
10
47.774776647465
20
-2.00811828731332
30
-1E-16
41
1
10
48.3277137472321
20
-2.17286379144582
30
-1E-16
41
1
10
48.6027409608859
20
-2.24590487597672
30
-1E-16
41
1
10
49.4258078024737
20
-2.43601583683773
30
0
41
1
10
49.971700100667
20
-2.52297966091948
30
0
41
1
10
50.7941362249752
20
-2.59043179001466
30
0
41
1
10
51.0689117830367
20
-2.60208304400291
30
0
41
1
10
51.354721421683
20
-2.60284829834427
30
0
41
1
10
51.3643881617759
20
-2.60286058217938
30
0
41
1
10
51.3740568783972
20
-2.60285928405375
30
0
0
SPLINE
5
DF
100
AcDbEntity
8
1
62
256
6
ByLayer
370
18
48
1
60
0
100
AcDbSpline
70
4
71
3
72
8
73
4
40
0
40
0
40
0
40
0
40
1
40
1
40
1
40
1
41
1
10
67.9959972842455
20
0.195224931159913
30
0
41
1
10
67.9809526150581
20
0.144348805594348
30
0
41
1
10
67.9658145660429
20
0.0935026245772974
30
0
41
1
10
67.9505835736387
20
0.042686248153899
30
0
0
SPLINE
5
E0
100
AcDbEntity
8
1
62
256
6
ByLayer
370
18
48
1
60
0
100
AcDbSpline
70
4
71
3
72
30
73
26
40
0
40
0
40
0
40
0
40
0.0764789128341489
40
0.0764789128341489
40
0.152957825668298
40
0.152957825668298
40
0.229436738502447
40
0.229436738502447
40
0.305915651336596
40
0.305915651336596
40
0.611831302673201
40
0.611831302673201
40
0.650070759090274
40
0.650070759090274
40
0.688310215507349
40
0.688310215507349
40
0.764789128341497
40
0.764789128341497
40
0.917746954009793
40
0.917746954009793
40
0.955986410426867
40
0.955986410426867
40
0.994225866843941
40
0.994225866843941
40
1
40
1
40
1
40
1
41
1
10
40.5
20
0.993392875430089
30
-1E-16
41
1
10
40.7772222134953
20
0.85785313999051
30
-1E-16
41
1
10
41.054677146181
20
0.718028044611401
30
0
41
1
10
41.6072028689084
20
0.434572413983005
30
0
41
1
10
41.8827075146779
20
0.290703479523017
30
0
41
1
10
42.4336934094605
20
0.0015424929397909
30
0
41
1
10
42.7091792095196
20
-0.143741105991524
30
0
41
1
10
43.2617279937697
20
-0.43265752964669
30
0
41
1
10
43.5395309300707
20
-0.57663736495013
30
0
41
1
10
44.9185476463478
20
-1.27602629227684
30
1E-16
41
1
10
46.0005780452053
20
-1.77628976703184
30
1E-16
41
1
10
47.2463940289993
20
-2.18560936480466
30
-1E-16
41
1
10
47.3849854821986
20
-2.22888324105114
30
-1E-16
41
1
10
47.6609372166556
20
-2.3102831041501
30
-1E-16
41
1
10
47.798549961954
20
-2.34849308642959
30
-1E-16
41
1
10
48.2105989267599
20
-2.45544205484819
30
-1E-16
41
1
10
48.4842486170389
20
-2.51649102098537
30
-1E-16
41
1
10
49.3044142073823
20
-2.6674660115709
30
1E-16
41
1
10
49.850254808979
20
-2.72522370557951
30
0
41
1
10
50.5380238598015
20
-2.74038354380818
30
0
41
1
10
50.6758519638517
20
-2.7405601477472
30
0
41
1
10
50.9522473584933
20
-2.73510691556211
30
0
41
1
10
51.0910195486573
20
-2.72945483398178
30
0
41
1
10
51.250042333818
20
-2.71965537447039
30
0
41
1
10
51.2708956793837
20
-2.71830460362813
30
0
41
1
10
51.291740547908
20
-2.71688889759199
30
0
0
SPLINE
5
E1
100
AcDbEntity
8
1
62
256
6
ByLayer
370
18
48
1
60
0
100
AcDbSpline
70
4
71
3
72
8
73
4
40
0
40
0
40
0
40
0
40
1
40
1
40
1
40
1
41
1
10
66.8651714799489
20
-2.71505965347009
30
0
41
1
10
66.9092216582712
20
-2.68995810322224
30
0
41
1
10
66.9533712723822
20
-2.66437984503133
30
0
41
1
10
66.9976351494228
20
-2.63833440199193
30
0
0
SPLINE
5
E2
100
AcDbEntity
8
1
62
256
6
ByLayer
370
18
48
1
60
0
100
AcDbSpline
70
4
71
3
72
28
73
24
40
0
40
0
40
0
40
0
40
0.120510807991181
40
0.120510807991181
40
0.241021615982362
40
0.241021615982362
40
0.361532423973543
40
0.361532423973543
40
0.421787827969132
40
0.421787827969132
40
0.48204323196472
40
0.48204323196472
40
0.602554039955901
40
0.602554039955901
40
0.723064847947083
40
0.723064847947083
40
0.843575655938264
40
0.843575655938264
40
0.903831059933856
40
0.903831059933856
40
0.964086463929449
40
0.964086463929449
40
1
40
1
40
1
40
1
41
1
10
66.6361515740469
20
0.322161815709705
30
0
41
1
10
66.3322982408739
20
0.481788258619844
30
0
41
1
10
66.0294556040778
20
0.638429649571748
30
0
41
1
10
65.4253807660818
20
0.945065152471955
30
-1E-16
41
1
10
65.1232775868809
20
1.09343394689529
30
-1E-16
41
1
10
64.5180656844752
20
1.37876356164708
30
-1E-16
41
1
10
64.2152086090741
20
1.51610533171791
30
-1E-16
41
1
10
63.7577238546291
20
1.70925030423734
30
-1E-16
41
1
10
63.6044904672314
20
1.7717139872
30
-1E-16
41
1
10
63.298571120493
20
1.8923438877419
30
1E-16
41
1
10
63.1461465379738
20
1.95011450051194
30
1E-16
41
1
10
62.6896822631626
20
2.1148556671445
30
1E-16
41
1
10
62.3865583031815
20
2.21350252542021
30
1E-16
41
1
10
61.7821395035137
20
2.38811991673597
30
1E-16
41
1
10
61.4799723606909
20
2.46315437475806
30
1E-16
41
1
10
60.8750129624108
20
2.5882275611911
30
0
41
1
10
60.5723805043126
20
2.63824201139778
30
-1E-16
41
1
10
60.1154658859014
20
2.69250736962295
30
-1E-16
41
1
10
59.9627460613818
20
2.707206719802
30
0
41
1
10
59.6566413040628
20
2.72970542317401
30
0
41
1
10
59.5037486855233
20
2.73738255437721
30
0
41
1
10
59.2605206290117
20
2.74392819678209
30
0
41
1
10
59.1698108378464
20
2.74511739501446
30
0
41
1
10
59.0792138656535
20
2.74505814570264
30
0
0
SPLINE
5
E3
100
AcDbEntity
8
1
62
256
6
ByLayer
370
18
48
1
60
0
100
AcDbSpline
70
4
71
3
72
64
73
60
40
0
40
0
40
0
40
0
40
0.0271244064569429
40
0.0271244064569429
40
0.0710842769766774
40
0.0710842769766774
40
0.115044147496412
40
0.115044147496412
40
0.137024082756279
40
0.137024082756279
40
0.159004018016146
40
0.159004018016146
40
0.202963888535882
40
0.202963888535882
40
0.246923759055618
40
0.246923759055618
40
0.290883629575354
40
0.290883629575354
40
0.312863564835221
40
0.312863564835221
40
0.334843500095089
40
0.334843500095089
40
0.378803370614823
40
0.378803370614823
40
0.422763241134557
40
0.422763241134557
40
0.466723111654292
40
0.466723111654292
40
0.488703046914158
40
0.488703046914158
40
0.510682982174025
40
0.510682982174025
40
0.554642852693758
40
0.554642852693758
40
0.59860272321349
40
0.59860272321349
40
0.642562593733223
40
0.642562593733223
40
0.664542528993089
40
0.664542528993089
40
0.686522464252954
40
0.686522464252954
40
0.730482334772687
40
0.730482334772687
40
0.77444220529242
40
0.77444220529242
40
0.818402075812153
40
0.818402075812153
40
0.840382011072019
40
0.840382011072019
40
0.862361946331886
40
0.862361946331886
40
0.90632181685162
40
0.90632181685162
40
0.950281687371355
40
0.950281687371355
40
0.994241557891089
40
0.994241557891089
40
1
40
1
40
1
40
1
41
1
10
47.1591423662002
20
-1.809430726888
30
0
41
1
10
46.9721841441116
20
-1.88311068301954
30
0
41
1
10
46.7854563956291
20
-1.95308156575336
30
-1E-16
41
1
10
46.2966631095043
20
-2.12677061618194
30
-1E-16
41
1
10
45.9946573013672
20
-2.22397953085436
30
-1E-16
41
1
10
45.3882119504067
20
-2.39451143100698
30
-1E-16
41
1
10
45.0846271400338
20
-2.46870688152231
30
-1E-16
41
1
10
44.6259494196487
20
-2.56034888647051
30
0
41
1
10
44.4722673325773
20
-2.58766586119461
30
0
41
1
10
44.1664933194656
20
-2.63534965250653
30
1E-16
41
1
10
44.0142577780116
20
-2.65584590414161
30
1E-16
41
1
10
43.5582958594907
20
-2.70674691353446
30
0
41
1
10
43.2551314094082
20
-2.72666457043974
30
0
41
1
10
42.6503656298246
20
-2.73895174715702
30
0
41
1
10
42.3483677575803
20
-2.73113352019735
30
0
41
1
10
41.7423608562999
20
-2.68802671630931
30
1E-16
41
1
10
41.4391996732779
20
-2.6524603527559
30
1E-16
41
1
10
40.9813936379401
20
-2.57874634178089
30
0
41
1
10
40.828024266808
20
-2.55076775175559
30
0
41
1
10
40.5215113211677
20
-2.48816383394271
30
-1E-16
41
1
10
40.3689554563082
20
-2.4535196663719
30
-1E-16
41
1
10
39.9121241312587
20
-2.34074714874612
30
-1E-16
41
1
10
39.6085636535592
20
-2.25403222583162
30
-1E-16
41
1
10
39.003437097879
20
-2.05794655667134
30
-1E-16
41
1
10
38.7013752572847
20
-1.9490619216154
30
-1E-16
41
1
10
38.0956954761418
20
-1.71323205745503
30
1E-16
41
1
10
37.7929049149433
20
-1.58503391217829
30
1E-16
41
1
10
37.3358886301314
20
-1.38152972185097
30
1E-16
41
1
10
37.1830789213731
20
-1.3118555003685
30
1E-16
41
1
10
36.8766491687252
20
-1.16850881502626
30
1E-16
41
1
10
36.7234149623926
20
-1.09475898836069
30
1E-16
41
1
10
36.2655789111885
20
-0.871218719485512
30
1E-16
41
1
10
35.9615465079185
20
-0.718708877158747
30
0
41
1
10
35.3559014411163
20
-0.406707582414271
30
0
41
1
10
35.0536977989735
20
-0.248339360901042
30
0
41
1
10
34.4481905745689
20
0.0685720748498966
30
0
41
1
10
34.1456841475651
20
0.228676575370372
30
0
41
1
10
33.6893404132996
20
0.465538285042385
30
0
41
1
10
33.5367995097011
20
0.543948042643848
30
0
41
1
10
33.2310494220048
20
0.700054861969875
30
0
41
1
10
33.0775774370111
20
0.77805677622257
30
0
41
1
10
32.6186385932319
20
1.00705249677972
30
-1E-16
41
1
10
32.3140677161382
20
1.15340879038692
30
-1E-16
41
1
10
31.7077447880973
20
1.43402431484537
30
-1E-16
41
1
10
31.405319052404
20
1.56703513150754
30
-1E-16
41
1
10
30.7998422370269
20
1.81537342539687
30
-1E-16
41
1
10
30.4975411528083
20
1.93178243749065
30
1E-16
41
1
10
30.0417405613884
20
2.0902836227182
30
1E-16
41
1
10
29.8894233812807
20
2.14046972684281
30
1E-16
41
1
10
29.5842635583643
20
2.23578661453306
30
1E-16
41
1
10
29.4313630968619
20
2.28095810302935
30
1E-16
41
1
10
28.9712418451402
20
2.40717530369975
30
1E-16
41
1
10
28.6660905006438
20
2.47818271228354
30
1E-16
41
1
10
28.058988783425
20
2.5947233632354
30
0
41
1
10
27.7562887919477
20
2.6395982633604
30
-1E-16
41
1
10
27.1507339900894
20
2.70217589520635
30
0
41
1
10
26.8485692999692
20
2.72002426388966
30
0
41
1
10
26.5052384259081
20
2.72434679282202
30
0
41
1
10
26.4654501563834
20
2.72460995198872
30
0
41
1
10
26.4256413125107
20
2.72463457113742
30
0
0
SPLINE
5
E4
100
AcDbEntity
8
1
62
256
6
ByLayer
370
18
48
1
60
0
100
AcDbSpline
70
4
71
3
72
20
73
16
40
0
40
0
40
0
40
0
40
0.0383035932039227
40
0.0383035932039227
40
0.198586327669937
40
0.198586327669937
40
0.358869062135949
40
0.358869062135949
40
0.519151796601963
40
0.519151796601963
40
0.679434531067976
40
0.679434531067976
40
0.839717265533988
40
0.839717265533988
40
1
40
1
40
1
40
1
41
1
10
13.9853853563884
20
-1.98562370030331
30
-1E-16
41
1
10
13.9120573649147
20
-2.01175931823315
30
-1E-16
41
1
10
13.8387580117415
20
-2.03732855720872
30
-1E-16
41
1
10
13.4596770263855
20
-2.16649180330472
30
-1E-16
41
1
10
13.1551236762955
20
-2.25881003130144
30
-1E-16
41
1
10
12.5479660550597
20
-2.41953168504836
30
-1E-16
41
1
10
12.2456321105999
20
-2.48804431103579
30
-1E-16
41
1
10
11.6396553229154
20
-2.59841223118761
30
0
41
1
10
11.3368481482817
20
-2.64088501168089
30
1E-16
41
1
10
10.7285987547943
20
-2.69836498914015
30
0
41
1
10
10.4227239376239
20
-2.71345027222449
30
0
41
1
10
9.80854768469669
20
-2.71530996579
30
0
41
1
10
9.50233617821669
20
-2.70205913201107
30
0
41
1
10
8.89026932013149
20
-2.64759129137772
30
1E-16
41
1
10
8.58423017142346
20
-2.60632221387067
30
0
41
1
10
8.27650452157411
20
-2.55201795035299
30
0
0
SPLINE
5
E5
100
AcDbEntity
8
1
62
256
6
ByLayer
370
18
48
1
60
0
100
AcDbSpline
70
4
71
3
72
24
73
20
40
0
40
0
40
0
40
0
40
0.0365743254594821
40
0.0365743254594821
40
0.135285937063716
40
0.135285937063716
40
0.332709160272185
40
0.332709160272185
40
0.431420771876422
40
0.431420771876422
40
0.530132383480658
40
0.530132383480658
40
0.628843995084894
40
0.628843995084894
40
0.72755560668913
40
0.72755560668913
40
0.924978829897599
40
0.924978829897599
40
1
40
1
40
1
40
1
41
1
10
51.6490965519498
20
-2.60851581188379
30
0
41
1
10
51.5464449895
20
-2.61147212655285
30
0
41
1
10
51.443879897278
20
-2.61291248116143
30
0
41
1
10
51.0653752280472
20
-2.61258266582655
30
0
41
1
10
50.7905797657403
20
-2.60138666505136
30
0
41
1
10
49.9680884109943
20
-2.53514067486148
30
0
41
1
10
49.4221768527162
20
-2.44878247069585
30
0
41
1
10
48.5990642587889
20
-2.25925160513955
30
-1E-16
41
1
10
48.3240184931134
20
-2.1863463853428
30
-1E-16
41
1
10
47.7710229635207
20
-2.02175102913748
30
-1E-16
41
1
10
47.4931592860457
20
-1.93018748169129
30
-1E-16
41
1
10
46.9397448961587
20
-1.73221300229696
30
1E-16
41
1
10
46.6634200075291
20
-1.62554333912814
30
1E-16
41
1
10
46.1100772527276
20
-1.39910595326484
30
1E-16
41
1
10
45.8322046076444
20
-1.27902042483313
30
1E-16
41
1
10
45.0024928224167
20
-0.905899975291192
30
1E-16
41
1
10
44.4550839292334
20
-0.639946819966752
30
0
41
1
10
43.6997196942972
20
-0.265145888651489
30
0
41
1
10
43.4917281570843
20
-0.161109412257929
30
0
41
1
10
43.2834636770679
20
-0.0568174206660217
30
0
0
SPLINE
5
E6
100
AcDbEntity
8
1
62
256
6
ByLayer
370
18
48
1
60
0
100
AcDbSpline
70
4
71
3
72
16
73
12
40
0
40
0
40
0
40
0
40
0.25
40
0.25
40
0.5
40
0.5
40
0.75
40
0.75
40
0.875
40
0.875
40
1
40
1
40
1
40
1
41
1
10
67.0464036387463
20
-2.63639763894335
30
0
41
1
10
67.1009988691929
20
-2.48125322091417
30
0
41
1
10
67.1551150511546
20
-2.32519555367375
30
0
41
1
10
67.2642713567099
20
-2.01215922725237
30
0
41
1
10
67.3193984038293
20
-1.85489432462239
30
0
41
1
10
67.431130548918
20
-1.5417743957822
30
0
41
1
10
67.490862391236
20
-1.3890024692071
30
0
41
1
10
67.5916055340586
20
-1.16766624786095
30
0
41
1
10
67.6268853398934
20
-1.09569183807196
30
0
41
1
10
67.6993967978722
20
-0.959256420752979
30
0
41
1
10
67.7368903053211
20
-0.894191807193209
30
0
41
1
10
67.7757325998937
20
-0.832056054586786
30
0
0
SPLINE
5
E7
100
AcDbEntity
8
1
62
256
6
ByLayer
370
18
48
1
60
0
100
AcDbSpline
70
4
71
3
72
64
73
60
40
0
40
0
40
0
40
0
40
0.0052818796021426
40
0.0052818796021426
40
0.0500427189460728
40
0.0500427189460728
40
0.0948035582900031
40
0.0948035582900031
40
0.139564397633933
40
0.139564397633933
40
0.161944817305898
40
0.161944817305898
40
0.184325236977864
40
0.184325236977864
40
0.229086076321794
40
0.229086076321794
40
0.273846915665724
40
0.273846915665724
40
0.318607755009654
40
0.318607755009654
40
0.340988174681619
40
0.340988174681619
40
0.363368594353583
40
0.363368594353583
40
0.408129433697512
40
0.408129433697512
40
0.45289027304144
40
0.45289027304144
40
0.497651112385369
40
0.497651112385369
40
0.520031532057333
40
0.520031532057333
40
0.542411951729296
40
0.542411951729296
40
0.587172791073223
40
0.587172791073223
40
0.63193363041715
40
0.63193363041715
40
0.676694469761077
40
0.676694469761077
40
0.721455309105004
40
0.721455309105004
40
0.743835728776969
40
0.743835728776969
40
0.766216148448933
40
0.766216148448933
40
0.810976987792862
40
0.810976987792862
40
0.85573782713679
40
0.85573782713679
40
0.900498666480719
40
0.900498666480719
40
0.922879086152684
40
0.922879086152684
40
0.945259505824649
40
0.945259505824649
40
0.990020345168581
40
0.990020345168581
40
1
40
1
40
1
40
1
41
1
10
63.1017679725833
20
-1.96567530538914
30
-1E-16
41
1
10
63.0658252216322
20
-1.9789493289278
30
-1E-16
41
1
10
63.029900986316
20
-1.99206833754303
30
-1E-16
41
1
10
62.6896822631626
20
-2.1148556671445
30
-1E-16
41
1
10
62.3865583031815
20
-2.21350252542024
30
-1E-16
41
1
10
61.7821395035136
20
-2.38811991673597
30
-1E-16
41
1
10
61.4799723606909
20
-2.46315437475809
30
-1E-16
41
1
10
60.8750129624109
20
-2.5882275611911
30
0
41
1
10
60.5723805043126
20
-2.63824201139778
30
1E-16
41
1
10
60.1154658859014
20
-2.69250736962295
30
1E-16
41
1
10
59.9627460613817
20
-2.707206719802
30
0
41
1
10
59.6566413040627
20
-2.72970542317401
30
0
41
1
10
59.5037486855233
20
-2.73738255437721
30
0
41
1
10
59.046559343577
20
-2.74968622520626
30
0
41
1
10
58.7431381113509
20
-2.74375497774139
30
0
41
1
10
58.1383589378102
20
-2.70413691168653
30
0
41
1
10
57.836141200043
20
-2.67065964443731
30
1E-16
41
1
10
57.2315009214687
20
-2.57685559245198
30
0
41
1
10
56.9291322021496
20
-2.51633485782187
30
-1E-16
41
1
10
56.4728653302423
20
-2.40682821843654
30
-1E-16
41
1
10
56.3204189017569
20
-2.36715335865807
30
-1E-16
41
1
10
56.0149267002114
20
-2.28114970759731
30
-1E-16
41
1
10
55.8615314151744
20
-2.23491264002666
30
-1E-16
41
1
10
55.4033833903276
20
-2.08871860330356
30
-1E-16
41
1
10
55.099535165291
20
-1.98083626421638
30
-1E-16
41
1
10
54.4941523325994
20
-1.74570086004482
30
1E-16
41
1
10
54.1917769335114
20
-1.61966867902993
30
1E-16
41
1
10
53.5872639351917
20
-1.35146737774284
30
1E-16
41
1
10
53.2850663219072
20
-1.20930074286829
30
1E-16
41
1
10
52.8293442855481
20
-0.988210872386929
30
1E-16
41
1
10
52.6771443178143
20
-0.913020993942354
30
1E-16
41
1
10
52.3722090538817
20
-0.759452799981943
30
0
41
1
10
52.2189903561544
20
-0.681229001063997
30
0
41
1
10
51.7597962791988
20
-0.445082263469146
30
0
41
1
10
51.45546111645
20
-0.28591994820286
30
0
41
1
10
50.8493596376561
20
0.0339233762917672
30
0
41
1
10
50.5467807299004
20
0.193010636685671
30
0
41
1
10
49.9423070743455
20
0.509058481762736
30
0
41
1
10
49.6402351391572
20
0.665657336905412
30
0
41
1
10
49.0332415435451
20
0.969944908251506
30
-1E-16
41
1
10
48.7291741235206
20
1.11923899377283
30
-1E-16
41
1
10
48.2695518056664
20
1.33385432529718
30
-1E-16
41
1
10
48.1163457470669
20
1.40353729978921
30
-1E-16
41
1
10
47.8112287780608
20
1.53869120956148
30
-1E-16
41
1
10
47.6592705995662
20
1.60450524930525
30
-1E-16
41
1
10
47.2040612157654
20
1.79482896475378
30
-1E-16
41
1
10
46.9012212616823
20
1.91194538359099
30
1E-16
41
1
10
46.2966631095043
20
2.12677061618194
30
1E-16
41
1
10
45.9946573013671
20
2.22397953085436
30
1E-16
41
1
10
45.3882119504066
20
2.394511431007
30
1E-16
41
1
10
45.0846271400337
20
2.46870688152231
30
1E-16
41
1
10
44.6259494196486
20
2.56034888647054
30
0
41
1
10
44.4722673325773
20
2.58766586119461
30
0
41
1
10
44.1664933194656
20
2.63534965250653
30
-1E-16
41
1
10
44.0142577780116
20
2.65584590414161
30
-1E-16
41
1
10
43.5582958594907
20
2.70674691353446
30
0
41
1
10
43.2551314094082
20
2.72666457043974
30
0
41
1
10
42.8853307296179
20
2.73417790280104
30
0
41
1
10
42.8179320784377
20
2.73485361961147
30
0
41
1
10
42.7505371542939
20
2.73483782105305
30
0
0
SPLINE
5
E8
100
AcDbEntity
8
1
62
256
6
ByLayer
370
18
48
1
60
0
100
AcDbSpline
70
4
71
3
72
70
73
66
40
0
40
0
40
0
40
0
40
0.0055088131199714
40
0.0055088131199714
40
0.0280852310935084
40
0.0280852310935084
40
0.0506616490670451
40
0.0506616490670451
40
0.0958144850141168
40
0.0958144850141168
40
0.140967320961188
40
0.140967320961188
40
0.18612015690826
40
0.18612015690826
40
0.208696574881796
40
0.208696574881796
40
0.231272992855332
40
0.231272992855332
40
0.253849410828868
40
0.253849410828868
40
0.276425828802404
40
0.276425828802404
40
0.321578664749476
40
0.321578664749476
40
0.366731500696548
40
0.366731500696548
40
0.389307918670084
40
0.389307918670084
40
0.41188433664362
40
0.41188433664362
40
0.434460754617156
40
0.434460754617156
40
0.457037172590692
40
0.457037172590692
40
0.502190008537764
40
0.502190008537764
40
0.547342844484835
40
0.547342844484835
40
0.569919262458372
40
0.569919262458372
40
0.592495680431908
40
0.592495680431908
40
0.637648516378981
40
0.637648516378981
40
0.682801352326054
40
0.682801352326054
40
0.727954188273126
40
0.727954188273126
40
0.750530606246663
40
0.750530606246663
40
0.773107024220199
40
0.773107024220199
40
0.795683442193735
40
0.795683442193735
40
0.818259860167271
40
0.818259860167271
40
0.863412696114342
40
0.863412696114342
40
0.908565532061413
40
0.908565532061413
40
0.953718368008484
40
0.953718368008484
40
0.998871203955555
40
0.998871203955555
40
1
40
1
40
1
40
1
41
1
10
30.3048265202681
20
-1.99830018498881
30
-1E-16
41
1
10
30.2677965948648
20
-2.01150636557316
30
-1E-16
41
1
10
30.2307469980692
20
-2.02455807344626
30
-1E-16
41
1
10
30.0417405613884
20
-2.0902836227182
30
-1E-16
41
1
10
29.8894233812807
20
-2.14046972684281
30
-1E-16
41
1
10
29.5842635583643
20
-2.23578661453306
30
-1E-16
41
1
10
29.4313630968619
20
-2.28095810302935
30
-1E-16
41
1
10
28.9712418451402
20
-2.40717530369975
30
-1E-16
41
1
10
28.6660905006437
20
-2.47818271228354
30
-1E-16
41
1
10
28.058988783425
20
-2.5947233632354
30
0
41
1
10
27.7562887919476
20
-2.63959826336043
30
1E-16
41
1
10
27.1507339900894
20
-2.70217589520635
30
0
41
1
10
26.8485692999691
20
-2.72002426388966
30
0
41
1
10
26.3932205570858
20
-2.725757095581
30
0
41
1
10
26.2410992813939
20
-2.72420806055601
30
0
41
1
10
25.9364747150139
20
-2.71407235365646
30
0
41
1
10
25.7839545057817
20
-2.7054551120938
30
0
41
1
10
25.477695902699
20
-2.6811653022273
30
0
41
1
10
25.3240457448579
20
-2.66547265242434
30
1E-16
41
1
10
25.0182046400939
20
-2.62746382669141
30
0
41
1
10
24.8657377849761
20
-2.60509529784684
30
0
41
1
10
24.4097170119295
20
-2.52790321735694
30
-1E-16
41
1
10
24.106677951387
20
-2.46353939105666
30
-1E-16
41
1
10
23.5009453880441
20
-2.31092870558078
30
-1E-16
41
1
10
23.1988626079718
20
-2.22198752259445
30
-1E-16
41
1
10
22.7438857051838
20
-2.07280916647102
30
-1E-16
41
1
10
22.5919376126408
20
-2.0204718080762
30
-1E-16
41
1
10
22.2877925101428
20
-1.91005280708188
30
-1E-16
41
1
10
22.1355341645448
20
-1.85202858333767
30
-1E-16
41
1
10
21.8299012032027
20
-1.7313498313957
30
1E-16
41
1
10
21.6762412300891
20
-1.66846993261612
30
1E-16
41
1
10
21.3696445030274
20
-1.53904263661596
30
1E-16
41
1
10
21.216878973821
20
-1.47237446373643
30
1E-16
41
1
10
20.7600360716802
20
-1.26676263958208
30
1E-16
41
1
10
20.4565812639387
20
-1.12365516156314
30
1E-16
41
1
10
19.8505283795476
20
-0.828037449308255
30
1E-16
41
1
10
19.548447185533
20
-0.674537294685678
30
0
41
1
10
19.0937488103357
20
-0.441372408367982
30
0
41
1
10
18.9419512545368
20
-0.363117950834408
30
0
41
1
10
18.6382298673492
20
-0.204856422335439
30
0
41
1
10
18.4862055412445
20
-0.125039507185534
30
0
41
1
10
18.0286162171264
20
0.114448650139479
30
0
41
1
10
17.7204216984731
20
0.274960268015548
30
0
41
1
10
17.1099973370859
20
0.591021225274176
30
0
41
1
10
16.8060398467575
20
0.745192004576126
30
0
41
1
10
16.1995252932626
20
1.04408069154704
30
-1E-16
41
1
10
15.8973698611789
20
1.18947330717359
30
-1E-16
41
1
10
15.4428442777261
20
1.39626622731905
30
-1E-16
41
1
10
15.2911677833301
20
1.46341548448649
30
-1E-16
41
1
10
14.9877979380124
20
1.59464039013707
30
-1E-16
41
1
10
14.8359715551252
20
1.65848652642202
30
-1E-16
41
1
10
14.5314211307966
20
1.78164202617626
30
-1E-16
41
1
10
14.3787403287225
20
1.84102459563843
30
1E-16
41
1
10
14.0723991740556
20
1.95511970223146
30
1E-16
41
1
10
13.9186220426147
20
2.01011670044883
30
1E-16
41
1
10
13.4596770263855
20
2.16649180330472
30
1E-16
41
1
10
13.1551236762954
20
2.25881003130147
30
1E-16
41
1
10
12.5479660550596
20
2.41953168504836
30
1E-16
41
1
10
12.2456321105999
20
2.48804431103579
30
1E-16
41
1
10
11.6396553229154
20
2.59841223118761
30
0
41
1
10
11.3368481482817
20
2.64088501168089
30
-1E-16
41
1
10
10.7285987547943
20
2.69836498914015
30
0
41
1
10
10.4227239376239
20
2.71345027222449
30
0
41
1
10
10.1079587770344
20
2.714403364665
30
0
41
1
10
10.1002822907718
20
2.71441774778768
30
0
41
1
10
10.0926063414586
20
2.71442327146249
30
0
0
SPLINE
5
E9
100
AcDbEntity
8
1
62
256
6
ByLayer
370
18
48
1
60
0
100
AcDbSpline
70
4
71
3
72
8
73
4
40
0
40
0
40
0
40
0
40
1
40
1
40
1
40
1
41
1
10
40.6491026957964
20
2.64365874695
30
-1E-16
41
1
10
40.6488853224749
20
2.62798423579773
30
0
41
1
10
40.6486666740286
20
2.61231009096181
30
0
41
1
10
40.6484467492264
20
2.5966363218937
30
0
0
SPLINE
5
EA
100
AcDbEntity
8
1
62
256
6
ByLayer
370
18
48
1
60
0
100
AcDbSpline
70
4
71
3
72
20
73
16
40
0
40
0
40
0
40
0
40
0.353609946375691
40
0.353609946375691
40
0.594543836626529
40
0.594543836626529
40
0.755173410127743
40
0.755173410127743
40
0.862269647185643
40
0.862269647185643
40
0.933659801104547
40
0.933659801104547
40
0.981229438680008
40
0.981229438680008
40
1
40
1
40
1
40
1
41
1
10
66.8763253535716
20
-2.74953309236378
30
0
41
1
10
66.8945516209593
20
-2.73760392576244
30
0
41
1
10
66.9128006991282
20
-2.72559445968608
30
0
41
1
10
66.943508629471
20
-2.70528039698735
30
0
41
1
10
66.9559593186224
20
-2.6970148493285
30
0
41
1
10
66.9767150894592
20
-2.68318828422261
30
0
41
1
10
66.9850188030483
20
-2.67764402878689
30
0
41
1
10
66.9988587778877
20
-2.66838228146895
30
0
41
1
10
67.0043934457901
20
-2.66467286307201
30
0
41
1
10
67.0136351879489
20
-2.65846937129635
30
0
41
1
10
67.0173365892459
20
-2.65598228609267
30
0
41
1
10
67.0235183060794
20
-2.65182453355413
30
0
41
1
10
67.025994355404
20
-2.65015811063904
30
0
41
1
10
67.0294326640447
20
-2.64784263147129
30
0
41
1
10
67.030403905509
20
-2.64718840027578
30
0
41
1
10
67.031372256982
20
-2.64653594029682
30
0
0
SPLINE
5
EB
100
AcDbEntity
8
1
62
256
6
ByLayer
370
18
48
1
60
0
100
AcDbSpline
70
4
71
3
72
16
73
12
40
0
40
0
40
0
40
0
40
0.243560879281803
40
0.243560879281803
40
0.487121758563605
40
0.487121758563605
40
0.730682637845408
40
0.730682637845408
40
0.974243517127211
40
0.974243517127211
40
1
40
1
40
1
40
1
41
1
10
10.0161001329737
20
-0.179141844207436
30
0
41
1
10
10.6577322410806
20
-0.513167089454072
30
0
41
1
10
11.2903100489225
20
-0.8384347302121
30
1E-16
41
1
10
12.5555892039848
20
-1.43836292539859
30
1E-16
41
1
10
13.1883466404409
20
-1.71330991715072
30
1E-16
41
1
10
14.471143705881
20
-2.18107028065651
30
-1E-16
41
1
10
15.1035750329866
20
-2.36717138754383
30
-1E-16
41
1
10
16.3685830618754
20
-2.6284625747482
30
0
41
1
10
17.0014342630198
20
-2.70371963361433
30
0
41
1
10
17.7104313842776
20
-2.71852424429937
30
0
41
1
10
17.7781365177673
20
-2.71924468822667
30
0
41
1
10
17.8457517102149
20
-2.71927562663626
30
0
0
SPLINE
5
EC
100
AcDbEntity
8
1
62
256
6
ByLayer
370
18
48
1
60
0
100
AcDbSpline
70
4
71
3
72
24
73
20
40
0
40
0
40
0
40
0
40
0.067207756601428
40
0.067207756601428
40
0.253766205281142
40
0.253766205281142
40
0.347045429620999
40
0.347045429620999
40
0.440324653960856
40
0.440324653960856
40
0.626883102640573
40
0.626883102640573
40
0.673522714810501
40
0.673522714810501
40
0.72016232698043
40
0.72016232698043
40
0.813441551320286
40
0.813441551320286
40
1
40
1
40
1
40
1
41
1
10
30.2963775967953
20
1.99907487930915
30
1E-16
41
1
10
30.5245081176521
20
2.0805154639672
30
1E-16
41
1
10
30.7521830048489
20
2.1560442801771
30
1E-16
41
1
10
31.6117004844281
20
2.41709624243609
30
1E-16
41
1
10
32.2432730567099
20
2.55969918954619
30
1E-16
41
1
10
33.2037531345259
20
2.68524230441696
30
-1E-16
41
1
10
33.5226822100714
20
2.71186373933944
30
0
41
1
10
34.1570522960124
20
2.73449181338282
30
0
41
1
10
34.473028337615
20
2.73057353721924
30
0
41
1
10
35.4207011514932
20
2.67381321936733
30
-1E-16
41
1
10
36.0520784306336
20
2.57586445078638
30
0
41
1
10
36.8521496403155
20
2.38182860211234
30
1E-16
41
1
10
37.0122199710694
20
2.33954924331798
30
1E-16
41
1
10
37.3308998211281
20
2.24892177296488
30
1E-16
41
1
10
37.4897920507936
20
2.20050623153131
30
1E-16
41
1
10
37.9655407795305
20
2.04654543760719
30
1E-16
41
1
10
38.281477553296
20
1.93229176539728
30
1E-16
41
1
10
39.2289884857661
20
1.55960407416049
30
-1E-16
41
1
10
39.8601963234696
20
1.27109463581269
30
-1E-16
41
1
10
40.5000000000106
20
0.956288764731028
30
-1E-16
0
SPLINE
5
ED
100
AcDbEntity
8
1
62
256
6
ByLayer
370
18
48
1
60
0
100
AcDbSpline
70
4
71
3
72
24
73
20
40
0
40
0
40
0
40
0
40
0.110138225593724
40
0.110138225593724
40
0.220276451187447
40
0.220276451187447
40
0.440552902374889
40
0.440552902374889
40
0.495622015171749
40
0.495622015171749
40
0.550691127968608
40
0.550691127968608
40
0.660829353562331
40
0.660829353562331
40
0.881105804749777
40
0.881105804749777
40
0.991244030343501
40
0.991244030343501
40
1
40
1
40
1
40
1
41
1
10
67.0111540981185
20
-2.59993176188365
30
0
41
1
10
66.7349079802162
20
-2.58133226590036
30
0
41
1
10
66.4600285926586
20
-2.55245706899189
30
0
41
1
10
65.9119251398428
20
-2.47317911944808
30
0
41
1
10
65.6386473960753
20
-2.42314260501919
30
-1E-16
41
1
10
64.8192846627003
20
-2.24398466377099
30
-1E-16
41
1
10
64.2738721993865
20
-2.08574816918898
30
-1E-16
41
1
10
63.5857229158011
20
-1.84593720783778
30
-1E-16
41
1
10
63.4477541870637
20
-1.79588224029203
30
1E-16
41
1
10
63.1711287555237
20
-1.69181298514988
30
1E-16
41
1
10
63.032326081432
20
-1.63773165532095
30
1E-16
41
1
10
62.6178014187009
20
-1.47120205770088
30
1E-16
41
1
10
62.3429751081537
20
-1.35410729248395
30
1E-16
41
1
10
61.520897493031
20
-0.988872190704996
30
1E-16
41
1
10
60.9763586367664
20
-0.726449957366725
30
0
41
1
10
60.156621658296
20
-0.320224122461212
30
0
41
1
10
59.8829094220489
20
-0.182688054054466
30
0
41
1
10
59.5862019101778
20
-0.0333650373435432
30
0
41
1
10
59.5643433249428
20
-0.0223637077295109
30
0
41
1
10
59.5424768486703
20
-0.0113586626908955
30
0
0
SPLINE
5
EE
100
AcDbEntity
8
1
62
256
6
ByLayer
370
18
48
1
60
0
100
AcDbSpline
70
4
71
3
72
8
73
4
40
0
40
0
40
0
40
0
40
1
40
1
40
1
40
1
41
1
10
51.4883288831709
20
2.6119056822385
30
0
41
1
10
51.4569289454525
20
2.61232494786697
30
0
41
1
10
51.4255444949392
20
2.61260134016197
30
0
41
1
10
51.3941798563428
20
2.61273446953655
30
0
0
SPLINE
5
EF
100
AcDbEntity
8
1
62
256
6
ByLayer
370
18
48
1
60
0
100
AcDbSpline
70
4
71
3
72
32
73
28
40
0
40
0
40
0
40
0
40
0.087134805462228
40
0.087134805462228
40
0.181385506016461
40
0.181385506016461
40
0.275636206570694
40
0.275636206570694
40
0.369886907124928
40
0.369886907124928
40
0.464137607679161
40
0.464137607679161
40
0.558388308233394
40
0.558388308233394
40
0.652639008787627
40
0.652639008787627
40
0.74688970934186
40
0.74688970934186
40
0.794015059618977
40
0.794015059618977
40
0.841140409896093
40
0.841140409896093
40
0.935391110450327
40
0.935391110450327
40
0.982516460727443
40
0.982516460727443
40
1
40
1
40
1
40
1
41
1
10
13.9748718170973
20
1.99934336175872
30
0
41
1
10
14.5666408104265
20
2.20885531089249
30
1E-16
41
1
10
15.1513288659623
20
2.37703508439549
30
1E-16
41
1
10
16.3685830618761
20
2.62846257474831
30
0
41
1
10
17.0014342630206
20
2.70371963361441
30
0
41
1
10
18.2838169574027
20
2.73049714225337
30
0
41
1
10
18.9160088732491
20
2.68170107339858
30
-1E-16
41
1
10
20.1804888106292
20
2.46972902605072
30
1E-16
41
1
10
20.8126832501795
20
2.30649203807693
30
1E-16
41
1
10
22.0951170684588
20
1.87805403444395
30
1E-16
41
1
10
22.7273668318244
20
1.61912490597922
30
-1E-16
41
1
10
23.9916117004804
20
1.04227139121628
30
-1E-16
41
1
10
24.6235693639082
20
0.724121204650004
30
0
41
1
10
25.9053810756801
20
0.0601090582538859
30
0
41
1
10
26.5380095955854
20
-0.276528976031358
30
0
41
1
10
27.8020055174714
20
-0.922622612864842
30
1E-16
41
1
10
28.4337795676765
20
-1.2324678451744
30
1E-16
41
1
10
29.3946659040361
20
-1.65183387899648
30
1E-16
41
1
10
29.7134507063637
20
-1.78235685064635
30
1E-16
41
1
10
30.3478613416022
20
-2.02095483830743
30
-1E-16
41
1
10
30.6638777783353
20
-2.12922428732443
30
-1E-16
41
1
10
31.6117004844306
20
-2.41709624243674
30
-1E-16
41
1
10
32.2432730567125
20
-2.55969918954671
30
-1E-16
41
1
10
33.2037531345286
20
-2.68524230441724
30
1E-16
41
1
10
33.5226822100742
20
-2.71186373933961
30
0
41
1
10
33.9575431349815
20
-2.72737529233584
30
0
41
1
10
34.0750526081077
20
-2.72947620926021
30
0
41
1
10
34.1924530643863
20
-2.7294922967948
30
0
0
SPLINE
5
F0
100
AcDbEntity
8
1
62
256
6
ByLayer
370
18
48
1
60
0
100
AcDbSpline
70
4
71
3
72
52
73
48
40
0
40
0
40
0
40
0
40
0.125000000000002
40
0.125000000000002
40
0.187500000000003
40
0.187500000000003
40
0.250000000000004
40
0.250000000000004
40
0.281250000000004
40
0.281250000000004
40
0.312500000000003
40
0.312500000000003
40
0.343750000000003
40
0.343750000000003
40
0.375000000000003
40
0.375000000000003
40
0.406250000000002
40
0.406250000000002
40
0.421875000000002
40
0.421875000000002
40
0.437500000000002
40
0.437500000000002
40
0.468750000000001
40
0.468750000000001
40
0.5
40
0.5
40
0.531249999999998
40
0.531249999999998
40
0.562499999999997
40
0.562499999999997
40
0.624999999999995
40
0.624999999999995
40
0.687499999999993
40
0.687499999999993
40
0.695312499999993
40
0.695312499999993
40
0.703124999999994
40
0.703124999999994
40
0.710937499999994
40
0.710937499999994
40
0.718749999999995
40
0.718749999999995
40
0.749999999999997
40
0.749999999999997
40
0.874999999999998
40
0.874999999999998
40
1
40
1
40
1
40
1
41
1
10
8.27650337526748
20
-2.55201794186317
30
0
41
1
10
7.962299550176
20
-2.49664137912666
30
-1E-16
41
1
10
7.65579278800604
20
-2.42460995639658
30
-1E-16
41
1
10
7.21387050925824
20
-2.27572562319199
30
-1E-16
41
1
10
7.06957093567763
20
-2.21920782358291
30
-1E-16
41
1
10
6.78954310059535
20
-2.08617627505333
30
-1E-16
41
1
10
6.65558648806169
20
-2.01065349600361
30
-1E-16
41
1
10
6.46901019101909
20
-1.87664496129776
30
-1E-16
41
1
10
6.40927646699683
20
-1.82841511453012
30
1E-16
41
1
10
6.29837801241035
20
-1.72479576072914
30
1E-16
41
1
10
6.24691936399387
20
-1.66924604072665
30
1E-16
41
1
10
6.15453844514971
20
-1.54827836615309
30
1E-16
41
1
10
6.11324296174521
20
-1.48200940376458
30
1E-16
41
1
10
6.04804791841568
20
-1.34111339367115
30
1E-16
41
1
10
6.0238371096153
20
-1.26626166648381
30
1E-16
41
1
10
5.99690850933769
20
-1.10704882944137
30
1E-16
41
1
10
5.99475137412267
20
-1.02593760550931
30
1E-16
41
1
10
6.00856799185101
20
-0.902050871155325
30
1E-16
41
1
10
6.01611399123982
20
-0.860069047103593
30
1E-16
41
1
10
6.03645447277492
20
-0.777311378309236
30
0
41
1
10
6.04919657159704
20
-0.736501069993381
30
0
41
1
10
6.09435267928791
20
-0.615611963446867
30
0
41
1
10
6.1341569904053
20
-0.536429209873234
30
0
41
1
10
6.22549510727663
20
-0.386936489285034
30
0
41
1
10
6.27713767054979
20
-0.315975454169035
30
0
41
1
10
6.38942709721007
20
-0.179778984259656
30
0
41
1
10
6.45040702458351
20
-0.114307955980848
30
0
41
1
10
6.57683848453854
20
0.0094603473084476
30
0
41
1
10
6.64255192430363
20
0.0681131733113318
30
0
41
1
10
6.8454778150406
20
0.236596008152304
30
0
41
1
10
6.98839209832721
20
0.339059139742204
30
0
41
1
10
7.28459365486103
20
0.530618301006541
30
0
41
1
10
7.4370921185868
20
0.619065010501032
30
0
41
1
10
7.61160601399172
20
0.712203608837115
30
0
41
1
10
7.63103790502504
20
0.722462614869841
30
0
41
1
10
7.66998182080752
20
0.742807447356228
30
0
41
1
10
7.68939142704789
20
0.754260958150383
30
0
41
1
10
7.73235971510354
20
0.761942550934577
30
0
41
1
10
7.75458938725345
20
0.761063653367273
30
0
41
1
10
7.79740992943371
20
0.752700647662749
30
0
41
1
10
7.81822742384907
20
0.745455236514772
30
0
41
1
10
7.92293115158975
20
0.713717809143645
30
0
41
1
10
8.00636865219241
20
0.687233574546156
30
0
41
1
10
8.42184640157791
20
0.549475144849083
30
0
41
1
10
8.74807905019247
20
0.42211811503924
30
0
41
1
10
9.39037461929857
20
0.138949227302362
30
0
41
1
10
9.70509314735472
20
-0.0161448666292188
30
0
41
1
10
10.0161025043745
20
-0.179142717545375
30
0
0
SPLINE
5
F1
100
AcDbEntity
8
1
62
256
6
ByLayer
370
18
48
1
60
0
100
AcDbSpline
70
4
71
3
72
18
73
14
40
0
40
0
40
0
40
0
40
0.233691637908252
40
0.233691637908252
40
0.429176291904712
40
0.429176291904712
40
0.626349159121954
40
0.626349159121954
40
0.798670564290299
40
0.798670564290299
40
0.965447407486283
40
0.965447407486283
40
1
40
1
40
1
40
1
41
1
10
67.0136147126913
20
-2.58871249543503
30
0
41
1
10
67.0137194222778
20
-2.58888414020115
30
0
41
1
10
67.0137664633106
20
-2.58923928866869
30
0
41
1
10
67.0137160752404
20
-2.5902467481005
30
0
41
1
10
67.0136395974527
20
-2.59085442194797
30
0
41
1
10
67.0133718789201
20
-2.59232063204226
30
0
41
1
10
67.0131745502215
20
-2.59320602368879
30
0
41
1
10
67.0127158604976
20
-2.59499137416444
30
0
41
1
10
67.0124595578663
20
-2.59589924278447
30
0
41
1
10
67.0119187662258
20
-2.59767375171415
30
0
41
1
10
67.0116290740411
20
-2.59856231766034
30
0
41
1
10
67.0112767389737
20
-2.59958281176714
30
0
41
1
10
67.011215464208
20
-2.59975817303567
30
0
41
1
10
67.0111540981185
20
-2.59993176188365
30
0
0
SPLINE
5
F2
100
AcDbEntity
8
1
62
256
6
ByLayer
370
18
48
1
60
0
100
AcDbSpline
70
4
71
3
72
18
73
14
40
0
40
0
40
0
40
0
40
0.0699614824009211
40
0.0699614824009211
40
0.224967902000768
40
0.224967902000768
40
0.379974321600614
40
0.379974321600614
40
0.689987160800307
40
0.689987160800307
40
0.844993580400153
40
0.844993580400153
40
1
40
1
40
1
40
1
41
1
10
40.6028080486061
20
2.59672211056204
30
0
41
1
10
40.6027987708762
20
2.59670993058441
30
0
41
1
10
40.602789094697
20
2.59426124831069
30
0
41
1
10
40.6027568974586
20
2.57854575266072
30
0
41
1
10
40.6027329021151
20
2.5556460952815
30
0
41
1
10
40.6026825094645
20
2.48689340848591
30
0
41
1
10
40.6026559731861
20
2.44093365371705
30
0
41
1
10
40.6025726365664
20
2.26940544716342
30
1E-16
41
1
10
40.6025127349251
20
2.11097472326799
30
1E-16
41
1
10
40.6024154979575
20
1.8191529032471
30
1E-16
41
1
10
40.6023819187997
20
1.71321407927769
30
-1E-16
41
1
10
40.6023118474898
20
1.48616467903037
30
-1E-16
41
1
10
40.6022756312241
20
1.36597840345169
30
-1E-16
41
1
10
40.6022375628629
20
1.23909340375548
30
-1E-16
0
SPLINE
5
F3
100
AcDbEntity
8
1
62
256
6
ByLayer
370
18
48
1
60
0
100
AcDbSpline
70
4
71
3
72
50
73
46
40
0
40
0
40
0
40
0
40
0.091844030254402
40
0.091844030254402
40
0.114805037818002
40
0.114805037818002
40
0.137766045381602
40
0.137766045381602
40
0.1836880605088
40
0.1836880605088
40
0.229610075635999
40
0.229610075635999
40
0.275532090763197
40
0.275532090763197
40
0.321454105890395
40
0.321454105890395
40
0.367376121017593
40
0.367376121017593
40
0.413298136144791
40
0.413298136144791
40
0.45922015127199
40
0.45922015127199
40
0.505142166399188
40
0.505142166399188
40
0.528103173962787
40
0.528103173962787
40
0.551064181526386
40
0.551064181526386
40
0.596986196653582
40
0.596986196653582
40
0.642908211780779
40
0.642908211780779
40
0.688830226907975
40
0.688830226907975
40
0.734752242035171
40
0.734752242035171
40
0.780674257162368
40
0.780674257162368
40
0.826596272289564
40
0.826596272289564
40
0.918440302543955
40
0.918440302543955
40
0.964362317671151
40
0.964362317671151
40
1
40
1
40
1
40
1
41
1
10
40.6491026957964
20
2.64365874695
30
-1E-16
41
1
10
41.193236173825
20
2.71775376362319
30
0
41
1
10
41.7370690746295
20
2.7460478160217
30
0
41
1
10
42.4194533327105
20
2.72612538115553
30
0
41
1
10
42.5562458268641
20
2.71931971737882
30
0
41
1
10
42.8286982152183
20
2.70008140554572
30
0
41
1
10
42.9644612622942
20
2.68765761966844
30
-1E-16
41
1
10
43.3710751100269
20
2.64232648626853
30
-1E-16
41
1
10
43.6411671256671
20
2.60135465789702
30
0
41
1
10
44.1807413582514
20
2.49928325466016
30
1E-16
41
1
10
44.4501975952008
20
2.43818277751805
30
1E-16
41
1
10
44.9893616022113
20
2.29665167885102
30
1E-16
41
1
10
45.2586702047922
20
2.21573440657309
30
1E-16
41
1
10
45.7998187944038
20
2.03658977140319
30
1E-16
41
1
10
46.0720221819369
20
1.93867633912245
30
1E-16
41
1
10
46.6184129217365
20
1.72592195769818
30
-1E-16
41
1
10
46.8893608509646
20
1.61165696060138
30
-1E-16
41
1
10
47.4300822994371
20
1.37282718058208
30
-1E-16
41
1
10
47.7000662417587
20
1.24867858337535
30
-1E-16
41
1
10
48.2391921331936
20
0.990978457934517
30
-1E-16
41
1
10
48.5081965426343
20
0.857144098270027
30
-1E-16
41
1
10
49.0470723383854
20
0.582997656150411
30
0
41
1
10
49.3169262826797
20
0.442655006058089
30
0
41
1
10
49.7237229605403
20
0.229859489033686
30
0
41
1
10
49.8597421747757
20
0.158720885555311
30
0
41
1
10
50.1325613428795
20
0.0159017262198518
30
0
41
1
10
50.2693953315581
20
-0.0558062065954061
30
0
41
1
10
50.6777587908573
20
-0.270058128089033
30
0
41
1
10
50.9479886177718
20
-0.41279438893099
30
0
41
1
10
51.4876357641365
20
-0.691800389954494
30
0
41
1
10
51.7572953530035
20
-0.827668866963677
30
1E-16
41
1
10
52.2959284948138
20
-1.09294571987749
30
1E-16
41
1
10
52.5648470021986
20
-1.22240283117358
30
1E-16
41
1
10
53.1044168312667
20
-1.47037445500018
30
1E-16
41
1
10
53.3752981670741
20
-1.58854364841199
30
1E-16
41
1
10
53.9191518898294
20
-1.81326676734838
30
1E-16
41
1
10
54.1923780680093
20
-1.91993685336379
30
-1E-16
41
1
10
54.7348622642035
20
-2.1139956419087
30
-1E-16
41
1
10
55.0053218445135
20
-2.20183370275035
30
-1E-16
41
1
10
55.8143771128596
20
-2.43852728814556
30
-1E-16
41
1
10
56.350629242048
20
-2.55991922257343
30
-1E-16
41
1
10
57.1617649187838
20
-2.67752540874537
30
1E-16
41
1
10
57.4332982029227
20
-2.7061336777476
30
0
41
1
10
57.9176555480881
20
-2.73751038994834
30
0
41
1
10
58.1286078437518
20
-2.74442078926583
30
0
41
1
10
58.3389581312081
20
-2.74457114771695
30
0
0
SPLINE
5
F4
100
AcDbEntity
8
1
62
256
6
ByLayer
370
18
48
1
60
0
100
AcDbSpline
70
4
71
3
72
40
73
36
40
0
40
0
40
0
40
0
40
0.0117826006392498
40
0.0117826006392498
40
0.0371215083151665
40
0.0371215083151665
40
0.087799323667
40
0.087799323667
40
0.189154954370667
40
0.189154954370667
40
0.2398327697225
40
0.2398327697225
40
0.265171677398417
40
0.265171677398417
40
0.290510585074334
40
0.290510585074334
40
0.391866215778001
40
0.391866215778001
40
0.493221846481667
40
0.493221846481667
40
0.594577477185334
40
0.594577477185334
40
0.695933107889001
40
0.695933107889001
40
0.721272015564917
40
0.721272015564917
40
0.746610923240834
40
0.746610923240834
40
0.797288738592666
40
0.797288738592666
40
0.898644369296333
40
0.898644369296333
40
0.949322184648167
40
0.949322184648167
40
1
40
1
40
1
40
1
41
1
10
50.6214938975914
20
2.73975872658352
30
0
41
1
10
50.6856056246055
20
2.73974153680055
30
0
41
1
10
50.749787685179
20
2.73910140905986
30
0
41
1
10
50.9522473584948
20
2.73510691556206
30
0
41
1
10
51.0910195486587
20
2.72945483398169
30
0
41
1
10
51.5055014112901
20
2.70391322227516
30
0
41
1
10
51.7802755642199
20
2.67545046358617
30
-1E-16
41
1
10
52.6023385304765
20
2.55747688514987
30
1E-16
41
1
10
53.1474421992054
20
2.43545448894665
30
1E-16
41
1
10
53.9689725233983
20
2.19425051194457
30
1E-16
41
1
10
54.2434574562885
20
2.10414186001415
30
1E-16
41
1
10
54.6573271008094
20
1.95549133554283
30
1E-16
41
1
10
54.7959109658401
20
1.90359307251381
30
1E-16
41
1
10
55.0726064411938
20
1.79604663705373
30
-1E-16
41
1
10
55.2105516769413
20
1.74047091492596
30
-1E-16
41
1
10
55.8987397905142
20
1.45441059007615
30
-1E-16
41
1
10
56.4444310749711
20
1.19946993629787
30
-1E-16
41
1
10
57.5376086244514
20
0.657907981982248
30
0
41
1
10
58.0848481253929
20
0.370816738839977
30
0
41
1
10
59.1928545589564
20
-0.21386630060428
30
0
41
1
10
59.740236881365
20
-0.503664386152167
30
0
41
1
10
60.8331801117903
20
-1.05638386967183
30
1E-16
41
1
10
61.3787266152399
20
-1.31945366271287
30
1E-16
41
1
10
62.0666655715266
20
-1.61862575994246
30
1E-16
41
1
10
62.204554231817
20
-1.67697632059145
30
1E-16
41
1
10
62.4811286891425
20
-1.790358541188
30
1E-16
41
1
10
62.6196725088116
20
-1.84532191988262
30
1E-16
41
1
10
63.0334094066012
20
-2.00347111205022
30
-1E-16
41
1
10
63.3078011163478
20
-2.10035845351794
30
-1E-16
41
1
10
64.1289815161769
20
-2.36306860275141
30
-1E-16
41
1
10
64.6737181926646
20
-2.50099236671528
30
-1E-16
41
1
10
65.4953625651384
20
-2.64401990126311
30
1E-16
41
1
10
65.7700145014925
20
-2.68104894710763
30
1E-16
41
1
10
66.3223623934657
20
-2.73254125573021
30
0
41
1
10
66.5996567963233
20
-2.74690189877211
30
0
41
1
10
66.8763253535716
20
-2.74953309236375
30
0
0
SPLINE
5
F5
100
AcDbEntity
8
1
62
256
6
ByLayer
370
18
48
1
60
0
100
AcDbSpline
70
4
71
3
72
16
73
12
40
0
40
0
40
0
40
0
40
0.25
40
0.25
40
0.5
40
0.5
40
0.75
40
0.75
40
0.875
40
0.875
40
1
40
1
40
1
40
1
41
1
10
67.0464036387463
20
2.63639763894338
30
0
41
1
10
67.1009988691928
20
2.48125322091417
30
0
41
1
10
67.1551150511546
20
2.32519555367375
30
0
41
1
10
67.2642713567099
20
2.01215922725237
30
0
41
1
10
67.3193984038292
20
1.85489432462225
30
0
41
1
10
67.4311305489182
20
1.54177439578237
30
0
41
1
10
67.4908623912359
20
1.3890024692071
30
0
41
1
10
67.5916055340586
20
1.16766624786101
30
0
41
1
10
67.6268853398934
20
1.09569183807199
30
0
41
1
10
67.6993967978723
20
0.959256420752979
30
0
41
1
10
67.7368903053211
20
0.894191807193181
30
0
41
1
10
67.7757325998937
20
0.832056054586758
30
0
0
SPLINE
5
F6
100
AcDbEntity
8
1
62
256
6
ByLayer
370
18
48
1
60
0
100
AcDbSpline
70
4
71
3
72
8
73
4
40
0
40
0
40
0
40
0
40
1
40
1
40
1
40
1
41
1
10
67.4622112223415
20
-0.444360864104226
30
0
41
1
10
67.3031862644801
20
-0.178962985976853
30
0
41
1
10
67.1078915462184
20
0.119388474061196
30
0
41
1
10
66.8716675780388
20
0.454926983995506
30
0
0
SPLINE
5
F7
100
AcDbEntity
8
1
62
256
6
ByLayer
370
18
48
1
60
0
100
AcDbSpline
70
4
71
3
72
30
73
26
40
0
40
0
40
0
40
0
40
0.189184933617965
40
0.189184933617965
40
0.256752855816468
40
0.256752855816468
40
0.324320778014971
40
0.324320778014971
40
0.459456622411978
40
0.459456622411978
40
0.527024544610481
40
0.527024544610481
40
0.560808505709732
40
0.560808505709732
40
0.594592466808984
40
0.594592466808984
40
0.729728311205987
40
0.729728311205987
40
0.797296233404489
40
0.797296233404489
40
0.83108019450374
40
0.83108019450374
40
0.864864155602991
40
0.864864155602991
40
1
40
1
40
1
40
1
41
1
10
52.7267919749117
20
-2.64493653300147
30
0
41
1
10
51.9619060703627
20
-2.7500904600808
30
0
41
1
10
51.2023120842094
20
-2.76884641121163
30
0
41
1
10
50.157265368377
20
-2.67221294382634
30
1E-16
41
1
10
49.8801170114115
20
-2.63516938639052
30
1E-16
41
1
10
49.330345054972
20
-2.53994467467413
30
-1E-16
41
1
10
49.0567347120136
20
-2.48175703115425
30
-1E-16
41
1
10
48.237699489405
20
-2.27765082502961
30
-1E-16
41
1
10
47.6938173247144
20
-2.10240277214385
30
-1E-16
41
1
10
46.8728713660733
20
-1.79024922777839
30
1E-16
41
1
10
46.5983905662251
20
-1.67794546495563
30
1E-16
41
1
10
46.1841687178404
20
-1.49867519046236
30
1E-16
41
1
10
46.0459133493492
20
-1.43721472977708
30
1E-16
41
1
10
45.7705978244416
20
-1.31195907400425
30
1E-16
41
1
10
45.6332887566868
20
-1.24805697055342
30
1E-16
41
1
10
44.9480578761953
20
-0.922982286277147
30
1E-16
41
1
10
44.4040591257124
20
-0.645132744880755
30
0
41
1
10
43.5853958507846
20
-0.218610667424997
30
0
41
1
10
43.3120660393823
20
-0.0748137429713154
30
0
41
1
10
42.9003988972051
20
0.141388815297688
30
0
41
1
10
42.7628964573956
20
0.213538359921841
30
0
41
1
10
42.4871510076693
20
0.357656518712105
30
0
41
1
10
42.348745514846
20
0.429710838868459
30
0
41
1
10
41.6583524914999
20
0.786430924939737
30
0
41
1
10
41.1085031994621
20
1.06137261636172
30
-1E-16
41
1
10
40.5555543151473
20
1.31582460732091
30
-1E-16
0
SPLINE
5
F8
100
AcDbEntity
8
1
62
256
6
ByLayer
370
18
48
1
60
0
100
AcDbSpline
70
4
71
3
72
8
73
4
40
0
40
0
40
0
40
0
40
1
40
1
40
1
40
1
41
1
10
67.7757325998938
20
-0.832056054586701
30
0
41
1
10
67.8508994323336
20
-0.620406805853179
30
0
41
1
10
67.924328585466
20
-0.408132495519084
30
0
41
1
10
67.9959972842455
20
-0.195224931159885
30
0
0
SPLINE
5
F9
100
AcDbEntity
8
1
62
256
6
ByLayer
370
18
48
1
60
0
100
AcDbSpline
70
4
71
3
72
32
73
28
40
0
40
0
40
0
40
0
40
0.0584551985691355
40
0.0584551985691355
40
0.156594125422976
40
0.156594125422976
40
0.254733052276816
40
0.254733052276816
40
0.352871979130655
40
0.352871979130655
40
0.401941442557575
40
0.401941442557575
40
0.451010905984495
40
0.451010905984495
40
0.549149832838332
40
0.549149832838332
40
0.59821929626525
40
0.59821929626525
40
0.647288759692167
40
0.647288759692167
40
0.745427686546003
40
0.745427686546003
40
0.843566613399839
40
0.843566613399839
40
0.941705540253676
40
0.941705540253676
40
1
40
1
40
1
40
1
41
1
10
41.7965129937236
20
2.60799545670113
30
0
41
1
10
41.9593535992311
20
2.61064844214994
30
0
41
1
10
42.1221932422735
20
2.60939097843266
30
0
41
1
10
42.5567825093523
20
2.59623966576089
30
0
41
1
10
42.8275732737214
20
2.5785026170625
30
0
41
1
10
43.3678816810799
20
2.5222167261139
30
0
41
1
10
43.6374892884535
20
2.48339089432889
30
0
41
1
10
44.1770268552644
20
2.38566518567237
30
1E-16
41
1
10
44.4469421557262
20
2.32676900428086
30
1E-16
41
1
10
44.8526242423396
20
2.22483046777725
30
1E-16
41
1
10
44.9879814762839
20
2.18858417860255
30
1E-16
41
1
10
45.2588996522124
20
2.11183797934186
30
1E-16
41
1
10
45.3944770739493
20
2.07133491946289
30
1E-16
41
1
10
45.8027269080647
20
1.94279609039526
30
1E-16
41
1
10
46.0770622685636
20
1.84760349943718
30
1E-16
41
1
10
46.4864021559811
20
1.69498564755128
30
-1E-16
41
1
10
46.6227031427391
20
1.64240733304612
30
-1E-16
41
1
10
46.8950173021586
20
1.53399969323431
30
-1E-16
41
1
10
47.031040980537
20
1.47818039674013
30
-1E-16
41
1
10
47.4397941787793
20
1.30617331496856
30
-1E-16
41
1
10
47.7138134076308
20
1.18516530143353
30
-1E-16
41
1
10
48.2600655900981
20
0.935186175324731
30
-1E-16
41
1
10
48.531601247508
20
0.806235612275628
30
0
41
1
10
49.0730652362907
20
0.543419452807996
30
0
41
1
10
49.3429159409303
20
0.409394470915345
30
0
41
1
10
49.7731976482949
20
0.194656218257507
30
0
41
1
10
49.9336614402378
20
0.114547492572512
30
0
41
1
10
50.0942153584546
20
0.0343295446222953
30
0
0
SPLINE
5
FA
100
AcDbEntity
8
1
62
256
6
ByLayer
370
18
48
1
60
0
100
AcDbSpline
70
4
71
3
72
22
73
18
40
0
40
0
40
0
40
0
40
0.125
40
0.125
40
0.25
40
0.25
40
0.375
40
0.375
40
0.5
40
0.5
40
0.625
40
0.625
40
0.75
40
0.75
40
0.875
40
0.875
40
1
40
1
40
1
40
1
41
1
10
66.7064987964931
20
-0.106432513958197
30
0
41
1
10
66.7109531437113
20
-0.259354226139436
30
0
41
1
10
66.7212788091087
20
-0.40907624222902
30
0
41
1
10
66.7482706606823
20
-0.702844193317048
30
0
41
1
10
66.7650348720441
20
-0.847430449542401
30
1E-16
41
1
10
66.8006982005212
20
-1.12861606880395
30
1E-16
41
1
10
66.8193958934579
20
-1.26384495984303
30
1E-16
41
1
10
66.8551418532065
20
-1.52072255945291
30
1E-16
41
1
10
66.8721512873843
20
-1.64215692738773
30
1E-16
41
1
10
66.9025480943268
20
-1.86738382452489
30
-1E-16
41
1
10
66.9159472709553
20
-1.97129997316333
30
-1E-16
41
1
10
66.9390393402273
20
-2.15789766451715
30
-1E-16
41
1
10
66.9487763460264
20
-2.24088589280706
30
-1E-16
41
1
10
66.9663762567127
20
-2.38283958597518
30
-1E-16
41
1
10
66.9743123643615
20
-2.44218933807053
30
0
41
1
10
66.9916540854047
20
-2.5346865821264
30
0
41
1
10
67.0010829905097
20
-2.56816992054863
30
0
41
1
10
67.0136147126913
20
-2.58871249543503
30
0
0
SPLINE
5
FB
100
AcDbEntity
8
1
62
256
6
ByLayer
370
18
48
1
60
0
100
AcDbSpline
70
4
71
3
72
8
73
4
40
0
40
0
40
0
40
0
40
1
40
1
40
1
40
1
41
1
10
67.0426707383313
20
2.63891555223816
30
0
41
1
10
67.0439150236151
20
2.63807632731994
30
0
41
1
10
67.0451593237178
20
2.63723702288178
30
0
41
1
10
67.0464036387463
20
2.63639763894307
30
0
0
SPLINE
5
FC
100
AcDbEntity
8
1
62
256
6
ByLayer
370
18
48
1
60
0
100
AcDbSpline
70
4
71
3
72
8
73
4
40
0
40
0
40
0
40
0
40
1
40
1
40
1
40
1
41
1
10
40.6491026957963
20
-2.64365874695
30
1E-16
41
1
10
41.0977400298063
20
-2.70474999034147
30
0
41
1
10
41.5461730319987
20
-2.73470582651387
30
0
41
1
10
41.9957329187851
20
-2.73440564818947
30
0
0
SPLINE
5
FD
100
AcDbEntity
8
1
62
256
6
ByLayer
370
18
48
1
60
0
100
AcDbSpline
70
4
71
3
72
32
73
28
40
0
40
0
40
0
40
0
40
0.0755915175161429
40
0.0755915175161429
40
0.159628652287403
40
0.159628652287403
40
0.243665787058662
40
0.243665787058662
40
0.327702921829922
40
0.327702921829922
40
0.411740056601182
40
0.411740056601182
40
0.453758623986812
40
0.453758623986812
40
0.495777191372442
40
0.495777191372442
40
0.579814326143701
40
0.579814326143701
40
0.663851460914961
40
0.663851460914961
40
0.747888595686221
40
0.747888595686221
40
0.83192573045748
40
0.83192573045748
40
0.91596286522874
40
0.91596286522874
40
1
40
1
40
1
40
1
41
1
10
56.972939404309
20
2.64982126349193
30
0
41
1
10
57.2163543163264
20
2.68316508198586
30
0
41
1
10
57.4607058264609
20
2.70790914605516
30
0
41
1
10
57.9787309601652
20
2.74146686061286
30
0
41
1
10
58.2503038426806
20
2.74784292819845
30
0
41
1
10
58.7915334640039
20
2.73818381756098
30
0
41
1
10
59.0615447775535
20
2.72236669275841
30
0
41
1
10
59.600209179924
20
2.66905148875497
30
-1E-16
41
1
10
59.8687002958564
20
2.63131835332354
30
-1E-16
41
1
10
60.4074400484114
20
2.53540399515819
30
1E-16
41
1
10
60.6773382369974
20
2.47711287448959
30
1E-16
41
1
10
61.083698676194
20
2.37452985121544
30
1E-16
41
1
10
61.2193390786537
20
2.33774155222599
30
1E-16
41
1
10
61.4912565125043
20
2.25910684366966
30
1E-16
41
1
10
61.6278563481764
20
2.21725082913656
30
1E-16
41
1
10
62.0363429939617
20
2.08574695909641
30
1E-16
41
1
10
62.3073374593276
20
1.98988306984953
30
1E-16
41
1
10
62.8473317183313
20
1.78295674569816
30
-1E-16
41
1
10
63.1162043804342
20
1.67164899073879
30
-1E-16
41
1
10
63.6545713705887
20
1.43784266758868
30
-1E-16
41
1
10
63.9238075123315
20
1.31499317929738
30
-1E-16
41
1
10
64.4630138564538
20
1.05834200269936
30
-1E-16
41
1
10
64.7328459503404
20
0.924231163445029
30
-1E-16
41
1
10
65.2759389992446
20
0.649679864782655
30
0
41
1
10
65.5495663717925
20
0.508635598056372
30
0
41
1
10
66.0942264524684
20
0.22408484000934
30
0
41
1
10
66.3659464962315
20
0.0802433496034212
30
0
41
1
10
66.6377315972163
20
-0.0638882565378651
30
0
0
SPLINE
5
FE
100
AcDbEntity
8
1
62
256
6
ByLayer
370
18
48
1
60
0
100
AcDbSpline
70
4
71
3
72
8
73
4
40
0
40
0
40
0
40
0
40
1
40
1
40
1
40
1
41
1
10
51.3744708778262
20
2.60285922016976
30
0
41
1
10
51.4609420856634
20
2.60284414322365
30
0
41
1
10
51.547571239323
20
2.60174274656188
30
0
41
1
10
51.6342682248783
20
2.59956306942388
30
0
0
SPLINE
5
FF
100
AcDbEntity
8
1
62
256
6
ByLayer
370
18
48
1
60
0
100
AcDbSpline
70
4
71
3
72
26
73
22
40
0
40
0
40
0
40
0
40
0.0385565475054503
40
0.0385565475054503
40
0.0891588344788485
40
0.0891588344788485
40
0.190363408425645
40
0.190363408425645
40
0.392772556319234
40
0.392772556319234
40
0.493977130266028
40
0.493977130266028
40
0.544579417239425
40
0.544579417239425
40
0.595181704212823
40
0.595181704212823
40
0.797590852106411
40
0.797590852106411
40
0.898795426053206
40
0.898795426053206
40
1
40
1
40
1
40
1
41
1
10
58.881202383279
20
0.330319425629142
30
0
41
1
10
58.9867445293816
20
0.277880115633792
30
0
41
1
10
59.0923595539278
20
0.225190274331965
30
0
41
1
10
59.33568465944
20
0.103526482717427
30
0
41
1
10
59.4734020715379
20
0.0344632772464308
30
0
41
1
10
59.8856662675866
20
-0.172231447859645
30
0
41
1
10
60.159369927456
20
-0.309286167259643
30
0
41
1
10
60.9790824704923
20
-0.714217737684407
30
0
41
1
10
61.5236157202486
20
-0.97596347637608
30
1E-16
41
1
10
62.3456317983151
20
-1.34051932915671
30
1E-16
41
1
10
62.6204311958993
20
-1.45743937737686
30
1E-16
41
1
10
63.0349042985904
20
-1.62378018849802
30
1E-16
41
1
10
63.173689078332
20
-1.67781022559083
30
1E-16
41
1
10
63.4502924175688
20
-1.78182200538257
30
1E-16
41
1
10
63.5882511062622
20
-1.83186815295502
30
-1E-16
41
1
10
64.2763620813358
20
-2.07170585497278
30
-1E-16
41
1
10
64.8217845377203
20
-2.23019825569526
30
-1E-16
41
1
10
65.6411432679145
20
-2.41008064653127
30
-1E-16
41
1
10
65.9144184053138
20
-2.4604125298242
30
0
41
1
10
66.4625109879115
20
-2.54038579535646
30
0
41
1
10
66.7373271801731
20
-2.56972677961554
30
0
41
1
10
67.0136147126913
20
-2.58871249543503
30
0
0
SPLINE
5
100
100
AcDbEntity
8
1
62
256
6
ByLayer
370
18
48
1
60
0
100
AcDbSpline
70
4
71
3
72
28
73
24
40
0
40
0
40
0
40
0
40
0.0592968073387459
40
0.0592968073387459
40
0.107191661177936
40
0.107191661177936
40
0.155086515017126
40
0.155086515017126
40
0.250876222695506
40
0.250876222695506
40
0.346665930373886
40
0.346665930373886
40
0.442455638052267
40
0.442455638052267
40
0.538245345730647
40
0.538245345730647
40
0.634035053409028
40
0.634035053409028
40
0.729824761087408
40
0.729824761087408
40
0.825614468765788
40
0.825614468765788
40
1
40
1
40
1
40
1
41
1
10
58.0705433117649
20
2.61277329654624
30
0
41
1
10
58.2381483695884
20
2.61771423200622
30
0
41
1
10
58.4061203220323
20
2.61870191427684
30
0
41
1
10
58.7112829934766
20
2.61173743550944
30
0
41
1
10
58.8484049265414
20
2.60567822055117
30
0
41
1
10
59.1219158962866
20
2.58820817657883
30
0
41
1
10
59.258268618391
20
2.57681981448476
30
0
41
1
10
59.6662099755304
20
2.53558700358408
30
0
41
1
10
59.9366402154104
20
2.49888909109154
30
0
41
1
10
60.4768820563781
20
2.40361156894707
30
1E-16
41
1
10
60.7465155153196
20
2.34594945608779
30
1E-16
41
1
10
61.2856613373587
20
2.21266691971664
30
1E-16
41
1
10
61.5548761157481
20
2.13742084993186
30
1E-16
41
1
10
62.0954564845056
20
1.96877686053918
30
1E-16
41
1
10
62.3666075574534
20
1.87583289216286
30
1E-16
41
1
10
62.9110781985248
20
1.67465170595767
30
-1E-16
41
1
10
63.1852779909432
20
1.56598521739647
30
-1E-16
41
1
10
63.7299414585233
20
1.33809751512524
30
-1E-16
41
1
10
64.0009967981148
20
1.2188483038712
30
-1E-16
41
1
10
64.5413763535543
20
0.971894506290454
30
-1E-16
41
1
10
64.8105824590914
20
0.84405550041987
30
-1E-16
41
1
10
65.5707117940015
20
0.476273105734521
30
0
41
1
10
66.0616367630471
20
0.230074037119579
30
0
41
1
10
66.5552371005277
20
-0.019220860325305
30
0
0
SPLINE
5
101
100
AcDbEntity
8
1
62
256
6
ByLayer
370
18
48
1
60
0
100
AcDbSpline
70
4
71
3
72
10
73
6
40
0
40
0
40
0
40
0
40
0.5
40
0.5
40
1
40
1
40
1
40
1
41
1
10
67.0464036387466
20
2.63639763894281
30
0
41
1
10
67.0357231451153
20
2.64378332084658
30
0
41
1
10
67.0264228341653
20
2.64761052977317
30
0
41
1
10
67.0103604077964
20
2.64813442492579
30
0
41
1
10
67.0035658804365
20
2.64487485014786
30
0
41
1
10
66.9976351494229
20
2.63833440199178
30
0
0
SPLINE
5
102
100
AcDbEntity
8
1
62
256
6
ByLayer
370
18
48
1
60
0
100
AcDbSpline
70
4
71
3
72
8
73
4
40
0
40
0
40
0
40
0
40
1
40
1
40
1
40
1
41
1
10
40.5000000000001
20
0.956288764735945
30
-1E-16
41
1
10
40.5000000000001
20
0.955378933269344
30
-1E-16
41
1
10
40.5
20
0.953966293842967
30
-1E-16
41
1
10
40.5
20
0.952055341839525
30
-1E-16
0
SPLINE
5
103
100
AcDbEntity
8
SK1
62
256
6
ByLayer
370
18
48
1
60
0
100
AcDbSpline
70
4
71
3
72
10
73
6
40
0
40
0
40
0
40
0
40
0.5
40
0.5
40
1
40
1
40
1
40
1
41
1
10
-35.8509618943233
20
0.0846058257564266
30
0
41
1
10
-35.8741904300927
20
0.134805060063485
30
0
41
1
10
-35.8986222732874
20
0.183567598925492
30
0
41
1
10
-35.9485161922248
20
0.277044226471986
30
0
41
1
10
-35.974056478015
20
0.321939638635627
30
0
41
1
10
-35.9999999999999
20
0.365281656974247
30
0
0
SPLINE
5
104
100
AcDbEntity
8
SK1
62
256
6
ByLayer
370
18
48
1
60
0
100
AcDbSpline
70
4
71
3
72
10
73
6
40
0
40
0
40
0
40
0
40
0.5
40
0.5
40
1
40
1
40
1
40
1
41
1
10
-35.8509618943233
20
-0.0846058257564266
30
0
41
1
10
-35.8741904300927
20
-0.134805060063485
30
0
41
1
10
-35.8986222732874
20
-0.183567598925492
30
0
41
1
10
-35.9485161922248
20
-0.277044226471986
30
0
41
1
10
-35.974056478015
20
-0.321939638635627
30
0
41
1
10
-35.9999999999999
20
-0.365281656974247
30
0
0
SPLINE
5
105
100
AcDbEntity
8
SK1
62
256
6
ByLayer
370
18
48
1
60
0
100
AcDbSpline
70
4
71
3
72
8
73
4
40
0
40
0
40
0
40
0
40
1
40
1
40
1
40
1
41
1
10
-35.8509618943233
20
-0.0846058257564266
30
0
41
1
10
-35.8173582420815
20
-0.0738003227104969
30
0
41
1
10
-35.7837019591689
20
-0.063009716016893
30
0
41
1
10
-35.7499999999999
20
-0.0522320373289347
30
0
0
SPLINE
5
106
100
AcDbEntity
8
SK1
62
256
6
ByLayer
370
18
48
1
60
0
100
AcDbSpline
70
4
71
3
72
8
73
4
40
0
40
0
40
0
40
0
40
1
40
1
40
1
40
1
41
1
10
-35.8509618943233
20
0.0846058257564266
30
0
41
1
10
-35.8173582420815
20
0.0738003227104969
30
0
41
1
10
-35.7837019591689
20
0.063009716016893
30
0
41
1
10
-35.7499999999999
20
0.0522320373289347
30
0
0
SPLINE
5
107
100
AcDbEntity
8
SK1
62
256
6
ByLayer
370
18
48
1
60
0
100
AcDbSpline
70
4
71
3
72
12
73
8
40
0
40
0
40
0
40
0
40
0.500000000000002
40
0.500000000000002
40
0.750000000000001
40
0.750000000000001
40
1
40
1
40
1
40
1
41
1
10
-35.75
20
-0.0522320373290484
30
0
41
1
10
-35.7259913046562
20
-0.0445542046298897
30
0
41
1
10
-35.7033433879313
20
-0.0286359990802509
30
0
41
1
10
-35.6754686754417
20
0.0054140461873544
30
0
41
1
10
-35.667025596347
20
0.0188002454227671
30
0
41
1
10
-35.6543350076412
20
0.0491403627544003
30
0
41
1
10
-35.65
20
0.0666076094205437
30
0
41
1
10
-35.65
20
0.0841486975029682
30
0
0
SPLINE
5
108
100
AcDbEntity
8
SK1
62
256
6
ByLayer
370
18
48
1
60
0
100
AcDbSpline
70
4
71
3
72
12
73
8
40
0
40
0
40
0
40
0
40
0.25
40
0.25
40
0.5
40
0.5
40
1
40
1
40
1
40
1
41
1
10
-35.65
20
1.32322389368571
30
-1E-16
41
1
10
-35.65
20
1.33792835261758
30
-1E-16
41
1
10
-35.6543403470552
20
1.34990963475235
30
-1E-16
41
1
10
-35.6670034572333
20
1.36759467832576
30
-1E-16
41
1
10
-35.6754069618006
20
1.37368231936088
30
-1E-16
41
1
10
-35.7033744297257
20
1.38542958148292
30
-1E-16
41
1
10
-35.7260009806424
20
1.38514485049129
30
-1E-16
41
1
10
-35.7500000000001
20
1.3774701121128
30
-1E-16
0
SPLINE
5
109
100
AcDbEntity
8
SK1
62
256
6
ByLayer
370
18
48
1
60
0
100
AcDbSpline
70
4
71
3
72
10
73
6
40
0
40
0
40
0
40
0
40
0.949857264570308
40
0.949857264570308
40
1
40
1
40
1
40
1
41
1
10
-35.75
20
0.0522320373290199
30
0
41
1
10
-35.7259913046562
20
0.0445542046298897
30
0
41
1
10
-35.7033433879313
20
0.0286359990802509
30
0
41
1
10
-35.6837792467146
20
0.0047376397949961
30
0
41
1
10
-35.6828077053242
20
0.0035166132736038
30
0
41
1
10
-35.6818470923913
20
0.0022731862981686
30
0
0
SPLINE
5
10A
100
AcDbEntity
8
SK1
62
256
6
ByLayer
370
18
48
1
60
0
100
AcDbSpline
70
4
71
3
72
8
73
4
40
0
40
0
40
0
40
0
40
1
40
1
40
1
40
1
41
1
10
-36.0000000000001
20
1.47058555633151
30
-1E-16
41
1
10
-35.9478735570755
20
1.43901529565909
30
-1E-16
41
1
10
-35.897619057052
20
1.39831598981638
30
-1E-16
41
1
10
-35.8509618943233
20
1.3450963236852
30
-1E-16
0
SPLINE
5
10B
100
AcDbEntity
8
SK1
62
256
6
ByLayer
370
18
48
1
60
0
100
AcDbSpline
70
4
71
3
72
8
73
4
40
0
40
0
40
0
40
0
40
1
40
1
40
1
40
1
41
1
10
-35.75
20
1.37747011211266
30
-1E-16
41
1
10
-35.7837021662994
20
1.36669236718569
30
-1E-16
41
1
10
-35.8173584585803
20
1.35590175711434
30
-1E-16
41
1
10
-35.8509618943233
20
1.3450963236852
30
-1E-16
0
SPLINE
5
10C
100
AcDbEntity
8
1
62
256
6
ByLayer
370
18
48
1
60
0
100
AcDbSpline
70
4
71
2
72
6
73
3
40
0
40
0
40
0
40
1
40
1
40
1
41
1
10
41.9831725108011
20
2.59936157274748
30
0
41
1
10
41.2929802829314
20
2.60162277752892
30
0
41
1
10
40.602804180128
20
2.59642107358323
30
0
0
SPLINE
5
10D
100
AcDbEntity
8
1
62
256
6
ByLayer
370
18
48
1
60
0
100
AcDbSpline
70
4
71
1
72
4
73
2
40
0
40
0
40
1
40
1
41
1
10
67.0313672642563
20
-2.64653933659429
30
0
41
1
10
67.0471371244194
20
-2.63591377764135
30
0
0
SPLINE
5
10E
100
AcDbEntity
8
1
62
256
6
ByLayer
370
18
48
1
60
0
100
AcDbSpline
70
4
71
3
72
11
73
7
40
0
40
0
40
0
40
0
40
0.0197360957387553
40
0.246661538201077
40
0.573445075693498
40
1
40
1
40
1
40
1
41
1
10
66.5618371405186
20
0.689241362435098
30
0
41
1
10
66.5410047815116
20
0.696127105237679
30
0
41
1
10
66.2807136991468
20
0.782395659335322
30
0
41
1
10
65.678519318793
20
0.991667883490294
30
-1E-16
41
1
10
64.6535075335338
20
1.36206769439772
30
-1E-16
41
1
10
63.8723505297344
20
1.66392582956019
30
-1E-16
41
1
10
63.4319593466298
20
1.83997500338103
30
-1E-16
0
SPLINE
5
10F
100
AcDbEntity
8
1
62
256
6
ByLayer
370
18
48
1
60
0
100
AcDbSpline
70
4
71
3
72
30
73
26
40
0
40
0
40
0
40
0
40
1.15919698464E-05
40
6.66560693046E-05
40
0.0001056040251553
40
0.0001663179888273
40
0.0002176685453186
40
0.0004740552104115
40
0.0006789747587819
40
0.0010542712120111
40
0.0017544332205819
40
0.003100922780372
40
0.0058146776674994
40
0.0287017762770258
40
0.113519933303241
40
0.223923307862932
40
0.337328251360198
40
0.453502445168101
40
0.523766723591837
40
0.582205087477346
40
0.633160343292285
40
0.694019706116041
40
0.781527088570165
40
0.895673651472434
40
1
40
1
40
1
40
1
41
1
10
35.9396000264115
20
0.0349718897644209
30
0
41
1
10
35.9396025764583
20
0.0349718493870057
30
0
41
1
10
35.939615509711
20
0.0349721321139498
30
0
41
1
10
35.9396197805184
20
0.0349773985684294
30
0
41
1
10
35.9395311708121
20
0.0350125665230792
30
0
41
1
10
35.9393875197674
20
0.0350628566819182
30
0
41
1
10
35.9389292821498
20
0.0352145743523522
30
0
41
1
10
35.9380251167863
20
0.0354901573626023
30
0
41
1
10
35.936759710687
20
0.0358885599364669
30
0
41
1
10
35.9347370547043
20
0.0365171984815618
30
0
41
1
10
35.9309354404059
20
0.0376950127188138
30
0
41
1
10
35.9233514202323
20
0.0400202436655093
30
0
41
1
10
35.8798362855777
20
0.0531782606128388
30
0
41
1
10
35.6948975693863
20
0.107331547157088
30
0
41
1
10
35.3259072251385
20
0.217887074938716
30
0
41
1
10
34.804823268543
20
0.37992838660071
30
0
41
1
10
34.2327415515617
20
0.56430903248139
30
0
41
1
10
33.7298781773248
20
0.732399790021617
30
0
41
1
10
33.3203574917467
20
0.873208456897856
30
-1E-16
41
1
10
33.020493632261
20
0.978294679563561
30
-1E-16
41
1
10
32.7368250896261
20
1.07929449513023
30
-1E-16
41
1
10
32.4053274186379
20
1.19920190987813
30
-1E-16
41
1
10
31.9697758222741
20
1.36009219008355
30
-1E-16
41
1
10
31.463617429208
20
1.55185444826895
30
-1E-16
41
1
10
31.1037985734208
20
1.69299196928094
30
-1E-16
41
1
10
30.9323045990816
20
1.76127654288686
30
-1E-16
0
SPLINE
5
110
100
AcDbEntity
8
1
62
256
6
ByLayer
370
18
48
1
60
0
100
AcDbSpline
70
4
71
3
72
23
73
19
40
0
40
0
40
0
40
0
40
5.4862783035E-05
40
0.0001185992010235
40
0.0002035571536595
40
0.0004375280055108
40
0.00062252699578
40
0.000956524401728
40
0.0015645618916637
40
0.0067758708218691
40
0.028225992016573
40
0.117663218774211
40
0.224312500256432
40
0.318847361798255
40
0.402534327618239
40
0.550628460483394
40
0.761879938174676
40
1
40
1
40
1
40
1
41
1
10
52.3225944400817
20
0.0240236344175173
30
0
41
1
10
52.3226124994626
20
0.0240207504238299
30
0
41
1
10
52.3226320782191
20
0.0240201917058869
30
0
41
1
10
52.3225527933193
20
0.0240518544760278
30
0
41
1
10
52.3221797276126
20
0.0241740072632126
30
0
41
1
10
52.321284901273
20
0.024439337678217
30
0
41
1
10
52.3202038088418
20
0.0247705670188623
30
0
41
1
10
52.3184901916126
20
0.0252917739489362
30
0
41
1
10
52.3092735227121
20
0.02811254014631
30
0
41
1
10
52.2658007138227
20
0.0414563962116006
30
0
41
1
10
52.0678709766852
20
0.100123683153185
30
0
41
1
10
51.6982616924567
20
0.211017761425694
30
0
41
1
10
51.2032791370113
20
0.364822520328033
30
0
41
1
10
50.7201800891281
20
0.520007960127543
30
0
41
1
10
50.1680900342863
20
0.702478177651074
30
0
41
1
10
49.4213266648996
20
0.958342572983383
30
-1E-16
41
1
10
48.4195367872592
20
1.31953640936467
30
-1E-16
41
1
10
47.6720494258674
20
1.60761897132696
30
-1E-16
41
1
10
47.2775488766648
20
1.76477157599382
30
-1E-16
0
SPLINE
5
111
100
AcDbEntity
8
1
62
256
6
ByLayer
370
18
48
1
60
0
100
AcDbSpline
70
4
71
3
72
23
73
19
40
0
40
0
40
0
40
0
40
6.17681186305E-05
40
0.0001077570949008
40
0.0001820557591698
40
0.000589846633818
40
0.0009104986865864
40
0.001487035167239
40
0.002529070126512
40
0.0068838442922612
40
0.0246875610279751
40
0.100146748555269
40
0.210825373944848
40
0.341397353537026
40
0.463208028784597
40
0.614027948135569
40
0.809453619369524
40
1
40
1
40
1
40
1
41
1
10
19.3357670057856
20
0.107713127852804
30
0
41
1
10
19.3357726553062
20
0.107719485486569
30
0
41
1
10
19.3357648573615
20
0.107735737233782
30
0
41
1
10
19.3356333115254
20
0.107793936345757
30
0
41
1
10
19.3351200437512
20
0.107992879081934
30
0
41
1
10
19.3337496866421
20
0.108400469083364
30
0
41
1
10
19.3319588554641
20
0.108983626268611
30
0
41
1
10
19.3291447046402
20
0.109874570016842
30
0
41
1
10
19.3206545134975
20
0.112570885684164
30
0
41
1
10
19.2866505876717
20
0.123089107111014
30
0
41
1
10
19.1308306215849
20
0.169908262923627
30
0
41
1
10
18.8085378384473
20
0.268817820069756
30
0
41
1
10
18.3042652958949
20
0.427193698840966
30
0
41
1
10
17.7297490592139
20
0.614654743111458
30
0
41
1
10
17.0930434744446
20
0.829892087179786
30
-1E-16
41
1
10
16.3571057714757
20
1.08848397755671
30
-1E-16
41
1
10
15.517130418571
20
1.39675301946389
30
-1E-16
41
1
10
14.9174415329292
20
1.62951807462406
30
-1E-16
41
1
10
14.6223456034171
20
1.74699512967587
30
-1E-16
0
SPLINE
5
112
100
AcDbEntity
8
1
62
256
6
ByLayer
370
18
48
1
60
0
100
AcDbSpline
70
4
71
3
72
19
73
15
40
0
40
0
40
0
40
0
40
0.169695713506912
40
0.298057953286193
40
0.391821276733873
40
0.486022042035606
40
0.625174499451356
40
0.688704912055269
40
0.729568988335664
40
0.769767427282362
40
0.81487909688166
40
0.888867503372732
40
0.975228201917285
40
1
40
1
40
1
40
1
41
1
10
51.3417346464036
20
-2.60283691101708
30
0
41
1
10
51.6605751786793
20
-2.60298466233098
30
0
41
1
10
52.220595777055
20
-2.60322152730947
30
0
41
1
10
52.9567909976108
20
-2.60432870557028
30
0
41
1
10
53.551138092697
20
-2.6040062679499
30
0
41
1
10
54.1657588458423
20
-2.60459823961793
30
0
41
1
10
54.7235751355219
20
-2.60545580330248
30
0
41
1
10
55.1811762859716
20
-2.60475405862732
30
0
41
1
10
55.4528528448714
20
-2.60470061174436
30
0
41
1
10
55.6899220115077
20
-2.6050462709832
30
0
41
1
10
55.9892280152943
20
-2.60544877088069
30
0
41
1
10
56.375268102076
20
-2.60597705020822
30
0
41
1
10
56.723093799239
20
-2.6066174790129
30
0
41
1
10
56.9318997553812
20
-2.60648629771035
30
0
41
1
10
56.9784431704149
20
-2.60643908295839
30
0
0
SPLINE
5
113
100
AcDbEntity
8
1
62
256
6
ByLayer
370
18
48
1
60
0
100
AcDbSpline
70
4
71
3
72
20
73
16
40
0
40
0
40
0
40
0
40
0.103492539733574
40
0.174580411459285
40
0.268015856426762
40
0.329174512027653
40
0.390281198854267
40
0.469649046844404
40
0.565620477606788
40
0.634713496122844
40
0.700850394585247
40
0.787878490884816
40
0.905203145651888
40
0.975513595931205
40
1
40
1
40
1
40
1
41
1
10
58.3392005458316
20
2.60732069767386
30
0
41
1
10
58.1456421760189
20
2.60629783536678
30
0
41
1
10
57.8191268380159
20
2.60523770784408
30
0
41
1
10
57.3178466060891
20
2.60583737308573
30
0
41
1
10
56.8957445033707
20
2.60672707029752
30
0
41
1
10
56.4923120603841
20
2.60629960340265
30
0
41
1
10
56.115189910414
20
2.60551700529731
30
0
41
1
10
55.6729555650447
20
2.60500750305562
30
0
41
1
10
55.2157838700123
20
2.60461901048845
30
0
41
1
10
54.7833586726751
20
2.60530792320816
30
0
41
1
10
54.3676608310577
20
2.60514037185385
30
0
41
1
10
53.8617550269178
20
2.60400775693239
30
0
41
1
10
53.3480405031112
20
2.6042468434641
30
0
41
1
10
52.951301421426
20
2.60413101059592
30
0
41
1
10
52.7739985414188
20
2.60393556301202
30
0
41
1
10
52.7282006024701
20
2.60388279514584
30
0
0
SPLINE
5
114
100
AcDbEntity
8
1
62
256
6
ByLayer
370
18
48
1
60
0
100
AcDbSpline
70
4
71
3
72
8
73
4
40
0
40
0
40
0
40
0
40
1
40
1
40
1
40
1
41
1
10
51.5691486121788
20
2.60296146679937
30
0
41
1
10
51.4933438677282
20
2.60291650968696
30
0
41
1
10
51.4175391938735
20
2.60287465770409
30
0
41
1
10
51.3417346464036
20
2.60283691101708
30
0
0
SPLINE
5
115
100
AcDbEntity
8
1
62
256
6
ByLayer
370
18
48
1
60
0
100
AcDbSpline
70
4
71
2
72
6
73
3
40
0
40
0
40
0
40
1
40
1
40
1
41
1
10
59.5199240122076
20
-8.0110020804E-06
30
0
41
1
10
59.5199177201283
20
2.4835702561E-06
30
0
41
1
10
59.5199114280115
20
1.3112238662E-05
30
0
0
LINE
5
84
100
AcDbEntity
8
1
62
256
6
ByLayer
370
18
48
1
60
0
100
AcDbLine
10
67.950584
20
0.042686
30
0
11
67.31414
21
0.74521
31
0
39
0
210
0
220
0
230
1
0
LINE
5
85
100
AcDbEntity
8
1
62
256
6
ByLayer
370
18
48
1
60
0
100
AcDbLine
10
0
20
3
30
0
11
0
21
0
31
0
39
0
210
0
220
0
230
1
0
LINE
5
86
100
AcDbEntity
8
1
62
256
6
ByLayer
370
18
48
1
60
0
100
AcDbLine
10
0
20
0
30
0
11
0
21
-3
31
0
39
0
210
0
220
0
230
1
0
LINE
5
87
100
AcDbEntity
8
1
62
256
6
ByLayer
370
18
48
1
60
0
100
AcDbLine
10
0.460246
20
2.85435
30
0
11
0.460246
21
0
31
0
39
0
210
0
220
0
230
1
0
LINE
5
88
100
AcDbEntity
8
1
62
256
6
ByLayer
370
18
48
1
60
0
100
AcDbLine
10
0.460246
20
0
30
0
11
0.460246
21
-2.85435
31
0
39
0
210
0
220
0
230
1
0
LINE
5
89
100
AcDbEntity
8
1
62
256
6
ByLayer
370
18
48
1
60
0
100
AcDbLine
10
40.5
20
0.993393
30
0
11
40.5
21
0.956289
31
0
39
0
210
0
220
0
230
1
0
LINE
5
8A
100
AcDbEntity
8
1
62
256
6
ByLayer
370
18
48
1
60
0
100
AcDbLine
10
40.502062
20
2.733438
30
0
11
40.502062
21
1.392714
31
0
39
0
210
0
220
0
230
1
0
LINE
5
8B
100
AcDbEntity
8
1
62
256
6
ByLayer
370
18
48
1
60
0
100
AcDbLine
10
40.502062
20
-2.664633
30
0
11
40.502062
21
-2.733438
31
0
39
0
210
0
220
0
230
1
0
LINE
5
8C
100
AcDbEntity
8
1
62
256
6
ByLayer
370
18
48
1
60
0
100
AcDbLine
10
0.920992
20
2.7087
30
0
11
0.920992
21
0
31
0
39
0
210
0
220
0
230
1
0
LINE
5
8D
100
AcDbEntity
8
1
62
256
6
ByLayer
370
18
48
1
60
0
100
AcDbLine
10
0.920992
20
0
30
0
11
0.920992
21
-2.7087
31
0
39
0
210
0
220
0
230
1
0
LINE
5
8E
100
AcDbEntity
8
1
62
256
6
ByLayer
370
18
48
1
60
0
100
AcDbLine
10
1
20
0
30
0
11
1
21
2.708749
31
0
39
0
210
0
220
0
230
1
0
LINE
5
8F
100
AcDbEntity
8
1
62
256
6
ByLayer
370
18
48
1
60
0
100
AcDbLine
10
1
20
-2.708749
30
0
11
1
21
0
31
0
39
0
210
0
220
0
230
1
0
LINE
5
90
100
AcDbEntity
8
SK1
62
256
6
ByLayer
370
18
48
1
60
0
100
AcDbLine
10
-35.65
20
0.084149
30
0
11
-35.65
21
1.323224
31
0
39
0
210
0
220
0
230
1
0
LINE
5
92
100
AcDbEntity
8
SK1
62
256
6
ByLayer
370
18
48
1
60
0
100
AcDbLine
10
-35.065
20
-3
30
0
11
-35.065
21
3
31
0
39
0
210
0
220
0
230
1
0
LINE
5
93
100
AcDbEntity
8
SK1
62
256
6
ByLayer
370
18
48
1
60
0
100
AcDbLine
10
-36
20
1.470586
30
0
11
-36
21
2.065
31
0
39
0
210
0
220
0
230
1
0
LINE
5
94
100
AcDbEntity
8
SK1
62
256
6
ByLayer
370
18
48
1
60
0
100
AcDbLine
10
-36
20
0.365282
30
0
11
-36
21
1.470586
31
0
39
0
210
0
220
0
230
1
0
LINE
5
95
100
AcDbEntity
8
SK1
62
256
6
ByLayer
370
18
48
1
60
0
100
AcDbLine
10
-35.75
20
0.052232
30
0
11
-35.75
21
1.37747
31
0
39
0
210
0
220
0
230
1
0
LINE
5
96
100
AcDbEntity
8
SK1
62
256
6
ByLayer
370
18
48
1
60
0
100
AcDbLine
10
-36
20
-2.065
30
0
11
-36
21
-0.365282
31
0
39
0
210
0
220
0
230
1
0
LINE
5
97
100
AcDbEntity
8
SK1
62
256
6
ByLayer
370
18
48
1
60
0
100
AcDbLine
10
0
20
3
30
0
11
0
21
-3
31
0
39
0
210
0
220
0
230
1
0
LINE
5
98
100
AcDbEntity
8
SK1
62
256
6
ByLayer
370
18
48
1
60
0
100
AcDbLine
10
-35.850962
20
0.084606
30
0
11
-35.850962
21
1.345096
31
0
39
0
210
0
220
0
230
1
0
LINE
5
99
100
AcDbEntity
8
1
62
256
6
ByLayer
370
18
48
1
60
0
100
AcDbLine
10
0.920992
20
-2.7087
30
0
11
1
21
-2.708749
31
0
39
0
210
0
220
0
230
1
0
LINE
5
9A
100
AcDbEntity
8
1
62
256
6
ByLayer
370
18
48
1
60
0
100
AcDbLine
10
1
20
2.708749
30
0
11
0.920992
21
2.7087
31
0
39
0
210
0
220
0
230
1
0
LINE
5
9B
100
AcDbEntity
8
SK1
62
256
6
ByLayer
370
18
48
1
60
0
100
AcDbLine
10
-36
20
-2.065
30
0
11
-35.065
21
-3
31
0
39
0
210
0
220
0
230
1
0
LINE
5
9C
100
AcDbEntity
8
SK1
62
256
6
ByLayer
370
18
48
1
60
0
100
AcDbLine
10
-35.065
20
3
30
0
11
-36
21
2.065
31
0
39
0
210
0
220
0
230
1
0
LINE
5
9D
100
AcDbEntity
8
SK1
62
256
6
ByLayer
370
18
48
1
60
0
100
AcDbLine
10
-35.065
20
-3
30
0
11
0
21
-3
31
0
39
0
210
0
220
0
230
1
0
LINE
5
9E
100
AcDbEntity
8
SK1
62
256
6
ByLayer
370
18
48
1
60
0
100
AcDbLine
10
0
20
3
30
0
11
-35.065
21
3
31
0
39
0
210
0
220
0
230
1
0
LINE
5
9F
100
AcDbEntity
8
1
62
256
6
ByLayer
370
18
48
1
60
0
100
AcDbLine
10
1
20
-2.708749
30
0
11
10.079973
21
-2.714424
31
0
39
0
210
0
220
0
230
1
0
LINE
5
A0
100
AcDbEntity
8
1
62
256
6
ByLayer
370
18
48
1
60
0
100
AcDbLine
10
17.842536
20
-2.719276
30
0
11
26.412952
21
-2.724632
31
0
39
0
210
0
220
0
230
1
0
LINE
5
A1
100
AcDbEntity
8
1
62
256
6
ByLayer
370
18
48
1
60
0
100
AcDbLine
10
34.188908
20
-2.729492
30
0
11
40.502062
21
-2.733438
31
0
39
0
210
0
220
0
230
1
0
LINE
5
A2
100
AcDbEntity
8
1
62
256
6
ByLayer
370
18
48
1
60
0
100
AcDbLine
10
41.988631
20
-2.734367
30
0
11
42.746055
21
-2.734841
31
0
39
0
210
0
220
0
230
1
0
LINE
5
A3
100
AcDbEntity
8
1
62
256
6
ByLayer
370
18
48
1
60
0
100
AcDbLine
10
50.614328
20
-2.739758
30
0
11
51.346126
21
-2.740216
31
0
39
0
210
0
220
0
230
1
0
LINE
5
A4
100
AcDbEntity
8
1
62
256
6
ByLayer
370
18
48
1
60
0
100
AcDbLine
10
58.338813
20
-2.744586
30
0
11
59.080639
21
-2.74505
31
0
39
0
210
0
220
0
230
1
0
LINE
5
A5
100
AcDbEntity
8
1
62
256
6
ByLayer
370
18
48
1
60
0
100
AcDbLine
10
59.080639
20
2.74505
30
0
11
58.338813
21
2.744586
31
0
39
0
210
0
220
0
230
1
0
LINE
5
A6
100
AcDbEntity
8
1
62
256
6
ByLayer
370
18
48
1
60
0
100
AcDbLine
10
51.346126
20
2.740216
30
0
11
50.614328
21
2.739758
31
0
39
0
210
0
220
0
230
1
0
LINE
5
A7
100
AcDbEntity
8
1
62
256
6
ByLayer
370
18
48
1
60
0
100
AcDbLine
10
42.746055
20
2.734841
30
0
11
41.988631
21
2.734367
31
0
39
0
210
0
220
0
230
1
0
LINE
5
A8
100
AcDbEntity
8
1
62
256
6
ByLayer
370
18
48
1
60
0
100
AcDbLine
10
40.502062
20
2.733438
30
0
11
34.188908
21
2.729492
31
0
39
0
210
0
220
0
230
1
0
LINE
5
A9
100
AcDbEntity
8
1
62
256
6
ByLayer
370
18
48
1
60
0
100
AcDbLine
10
26.412952
20
2.724632
30
0
11
17.842536
21
2.719276
31
0
39
0
210
0
220
0
230
1
0
LINE
5
AA
100
AcDbEntity
8
1
62
256
6
ByLayer
370
18
48
1
60
0
100
AcDbLine
10
10.079973
20
2.714424
30
0
11
1
21
2.708749
31
0
39
0
210
0
220
0
230
1
0
LINE
5
AB
100
AcDbEntity
8
SK4
62
256
6
ByLayer
370
18
48
0.05
60
0
100
AcDbLine
10
73
20
0
30
0
11
-41
21
0
31
0
39
0
210
0
220
0
230
1
0
LINE
5
AD
100
AcDbEntity
8
4
62
256
6
ByLayer
370
18
48
0.05
60
0
100
AcDbLine
10
-36
20
0
30
0
11
73
21
0
31
0
39
0
210
0
220
0
230
1
0
LINE
5
AF
100
AcDbEntity
8
80
62
256
6
ByLayer
370
18
48
1
60
0
100
AcDbLine
10
0
20
0
30
0
11
-6
21
0
31
0
39
0
210
0
220
0
230
1
0
LINE
5
B0
100
AcDbEntity
8
81
62
256
6
ByLayer
370
18
48
1
60
0
100
AcDbLine
10
68
20
0
30
0
11
74
21
0
31
0
39
0
210
0
220
0
230
1
0
LINE
5
B1
100
AcDbEntity
8
SK2
62
256
6
ByLayer
370
13
48
1
60
0
100
AcDbLine
10
68.542948
20
1.491765
30
0
11
75.92619
21
21.777423
31
0
39
0
210
0
220
0
230
1
0
LINE
5
B3
100
AcDbEntity
8
SK2
62
256
6
ByLayer
370
13
48
1
60
0
100
AcDbLine
10
68.542948
20
-1.491765
30
0
11
75.92619
21
-21.777423
31
0
39
0
210
0
220
0
230
1
0
LINE
5
B4
100
AcDbEntity
8
1
62
256
6
ByLayer
370
13
48
1
60
0
100
AcDbLine
10
74.840293
20
18.793892
30
0
11
77.936889
21
17.977538
31
0
39
0
210
0
220
0
230
1
0
LINE
5
B5
100
AcDbEntity
8
1
62
256
6
ByLayer
370
13
48
1
60
0
100
AcDbLine
10
74.840293
20
18.793892
30
0
11
77.620089
21
17.203896
31
0
39
0
210
0
220
0
230
1
0
LINE
5
B6
100
AcDbEntity
8
1
62
256
6
ByLayer
370
13
48
1
60
0
100
AcDbLine
10
77.936889
20
17.977538
30
0
11
77.620089
21
17.203896
31
0
39
0
210
0
220
0
230
1
0
LINE
5
B7
100
AcDbEntity
8
1
62
256
6
ByLayer
370
13
48
1
60
0
100
AcDbLine
10
74.840293
20
-18.793892
30
0
11
77.620087
21
-17.203897
31
0
39
0
210
0
220
0
230
1
0
LINE
5
B8
100
AcDbEntity
8
1
62
256
6
ByLayer
370
13
48
1
60
0
100
AcDbLine
10
74.840293
20
-18.793892
30
0
11
77.936892
21
-17.977537
31
0
39
0
210
0
220
0
230
1
0
LINE
5
B9
100
AcDbEntity
8
1
62
256
6
ByLayer
370
13
48
1
60
0
100
AcDbLine
10
77.620087
20
-17.203897
30
0
11
77.936892
21
-17.977537
31
0
39
0
210
0
220
0
230
1
0
MTEXT
5
116
100
AcDbEntity
8
SK2
62
256
6
ByLayer
370
18
48
1
60
0
100
AcDbMText
10
81.717388
20
-2.467451
30
0
210
0
220
0
230
1
1
\W0.7237;140.00
40
3.50012
41
0
44
1.084337
50
0
71
7
72
5
7
iso_b_vert
0
MTEXT
5
119
100
AcDbEntity
8
SK6
62
256
6
ByLayer
370
18
48
1
60
0
100
AcDbMText
10
-23.331725
20
-57.94959
30
0
210
0
220
0
230
1
1
\W0.7494;860.1-0550-045A1-GM X1BM
40
3.175
41
0
44
1.084337
50
0
71
7
72
5
7
iso_b_vert
0
DIMENSION
5
11C
100
AcDbEntity
8
SK2
62
256
6
ByLayer
370
18
48
1
60
0
100
AcDbDimension
2
_U0
10
68
20
-26.50012
30
0
11
34
21
-26.50012
31
0
70
32
71
2
72
1
41
1
210
0
220
0
230
1
3
Standard
100
AcDbAlignedDimension
13
0
23
-3
33
0
14
68
24
0
34
0
50
0
100
AcDbRotatedDimension
1001
ACAD
1000
DSTYLE
1002
{
1070
   371
1070
    13
1070
   372
1070
    13
1070
     3
1000

1070
   170
1070
     0
1070
   144
1040
1.0
1070
   277
1070
     2
1070
   284
1070
     8
1070
   278
1070
    46
1070
   146
1040
0.999966
1070
   345
1005
16
1070
   347
1005
16
1070
   346
1005
16
1070
   344
1005
11D
1070
   343
1005
11D
1070
   172
1070
     1
1070
    76
1070
     0
1070
    75
1070
     0
1070
   282
1070
     0
1070
   281
1070
     0
1070
    71
1070
     0
1070
    74
1070
     0
1070
   279
1070
     0
1070
   173
1070
     1
1070
   340
1005
117
1070
   271
1070
     1
1070
   272
1070
     2
1070
    77
1070
     1
1070
    73
1070
     1
1070
   171
1070
     3
1070
   274
1070
     4
1070
   177
1070
   150
1070
   176
1070
     9
1070
   178
1070
    43
1070
    78
1070
     8
1070
    48
1040
-0.1
1070
    41
1040
3.175
1070
   147
1040
1.75006
1070
    42
1040
1.5875
1070
    44
1040
3.175
1070
   140
1040
3.50012
1002
}
1001
ACAD_DSTYLE_DIM_LINETYPE
1070
   380
1005
16
1001
ACAD_DSTYLE_DIM_EXT1_LINETYPE
1070
   381
1005
16
1001
ACAD_DSTYLE_DIM_EXT2_LINETYPE
1070
   382
1005
16
0
DIMENSION
5
142
100
AcDbEntity
8
2
62
256
6
ByLayer
370
18
48
1
60
0
100
AcDbDimension
2
_U1
10
74.75006
20
2.75
30
0
11
74.75006
21
18.323233
31
0
70
32
71
1
72
1
41
1
210
0
220
0
230
1
3
Standard
100
AcDbAlignedDimension
13
66.9991
23
-2.75
33
0
14
66.9991
24
2.75
34
0
50
90
100
AcDbRotatedDimension
1001
ACAD
1000
DSTYLE
1002
{
1070
   371
1070
    13
1070
   372
1070
    13
1070
     3
1000

1070
   170
1070
     0
1070
   144
1040
1.0
1070
   277
1070
     2
1070
   284
1070
     8
1070
   278
1070
    46
1070
   146
1040
0.999966
1070
   345
1005
16
1070
   347
1005
16
1070
   346
1005
16
1070
   344
1005
11D
1070
   343
1005
11D
1070
   172
1070
     1
1070
    76
1070
     0
1070
    75
1070
     0
1070
   282
1070
     0
1070
   281
1070
     0
1070
    71
1070
     0
1070
    74
1070
     0
1070
   279
1070
     0
1070
   173
1070
     1
1070
   340
1005
117
1070
   271
1070
     1
1070
   272
1070
     2
1070
    77
1070
     1
1070
    73
1070
     0
1070
   171
1070
     3
1070
   274
1070
     4
1070
   177
1070
   150
1070
   176
1070
     9
1070
   178
1070
    43
1070
    78
1070
     8
1070
    48
1040
-0.1
1070
    41
1040
3.175
1070
   147
1040
1.75006
1070
    42
1040
1.5875
1070
    44
1040
3.175
1070
   140
1040
3.50012
1002
}
1001
ACAD_DSTYLE_DIM_LINETYPE
1070
   380
1005
16
1001
ACAD_DSTYLE_DIM_EXT1_LINETYPE
1070
   381
1005
16
1001
ACAD_DSTYLE_DIM_EXT2_LINETYPE
1070
   382
1005
16
0
DIMENSION
5
161
100
AcDbEntity
8
SK2
62
256
6
ByLayer
370
18
48
1
60
0
100
AcDbDimension
2
_U2
10
-39.24994
20
-3
30
0
11
-39.24994
21
17.10734
31
0
70
32
71
1
72
1
41
1
210
0
220
0
230
1
3
Standard
100
AcDbAlignedDimension
13
-36
23
3
33
0
14
-36
24
-3
34
0
50
90
100
AcDbRotatedDimension
1001
ACAD
1000
DSTYLE
1002
{
1070
   371
1070
    13
1070
   372
1070
    13
1070
     3
1000

1070
   170
1070
     0
1070
   144
1040
1.0
1070
   277
1070
     2
1070
   284
1070
     8
1070
   278
1070
    46
1070
   146
1040
0.999966
1070
   345
1005
16
1070
   347
1005
16
1070
   346
1005
16
1070
   344
1005
11D
1070
   343
1005
11D
1070
   172
1070
     1
1070
    76
1070
     0
1070
    75
1070
     0
1070
   282
1070
     0
1070
   281
1070
     0
1070
    71
1070
     0
1070
    74
1070
     0
1070
   279
1070
     0
1070
   173
1070
     1
1070
   340
1005
117
1070
   271
1070
     1
1070
   272
1070
     2
1070
    77
1070
     1
1070
    73
1070
     0
1070
   171
1070
     3
1070
   274
1070
     4
1070
   177
1070
   150
1070
   176
1070
     9
1070
   178
1070
    43
1070
    78
1070
     8
1070
    48
1040
-0.1
1070
    41
1040
3.175
1070
   147
1040
1.75006
1070
    42
1040
1.5875
1070
    44
1040
3.175
1070
   140
1040
3.50012
1002
}
1001
ACAD_DSTYLE_DIM_LINETYPE
1070
   380
1005
16
1001
ACAD_DSTYLE_DIM_EXT1_LINETYPE
1070
   381
1005
16
1001
ACAD_DSTYLE_DIM_EXT2_LINETYPE
1070
   382
1005
16
0
DIMENSION
5
17F
100
AcDbEntity
8
SK2
62
256
6
ByLayer
370
18
48
1
60
0
100
AcDbDimension
2
_U3
10
0
20
-26.50012
30
0
11
-18
21
-26.50012
31
0
70
32
71
1
72
1
41
1
210
0
220
0
230
1
3
Standard
100
AcDbAlignedDimension
13
-36
23
-3
33
0
14
0
24
-3
34
0
50
0
100
AcDbRotatedDimension
1001
ACAD
1000
DSTYLE
1002
{
1070
   371
1070
    13
1070
   372
1070
    13
1070
     3
1000

1070
   170
1070
     0
1070
   144
1040
1.0
1070
   277
1070
     2
1070
   284
1070
     8
1070
   278
1070
    46
1070
   146
1040
0.999966
1070
   345
1005
16
1070
   347
1005
16
1070
   346
1005
16
1070
   344
1005
11D
1070
   343
1005
11D
1070
   172
1070
     1
1070
    76
1070
     0
1070
    75
1070
     0
1070
   282
1070
     0
1070
   281
1070
     0
1070
    71
1070
     0
1070
    74
1070
     0
1070
   279
1070
     0
1070
   173
1070
     1
1070
   340
1005
117
1070
   271
1070
     1
1070
   272
1070
     2
1070
    77
1070
     1
1070
    73
1070
     1
1070
   171
1070
     3
1070
   274
1070
     4
1070
   177
1070
   150
1070
   176
1070
     9
1070
   178
1070
    43
1070
    78
1070
     8
1070
    48
1040
-0.1
1070
    41
1040
3.175
1070
   147
1040
1.75006
1070
    42
1040
1.5875
1070
    44
1040
3.175
1070
   140
1040
3.50012
1002
}
1001
ACAD_DSTYLE_DIM_LINETYPE
1070
   380
1005
16
1001
ACAD_DSTYLE_DIM_EXT1_LINETYPE
1070
   381
1005
16
1001
ACAD_DSTYLE_DIM_EXT2_LINETYPE
1070
   382
1005
16
0
DIMENSION
5
19B
100
AcDbEntity
8
SK2
62
256
6
ByLayer
370
18
48
1
60
0
100
AcDbDimension
2
_U4
10
68
20
-17.74982
30
0
11
37
21
-17.74982
31
0
70
32
71
1
72
1
41
1
210
0
220
0
230
1
3
Standard
100
AcDbAlignedDimension
13
6
23
3.25
33
0
14
68
24
0
34
0
50
0
100
AcDbRotatedDimension
1001
ACAD
1000
DSTYLE
1002
{
1070
   371
1070
    13
1070
   372
1070
    13
1070
     3
1000

1070
   170
1070
     0
1070
   144
1040
1.0
1070
   277
1070
     2
1070
   284
1070
     8
1070
   278
1070
    46
1070
   146
1040
0.999966
1070
   345
1005
16
1070
   347
1005
16
1070
   346
1005
16
1070
   344
1005
11D
1070
   343
1005
11D
1070
   172
1070
     1
1070
    76
1070
     0
1070
    75
1070
     0
1070
   282
1070
     0
1070
   281
1070
     0
1070
    71
1070
     0
1070
    74
1070
     0
1070
   279
1070
     0
1070
   173
1070
     1
1070
   340
1005
117
1070
   271
1070
     1
1070
   272
1070
     2
1070
    77
1070
     1
1070
    73
1070
     1
1070
   171
1070
     3
1070
   274
1070
     4
1070
   177
1070
   150
1070
   176
1070
     9
1070
   178
1070
    43
1070
    78
1070
     8
1070
    48
1040
-0.1
1070
    41
1040
3.175
1070
   147
1040
1.75006
1070
    42
1040
1.5875
1070
    44
1040
3.175
1070
   140
1040
3.50012
1002
}
1001
ACAD_DSTYLE_DIM_LINETYPE
1070
   380
1005
16
1001
ACAD_DSTYLE_DIM_EXT1_LINETYPE
1070
   381
1005
16
1001
ACAD_DSTYLE_DIM_EXT2_LINETYPE
1070
   382
1005
16
0
DIMENSION
5
1B7
100
AcDbEntity
8
SK2
62
256
6
ByLayer
370
18
48
1
60
0
100
AcDbDimension
2
_U5
10
68
20
-9.82
30
0
11
45.3
21
-9.82
31
0
70
32
71
1
72
1
41
1
210
0
220
0
230
1
3
Standard
100
AcDbAlignedDimension
13
22.6
23
-2.75
33
0
14
68
24
0
34
0
50
0
100
AcDbRotatedDimension
1001
ACAD
1000
DSTYLE
1002
{
1070
   371
1070
    13
1070
   372
1070
    13
1070
     3
1000

1070
   170
1070
     0
1070
   144
1040
1.0
1070
   277
1070
     2
1070
   284
1070
     8
1070
   278
1070
    46
1070
   146
1040
1.25
1070
   345
1005
16
1070
   347
1005
16
1070
   346
1005
16
1070
   344
1005
11D
1070
   343
1005
11D
1070
   172
1070
     1
1070
    76
1070
     0
1070
    75
1070
     0
1070
   282
1070
     0
1070
   281
1070
     0
1070
    71
1070
     0
1070
    74
1070
     0
1070
   279
1070
     0
1070
   173
1070
     1
1070
   340
1005
117
1070
   271
1070
     1
1070
   272
1070
     2
1070
    77
1070
     1
1070
    73
1070
     1
1070
   171
1070
     3
1070
   274
1070
     4
1070
   177
1070
   150
1070
   176
1070
     9
1070
   178
1070
    43
1070
    78
1070
     8
1070
    48
1040
-0.1
1070
    41
1040
3.175
1070
   147
1040
0.42
1070
    42
1040
1.5875
1070
    44
1040
0.5
1070
   140
1040
2.8
1002
}
1001
ACAD_DSTYLE_DIM_LINETYPE
1070
   380
1005
16
1001
ACAD_DSTYLE_DIM_EXT1_LINETYPE
1070
   381
1005
16
1001
ACAD_DSTYLE_DIM_EXT2_LINETYPE
1070
   382
1005
16
0
DIMENSION
5
1D3
100
AcDbEntity
8
SK2
62
256
6
ByLayer
370
18
48
1
60
0
100
AcDbDimension
2
_U6
10
68
20
-36.50012
30
0
11
16
21
-36.50012
31
0
70
32
71
1
72
1
41
1
210
0
220
0
230
1
3
Standard
100
AcDbAlignedDimension
13
-36
23
0
33
0
14
68
24
0
34
0
50
0
100
AcDbRotatedDimension
1001
ACAD
1000
DSTYLE
1002
{
1070
   371
1070
    13
1070
   372
1070
    13
1070
     3
1000

1070
   170
1070
     0
1070
   144
1040
1.0
1070
   277
1070
     2
1070
   284
1070
     8
1070
   278
1070
    46
1070
   146
1040
0.999966
1070
   345
1005
16
1070
   347
1005
16
1070
   346
1005
16
1070
   344
1005
11D
1070
   343
1005
11D
1070
   172
1070
     1
1070
    76
1070
     0
1070
    75
1070
     0
1070
   282
1070
     0
1070
   281
1070
     0
1070
    71
1070
     0
1070
    74
1070
     0
1070
   279
1070
     0
1070
   173
1070
     1
1070
   340
1005
117
1070
   271
1070
     1
1070
   272
1070
     2
1070
    77
1070
     1
1070
    73
1070
     1
1070
   171
1070
     3
1070
   274
1070
     4
1070
   177
1070
   150
1070
   176
1070
     9
1070
   178
1070
    43
1070
    78
1070
     8
1070
    48
1040
-0.1
1070
    41
1040
3.175
1070
   147
1040
1.75006
1070
    42
1040
1.5875
1070
    44
1040
3.175
1070
   140
1040
3.50012
1002
}
1001
ACAD_DSTYLE_DIM_LINETYPE
1070
   380
1005
16
1001
ACAD_DSTYLE_DIM_EXT1_LINETYPE
1070
   381
1005
16
1001
ACAD_DSTYLE_DIM_EXT2_LINETYPE
1070
   382
1005
16
0
ENDSEC
0
SECTION
2
OBJECTS
0
DICTIONARY
5
25f
330
0
100
AcDbDictionary
280
0
281
1
3
ACAD_GROUP
350
260
3
ACAD_MLINESTYLE
350
261
0
DICTIONARY
5
260
330
0
100
AcDbDictionary
280
0
281
1
0
DICTIONARY
5
261
330
0
100
AcDbDictionary
280
0
281
1
3
Standard
350
18
0
MLINESTYLE
5
18
330
261
100
AcDbMlineStyle
2
Standard
70
0
3

62
256
51
90
52
90
71
2
49
-0.5
62
256
6
ByLayer
49
0.5
62
256
6
ByLayer
0
RASTERVARIABLES
5
24d
330

100
AcDbRasterVariables
90
0
70
1
71
1
72
1
0
ENDSEC
0
EOF
