0
SECTION
2
HEADER
9
$ACADVER
1
AC1015
9
$DWGCODEPAGE
3
ANSI_1252
9
$HANDSEED
5
26f
9
$ANGBASE
50
0
9
$ANGDIR
70
0
9
$ATTMODE
70
1
9
$AUNITS
70
0
9
$AUPREC
70
0
9
$CECOLOR
62
256
9
$CELTSCALE
40
1
9
$CELTYPE
6
ByLayer
9
$CELWEIGHT
370
18
9
$CLAYER
8
0
9
$CMLJUST
70
0
9
$CMLSCALE
40
1
9
$CMLSTYLE
2
Standard
9
$DIMSTYLE
2
Standard
9
$TEXTSIZE
40
0.2
9
$TEXTSTYLE
7
Standard
9
$LUNITS
70
2
9
$LUPREC
70
4
9
$EXTNAMES
290
1
9
$INSUNITS
70
4
9
$LTSCALE
40
1
9
$LWDISPLAY
290
1
9
$PDMODE
70
0
9
$PDSIZE
40
0
9
$PLINEGEN
70
0
0
ENDSEC
0
SECTION
2
CLASSES
0
CLASS
1
RASTERVARIABLES
2
AcDbRasterVariables
3
ISM
90
0
280
0
281
0
0
ENDSEC
0
SECTION
2
TABLES
0
TABLE
2
VPORT
5
265
100
AcDbSymbolTable
0
VPORT
5
1
100
AcDbSymbolTableRecord
100
AcDbViewportTableRecord
2
*Active
70
0
10
0
20
0
11
1
21
1
12
-1
22
1
13
0
23
0
14
0.5
24
0.5
15
10
25
10
16
0
26
0
36
1
17
0
27
0
37
0
0
ENDTAB
0
TABLE
2
LTYPE
5
266
100
AcDbSymbolTable
0
LTYPE
5
14
100
AcDbSymbolTableRecord
100
AcDbLinetypeTableRecord
70
0
2
ByBlock
3

72
65
73
0
40
0
0
LTYPE
5
15
100
AcDbSymbolTableRecord
100
AcDbLinetypeTableRecord
70
0
2
ByLayer
3

72
65
73
0
40
0
0
LTYPE
5
16
100
AcDbSymbolTableRecord
100
AcDbLinetypeTableRecord
70
0
2
Continuous
3
Solid line
72
65
73
0
40
0
0
LTYPE
5
6E
100
AcDbSymbolTableRecord
100
AcDbLinetypeTableRecord
70
0
2
CENTER
3
____ _ ____ _ ____ _ ____
72
65
73
4
40
47.5
49
22
74
0
49
-8.5
74
0
49
8.5
74
0
49
-8.5
74
0
0
LTYPE
5
6F
100
AcDbSymbolTableRecord
100
AcDbLinetypeTableRecord
70
0
2
DASHED
3
__ __ __ __ __ __ __ __ __
72
65
73
2
40
25.72
49
12.86
74
0
49
-12.86
74
0
0
ENDTAB
0
TABLE
2
LAYER
5
267
100
AcDbSymbolTable
0
LAYER
5
10
100
AcDbSymbolTableRecord
100
AcDbLayerTableRecord
2
0
70
0
62
7
6
Continuous
290
1
370
-3
390
0
0
LAYER
5
71
100
AcDbSymbolTableRecord
100
AcDbLayerTableRecord
2
80
70
0
62
-6
6
Continuous
290
1
370
-3
390
0
0
LAYER
5
73
100
AcDbSymbolTableRecord
100
AcDbLayerTableRecord
2
81
70
0
62
-3
6
Continuous
290
1
370
-3
390
0
0
LAYER
5
75
100
AcDbSymbolTableRecord
100
AcDbLayerTableRecord
2
1
70
0
62
4
6
Continuous
290
1
370
-3
390
0
0
LAYER
5
AB
100
AcDbSymbolTableRecord
100
AcDbLayerTableRecord
2
4
70
0
62
-2
6
CENTER
290
1
370
-3
390
0
0
LAYER
5
129
100
AcDbSymbolTableRecord
100
AcDbLayerTableRecord
2
Defpoints
70
0
62
7
6
Continuous
290
0
370
-3
390
0
0
LAYER
5
156
100
AcDbSymbolTableRecord
100
AcDbLayerTableRecord
2
2
70
0
62
7
6
Continuous
290
1
370
-3
390
0
0
LAYER
5
251
100
AcDbSymbolTableRecord
100
AcDbLayerTableRecord
2
SK1
70
0
62
4
6
Continuous
290
1
370
-3
390
0
0
LAYER
5
252
100
AcDbSymbolTableRecord
100
AcDbLayerTableRecord
2
SK4
70
0
62
2
6
CENTER
290
1
370
-3
390
0
0
LAYER
5
253
100
AcDbSymbolTableRecord
100
AcDbLayerTableRecord
2
SK2
70
0
62
7
6
Continuous
290
1
370
-3
390
0
0
LAYER
5
254
100
AcDbSymbolTableRecord
100
AcDbLayerTableRecord
2
SK6
70
0
62
5
6
Continuous
290
1
370
-3
390
0
0
ENDTAB
0
TABLE
2
STYLE
5
268
100
AcDbSymbolTable
0
STYLE
5
11
100
AcDbSymbolTableRecord
100
AcDbTextStyleTableRecord
2
Standard
3
txt
70
0
71
0
40
0
41
1
42
0
50
0
0
STYLE
5
11A
100
AcDbSymbolTableRecord
100
AcDbTextStyleTableRecord
2
iso_b_vert
3
simplex.shx
70
0
71
0
40
0
41
1
42
0
50
0
0
STYLE
5
11B
100
AcDbSymbolTableRecord
100
AcDbTextStyleTableRecord
2
DWGDirectTextStyle
3
simplex
70
0
71
0
40
0
41
1
42
0
50
0
0
ENDTAB
0
TABLE
2
DIMSTYLE
5
269
100
AcDbSymbolTable
100
AcDbDimStyleTable
0
DIMSTYLE
105
27
100
AcDbSymbolTableRecord
100
AcDbDimStyleTableRecord
2
Standard
70
0
3
<>
41
0.18
42
0.0625
44
0.18
140
0.18
147
0.09
73
0
74
0
77
1
271
2
275
0
278
52
280
0
340
11
0
ENDTAB
0
TABLE
2
VIEW
5
26a
100
AcDbSymbolTable
0
ENDTAB
0
TABLE
2
UCS
5
26b
100
AcDbSymbolTable
0
ENDTAB
0
TABLE
2
APPID
5
26c
100
AcDbSymbolTable
0
APPID
5
12
100
AcDbSymbolTableRecord
100
AcDbRegAppTableRecord
2
ACAD
70
0
0
APPID
5
11E
100
AcDbSymbolTableRecord
100
AcDbRegAppTableRecord
2
ACAD_DSTYLE_DIMBREAK
70
0
0
APPID
5
210
100
AcDbSymbolTableRecord
100
AcDbRegAppTableRecord
2
ACAD_DSTYLE_DIM_LINETYPE
70
0
0
APPID
5
211
100
AcDbSymbolTableRecord
100
AcDbRegAppTableRecord
2
ACAD_DSTYLE_DIM_EXT1_LINETYPE
70
0
0
APPID
5
212
100
AcDbSymbolTableRecord
100
AcDbRegAppTableRecord
2
ACAD_DSTYLE_DIM_EXT2_LINETYPE
70
0
0
APPID
5
24D
100
AcDbSymbolTableRecord
100
AcDbRegAppTableRecord
2
ACAD_MLEADERVER
70
0
0
ENDTAB
0
TABLE
2
BLOCK_RECORD
5
26d
100
AcDbSymbolTable
0
BLOCK_RECORD
5
1F
100
AcDbSymbolTableRecord
100
AcDbBlockTableRecord
2
*Model_Space
340
0
70
0
0
BLOCK_RECORD
5
1B
100
AcDbSymbolTableRecord
100
AcDbBlockTableRecord
2
*Paper_Space
340
0
70
0
0
BLOCK_RECORD
5
23
100
AcDbSymbolTableRecord
100
AcDbBlockTableRecord
2
*Paper_Space0
340
0
70
0
0
BLOCK_RECORD
5
120
100
AcDbSymbolTableRecord
100
AcDbBlockTableRecord
2
_Closed
340
0
70
0
0
BLOCK_RECORD
5
12A
100
AcDbSymbolTableRecord
100
AcDbBlockTableRecord
2
*D2
340
0
70
0
0
BLOCK_RECORD
5
136
100
AcDbSymbolTableRecord
100
AcDbBlockTableRecord
2
_U0
340
0
70
0
0
BLOCK_RECORD
5
148
100
AcDbSymbolTableRecord
100
AcDbBlockTableRecord
2
*D4
340
0
70
0
0
BLOCK_RECORD
5
157
100
AcDbSymbolTableRecord
100
AcDbBlockTableRecord
2
_U1
340
0
70
0
0
BLOCK_RECORD
5
167
100
AcDbSymbolTableRecord
100
AcDbBlockTableRecord
2
*D6
340
0
70
0
0
BLOCK_RECORD
5
175
100
AcDbSymbolTableRecord
100
AcDbBlockTableRecord
2
_U2
340
0
70
0
0
BLOCK_RECORD
5
185
100
AcDbSymbolTableRecord
100
AcDbBlockTableRecord
2
*D8
340
0
70
0
0
BLOCK_RECORD
5
191
100
AcDbSymbolTableRecord
100
AcDbBlockTableRecord
2
_U3
340
0
70
0
0
BLOCK_RECORD
5
1A1
100
AcDbSymbolTableRecord
100
AcDbBlockTableRecord
2
*D10
340
0
70
0
0
BLOCK_RECORD
5
1AD
100
AcDbSymbolTableRecord
100
AcDbBlockTableRecord
2
_U4
340
0
70
0
0
BLOCK_RECORD
5
1BD
100
AcDbSymbolTableRecord
100
AcDbBlockTableRecord
2
*D12
340
0
70
0
0
BLOCK_RECORD
5
1C9
100
AcDbSymbolTableRecord
100
AcDbBlockTableRecord
2
_U5
340
0
70
0
0
BLOCK_RECORD
5
1D9
100
AcDbSymbolTableRecord
100
AcDbBlockTableRecord
2
*D14
340
0
70
0
0
BLOCK_RECORD
5
1E5
100
AcDbSymbolTableRecord
100
AcDbBlockTableRecord
2
_U6
340
0
70
0
0
ENDTAB
0
ENDSEC
0
SECTION
2
BLOCKS
0
BLOCK
5
20
100
AcDbEntity
8
0
100
AcDbBlockBegin
2
*Model_Space
70
0
10
0
20
0
30
0
3
*Model_Space
0
ENDBLK
5
21
100
AcDbEntity
8
0
100
AcDbBlockEnd
0
BLOCK
5
1C
100
AcDbEntity
8
0
100
AcDbBlockBegin
2
*Paper_Space
70
0
10
0
20
0
30
0
3
*Paper_Space
0
ENDBLK
5
1D
100
AcDbEntity
8
0
100
AcDbBlockEnd
0
BLOCK
5
24
100
AcDbEntity
8
0
100
AcDbBlockBegin
2
*Paper_Space0
70
0
10
0
20
0
30
0
3
*Paper_Space0
0
ENDBLK
5
25
100
AcDbEntity
8
0
100
AcDbBlockEnd
0
BLOCK
5
121
100
AcDbEntity
8
0
100
AcDbBlockBegin
2
_Closed
70
0
10
0
20
0
30
0
3
_Closed
0
LINE
5
123
100
AcDbEntity
8
0
62
256
6
ByLayer
370
-2
48
1
60
0
100
AcDbLine
10
-1
20
0.166667
30
0
11
0
21
0
31
0
39
0
210
0
220
0
230
1
0
LINE
5
124
100
AcDbEntity
8
0
62
256
6
ByLayer
370
-2
48
1
60
0
100
AcDbLine
10
0
20
0
30
0
11
-1
21
-0.166667
31
0
39
0
210
0
220
0
230
1
0
LINE
5
125
100
AcDbEntity
8
0
62
256
6
ByLayer
370
-2
48
1
60
0
100
AcDbLine
10
-1
20
0.166667
30
0
11
-1
21
-0.166667
31
0
39
0
210
0
220
0
230
1
0
LINE
5
126
100
AcDbEntity
8
0
62
256
6
ByLayer
370
-2
48
1
60
0
100
AcDbLine
10
0
20
0
30
0
11
-1
21
0
31
0
39
0
210
0
220
0
230
1
0
ENDBLK
5
122
100
AcDbEntity
8
0
100
AcDbBlockEnd
0
BLOCK
5
12B
100
AcDbEntity
8
0
100
AcDbBlockBegin
2
*D2
70
1
10
0
20
0
30
0
3
*D2
0
LINE
5
12D
100
AcDbEntity
8
0
62
256
6
ByLayer
370
-2
48
1
60
0
100
AcDbLine
10
0
20
-4.5875
30
0
11
0
21
-29.67512
31
0
39
0
210
0
220
0
230
1
0
LINE
5
12E
100
AcDbEntity
8
0
62
256
6
ByLayer
370
-2
48
1
60
0
100
AcDbLine
10
54
20
-1.5875
30
0
11
54
21
-29.67512
31
0
39
0
210
0
220
0
230
1
0
LINE
5
12F
100
AcDbEntity
8
0
62
256
6
ByLayer
370
-2
48
1
60
0
100
AcDbLine
10
3.175
20
-26.50012
30
0
11
50.825
21
-26.50012
31
0
39
0
210
0
220
0
230
1
0
SOLID
5
130
100
AcDbEntity
8
0
62
256
6
ByLayer
370
-1
48
1
60
0
100
AcDbTrace
10
3.175
20
-25.970953
30
0
11
3.175
21
-27.029287
31
0
12
0
22
-26.50012
32
0
13
0
23
-26.50012
33
0
39
0
210
0
220
0
230
1
0
SOLID
5
131
100
AcDbEntity
8
0
62
256
6
ByLayer
370
-1
48
1
60
0
100
AcDbTrace
10
50.825
20
-27.029287
30
0
11
50.825
21
-25.970953
31
0
12
54
22
-26.50012
32
0
13
54
23
-26.50012
33
0
39
0
210
0
220
0
230
1
0
MTEXT
5
132
100
AcDbEntity
8
0
62
256
6
ByLayer
370
18
48
1
60
0
100
AcDbMText
10
27
20
-19.193619
30
0
210
0
220
0
230
1
1
\A1;54
40
3.50012
41
0
44
1
50
0
71
5
72
5
7
iso_b_vert
0
POINT
5
133
100
AcDbEntity
8
Defpoints
62
0
6
ByLayer
370
-1
48
1
60
0
100
AcDbPoint
10
0
20
-3
30
0
39
0
210
0
220
0
230
1
50
360
0
POINT
5
134
100
AcDbEntity
8
Defpoints
62
0
6
ByLayer
370
-1
48
1
60
0
100
AcDbPoint
10
54
20
0
30
0
39
0
210
0
220
0
230
1
50
360
0
POINT
5
135
100
AcDbEntity
8
Defpoints
62
0
6
ByLayer
370
-1
48
1
60
0
100
AcDbPoint
10
54
20
-26.50012
30
0
39
0
210
0
220
0
230
1
50
360
0
ENDBLK
5
12C
100
AcDbEntity
8
0
100
AcDbBlockEnd
0
BLOCK
5
143
100
AcDbEntity
8
0
100
AcDbBlockBegin
2
_U0
70
0
10
0
20
0
30
0
3
_U0
0
MTEXT
5
137
100
AcDbEntity
8
SK2
62
256
6
ByLayer
370
18
48
1
60
0
100
AcDbMText
10
21.586116
20
-25.467451
30
0
210
0
220
0
230
1
1
\W0.7694;54.00
40
3.50012
41
0
44
1.084337
50
0
71
7
72
5
7
iso_b_vert
0
MTEXT
5
138
100
AcDbEntity
8
SK2
62
256
6
ByLayer
370
18
48
1
60
0
100
AcDbMText
10
18.060056
20
-25.400814
30
0
210
0
220
0
230
1
1
\W0.1790;(
40
3.175
41
0
44
1.084337
50
0
71
7
72
5
7
iso_b_vert
0
MTEXT
5
139
100
AcDbEntity
8
SK2
62
256
6
ByLayer
370
18
48
1
60
0
100
AcDbMText
10
35.942666
20
-25.400814
30
0
210
0
220
0
230
1
1
\W0.1969;)
40
3.175
41
0
44
1.084337
50
0
71
7
72
5
7
iso_b_vert
0
LINE
5
13A
100
AcDbEntity
8
SK2
62
256
6
ByLayer
370
13
48
1
60
0
100
AcDbLine
10
0
20
-4.5875
30
0
11
0
21
-29.67512
31
0
39
0
210
0
220
0
230
1
0
LINE
5
13B
100
AcDbEntity
8
SK2
62
256
6
ByLayer
370
13
48
1
60
0
100
AcDbLine
10
54
20
-1.5875
30
0
11
54
21
-29.67512
31
0
39
0
210
0
220
0
230
1
0
LINE
5
13C
100
AcDbEntity
8
SK2
62
256
6
ByLayer
370
13
48
1
60
0
100
AcDbLine
10
0
20
-26.50012
30
0
11
54
21
-26.50012
31
0
39
0
210
0
220
0
230
1
0
LINE
5
13D
100
AcDbEntity
8
SK2
62
256
6
ByLayer
370
13
48
1
60
0
100
AcDbLine
10
0
20
-26.50012
30
0
11
3.174998
21
-26.082123
31
0
39
0
210
0
220
0
230
1
0
LINE
5
13E
100
AcDbEntity
8
SK2
62
256
6
ByLayer
370
13
48
1
60
0
100
AcDbLine
10
0
20
-26.50012
30
0
11
3.175002
21
-26.918117
31
0
39
0
210
0
220
0
230
1
0
LINE
5
13F
100
AcDbEntity
8
SK2
62
256
6
ByLayer
370
13
48
1
60
0
100
AcDbLine
10
3.174998
20
-26.082123
30
0
11
3.175002
21
-26.918117
31
0
39
0
210
0
220
0
230
1
0
LINE
5
140
100
AcDbEntity
8
SK2
62
256
6
ByLayer
370
13
48
1
60
0
100
AcDbLine
10
54
20
-26.50012
30
0
11
50.825002
21
-26.918117
31
0
39
0
210
0
220
0
230
1
0
LINE
5
141
100
AcDbEntity
8
SK2
62
256
6
ByLayer
370
13
48
1
60
0
100
AcDbLine
10
54
20
-26.50012
30
0
11
50.824998
21
-26.082123
31
0
39
0
210
0
220
0
230
1
0
LINE
5
142
100
AcDbEntity
8
SK2
62
256
6
ByLayer
370
13
48
1
60
0
100
AcDbLine
10
50.825002
20
-26.918117
30
0
11
50.824998
21
-26.082123
31
0
39
0
210
0
220
0
230
1
0
ENDBLK
5
144
100
AcDbEntity
8
0
100
AcDbBlockEnd
0
BLOCK
5
149
100
AcDbEntity
8
0
100
AcDbBlockBegin
2
*D4
70
1
10
0
20
0
30
0
3
*D4
0
LINE
5
14B
100
AcDbEntity
8
0
62
256
6
ByLayer
370
-2
48
1
60
0
100
AcDbLine
10
54.865
20
-1.985
30
0
11
63.92506
21
-1.985
31
0
39
0
210
0
220
0
230
1
0
LINE
5
14C
100
AcDbEntity
8
0
62
256
6
ByLayer
370
-2
48
1
60
0
100
AcDbLine
10
54.865
20
1.985
30
0
11
63.92506
21
1.985
31
0
39
0
210
0
220
0
230
1
0
LINE
5
14D
100
AcDbEntity
8
0
62
256
6
ByLayer
370
-2
48
1
60
0
100
AcDbLine
10
60.75006
20
1.985
30
0
11
60.75006
21
21.947967
31
0
39
0
210
0
220
0
230
1
0
LINE
5
14E
100
AcDbEntity
8
0
62
256
6
ByLayer
370
-2
48
1
60
0
100
AcDbLine
10
60.75006
20
-5.16
30
0
11
60.75006
21
-8.335
31
0
39
0
210
0
220
0
230
1
0
LINE
5
14F
100
AcDbEntity
8
0
62
256
6
ByLayer
370
-2
48
1
60
0
100
AcDbLine
10
60.75006
20
5.16
30
0
11
60.75006
21
8.335
31
0
39
0
210
0
220
0
230
1
0
SOLID
5
150
100
AcDbEntity
8
0
62
256
6
ByLayer
370
-1
48
1
60
0
100
AcDbTrace
10
61.279227
20
-5.16
30
0
11
60.220893
21
-5.16
31
0
12
60.75006
22
-1.985
32
0
13
60.75006
23
-1.985
33
0
39
0
210
0
220
0
230
1
0
SOLID
5
151
100
AcDbEntity
8
0
62
256
6
ByLayer
370
-1
48
1
60
0
100
AcDbTrace
10
60.220893
20
5.16
30
0
11
61.279227
21
5.16
31
0
12
60.75006
22
1.985
32
0
13
60.75006
23
1.985
33
0
39
0
210
0
220
0
230
1
0
MTEXT
5
152
100
AcDbEntity
8
0
62
256
6
ByLayer
370
18
48
1
60
0
100
AcDbMText
10
53.443559
20
15.141483
30
0
210
0
220
0
230
1
1
\A1;4
40
3.50012
41
0
44
1
50
90
71
5
72
5
7
iso_b_vert
0
POINT
5
153
100
AcDbEntity
8
Defpoints
62
0
6
ByLayer
370
-1
48
1
60
0
100
AcDbPoint
10
53.2775
20
-1.985
30
0
39
0
210
0
220
0
230
1
50
360
0
POINT
5
154
100
AcDbEntity
8
Defpoints
62
0
6
ByLayer
370
-1
48
1
60
0
100
AcDbPoint
10
53.2775
20
1.985
30
0
39
0
210
0
220
0
230
1
50
360
0
POINT
5
155
100
AcDbEntity
8
Defpoints
62
0
6
ByLayer
370
-1
48
1
60
0
100
AcDbPoint
10
60.75006
20
1.985
30
0
39
0
210
0
220
0
230
1
50
360
0
ENDBLK
5
14A
100
AcDbEntity
8
0
100
AcDbBlockEnd
0
BLOCK
5
162
100
AcDbEntity
8
0
100
AcDbBlockBegin
2
_U1
70
0
10
0
20
0
30
0
3
_U1
0
MTEXT
5
158
100
AcDbEntity
8
2
62
256
6
ByLayer
370
18
48
1
60
0
100
AcDbMText
10
60.060403
20
6.142505
30
0
210
0
220
0
230
1
1
\W0.7346;3.97
40
3.50012
41
0
44
1.084337
50
90
71
7
72
5
7
iso_b_vert
0
LINE
5
159
100
AcDbEntity
8
2
62
256
6
ByLayer
370
13
48
1
60
0
100
AcDbLine
10
54.865
20
-1.985
30
0
11
63.92506
21
-1.985
31
0
39
0
210
0
220
0
230
1
0
LINE
5
15A
100
AcDbEntity
8
2
62
256
6
ByLayer
370
13
48
1
60
0
100
AcDbLine
10
54.865
20
1.985
30
0
11
63.92506
21
1.985
31
0
39
0
210
0
220
0
230
1
0
LINE
5
15B
100
AcDbEntity
8
2
62
256
6
ByLayer
370
13
48
1
60
0
100
AcDbLine
10
60.75006
20
14.19968
30
0
11
60.75006
21
-10.7353
31
0
39
0
210
0
220
0
230
1
0
LINE
5
15C
100
AcDbEntity
8
2
62
256
6
ByLayer
370
13
48
1
60
0
100
AcDbLine
10
60.75006
20
-1.985
30
0
11
61.168057
21
-5.159998
31
0
39
0
210
0
220
0
230
1
0
LINE
5
15D
100
AcDbEntity
8
2
62
256
6
ByLayer
370
13
48
1
60
0
100
AcDbLine
10
60.75006
20
-1.985
30
0
11
60.332063
21
-5.160002
31
0
39
0
210
0
220
0
230
1
0
LINE
5
15E
100
AcDbEntity
8
2
62
256
6
ByLayer
370
13
48
1
60
0
100
AcDbLine
10
61.168057
20
-5.159998
30
0
11
60.332063
21
-5.160002
31
0
39
0
210
0
220
0
230
1
0
LINE
5
15F
100
AcDbEntity
8
2
62
256
6
ByLayer
370
13
48
1
60
0
100
AcDbLine
10
60.75006
20
1.985
30
0
11
60.332063
21
5.159998
31
0
39
0
210
0
220
0
230
1
0
LINE
5
160
100
AcDbEntity
8
2
62
256
6
ByLayer
370
13
48
1
60
0
100
AcDbLine
10
60.75006
20
1.985
30
0
11
61.168057
21
5.160002
31
0
39
0
210
0
220
0
230
1
0
LINE
5
161
100
AcDbEntity
8
2
62
256
6
ByLayer
370
13
48
1
60
0
100
AcDbLine
10
60.332063
20
5.159998
30
0
11
61.168057
21
5.160002
31
0
39
0
210
0
220
0
230
1
0
ENDBLK
5
163
100
AcDbEntity
8
0
100
AcDbBlockEnd
0
BLOCK
5
168
100
AcDbEntity
8
0
100
AcDbBlockBegin
2
*D6
70
1
10
0
20
0
30
0
3
*D6
0
LINE
5
16A
100
AcDbEntity
8
0
62
256
6
ByLayer
370
-2
48
1
60
0
100
AcDbLine
10
-37.5875
20
3
30
0
11
-42.42494
21
3
31
0
39
0
210
0
220
0
230
1
0
LINE
5
16B
100
AcDbEntity
8
0
62
256
6
ByLayer
370
-2
48
1
60
0
100
AcDbLine
10
-37.5875
20
-3
30
0
11
-42.42494
21
-3
31
0
39
0
210
0
220
0
230
1
0
LINE
5
16C
100
AcDbEntity
8
0
62
256
6
ByLayer
370
-2
48
1
60
0
100
AcDbLine
10
-39.24994
20
3
30
0
11
-39.24994
21
23.747151
31
0
39
0
210
0
220
0
230
1
0
LINE
5
16D
100
AcDbEntity
8
0
62
256
6
ByLayer
370
-2
48
1
60
0
100
AcDbLine
10
-39.24994
20
6.175
30
0
11
-39.24994
21
9.35
31
0
39
0
210
0
220
0
230
1
0
LINE
5
16E
100
AcDbEntity
8
0
62
256
6
ByLayer
370
-2
48
1
60
0
100
AcDbLine
10
-39.24994
20
-6.175
30
0
11
-39.24994
21
-9.35
31
0
39
0
210
0
220
0
230
1
0
SOLID
5
16F
100
AcDbEntity
8
0
62
256
6
ByLayer
370
-1
48
1
60
0
100
AcDbTrace
10
-39.779107
20
6.175
30
0
11
-38.720773
21
6.175
31
0
12
-39.24994
22
3
32
0
13
-39.24994
23
3
33
0
39
0
210
0
220
0
230
1
0
SOLID
5
170
100
AcDbEntity
8
0
62
256
6
ByLayer
370
-1
48
1
60
0
100
AcDbTrace
10
-38.720773
20
-6.175
30
0
11
-39.779107
21
-6.175
31
0
12
-39.24994
22
-3
32
0
13
-39.24994
23
-3
33
0
39
0
210
0
220
0
230
1
0
MTEXT
5
171
100
AcDbEntity
8
0
62
256
6
ByLayer
370
18
48
1
60
0
100
AcDbMText
10
-46.556441
20
17.10734
30
0
210
0
220
0
230
1
1
\A1;6
40
3.50012
41
0
44
1
50
90
71
5
72
5
7
iso_b_vert
0
POINT
5
172
100
AcDbEntity
8
Defpoints
62
0
6
ByLayer
370
-1
48
1
60
0
100
AcDbPoint
10
-36
20
3
30
0
39
0
210
0
220
0
230
1
50
360
0
POINT
5
173
100
AcDbEntity
8
Defpoints
62
0
6
ByLayer
370
-1
48
1
60
0
100
AcDbPoint
10
-36
20
-3
30
0
39
0
210
0
220
0
230
1
50
360
0
POINT
5
174
100
AcDbEntity
8
Defpoints
62
0
6
ByLayer
370
-1
48
1
60
0
100
AcDbPoint
10
-39.24994
20
-3
30
0
39
0
210
0
220
0
230
1
50
360
0
ENDBLK
5
169
100
AcDbEntity
8
0
100
AcDbBlockEnd
0
BLOCK
5
180
100
AcDbEntity
8
0
100
AcDbBlockBegin
2
_U2
70
0
10
0
20
0
30
0
3
_U2
0
MTEXT
5
176
100
AcDbEntity
8
SK2
62
256
6
ByLayer
370
18
48
1
60
0
100
AcDbMText
10
-39.939597
20
13.157505
30
0
210
0
220
0
230
1
1
\W0.7346;6.00
40
3.50012
41
0
44
1.084337
50
90
71
7
72
5
7
iso_b_vert
0
LINE
5
177
100
AcDbEntity
8
SK2
62
256
6
ByLayer
370
13
48
1
60
0
100
AcDbLine
10
-37.5875
20
3
30
0
11
-42.42494
21
3
31
0
39
0
210
0
220
0
230
1
0
LINE
5
178
100
AcDbEntity
8
SK2
62
256
6
ByLayer
370
13
48
1
60
0
100
AcDbLine
10
-37.5875
20
-3
30
0
11
-42.42494
21
-3
31
0
39
0
210
0
220
0
230
1
0
LINE
5
179
100
AcDbEntity
8
SK2
62
256
6
ByLayer
370
13
48
1
60
0
100
AcDbLine
10
-39.24994
20
-11.7503
30
0
11
-39.24994
21
21.21468
31
0
39
0
210
0
220
0
230
1
0
LINE
5
17A
100
AcDbEntity
8
SK2
62
256
6
ByLayer
370
13
48
1
60
0
100
AcDbLine
10
-39.24994
20
3
30
0
11
-39.667937
21
6.174998
31
0
39
0
210
0
220
0
230
1
0
LINE
5
17B
100
AcDbEntity
8
SK2
62
256
6
ByLayer
370
13
48
1
60
0
100
AcDbLine
10
-39.24994
20
3
30
0
11
-38.831943
21
6.175002
31
0
39
0
210
0
220
0
230
1
0
LINE
5
17C
100
AcDbEntity
8
SK2
62
256
6
ByLayer
370
13
48
1
60
0
100
AcDbLine
10
-39.667937
20
6.174998
30
0
11
-38.831943
21
6.175002
31
0
39
0
210
0
220
0
230
1
0
LINE
5
17D
100
AcDbEntity
8
SK2
62
256
6
ByLayer
370
13
48
1
60
0
100
AcDbLine
10
-39.24994
20
-3
30
0
11
-38.831943
21
-6.174998
31
0
39
0
210
0
220
0
230
1
0
LINE
5
17E
100
AcDbEntity
8
SK2
62
256
6
ByLayer
370
13
48
1
60
0
100
AcDbLine
10
-39.24994
20
-3
30
0
11
-39.667937
21
-6.175002
31
0
39
0
210
0
220
0
230
1
0
LINE
5
17F
100
AcDbEntity
8
SK2
62
256
6
ByLayer
370
13
48
1
60
0
100
AcDbLine
10
-38.831943
20
-6.174998
30
0
11
-39.667937
21
-6.175002
31
0
39
0
210
0
220
0
230
1
0
ENDBLK
5
181
100
AcDbEntity
8
0
100
AcDbBlockEnd
0
BLOCK
5
186
100
AcDbEntity
8
0
100
AcDbBlockBegin
2
*D8
70
1
10
0
20
0
30
0
3
*D8
0
LINE
5
188
100
AcDbEntity
8
0
62
256
6
ByLayer
370
-2
48
1
60
0
100
AcDbLine
10
-36
20
-4.5875
30
0
11
-36
21
-29.67512
31
0
39
0
210
0
220
0
230
1
0
LINE
5
189
100
AcDbEntity
8
0
62
256
6
ByLayer
370
-2
48
1
60
0
100
AcDbLine
10
0
20
-4.5875
30
0
11
0
21
-29.67512
31
0
39
0
210
0
220
0
230
1
0
LINE
5
18A
100
AcDbEntity
8
0
62
256
6
ByLayer
370
-2
48
1
60
0
100
AcDbLine
10
-32.825
20
-26.50012
30
0
11
-3.175
21
-26.50012
31
0
39
0
210
0
220
0
230
1
0
SOLID
5
18B
100
AcDbEntity
8
0
62
256
6
ByLayer
370
-1
48
1
60
0
100
AcDbTrace
10
-32.825
20
-25.970953
30
0
11
-32.825
21
-27.029287
31
0
12
-36
22
-26.50012
32
0
13
-36
23
-26.50012
33
0
39
0
210
0
220
0
230
1
0
SOLID
5
18C
100
AcDbEntity
8
0
62
256
6
ByLayer
370
-1
48
1
60
0
100
AcDbTrace
10
-3.175
20
-27.029287
30
0
11
-3.175
21
-25.970953
31
0
12
0
22
-26.50012
32
0
13
0
23
-26.50012
33
0
39
0
210
0
220
0
230
1
0
MTEXT
5
18D
100
AcDbEntity
8
0
62
256
6
ByLayer
370
18
48
1
60
0
100
AcDbMText
10
-18
20
-19.193619
30
0
210
0
220
0
230
1
1
\A1;36
40
3.50012
41
0
44
1
50
0
71
5
72
5
7
iso_b_vert
0
POINT
5
18E
100
AcDbEntity
8
Defpoints
62
0
6
ByLayer
370
-1
48
1
60
0
100
AcDbPoint
10
-36
20
-3
30
0
39
0
210
0
220
0
230
1
50
360
0
POINT
5
18F
100
AcDbEntity
8
Defpoints
62
0
6
ByLayer
370
-1
48
1
60
0
100
AcDbPoint
10
0
20
-3
30
0
39
0
210
0
220
0
230
1
50
360
0
POINT
5
190
100
AcDbEntity
8
Defpoints
62
0
6
ByLayer
370
-1
48
1
60
0
100
AcDbPoint
10
0
20
-26.50012
30
0
39
0
210
0
220
0
230
1
50
360
0
ENDBLK
5
187
100
AcDbEntity
8
0
100
AcDbBlockEnd
0
BLOCK
5
19C
100
AcDbEntity
8
0
100
AcDbBlockBegin
2
_U3
70
0
10
0
20
0
30
0
3
_U3
0
MTEXT
5
192
100
AcDbEntity
8
SK2
62
256
6
ByLayer
370
18
48
1
60
0
100
AcDbMText
10
-23.229611
20
-25.467451
30
0
210
0
220
0
230
1
1
\W0.7468;36.00
40
3.50012
41
0
44
1.084337
50
0
71
7
72
5
7
iso_b_vert
0
LINE
5
193
100
AcDbEntity
8
SK2
62
256
6
ByLayer
370
13
48
1
60
0
100
AcDbLine
10
-36
20
-4.5875
30
0
11
-36
21
-29.67512
31
0
39
0
210
0
220
0
230
1
0
LINE
5
194
100
AcDbEntity
8
SK2
62
256
6
ByLayer
370
13
48
1
60
0
100
AcDbLine
10
0
20
-4.5875
30
0
11
0
21
-29.67512
31
0
39
0
210
0
220
0
230
1
0
LINE
5
195
100
AcDbEntity
8
SK2
62
256
6
ByLayer
370
13
48
1
60
0
100
AcDbLine
10
-36
20
-26.50012
30
0
11
0
21
-26.50012
31
0
39
0
210
0
220
0
230
1
0
LINE
5
196
100
AcDbEntity
8
SK2
62
256
6
ByLayer
370
13
48
1
60
0
100
AcDbLine
10
-36
20
-26.50012
30
0
11
-32.825002
21
-26.082123
31
0
39
0
210
0
220
0
230
1
0
LINE
5
197
100
AcDbEntity
8
SK2
62
256
6
ByLayer
370
13
48
1
60
0
100
AcDbLine
10
-36
20
-26.50012
30
0
11
-32.824998
21
-26.918117
31
0
39
0
210
0
220
0
230
1
0
LINE
5
198
100
AcDbEntity
8
SK2
62
256
6
ByLayer
370
13
48
1
60
0
100
AcDbLine
10
-32.825002
20
-26.082123
30
0
11
-32.824998
21
-26.918117
31
0
39
0
210
0
220
0
230
1
0
LINE
5
199
100
AcDbEntity
8
SK2
62
256
6
ByLayer
370
13
48
1
60
0
100
AcDbLine
10
0
20
-26.50012
30
0
11
-3.174998
21
-26.918117
31
0
39
0
210
0
220
0
230
1
0
LINE
5
19A
100
AcDbEntity
8
SK2
62
256
6
ByLayer
370
13
48
1
60
0
100
AcDbLine
10
0
20
-26.50012
30
0
11
-3.175002
21
-26.082123
31
0
39
0
210
0
220
0
230
1
0
LINE
5
19B
100
AcDbEntity
8
SK2
62
256
6
ByLayer
370
13
48
1
60
0
100
AcDbLine
10
-3.174998
20
-26.918117
30
0
11
-3.175002
21
-26.082123
31
0
39
0
210
0
220
0
230
1
0
ENDBLK
5
19D
100
AcDbEntity
8
0
100
AcDbBlockEnd
0
BLOCK
5
1A2
100
AcDbEntity
8
0
100
AcDbBlockBegin
2
*D10
70
1
10
0
20
0
30
0
3
*D10
0
LINE
5
1A4
100
AcDbEntity
8
0
62
256
6
ByLayer
370
-2
48
1
60
0
100
AcDbLine
10
6
20
0.8975
30
0
11
6
21
-20.92482
31
0
39
0
210
0
220
0
230
1
0
LINE
5
1A5
100
AcDbEntity
8
0
62
256
6
ByLayer
370
-2
48
1
60
0
100
AcDbLine
10
54
20
-1.5875
30
0
11
54
21
-20.92482
31
0
39
0
210
0
220
0
230
1
0
LINE
5
1A6
100
AcDbEntity
8
0
62
256
6
ByLayer
370
-2
48
1
60
0
100
AcDbLine
10
9.175
20
-17.74982
30
0
11
50.825
21
-17.74982
31
0
39
0
210
0
220
0
230
1
0
SOLID
5
1A7
100
AcDbEntity
8
0
62
256
6
ByLayer
370
-1
48
1
60
0
100
AcDbTrace
10
9.175
20
-17.220653
30
0
11
9.175
21
-18.278987
31
0
12
6
22
-17.74982
32
0
13
6
23
-17.74982
33
0
39
0
210
0
220
0
230
1
0
SOLID
5
1A8
100
AcDbEntity
8
0
62
256
6
ByLayer
370
-1
48
1
60
0
100
AcDbTrace
10
50.825
20
-18.278987
30
0
11
50.825
21
-17.220653
31
0
12
54
22
-17.74982
32
0
13
54
23
-17.74982
33
0
39
0
210
0
220
0
230
1
0
MTEXT
5
1A9
100
AcDbEntity
8
0
62
256
6
ByLayer
370
18
48
1
60
0
100
AcDbMText
10
30
20
-10.443319
30
0
210
0
220
0
230
1
1
\A1;48
40
3.50012
41
0
44
1
50
0
71
5
72
5
7
iso_b_vert
0
POINT
5
1AA
100
AcDbEntity
8
Defpoints
62
0
6
ByLayer
370
-1
48
1
60
0
100
AcDbPoint
10
6
20
2.485
30
0
39
0
210
0
220
0
230
1
50
360
0
POINT
5
1AB
100
AcDbEntity
8
Defpoints
62
0
6
ByLayer
370
-1
48
1
60
0
100
AcDbPoint
10
54
20
0
30
0
39
0
210
0
220
0
230
1
50
360
0
POINT
5
1AC
100
AcDbEntity
8
Defpoints
62
0
6
ByLayer
370
-1
48
1
60
0
100
AcDbPoint
10
54
20
-17.74982
30
0
39
0
210
0
220
0
230
1
50
360
0
ENDBLK
5
1A3
100
AcDbEntity
8
0
100
AcDbBlockEnd
0
BLOCK
5
1B8
100
AcDbEntity
8
0
100
AcDbBlockBegin
2
_U4
70
0
10
0
20
0
30
0
3
_U4
0
MTEXT
5
1AE
100
AcDbEntity
8
SK2
62
256
6
ByLayer
370
18
48
1
60
0
100
AcDbMText
10
24.586116
20
-16.717151
30
0
210
0
220
0
230
1
1
\W0.7694;48.00
40
3.50012
41
0
44
1.084337
50
0
71
7
72
5
7
iso_b_vert
0
LINE
5
1AF
100
AcDbEntity
8
SK2
62
256
6
ByLayer
370
13
48
1
60
0
100
AcDbLine
10
6
20
0.8975
30
0
11
6
21
-20.92482
31
0
39
0
210
0
220
0
230
1
0
LINE
5
1B0
100
AcDbEntity
8
SK2
62
256
6
ByLayer
370
13
48
1
60
0
100
AcDbLine
10
54
20
-1.5875
30
0
11
54
21
-20.92482
31
0
39
0
210
0
220
0
230
1
0
LINE
5
1B1
100
AcDbEntity
8
SK2
62
256
6
ByLayer
370
13
48
1
60
0
100
AcDbLine
10
6
20
-17.74982
30
0
11
54
21
-17.74982
31
0
39
0
210
0
220
0
230
1
0
LINE
5
1B2
100
AcDbEntity
8
SK2
62
256
6
ByLayer
370
13
48
1
60
0
100
AcDbLine
10
6
20
-17.74982
30
0
11
9.174998
21
-17.331823
31
0
39
0
210
0
220
0
230
1
0
LINE
5
1B3
100
AcDbEntity
8
SK2
62
256
6
ByLayer
370
13
48
1
60
0
100
AcDbLine
10
6
20
-17.74982
30
0
11
9.175002
21
-18.167817
31
0
39
0
210
0
220
0
230
1
0
LINE
5
1B4
100
AcDbEntity
8
SK2
62
256
6
ByLayer
370
13
48
1
60
0
100
AcDbLine
10
9.174998
20
-17.331823
30
0
11
9.175002
21
-18.167817
31
0
39
0
210
0
220
0
230
1
0
LINE
5
1B5
100
AcDbEntity
8
SK2
62
256
6
ByLayer
370
13
48
1
60
0
100
AcDbLine
10
54
20
-17.74982
30
0
11
50.825002
21
-18.167817
31
0
39
0
210
0
220
0
230
1
0
LINE
5
1B6
100
AcDbEntity
8
SK2
62
256
6
ByLayer
370
13
48
1
60
0
100
AcDbLine
10
54
20
-17.74982
30
0
11
50.824998
21
-17.331823
31
0
39
0
210
0
220
0
230
1
0
LINE
5
1B7
100
AcDbEntity
8
SK2
62
256
6
ByLayer
370
13
48
1
60
0
100
AcDbLine
10
50.825002
20
-18.167817
30
0
11
50.824998
21
-17.331823
31
0
39
0
210
0
220
0
230
1
0
ENDBLK
5
1B9
100
AcDbEntity
8
0
100
AcDbBlockEnd
0
BLOCK
5
1BE
100
AcDbEntity
8
0
100
AcDbBlockBegin
2
*D12
70
1
10
0
20
0
30
0
3
*D12
0
LINE
5
1C0
100
AcDbEntity
8
0
62
256
6
ByLayer
370
-2
48
1
60
0
100
AcDbLine
10
21.6
20
-3.5725
30
0
11
21.6
21
-10.32
31
0
39
0
210
0
220
0
230
1
0
LINE
5
1C1
100
AcDbEntity
8
0
62
256
6
ByLayer
370
-2
48
1
60
0
100
AcDbLine
10
54
20
-1.5875
30
0
11
54
21
-10.32
31
0
39
0
210
0
220
0
230
1
0
LINE
5
1C2
100
AcDbEntity
8
0
62
256
6
ByLayer
370
-2
48
1
60
0
100
AcDbLine
10
24.775
20
-9.82
30
0
11
50.825
21
-9.82
31
0
39
0
210
0
220
0
230
1
0
SOLID
5
1C3
100
AcDbEntity
8
0
62
256
6
ByLayer
370
-1
48
1
60
0
100
AcDbTrace
10
24.775
20
-9.290833
30
0
11
24.775
21
-10.349167
31
0
12
21.6
22
-9.82
32
0
13
21.6
23
-9.82
33
0
39
0
210
0
220
0
230
1
0
SOLID
5
1C4
100
AcDbEntity
8
0
62
256
6
ByLayer
370
-1
48
1
60
0
100
AcDbTrace
10
50.825
20
-10.349167
30
0
11
50.825
21
-9.290833
31
0
12
54
22
-9.82
32
0
13
54
23
-9.82
33
0
39
0
210
0
220
0
230
1
0
MTEXT
5
1C5
100
AcDbEntity
8
0
62
256
6
ByLayer
370
18
48
1
60
0
100
AcDbMText
10
37.8
20
-3.975
30
0
210
0
220
0
230
1
1
\A1;32.4
40
2.8
41
0
44
1
50
0
71
5
72
5
7
iso_b_vert
0
POINT
5
1C6
100
AcDbEntity
8
Defpoints
62
0
6
ByLayer
370
-1
48
1
60
0
100
AcDbPoint
10
21.6
20
-1.985
30
0
39
0
210
0
220
0
230
1
50
360
0
POINT
5
1C7
100
AcDbEntity
8
Defpoints
62
0
6
ByLayer
370
-1
48
1
60
0
100
AcDbPoint
10
54
20
0
30
0
39
0
210
0
220
0
230
1
50
360
0
POINT
5
1C8
100
AcDbEntity
8
Defpoints
62
0
6
ByLayer
370
-1
48
1
60
0
100
AcDbPoint
10
54
20
-9.82
30
0
39
0
210
0
220
0
230
1
50
360
0
ENDBLK
5
1BF
100
AcDbEntity
8
0
100
AcDbBlockEnd
0
BLOCK
5
1D4
100
AcDbEntity
8
0
100
AcDbBlockBegin
2
_U5
70
0
10
0
20
0
30
0
3
_U5
0
MTEXT
5
1CA
100
AcDbEntity
8
SK2
62
256
6
ByLayer
370
18
48
1
60
0
100
AcDbMText
10
33.469041
20
-9.973893
30
0
210
0
220
0
230
1
1
\W0.7694;32.40
40
2.8
41
0
44
1.084337
50
0
71
7
72
5
7
iso_b_vert
0
LINE
5
1CB
100
AcDbEntity
8
SK2
62
256
6
ByLayer
370
13
48
1
60
0
100
AcDbLine
10
21.6
20
-3.5725
30
0
11
21.6
21
-10.32
31
0
39
0
210
0
220
0
230
1
0
LINE
5
1CC
100
AcDbEntity
8
SK2
62
256
6
ByLayer
370
13
48
1
60
0
100
AcDbLine
10
54
20
-1.5875
30
0
11
54
21
-10.32
31
0
39
0
210
0
220
0
230
1
0
LINE
5
1CD
100
AcDbEntity
8
SK2
62
256
6
ByLayer
370
13
48
1
60
0
100
AcDbLine
10
21.6
20
-9.82
30
0
11
54
21
-9.82
31
0
39
0
210
0
220
0
230
1
0
LINE
5
1CE
100
AcDbEntity
8
SK2
62
256
6
ByLayer
370
13
48
1
60
0
100
AcDbLine
10
21.6
20
-9.82
30
0
11
24.774998
21
-9.402003
31
0
39
0
210
0
220
0
230
1
0
LINE
5
1CF
100
AcDbEntity
8
SK2
62
256
6
ByLayer
370
13
48
1
60
0
100
AcDbLine
10
21.6
20
-9.82
30
0
11
24.775002
21
-10.237997
31
0
39
0
210
0
220
0
230
1
0
LINE
5
1D0
100
AcDbEntity
8
SK2
62
256
6
ByLayer
370
13
48
1
60
0
100
AcDbLine
10
24.774998
20
-9.402003
30
0
11
24.775002
21
-10.237997
31
0
39
0
210
0
220
0
230
1
0
LINE
5
1D1
100
AcDbEntity
8
SK2
62
256
6
ByLayer
370
13
48
1
60
0
100
AcDbLine
10
54
20
-9.82
30
0
11
50.825002
21
-10.237997
31
0
39
0
210
0
220
0
230
1
0
LINE
5
1D2
100
AcDbEntity
8
SK2
62
256
6
ByLayer
370
13
48
1
60
0
100
AcDbLine
10
54
20
-9.82
30
0
11
50.824998
21
-9.402003
31
0
39
0
210
0
220
0
230
1
0
LINE
5
1D3
100
AcDbEntity
8
SK2
62
256
6
ByLayer
370
13
48
1
60
0
100
AcDbLine
10
50.825002
20
-10.237997
30
0
11
50.824998
21
-9.402003
31
0
39
0
210
0
220
0
230
1
0
ENDBLK
5
1D5
100
AcDbEntity
8
0
100
AcDbBlockEnd
0
BLOCK
5
1DA
100
AcDbEntity
8
0
100
AcDbBlockBegin
2
*D14
70
1
10
0
20
0
30
0
3
*D14
0
LINE
5
1DC
100
AcDbEntity
8
0
62
256
6
ByLayer
370
-2
48
1
60
0
100
AcDbLine
10
-36
20
-1.5875
30
0
11
-36
21
-39.67512
31
0
39
0
210
0
220
0
230
1
0
LINE
5
1DD
100
AcDbEntity
8
0
62
256
6
ByLayer
370
-2
48
1
60
0
100
AcDbLine
10
54
20
-1.5875
30
0
11
54
21
-39.67512
31
0
39
0
210
0
220
0
230
1
0
LINE
5
1DE
100
AcDbEntity
8
0
62
256
6
ByLayer
370
-2
48
1
60
0
100
AcDbLine
10
-32.825
20
-36.50012
30
0
11
50.825
21
-36.50012
31
0
39
0
210
0
220
0
230
1
0
SOLID
5
1DF
100
AcDbEntity
8
0
62
256
6
ByLayer
370
-1
48
1
60
0
100
AcDbTrace
10
-32.825
20
-35.970953
30
0
11
-32.825
21
-37.029287
31
0
12
-36
22
-36.50012
32
0
13
-36
23
-36.50012
33
0
39
0
210
0
220
0
230
1
0
SOLID
5
1E0
100
AcDbEntity
8
0
62
256
6
ByLayer
370
-1
48
1
60
0
100
AcDbTrace
10
50.825
20
-37.029287
30
0
11
50.825
21
-35.970953
31
0
12
54
22
-36.50012
32
0
13
54
23
-36.50012
33
0
39
0
210
0
220
0
230
1
0
MTEXT
5
1E1
100
AcDbEntity
8
0
62
256
6
ByLayer
370
18
48
1
60
0
100
AcDbMText
10
9
20
-29.193619
30
0
210
0
220
0
230
1
1
\A1;90
40
3.50012
41
0
44
1
50
0
71
5
72
5
7
iso_b_vert
0
POINT
5
1E2
100
AcDbEntity
8
Defpoints
62
0
6
ByLayer
370
-1
48
1
60
0
100
AcDbPoint
10
-36
20
0
30
0
39
0
210
0
220
0
230
1
50
360
0
POINT
5
1E3
100
AcDbEntity
8
Defpoints
62
0
6
ByLayer
370
-1
48
1
60
0
100
AcDbPoint
10
54
20
0
30
0
39
0
210
0
220
0
230
1
50
360
0
POINT
5
1E4
100
AcDbEntity
8
Defpoints
62
0
6
ByLayer
370
-1
48
1
60
0
100
AcDbPoint
10
54
20
-36.50012
30
0
39
0
210
0
220
0
230
1
50
360
0
ENDBLK
5
1DB
100
AcDbEntity
8
0
100
AcDbBlockEnd
0
BLOCK
5
1F0
100
AcDbEntity
8
0
100
AcDbBlockBegin
2
_U6
70
0
10
0
20
0
30
0
3
_U6
0
MTEXT
5
1E6
100
AcDbEntity
8
SK2
62
256
6
ByLayer
370
18
48
1
60
0
100
AcDbMText
10
3.770389
20
-35.467451
30
0
210
0
220
0
230
1
1
\W0.7468;90.00
40
3.50012
41
0
44
1.084337
50
0
71
7
72
5
7
iso_b_vert
0
LINE
5
1E7
100
AcDbEntity
8
SK2
62
256
6
ByLayer
370
13
48
1
60
0
100
AcDbLine
10
-36
20
-1.5875
30
0
11
-36
21
-39.67512
31
0
39
0
210
0
220
0
230
1
0
LINE
5
1E8
100
AcDbEntity
8
SK2
62
256
6
ByLayer
370
13
48
1
60
0
100
AcDbLine
10
54
20
-1.5875
30
0
11
54
21
-39.67512
31
0
39
0
210
0
220
0
230
1
0
LINE
5
1E9
100
AcDbEntity
8
SK2
62
256
6
ByLayer
370
13
48
1
60
0
100
AcDbLine
10
-36
20
-36.50012
30
0
11
54
21
-36.50012
31
0
39
0
210
0
220
0
230
1
0
LINE
5
1EA
100
AcDbEntity
8
SK2
62
256
6
ByLayer
370
13
48
1
60
0
100
AcDbLine
10
-36
20
-36.50012
30
0
11
-32.825002
21
-36.082123
31
0
39
0
210
0
220
0
230
1
0
LINE
5
1EB
100
AcDbEntity
8
SK2
62
256
6
ByLayer
370
13
48
1
60
0
100
AcDbLine
10
-36
20
-36.50012
30
0
11
-32.824998
21
-36.918117
31
0
39
0
210
0
220
0
230
1
0
LINE
5
1EC
100
AcDbEntity
8
SK2
62
256
6
ByLayer
370
13
48
1
60
0
100
AcDbLine
10
-32.825002
20
-36.082123
30
0
11
-32.824998
21
-36.918117
31
0
39
0
210
0
220
0
230
1
0
LINE
5
1ED
100
AcDbEntity
8
SK2
62
256
6
ByLayer
370
13
48
1
60
0
100
AcDbLine
10
54
20
-36.50012
30
0
11
50.825002
21
-36.918117
31
0
39
0
210
0
220
0
230
1
0
LINE
5
1EE
100
AcDbEntity
8
SK2
62
256
6
ByLayer
370
13
48
1
60
0
100
AcDbLine
10
54
20
-36.50012
30
0
11
50.824998
21
-36.082123
31
0
39
0
210
0
220
0
230
1
0
LINE
5
1EF
100
AcDbEntity
8
SK2
62
256
6
ByLayer
370
13
48
1
60
0
100
AcDbLine
10
50.825002
20
-36.918117
30
0
11
50.824998
21
-36.082123
31
0
39
0
210
0
220
0
230
1
0
ENDBLK
5
1F1
100
AcDbEntity
8
0
100
AcDbBlockEnd
0
ENDSEC
0
SECTION
2
ENTITIES
0
ARC
5
B7
100
AcDbEntity
8
1
62
256
6
ByLayer
370
18
48
1
60
0
100
AcDbCircle
39
0
10
1.501529
20
2.752639
30
0
40
0.800000000000004
210
0
220
0
230
1
100
AcDbArc
50
200.206172
51
270.03581
0
ARC
5
B8
100
AcDbEntity
8
1
62
256
6
ByLayer
370
18
48
1
60
0
100
AcDbCircle
39
0
10
1.501529
20
-2.752639
30
0
40
0.800000000000004
210
0
220
0
230
1
100
AcDbArc
50
89.96419
51
159.793828
0
ARC
5
B9
100
AcDbEntity
8
1
62
256
6
ByLayer
370
18
48
1
60
0
100
AcDbCircle
39
0
10
0
20
2.2
30
0
40
0.799999999999998
210
0
220
0
230
1
100
AcDbArc
50
20.206172
51
90
0
ARC
5
BA
100
AcDbEntity
8
1
62
256
6
ByLayer
370
18
48
1
60
0
100
AcDbCircle
39
0
10
0
20
-2.2
30
0
40
0.799999999999998
210
0
220
0
230
1
100
AcDbArc
50
270
51
339.793828
0
ARC
5
BB
100
AcDbEntity
8
SK2
62
256
6
ByLayer
370
13
48
1
60
0
100
AcDbCircle
39
0
10
54
20
0
30
0
40
20
210
0
220
0
230
1
100
AcDbArc
50
9.606349
51
69.999514
0
ARC
5
BC
100
AcDbEntity
8
SK2
62
256
6
ByLayer
370
13
48
1
60
0
100
AcDbCircle
39
0
10
54
20
0
30
0
40
20
210
0
220
0
230
1
100
AcDbArc
50
290.000486
51
350.393651
0
ELLIPSE
5
BD
100
AcDbEntity
8
1
62
256
6
ByLayer
370
18
48
1
60
0
100
AcDbEllipse
10
34.252102
20
-1.974504
30
0
11
-0.1
21
1.22460635382238E-17
31
0
210
0
220
0
230
1
40
1
41
-1.57512033091514
42
-3.33699579747123E-06
0
ELLIPSE
5
BE
100
AcDbEntity
8
1
62
256
6
ByLayer
370
18
48
1
60
0
100
AcDbEllipse
10
34.252102
20
1.974504
30
0
11
-0.1
21
1.22460635382238E-17
31
0
210
0
220
0
230
1
40
1
41
3.33699579303034E-06
42
1.57943239238954
0
POINT
5
70
100
AcDbEntity
8
80
62
256
6
ByLayer
370
18
48
1
60
0
100
AcDbPoint
10
0
20
0
30
0
39
0
210
0
220
0
230
1
50
360
0
POINT
5
72
100
AcDbEntity
8
81
62
256
6
ByLayer
370
18
48
1
60
0
100
AcDbPoint
10
54
20
0
30
0
39
0
210
0
220
0
230
1
50
360
0
POINT
5
74
100
AcDbEntity
8
1
62
256
6
ByLayer
370
18
48
1
60
0
100
AcDbPoint
10
-36
20
0
30
0
39
0
210
0
220
0
230
1
50
360
0
POINT
5
76
100
AcDbEntity
8
1
62
256
6
ByLayer
370
18
48
1
60
1
100
AcDbPoint
10
0
20
-3
30
0
39
0
210
0
220
0
230
1
50
360
0
POINT
5
77
100
AcDbEntity
8
1
62
256
6
ByLayer
370
18
48
1
60
1
100
AcDbPoint
10
54
20
0
30
0
39
0
210
0
220
0
230
1
50
360
0
POINT
5
78
100
AcDbEntity
8
1
62
256
6
ByLayer
370
18
48
1
60
1
100
AcDbPoint
10
53.2775
20
-1.985
30
0
39
0
210
0
220
0
230
1
50
360
0
POINT
5
79
100
AcDbEntity
8
1
62
256
6
ByLayer
370
18
48
1
60
1
100
AcDbPoint
10
53.2775
20
1.985
30
0
39
0
210
0
220
0
230
1
50
360
0
POINT
5
7A
100
AcDbEntity
8
1
62
256
6
ByLayer
370
18
48
1
60
1
100
AcDbPoint
10
-36
20
3
30
0
39
0
210
0
220
0
230
1
50
360
0
POINT
5
7B
100
AcDbEntity
8
1
62
256
6
ByLayer
370
18
48
1
60
1
100
AcDbPoint
10
-36
20
-3
30
0
39
0
210
0
220
0
230
1
50
360
0
POINT
5
7C
100
AcDbEntity
8
1
62
256
6
ByLayer
370
18
48
1
60
1
100
AcDbPoint
10
-36
20
-3
30
0
39
0
210
0
220
0
230
1
50
360
0
POINT
5
7D
100
AcDbEntity
8
1
62
256
6
ByLayer
370
18
48
1
60
1
100
AcDbPoint
10
0
20
-3
30
0
39
0
210
0
220
0
230
1
50
360
0
POINT
5
7E
100
AcDbEntity
8
1
62
256
6
ByLayer
370
18
48
1
60
1
100
AcDbPoint
10
6
20
2.485
30
0
39
0
210
0
220
0
230
1
50
360
0
POINT
5
7F
100
AcDbEntity
8
1
62
256
6
ByLayer
370
18
48
1
60
1
100
AcDbPoint
10
54
20
0
30
0
39
0
210
0
220
0
230
1
50
360
0
POINT
5
80
100
AcDbEntity
8
1
62
256
6
ByLayer
370
18
48
1
60
1
100
AcDbPoint
10
21.6
20
-1.985
30
0
39
0
210
0
220
0
230
1
50
360
0
POINT
5
81
100
AcDbEntity
8
1
62
256
6
ByLayer
370
18
48
1
60
1
100
AcDbPoint
10
54
20
0
30
0
39
0
210
0
220
0
230
1
50
360
0
POINT
5
82
100
AcDbEntity
8
1
62
256
6
ByLayer
370
18
48
1
60
1
100
AcDbPoint
10
-36
20
0
30
0
39
0
210
0
220
0
230
1
50
360
0
POINT
5
83
100
AcDbEntity
8
1
62
256
6
ByLayer
370
18
48
1
60
1
100
AcDbPoint
10
54
20
0
30
0
39
0
210
0
220
0
230
1
50
360
0
SPLINE
5
BF
100
AcDbEntity
8
1
62
256
6
ByLayer
370
18
48
1
60
0
100
AcDbSpline
70
4
71
3
72
16
73
12
40
0
40
0
40
0
40
0
40
0.216945207141947
40
0.216945207141947
40
0.433890414283894
40
0.433890414283894
40
0.650835621425841
40
0.650835621425841
40
0.867780828567788
40
0.867780828567788
40
1
40
1
40
1
40
1
41
1
10
53.3157114650959
20
1.88423529716931
30
0
41
1
10
53.1157221993637
20
1.88714183997337
30
0
41
1
10
52.9144703094436
20
1.88127487915361
30
0
41
1
10
52.5127130534924
20
1.85129863334723
30
0
41
1
10
52.3118141348286
20
1.82734789247678
30
0
41
1
10
51.9103533207232
20
1.7622161739024
30
0
41
1
10
51.7097675697703
20
1.72088034965157
30
0
41
1
10
51.3082446455235
20
1.62309633786418
30
0
41
1
10
51.1087057331618
20
1.56688315642808
30
-1E-16
41
1
10
50.7886000599839
20
1.46567624998036
30
-1E-16
41
1
10
50.667647771087
20
1.4248454388148
30
-1E-16
41
1
10
50.546824468259
20
1.3816753865448
30
-1E-16
0
SPLINE
5
C0
100
AcDbEntity
8
1
62
256
6
ByLayer
370
18
48
1
60
0
100
AcDbSpline
70
4
71
3
72
14
73
10
40
0
40
0
40
0
40
0
40
0.116705280125083
40
0.116705280125083
40
0.558352640062541
40
0.558352640062541
40
0.779176320031271
40
0.779176320031271
40
1
40
1
40
1
40
1
41
1
10
36.8605942302431
20
-0.266413780945413
30
0
41
1
10
36.7554530899086
20
-0.211660979542074
30
0
41
1
10
36.6504754618319
20
-0.1566632842285
30
0
41
1
10
36.1486487278817
20
0.106929530411378
30
0
41
1
10
35.7530029792123
20
0.316863146071114
30
0
41
1
10
35.1543101885351
20
0.620026687625398
30
0
41
1
10
34.953225360929
20
0.719279417962383
30
0
41
1
10
34.5514590665735
20
0.909962972842322
30
-1E-16
41
1
10
34.3508938158813
20
1.00138384374821
30
-1E-16
41
1
10
34.1500000000007
20
1.08771276362378
30
-1E-16
0
SPLINE
5
C1
100
AcDbEntity
8
1
62
256
6
ByLayer
370
18
48
1
60
0
100
AcDbSpline
70
4
71
3
72
22
73
18
40
0
40
0
40
0
40
0
40
0.0235933135012159
40
0.0235933135012159
40
0.221026654364175
40
0.221026654364175
40
0.418459995227134
40
0.418459995227134
40
0.517176665658611
40
0.517176665658611
40
0.615893336090088
40
0.615893336090088
40
0.813326676953048
40
0.813326676953048
40
0.912043347384527
40
0.912043347384527
40
1
40
1
40
1
40
1
41
1
10
36.4937397443833
20
0.209282766705513
30
0
41
1
10
36.5408357266703
20
0.184783797211367
30
0
41
1
10
36.5879254775807
20
0.160225790006507
30
0
41
1
10
37.0290764601355
20
-0.0702698425012329
30
0
41
1
10
37.4232753022789
20
-0.279106980379197
30
0
41
1
10
38.2218756480649
20
-0.683439196959654
30
0
41
1
10
38.6191559860553
20
-0.876017383957958
30
1E-16
41
1
10
39.2176993237764
20
-1.13625844828616
30
1E-16
41
1
10
39.4171802348346
20
-1.2180701401837
30
1E-16
41
1
10
39.813477807821
20
-1.36887803555933
30
1E-16
41
1
10
40.0107808569827
20
-1.43798943547944
30
1E-16
41
1
10
40.602063589966
20
-1.62495552904906
30
0
41
1
10
40.9953840577398
20
-1.72152782218493
30
0
41
1
10
41.5905716845435
20
-1.81879859181538
30
0
41
1
10
41.7906138458084
20
-1.84301447674795
30
0
41
1
10
42.1670162055134
20
-1.87216700729599
30
0
41
1
10
42.343778753868
20
-1.87909150416155
30
0
41
1
10
42.520370005223
20
-1.87917629184363
30
0
0
SPLINE
5
C2
100
AcDbEntity
8
1
62
256
6
ByLayer
370
18
48
1
60
0
100
AcDbSpline
70
4
71
3
72
18
73
14
40
0
40
0
40
0
40
0
40
0.191086655147671
40
0.191086655147671
40
0.382173310295342
40
0.382173310295342
40
0.573259965443012
40
0.573259965443012
40
0.764346620590683
40
0.764346620590683
40
0.955433275738353
40
0.955433275738353
40
1
40
1
40
1
40
1
41
1
10
34.152106893357
20
1.4000349437147
30
-1E-16
41
1
10
34.1521072540317
20
1.46997556466945
30
-1E-16
41
1
10
34.1521076153005
20
1.53446355235923
30
-1E-16
41
1
10
34.1521083296162
20
1.65037010683105
30
-1E-16
41
1
10
34.1521086846793
20
1.70218380774804
30
-1E-16
41
1
10
34.1521093986175
20
1.79345514486252
30
0
41
1
10
34.1521097601547
20
1.83307616797373
30
0
41
1
10
34.1521104742902
20
1.89728822560582
30
0
41
1
10
34.152110828946
20
1.92223069883005
30
0
41
1
10
34.152111540768
20
1.95794196472357
30
0
41
1
10
34.1521119006469
20
1.96872142136797
30
0
41
1
10
34.1521123401941
20
1.97273551351748
30
0
41
1
10
34.1521124229966
20
1.97309089568401
30
0
41
1
10
34.1521125054593
20
1.97304510418329
30
0
0
SPLINE
5
C3
100
AcDbEntity
8
1
62
256
6
ByLayer
370
18
48
1
60
0
100
AcDbSpline
70
4
71
3
72
8
73
4
40
0
40
0
40
0
40
0
40
1
40
1
40
1
40
1
41
1
10
53.5817413392568
20
-0.270995887343872
30
0
41
1
10
53.4812081168545
20
-0.10608935631916
30
0
41
1
10
53.3617713825988
20
0.0760498730886354
30
0
41
1
10
53.2213068030657
20
0.277358372107358
30
0
0
SPLINE
5
C4
100
AcDbEntity
8
1
62
256
6
ByLayer
370
18
48
1
60
0
100
AcDbSpline
70
4
71
3
72
8
73
4
40
0
40
0
40
0
40
0
40
1
40
1
40
1
40
1
41
1
10
53.9971107669914
20
0.140916904856084
30
0
41
1
10
53.9862512057265
20
0.104193438516063
30
0
41
1
10
53.9753242862188
20
0.0674917410036926
30
0
41
1
10
53.9643303249715
20
0.0308117100314576
30
0
0
SPLINE
5
C5
100
AcDbEntity
8
1
62
256
6
ByLayer
370
18
48
1
60
0
100
AcDbSpline
70
4
71
3
72
10
73
6
40
0
40
0
40
0
40
0
40
0.710099107994145
40
0.710099107994145
40
1
40
1
40
1
40
1
41
1
10
34.300869179249
20
-1.7678179455099
30
0
41
1
10
34.6926175405193
20
-1.86523564032521
30
0
41
1
10
35.0829397246565
20
-1.92787480194571
30
0
41
1
10
35.6335945949406
20
-1.96822583939803
30
0
41
1
10
35.7931546205582
20
-1.97418118849345
30
0
41
1
10
35.9532870242165
20
-1.97416518589486
30
0
0
SPLINE
5
C6
100
AcDbEntity
8
1
62
256
6
ByLayer
370
18
48
1
60
0
100
AcDbSpline
70
4
71
3
72
28
73
24
40
0
40
0
40
0
40
0
40
0.0680739073707368
40
0.0680739073707368
40
0.152794461246122
40
0.152794461246122
40
0.237515015121507
40
0.237515015121507
40
0.322235568996893
40
0.322235568996893
40
0.364595845934586
40
0.364595845934586
40
0.406956122872279
40
0.406956122872279
40
0.491676676747669
40
0.491676676747669
40
0.661117784498444
40
0.661117784498444
40
0.745838338373832
40
0.745838338373832
40
0.83055889224922
40
0.83055889224922
40
1
40
1
40
1
40
1
41
1
10
46.1177986573352
20
1.89066208007219
30
0
41
1
10
46.2755762344017
20
1.91663344151428
30
0
41
1
10
46.4339015743855
20
1.93717958040568
30
0
41
1
10
46.7861972535515
20
1.97051349627992
30
0
41
1
10
46.9802135026917
20
1.98022619748011
30
0
41
1
10
47.3685169736313
20
1.982036482192
30
0
41
1
10
47.5626419806445
20
1.97429084953001
30
0
41
1
10
47.9506508104137
20
1.94141583142985
30
0
41
1
10
48.1444348310477
20
1.91607913268871
30
0
41
1
10
48.437312432737
20
1.86569119774739
30
0
41
1
10
48.5352431382498
20
1.84682818968031
30
0
41
1
10
48.7316733431274
20
1.80491100318292
30
0
41
1
10
48.8302785983752
20
1.78181591316073
30
0
41
1
10
49.1243012266447
20
1.70664143938225
30
-1E-16
41
1
10
49.3184774348351
20
1.64819523380186
30
-1E-16
41
1
10
49.9012243979946
20
1.45404251992238
30
-1E-16
41
1
10
50.2886831537974
20
1.29869008438973
30
-1E-16
41
1
10
50.8723485018964
20
1.0320497864152
30
-1E-16
41
1
10
51.0672641757564
20
0.937375283242318
30
-1E-16
41
1
10
51.4601820885085
20
0.739942044846089
30
0
41
1
10
51.6560261425478
20
0.638001199898355
30
0
41
1
10
52.241376667311
20
0.326401103625642
30
0
41
1
10
52.6294806000992
20
0.110450646255913
30
0
41
1
10
53.0195726458381
20
-0.10629409321723
30
0
0
SPLINE
5
C7
100
AcDbEntity
8
1
62
256
6
ByLayer
370
18
48
1
60
0
100
AcDbSpline
70
4
71
3
72
30
73
26
40
0
40
0
40
0
40
0
40
0.0870099919227024
40
0.0870099919227024
40
0.155172923976343
40
0.155172923976343
40
0.189254390003163
40
0.189254390003163
40
0.223335856029983
40
0.223335856029983
40
0.359661720137264
40
0.359661720137264
40
0.495987584244544
40
0.495987584244544
40
0.564150516298183
40
0.564150516298183
40
0.632313448351822
40
0.632313448351822
40
0.768639312459099
40
0.768639312459099
40
0.836802244512736
40
0.836802244512736
40
0.904965176566372
40
0.904965176566372
40
1
40
1
40
1
40
1
41
1
10
48.0902520273832
20
-0.255567434587732
30
0
41
1
10
47.8368003684051
20
-0.12346367408756
30
0
41
1
10
47.5840686559916
20
0.0100781260751717
30
0
41
1
10
47.1325993945366
20
0.246850569165844
30
0
41
1
10
46.9340349737453
20
0.350402486766995
30
0
41
1
10
46.6349503139585
20
0.503364518674715
30
0
41
1
10
46.5350546895228
20
0.55396827036526
30
0
41
1
10
46.3346489278002
20
0.653995274021582
30
0
41
1
10
46.2340162342324
20
0.703446173638127
30
0
41
1
10
45.7332898182586
20
0.945094881539944
30
-1E-16
41
1
10
45.3369401717786
20
1.12212684820469
30
-1E-16
41
1
10
44.5438687274847
20
1.42963176103407
30
-1E-16
41
1
10
44.1471241014214
20
1.55985173618001
30
-1E-16
41
1
10
43.5447110565358
20
1.71042296707844
30
0
41
1
10
43.3443076860796
20
1.75243748713029
30
0
41
1
10
42.9459334079299
20
1.81967896024545
30
0
41
1
10
42.7475343769897
20
1.84493437473395
30
0
41
1
10
42.1528203302478
20
1.89437268054223
30
0
41
1
10
41.7570527772343
20
1.89353126051108
30
0
41
1
10
41.1574831525983
20
1.83939790665829
30
0
41
1
10
40.9562131470761
20
1.81243614581891
30
0
41
1
10
40.5541256002745
20
1.74123599220854
30
0
41
1
10
40.3529930701962
20
1.69707502173739
30
0
41
1
10
39.8727893916028
20
1.57349159960171
30
-1E-16
41
1
10
39.5937175663796
20
1.48693426267946
30
-1E-16
41
1
10
39.3140792570186
20
1.38744978493418
30
-1E-16
0
SPLINE
5
C8
100
AcDbEntity
8
1
62
256
6
ByLayer
370
18
48
1
60
0
100
AcDbSpline
70
4
71
3
72
8
73
4
40
0
40
0
40
0
40
0
40
1
40
1
40
1
40
1
41
1
10
53.5817413392636
20
-0.270995887350097
30
0
41
1
10
53.5752503789606
20
-0.269382204943014
30
0
41
1
10
53.5733198577038
20
-0.272922497857451
30
0
41
1
10
53.5758238445141
20
-0.28102055268883
30
0
0
SPLINE
5
C9
100
AcDbEntity
8
1
62
256
6
ByLayer
370
18
48
1
60
0
100
AcDbSpline
70
4
71
3
72
30
73
26
40
0
40
0
40
0
40
0
40
0.075789462825089
40
0.075789462825089
40
0.151578925650178
40
0.151578925650178
40
0.303157851300356
40
0.303157851300356
40
0.378947314125447
40
0.378947314125447
40
0.454736776950538
40
0.454736776950538
40
0.606315702600724
40
0.606315702600724
40
0.682105165425817
40
0.682105165425817
40
0.719999896838366
40
0.719999896838366
40
0.757894628250914
40
0.757894628250914
40
0.9094735539011
40
0.9094735539011
40
0.985263016726196
40
0.985263016726196
40
1
40
1
40
1
40
1
41
1
10
34.15
20
1.14502881743726
30
-1E-16
41
1
10
34.3497396901521
20
1.05548702280427
30
-1E-16
41
1
10
34.5491930792722
20
0.960702401059677
30
-1E-16
41
1
10
34.9487994980739
20
0.762608418745543
30
0
41
1
10
35.1482763087304
20
0.659616190348657
30
0
41
1
10
35.7428534869604
20
0.345031566360149
30
0
41
1
10
36.1361567492261
20
0.127070677664648
30
0
41
1
10
36.7286347115792
20
-0.199021532391697
30
0
41
1
10
36.9265208461638
20
-0.30762814439322
30
0
41
1
10
37.3243689326252
20
-0.522278627905763
30
0
41
1
10
37.5247348980778
20
-0.628487507349149
30
0
41
1
10
38.1204547590033
20
-0.934059098040819
30
1E-16
41
1
10
38.5137745137022
20
-1.12225442070732
30
1E-16
41
1
10
39.1055088777757
20
-1.37005869664779
30
1E-16
41
1
10
39.3030481279804
20
-1.4469156614916
30
1E-16
41
1
10
39.6006751330218
20
-1.55228028465703
30
1E-16
41
1
10
39.7001037490839
20
-1.58574792658882
30
1E-16
41
1
10
39.8995618559817
20
-1.64913597775734
30
1E-16
41
1
10
39.9996077311462
20
-1.67904917498825
30
1E-16
41
1
10
40.4972748928892
20
-1.8179736828888
30
0
41
1
10
40.8908713075696
20
-1.89614510159257
30
0
41
1
10
41.4821925953875
20
-1.96053401027262
30
0
41
1
10
41.6794226902275
20
-1.97321228138637
30
0
41
1
10
41.9158616325127
20
-1.97755832563357
30
0
41
1
10
41.9543925642167
20
-1.97792281696735
30
0
41
1
10
41.9929609233787
20
-1.9779431198144
30
0
0
SPLINE
5
CA
100
AcDbEntity
8
1
62
256
6
ByLayer
370
18
48
1
60
0
100
AcDbSpline
70
4
71
3
72
10
73
6
40
0
40
0
40
0
40
0
40
0.0710989958942916
40
0.0710989958942916
40
1
40
1
40
1
40
1
41
1
10
52.5213724455293
20
1.94435481657547
30
0
41
1
10
52.5366452434489
20
1.94605777311617
30
0
41
1
10
52.5519235859984
20
1.94770815981502
30
0
41
1
10
52.7668895801838
20
1.97017711762777
30
0
41
1
10
52.9660987572254
20
1.98190376654037
30
0
41
1
10
53.1654184522206
20
1.98444998011871
30
0
0
SPLINE
5
CB
100
AcDbEntity
8
1
62
256
6
ByLayer
370
18
48
1
60
0
100
AcDbSpline
70
4
71
3
72
24
73
20
40
0
40
0
40
0
40
0
40
0.147491566116374
40
0.147491566116374
40
0.358807318180205
40
0.358807318180205
40
0.38522178718819
40
0.38522178718819
40
0.411636256196176
40
0.411636256196176
40
0.438050725204161
40
0.438050725204161
40
0.464465194212147
40
0.464465194212147
40
0.570123070244112
40
0.570123070244112
40
0.781438822308042
40
0.781438822308042
40
1
40
1
40
1
40
1
41
1
10
6.65143659071819
20
-1.95577549611113
30
0
41
1
10
6.71744307994123
20
-1.95533285595224
30
0
41
1
10
6.7853921974216
20
-1.95293709758613
30
0
41
1
10
6.95439222602931
20
-1.94352848259271
30
0
41
1
10
7.05689204354189
20
-1.93493393380908
30
0
41
1
10
7.17392159096366
20
-1.92285943590849
30
0
41
1
10
7.18669446042321
20
-1.92138916398613
30
0
41
1
10
7.21352711095574
20
-1.91883502187591
30
0
41
1
10
7.22832653236833
20
-1.91811759765738
30
0
41
1
10
7.25798785606165
20
-1.91786701851882
30
0
41
1
10
7.27298837388477
20
-1.9181823754399
30
0
41
1
10
7.30169634680294
20
-1.91955219269062
30
0
41
1
10
7.31561664959244
20
-1.92060143325222
30
0
41
1
10
7.38555139803464
20
-1.92540745585535
30
0
41
1
10
7.4412425175037
20
-1.92907563918453
30
0
41
1
10
7.60747178418879
20
-1.93932869646591
30
0
41
1
10
7.71724756639008
20
-1.94516751243103
30
0
41
1
10
7.93786577215388
20
-1.95378466215209
30
0
41
1
10
8.04867404690373
20
-1.95643732386983
30
0
41
1
10
8.15836618777536
20
-1.95676388053494
30
0
0
SPLINE
5
CC
100
AcDbEntity
8
1
62
256
6
ByLayer
370
18
48
1
60
0
100
AcDbSpline
70
4
71
3
72
10
73
6
40
0
40
0
40
0
40
0
40
0.5
40
0.5
40
1
40
1
40
1
40
1
41
1
10
34.1521181959874
20
-1.80404828742303
30
0
41
1
10
34.1527431620785
20
-1.79004217785115
30
0
41
1
10
34.1723447241494
20
-1.775652339646
30
0
41
1
10
34.2321602474961
20
-1.760417729686
30
0
41
1
10
34.2705782611551
20
-1.76028537688609
30
0
41
1
10
34.300869179249
20
-1.7678179455099
30
0
0
SPLINE
5
CD
100
AcDbEntity
8
1
62
256
6
ByLayer
370
18
48
1
60
0
100
AcDbSpline
70
4
71
3
72
26
73
22
40
0
40
0
40
0
40
0
40
0.199123389363454
40
0.199123389363454
40
0.298685084045181
40
0.298685084045181
40
0.398246778726909
40
0.398246778726909
40
0.497808473408635
40
0.497808473408635
40
0.597370168090362
40
0.597370168090362
40
0.69693186277209
40
0.69693186277209
40
0.796493557453817
40
0.796493557453817
40
0.896055252135544
40
0.896055252135544
40
0.995616946817271
40
0.995616946817271
40
1
40
1
40
1
40
1
41
1
10
53.0686124159298
20
-0.137988564089795
30
0
41
1
10
52.6781483829296
20
0.0678934692337236
30
0
41
1
10
52.2897090165002
20
0.273320106168569
30
0
41
1
10
51.7050920579811
20
0.57058407363732
30
0
41
1
10
51.5098895758368
20
0.667849267216923
30
0
41
1
10
51.1176839557789
20
0.856459232782328
30
-1E-16
41
1
10
50.9207633675997
20
0.947730809179433
30
-1E-16
41
1
10
50.5280589207628
20
1.12013707530826
30
-1E-16
41
1
10
50.3317340949738
20
1.20160984657187
30
-1E-16
41
1
10
49.9385031909878
20
1.35350045005003
30
-1E-16
41
1
10
49.740950282734
20
1.42407107943981
30
-1E-16
41
1
10
49.3491222728336
20
1.55017201357404
30
-1E-16
41
1
10
49.1548871962228
20
1.60523410286771
30
0
41
1
10
48.7657903244918
20
1.70252127720596
30
0
41
1
10
48.5711930425065
20
1.74463067636859
30
0
41
1
10
48.1825380802973
20
1.8119558517825
30
0
41
1
10
47.9885887605543
20
1.83637691422214
30
0
41
1
10
47.5987364764671
20
1.87099792457963
30
0
41
1
10
47.4029009838078
20
1.88106900500333
30
0
41
1
10
47.1973591491095
20
1.88194921685448
30
0
41
1
10
47.1886946229035
20
1.88196691739523
30
0
41
1
10
47.1800326109782
20
1.88196545853964
30
0
0
SPLINE
5
CE
100
AcDbEntity
8
1
62
256
6
ByLayer
370
18
48
1
60
0
100
AcDbSpline
70
4
71
3
72
61
73
57
40
0
40
0
40
0
40
0
40
0.0067928996216694
40
0.0067928996216694
40
0.0269978364892199
40
0.0269978364892199
40
0.0472027733567704
40
0.0472027733567704
40
0.0674077102243208
40
0.0674077102243208
40
0.077510178658096
40
0.077510178658096
40
0.0800357957665397
40
0.0800357957665397
40
0.0806672000436506
40
0.0806672000436506
40
0.0812986043207617
40
0.0812986043207617
40
0.0825614128749836
40
0.0825614128749836
40
0.0876126470918712
40
0.0876126470918712
40
0.107817583959421
40
0.107817583959421
40
0.128022520826972
40
0.128022520826972
40
0.168432394562073
40
0.168432394562073
40
0.249252142032274
40
0.249252142032274
40
0.410891636972677
40
0.410891636972677
40
0.491711384442879
40
0.491711384442879
40
0.511916321310429
40
0.511916321310429
40
0.522018789744204
40
0.522018789744204
40
0.527070023961092
40
0.527070023961092
40
0.528332832515314
40
0.528332832515314
40
0.529595641069536
40
0.529595641069536
40
0.529911343208091
40
0.529911343208091
40
0.530227045346647
40
0.530227045346647
40
0.530858449623757
40
0.530858449623757
40
0.532121258177979
40
0.572531131913078
40
0.572531131913078
40
0.895810121793865
40
0.895810121793865
40
1
40
1
40
1
40
1
41
1
10
8.4628968306921
20
1.95110821552723
30
0
41
1
10
8.4618095444209
20
1.93338397671033
30
0
41
1
10
8.46047135779608
20
1.915622777366
30
0
41
1
10
8.45426678327951
20
1.8448932144239
30
0
41
1
10
8.44794899891562
20
1.79181517369761
30
0
41
1
10
8.43067467901676
20
1.6857943095805
30
0
41
1
10
8.41978887085367
20
1.63282574477265
30
0
41
1
10
8.39466869692586
20
1.52653799052339
30
0
41
1
10
8.38016249362755
20
1.47331221562226
30
0
41
1
10
8.35421964232464
20
1.39373416668945
30
0
41
1
10
8.34496846138853
20
1.3672198173916
30
0
41
1
10
8.33272593011054
20
1.33406088327587
30
0
41
1
10
8.33024269125806
20
1.32742624852847
30
0
41
1
10
8.32709987120529
20
1.31913815116661
30
0
41
1
10
8.32646940021294
20
1.31748087105586
30
0
41
1
10
8.32520467695269
20
1.31416697457431
30
0
41
1
10
8.32425274522654
20
1.31250919200457
30
0
41
1
10
8.32508829384025
20
1.30708927956013
30
0
41
1
10
8.32803772456185
20
1.3045054350026
30
0
41
1
10
8.34033422894268
20
1.2918737171961
30
0
41
1
10
8.35160589530594
20
1.28354637135405
30
0
41
1
10
8.40688673200447
20
1.24095892487361
30
0
41
1
10
8.45262276979889
20
1.20923733808263
30
0
41
1
10
8.54392969217577
20
1.14572088639179
30
0
41
1
10
8.58980147489922
20
1.11435866089644
30
0
41
1
10
8.72766407389523
20
1.02076968151479
30
0
41
1
10
8.81991222825215
20
0.959056092046751
30
0
41
1
10
9.09692998698358
20
0.774812973811237
30
0
41
1
10
9.28187012226417
20
0.653016284178221
30
0
41
1
10
9.83622744950327
20
0.289059491188567
30
0
41
1
10
10.2056029759718
20
0.048959190475216
30
0
41
1
10
10.7594616105509
20
-0.306671919049421
30
0
41
1
10
10.9442731002477
20
-0.424383283355127
30
0
41
1
10
11.1732840901651
20
-0.572225651144549
30
0
41
1
10
11.2189851845186
20
-0.601826350100509
30
0
41
1
10
11.2869781221626
20
-0.646529065433327
30
0
41
1
10
11.3095691384507
20
-0.661469002893313
30
0
41
1
10
11.3429261811667
20
-0.684136401637915
30
0
41
1
10
11.3540110007844
20
-0.691724387517354
30
0
41
1
10
11.3673218666422
20
-0.701437322761961
30
0
41
1
10
11.3699542352608
20
-0.703391866456343
30
0
41
1
10
11.3750483165821
20
-0.707369921998094
30
0
41
1
10
11.3777222205701
20
-0.709390048517946
30
0
41
1
10
11.3799065770694
20
-0.712051584287934
30
0
41
1
10
11.3803401857354
20
-0.712655057800021
30
0
41
1
10
11.379930164804
20
-0.71346349159424
30
0
41
1
10
11.37900540987
20
-0.713430567892942
30
0
41
1
10
11.376548309011
20
-0.713081226886231
30
0
41
1
10
11.3748230937562
20
-0.712594582585353
30
0
41
1
10
11.3697446900483
20
-0.711348293826461
30
0
41
1
10
11.2580234404135
20
-0.683915476125236
30
0
41
1
10
11.1464236489744
20
-0.656005686913574
30
0
41
1
10
10.1735206134302
20
-0.408409334043341
30
0
41
1
10
9.31638912305198
20
-0.159719587173441
30
0
41
1
10
8.19354158468687
20
0.20560101669642
30
0
41
1
10
7.92077371029336
20
0.29747117960801
30
0
41
1
10
7.64887484545236
20
0.392107195891754
30
0
0
SPLINE
5
CF
100
AcDbEntity
8
1
62
256
6
ByLayer
370
18
48
1
60
0
100
AcDbSpline
70
4
71
3
72
28
73
24
40
0
40
0
40
0
40
0
40
0.103942714462674
40
0.103942714462674
40
0.167946806286765
40
0.167946806286765
40
0.199948852198812
40
0.199948852198812
40
0.231950898110859
40
0.231950898110859
40
0.48796726540724
40
0.48796726540724
40
0.615975449055431
40
0.615975449055431
40
0.743983632703622
40
0.743983632703622
40
0.775985678615669
40
0.775985678615669
40
0.807987724527715
40
0.807987724527715
40
0.871991816351809
40
0.871991816351809
40
1
40
1
40
1
40
1
41
1
10
43.458953400835
20
-1.90792726663778
30
0
41
1
10
43.1383426546876
20
-1.95474825838898
30
0
41
1
10
42.8197153029973
20
-1.97827574143147
30
0
41
1
10
42.3041067299219
20
-1.97825358464067
30
0
41
1
10
42.1073668965963
20
-1.96931299090926
30
0
41
1
10
41.8110490941335
20
-1.94241935067976
30
0
41
1
10
41.7120758150566
20
-1.93120589605488
30
0
41
1
10
41.5135564173385
20
-1.90427261336057
30
0
41
1
10
41.4138076963648
20
-1.88850964486232
30
0
41
1
10
40.519669537536
20
-1.72779944490645
30
1E-16
41
1
10
39.743540576135
20
-1.45028620357047
30
1E-16
41
1
10
38.548543190465
20
-0.898026692434996
30
1E-16
41
1
10
38.1547322476949
20
-0.69588985404053
30
0
41
1
10
37.3686133825901
20
-0.275614624235118
30
0
41
1
10
36.9761726767418
20
-0.0566317795909583
30
0
41
1
10
36.4797586967665
20
0.216100023608419
30
0
41
1
10
36.3799752081304
20
0.270707032937395
30
0
41
1
10
36.181031630451
20
0.378797988037405
30
0
41
1
10
36.0818213355931
20
0.432310492750531
30
0
41
1
10
35.7847511698943
20
0.590876129269532
30
0
41
1
10
35.5875033043628
20
0.694048775937432
30
0
41
1
10
34.9962102967815
20
0.99264073507922
30
-1E-16
41
1
10
34.6022333265251
20
1.17651757339303
30
-1E-16
41
1
10
34.20386262496
20
1.33762266869078
30
-1E-16
0
SPLINE
5
D0
100
AcDbEntity
8
1
62
256
6
ByLayer
370
18
48
1
60
0
100
AcDbSpline
70
4
71
3
72
8
73
4
40
0
40
0
40
0
40
0
40
1
40
1
40
1
40
1
41
1
10
53.019572645838
20
-0.106294093217201
30
0
41
1
10
53.0144752373242
20
-0.0130443833157017
30
0
41
1
10
53.0121769026523
20
0.0807916716519514
30
0
41
1
10
53.0139588618306
20
0.175305101045893
30
0
0
SPLINE
5
D1
100
AcDbEntity
8
1
62
256
6
ByLayer
370
18
48
1
60
0
100
AcDbSpline
70
4
71
3
72
8
73
4
40
0
40
0
40
0
40
0
40
1
40
1
40
1
40
1
41
1
10
34.1521080148895
20
1.39989232412088
30
-1E-16
41
1
10
34.1521072663721
20
1.39993986130034
30
-1E-16
41
1
10
34.1521068931118
20
1.39998739985415
30
-1E-16
41
1
10
34.1521068933569
20
1.40003493538202
30
-1E-16
0
SPLINE
5
D2
100
AcDbEntity
8
1
62
256
6
ByLayer
370
18
48
1
60
0
100
AcDbSpline
70
4
71
3
72
50
73
46
40
0
40
0
40
0
40
0
40
0.124999999999998
40
0.124999999999998
40
0.187499999999999
40
0.187499999999999
40
0.249999999999999
40
0.249999999999999
40
0.3125
40
0.3125
40
0.34375
40
0.34375
40
0.375000000000001
40
0.375000000000001
40
0.406250000000001
40
0.406250000000001
40
0.437500000000001
40
0.437500000000001
40
0.468750000000001
40
0.468750000000001
40
0.500000000000002
40
0.500000000000002
40
0.562500000000002
40
0.562500000000002
40
0.593750000000003
40
0.593750000000003
40
0.625000000000003
40
0.625000000000003
40
0.687500000000003
40
0.687500000000003
40
0.750000000000004
40
0.750000000000004
40
0.757812500000004
40
0.757812500000004
40
0.765625000000003
40
0.765625000000003
40
0.773437500000003
40
0.773437500000003
40
0.781250000000003
40
0.781250000000003
40
0.812500000000001
40
0.812500000000001
40
0.875000000000002
40
0.875000000000002
40
1
40
1
40
1
40
1
41
1
10
7.64887696610521
20
0.392112614823617
30
0
41
1
10
7.43819068955446
20
0.504043474808185
30
0
41
1
10
7.23255074857195
20
0.620220953566815
30
0
41
1
10
6.93511629089011
20
0.803310149928365
30
0
41
1
10
6.837830105379
20
0.865826548698294
30
-1E-16
41
1
10
6.64825575108244
20
0.99478692894246
30
-1E-16
41
1
10
6.55598573496701
20
1.06123414254435
30
-1E-16
41
1
10
6.3828026495539
20
1.19670310294651
30
-1E-16
41
1
10
6.30079720642397
20
1.26659172964449
30
-1E-16
41
1
10
6.19411193114007
20
1.37148243154107
30
-1E-16
41
1
10
6.16118606295274
20
1.40652559199415
30
-1E-16
41
1
10
6.10212763820516
20
1.47682988638209
30
-1E-16
41
1
10
6.07581130956362
20
1.51243763762531
30
-1E-16
41
1
10
6.0339718970219
20
1.5813255165435
30
-1E-16
41
1
10
6.01822725802373
20
1.61477307137397
30
-1E-16
41
1
10
5.99934068905333
20
1.67930297239445
30
-1E-16
41
1
10
5.99658949955801
20
1.70938130894069
30
0
41
1
10
6.00466665237462
20
1.76420833140026
30
0
41
1
10
6.0157376311613
20
1.78936938707426
30
0
41
1
10
6.0497256412074
20
1.83291628454867
30
0
41
1
10
6.07251703821976
20
1.851565482567
30
0
41
1
10
6.15523404521363
20
1.89963084955377
30
0
41
1
10
6.22608435306739
20
1.91990929779234
30
0
41
1
10
6.346426732091
20
1.94020940489335
30
0
41
1
10
6.38881672863363
20
1.94516796940275
30
0
41
1
10
6.47592642043634
20
1.95217643465483
30
0
41
1
10
6.52084925725447
20
1.95425553384604
30
0
41
1
10
6.65892034491611
20
1.95713069934749
30
0
41
1
10
6.75533068890556
20
1.95461068996406
30
0
41
1
10
6.95439222602894
20
1.94352848259274
30
0
41
1
10
7.0568920435415
20
1.93493393380911
30
0
41
1
10
7.17392159096329
20
1.92285943590852
30
0
41
1
10
7.18669446042287
20
1.92138916398619
30
0
41
1
10
7.21352711095531
20
1.91883502187593
30
0
41
1
10
7.22832653236787
20
1.91811759765738
30
0
41
1
10
7.25798785606122
20
1.91786701851882
30
0
41
1
10
7.27298837388437
20
1.91818237543987
30
0
41
1
10
7.3016963468026
20
1.91955219269059
30
0
41
1
10
7.31561664959207
20
1.92060143325216
30
0
41
1
10
7.38555139803429
20
1.92540745585532
30
0
41
1
10
7.44124251750335
20
1.9290756391845
30
0
41
1
10
7.6074717841885
20
1.93932869646591
30
0
41
1
10
7.71724756638983
20
1.94516751243103
30
0
41
1
10
8.04259721073896
20
1.95787537843577
30
0
41
1
10
8.25441148806965
20
1.95988397470072
30
0
41
1
10
8.4629039049122
20
1.95110852729081
30
0
0
SPLINE
5
D3
100
AcDbEntity
8
1
62
256
6
ByLayer
370
18
48
1
60
0
100
AcDbSpline
70
4
71
3
72
22
73
18
40
0
40
0
40
0
40
0
40
0.0359916532404496
40
0.0359916532404496
40
0.136403990437145
40
0.136403990437145
40
0.23681632763384
40
0.23681632763384
40
0.437641002027229
40
0.437641002027229
40
0.538053339223922
40
0.538053339223922
40
0.638465676420614
40
0.638465676420614
40
0.839290350813994
40
0.839290350813994
40
1
40
1
40
1
40
1
41
1
10
42.7946642872152
20
-1.8828491930679
30
0
41
1
10
42.7236145676193
20
-1.88590424510986
30
0
41
1
10
42.6525812467256
20
-1.88784799770465
30
0
41
1
10
42.3833701507259
20
-1.89099102567962
30
0
41
1
10
42.1850390169775
20
-1.88463439212757
30
0
41
1
10
41.7868873027372
20
-1.85466211251926
30
0
41
1
10
41.5868061300602
20
-1.83082785534816
30
0
41
1
10
40.9915356196435
20
-1.73450436472075
30
0
41
1
10
40.5981923391954
20
-1.63832680527011
30
0
41
1
10
40.0068753178762
20
-1.45158389919266
30
1E-16
41
1
10
39.8095601988716
20
-1.38248316171811
30
1E-16
41
1
10
39.4132205645329
20
-1.23156705924825
30
1E-16
41
1
10
39.2137082770373
20
-1.14963253345786
30
1E-16
41
1
10
38.6150605234814
20
-0.888827169917732
30
1E-16
41
1
10
38.2177314450531
20
-0.695634057777085
30
0
41
1
10
37.4987642204646
20
-0.330147458945987
30
0
41
1
10
37.1824621244423
20
-0.163296519267391
30
0
41
1
10
36.8668895953383
20
0.0029940390745082
30
0
0
SPLINE
5
D4
100
AcDbEntity
8
1
62
256
6
ByLayer
370
18
48
1
60
0
100
AcDbSpline
70
4
71
3
72
50
73
46
40
0
40
0
40
0
40
0
40
0.0463985234421749
40
0.0463985234421749
40
0.0939596927454673
40
0.0939596927454673
40
0.14152086204876
40
0.14152086204876
40
0.189082031352052
40
0.189082031352052
40
0.236643200655344
40
0.236643200655344
40
0.284204369958637
40
0.284204369958637
40
0.331765539261929
40
0.331765539261929
40
0.379326708565221
40
0.379326708565221
40
0.426887877868514
40
0.426887877868514
40
0.474449047171806
40
0.474449047171806
40
0.498229631823451
40
0.498229631823451
40
0.522010216475096
40
0.522010216475096
40
0.569571385778386
40
0.569571385778386
40
0.617132555081675
40
0.617132555081675
40
0.664693724384965
40
0.664693724384965
40
0.712254893688255
40
0.712254893688255
40
0.759816062991545
40
0.759816062991545
40
0.807377232294834
40
0.807377232294834
40
0.902499570901414
40
0.902499570901414
40
0.950060740204705
40
0.950060740204705
40
0.997621909507996
40
0.997621909507996
40
1
40
1
40
1
40
1
41
1
10
34.9020191354903
20
1.89024836892131
30
0
41
1
10
35.0926642223988
20
1.92048907708829
30
0
41
1
10
35.2832287807472
20
1.94255163790911
30
0
41
1
10
35.6694690229586
20
1.97085465549796
30
0
41
1
10
35.8648658235922
20
1.9765678406869
30
0
41
1
10
36.2578131587214
20
1.96992635304557
30
0
41
1
10
36.4540893231951
20
1.9576110071259
30
0
41
1
10
36.8443987126769
20
1.91605678966638
30
0
41
1
10
37.0388742841288
20
1.88681687553626
30
0
41
1
10
37.4272613788236
20
1.81200795944901
30
0
41
1
10
37.620831681528
20
1.76612293190888
30
0
41
1
10
38.0095482030479
20
1.6594745758876
30
-1E-16
41
1
10
38.204701509468
20
1.59885575227372
30
-1E-16
41
1
10
38.5964933562001
20
1.46262724849078
30
-1E-16
41
1
10
38.7933310100424
20
1.38634633775106
30
-1E-16
41
1
10
39.1842743000634
20
1.2243317787561
30
-1E-16
41
1
10
39.3792004410316
20
1.13846989908922
30
-1E-16
41
1
10
39.7679972847361
20
0.957338051068263
30
-1E-16
41
1
10
39.9617502936117
20
0.861841100550521
30
-1E-16
41
1
10
40.3497862206291
20
0.663879582448658
30
0
41
1
10
40.5439486609397
20
0.561208591748709
30
0
41
1
10
40.8367835331902
20
0.404052078460381
30
0
41
1
10
40.9347070042876
20
0.351234218672403
30
0
41
1
10
41.1311161738209
20
0.244608349948379
30
0
41
1
10
41.2297629542982
20
0.190708520060895
30
0
41
1
10
41.5241296383116
20
0.0288430736907799
30
0
41
1
10
41.7187639932554
20
-0.0799393356267615
30
0
41
1
10
42.1075158583463
20
-0.294187994279184
30
0
41
1
10
42.3018342350546
20
-0.399318664655766
30
0
41
1
10
42.6899450571148
20
-0.606407915056764
30
0
41
1
10
42.8837078255629
20
-0.708386217791087
30
0
41
1
10
43.2730289471616
20
-0.904972824262586
30
1E-16
41
1
10
43.4686552296057
20
-0.999494686573854
30
1E-16
41
1
10
43.8618282835034
20
-1.18089241754211
30
1E-16
41
1
10
44.057419047081
20
-1.26685576686836
30
1E-16
41
1
10
44.4470492234804
20
-1.42503065846139
30
1E-16
41
1
10
44.6414819898261
20
-1.49740760695013
30
1E-16
41
1
10
45.2237255620981
20
-1.69472171011401
30
1E-16
41
1
10
45.6104088818275
20
-1.79943091537299
30
0
41
1
10
46.1980613283767
20
-1.90624426987222
30
0
41
1
10
46.3955196750132
20
-1.93354791791182
30
0
41
1
10
46.7861972535515
20
-1.97051349627992
30
0
41
1
10
46.9802135026917
20
-1.98022619748011
30
0
41
1
10
47.1840729556733
20
-1.98117659756338
30
0
41
1
10
47.1937806063621
20
-1.98120022777061
30
0
41
1
10
47.2034881784946
20
-1.98120222531986
30
0
0
SPLINE
5
D5
100
AcDbEntity
8
1
62
256
6
ByLayer
370
18
48
1
60
0
100
AcDbSpline
70
4
71
3
72
10
73
6
40
0
40
0
40
0
40
0
40
0.5
40
0.5
40
1
40
1
40
1
40
1
41
1
10
53.2213068030657
20
0.277358372107358
30
0
41
1
10
53.1854342146706
20
0.270334411519201
30
0
41
1
10
53.1499158817873
20
0.256753795634779
30
0
41
1
10
53.0801939666465
20
0.223552142790823
30
0
41
1
10
53.0461383415673
20
0.202014251372731
30
0
41
1
10
53.01395886184
20
0.17530510104757
30
0
0
SPLINE
5
D6
100
AcDbEntity
8
1
62
256
6
ByLayer
370
18
48
1
60
0
100
AcDbSpline
70
4
71
3
72
16
73
12
40
0
40
0
40
0
40
0
40
0.250000000000002
40
0.250000000000002
40
0.374999999999998
40
0.374999999999998
40
0.499999999999994
40
0.499999999999994
40
0.749999999999997
40
0.749999999999997
40
1
40
1
40
1
40
1
41
1
10
53.3215627053175
20
-1.88026693752755
30
0
41
1
10
53.359336419756
20
-1.77416110924474
30
0
41
1
10
53.3969440509017
20
-1.66739476321968
30
0
41
1
10
53.4537611883741
20
-1.50694945978256
30
0
41
1
10
53.4727628577643
20
-1.45342901496878
30
0
41
1
10
53.51094132357
20
-1.34639772777365
30
0
41
1
10
53.5299670905079
20
-1.29285703388203
30
0
41
1
10
53.5893043290632
20
-1.13288311206472
30
0
41
1
10
53.630915612806
20
-1.02915659688747
30
0
41
1
10
53.721217304544
20
-0.829949963397155
30
0
41
1
10
53.7705183200178
20
-0.733330700104801
30
0
41
1
10
53.8225098733335
20
-0.644436863641602
30
0
0
SPLINE
5
D7
100
AcDbEntity
8
1
62
256
6
ByLayer
370
18
48
1
60
0
100
AcDbSpline
70
4
71
3
72
8
73
4
40
0
40
0
40
0
40
0
40
1
40
1
40
1
40
1
41
1
10
53.1582871416197
20
1.9581610690816
30
0
41
1
10
53.1999554329091
20
1.9346808343158
30
0
41
1
10
53.2417480283253
20
1.91054554922883
30
0
41
1
10
53.283696386103
20
1.88577735758673
30
0
0
SPLINE
5
D8
100
AcDbEntity
8
1
62
256
6
ByLayer
370
18
48
1
60
0
100
AcDbSpline
70
4
71
3
72
8
73
4
40
0
40
0
40
0
40
0
40
1
40
1
40
1
40
1
41
1
10
53.3157114648455
20
1.88423529656967
30
0
41
1
10
53.3176618078033
20
1.88291285074709
30
0
41
1
10
53.3196122211303
20
1.88159006419809
30
0
41
1
10
53.3215627053176
20
1.88026693752761
30
0
0
SPLINE
5
D9
100
AcDbEntity
8
1
62
256
6
ByLayer
370
18
48
1
60
0
100
AcDbSpline
70
4
71
3
72
8
73
4
40
0
40
0
40
0
40
0
40
1
40
1
40
1
40
1
41
1
10
34.15
20
1.11512302495464
30
-1E-16
41
1
10
34.15
20
1.10659108038047
30
-1E-16
41
1
10
34.15
20
1.09745391371544
30
-1E-16
41
1
10
34.15
20
1.08771276362671
30
-1E-16
0
SPLINE
5
DA
100
AcDbEntity
8
1
62
256
6
ByLayer
370
18
48
1
60
0
100
AcDbSpline
70
4
71
3
72
8
73
4
40
0
40
0
40
0
40
0
40
1
40
1
40
1
40
1
41
1
10
53.8225098733336
20
0.644436863641772
30
0
41
1
10
53.882221607734
20
0.477139635012151
30
0
41
1
10
53.9404290931054
20
0.309302229779974
30
0
41
1
10
53.9971107669914
20
0.140916904856084
30
0
0
SPLINE
5
DB
100
AcDbEntity
8
1
62
256
6
ByLayer
370
18
48
1
60
0
100
AcDbSpline
70
4
71
3
72
42
73
38
40
0
40
0
40
0
40
0
40
0.031249999999998
40
0.031249999999998
40
0.0624999999999959
40
0.0624999999999959
40
0.12499999999999
40
0.12499999999999
40
0.156249999999988
40
0.156249999999988
40
0.187499999999985
40
0.187499999999985
40
0.249999999999987
40
0.249999999999987
40
0.312499999999989
40
0.312499999999989
40
0.374999999999991
40
0.374999999999991
40
0.437499999999993
40
0.437499999999993
40
0.499999999999995
40
0.499999999999995
40
0.562499999999996
40
0.562499999999996
40
0.624999999999998
40
0.624999999999998
40
0.6875
40
0.6875
40
0.71875
40
0.71875
40
0.75
40
0.75
40
0.8125
40
0.8125
40
0.875
40
0.875
40
1
40
1
40
1
40
1
41
1
10
53.6633426954461
20
-0.371427176256759
30
0
41
1
10
53.6663783910109
20
-0.385291384010969
30
0
41
1
10
53.6684391908906
20
-0.400419490582209
30
0
41
1
10
53.6704265894246
20
-0.433474410490334
30
0
41
1
10
53.6703164691107
20
-0.451502487412682
30
0
41
1
10
53.6666023943547
20
-0.507436534571013
30
0
41
1
10
53.6594069041718
20
-0.548977623643793
30
0
41
1
10
53.6434111533452
20
-0.610677990856203
30
0
41
1
10
53.6371404188016
20
-0.631520936383708
30
0
41
1
10
53.623543320431
20
-0.671782629460978
30
0
41
1
10
53.6162029979829
20
-0.691320489042766
30
0
41
1
10
53.5928208044073
20
-0.748313705322118
30
0
41
1
10
53.5760075748397
20
-0.782759030267414
30
0
41
1
10
53.5421712767435
20
-0.842806024180959
30
0
41
1
10
53.5253049078926
20
-0.86809561754157
30
0
41
1
10
53.4931128384243
20
-0.907842952366224
30
-1E-16
41
1
10
53.4779436333691
20
-0.922196443100688
30
-1E-16
41
1
10
53.4492079835579
20
-0.939534225982356
30
-1E-16
41
1
10
53.4362450946468
20
-0.942173903734897
30
-1E-16
41
1
10
53.4123919735353
20
-0.93511906026805
30
-1E-16
41
1
10
53.401871621068
20
-0.92540357547503
30
-1E-16
41
1
10
53.383675932128
20
-0.893666262495458
30
1E-16
41
1
10
53.3760080520698
20
-0.871491109630824
30
1E-16
41
1
10
53.3644138752564
20
-0.816591241671517
30
1E-16
41
1
10
53.3603733056251
20
-0.783172508092235
30
0
41
1
10
53.35723620574
20
-0.709389520107209
30
0
41
1
10
53.3581314085179
20
-0.667962775025131
30
0
41
1
10
53.3641697541262
20
-0.605080820222867
30
0
41
1
10
53.3670196060419
20
-0.583500795108421
30
0
41
1
10
53.3742629675369
20
-0.541590534373938
30
0
41
1
10
53.3786507525048
20
-0.521113124796273
30
0
41
1
10
53.3943144993045
20
-0.461149647580697
30
0
41
1
10
53.4078246214873
20
-0.424645452238366
30
0
41
1
10
53.4388189153883
20
-0.362939453788414
30
0
41
1
10
53.4562006989519
20
-0.337788030243871
30
0
41
1
10
53.5100184617291
20
-0.280287213412578
30
0
41
1
10
53.5484379794878
20
-0.265031057875603
30
0
41
1
10
53.5817413392548
20
-0.270995887348278
30
0
0
SPLINE
5
DC
100
AcDbEntity
8
1
62
256
6
ByLayer
370
18
48
1
60
0
100
AcDbSpline
70
4
71
3
72
74
73
70
40
0
40
0
40
0
40
0
40
0.0220055891983582
40
0.0220055891983582
40
0.0466202392061188
40
0.0466202392061188
40
0.0958495392216378
40
0.0958495392216378
40
0.145078839237157
40
0.145078839237157
40
0.169693489244918
40
0.169693489244918
40
0.194308139252678
40
0.194308139252678
40
0.218922789260439
40
0.218922789260439
40
0.243537439268199
40
0.243537439268199
40
0.292766739283723
40
0.292766739283723
40
0.317381389291485
40
0.317381389291485
40
0.341996039299246
40
0.341996039299246
40
0.366610689307008
40
0.366610689307008
40
0.39122533931477
40
0.39122533931477
40
0.415839989322532
40
0.415839989322532
40
0.440454639330293
40
0.440454639330293
40
0.465069289338055
40
0.465069289338055
40
0.489683939345817
40
0.489683939345817
40
0.514298589353579
40
0.514298589353579
40
0.53891323936134
40
0.53891323936134
40
0.588142539376864
40
0.588142539376864
40
0.612757189384626
40
0.612757189384626
40
0.637371839392387
40
0.637371839392387
40
0.661986489400149
40
0.661986489400149
40
0.686601139407911
40
0.686601139407911
40
0.711215789415673
40
0.711215789415673
40
0.735830439423435
40
0.735830439423435
40
0.78505973943896
40
0.78505973943896
40
0.834289039454486
40
0.834289039454486
40
0.858903689462248
40
0.858903689462248
40
0.88351833947001
40
0.88351833947001
40
0.908132989477772
40
0.908132989477772
40
0.932747639485534
40
0.932747639485534
40
0.981976939501059
40
0.981976939501059
40
1
40
1
40
1
40
1
41
1
10
50.8537526452193
20
-1.26589454573036
30
1E-16
41
1
10
50.7476925527779
20
-1.31093648794217
30
1E-16
41
1
10
50.6418457024739
20
-1.35406143342894
30
1E-16
41
1
10
50.4185951745442
20
-1.44214311773129
30
1E-16
41
1
10
50.3010872318167
20
-1.48637622728151
30
1E-16
41
1
10
49.9485363269361
20
-1.61095981365477
30
1E-16
41
1
10
49.7134379431919
20
-1.68334144936384
30
1E-16
41
1
10
49.2436580228451
20
-1.80717162075658
30
0
41
1
10
49.0078277247273
20
-1.85751155735392
30
0
41
1
10
48.6515977639987
20
-1.91475750748271
30
0
41
1
10
48.5325227749619
20
-1.93096424644679
30
0
41
1
10
48.2953530328359
20
-1.95656817350141
30
0
41
1
10
48.1771032436382
20
-1.96607075270472
30
0
41
1
10
47.9409422203318
20
-1.97860486548987
30
0
41
1
10
47.8229942119811
20
-1.98166060004022
30
0
41
1
10
47.5880589001846
20
-1.98136938588061
30
0
41
1
10
47.4707716244616
20
-1.9779839299176
30
0
41
1
10
47.1185712680838
20
-1.95829280078451
30
0
41
1
10
46.8832942262715
20
-1.93263653867285
30
0
41
1
10
46.5298504728136
20
-1.87491490477385
30
0
41
1
10
46.4117271833151
20
-1.85254928425727
30
0
41
1
10
46.1744850535616
20
-1.8017914604458
30
0
41
1
10
46.0550059932391
20
-1.77336879617144
30
0
41
1
10
45.8173230715416
20
-1.71081915657913
30
0
41
1
10
45.6992204257928
20
-1.67647634369453
30
1E-16
41
1
10
45.4632444583985
20
-1.60291978319162
30
1E-16
41
1
10
45.3454589306463
20
-1.56363484572231
30
1E-16
41
1
10
45.1100010820839
20
-1.48050062969557
30
1E-16
41
1
10
44.9923288827023
20
-1.43666914878224
30
1E-16
41
1
10
44.757678943672
20
-1.34368511404509
30
1E-16
41
1
10
44.6403702325887
20
-1.29494530594232
30
1E-16
41
1
10
44.4053201590497
20
-1.19364289206305
30
1E-16
41
1
10
44.2875632909849
20
-1.14111098136004
30
1E-16
41
1
10
44.0515232679974
20
-1.03239562529228
30
1E-16
41
1
10
43.9334804769079
20
-0.975822963485257
30
1E-16
41
1
10
43.6966659072388
20
-0.859197929454893
30
1E-16
41
1
10
43.5775130142052
20
-0.799113667474415
30
0
41
1
10
43.3396274412003
20
-0.677210870712287
30
0
41
1
10
43.2209532153531
20
-0.615581498417669
30
0
41
1
10
42.8664247591857
20
-0.427419358178383
30
0
41
1
10
42.6318061108594
20
-0.298069256369871
30
0
41
1
10
42.2790326235346
20
-0.104517720208094
30
0
41
1
10
42.1614422472316
20
-0.039821816912962
30
0
41
1
10
41.926639334753
20
0.0906301182037907
30
0
41
1
10
41.8091123711254
20
0.155805392935719
30
0
41
1
10
41.5734043911034
20
0.28530519946483
30
0
41
1
10
41.4551966294441
20
0.349579265500069
30
0
41
1
10
41.218054390742
20
0.477141170915587
30
0
41
1
10
41.099168102868
20
0.541062008521777
30
0
41
1
10
40.8613198189783
20
0.666667800541745
30
0
41
1
10
40.7427930518305
20
0.728096684644612
30
0
41
1
10
40.5061557898974
20
0.847666534713085
30
-1E-16
41
1
10
40.3879743198166
20
0.905702882023633
30
-1E-16
41
1
10
40.0348178655618
20
1.07623949110322
30
-1E-16
41
1
10
39.8004211064737
20
1.18370934085775
30
-1E-16
41
1
10
39.3297753127783
20
1.38052001453156
30
-1E-16
41
1
10
39.0947675230107
20
1.47160001953597
30
-1E-16
41
1
10
38.7395586745535
20
1.59276227776036
30
-1E-16
41
1
10
38.6206108549482
20
1.63058603778029
30
-1E-16
41
1
10
38.3820808192883
20
1.70098963761313
30
-1E-16
41
1
10
38.2636042514832
20
1.73360346768362
30
0
41
1
10
38.0271046209681
20
1.79259376158356
30
0
41
1
10
37.9091211606601
20
1.81903012254341
30
0
41
1
10
37.6733331660744
20
1.86570211664332
30
0
41
1
10
37.5554668367988
20
1.88592828404941
30
0
41
1
10
37.2030606905048
20
1.93786433603009
30
0
41
1
10
36.9684800457761
20
1.96003033723213
30
0
41
1
10
36.6462832358388
20
1.97278206428197
30
0
41
1
10
36.5599272580632
20
1.97449104075847
30
0
41
1
10
36.4734483525324
20
1.97447065515374
30
0
0
SPLINE
5
DD
100
AcDbEntity
8
1
62
256
6
ByLayer
370
18
48
1
60
0
100
AcDbSpline
70
4
71
3
72
76
73
72
40
0
40
0
40
0
40
0
40
0.0315990957872742
40
0.0315990957872742
40
0.0569991253348986
40
0.0569991253348986
40
0.0823991548825234
40
0.0823991548825234
40
0.133199213977772
40
0.133199213977772
40
0.158599243525397
40
0.158599243525397
40
0.183999273073022
40
0.183999273073022
40
0.234799332168271
40
0.234799332168271
40
0.260199361715895
40
0.260199361715895
40
0.285599391263519
40
0.285599391263519
40
0.310999420811143
40
0.310999420811143
40
0.336399450358767
40
0.336399450358767
40
0.387199509454014
40
0.387199509454014
40
0.412599539001639
40
0.412599539001639
40
0.437999568549264
40
0.437999568549264
40
0.463399598096889
40
0.463399598096889
40
0.488799627644513
40
0.488799627644513
40
0.514199657192138
40
0.514199657192138
40
0.539599686739763
40
0.539599686739763
40
0.59039974583501
40
0.59039974583501
40
0.615799775382634
40
0.615799775382634
40
0.641199804930257
40
0.641199804930257
40
0.66659983447788
40
0.66659983447788
40
0.691999864025503
40
0.691999864025503
40
0.717399893573126
40
0.717399893573126
40
0.742799923120749
40
0.742799923120749
40
0.768199952668373
40
0.768199952668373
40
0.793599982215996
40
0.793599982215996
40
0.844400041311243
40
0.844400041311243
40
0.869800070858865
40
0.869800070858865
40
0.895200100406488
40
0.895200100406488
40
0.920600129954111
40
0.920600129954111
40
0.946000159501734
40
0.946000159501734
40
0.971400189049357
40
0.971400189049357
40
0.996800218596979
40
0.996800218596979
40
1
40
1
40
1
40
1
41
1
10
27.9562529335454
20
-1.42484305948196
30
1E-16
41
1
10
27.8092106356566
20
-1.4808058260748
30
1E-16
41
1
10
27.6627297168686
20
-1.53309934916587
30
1E-16
41
1
10
27.3983514923424
20
-1.61943956365553
30
1E-16
41
1
10
27.2804935576893
20
-1.65513357853885
30
1E-16
41
1
10
27.0453976803514
20
-1.72165654333378
30
0
41
1
10
26.9280150019986
20
-1.75230508839601
30
0
41
1
10
26.5750140160814
20
-1.83520586148376
30
0
41
1
10
26.3385454964916
20
-1.87863370006306
30
0
41
1
10
25.9826588163362
20
-1.92579623740357
30
0
41
1
10
25.8632794014964
20
-1.9383809930986
30
0
41
1
10
25.6253413347428
20
-1.95690133949699
30
0
41
1
10
25.5066563133181
20
-1.9628749593831
30
0
41
1
10
25.1516053864802
20
-1.97122171691976
30
0
41
1
10
24.9168967511331
20
-1.96381873116044
30
0
41
1
10
24.5637553421334
20
-1.9339570994442
30
0
41
1
10
24.4459031933948
20
-1.92094658675015
30
0
41
1
10
24.2106724682576
20
-1.88842128223217
30
0
41
1
10
24.0930235855371
20
-1.86898874315534
30
0
41
1
10
23.8569798469608
20
-1.82413898012683
30
0
41
1
10
23.7386040242624
20
-1.79872630354484
30
0
41
1
10
23.5010147276961
20
-1.7420148881998
30
0
41
1
10
23.3816937203116
20
-1.71046274615807
30
0
41
1
10
23.0247659526943
20
-1.60723465559332
30
1E-16
41
1
10
22.7881219634826
20
-1.52825700610722
30
1E-16
41
1
10
22.4342734166222
20
-1.39615030580808
30
1E-16
41
1
10
22.3168286440328
20
-1.34940446795659
30
1E-16
41
1
10
22.0816733590432
20
-1.25216196094416
30
1E-16
41
1
10
21.9640522295173
20
-1.20156003221112
30
1E-16
41
1
10
21.7284316264669
20
-1.09687850814296
30
1E-16
41
1
10
21.6104183283337
20
-1.04283837604763
30
1E-16
41
1
10
21.374632322566
20
-0.930232882036336
30
1E-16
41
1
10
21.2565265902106
20
-0.87218658646475
30
1E-16
41
1
10
21.0193778920658
20
-0.753448681398282
30
0
41
1
10
20.9001529594585
20
-0.692693417369554
30
0
41
1
10
20.6614271974301
20
-0.569085954933598
30
0
41
1
10
20.5427389309529
20
-0.506080504205016
30
0
41
1
10
20.1877147687814
20
-0.315297106609449
30
0
41
1
10
19.9517507477162
20
-0.186998231784372
30
0
41
1
10
19.5985839698701
20
0.0065688967734729
30
0
41
1
10
19.4812086113876
20
0.0716806627039261
30
0
41
1
10
19.2459427088447
20
0.200834002338439
30
0
41
1
10
19.1281432956754
20
0.265045390692393
30
0
41
1
10
18.8919632417719
20
0.392277743532816
30
0
41
1
10
18.7736268773445
20
0.455381194239919
30
0
41
1
10
18.5368626873315
20
0.581302034561077
30
0
41
1
10
18.4181114185059
20
0.643520193820194
30
0
41
1
10
18.1794581302149
20
0.765708249385426
30
0
41
1
10
18.0603602822558
20
0.825203760803646
30
-1E-16
41
1
10
17.8229702606394
20
0.940908777746046
30
-1E-16
41
1
10
17.7049050460359
20
0.997624433307806
30
-1E-16
41
1
10
17.4690823652274
20
1.10717960310734
30
-1E-16
41
1
10
17.3513182878387
20
1.16002144642528
30
-1E-16
41
1
10
17.1157208718541
20
1.26137478030441
30
-1E-16
41
1
10
16.9978159562635
20
1.3098020387404
30
-1E-16
41
1
10
16.6447953630342
20
1.44971361243967
30
-1E-16
41
1
10
16.4095507627222
20
1.5345646328179
30
-1E-16
41
1
10
16.0538767696544
20
1.6455222019695
30
-1E-16
41
1
10
15.9350493855906
20
1.68003340502062
30
-1E-16
41
1
10
15.6968950671322
20
1.74396110861807
30
0
41
1
10
15.5776601923719
20
1.77302342334264
30
0
41
1
10
15.3402321279215
20
1.82473540459514
30
0
41
1
10
15.2217430923829
20
1.84744553020713
30
0
41
1
10
14.9852941883659
20
1.88678539829718
30
0
41
1
10
14.8676327414708
20
1.90354811700465
30
0
41
1
10
14.6322557917743
20
1.93062461012377
30
0
41
1
10
14.5145926260355
20
1.94098525920433
30
0
41
1
10
14.2789814059367
20
1.95536233453345
30
0
41
1
10
14.1609744426366
20
1.95939969694874
30
0
41
1
10
14.0283033451928
20
1.9603788773401
30
0
41
1
10
14.013457569197
20
1.9604372267998
30
0
41
1
10
13.9986090209238
20
1.96044440293119
30
0
0
SPLINE
5
DE
100
AcDbEntity
8
1
62
256
6
ByLayer
370
18
48
1
60
0
100
AcDbSpline
70
4
71
3
72
8
73
4
40
0
40
0
40
0
40
0
40
1
40
1
40
1
40
1
41
1
10
53.9971107669914
20
0.140916904856112
30
0
41
1
10
54.0009756934301
20
0.046664646593598
30
0
41
1
10
54.0009505439983
20
-0.047277954699382
30
0
41
1
10
53.9971107669921
20
-0.140916904841589
30
0
0
SPLINE
5
DF
100
AcDbEntity
8
1
62
256
6
ByLayer
370
18
48
1
60
0
100
AcDbSpline
70
4
71
3
72
16
73
12
40
0
40
0
40
0
40
0
40
0.35452139300487
40
0.35452139300487
40
0.709042786009739
40
0.709042786009739
40
0.886303482512174
40
0.886303482512174
40
0.974933830763392
40
0.974933830763392
40
1
40
1
40
1
40
1
41
1
10
53.2213068030655
20
0.277358372107443
30
0
41
1
10
53.1988230693011
20
0.296501122531026
30
0
41
1
10
53.1779945406902
20
0.313356722554744
30
0
41
1
10
53.138770130381
20
0.343706508854353
30
0
41
1
10
53.1195732546259
20
0.358349238145024
30
0
41
1
10
53.0970944665064
20
0.372455784167016
30
0
41
1
10
53.0906832157481
20
0.375814444311544
30
0
41
1
10
53.0833389830651
20
0.378325466678632
30
0
41
1
10
53.0813263676502
20
0.37866748518843
30
0
41
1
10
53.0785789013933
20
0.379294525218057
30
0
41
1
10
53.0779517134732
20
0.379457166511059
30
0
41
1
10
53.0773209430116
20
0.379623880071875
30
0
0
SPLINE
5
E0
100
AcDbEntity
8
1
62
256
6
ByLayer
370
18
48
1
60
0
100
AcDbSpline
70
4
71
3
72
12
73
8
40
0
40
0
40
0
40
0
40
0.108973893206114
40
0.108973893206114
40
0.590197587875084
40
0.590197587875084
40
1
40
1
40
1
40
1
41
1
10
34.2528839740446
20
-1.77006508836294
30
0
41
1
10
34.2528799212822
20
-1.77763396976886
30
0
41
1
10
34.2528757810388
20
-1.78479047751841
30
0
41
1
10
34.2528529476926
20
-1.82126665831143
30
0
41
1
10
34.252832857711
20
-1.84296763611451
30
0
41
1
10
34.2527934847856
20
-1.86851221497832
30
0
41
1
10
34.252774452709
20
-1.87438443776472
30
0
41
1
10
34.2527547109944
20
-1.87434008935503
30
0
0
SPLINE
5
E1
100
AcDbEntity
8
1
62
256
6
ByLayer
370
18
48
1
60
0
100
AcDbSpline
70
4
71
3
72
12
73
8
40
0
40
0
40
0
40
0
40
0.622502452960063
40
0.622502452960063
40
0.904217830921388
40
0.904217830921388
40
1
40
1
40
1
40
1
41
1
10
53.1654184522208
20
-1.98444998011027
30
0
41
1
10
53.190167632392
20
-1.96830192181972
30
0
41
1
10
53.2149766459792
20
-1.95193199688777
30
0
41
1
10
53.2510415715272
20
-1.92788531710571
30
0
41
1
10
53.2622772060852
20
-1.92035847414186
30
0
41
1
10
53.2773741306796
20
-1.91019805691621
30
0
41
1
10
53.2812084104857
20
-1.9076135281606
30
0
41
1
10
53.285047586771
20
-1.90502181764995
30
0
0
SPLINE
5
E2
100
AcDbEntity
8
1
62
256
6
ByLayer
370
18
48
1
60
0
100
AcDbSpline
70
4
71
3
72
18
73
14
40
0
40
0
40
0
40
0
40
0.111265646288553
40
0.111265646288553
40
0.222531292577106
40
0.222531292577106
40
0.33379693886566
40
0.33379693886566
40
0.445062585154214
40
0.445062585154214
40
0.890125170308421
40
0.890125170308421
40
1
40
1
40
1
40
1
41
1
10
53.2857244785668
20
-1.8800616183637
30
0
41
1
10
53.0870740705379
20
-1.8662978607573
30
0
41
1
10
52.8892510897384
20
-1.84445098387368
30
0
41
1
10
52.4942363801617
20
-1.78351329156203
30
0
41
1
10
52.2970065472516
20
-1.7447055989326
30
0
41
1
10
51.9020807431119
20
-1.65159331161905
30
0
41
1
10
51.7043944595133
20
-1.59731035507039
30
1E-16
41
1
10
51.3072567225619
20
-1.47405525367037
30
1E-16
41
1
10
51.1070936931129
20
-1.40475664571659
30
1E-16
41
1
10
50.1142765639971
20
-1.03000263422274
30
1E-16
41
1
10
49.3363368002333
20
-0.638661331356019
30
0
41
1
10
48.3414632777513
20
-0.116257230131367
30
0
41
1
10
48.1445847712549
20
-0.0118741541512009
30
0
41
1
10
47.9481167527461
20
0.0919262492087114
30
0
0
SPLINE
5
E3
100
AcDbEntity
8
1
62
256
6
ByLayer
370
18
48
1
60
0
100
AcDbSpline
70
4
71
3
72
10
73
6
40
0
40
0
40
0
40
0
40
0.53265071774518
40
0.53265071774518
40
1
40
1
40
1
40
1
41
1
10
42.7946642876119
20
1.88284919305087
30
0
41
1
10
42.7236145678838
20
1.88590424510264
30
0
41
1
10
42.6525812468578
20
1.88784799770312
30
0
41
1
10
42.5192213776909
20
1.88940496844376
30
0
41
1
10
42.4568804803852
20
1.88927505922325
30
0
41
1
10
42.3945059583135
20
1.88828886178877
30
0
0
SPLINE
5
E4
100
AcDbEntity
8
1
62
256
6
ByLayer
370
18
48
1
60
0
100
AcDbSpline
70
4
71
3
72
8
73
4
40
0
40
0
40
0
40
0
40
1
40
1
40
1
40
1
41
1
10
53.0195726458381
20
-0.10629409321723
30
0
41
1
10
53.0342375909413
20
-0.112832746069671
30
0
41
1
10
53.048831876924
20
-0.118954944073351
30
0
41
1
10
53.0633652918177
20
-0.124668305797854
30
0
0
SPLINE
5
E5
100
AcDbEntity
8
1
62
256
6
ByLayer
370
18
48
1
60
0
100
AcDbSpline
70
4
71
3
72
10
73
6
40
0
40
0
40
0
40
0
40
0.5
40
0.5
40
1
40
1
40
1
40
1
41
1
10
53.5758238445142
20
-0.281020552688858
30
0
41
1
10
53.5786226358068
20
-0.290072024228465
30
0
41
1
10
53.59141200148
20
-0.304456293142579
30
0
41
1
10
53.6232216262291
20
-0.335950266141737
30
0
41
1
10
53.6426256442934
20
-0.3533702920449
30
0
41
1
10
53.6633426954466
20
-0.371427176256702
30
0
0
SPLINE
5
E6
100
AcDbEntity
8
1
62
256
6
ByLayer
370
18
48
1
60
0
100
AcDbSpline
70
4
71
3
72
28
73
24
40
0
40
0
40
0
40
0
40
0.133386682714858
40
0.133386682714858
40
0.266773365429717
40
0.266773365429717
40
0.333466706787146
40
0.333466706787146
40
0.400160048144575
40
0.400160048144575
40
0.466853389502004
40
0.466853389502004
40
0.533546730859433
40
0.533546730859433
40
0.666933413574286
40
0.666933413574286
40
0.800320096289138
40
0.800320096289138
40
0.867013437646565
40
0.867013437646565
40
0.933706779003991
40
0.933706779003991
40
1
40
1
40
1
40
1
41
1
10
53.0139588618305
20
0.175305101039783
30
0
41
1
10
52.7782734965474
20
0.305789520092731
30
0
41
1
10
52.5429581652203
20
0.433360090866785
30
0
41
1
10
52.0738418697324
20
0.684127713442535
30
0
41
1
10
51.8389024710742
20
0.805272942418156
30
0
41
1
10
51.4846247351429
20
0.978446278578474
30
-1E-16
41
1
10
51.366571710703
20
1.03532181779789
30
-1E-16
41
1
10
51.1294248694789
20
1.14547610434931
30
-1E-16
41
1
10
51.0101732953784
20
1.19889555893491
30
-1E-16
41
1
10
50.7727982969706
20
1.30068862242965
30
-1E-16
41
1
10
50.6543397225179
20
1.34913201919915
30
-1E-16
41
1
10
50.4185951745442
20
1.44214311773132
30
-1E-16
41
1
10
50.3010872318166
20
1.48637622728151
30
-1E-16
41
1
10
49.948536326936
20
1.6109598136548
30
-1E-16
41
1
10
49.7134379431918
20
1.68334144936384
30
-1E-16
41
1
10
49.2436580228451
20
1.80717162075658
30
0
41
1
10
49.0078277247273
20
1.85751155735389
30
0
41
1
10
48.6515977639988
20
1.91475750748273
30
0
41
1
10
48.5325227749618
20
1.93096424644679
30
0
41
1
10
48.2953530328358
20
1.95656817350141
30
0
41
1
10
48.1771032436381
20
1.96607075270472
30
0
41
1
10
47.9416506331364
20
1.97856726688082
30
0
41
1
10
47.8244094524775
20
1.98162381927767
30
0
41
1
10
47.7076408159797
20
1.98151726794947
30
0
0
SPLINE
5
E7
100
AcDbEntity
8
1
62
256
6
ByLayer
370
18
48
1
60
0
100
AcDbSpline
70
4
71
3
72
72
73
68
40
0
40
0
40
0
40
0
40
0.0049704476054928
40
0.0049704476054928
40
0.0541807827787472
40
0.0541807827787472
40
0.0787859503653755
40
0.0787859503653755
40
0.103391117952004
40
0.103391117952004
40
0.127996285538632
40
0.127996285538632
40
0.15260145312526
40
0.15260145312526
40
0.201811788298515
40
0.201811788298515
40
0.251022123471769
40
0.251022123471769
40
0.275627291058398
40
0.275627291058398
40
0.300232458645026
40
0.300232458645026
40
0.324837626231654
40
0.324837626231654
40
0.349442793818283
40
0.349442793818283
40
0.398653128991541
40
0.398653128991541
40
0.423258296578171
40
0.423258296578171
40
0.4478634641648
40
0.4478634641648
40
0.472468631751429
40
0.472468631751429
40
0.497073799338059
40
0.497073799338059
40
0.546284134511317
40
0.546284134511317
40
0.595494469684576
40
0.595494469684576
40
0.620099637271206
40
0.620099637271206
40
0.644704804857835
40
0.644704804857835
40
0.669309972444464
40
0.669309972444464
40
0.693915140031094
40
0.693915140031094
40
0.743125475204352
40
0.743125475204352
40
0.767730642790981
40
0.767730642790981
40
0.792335810377609
40
0.792335810377609
40
0.841546145550866
40
0.841546145550866
40
0.866151313137494
40
0.866151313137494
40
0.890756480724122
40
0.890756480724122
40
0.939966815897379
40
0.939966815897379
40
0.964571983484008
40
0.964571983484008
40
0.989177151070637
40
0.989177151070637
40
1
40
1
40
1
40
1
41
1
10
39.6363776523488
20
-1.25202214407722
30
1E-16
41
1
10
39.6126259351693
20
-1.26214351009091
30
1E-16
41
1
10
39.5888667965506
20
-1.27217533123164
30
1E-16
41
1
10
39.3297753127783
20
-1.38052001453158
30
1E-16
41
1
10
39.0947675230107
20
-1.47160001953597
30
1E-16
41
1
10
38.7395586745533
20
-1.59276227776039
30
1E-16
41
1
10
38.6206108549482
20
-1.63058603778032
30
1E-16
41
1
10
38.3820808192883
20
-1.70098963761313
30
1E-16
41
1
10
38.2636042514831
20
-1.73360346768362
30
0
41
1
10
38.0271046209681
20
-1.79259376158356
30
0
41
1
10
37.9091211606601
20
-1.81903012254341
30
0
41
1
10
37.6733331660744
20
-1.86570211664335
30
0
41
1
10
37.5554668367987
20
-1.88592828404944
30
0
41
1
10
37.2030606905048
20
-1.93786433603012
30
0
41
1
10
36.9684800457761
20
-1.96003033723216
30
0
41
1
10
36.4967784341415
20
-1.97869908259213
30
0
41
1
10
36.2608532160453
20
-1.9752874473761
30
0
41
1
10
35.9034009132828
20
-1.95040952387845
30
0
41
1
10
35.7842869933103
20
-1.93891861438948
30
0
41
1
10
35.5471937182567
20
-1.9097142599035
30
0
41
1
10
35.4293308227266
20
-1.89183903225069
30
0
41
1
10
35.1937285658182
20
-1.85017647832217
30
0
41
1
10
35.0760660090839
20
-1.82636973096146
30
0
41
1
10
34.8407025805078
20
-1.77315374304999
30
0
41
1
10
34.7229667059667
20
-1.74379830219988
30
0
41
1
10
34.3706577663507
20
-1.64645694926898
30
1E-16
41
1
10
34.1355112895523
20
-1.5704127129795
30
1E-16
41
1
10
33.7803467422836
20
-1.44187770433317
30
1E-16
41
1
10
33.6618189807483
20
-1.39628974352161
30
1E-16
41
1
10
33.423995888892
20
-1.30004222619684
30
1E-16
41
1
10
33.3048371711767
20
-1.24965015929746
30
1E-16
41
1
10
33.0676125695341
20
-1.14581049596282
30
1E-16
41
1
10
32.9492078066652
20
-1.09234156569045
30
1E-16
41
1
10
32.7131493134452
20
-0.981820501997504
30
1E-16
41
1
10
32.5956679618452
20
-0.924473838007742
30
1E-16
41
1
10
32.2429886257657
20
-0.74923937926323
30
0
41
1
10
32.0074966411048
20
-0.628373885352545
30
0
41
1
10
31.536992516822
20
-0.37636426299548
30
0
41
1
10
31.3008667360836
20
-0.247151413815999
30
0
41
1
10
30.9436848736397
20
-0.0516224057545855
30
0
41
1
10
30.8244045350467
20
0.0144541722168015
30
0
41
1
10
30.5872479908751
20
0.145526353589474
30
0
41
1
10
30.4690006517374
20
0.210594885236048
30
0
41
1
10
30.2327863620799
20
0.339139084866702
30
0
41
1
10
30.1147529241189
20
0.402499550697513
30
0
41
1
10
29.8793670443018
20
0.528389898624198
30
0
41
1
10
29.7620452130374
20
0.590958592716277
30
0
41
1
10
29.4094992698038
20
0.774512421261818
30
0
41
1
10
29.1736975228953
20
0.891446707537995
30
-1E-16
41
1
10
28.8196354682815
20
1.05991470720042
30
-1E-16
41
1
10
28.7013018907529
20
1.11448555431571
30
-1E-16
41
1
10
28.4636075768518
20
1.21980381804931
30
-1E-16
41
1
10
28.344003208074
20
1.27058972106136
30
-1E-16
41
1
10
27.9871955106803
20
1.41561917900643
30
-1E-16
41
1
10
27.7517892692517
20
1.50401442407835
30
-1E-16
41
1
10
27.3983514923424
20
1.61943956365556
30
-1E-16
41
1
10
27.2804935576892
20
1.65513357853885
30
-1E-16
41
1
10
27.0453976803513
20
1.72165654333378
30
0
41
1
10
26.9280150019986
20
1.75230508839601
30
0
41
1
10
26.5750140160814
20
1.83520586148379
30
0
41
1
10
26.3385454964916
20
1.87863370006306
30
0
41
1
10
25.9826588163362
20
1.92579623740357
30
0
41
1
10
25.8632794014964
20
1.9383809930986
30
0
41
1
10
25.6253413347427
20
1.95690133949699
30
0
41
1
10
25.5066563133181
20
1.9628749593831
30
0
41
1
10
25.3362483416898
20
1.96688101573721
30
0
41
1
10
25.284287029974
20
1.96747759005208
30
0
41
1
10
25.2323932303812
20
1.96745185723003
30
0
0
SPLINE
5
E8
100
AcDbEntity
8
1
62
256
6
ByLayer
370
18
48
1
60
0
100
AcDbSpline
70
4
71
3
72
50
73
46
40
0
40
0
40
0
40
0
40
0.0605950484141304
40
0.0605950484141304
40
0.0997369213968741
40
0.0997369213968741
40
0.138878794379618
40
0.138878794379618
40
0.178020667362361
40
0.178020667362361
40
0.217162540345105
40
0.217162540345105
40
0.256304413327849
40
0.256304413327849
40
0.295446286310593
40
0.295446286310593
40
0.373730032276082
40
0.373730032276082
40
0.412871905258827
40
0.412871905258827
40
0.452013778241572
40
0.452013778241572
40
0.491155651224317
40
0.491155651224317
40
0.530297524207062
40
0.530297524207062
40
0.569439397189807
40
0.569439397189807
40
0.608581270172552
40
0.608581270172552
40
0.647723143155297
40
0.647723143155297
40
0.686865016138041
40
0.686865016138041
40
0.765148762103529
40
0.765148762103529
40
0.804290635086274
40
0.804290635086274
40
0.843432508069018
40
0.843432508069018
40
0.92171625403451
40
0.92171625403451
40
0.960858127017255
40
0.960858127017255
40
1
40
1
40
1
40
1
41
1
10
16.7206009661398
20
-1.4183484766977
30
1E-16
41
1
10
16.5383898660482
20
-1.48750338410963
30
1E-16
41
1
10
16.3559729340795
20
-1.55127899974514
30
1E-16
41
1
10
16.0538767696544
20
-1.64552220196953
30
1E-16
41
1
10
15.9350493855906
20
-1.68003340502062
30
1E-16
41
1
10
15.6968950671322
20
-1.7439611086181
30
0
41
1
10
15.5776601923718
20
-1.77302342334264
30
0
41
1
10
15.3402321279214
20
-1.82473540459517
30
0
41
1
10
15.2217430923829
20
-1.84744553020715
30
0
41
1
10
14.9852941883658
20
-1.88678539829718
30
0
41
1
10
14.8676327414707
20
-1.90354811700465
30
0
41
1
10
14.6322557917743
20
-1.93062461012377
30
0
41
1
10
14.5145926260355
20
-1.94098525920435
30
0
41
1
10
14.2789814059366
20
-1.95536233453345
30
0
41
1
10
14.1609744426365
20
-1.95939969694874
30
0
41
1
10
13.8074913583248
20
-1.96200858246726
30
0
41
1
10
13.5712377713008
20
-1.95084223504202
30
0
41
1
10
13.2135654192579
20
-1.91490895975284
30
0
41
1
10
13.0940350173394
20
-1.89963878095006
30
0
41
1
10
12.8566127636615
20
-1.86287506565896
30
0
41
1
10
12.7382405939149
20
-1.8414425271163
30
0
41
1
10
12.5017800417634
20
-1.79289189029097
30
0
41
1
10
12.3836450349166
20
-1.76582338426059
30
0
41
1
10
12.1478091435362
20
-1.70598459961232
30
0
41
1
10
12.0303502883239
20
-1.67296450410655
30
1E-16
41
1
10
11.7950659399341
20
-1.60187421358722
30
1E-16
41
1
10
11.6773274955366
20
-1.56374038050117
30
1E-16
41
1
10
11.4413580888745
20
-1.48269262109633
30
1E-16
41
1
10
11.3231061009042
20
-1.43982946556943
30
1E-16
41
1
10
11.0867428919851
20
-1.34841458595869
30
1E-16
41
1
10
10.9683010400388
20
-1.30027205887549
30
1E-16
41
1
10
10.7303630545775
20
-1.19982706641989
30
1E-16
41
1
10
10.6106324085977
20
-1.14743572761293
30
1E-16
41
1
10
10.2533188115857
20
-0.985860367025992
30
1E-16
41
1
10
10.017540015856
20
-0.870322485655606
30
1E-16
41
1
10
9.66372143161999
20
-0.691773713689372
30
0
41
1
10
9.54574899034182
20
-0.631416895076541
30
0
41
1
10
9.31018363999505
20
-0.508244656781358
30
0
41
1
10
9.19273345925347
20
-0.445159231959423
30
0
41
1
10
8.83939987324112
20
-0.254956374383625
30
0
41
1
10
8.6027155160848
20
-0.12664702752403
30
0
41
1
10
8.24661535361773
20
0.0694370731531535
30
0
41
1
10
8.12737268820399
20
0.135175174458368
30
0
41
1
10
7.88840674286899
20
0.264815717392651
30
0
41
1
10
7.76874888327868
20
0.328873924392582
30
0
41
1
10
7.6488748454301
20
0.392107195899513
30
0
0
SPLINE
5
E9
100
AcDbEntity
8
1
62
256
6
ByLayer
370
18
48
1
60
0
100
AcDbSpline
70
4
71
3
72
40
73
36
40
0
40
0
40
0
40
0
40
0.0383641231230655
40
0.0383641231230655
40
0.0889765376955373
40
0.0889765376955373
40
0.190201366840478
40
0.190201366840478
40
0.291426195985419
40
0.291426195985419
40
0.316732403271655
40
0.316732403271655
40
0.342038610557891
40
0.342038610557891
40
0.392651025130363
40
0.392651025130363
40
0.493875854275306
40
0.493875854275306
40
0.544488268847777
40
0.544488268847777
40
0.595100683420247
40
0.595100683420247
40
0.696325512565185
40
0.696325512565185
40
0.721631719851419
40
0.721631719851419
40
0.746937927137652
40
0.746937927137652
40
0.797550341710121
40
0.797550341710121
40
0.898775170855059
40
0.898775170855059
40
0.94938758542753
40
0.94938758542753
40
1
40
1
40
1
40
1
41
1
10
41.4282163187559
20
1.95310622977101
30
0
41
1
10
41.5776947176
20
1.96614092696601
30
0
41
1
10
41.727326584575
20
1.97409281503465
30
0
41
1
10
42.0753198274499
20
1.98048936721276
30
0
41
1
10
42.2743410937079
20
1.97505582203914
30
0
41
1
10
42.8733455302679
20
1.93105803133363
30
0
41
1
10
43.2675313154925
20
1.86553073373125
30
0
41
1
10
44.0556505010144
20
1.67025558446829
30
-1E-16
41
1
10
44.4496052772988
20
1.54052644925403
30
-1E-16
41
1
10
44.9481569242545
20
1.34374893818495
30
-1E-16
41
1
10
45.0482026377522
20
1.30263851643471
30
-1E-16
41
1
10
45.2472493227405
20
1.21786589126549
30
-1E-16
41
1
10
45.3464715590391
20
1.17411465944852
30
-1E-16
41
1
10
45.6434809479267
20
1.03917136910999
30
-1E-16
41
1
10
45.8406102419616
20
0.944285760836607
30
-1E-16
41
1
10
46.4314673504636
20
0.648377436397936
30
0
41
1
10
46.8248089783187
20
0.43635041635352
30
0
41
1
10
47.4214142864726
20
0.109128580966512
30
0
41
1
10
47.6217821781089
20
-0.0018311250206295
30
0
41
1
10
48.0188120827147
20
-0.220984823491989
30
0
41
1
10
48.2162980266201
20
-0.329615872882641
30
0
41
1
10
48.8076401393143
20
-0.649152386079152
30
0
41
1
10
49.2003988460727
20
-0.853660330114849
30
1E-16
41
1
10
49.6958568105415
20
-1.08752941546842
30
1E-16
41
1
10
49.7951765020139
20
-1.13321129577284
30
1E-16
41
1
10
49.9944444156258
20
-1.22209488434461
30
1E-16
41
1
10
50.0944377159349
20
-1.26530683425202
30
1E-16
41
1
10
50.392926754966
20
-1.38970194339294
30
1E-16
41
1
10
50.5908391662098
20
-1.46603764355055
30
1E-16
41
1
10
51.1829853334586
20
-1.67371895861828
30
1E-16
41
1
10
51.5755362927559
20
-1.7837653833142
30
0
41
1
10
52.1687860604665
20
-1.89853896626448
30
0
41
1
10
52.3675253244893
20
-1.92843424268094
30
0
41
1
10
52.7668895801841
20
-1.9701771176278
30
0
41
1
10
52.9660987572258
20
-1.9819037665404
30
0
41
1
10
53.1654184522209
20
-1.98444998011871
30
0
0
SPLINE
5
EA
100
AcDbEntity
8
1
62
256
6
ByLayer
370
18
48
1
60
0
100
AcDbSpline
70
4
71
3
72
20
73
16
40
0
40
0
40
0
40
0
40
0.0118034470835916
40
0.0118034470835916
40
0.121603064074298
40
0.121603064074298
40
0.56080153203714
40
0.56080153203714
40
0.670601149027855
40
0.670601149027855
40
0.78040076601857
40
0.78040076601857
40
0.890200383009285
40
0.890200383009285
40
1
40
1
40
1
40
1
41
1
10
47.8794437747438
20
0.138728570552928
30
0
41
1
10
47.9008261309016
20
0.127510726866603
30
0
41
1
10
47.9222086757189
20
0.116284390786205
30
0
41
1
10
48.1425085607295
20
0.0005541814221033
30
0
41
1
10
48.3418343931256
20
-0.104596514173693
30
0
41
1
10
49.3390641977906
20
-0.625803215695214
30
0
41
1
10
50.1170381348083
20
-1.01607078347442
30
1E-16
41
1
10
51.109704251629
20
-1.3906851794496
30
1E-16
41
1
10
51.3098324913527
20
-1.46002481492502
30
1E-16
41
1
10
51.7069319920942
20
-1.58351619436408
30
1E-16
41
1
10
51.9046066568775
20
-1.63797959109408
30
0
41
1
10
52.2995116799289
20
-1.73157724452096
30
0
41
1
10
52.4967322923637
20
-1.77069017080711
30
0
41
1
10
52.8917292663507
20
-1.83235217094142
30
0
41
1
10
53.0894788487497
20
-1.85469530747841
30
0
41
1
10
53.2881820477674
20
-1.86885721683558
30
0
0
SPLINE
5
EB
100
AcDbEntity
8
1
62
256
6
ByLayer
370
18
48
1
60
0
100
AcDbSpline
70
4
71
3
72
10
73
6
40
0
40
0
40
0
40
0
40
0.5
40
0.5
40
1
40
1
40
1
40
1
41
1
10
53.3215627053176
20
1.88026693752761
30
0
41
1
10
53.3134160554261
20
1.88627503796764
30
0
41
1
10
53.3063199986025
20
1.8897363901053
30
0
41
1
10
53.2938048940422
20
1.89156614915012
30
0
41
1
10
53.288382807088
20
1.88989039202784
30
0
41
1
10
53.2836963861029
20
1.88577735758682
30
0
0
SPLINE
5
EC
100
AcDbEntity
8
1
62
256
6
ByLayer
370
18
48
1
60
0
100
AcDbSpline
70
4
71
3
72
18
73
14
40
0
40
0
40
0
40
0
40
0.237807367129206
40
0.237807367129206
40
0.433131088629659
40
0.433131088629659
40
0.630304509609511
40
0.630304509609511
40
0.800826978020603
40
0.800826978020603
40
0.964581665550793
40
0.964581665550793
40
1
40
1
40
1
40
1
41
1
10
53.2881820477602
20
-1.86885721683504
30
0
41
1
10
53.2882893334106
20
-1.86903107182906
30
0
41
1
10
53.288338030912
20
-1.86939122206255
30
0
41
1
10
53.2882868727961
20
-1.87040974152975
30
0
41
1
10
53.2882105391163
20
-1.87101684428464
30
0
41
1
10
53.2879419432437
20
-1.87248450736149
30
0
41
1
10
53.2877433037632
20
-1.8733727174631
30
0
41
1
10
53.2872825533593
20
-1.87515689886902
30
0
41
1
10
53.287026430675
20
-1.87605951013282
30
0
41
1
10
53.2864885361
20
-1.8778156016854
30
0
41
1
10
53.2862018711658
20
-1.87869086983565
30
0
41
1
10
53.2858509889351
20
-1.87970324136674
30
0
41
1
10
53.2857877723944
20
-1.87988339413593
30
0
41
1
10
53.2857244785602
20
-1.88006161836324
30
0
0
SPLINE
5
ED
100
AcDbEntity
8
1
62
256
6
ByLayer
370
18
48
1
60
0
100
AcDbSpline
70
4
71
3
72
20
73
16
40
0
40
0
40
0
40
0
40
0.125
40
0.125
40
0.25
40
0.25
40
0.375
40
0.375
40
0.5
40
0.5
40
0.625
40
0.625
40
0.75
40
0.75
40
1
40
1
40
1
40
1
41
1
10
53.0686124159126
20
-0.137988564091359
30
0
41
1
10
53.0732821167909
20
-0.246180568582275
30
0
41
1
10
53.0816641801677
20
-0.351860789642899
30
0
41
1
10
53.1022618424229
20
-0.558738332058766
30
0
41
1
10
53.1145431284488
20
-0.660295037614503
30
0
41
1
10
53.1401622851948
20
-0.857426049883941
30
1E-16
41
1
10
53.1532123444842
20
-0.95098942486942
30
1E-16
41
1
10
53.1779624829038
20
-1.12862103304437
30
1E-16
41
1
10
53.1897252076206
20
-1.21311647349037
30
1E-16
41
1
10
53.2107603278319
20
-1.3702306933013
30
1E-16
41
1
10
53.2198619583575
20
-1.44156156273442
30
1E-16
41
1
10
53.235678364553
20
-1.57015327019025
30
1E-16
41
1
10
53.2424239880523
20
-1.62770902957493
30
0
41
1
10
53.2609592123659
20
-1.77596709190789
30
0
41
1
10
53.2703512951971
20
-1.83996271537495
30
0
41
1
10
53.2881820477604
20
-1.86885721683541
30
0
0
SPLINE
5
EE
100
AcDbEntity
8
1
62
256
6
ByLayer
370
18
48
1
60
0
100
AcDbSpline
70
4
71
3
72
26
73
22
40
0
40
0
40
0
40
0
40
0.0204390103043302
40
0.0204390103043302
40
0.118395109273897
40
0.118395109273897
40
0.216351208243464
40
0.216351208243464
40
0.314307307213031
40
0.314307307213031
40
0.412263406182598
40
0.412263406182598
40
0.510219505152165
40
0.510219505152165
40
0.608175604121732
40
0.608175604121732
40
0.706131703091299
40
0.706131703091299
40
0.804087802060866
40
0.804087802060866
40
1
40
1
40
1
40
1
41
1
10
47.0807851288017
20
1.89075306090871
30
0
41
1
10
47.1217335561358
20
1.89157022541579
30
0
41
1
10
47.1627360845584
20
1.89197740396048
30
0
41
1
10
47.4006149072062
20
1.89180012892552
30
0
41
1
10
47.5963750537474
20
1.88236422291908
30
0
41
1
10
47.9860411177024
20
1.8488778465607
30
0
41
1
10
48.1798807543838
20
1.82502640829986
30
0
41
1
10
48.5683164138825
20
1.75873282706689
30
0
41
1
10
48.762800060711
20
1.7170629678829
30
0
41
1
10
49.1516603370873
20
1.62049928385821
30
0
41
1
10
49.3457579273782
20
1.56578323401715
30
-1E-16
41
1
10
49.737320440444
20
1.44027261888974
30
-1E-16
41
1
10
49.934788003415
20
1.36990463051174
30
-1E-16
41
1
10
50.3278489798094
20
1.21826649534685
30
-1E-16
41
1
10
50.5240789605285
20
1.13684964689912
30
-1E-16
41
1
10
50.9165792847052
20
0.964421458592824
30
-1E-16
41
1
10
51.113389913948
20
0.873082599518028
30
-1E-16
41
1
10
51.5054601964275
20
0.684154396225296
30
0
41
1
10
51.7005804478671
20
0.586662196644482
30
0
41
1
10
52.2849219969945
20
0.288531638434222
30
0
41
1
10
52.67314009008
20
0.0822757018708558
30
0
41
1
10
53.0633652918177
20
-0.124668305797883
30
0
0
SPLINE
5
EF
100
AcDbEntity
8
1
62
256
6
ByLayer
370
18
48
1
60
0
100
AcDbSpline
70
4
71
3
72
12
73
8
40
0
40
0
40
0
40
0
40
0.276997215194641
40
0.276997215194641
40
0.638498607597321
40
0.638498607597321
40
1
40
1
40
1
40
1
41
1
10
34.1521125060228
20
-1.97304478511413
30
0
41
1
10
34.1521127769389
20
-1.97288834015546
30
0
41
1
10
34.1521130441871
20
-1.96840181257235
30
0
41
1
10
34.1521136505136
20
-1.94829047867154
30
0
41
1
10
34.1521139867117
20
-1.9296861993424
30
0
41
1
10
34.1521146339813
20
-1.87746064785193
30
0
41
1
10
34.152114939467
20
-1.84425711711674
30
0
41
1
10
34.1521152164937
20
-1.80418178518357
30
0
0
SPLINE
5
F0
100
AcDbEntity
8
1
62
256
6
ByLayer
370
18
48
1
60
0
100
AcDbSpline
70
4
71
3
72
38
73
34
40
0
40
0
40
0
40
0
40
0.111104938481481
40
0.111104938481481
40
0.138881173101851
40
0.138881173101851
40
0.166657407722222
40
0.166657407722222
40
0.222209876962962
40
0.222209876962962
40
0.333314815444443
40
0.333314815444443
40
0.388867284685184
40
0.388867284685184
40
0.444419753925924
40
0.444419753925924
40
0.555524692407405
40
0.555524692407405
40
0.611077161648146
40
0.611077161648146
40
0.638853396268516
40
0.638853396268516
40
0.666629630888886
40
0.666629630888886
40
0.777734569370367
40
0.777734569370367
40
0.833287038611108
40
0.833287038611108
40
0.888839507851848
40
0.888839507851848
40
0.999944446333329
40
0.999944446333329
40
1
40
1
40
1
40
1
41
1
10
53.1582871416203
20
-1.95816106908236
30
0
41
1
10
52.7623099532454
20
-1.92186607091747
30
0
41
1
10
52.3686929208836
20
-1.84988059142879
30
0
41
1
10
51.8738941672959
20
-1.71931177608374
30
0
41
1
10
51.7747936086091
20
-1.69116575845246
30
1E-16
41
1
10
51.5761385284346
20
-1.63092876459885
30
1E-16
41
1
10
51.4764234848652
20
-1.59878208340189
30
1E-16
41
1
10
51.178561166712
20
-1.49737841300373
30
1E-16
41
1
10
50.9812987826111
20
-1.42281159548949
30
1E-16
41
1
10
50.3910967026583
20
-1.18153974331329
30
1E-16
41
1
10
49.9995056514906
20
-0.997650014624185
30
1E-16
41
1
10
49.4080104493526
20
-0.698005497518182
30
0
41
1
10
49.2102228718813
20
-0.594037305335206
30
0
41
1
10
48.8119360851495
20
-0.380228525751846
30
0
41
1
10
48.6140892895223
20
-0.271860354267716
30
0
41
1
10
48.0226759682522
20
0.0543130099175926
30
0
41
1
10
47.6313310425288
20
0.273391280904349
30
0
41
1
10
47.0407584868412
20
0.589869676604025
30
0
41
1
10
46.8434454267579
20
0.693588353773691
30
0
41
1
10
46.545695170766
20
0.844498380728169
30
-1E-16
41
1
10
46.4459569829415
20
0.894091948036021
30
-1E-16
41
1
10
46.2473538370776
20
0.990617958337111
30
-1E-16
41
1
10
46.1483364882164
20
1.03762970563764
30
-1E-16
41
1
10
45.6542968382623
20
1.26596258341863
30
-1E-16
41
1
10
45.2627484432527
20
1.42753754113903
30
-1E-16
41
1
10
44.6727746744817
20
1.6277038017985
30
-1E-16
41
1
10
44.4757306799123
20
1.68748388761557
30
-1E-16
41
1
10
44.0797213835558
20
1.79168661339219
30
0
41
1
10
43.880059665815
20
1.8361994076445
30
0
41
1
10
43.2858579088409
20
1.94259188548204
30
0
41
1
10
42.8935979953882
20
1.9782789163271
30
0
41
1
10
42.5004073170857
20
1.97826202009205
30
0
41
1
10
42.500210815519
20
1.97826200271544
30
0
41
1
10
42.5000143137089
20
1.97826197640623
30
0
0
SPLINE
5
F1
100
AcDbEntity
8
1
62
256
6
ByLayer
370
18
48
1
60
0
100
AcDbSpline
70
4
71
3
72
30
73
26
40
0
40
0
40
0
40
0
40
0.0844415860732054
40
0.0844415860732054
40
0.180181272392437
40
0.180181272392437
40
0.275920958711667
40
0.275920958711667
40
0.371660645030898
40
0.371660645030898
40
0.467400331350129
40
0.467400331350129
40
0.56314001766936
40
0.56314001766936
40
0.658879703988591
40
0.658879703988591
40
0.754619390307822
40
0.754619390307822
40
0.850359076627053
40
0.850359076627053
40
0.946098762946284
40
0.946098762946284
40
0.993968606105897
40
0.993968606105897
40
1
40
1
40
1
40
1
41
1
10
35.5478272683694
20
1.87388873628228
30
0
41
1
10
35.7204496907496
20
1.88395391566377
30
0
41
1
10
35.8921982929185
20
1.88822249200155
30
0
41
1
10
36.2581131623783
20
1.88294389783107
30
0
41
1
10
36.4522363002302
20
1.87139405475477
30
0
41
1
10
36.8410415600086
20
1.83147663807466
30
0
41
1
10
37.0357043149333
20
1.80312684260937
30
0
41
1
10
37.4262088385806
20
1.73097151441689
30
0
41
1
10
37.6218204703511
20
1.68758781375931
30
0
41
1
10
38.0156488920188
20
1.58447308873451
30
-1E-16
41
1
10
38.2122375042477
20
1.52503137219818
30
-1E-16
41
1
10
38.6049341684452
20
1.39379060558224
30
-1E-16
41
1
10
38.8007022999796
20
1.32208070838931
30
-1E-16
41
1
10
39.1940902224375
20
1.16631500669027
30
-1E-16
41
1
10
39.3909044377494
20
1.08262717996726
30
-1E-16
41
1
10
39.7817210461235
20
0.907786326292751
30
-1E-16
41
1
10
39.9761512629544
20
0.816249491987662
30
0
41
1
10
40.3645196768064
20
0.626936859353549
30
0
41
1
10
40.5583226184224
20
0.52898357601066
30
0
41
1
10
40.9470490441243
20
0.329539038891113
30
0
41
1
10
41.1421338907144
20
0.22818287338697
30
0
41
1
10
41.4355292061608
20
0.0740264356109037
30
0
41
1
10
41.5334536531815
20
0.0222873207506211
30
0
41
1
10
41.6439426627487
20
-0.0362439915124355
30
0
41
1
10
41.6563102059311
20
-0.0427980164521102
30
0
41
1
10
41.6686807785583
20
-0.049354708274592
30
0
0
SPLINE
5
F2
100
AcDbEntity
8
1
62
256
6
ByLayer
370
18
48
1
60
0
100
AcDbSpline
70
4
71
3
72
10
73
6
40
0
40
0
40
0
40
0
40
0.5
40
0.5
40
1
40
1
40
1
40
1
41
1
10
53.3215627053176
20
-1.88026693752761
30
0
41
1
10
53.3134160554261
20
-1.88627503796764
30
0
41
1
10
53.3063199986025
20
-1.88973639010533
30
0
41
1
10
53.2938048940422
20
-1.89156614915015
30
0
41
1
10
53.288382807088
20
-1.88989039202784
30
0
41
1
10
53.283696386103
20
-1.88577735758679
30
0
0
SPLINE
5
F3
100
AcDbEntity
8
1
62
256
6
ByLayer
370
18
48
1
60
0
100
AcDbSpline
70
4
71
3
72
32
73
28
40
0
40
0
40
0
40
0
40
0.0099715912017902
40
0.0099715912017902
40
0.0581435693768047
40
0.0581435693768047
40
0.10631554755182
40
0.10631554755182
40
0.202659503901855
40
0.202659503901855
40
0.29900346025189
40
0.29900346025189
40
0.395347416601925
40
0.395347416601925
40
0.491691372951961
40
0.491691372951961
40
0.588035329301996
40
0.588035329301996
40
0.684379285652031
40
0.684379285652031
40
0.780723242002066
40
0.780723242002066
40
0.877067198352101
40
0.877067198352101
40
0.973411154702136
40
0.973411154702136
40
1
40
1
40
1
40
1
41
1
10
41.9865251550829
20
-0.227262214747299
30
0
41
1
10
41.9662214049152
20
-0.216684227683714
30
0
41
1
10
41.9459128052682
20
-0.20608189182397
30
0
41
1
10
41.8274664724512
20
-0.144113789054558
30
0
41
1
10
41.7290365848829
20
-0.0921170141673429
30
0
41
1
10
41.5326707607016
20
0.0113416478448585
30
0
41
1
10
41.434687924007
20
0.0628396764096237
30
0
41
1
10
41.1411183488663
20
0.21631283991789
30
0
41
1
10
40.9459232437274
20
0.317281873673409
30
0
41
1
10
40.5569713943146
20
0.516071332060278
30
0
41
1
10
40.3630462522116
20
0.613728673471172
30
0
41
1
10
39.974456178258
20
0.802584931164944
30
0
41
1
10
39.7799127826528
20
0.893930377815678
30
-1E-16
41
1
10
39.3888994373822
20
1.06850879302954
30
-1E-16
41
1
10
39.1920136260508
20
1.15211988162906
30
-1E-16
41
1
10
38.7984383061885
20
1.30790399340094
30
-1E-16
41
1
10
38.6025571642076
20
1.3796479521146
30
-1E-16
41
1
10
38.2096605821726
20
1.51108418292512
30
-1E-16
41
1
10
38.01298266011
20
1.57068897864983
30
-1E-16
41
1
10
37.618988908783
20
1.67426130963798
30
0
41
1
10
37.4232497030737
20
1.71791074875992
30
0
41
1
10
37.0325221399407
20
1.79069634834841
30
0
41
1
10
36.8377490911584
20
1.81941523604482
30
0
41
1
10
36.4487221686028
20
1.86015553514815
30
0
41
1
10
36.2544863019506
20
1.87215778660044
30
0
41
1
10
36.0062579860157
20
1.87636179594733
30
0
41
1
10
35.9525429310918
20
1.87661356666666
30
0
41
1
10
35.898783359725
20
1.87623677841924
30
0
0
SPLINE
5
F4
100
AcDbEntity
8
1
62
256
6
ByLayer
370
18
48
1
60
0
100
AcDbSpline
70
4
71
3
72
22
73
18
40
0
40
0
40
0
40
0
40
0.125
40
0.125
40
0.25
40
0.25
40
0.375
40
0.375
40
0.5
40
0.5
40
0.625
40
0.625
40
0.75
40
0.75
40
0.875
40
0.875
40
1
40
1
40
1
40
1
41
1
10
53.9643303249715
20
0.0308117100314576
30
0
41
1
10
53.9556732342209
20
0.0019283667379568
30
0
41
1
10
53.9460510908698
20
-0.0264730187802797
30
0
41
1
10
53.9248917553732
20
-0.0822918240163801
30
0
41
1
10
53.9132414306708
20
-0.109954287844573
30
0
41
1
10
53.8884054232672
20
-0.163032436911408
30
0
41
1
10
53.8754108394047
20
-0.188095285709295
30
0
41
1
10
53.8483258441466
20
-0.235127383435554
30
0
41
1
10
53.8340136148491
20
-0.257387568429493
30
0
41
1
10
53.8054791574667
20
-0.296521694785241
30
0
41
1
10
53.7912734586409
20
-0.313471416736121
30
0
41
1
10
53.7629393186281
20
-0.341959389405162
30
0
41
1
10
53.7489062494544
20
-0.353310133020074
30
0
41
1
10
53.7223075678136
20
-0.369282527658356
30
0
41
1
10
53.7094029631768
20
-0.374115202053076
30
0
41
1
10
53.685236422807
20
-0.377334497458094
30
0
41
1
10
53.6739755687622
20
-0.375811469023773
30
0
41
1
10
53.6633426954464
20
-0.371427176256361
30
0
0
SPLINE
5
F5
100
AcDbEntity
8
1
62
256
6
ByLayer
370
18
48
1
60
0
100
AcDbSpline
70
4
71
3
72
22
73
18
40
0
40
0
40
0
40
0
40
0.495493439267073
40
0.495493439267073
40
0.719730501875473
40
0.719730501875473
40
0.844913199696781
40
0.844913199696781
40
0.914160198834184
40
0.914160198834184
40
0.95292069371563
40
0.95292069371563
40
0.975035021206781
40
0.975035021206781
40
0.987784659001495
40
0.987784659001495
40
1
40
1
40
1
40
1
41
1
10
53.1654184522172
20
1.98444998011257
30
0
41
1
10
53.1901676323896
20
1.96830192182128
30
0
41
1
10
53.2149766459781
20
1.95193199688856
30
0
41
1
10
53.2510415715275
20
1.92788531710548
30
0
41
1
10
53.2622772060859
20
1.92035847414138
30
0
41
1
10
53.2798331966166
20
1.9085430750853
30
0
41
1
10
53.2861328608331
20
1.90429250935952
30
0
41
1
10
53.2959409882469
20
1.89765878371856
30
0
41
1
10
53.2994406337876
20
1.89528870822636
30
0
41
1
10
53.3049013503766
20
1.89158577831972
30
0
41
1
10
53.3068611948483
20
1.89025585151271
30
0
41
1
10
53.3099241798917
20
1.88817545938016
30
0
41
1
10
53.3110331915786
20
1.88742180550949
30
0
41
1
10
53.3127657071801
20
1.8862434879149
30
0
41
1
10
53.3133968334919
20
1.88581406432937
30
0
41
1
10
53.3146154835309
20
1.88498426889711
30
0
41
1
10
53.3152313062933
20
1.88456498168892
30
0
41
1
10
53.3157114642995
20
1.88423529692611
30
0
0
SPLINE
5
F6
100
AcDbEntity
8
1
62
256
6
ByLayer
370
18
48
1
60
0
100
AcDbSpline
70
4
71
3
72
16
73
12
40
0
40
0
40
0
40
0
40
0.154481793591795
40
0.154481793591795
40
0.365861345193846
40
0.365861345193846
40
0.577240896795898
40
0.577240896795898
40
0.788620448397949
40
0.788620448397949
40
1
40
1
40
1
40
1
41
1
10
53.1017705460026
20
0.363940362037823
30
0
41
1
10
53.1127961075699
20
0.373765649907881
30
0
41
1
10
53.1253051059692
20
0.384422358551859
30
0
41
1
10
53.1587464818105
20
0.411215389676471
30
0
41
1
10
53.1810199463407
20
0.427769189897049
30
0
41
1
10
53.2302648471096
20
0.460412621120781
30
0
41
1
10
53.2578578794348
20
0.476922299488962
30
0
41
1
10
53.3169116561915
20
0.507390717423903
30
0
41
1
10
53.3481618651582
20
0.521278960219746
30
0
41
1
10
53.4145853150765
20
0.544646240937197
30
0
41
1
10
53.4493623036457
20
0.553879684249978
30
0
41
1
10
53.4847369737401
20
0.560199551369635
30
0
0
SPLINE
5
F7
100
AcDbEntity
8
1
62
256
6
ByLayer
370
18
48
1
60
0
100
AcDbSpline
70
4
71
3
72
8
73
4
40
0
40
0
40
0
40
0
40
1
40
1
40
1
40
1
41
1
10
53.1582871416187
20
-1.95816106908285
30
0
41
1
10
53.1610717136746
20
-1.97349456287097
30
0
41
1
10
53.163327415538
20
-1.98236625787524
30
0
41
1
10
53.1654184522083
20
-1.98444998011877
30
0
0
SPLINE
5
F8
100
AcDbEntity
8
1
62
256
6
ByLayer
370
18
48
1
60
0
100
AcDbSpline
70
4
71
3
72
8
73
4
40
0
40
0
40
0
40
0
40
1
40
1
40
1
40
1
41
1
10
53.1582871416197
20
-1.9581610690816
30
0
41
1
10
53.1999554329091
20
-1.9346808343158
30
0
41
1
10
53.2417480283253
20
-1.91054554922883
30
0
41
1
10
53.283696386103
20
-1.88577735758673
30
0
0
SPLINE
5
F9
100
AcDbEntity
8
1
62
256
6
ByLayer
370
18
48
1
60
0
100
AcDbSpline
70
4
71
3
72
36
73
32
40
0
40
0
40
0
40
0
40
0.0732171328638722
40
0.0732171328638722
40
0.146434265727744
40
0.146434265727744
40
0.219651398591617
40
0.219651398591617
40
0.256259965023553
40
0.256259965023553
40
0.29286853145549
40
0.29286853145549
40
0.439302797183233
40
0.439302797183233
40
0.47591136361517
40
0.47591136361517
40
0.512519930047106
40
0.512519930047106
40
0.585737062910977
40
0.585737062910977
40
0.658954195774849
40
0.658954195774849
40
0.732171328638721
40
0.732171328638721
40
0.878605594366462
40
0.878605594366462
40
0.915214160798398
40
0.915214160798398
40
0.951822727230333
40
0.951822727230333
40
1
40
1
40
1
40
1
41
1
10
8.46289683074272
20
1.95110821635214
30
0
41
1
10
8.73345750814934
20
1.93985865465055
30
0
41
1
10
9.00132384744182
20
1.91202304718973
30
0
41
1
10
9.53529800709984
20
1.82526876654686
30
0
41
1
10
9.80157406219541
20
1.76651958421618
30
0
41
1
10
10.3351248956625
20
1.62018366220471
30
-1E-16
41
1
10
10.602645229275
20
1.53281655713184
30
-1E-16
41
1
10
11.0070603756348
20
1.38204529051237
30
-1E-16
41
1
10
11.1423082402689
20
1.32854691796891
30
-1E-16
41
1
10
11.4110869128953
20
1.21686207894632
30
-1E-16
41
1
10
11.5450241225395
20
1.15854215561623
30
-1E-16
41
1
10
12.2132719005305
20
0.855950458338782
30
-1E-16
41
1
10
12.743395815916
20
0.578827382779963
30
0
41
1
10
13.4158553997952
20
0.214746224040454
30
0
41
1
10
13.5512318348648
20
0.140860881954382
30
0
41
1
10
13.8205157392812
20
-0.006563156352172
30
0
41
1
10
13.9546283939297
20
-0.0801326264769386
30
0
41
1
10
14.3559953236056
20
-0.299295066208032
30
0
41
1
10
14.6222447324836
20
-0.44340649775927
30
0
41
1
10
15.1550818208258
20
-0.722238582617962
30
0
41
1
10
15.4217121215821
20
-0.856886010335472
30
1E-16
41
1
10
15.9582765379152
20
-1.11147730123099
30
1E-16
41
1
10
16.2293379320561
20
-1.23150341344089
30
1E-16
41
1
10
17.0333154700118
20
-1.55403576095029
30
1E-16
41
1
10
17.5629660269301
20
-1.72138555162016
30
0
41
1
10
18.2323618244002
20
-1.85526822388988
30
0
41
1
10
18.3665855751455
20
-1.87829956487201
30
0
41
1
10
18.6361452228201
20
-1.91645453246966
30
0
41
1
10
18.7712541841865
20
-1.93150900205825
30
0
41
1
10
19.0822269501492
20
-1.95666293200418
30
0
41
1
10
19.2581154556575
20
-1.96379467943083
30
0
41
1
10
19.4336428401254
20
-1.9638438652664
30
0
0
SPLINE
5
FA
100
AcDbEntity
8
1
62
256
6
ByLayer
370
18
48
1
60
0
100
AcDbSpline
70
4
71
3
72
26
73
22
40
0
40
0
40
0
40
0
40
0.0936168858205196
40
0.0936168858205196
40
0.158358536833342
40
0.158358536833342
40
0.223100187846164
40
0.223100187846164
40
0.482066791897442
40
0.482066791897442
40
0.546808442910262
40
0.546808442910262
40
0.611550093923082
40
0.611550093923082
40
0.741033395948721
40
0.741033395948721
40
0.87051669797436
40
0.87051669797436
40
0.93525834898718
40
0.93525834898718
40
1
40
1
40
1
40
1
41
1
10
27.9516015901709
20
1.42541222961336
30
-1E-16
41
1
10
28.1444047949634
20
1.49868306568376
30
-1E-16
41
1
10
28.3376825115718
20
1.56592708655072
30
-1E-16
41
1
10
28.6664021044335
20
1.66809346514745
30
-1E-16
41
1
10
28.8016108566221
20
1.70669006560956
30
0
41
1
10
29.0705014096864
20
1.77600867491344
30
0
41
1
10
29.2044303109113
20
1.80684770994927
30
0
41
1
10
29.8725148379793
20
1.94154072919423
30
0
41
1
10
30.4016857464142
20
1.9869677309913
30
0
41
1
10
31.0720049240936
20
1.9605164419124
30
0
41
1
10
31.2068144919501
20
1.95104468932601
30
0
41
1
10
31.4763697558847
20
1.92382398438741
30
0
41
1
10
31.610534481387
20
1.90613928666622
30
0
41
1
10
32.0119320271393
20
1.84143607329972
30
0
41
1
10
32.2780358869316
20
1.7827727699794
30
0
41
1
10
32.8101063566278
20
1.63696436218342
30
-1E-16
41
1
10
33.0762072337393
20
1.54994854737376
30
-1E-16
41
1
10
33.4775318789359
20
1.40017817475257
30
-1E-16
41
1
10
33.6116811014067
20
1.34705751970719
30
-1E-16
41
1
10
33.881164038003
20
1.23486630493608
30
-1E-16
41
1
10
34.0159573501733
20
1.17601380833239
30
-1E-16
41
1
10
34.1499999999891
20
1.11512302495959
30
-1E-16
0
SPLINE
5
FB
100
AcDbEntity
8
1
62
256
6
ByLayer
370
18
48
1
60
0
100
AcDbSpline
70
4
71
3
72
8
73
4
40
0
40
0
40
0
40
0
40
1
40
1
40
1
40
1
41
1
10
34.1521152164937
20
-1.80418178518076
30
0
41
1
10
34.1521152168013
20
-1.80413729194453
30
0
41
1
10
34.1521162102818
20
-1.80409278905984
30
0
41
1
10
34.1521181959874
20
-1.80404828742402
30
0
0
SPLINE
5
FC
100
AcDbEntity
8
1
62
256
6
ByLayer
370
18
48
1
60
0
100
AcDbSpline
70
4
71
3
72
42
73
38
40
0
40
0
40
0
40
0
40
0.0992209820625523
40
0.0992209820625523
40
0.127964031907978
40
0.127964031907978
40
0.156707081753404
40
0.156707081753404
40
0.214193181444257
40
0.214193181444257
40
0.271679281135111
40
0.271679281135111
40
0.300422330980537
40
0.300422330980537
40
0.329165380825963
40
0.329165380825963
40
0.444137580207665
40
0.444137580207665
40
0.501623679898517
40
0.501623679898517
40
0.559109779589368
40
0.559109779589368
40
0.674081978971072
40
0.674081978971072
40
0.702825028816498
40
0.702825028816498
40
0.731568078661924
40
0.731568078661924
40
0.789054178352774
40
0.789054178352774
40
0.846540278043624
40
0.846540278043624
40
0.875283327889049
40
0.875283327889049
40
0.904026377734474
40
0.904026377734474
40
1
40
1
40
1
40
1
41
1
10
16.7172953497731
20
1.42467161470103
30
-1E-16
41
1
10
17.178550063034
20
1.59875896244074
30
-1E-16
41
1
10
17.6363319274535
20
1.73605911672567
30
0
41
1
10
18.2323618244002
20
1.85526822388988
30
0
41
1
10
18.3665855751454
20
1.87829956487201
30
0
41
1
10
18.6361452228201
20
1.91645453246966
30
0
41
1
10
18.7712541841865
20
1.93150900205825
30
0
41
1
10
19.1740667505938
20
1.96409165940247
30
0
41
1
10
19.4407298030282
20
1.96927353846334
30
0
41
1
10
19.9734736563701
20
1.94711023791507
30
0
41
1
10
20.2395339321214
20
1.91977231404906
30
0
41
1
10
20.6404021506299
20
1.85490223152152
30
0
41
1
10
20.7743285116367
20
1.82930554059831
30
0
41
1
10
21.0431926691446
20
1.77029194757455
30
0
41
1
10
21.178477836785
20
1.73673647092028
30
0
41
1
10
21.8512397961061
20
1.55171818943373
30
-1E-16
41
1
10
22.3811531036341
20
1.34841126590055
30
-1E-16
41
1
10
23.1817403573286
20
0.985272936732287
30
-1E-16
41
1
10
23.4499686298433
20
0.854186116856681
30
-1E-16
41
1
10
23.9896235107352
20
0.578322299785896
30
0
41
1
10
24.2570166509956
20
0.435357939704374
30
0
41
1
10
25.0569594420596
20
0.0007623983393614
30
0
41
1
10
25.5869512271401
20
-0.297166426086335
30
0
41
1
10
26.2606899702052
20
-0.651255839039862
30
0
41
1
10
26.3956675368736
20
-0.720951652299703
30
0
41
1
10
26.6640150751638
20
-0.856159536968818
30
1E-16
41
1
10
26.7977148697139
20
-0.921909344914184
30
1E-16
41
1
10
27.1980056217228
20
-1.11266837911367
30
1E-16
41
1
10
27.4638942581747
20
-1.23102695107556
30
1E-16
41
1
10
27.9964623813069
20
-1.44615323107041
30
1E-16
41
1
10
28.2632312444149
20
-1.5427875581729
30
1E-16
41
1
10
28.6664021044336
20
-1.66809346514745
30
1E-16
41
1
10
28.8016108566222
20
-1.70669006560954
30
0
41
1
10
29.0705014096864
20
-1.77600867491347
30
0
41
1
10
29.2044303109113
20
-1.80684770994927
30
0
41
1
10
29.7841967542973
20
-1.92373485454351
30
0
41
1
10
30.2266554579221
20
-1.97025265826869
30
0
41
1
10
30.6726250768219
20
-1.97086144773695
30
0
0
SPLINE
5
FD
100
AcDbEntity
8
1
62
256
6
ByLayer
370
18
48
1
60
0
100
AcDbSpline
70
4
71
3
72
16
73
12
40
0
40
0
40
0
40
0
40
0.250000000000013
40
0.250000000000013
40
0.375000000000014
40
0.375000000000014
40
0.500000000000015
40
0.500000000000015
40
0.750000000000008
40
0.750000000000008
40
1
40
1
40
1
40
1
41
1
10
53.3215627053175
20
1.88026693752761
30
0
41
1
10
53.359336419756
20
1.7741611092448
30
0
41
1
10
53.3969440509016
20
1.66739476321973
30
0
41
1
10
53.453761188374
20
1.50694945978259
30
0
41
1
10
53.4727628577643
20
1.4534290149688
30
0
41
1
10
53.5109413235699
20
1.34639772777371
30
0
41
1
10
53.5299670905079
20
1.29285703388209
30
0
41
1
10
53.5893043290632
20
1.13288311206478
30
0
41
1
10
53.6309156128059
20
1.02915659688742
30
0
41
1
10
53.721217304544
20
0.829949963397127
30
0
41
1
10
53.7705183200178
20
0.73333070010483
30
0
41
1
10
53.8225098733335
20
0.644436863641602
30
0
0
SPLINE
5
FE
100
AcDbEntity
8
1
62
256
6
ByLayer
370
18
48
1
60
0
100
AcDbSpline
70
4
71
3
72
8
73
4
40
0
40
0
40
0
40
0
40
1
40
1
40
1
40
1
41
1
10
53.8225098733336
20
-0.644436863641801
30
0
41
1
10
53.8822216077364
20
-0.4771396350055
30
0
41
1
10
53.94042909311
20
-0.309302229766615
30
0
41
1
10
53.9971107669982
20
-0.14091690483599
30
0
0
SPLINE
5
FF
100
AcDbEntity
8
1
62
256
6
ByLayer
370
18
48
1
60
0
100
AcDbSpline
70
4
71
3
72
10
73
6
40
0
40
0
40
0
40
0
40
0.5
40
0.5
40
1
40
1
40
1
40
1
41
1
10
53.4847369737402
20
0.560199551369664
30
0
41
1
10
53.5419372500484
20
0.570418675520102
30
0
41
1
10
53.5987914956224
20
0.58222445056785
30
0
41
1
10
53.7116337420674
20
0.609807982915981
30
0
41
1
10
53.7678090041273
20
0.625549175594045
30
0
41
1
10
53.8225098733335
20
0.644436863641772
30
0
0
SPLINE
5
100
100
AcDbEntity
8
1
62
256
6
ByLayer
370
18
48
1
60
0
100
AcDbSpline
70
4
71
3
72
8
73
4
40
0
40
0
40
0
40
0
40
1
40
1
40
1
40
1
41
1
10
53.1582871416187
20
1.95816106908285
30
0
41
1
10
53.1610717136746
20
1.97349456287085
30
0
41
1
10
53.163327415538
20
1.9823662578751
30
0
41
1
10
53.1654184522082
20
1.98444998011871
30
0
0
SPLINE
5
101
100
AcDbEntity
8
1
62
256
6
ByLayer
370
18
48
1
60
0
100
AcDbSpline
70
4
71
3
72
14
73
10
40
0
40
0
40
0
40
0
40
0.267663988494808
40
0.267663988494808
40
0.49800148535621
40
0.49800148535621
40
0.775266961232685
40
0.775266961232685
40
1
40
1
40
1
40
1
41
1
10
53.0633652918177
20
-0.124668305797883
30
0
41
1
10
53.0640833821653
20
-0.12495060076688
30
0
41
1
10
53.0647867661637
20
-0.125614375232175
30
0
41
1
10
53.0659515729126
20
-0.12728594025171
30
0
41
1
10
53.0664490334471
20
-0.128255240992161
30
0
41
1
10
53.0673943282885
20
-0.130658720165172
30
0
41
1
10
53.0678263699176
20
-0.13218341937727
30
0
41
1
10
53.0683801433619
20
-0.135133356637056
30
0
41
1
10
53.0685506286054
20
-0.136557017876413
30
0
41
1
10
53.0686124159121
20
-0.137988564080473
30
0
0
SPLINE
5
102
100
AcDbEntity
8
1
62
256
6
ByLayer
370
18
48
1
60
0
100
AcDbSpline
70
4
71
3
72
8
73
4
40
0
40
0
40
0
40
0
40
1
40
1
40
1
40
1
41
1
10
53.2857244785611
20
-1.88006161836083
30
0
41
1
10
53.2850478419255
20
-1.88196690729052
30
0
41
1
10
53.2843718101198
20
-1.88387215341058
30
0
41
1
10
53.283696386103
20
-1.88577735758673
30
0
0
SPLINE
5
103
100
AcDbEntity
8
1
62
256
6
ByLayer
370
18
48
1
60
0
100
AcDbSpline
70
4
71
3
72
8
73
4
40
0
40
0
40
0
40
0
40
1
40
1
40
1
40
1
41
1
10
34.203862624959
20
1.33762266869118
30
-1E-16
41
1
10
34.1727284001306
20
1.35021366054448
30
-1E-16
41
1
10
34.1525022906086
20
1.37485322886795
30
-1E-16
41
1
10
34.152108014907
20
1.39989232301494
30
-1E-16
0
SPLINE
5
104
100
AcDbEntity
8
1
62
256
6
ByLayer
370
18
48
1
60
0
100
AcDbSpline
70
4
71
3
72
14
73
10
40
0
40
0
40
0
40
0
40
0.231640388112358
40
0.231640388112358
40
0.433344647213606
40
0.433344647213606
40
0.635048906314855
40
0.635048906314855
40
1
40
1
40
1
40
1
41
1
10
34.2527547109928
20
1.87434008935136
30
0
41
1
10
34.2527280880182
20
1.87428028222371
30
0
41
1
10
34.2527001744775
20
1.86346044438182
30
0
41
1
10
34.252646522178
20
1.82290476650204
30
0
41
1
10
34.2526210789817
20
1.79619487294389
30
0
41
1
10
34.2525683180742
20
1.72752539929792
30
0
41
1
10
34.2525408550519
20
1.68530385018022
30
0
41
1
10
34.2524599190236
20
1.54576751651987
30
-1E-16
41
1
10
34.2524050102742
20
1.43474305053593
30
-1E-16
41
1
10
34.2523425131907
20
1.30258849580949
30
-1E-16
0
SPLINE
5
105
100
AcDbEntity
8
SK1
62
256
6
ByLayer
370
18
48
1
60
0
100
AcDbSpline
70
4
71
3
72
8
73
4
40
0
40
0
40
0
40
0
40
1
40
1
40
1
40
1
41
1
10
-35.8509618943233
20
-2.11630379863388
30
0
41
1
10
-35.8173601858109
20
-2.14486751749965
30
0
41
1
10
-35.7837038189759
20
-2.17339358875796
30
0
41
1
10
-35.7499999999999
20
-2.20188697588873
30
0
0
SPLINE
5
106
100
AcDbEntity
8
SK1
62
256
6
ByLayer
370
18
48
1
60
0
100
AcDbSpline
70
4
71
3
72
12
73
8
40
0
40
0
40
0
40
0
40
0.25
40
0.25
40
0.5
40
0.5
40
1
40
1
40
1
40
1
41
1
10
-35.65
20
-1.4700960700871
30
1E-16
41
1
10
-35.65
20
-1.45615024190153
30
1E-16
41
1
10
-35.6543403470552
20
-1.43965784588932
30
1E-16
41
1
10
-35.6670034572333
20
-1.40789567342122
30
1E-16
41
1
10
-35.6754069618006
20
-1.39217440367438
30
1E-16
41
1
10
-35.7033744297258
20
-1.34805461013752
30
1E-16
41
1
10
-35.7260009806425
20
-1.32179434456017
30
1E-16
41
1
10
-35.7500000000001
20
-1.30150544644451
30
1E-16
0
SPLINE
5
107
100
AcDbEntity
8
SK1
62
256
6
ByLayer
370
18
48
1
60
0
100
AcDbSpline
70
4
71
3
72
12
73
8
40
0
40
0
40
0
40
0
40
0.5
40
0.5
40
0.75
40
0.75
40
1
40
1
40
1
40
1
41
1
10
-35.75
20
-2.20188697588884
30
0
41
1
10
-35.7259913046562
20
-2.22218405413457
30
0
41
1
10
-35.7033433879313
20
-2.23863327661283
30
0
41
1
10
-35.6754686754417
20
-2.25378388079932
30
0
41
1
10
-35.667025596347
20
-2.25728962986869
30
0
41
1
10
-35.6543350076412
20
-2.25884857011613
30
0
41
1
10
-35.65
20
-2.25679510254614
30
0
41
1
10
-35.65
20
-2.25042672893869
30
0
0
SPLINE
5
108
100
AcDbEntity
8
SK1
62
256
6
ByLayer
370
18
48
1
60
0
100
AcDbSpline
70
4
71
3
72
8
73
4
40
0
40
0
40
0
40
0
40
1
40
1
40
1
40
1
41
1
10
-35.75
20
-1.30150544644451
30
1E-16
41
1
10
-35.783702057911
20
-1.27301354812738
30
1E-16
41
1
10
-35.8173583452903
20
-1.2444875526221
30
1E-16
41
1
10
-35.8509618943233
20
-1.21592226918975
30
1E-16
0
SPLINE
5
109
100
AcDbEntity
8
SK1
62
256
6
ByLayer
370
18
48
1
60
0
100
AcDbSpline
70
4
71
3
72
10
73
6
40
0
40
0
40
0
40
0
40
0.5
40
0.5
40
1
40
1
40
1
40
1
41
1
10
-35.8509618943233
20
-2.11630379863388
30
0
41
1
10
-35.8741904300927
20
-2.10912258576093
30
0
41
1
10
-35.8986222732874
20
-2.09869959363675
30
0
41
1
10
-35.9485161922248
20
-2.07264433137067
30
0
41
1
10
-35.974056478015
20
-2.05699862639781
30
0
41
1
10
-35.9999999999999
20
-2.039073562705
30
0
0
SPLINE
5
10A
100
AcDbEntity
8
SK1
62
256
6
ByLayer
370
18
48
1
60
0
100
AcDbSpline
70
4
71
3
72
8
73
4
40
0
40
0
40
0
40
0
40
1
40
1
40
1
40
1
41
1
10
-36.0000000000001
20
-0.882902027242835
30
1E-16
41
1
10
-35.9478735570756
20
-0.993642279726913
30
1E-16
41
1
10
-35.897619057052
20
-1.10448178279987
30
1E-16
41
1
10
-35.8509618943233
20
-1.21592226918975
30
1E-16
0
SPLINE
5
10B
100
AcDbEntity
8
1
62
256
6
ByLayer
370
18
48
1
60
0
100
AcDbSpline
70
4
71
2
72
6
73
3
40
0
40
0
40
0
40
1
40
1
40
1
41
1
10
41.5771004490992
20
-0.0008491556227455
30
0
41
1
10
41.5770734316415
20
-0.0008542752716778
30
0
41
1
10
41.577046414208
20
-0.00085949724172
30
0
0
SPLINE
5
10C
100
AcDbEntity
8
1
62
256
6
ByLayer
370
18
48
1
60
0
100
AcDbSpline
70
4
71
2
72
6
73
3
40
0
40
0
40
0
40
1
40
1
40
1
41
1
10
35.9144594057528
20
1.87622372180005
30
0
41
1
10
35.0834590925949
20
1.87769819543448
30
0
41
1
10
34.2527540628681
20
1.87408679532339
30
0
0
SPLINE
5
10D
100
AcDbEntity
8
1
62
256
6
ByLayer
370
18
48
1
60
0
100
AcDbSpline
70
4
71
1
72
4
73
2
40
0
40
0
40
1
40
1
41
1
10
53.3217509206674
20
1.88024490513555
30
0
41
1
10
53.2850542047106
20
1.90501735522904
30
0
0
SPLINE
5
10E
100
AcDbEntity
8
1
62
256
6
ByLayer
370
18
48
1
60
0
100
AcDbSpline
70
4
71
1
72
4
73
2
40
0
40
0
40
1
40
1
41
1
10
53.2850542047106
20
-1.90501735522901
30
0
41
1
10
53.3217509206674
20
-1.88024490513553
30
0
0
SPLINE
5
10F
100
AcDbEntity
8
1
62
256
6
ByLayer
370
18
48
1
60
0
100
AcDbSpline
70
4
71
3
72
10
73
6
40
0
40
0
40
0
40
0
40
0.104686218038055
40
0.507734510972388
40
1
40
1
40
1
40
1
41
1
10
53.0813994852044
20
0.379758063785687
30
0
41
1
10
53.0000861129189
20
0.409336835960431
30
0
41
1
10
52.6062205833634
20
0.554120008579332
30
0
41
1
10
51.8368689091346
20
0.856351958137196
30
-1E-16
41
1
10
51.1527248881578
20
1.13811353814214
30
-1E-16
41
1
10
50.7784838204655
20
1.29789135331427
30
-1E-16
0
SPLINE
5
110
100
AcDbEntity
8
1
62
256
6
ByLayer
370
18
48
1
60
0
100
AcDbSpline
70
4
71
1
72
4
73
2
40
0
40
0
40
1
40
1
41
1
10
53.6102250472721
20
-0.271348619874715
30
0
41
1
10
53.5811071743989
20
-0.265416069139178
30
0
0
SPLINE
5
111
100
AcDbEntity
8
1
62
256
6
ByLayer
370
18
48
1
60
0
100
AcDbSpline
70
4
71
3
72
24
73
20
40
0
40
0
40
0
40
0
40
6.43972193566E-05
40
0.000152483360529
40
0.0002775811038066
40
0.000377571197224
40
0.0009768844390292
40
0.0014564871564959
40
0.0023362000742172
40
0.0039813846630397
40
0.007156231264561
40
0.013582379795877
40
0.0274738619146105
40
0.0600137489667632
40
0.132673110121873
40
0.237954117242338
40
0.431380141381986
40
0.685425789012221
40
1
40
1
40
1
40
1
41
1
10
42.9365229060608
20
-0.0162929558731548
30
0
41
1
10
42.936527322522
20
-0.0162904050325778
30
0
41
1
10
42.9365206651734
20
-0.0162786307105875
30
0
41
1
10
42.9364112404799
20
-0.0162255119158203
30
0
41
1
10
42.9361679528449
20
-0.0161300286449944
30
0
41
1
10
42.9353341641967
20
-0.0158314846979408
30
0
41
1
10
42.9339362261421
20
-0.0153682866500446
30
0
41
1
10
42.9317637910876
20
-0.0146254077209278
30
0
41
1
10
42.9283724111488
20
-0.0134753487051853
30
0
41
1
10
42.9219631365484
20
-0.0112976230016102
30
0
41
1
10
42.9092573283152
20
-0.0069869572338348
30
0
41
1
10
42.8826311768052
20
0.002045723510804
30
0
41
1
10
42.8224602112751
20
0.0226066319595191
30
0
41
1
10
42.6865135157324
20
0.0700740465557601
30
0
41
1
10
42.4455271422236
20
0.155010071438198
30
0
41
1
10
42.0215802468093
20
0.307635575348002
30
0
41
1
10
41.3929205243866
20
0.541738106289927
30
0
41
1
10
40.5314761855529
20
0.878413517629582
30
-1E-16
41
1
10
39.8937022609426
20
1.14217159607105
30
-1E-16
41
1
10
39.5424016417837
20
1.29199011714135
30
-1E-16
0
SPLINE
5
112
100
AcDbEntity
8
1
62
256
6
ByLayer
370
18
48
1
60
0
100
AcDbSpline
70
4
71
3
72
25
73
21
40
0
40
0
40
0
40
0
40
3.10024480236E-05
40
0.0001149699234424
40
0.0001890586022595
40
0.0002564839557004
40
0.0003707952946891
40
0.001172618983315
40
0.0018126459271315
40
0.0029832426654109
40
0.0051619009602534
40
0.009334000896706
40
0.0176826551405389
40
0.0354593403475886
40
0.0763794635586341
40
0.150520189479502
40
0.256157030299161
40
0.44699965452569
40
0.694971590137183
40
1
40
1
40
1
40
1
41
1
10
31.7905879091123
20
-0.0521457737325193
30
0
41
1
10
31.7905888666109
20
-0.0521452172079648
30
0
41
1
10
31.7905859981381
20
-0.052140997277462
30
0
41
1
10
31.7905369596405
20
-0.0521192383293396
30
0
41
1
10
31.790401129436
20
-0.0520681689942251
30
0
41
1
10
31.7901889259217
20
-0.0519919846165919
30
0
41
1
10
31.7891914962782
20
-0.0516455369864843
30
0
41
1
10
31.7872516065701
20
-0.0510030628769016
30
0
41
1
10
31.7842385325232
20
-0.049989345550614
30
0
41
1
10
31.7795483003894
20
-0.0484155856989048
30
0
41
1
10
31.7707590691556
20
-0.0454568276197733
30
0
41
1
10
31.7535339657064
20
-0.0396386425606465
30
0
41
1
10
31.7180354959377
20
-0.0275616160982679
30
0
41
1
10
31.6394217301719
20
-0.0004819919759598
30
0
41
1
10
31.483580570853
20
0.0537715554490603
30
0
41
1
10
31.2245802214136
20
0.144883699117685
30
0
41
1
10
30.7907026081597
20
0.300841819611207
30
0
41
1
10
30.155589762535
20
0.537002248761041
30
0
41
1
10
29.2927343260404
20
0.873917528041858
30
-1E-16
41
1
10
28.6558529408904
20
1.13711650248371
30
-1E-16
41
1
10
28.3059505567437
20
1.28622566703601
30
-1E-16
0
SPLINE
5
113
100
AcDbEntity
8
1
62
256
6
ByLayer
370
18
48
1
60
0
100
AcDbSpline
70
4
71
3
72
21
73
17
40
0
40
0
40
0
40
0
40
3.55683150158E-05
40
0.0001195420160802
40
0.0001963109147687
40
0.0003400940999822
40
0.0005932909315781
40
0.0020877361373114
40
0.0033258886116361
40
0.0056808928487224
40
0.0103455506823122
40
0.0743340149785201
40
0.18142778997769
40
0.391268008134154
40
0.67775505297951
40
1
40
1
40
1
40
1
41
1
10
20.468291607063
20
-0.0272412607707508
30
0
41
1
10
20.4682931216727
20
-0.0272398933065006
30
0
41
1
10
20.4682920397235
20
-0.0272332095302659
30
0
41
1
10
20.4682520393617
20
-0.0272094394737792
30
0
41
1
10
20.4681028948847
20
-0.0271446222296277
30
0
41
1
10
20.4677134649609
20
-0.0269956608891277
30
0
41
1
10
20.4657147527054
20
-0.0262883459423904
30
0
41
1
10
20.4623175121977
20
-0.0251497421388649
30
0
41
1
10
20.4566970090571
20
-0.0232250588850889
30
0
41
1
10
20.4475065662669
20
-0.0200919146112426
30
0
41
1
10
20.36864406175
20
0.0068717413778643
30
0
41
1
10
20.1732259928483
20
0.0743326216120863
30
0
41
1
10
19.7509636620591
20
0.223775408641956
30
0
41
1
10
19.0847260959851
20
0.46861547273582
30
0
41
1
10
18.18637726331
20
0.815716351017983
30
0
41
1
10
17.5238423213499
20
1.08884622421678
30
-1E-16
41
1
10
17.1746128303094
20
1.23751687649869
30
-1E-16
0
SPLINE
5
114
100
AcDbEntity
8
1
62
256
6
ByLayer
370
18
48
1
60
0
100
AcDbSpline
70
4
71
3
72
14
73
10
40
0
40
0
40
0
40
0
40
0.202786175693156
40
0.353112968049899
40
0.492630136191029
40
0.643889652070461
40
0.752593239868658
40
0.842313591860008
40
1
40
1
40
1
40
1
41
1
10
47.1994741135285
20
1.88196893769401
30
0
41
1
10
46.946712532227
20
1.8810361606526
30
0
41
1
10
46.5065757701427
20
1.87987766167515
30
0
41
1
10
45.8925452697261
20
1.88193079822602
30
0
41
1
10
45.3427194524358
20
1.88021926537857
30
0
41
1
10
44.8447794193342
20
1.87993867919749
30
0
41
1
10
44.4089067312752
20
1.88074264482134
30
0
41
1
10
43.9650380975166
20
1.8799056169255
30
0
41
1
10
43.656667527565
20
1.87988293048971
30
0
41
1
10
43.4601262438294
20
1.87981526160135
30
0
0
SPLINE
5
115
100
AcDbEntity
8
1
62
256
6
ByLayer
370
18
48
1
60
0
100
AcDbSpline
70
4
71
3
72
8
73
4
40
0
40
0
40
0
40
0
40
1
40
1
40
1
40
1
41
1
10
42.9558581699461
20
1.87952346287156
30
0
41
1
10
42.9016817752853
20
1.87948275469944
30
0
41
1
10
42.8475054562584
20
1.87944017626879
30
0
41
1
10
42.7933292192891
20
1.87939683712872
30
0
0
SPLINE
5
116
100
AcDbEntity
8
1
62
256
6
ByLayer
370
18
48
1
60
0
100
AcDbSpline
70
4
71
3
72
8
73
4
40
0
40
0
40
0
40
0
40
1
40
1
40
1
40
1
41
1
10
42.5895822856113
20
1.8792324456858
30
0
41
1
10
42.5586735989718
20
1.8792076263731
30
0
41
1
10
42.5277649416629
20
1.87918301219852
30
0
41
1
10
42.4968563148774
20
1.87915880920937
30
0
0
SPLINE
5
117
100
AcDbEntity
8
1
62
256
6
ByLayer
370
18
48
1
60
0
100
AcDbSpline
70
4
71
3
72
13
73
9
40
0
40
0
40
0
40
0
40
0.286116438891636
40
0.513402841092702
40
0.684345414591339
40
0.779274722095808
40
0.870459272369727
40
1
40
1
40
1
40
1
41
1
10
42.4968563148774
20
-1.87915880920937
30
0
41
1
10
42.8421966201668
20
-1.87933538569155
30
0
41
1
10
43.4618719553746
20
-1.8795173578188
30
0
41
1
10
44.2878796755559
20
-1.88093309979243
30
0
41
1
10
44.8831262482468
20
-1.87988441301854
30
0
41
1
10
45.3141011845196
20
-1.88028834610589
30
0
41
1
10
45.6950855087965
20
-1.88139441140331
30
0
41
1
10
45.961483591689
20
-1.88109746690304
30
0
41
1
10
46.1178295464923
20
-1.88096707026014
30
0
0
SPLINE
5
118
100
AcDbEntity
8
1
62
256
6
ByLayer
370
18
48
1
60
0
100
AcDbSpline
70
4
71
2
72
6
73
3
40
0
40
0
40
0
40
1
40
1
40
1
41
1
10
34.2527540628681
20
-1.87408679532339
30
0
41
1
10
34.5763394734897
20
-1.87549354783607
30
0
41
1
10
34.8999696887793
20
-1.87612859811071
30
0
0
LINE
5
84
100
AcDbEntity
8
1
62
256
6
ByLayer
370
18
48
1
60
0
100
AcDbLine
10
34.15
20
1.145029
30
0
11
34.15
21
1.115123
31
0
39
0
210
0
220
0
230
1
0
LINE
5
85
100
AcDbEntity
8
1
62
256
6
ByLayer
370
18
48
1
60
0
100
AcDbLine
10
1.502029
20
1.952639
30
0
11
1.502029
21
0
31
0
39
0
210
0
220
0
230
1
0
LINE
5
86
100
AcDbEntity
8
1
62
256
6
ByLayer
370
18
48
1
60
0
100
AcDbLine
10
1.502029
20
0
30
0
11
1.502029
21
-1.952639
31
0
39
0
210
0
220
0
230
1
0
LINE
5
87
100
AcDbEntity
8
1
62
256
6
ByLayer
370
18
48
1
60
0
100
AcDbLine
10
53.96433
20
0.030812
30
0
11
53.484737
21
0.5602
31
0
39
0
210
0
220
0
230
1
0
LINE
5
88
100
AcDbEntity
8
1
62
256
6
ByLayer
370
18
48
1
60
0
100
AcDbLine
10
0
20
3
30
0
11
0
21
0
31
0
39
0
210
0
220
0
230
1
0
LINE
5
89
100
AcDbEntity
8
1
62
256
6
ByLayer
370
18
48
1
60
0
100
AcDbLine
10
0
20
0
30
0
11
0
21
-3
31
0
39
0
210
0
220
0
230
1
0
LINE
5
8A
100
AcDbEntity
8
1
62
256
6
ByLayer
370
18
48
1
60
0
100
AcDbLine
10
0.750765
20
2.476319
30
0
11
0.750765
21
0
31
0
39
0
210
0
220
0
230
1
0
LINE
5
8B
100
AcDbEntity
8
1
62
256
6
ByLayer
370
18
48
1
60
0
100
AcDbLine
10
0.750765
20
0
30
0
11
0.750765
21
-2.476319
31
0
39
0
210
0
220
0
230
1
0
LINE
5
8C
100
AcDbEntity
8
SK1
62
256
6
ByLayer
370
18
48
1
60
0
100
AcDbLine
10
-35.65
20
-2.250427
30
0
11
-35.65
21
-1.470096
31
0
39
0
210
0
220
0
230
1
0
LINE
5
8E
100
AcDbEntity
8
SK1
62
256
6
ByLayer
370
18
48
1
60
0
100
AcDbLine
10
-35.75
20
-2.201887
30
0
11
-35.75
21
-1.30146
31
0
39
0
210
0
220
0
230
1
0
LINE
5
8F
100
AcDbEntity
8
SK1
62
256
6
ByLayer
370
18
48
1
60
0
100
AcDbLine
10
-35.850962
20
-2.116304
30
0
11
-35.850962
21
-1.215874
31
0
39
0
210
0
220
0
230
1
0
LINE
5
90
100
AcDbEntity
8
SK1
62
256
6
ByLayer
370
18
48
1
60
0
100
AcDbLine
10
-36
20
-2.065
30
0
11
-36
21
-2.039074
31
0
39
0
210
0
220
0
230
1
0
LINE
5
91
100
AcDbEntity
8
SK1
62
256
6
ByLayer
370
18
48
1
60
0
100
AcDbLine
10
-35.065
20
-3
30
0
11
-35.065
21
3
31
0
39
0
210
0
220
0
230
1
0
LINE
5
92
100
AcDbEntity
8
SK1
62
256
6
ByLayer
370
18
48
1
60
0
100
AcDbLine
10
-36
20
-2.039074
30
0
11
-36
21
-0.882884
31
0
39
0
210
0
220
0
230
1
0
LINE
5
93
100
AcDbEntity
8
SK1
62
256
6
ByLayer
370
18
48
1
60
0
100
AcDbLine
10
-36
20
2.065
30
0
11
-36
21
-0.882902
31
0
39
0
210
0
220
0
230
1
0
LINE
5
94
100
AcDbEntity
8
SK1
62
256
6
ByLayer
370
18
48
1
60
0
100
AcDbLine
10
0
20
3
30
0
11
0
21
-3
31
0
39
0
210
0
220
0
230
1
0
LINE
5
95
100
AcDbEntity
8
1
62
256
6
ByLayer
370
18
48
1
60
0
100
AcDbLine
10
52.71556
20
0.059685
30
0
11
52.715498
21
0.061453
31
0
39
0
210
0
220
0
230
1
0
LINE
5
96
100
AcDbEntity
8
1
62
256
6
ByLayer
370
18
48
1
60
0
100
AcDbLine
10
1.502029
20
-1.952639
30
0
11
6.662092
21
-1.955864
31
0
39
0
210
0
220
0
230
1
0
LINE
5
97
100
AcDbEntity
8
1
62
256
6
ByLayer
370
18
48
1
60
0
100
AcDbLine
10
8.152308
20
-1.956795
30
0
11
13.992464
21
-1.960446
31
0
39
0
210
0
220
0
230
1
0
LINE
5
98
100
AcDbEntity
8
1
62
256
6
ByLayer
370
18
48
1
60
0
100
AcDbLine
10
19.432155
20
-1.963845
30
0
11
25.231361
21
-1.96747
31
0
39
0
210
0
220
0
230
1
0
LINE
5
99
100
AcDbEntity
8
1
62
256
6
ByLayer
370
18
48
1
60
0
100
AcDbLine
10
30.67723
20
-1.970874
30
0
11
34.152102
21
-1.973045
31
0
39
0
210
0
220
0
230
1
0
LINE
5
9A
100
AcDbEntity
8
1
62
256
6
ByLayer
370
18
48
1
60
0
100
AcDbLine
10
35.948121
20
-1.974168
30
0
11
36.470137
21
-1.974494
31
0
39
0
210
0
220
0
230
1
0
LINE
5
9B
100
AcDbEntity
8
1
62
256
6
ByLayer
370
18
48
1
60
0
100
AcDbLine
10
41.993234
20
-1.977946
30
0
11
42.498057
21
-1.978262
31
0
39
0
210
0
220
0
230
1
0
LINE
5
9C
100
AcDbEntity
8
1
62
256
6
ByLayer
370
18
48
1
60
0
100
AcDbLine
10
47.202608
20
-1.981202
30
0
11
47.709262
21
-1.981519
31
0
39
0
210
0
220
0
230
1
0
LINE
5
9D
100
AcDbEntity
8
1
62
256
6
ByLayer
370
18
48
1
60
0
100
AcDbLine
10
47.709262
20
1.981519
30
0
11
47.202608
21
1.981202
31
0
39
0
210
0
220
0
230
1
0
LINE
5
9E
100
AcDbEntity
8
1
62
256
6
ByLayer
370
18
48
1
60
0
100
AcDbLine
10
42.498057
20
1.978262
30
0
11
41.993234
21
1.977946
31
0
39
0
210
0
220
0
230
1
0
LINE
5
9F
100
AcDbEntity
8
1
62
256
6
ByLayer
370
18
48
1
60
0
100
AcDbLine
10
36.470137
20
1.974494
30
0
11
35.948121
21
1.974168
31
0
39
0
210
0
220
0
230
1
0
LINE
5
A0
100
AcDbEntity
8
1
62
256
6
ByLayer
370
18
48
1
60
0
100
AcDbLine
10
34.152102
20
1.973045
30
0
11
30.67723
21
1.970874
31
0
39
0
210
0
220
0
230
1
0
LINE
5
A1
100
AcDbEntity
8
1
62
256
6
ByLayer
370
18
48
1
60
0
100
AcDbLine
10
25.231361
20
1.96747
30
0
11
19.432155
21
1.963845
31
0
39
0
210
0
220
0
230
1
0
LINE
5
A2
100
AcDbEntity
8
1
62
256
6
ByLayer
370
18
48
1
60
0
100
AcDbLine
10
13.992464
20
1.960446
30
0
11
8.152308
21
1.956795
31
0
39
0
210
0
220
0
230
1
0
LINE
5
A3
100
AcDbEntity
8
1
62
256
6
ByLayer
370
18
48
1
60
0
100
AcDbLine
10
6.662092
20
1.955864
30
0
11
1.502029
21
1.952639
31
0
39
0
210
0
220
0
230
1
0
LINE
5
A4
100
AcDbEntity
8
SK1
62
256
6
ByLayer
370
18
48
1
60
0
100
AcDbLine
10
-36
20
-2.065
30
0
11
-35.065
21
-3
31
0
39
0
210
0
220
0
230
1
0
LINE
5
A5
100
AcDbEntity
8
SK1
62
256
6
ByLayer
370
18
48
1
60
0
100
AcDbLine
10
-35.065
20
3
30
0
11
-36
21
2.065
31
0
39
0
210
0
220
0
230
1
0
LINE
5
A6
100
AcDbEntity
8
SK1
62
256
6
ByLayer
370
18
48
1
60
0
100
AcDbLine
10
-35.065
20
-3
30
0
11
0
21
-3
31
0
39
0
210
0
220
0
230
1
0
LINE
5
A7
100
AcDbEntity
8
SK1
62
256
6
ByLayer
370
18
48
1
60
0
100
AcDbLine
10
0
20
3
30
0
11
-35.065
21
3
31
0
39
0
210
0
220
0
230
1
0
LINE
5
A8
100
AcDbEntity
8
SK4
62
256
6
ByLayer
370
18
48
0.05
60
0
100
AcDbLine
10
59
20
0
30
0
11
-41
21
0
31
0
39
0
210
0
220
0
230
1
0
LINE
5
AA
100
AcDbEntity
8
4
62
256
6
ByLayer
370
18
48
0.05
60
0
100
AcDbLine
10
-36
20
0
30
0
11
59
21
0
31
0
39
0
210
0
220
0
230
1
0
LINE
5
AC
100
AcDbEntity
8
80
62
256
6
ByLayer
370
18
48
1
60
0
100
AcDbLine
10
0
20
0
30
0
11
-6
21
0
31
0
39
0
210
0
220
0
230
1
0
LINE
5
AD
100
AcDbEntity
8
81
62
256
6
ByLayer
370
18
48
1
60
0
100
AcDbLine
10
54
20
0
30
0
11
60
21
0
31
0
39
0
210
0
220
0
230
1
0
LINE
5
AE
100
AcDbEntity
8
SK2
62
256
6
ByLayer
370
13
48
1
60
0
100
AcDbLine
10
54.54297
20
1.491757
30
0
11
61.926502
21
21.777309
31
0
39
0
210
0
220
0
230
1
0
LINE
5
B0
100
AcDbEntity
8
SK2
62
256
6
ByLayer
370
13
48
1
60
0
100
AcDbLine
10
54.54297
20
-1.491757
30
0
11
61.926502
21
-21.777309
31
0
39
0
210
0
220
0
230
1
0
LINE
5
B1
100
AcDbEntity
8
1
62
256
6
ByLayer
370
13
48
1
60
0
100
AcDbLine
10
60.840562
20
18.793794
30
0
11
63.937146
21
17.977396
31
0
39
0
210
0
220
0
230
1
0
LINE
5
B2
100
AcDbEntity
8
1
62
256
6
ByLayer
370
13
48
1
60
0
100
AcDbLine
10
60.840562
20
18.793794
30
0
11
63.620336
21
17.203758
31
0
39
0
210
0
220
0
230
1
0
LINE
5
B3
100
AcDbEntity
8
1
62
256
6
ByLayer
370
13
48
1
60
0
100
AcDbLine
10
63.937146
20
17.977396
30
0
11
63.620336
21
17.203758
31
0
39
0
210
0
220
0
230
1
0
LINE
5
B4
100
AcDbEntity
8
1
62
256
6
ByLayer
370
13
48
1
60
0
100
AcDbLine
10
60.840562
20
-18.793794
30
0
11
63.620333
21
-17.203759
31
0
39
0
210
0
220
0
230
1
0
LINE
5
B5
100
AcDbEntity
8
1
62
256
6
ByLayer
370
13
48
1
60
0
100
AcDbLine
10
60.840562
20
-18.793794
30
0
11
63.937149
21
-17.977395
31
0
39
0
210
0
220
0
230
1
0
LINE
5
B6
100
AcDbEntity
8
1
62
256
6
ByLayer
370
13
48
1
60
0
100
AcDbLine
10
63.620333
20
-17.203759
30
0
11
63.937149
21
-17.977395
31
0
39
0
210
0
220
0
230
1
0
MTEXT
5
119
100
AcDbEntity
8
SK2
62
256
6
ByLayer
370
18
48
1
60
0
100
AcDbMText
10
67.717388
20
-2.467451
30
0
210
0
220
0
230
1
1
\W0.7237;140.00
40
3.50012
41
0
44
1.084337
50
0
71
7
72
5
7
iso_b_vert
0
MTEXT
5
11C
100
AcDbEntity
8
SK6
62
256
6
ByLayer
370
18
48
1
60
0
100
AcDbMText
10
-30.331725
20
-104.517545
30
0
210
0
220
0
230
1
1
\W0.7454;860.1-0397-032A1-GM X1BM
40
3.175
41
0
44
1.084337
50
0
71
7
72
5
7
iso_b_vert
0
DIMENSION
5
11F
100
AcDbEntity
8
SK2
62
256
6
ByLayer
370
18
48
1
60
0
100
AcDbDimension
2
_U0
10
54
20
-26.50012
30
0
11
27
21
-26.50012
31
0
70
32
71
2
72
1
41
1
210
0
220
0
230
1
3
Standard
100
AcDbAlignedDimension
13
0
23
-3
33
0
14
54
24
0
34
0
50
0
100
AcDbRotatedDimension
1001
ACAD
1000
DSTYLE
1002
{
1070
   371
1070
    13
1070
   372
1070
    13
1070
     3
1000

1070
   170
1070
     0
1070
   144
1040
1.0
1070
   277
1070
     2
1070
   284
1070
     8
1070
   278
1070
    46
1070
   146
1040
0.999966
1070
   345
1005
16
1070
   347
1005
16
1070
   346
1005
16
1070
   344
1005
120
1070
   343
1005
120
1070
   172
1070
     1
1070
    76
1070
     0
1070
    75
1070
     0
1070
   282
1070
     0
1070
   281
1070
     0
1070
    71
1070
     0
1070
    74
1070
     0
1070
   279
1070
     0
1070
   173
1070
     1
1070
   340
1005
11A
1070
   271
1070
     1
1070
   272
1070
     2
1070
    77
1070
     1
1070
    73
1070
     1
1070
   171
1070
     3
1070
   274
1070
     4
1070
   177
1070
   150
1070
   176
1070
     9
1070
   178
1070
    43
1070
    78
1070
     8
1070
    48
1040
-0.1
1070
    41
1040
3.175
1070
   147
1040
1.75006
1070
    42
1040
1.5875
1070
    44
1040
3.175
1070
   140
1040
3.50012
1002
}
1001
ACAD_DSTYLE_DIM_LINETYPE
1070
   380
1005
16
1001
ACAD_DSTYLE_DIM_EXT1_LINETYPE
1070
   381
1005
16
1001
ACAD_DSTYLE_DIM_EXT2_LINETYPE
1070
   382
1005
16
0
DIMENSION
5
145
100
AcDbEntity
8
2
62
256
6
ByLayer
370
18
48
1
60
0
100
AcDbDimension
2
_U1
10
60.75006
20
1.985
30
0
11
60.75006
21
15.141483
31
0
70
32
71
1
72
1
41
1
210
0
220
0
230
1
3
Standard
100
AcDbAlignedDimension
13
53.2775
23
-1.985
33
0
14
53.2775
24
1.985
34
0
50
90
100
AcDbRotatedDimension
1001
ACAD
1000
DSTYLE
1002
{
1070
   371
1070
    13
1070
   372
1070
    13
1070
     3
1000

1070
   170
1070
     0
1070
   144
1040
1.0
1070
   277
1070
     2
1070
   284
1070
     8
1070
   278
1070
    46
1070
   146
1040
0.999966
1070
   345
1005
16
1070
   347
1005
16
1070
   346
1005
16
1070
   344
1005
120
1070
   343
1005
120
1070
   172
1070
     1
1070
    76
1070
     0
1070
    75
1070
     0
1070
   282
1070
     0
1070
   281
1070
     0
1070
    71
1070
     0
1070
    74
1070
     0
1070
   279
1070
     0
1070
   173
1070
     1
1070
   340
1005
11A
1070
   271
1070
     1
1070
   272
1070
     2
1070
    77
1070
     1
1070
    73
1070
     0
1070
   171
1070
     3
1070
   274
1070
     4
1070
   177
1070
   150
1070
   176
1070
     9
1070
   178
1070
    43
1070
    78
1070
     8
1070
    48
1040
-0.1
1070
    41
1040
3.175
1070
   147
1040
1.75006
1070
    42
1040
1.5875
1070
    44
1040
3.175
1070
   140
1040
3.50012
1002
}
1001
ACAD_DSTYLE_DIM_LINETYPE
1070
   380
1005
16
1001
ACAD_DSTYLE_DIM_EXT1_LINETYPE
1070
   381
1005
16
1001
ACAD_DSTYLE_DIM_EXT2_LINETYPE
1070
   382
1005
16
0
DIMENSION
5
164
100
AcDbEntity
8
SK2
62
256
6
ByLayer
370
18
48
1
60
0
100
AcDbDimension
2
_U2
10
-39.24994
20
-3
30
0
11
-39.24994
21
17.10734
31
0
70
32
71
1
72
1
41
1
210
0
220
0
230
1
3
Standard
100
AcDbAlignedDimension
13
-36
23
3
33
0
14
-36
24
-3
34
0
50
90
100
AcDbRotatedDimension
1001
ACAD
1000
DSTYLE
1002
{
1070
   371
1070
    13
1070
   372
1070
    13
1070
     3
1000

1070
   170
1070
     0
1070
   144
1040
1.0
1070
   277
1070
     2
1070
   284
1070
     8
1070
   278
1070
    46
1070
   146
1040
0.999966
1070
   345
1005
16
1070
   347
1005
16
1070
   346
1005
16
1070
   344
1005
120
1070
   343
1005
120
1070
   172
1070
     1
1070
    76
1070
     0
1070
    75
1070
     0
1070
   282
1070
     0
1070
   281
1070
     0
1070
    71
1070
     0
1070
    74
1070
     0
1070
   279
1070
     0
1070
   173
1070
     1
1070
   340
1005
11A
1070
   271
1070
     1
1070
   272
1070
     2
1070
    77
1070
     1
1070
    73
1070
     0
1070
   171
1070
     3
1070
   274
1070
     4
1070
   177
1070
   150
1070
   176
1070
     9
1070
   178
1070
    43
1070
    78
1070
     8
1070
    48
1040
-0.1
1070
    41
1040
3.175
1070
   147
1040
1.75006
1070
    42
1040
1.5875
1070
    44
1040
3.175
1070
   140
1040
3.50012
1002
}
1001
ACAD_DSTYLE_DIM_LINETYPE
1070
   380
1005
16
1001
ACAD_DSTYLE_DIM_EXT1_LINETYPE
1070
   381
1005
16
1001
ACAD_DSTYLE_DIM_EXT2_LINETYPE
1070
   382
1005
16
0
DIMENSION
5
182
100
AcDbEntity
8
SK2
62
256
6
ByLayer
370
18
48
1
60
0
100
AcDbDimension
2
_U3
10
0
20
-26.50012
30
0
11
-18
21
-26.50012
31
0
70
32
71
1
72
1
41
1
210
0
220
0
230
1
3
Standard
100
AcDbAlignedDimension
13
-36
23
-3
33
0
14
0
24
-3
34
0
50
0
100
AcDbRotatedDimension
1001
ACAD
1000
DSTYLE
1002
{
1070
   371
1070
    13
1070
   372
1070
    13
1070
     3
1000

1070
   170
1070
     0
1070
   144
1040
1.0
1070
   277
1070
     2
1070
   284
1070
     8
1070
   278
1070
    46
1070
   146
1040
0.999966
1070
   345
1005
16
1070
   347
1005
16
1070
   346
1005
16
1070
   344
1005
120
1070
   343
1005
120
1070
   172
1070
     1
1070
    76
1070
     0
1070
    75
1070
     0
1070
   282
1070
     0
1070
   281
1070
     0
1070
    71
1070
     0
1070
    74
1070
     0
1070
   279
1070
     0
1070
   173
1070
     1
1070
   340
1005
11A
1070
   271
1070
     1
1070
   272
1070
     2
1070
    77
1070
     1
1070
    73
1070
     1
1070
   171
1070
     3
1070
   274
1070
     4
1070
   177
1070
   150
1070
   176
1070
     9
1070
   178
1070
    43
1070
    78
1070
     8
1070
    48
1040
-0.1
1070
    41
1040
3.175
1070
   147
1040
1.75006
1070
    42
1040
1.5875
1070
    44
1040
3.175
1070
   140
1040
3.50012
1002
}
1001
ACAD_DSTYLE_DIM_LINETYPE
1070
   380
1005
16
1001
ACAD_DSTYLE_DIM_EXT1_LINETYPE
1070
   381
1005
16
1001
ACAD_DSTYLE_DIM_EXT2_LINETYPE
1070
   382
1005
16
0
DIMENSION
5
19E
100
AcDbEntity
8
SK2
62
256
6
ByLayer
370
18
48
1
60
0
100
AcDbDimension
2
_U4
10
54
20
-17.74982
30
0
11
30
21
-17.74982
31
0
70
32
71
1
72
1
41
1
210
0
220
0
230
1
3
Standard
100
AcDbAlignedDimension
13
6
23
2.485
33
0
14
54
24
0
34
0
50
0
100
AcDbRotatedDimension
1001
ACAD
1000
DSTYLE
1002
{
1070
   371
1070
    13
1070
   372
1070
    13
1070
     3
1000

1070
   170
1070
     0
1070
   144
1040
1.0
1070
   277
1070
     2
1070
   284
1070
     8
1070
   278
1070
    46
1070
   146
1040
0.999966
1070
   345
1005
16
1070
   347
1005
16
1070
   346
1005
16
1070
   344
1005
120
1070
   343
1005
120
1070
   172
1070
     1
1070
    76
1070
     0
1070
    75
1070
     0
1070
   282
1070
     0
1070
   281
1070
     0
1070
    71
1070
     0
1070
    74
1070
     0
1070
   279
1070
     0
1070
   173
1070
     1
1070
   340
1005
11A
1070
   271
1070
     1
1070
   272
1070
     2
1070
    77
1070
     1
1070
    73
1070
     1
1070
   171
1070
     3
1070
   274
1070
     4
1070
   177
1070
   150
1070
   176
1070
     9
1070
   178
1070
    43
1070
    78
1070
     8
1070
    48
1040
-0.1
1070
    41
1040
3.175
1070
   147
1040
1.75006
1070
    42
1040
1.5875
1070
    44
1040
3.175
1070
   140
1040
3.50012
1002
}
1001
ACAD_DSTYLE_DIM_LINETYPE
1070
   380
1005
16
1001
ACAD_DSTYLE_DIM_EXT1_LINETYPE
1070
   381
1005
16
1001
ACAD_DSTYLE_DIM_EXT2_LINETYPE
1070
   382
1005
16
0
DIMENSION
5
1BA
100
AcDbEntity
8
SK2
62
256
6
ByLayer
370
18
48
1
60
0
100
AcDbDimension
2
_U5
10
54
20
-9.82
30
0
11
37.8
21
-9.82
31
0
70
32
71
1
72
1
41
1
210
0
220
0
230
1
3
Standard
100
AcDbAlignedDimension
13
21.6
23
-1.985
33
0
14
54
24
0
34
0
50
0
100
AcDbRotatedDimension
1001
ACAD
1000
DSTYLE
1002
{
1070
   371
1070
    13
1070
   372
1070
    13
1070
     3
1000

1070
   170
1070
     0
1070
   144
1040
1.0
1070
   277
1070
     2
1070
   284
1070
     8
1070
   278
1070
    46
1070
   146
1040
1.25
1070
   345
1005
16
1070
   347
1005
16
1070
   346
1005
16
1070
   344
1005
120
1070
   343
1005
120
1070
   172
1070
     1
1070
    76
1070
     0
1070
    75
1070
     0
1070
   282
1070
     0
1070
   281
1070
     0
1070
    71
1070
     0
1070
    74
1070
     0
1070
   279
1070
     0
1070
   173
1070
     1
1070
   340
1005
11A
1070
   271
1070
     1
1070
   272
1070
     2
1070
    77
1070
     1
1070
    73
1070
     1
1070
   171
1070
     3
1070
   274
1070
     4
1070
   177
1070
   150
1070
   176
1070
     9
1070
   178
1070
    43
1070
    78
1070
     8
1070
    48
1040
-0.1
1070
    41
1040
3.175
1070
   147
1040
0.42
1070
    42
1040
1.5875
1070
    44
1040
0.5
1070
   140
1040
2.8
1002
}
1001
ACAD_DSTYLE_DIM_LINETYPE
1070
   380
1005
16
1001
ACAD_DSTYLE_DIM_EXT1_LINETYPE
1070
   381
1005
16
1001
ACAD_DSTYLE_DIM_EXT2_LINETYPE
1070
   382
1005
16
0
DIMENSION
5
1D6
100
AcDbEntity
8
SK2
62
256
6
ByLayer
370
18
48
1
60
0
100
AcDbDimension
2
_U6
10
54
20
-36.50012
30
0
11
9
21
-36.50012
31
0
70
32
71
1
72
1
41
1
210
0
220
0
230
1
3
Standard
100
AcDbAlignedDimension
13
-36
23
0
33
0
14
54
24
0
34
0
50
0
100
AcDbRotatedDimension
1001
ACAD
1000
DSTYLE
1002
{
1070
   371
1070
    13
1070
   372
1070
    13
1070
     3
1000

1070
   170
1070
     0
1070
   144
1040
1.0
1070
   277
1070
     2
1070
   284
1070
     8
1070
   278
1070
    46
1070
   146
1040
0.999966
1070
   345
1005
16
1070
   347
1005
16
1070
   346
1005
16
1070
   344
1005
120
1070
   343
1005
120
1070
   172
1070
     1
1070
    76
1070
     0
1070
    75
1070
     0
1070
   282
1070
     0
1070
   281
1070
     0
1070
    71
1070
     0
1070
    74
1070
     0
1070
   279
1070
     0
1070
   173
1070
     1
1070
   340
1005
11A
1070
   271
1070
     1
1070
   272
1070
     2
1070
    77
1070
     1
1070
    73
1070
     1
1070
   171
1070
     3
1070
   274
1070
     4
1070
   177
1070
   150
1070
   176
1070
     9
1070
   178
1070
    43
1070
    78
1070
     8
1070
    48
1040
-0.1
1070
    41
1040
3.175
1070
   147
1040
1.75006
1070
    42
1040
1.5875
1070
    44
1040
3.175
1070
   140
1040
3.50012
1002
}
1001
ACAD_DSTYLE_DIM_LINETYPE
1070
   380
1005
16
1001
ACAD_DSTYLE_DIM_EXT1_LINETYPE
1070
   381
1005
16
1001
ACAD_DSTYLE_DIM_EXT2_LINETYPE
1070
   382
1005
16
0
ENDSEC
0
SECTION
2
OBJECTS
0
DICTIONARY
5
262
330
0
100
AcDbDictionary
280
0
281
1
3
ACAD_GROUP
350
263
3
ACAD_MLINESTYLE
350
264
0
DICTIONARY
5
263
330
0
100
AcDbDictionary
280
0
281
1
0
DICTIONARY
5
264
330
0
100
AcDbDictionary
280
0
281
1
3
Standard
350
18
0
MLINESTYLE
5
18
330
264
100
AcDbMlineStyle
2
Standard
70
0
3

62
256
51
90
52
90
71
2
49
-0.5
62
256
6
ByLayer
49
0.5
62
256
6
ByLayer
0
RASTERVARIABLES
5
250
330

100
AcDbRasterVariables
90
0
70
1
71
1
72
1
0
ENDSEC
0
EOF
