0
SECTION
2
HEADER
9
$ACADVER
1
AC1015
9
$DWGCODEPAGE
3
ANSI_1252
9
$HANDSEED
5
26f
9
$ANGBASE
50
0
9
$ANGDIR
70
0
9
$ATTMODE
70
1
9
$AUNITS
70
0
9
$AUPREC
70
0
9
$CECOLOR
62
256
9
$CELTSCALE
40
1
9
$CELTYPE
6
ByLayer
9
$CELWEIGHT
370
18
9
$CLAYER
8
0
9
$CMLJUST
70
0
9
$CMLSCALE
40
1
9
$CMLSTYLE
2
Standard
9
$DIMSTYLE
2
Standard
9
$TEXTSIZE
40
0.2
9
$TEXTSTYLE
7
Standard
9
$LUNITS
70
2
9
$LUPREC
70
4
9
$EXTNAMES
290
1
9
$INSUNITS
70
4
9
$LTSCALE
40
1
9
$LWDISPLAY
290
1
9
$PDMODE
70
0
9
$PDSIZE
40
0
9
$PLINEGEN
70
0
0
ENDSEC
0
SECTION
2
CLASSES
0
CLASS
1
RASTERVARIABLES
2
AcDbRasterVariables
3
ISM
90
0
280
0
281
0
0
ENDSEC
0
SECTION
2
TABLES
0
TABLE
2
VPORT
5
265
100
AcDbSymbolTable
0
VPORT
5
1
100
AcDbSymbolTableRecord
100
AcDbViewportTableRecord
2
*Active
70
0
10
0
20
0
11
1
21
1
12
-1
22
1
13
0
23
0
14
0.5
24
0.5
15
10
25
10
16
0
26
0
36
1
17
0
27
0
37
0
0
ENDTAB
0
TABLE
2
LTYPE
5
266
100
AcDbSymbolTable
0
LTYPE
5
14
100
AcDbSymbolTableRecord
100
AcDbLinetypeTableRecord
70
0
2
ByBlock
3

72
65
73
0
40
0
0
LTYPE
5
15
100
AcDbSymbolTableRecord
100
AcDbLinetypeTableRecord
70
0
2
ByLayer
3

72
65
73
0
40
0
0
LTYPE
5
16
100
AcDbSymbolTableRecord
100
AcDbLinetypeTableRecord
70
0
2
Continuous
3
Solid line
72
65
73
0
40
0
0
LTYPE
5
6E
100
AcDbSymbolTableRecord
100
AcDbLinetypeTableRecord
70
0
2
CENTER
3
____ _ ____ _ ____ _ ____
72
65
73
4
40
47.5
49
22
74
0
49
-8.5
74
0
49
8.5
74
0
49
-8.5
74
0
0
LTYPE
5
6F
100
AcDbSymbolTableRecord
100
AcDbLinetypeTableRecord
70
0
2
DASHED
3
__ __ __ __ __ __ __ __ __
72
65
73
2
40
25.72
49
12.86
74
0
49
-12.86
74
0
0
ENDTAB
0
TABLE
2
LAYER
5
267
100
AcDbSymbolTable
0
LAYER
5
10
100
AcDbSymbolTableRecord
100
AcDbLayerTableRecord
2
0
70
0
62
7
6
Continuous
290
1
370
-3
390
0
0
LAYER
5
71
100
AcDbSymbolTableRecord
100
AcDbLayerTableRecord
2
80
70
0
62
-6
6
Continuous
290
1
370
-3
390
0
0
LAYER
5
73
100
AcDbSymbolTableRecord
100
AcDbLayerTableRecord
2
81
70
0
62
-3
6
Continuous
290
1
370
-3
390
0
0
LAYER
5
75
100
AcDbSymbolTableRecord
100
AcDbLayerTableRecord
2
1
70
0
62
4
6
Continuous
290
1
370
-3
390
0
0
LAYER
5
A9
100
AcDbSymbolTableRecord
100
AcDbLayerTableRecord
2
4
70
0
62
-2
6
CENTER
290
1
370
-3
390
0
0
LAYER
5
129
100
AcDbSymbolTableRecord
100
AcDbLayerTableRecord
2
Defpoints
70
0
62
7
6
Continuous
290
0
370
-3
390
0
0
LAYER
5
156
100
AcDbSymbolTableRecord
100
AcDbLayerTableRecord
2
2
70
0
62
7
6
Continuous
290
1
370
-3
390
0
0
LAYER
5
251
100
AcDbSymbolTableRecord
100
AcDbLayerTableRecord
2
SK1
70
0
62
4
6
Continuous
290
1
370
-3
390
0
0
LAYER
5
252
100
AcDbSymbolTableRecord
100
AcDbLayerTableRecord
2
SK4
70
0
62
2
6
CENTER
290
1
370
-3
390
0
0
LAYER
5
253
100
AcDbSymbolTableRecord
100
AcDbLayerTableRecord
2
SK2
70
0
62
7
6
Continuous
290
1
370
-3
390
0
0
LAYER
5
254
100
AcDbSymbolTableRecord
100
AcDbLayerTableRecord
2
SK6
70
0
62
5
6
Continuous
290
1
370
-3
390
0
0
ENDTAB
0
TABLE
2
STYLE
5
268
100
AcDbSymbolTable
0
STYLE
5
11
100
AcDbSymbolTableRecord
100
AcDbTextStyleTableRecord
2
Standard
3
txt
70
0
71
0
40
0
41
1
42
0
50
0
0
STYLE
5
11A
100
AcDbSymbolTableRecord
100
AcDbTextStyleTableRecord
2
iso_b_vert
3
simplex.shx
70
0
71
0
40
0
41
1
42
0
50
0
0
STYLE
5
11B
100
AcDbSymbolTableRecord
100
AcDbTextStyleTableRecord
2
DWGDirectTextStyle
3
simplex
70
0
71
0
40
0
41
1
42
0
50
0
0
ENDTAB
0
TABLE
2
DIMSTYLE
5
269
100
AcDbSymbolTable
100
AcDbDimStyleTable
0
DIMSTYLE
105
27
100
AcDbSymbolTableRecord
100
AcDbDimStyleTableRecord
2
Standard
70
0
3
<>
41
0.18
42
0.0625
44
0.18
140
0.18
147
0.09
73
0
74
0
77
1
271
2
275
0
278
52
280
0
340
11
0
ENDTAB
0
TABLE
2
VIEW
5
26a
100
AcDbSymbolTable
0
ENDTAB
0
TABLE
2
UCS
5
26b
100
AcDbSymbolTable
0
ENDTAB
0
TABLE
2
APPID
5
26c
100
AcDbSymbolTable
0
APPID
5
12
100
AcDbSymbolTableRecord
100
AcDbRegAppTableRecord
2
ACAD
70
0
0
APPID
5
11E
100
AcDbSymbolTableRecord
100
AcDbRegAppTableRecord
2
ACAD_DSTYLE_DIMBREAK
70
0
0
APPID
5
210
100
AcDbSymbolTableRecord
100
AcDbRegAppTableRecord
2
ACAD_DSTYLE_DIM_LINETYPE
70
0
0
APPID
5
211
100
AcDbSymbolTableRecord
100
AcDbRegAppTableRecord
2
ACAD_DSTYLE_DIM_EXT1_LINETYPE
70
0
0
APPID
5
212
100
AcDbSymbolTableRecord
100
AcDbRegAppTableRecord
2
ACAD_DSTYLE_DIM_EXT2_LINETYPE
70
0
0
APPID
5
24D
100
AcDbSymbolTableRecord
100
AcDbRegAppTableRecord
2
ACAD_MLEADERVER
70
0
0
ENDTAB
0
TABLE
2
BLOCK_RECORD
5
26d
100
AcDbSymbolTable
0
BLOCK_RECORD
5
1F
100
AcDbSymbolTableRecord
100
AcDbBlockTableRecord
2
*Model_Space
340
0
70
0
0
BLOCK_RECORD
5
1B
100
AcDbSymbolTableRecord
100
AcDbBlockTableRecord
2
*Paper_Space
340
0
70
0
0
BLOCK_RECORD
5
23
100
AcDbSymbolTableRecord
100
AcDbBlockTableRecord
2
*Paper_Space0
340
0
70
0
0
BLOCK_RECORD
5
120
100
AcDbSymbolTableRecord
100
AcDbBlockTableRecord
2
_Closed
340
0
70
0
0
BLOCK_RECORD
5
12A
100
AcDbSymbolTableRecord
100
AcDbBlockTableRecord
2
*D2
340
0
70
0
0
BLOCK_RECORD
5
136
100
AcDbSymbolTableRecord
100
AcDbBlockTableRecord
2
_U0
340
0
70
0
0
BLOCK_RECORD
5
148
100
AcDbSymbolTableRecord
100
AcDbBlockTableRecord
2
*D4
340
0
70
0
0
BLOCK_RECORD
5
157
100
AcDbSymbolTableRecord
100
AcDbBlockTableRecord
2
_U1
340
0
70
0
0
BLOCK_RECORD
5
167
100
AcDbSymbolTableRecord
100
AcDbBlockTableRecord
2
*D6
340
0
70
0
0
BLOCK_RECORD
5
175
100
AcDbSymbolTableRecord
100
AcDbBlockTableRecord
2
_U2
340
0
70
0
0
BLOCK_RECORD
5
185
100
AcDbSymbolTableRecord
100
AcDbBlockTableRecord
2
*D8
340
0
70
0
0
BLOCK_RECORD
5
191
100
AcDbSymbolTableRecord
100
AcDbBlockTableRecord
2
_U3
340
0
70
0
0
BLOCK_RECORD
5
1A1
100
AcDbSymbolTableRecord
100
AcDbBlockTableRecord
2
*D10
340
0
70
0
0
BLOCK_RECORD
5
1AD
100
AcDbSymbolTableRecord
100
AcDbBlockTableRecord
2
_U4
340
0
70
0
0
BLOCK_RECORD
5
1BD
100
AcDbSymbolTableRecord
100
AcDbBlockTableRecord
2
*D12
340
0
70
0
0
BLOCK_RECORD
5
1C9
100
AcDbSymbolTableRecord
100
AcDbBlockTableRecord
2
_U5
340
0
70
0
0
BLOCK_RECORD
5
1D9
100
AcDbSymbolTableRecord
100
AcDbBlockTableRecord
2
*D14
340
0
70
0
0
BLOCK_RECORD
5
1E5
100
AcDbSymbolTableRecord
100
AcDbBlockTableRecord
2
_U6
340
0
70
0
0
ENDTAB
0
ENDSEC
0
SECTION
2
BLOCKS
0
BLOCK
5
20
100
AcDbEntity
8
0
100
AcDbBlockBegin
2
*Model_Space
70
0
10
0
20
0
30
0
3
*Model_Space
0
ENDBLK
5
21
100
AcDbEntity
8
0
100
AcDbBlockEnd
0
BLOCK
5
1C
100
AcDbEntity
8
0
100
AcDbBlockBegin
2
*Paper_Space
70
0
10
0
20
0
30
0
3
*Paper_Space
0
ENDBLK
5
1D
100
AcDbEntity
8
0
100
AcDbBlockEnd
0
BLOCK
5
24
100
AcDbEntity
8
0
100
AcDbBlockBegin
2
*Paper_Space0
70
0
10
0
20
0
30
0
3
*Paper_Space0
0
ENDBLK
5
25
100
AcDbEntity
8
0
100
AcDbBlockEnd
0
BLOCK
5
121
100
AcDbEntity
8
0
100
AcDbBlockBegin
2
_Closed
70
0
10
0
20
0
30
0
3
_Closed
0
LINE
5
123
100
AcDbEntity
8
0
62
256
6
ByLayer
370
-2
48
1
60
0
100
AcDbLine
10
-1
20
0.166667
30
0
11
0
21
0
31
0
39
0
210
0
220
0
230
1
0
LINE
5
124
100
AcDbEntity
8
0
62
256
6
ByLayer
370
-2
48
1
60
0
100
AcDbLine
10
0
20
0
30
0
11
-1
21
-0.166667
31
0
39
0
210
0
220
0
230
1
0
LINE
5
125
100
AcDbEntity
8
0
62
256
6
ByLayer
370
-2
48
1
60
0
100
AcDbLine
10
-1
20
0.166667
30
0
11
-1
21
-0.166667
31
0
39
0
210
0
220
0
230
1
0
LINE
5
126
100
AcDbEntity
8
0
62
256
6
ByLayer
370
-2
48
1
60
0
100
AcDbLine
10
0
20
0
30
0
11
-1
21
0
31
0
39
0
210
0
220
0
230
1
0
ENDBLK
5
122
100
AcDbEntity
8
0
100
AcDbBlockEnd
0
BLOCK
5
12B
100
AcDbEntity
8
0
100
AcDbBlockBegin
2
*D2
70
1
10
0
20
0
30
0
3
*D2
0
LINE
5
12D
100
AcDbEntity
8
0
62
256
6
ByLayer
370
-2
48
1
60
0
100
AcDbLine
10
0
20
-4.5875
30
0
11
0
21
-29.67512
31
0
39
0
210
0
220
0
230
1
0
LINE
5
12E
100
AcDbEntity
8
0
62
256
6
ByLayer
370
-2
48
1
60
0
100
AcDbLine
10
43
20
-1.5875
30
0
11
43
21
-29.67512
31
0
39
0
210
0
220
0
230
1
0
LINE
5
12F
100
AcDbEntity
8
0
62
256
6
ByLayer
370
-2
48
1
60
0
100
AcDbLine
10
3.175
20
-26.50012
30
0
11
39.825
21
-26.50012
31
0
39
0
210
0
220
0
230
1
0
SOLID
5
130
100
AcDbEntity
8
0
62
256
6
ByLayer
370
-1
48
1
60
0
100
AcDbTrace
10
3.175
20
-25.970953
30
0
11
3.175
21
-27.029287
31
0
12
0
22
-26.50012
32
0
13
0
23
-26.50012
33
0
39
0
210
0
220
0
230
1
0
SOLID
5
131
100
AcDbEntity
8
0
62
256
6
ByLayer
370
-1
48
1
60
0
100
AcDbTrace
10
39.825
20
-27.029287
30
0
11
39.825
21
-25.970953
31
0
12
43
22
-26.50012
32
0
13
43
23
-26.50012
33
0
39
0
210
0
220
0
230
1
0
MTEXT
5
132
100
AcDbEntity
8
0
62
256
6
ByLayer
370
18
48
1
60
0
100
AcDbMText
10
21.5
20
-19.193619
30
0
210
0
220
0
230
1
1
\A1;43
40
3.50012
41
0
44
1
50
0
71
5
72
5
7
iso_b_vert
0
POINT
5
133
100
AcDbEntity
8
Defpoints
62
0
6
ByLayer
370
-1
48
1
60
0
100
AcDbPoint
10
0
20
-3
30
0
39
0
210
0
220
0
230
1
50
360
0
POINT
5
134
100
AcDbEntity
8
Defpoints
62
0
6
ByLayer
370
-1
48
1
60
0
100
AcDbPoint
10
43
20
0
30
0
39
0
210
0
220
0
230
1
50
360
0
POINT
5
135
100
AcDbEntity
8
Defpoints
62
0
6
ByLayer
370
-1
48
1
60
0
100
AcDbPoint
10
43
20
-26.50012
30
0
39
0
210
0
220
0
230
1
50
360
0
ENDBLK
5
12C
100
AcDbEntity
8
0
100
AcDbBlockEnd
0
BLOCK
5
143
100
AcDbEntity
8
0
100
AcDbBlockBegin
2
_U0
70
0
10
0
20
0
30
0
3
_U0
0
MTEXT
5
137
100
AcDbEntity
8
SK2
62
256
6
ByLayer
370
18
48
1
60
0
100
AcDbMText
10
16.086116
20
-25.467451
30
0
210
0
220
0
230
1
1
\W0.7694;43.00
40
3.50012
41
0
44
1.084337
50
0
71
7
72
5
7
iso_b_vert
0
MTEXT
5
138
100
AcDbEntity
8
SK2
62
256
6
ByLayer
370
18
48
1
60
0
100
AcDbMText
10
12.560056
20
-25.400814
30
0
210
0
220
0
230
1
1
\W0.1790;(
40
3.175
41
0
44
1.084337
50
0
71
7
72
5
7
iso_b_vert
0
MTEXT
5
139
100
AcDbEntity
8
SK2
62
256
6
ByLayer
370
18
48
1
60
0
100
AcDbMText
10
30.442666
20
-25.400814
30
0
210
0
220
0
230
1
1
\W0.1969;)
40
3.175
41
0
44
1.084337
50
0
71
7
72
5
7
iso_b_vert
0
LINE
5
13A
100
AcDbEntity
8
SK2
62
256
6
ByLayer
370
13
48
1
60
0
100
AcDbLine
10
0
20
-4.5875
30
0
11
0
21
-29.67512
31
0
39
0
210
0
220
0
230
1
0
LINE
5
13B
100
AcDbEntity
8
SK2
62
256
6
ByLayer
370
13
48
1
60
0
100
AcDbLine
10
43
20
-1.5875
30
0
11
43
21
-29.67512
31
0
39
0
210
0
220
0
230
1
0
LINE
5
13C
100
AcDbEntity
8
SK2
62
256
6
ByLayer
370
13
48
1
60
0
100
AcDbLine
10
0
20
-26.50012
30
0
11
43
21
-26.50012
31
0
39
0
210
0
220
0
230
1
0
LINE
5
13D
100
AcDbEntity
8
SK2
62
256
6
ByLayer
370
13
48
1
60
0
100
AcDbLine
10
0
20
-26.50012
30
0
11
3.174998
21
-26.082123
31
0
39
0
210
0
220
0
230
1
0
LINE
5
13E
100
AcDbEntity
8
SK2
62
256
6
ByLayer
370
13
48
1
60
0
100
AcDbLine
10
0
20
-26.50012
30
0
11
3.175002
21
-26.918117
31
0
39
0
210
0
220
0
230
1
0
LINE
5
13F
100
AcDbEntity
8
SK2
62
256
6
ByLayer
370
13
48
1
60
0
100
AcDbLine
10
3.174998
20
-26.082123
30
0
11
3.175002
21
-26.918117
31
0
39
0
210
0
220
0
230
1
0
LINE
5
140
100
AcDbEntity
8
SK2
62
256
6
ByLayer
370
13
48
1
60
0
100
AcDbLine
10
43
20
-26.50012
30
0
11
39.825002
21
-26.918117
31
0
39
0
210
0
220
0
230
1
0
LINE
5
141
100
AcDbEntity
8
SK2
62
256
6
ByLayer
370
13
48
1
60
0
100
AcDbLine
10
43
20
-26.50012
30
0
11
39.824998
21
-26.082123
31
0
39
0
210
0
220
0
230
1
0
LINE
5
142
100
AcDbEntity
8
SK2
62
256
6
ByLayer
370
13
48
1
60
0
100
AcDbLine
10
39.825002
20
-26.918117
30
0
11
39.824998
21
-26.082123
31
0
39
0
210
0
220
0
230
1
0
ENDBLK
5
144
100
AcDbEntity
8
0
100
AcDbBlockEnd
0
BLOCK
5
149
100
AcDbEntity
8
0
100
AcDbBlockBegin
2
*D4
70
1
10
0
20
0
30
0
3
*D4
0
LINE
5
14B
100
AcDbEntity
8
0
62
256
6
ByLayer
370
-2
48
1
60
0
100
AcDbLine
10
43.9688
20
-1.7
30
0
11
52.92506
21
-1.7
31
0
39
0
210
0
220
0
230
1
0
LINE
5
14C
100
AcDbEntity
8
0
62
256
6
ByLayer
370
-2
48
1
60
0
100
AcDbLine
10
43.9688
20
1.7
30
0
11
52.92506
21
1.7
31
0
39
0
210
0
220
0
230
1
0
LINE
5
14D
100
AcDbEntity
8
0
62
256
6
ByLayer
370
-2
48
1
60
0
100
AcDbLine
10
49.75006
20
1.7
30
0
11
49.75006
21
26.663138
31
0
39
0
210
0
220
0
230
1
0
LINE
5
14E
100
AcDbEntity
8
0
62
256
6
ByLayer
370
-2
48
1
60
0
100
AcDbLine
10
49.75006
20
-4.875
30
0
11
49.75006
21
-8.05
31
0
39
0
210
0
220
0
230
1
0
LINE
5
14F
100
AcDbEntity
8
0
62
256
6
ByLayer
370
-2
48
1
60
0
100
AcDbLine
10
49.75006
20
4.875
30
0
11
49.75006
21
8.05
31
0
39
0
210
0
220
0
230
1
0
SOLID
5
150
100
AcDbEntity
8
0
62
256
6
ByLayer
370
-1
48
1
60
0
100
AcDbTrace
10
50.279227
20
-4.875
30
0
11
49.220893
21
-4.875
31
0
12
49.75006
22
-1.7
32
0
13
49.75006
23
-1.7
33
0
39
0
210
0
220
0
230
1
0
SOLID
5
151
100
AcDbEntity
8
0
62
256
6
ByLayer
370
-1
48
1
60
0
100
AcDbTrace
10
49.220893
20
4.875
30
0
11
50.279227
21
4.875
31
0
12
49.75006
22
1.7
32
0
13
49.75006
23
1.7
33
0
39
0
210
0
220
0
230
1
0
MTEXT
5
152
100
AcDbEntity
8
0
62
256
6
ByLayer
370
18
48
1
60
0
100
AcDbMText
10
42.443559
20
17.356569
30
0
210
0
220
0
230
1
1
\A1;3.4
40
3.50012
41
0
44
1
50
90
71
5
72
5
7
iso_b_vert
0
POINT
5
153
100
AcDbEntity
8
Defpoints
62
0
6
ByLayer
370
-1
48
1
60
0
100
AcDbPoint
10
42.3813
20
-1.7
30
0
39
0
210
0
220
0
230
1
50
360
0
POINT
5
154
100
AcDbEntity
8
Defpoints
62
0
6
ByLayer
370
-1
48
1
60
0
100
AcDbPoint
10
42.3813
20
1.7
30
0
39
0
210
0
220
0
230
1
50
360
0
POINT
5
155
100
AcDbEntity
8
Defpoints
62
0
6
ByLayer
370
-1
48
1
60
0
100
AcDbPoint
10
49.75006
20
1.7
30
0
39
0
210
0
220
0
230
1
50
360
0
ENDBLK
5
14A
100
AcDbEntity
8
0
100
AcDbBlockEnd
0
BLOCK
5
162
100
AcDbEntity
8
0
100
AcDbBlockBegin
2
_U1
70
0
10
0
20
0
30
0
3
_U1
0
MTEXT
5
158
100
AcDbEntity
8
2
62
256
6
ByLayer
370
18
48
1
60
0
100
AcDbMText
10
49.060403
20
5.857505
30
0
210
0
220
0
230
1
1
\W0.7640;3.40
40
3.50012
41
0
44
1.084337
50
90
71
7
72
5
7
iso_b_vert
0
LINE
5
159
100
AcDbEntity
8
2
62
256
6
ByLayer
370
13
48
1
60
0
100
AcDbLine
10
43.9688
20
-1.7
30
0
11
52.92506
21
-1.7
31
0
39
0
210
0
220
0
230
1
0
LINE
5
15A
100
AcDbEntity
8
2
62
256
6
ByLayer
370
13
48
1
60
0
100
AcDbLine
10
43.9688
20
1.7
30
0
11
52.92506
21
1.7
31
0
39
0
210
0
220
0
230
1
0
LINE
5
15B
100
AcDbEntity
8
2
62
256
6
ByLayer
370
13
48
1
60
0
100
AcDbLine
10
49.75006
20
14.283226
30
0
11
49.75006
21
-10.4503
31
0
39
0
210
0
220
0
230
1
0
LINE
5
15C
100
AcDbEntity
8
2
62
256
6
ByLayer
370
13
48
1
60
0
100
AcDbLine
10
49.75006
20
-1.7
30
0
11
50.168057
21
-4.874998
31
0
39
0
210
0
220
0
230
1
0
LINE
5
15D
100
AcDbEntity
8
2
62
256
6
ByLayer
370
13
48
1
60
0
100
AcDbLine
10
49.75006
20
-1.7
30
0
11
49.332063
21
-4.875002
31
0
39
0
210
0
220
0
230
1
0
LINE
5
15E
100
AcDbEntity
8
2
62
256
6
ByLayer
370
13
48
1
60
0
100
AcDbLine
10
50.168057
20
-4.874998
30
0
11
49.332063
21
-4.875002
31
0
39
0
210
0
220
0
230
1
0
LINE
5
15F
100
AcDbEntity
8
2
62
256
6
ByLayer
370
13
48
1
60
0
100
AcDbLine
10
49.75006
20
1.7
30
0
11
49.332063
21
4.874998
31
0
39
0
210
0
220
0
230
1
0
LINE
5
160
100
AcDbEntity
8
2
62
256
6
ByLayer
370
13
48
1
60
0
100
AcDbLine
10
49.75006
20
1.7
30
0
11
50.168057
21
4.875002
31
0
39
0
210
0
220
0
230
1
0
LINE
5
161
100
AcDbEntity
8
2
62
256
6
ByLayer
370
13
48
1
60
0
100
AcDbLine
10
49.332063
20
4.874998
30
0
11
50.168057
21
4.875002
31
0
39
0
210
0
220
0
230
1
0
ENDBLK
5
163
100
AcDbEntity
8
0
100
AcDbBlockEnd
0
BLOCK
5
168
100
AcDbEntity
8
0
100
AcDbBlockBegin
2
*D6
70
1
10
0
20
0
30
0
3
*D6
0
LINE
5
16A
100
AcDbEntity
8
0
62
256
6
ByLayer
370
-2
48
1
60
0
100
AcDbLine
10
-37.5875
20
3
30
0
11
-42.42494
21
3
31
0
39
0
210
0
220
0
230
1
0
LINE
5
16B
100
AcDbEntity
8
0
62
256
6
ByLayer
370
-2
48
1
60
0
100
AcDbLine
10
-37.5875
20
-3
30
0
11
-42.42494
21
-3
31
0
39
0
210
0
220
0
230
1
0
LINE
5
16C
100
AcDbEntity
8
0
62
256
6
ByLayer
370
-2
48
1
60
0
100
AcDbLine
10
-39.24994
20
3
30
0
11
-39.24994
21
23.747151
31
0
39
0
210
0
220
0
230
1
0
LINE
5
16D
100
AcDbEntity
8
0
62
256
6
ByLayer
370
-2
48
1
60
0
100
AcDbLine
10
-39.24994
20
6.175
30
0
11
-39.24994
21
9.35
31
0
39
0
210
0
220
0
230
1
0
LINE
5
16E
100
AcDbEntity
8
0
62
256
6
ByLayer
370
-2
48
1
60
0
100
AcDbLine
10
-39.24994
20
-6.175
30
0
11
-39.24994
21
-9.35
31
0
39
0
210
0
220
0
230
1
0
SOLID
5
16F
100
AcDbEntity
8
0
62
256
6
ByLayer
370
-1
48
1
60
0
100
AcDbTrace
10
-39.779107
20
6.175
30
0
11
-38.720773
21
6.175
31
0
12
-39.24994
22
3
32
0
13
-39.24994
23
3
33
0
39
0
210
0
220
0
230
1
0
SOLID
5
170
100
AcDbEntity
8
0
62
256
6
ByLayer
370
-1
48
1
60
0
100
AcDbTrace
10
-38.720773
20
-6.175
30
0
11
-39.779107
21
-6.175
31
0
12
-39.24994
22
-3
32
0
13
-39.24994
23
-3
33
0
39
0
210
0
220
0
230
1
0
MTEXT
5
171
100
AcDbEntity
8
0
62
256
6
ByLayer
370
18
48
1
60
0
100
AcDbMText
10
-46.556441
20
17.10734
30
0
210
0
220
0
230
1
1
\A1;6
40
3.50012
41
0
44
1
50
90
71
5
72
5
7
iso_b_vert
0
POINT
5
172
100
AcDbEntity
8
Defpoints
62
0
6
ByLayer
370
-1
48
1
60
0
100
AcDbPoint
10
-36
20
3
30
0
39
0
210
0
220
0
230
1
50
360
0
POINT
5
173
100
AcDbEntity
8
Defpoints
62
0
6
ByLayer
370
-1
48
1
60
0
100
AcDbPoint
10
-36
20
-3
30
0
39
0
210
0
220
0
230
1
50
360
0
POINT
5
174
100
AcDbEntity
8
Defpoints
62
0
6
ByLayer
370
-1
48
1
60
0
100
AcDbPoint
10
-39.24994
20
-3
30
0
39
0
210
0
220
0
230
1
50
360
0
ENDBLK
5
169
100
AcDbEntity
8
0
100
AcDbBlockEnd
0
BLOCK
5
180
100
AcDbEntity
8
0
100
AcDbBlockBegin
2
_U2
70
0
10
0
20
0
30
0
3
_U2
0
MTEXT
5
176
100
AcDbEntity
8
SK2
62
256
6
ByLayer
370
18
48
1
60
0
100
AcDbMText
10
-39.939597
20
13.157505
30
0
210
0
220
0
230
1
1
\W0.7346;6.00
40
3.50012
41
0
44
1.084337
50
90
71
7
72
5
7
iso_b_vert
0
LINE
5
177
100
AcDbEntity
8
SK2
62
256
6
ByLayer
370
13
48
1
60
0
100
AcDbLine
10
-37.5875
20
3
30
0
11
-42.42494
21
3
31
0
39
0
210
0
220
0
230
1
0
LINE
5
178
100
AcDbEntity
8
SK2
62
256
6
ByLayer
370
13
48
1
60
0
100
AcDbLine
10
-37.5875
20
-3
30
0
11
-42.42494
21
-3
31
0
39
0
210
0
220
0
230
1
0
LINE
5
179
100
AcDbEntity
8
SK2
62
256
6
ByLayer
370
13
48
1
60
0
100
AcDbLine
10
-39.24994
20
-11.7503
30
0
11
-39.24994
21
21.21468
31
0
39
0
210
0
220
0
230
1
0
LINE
5
17A
100
AcDbEntity
8
SK2
62
256
6
ByLayer
370
13
48
1
60
0
100
AcDbLine
10
-39.24994
20
3
30
0
11
-39.667937
21
6.174998
31
0
39
0
210
0
220
0
230
1
0
LINE
5
17B
100
AcDbEntity
8
SK2
62
256
6
ByLayer
370
13
48
1
60
0
100
AcDbLine
10
-39.24994
20
3
30
0
11
-38.831943
21
6.175002
31
0
39
0
210
0
220
0
230
1
0
LINE
5
17C
100
AcDbEntity
8
SK2
62
256
6
ByLayer
370
13
48
1
60
0
100
AcDbLine
10
-39.667937
20
6.174998
30
0
11
-38.831943
21
6.175002
31
0
39
0
210
0
220
0
230
1
0
LINE
5
17D
100
AcDbEntity
8
SK2
62
256
6
ByLayer
370
13
48
1
60
0
100
AcDbLine
10
-39.24994
20
-3
30
0
11
-38.831943
21
-6.174998
31
0
39
0
210
0
220
0
230
1
0
LINE
5
17E
100
AcDbEntity
8
SK2
62
256
6
ByLayer
370
13
48
1
60
0
100
AcDbLine
10
-39.24994
20
-3
30
0
11
-39.667937
21
-6.175002
31
0
39
0
210
0
220
0
230
1
0
LINE
5
17F
100
AcDbEntity
8
SK2
62
256
6
ByLayer
370
13
48
1
60
0
100
AcDbLine
10
-38.831943
20
-6.174998
30
0
11
-39.667937
21
-6.175002
31
0
39
0
210
0
220
0
230
1
0
ENDBLK
5
181
100
AcDbEntity
8
0
100
AcDbBlockEnd
0
BLOCK
5
186
100
AcDbEntity
8
0
100
AcDbBlockBegin
2
*D8
70
1
10
0
20
0
30
0
3
*D8
0
LINE
5
188
100
AcDbEntity
8
0
62
256
6
ByLayer
370
-2
48
1
60
0
100
AcDbLine
10
-36
20
-4.5875
30
0
11
-36
21
-29.67512
31
0
39
0
210
0
220
0
230
1
0
LINE
5
189
100
AcDbEntity
8
0
62
256
6
ByLayer
370
-2
48
1
60
0
100
AcDbLine
10
0
20
-4.5875
30
0
11
0
21
-29.67512
31
0
39
0
210
0
220
0
230
1
0
LINE
5
18A
100
AcDbEntity
8
0
62
256
6
ByLayer
370
-2
48
1
60
0
100
AcDbLine
10
-32.825
20
-26.50012
30
0
11
-3.175
21
-26.50012
31
0
39
0
210
0
220
0
230
1
0
SOLID
5
18B
100
AcDbEntity
8
0
62
256
6
ByLayer
370
-1
48
1
60
0
100
AcDbTrace
10
-32.825
20
-25.970953
30
0
11
-32.825
21
-27.029287
31
0
12
-36
22
-26.50012
32
0
13
-36
23
-26.50012
33
0
39
0
210
0
220
0
230
1
0
SOLID
5
18C
100
AcDbEntity
8
0
62
256
6
ByLayer
370
-1
48
1
60
0
100
AcDbTrace
10
-3.175
20
-27.029287
30
0
11
-3.175
21
-25.970953
31
0
12
0
22
-26.50012
32
0
13
0
23
-26.50012
33
0
39
0
210
0
220
0
230
1
0
MTEXT
5
18D
100
AcDbEntity
8
0
62
256
6
ByLayer
370
18
48
1
60
0
100
AcDbMText
10
-18
20
-19.193619
30
0
210
0
220
0
230
1
1
\A1;36
40
3.50012
41
0
44
1
50
0
71
5
72
5
7
iso_b_vert
0
POINT
5
18E
100
AcDbEntity
8
Defpoints
62
0
6
ByLayer
370
-1
48
1
60
0
100
AcDbPoint
10
-36
20
-3
30
0
39
0
210
0
220
0
230
1
50
360
0
POINT
5
18F
100
AcDbEntity
8
Defpoints
62
0
6
ByLayer
370
-1
48
1
60
0
100
AcDbPoint
10
0
20
-3
30
0
39
0
210
0
220
0
230
1
50
360
0
POINT
5
190
100
AcDbEntity
8
Defpoints
62
0
6
ByLayer
370
-1
48
1
60
0
100
AcDbPoint
10
0
20
-26.50012
30
0
39
0
210
0
220
0
230
1
50
360
0
ENDBLK
5
187
100
AcDbEntity
8
0
100
AcDbBlockEnd
0
BLOCK
5
19C
100
AcDbEntity
8
0
100
AcDbBlockBegin
2
_U3
70
0
10
0
20
0
30
0
3
_U3
0
MTEXT
5
192
100
AcDbEntity
8
SK2
62
256
6
ByLayer
370
18
48
1
60
0
100
AcDbMText
10
-23.229611
20
-25.467451
30
0
210
0
220
0
230
1
1
\W0.7468;36.00
40
3.50012
41
0
44
1.084337
50
0
71
7
72
5
7
iso_b_vert
0
LINE
5
193
100
AcDbEntity
8
SK2
62
256
6
ByLayer
370
13
48
1
60
0
100
AcDbLine
10
-36
20
-4.5875
30
0
11
-36
21
-29.67512
31
0
39
0
210
0
220
0
230
1
0
LINE
5
194
100
AcDbEntity
8
SK2
62
256
6
ByLayer
370
13
48
1
60
0
100
AcDbLine
10
0
20
-4.5875
30
0
11
0
21
-29.67512
31
0
39
0
210
0
220
0
230
1
0
LINE
5
195
100
AcDbEntity
8
SK2
62
256
6
ByLayer
370
13
48
1
60
0
100
AcDbLine
10
-36
20
-26.50012
30
0
11
0
21
-26.50012
31
0
39
0
210
0
220
0
230
1
0
LINE
5
196
100
AcDbEntity
8
SK2
62
256
6
ByLayer
370
13
48
1
60
0
100
AcDbLine
10
-36
20
-26.50012
30
0
11
-32.825002
21
-26.082123
31
0
39
0
210
0
220
0
230
1
0
LINE
5
197
100
AcDbEntity
8
SK2
62
256
6
ByLayer
370
13
48
1
60
0
100
AcDbLine
10
-36
20
-26.50012
30
0
11
-32.824998
21
-26.918117
31
0
39
0
210
0
220
0
230
1
0
LINE
5
198
100
AcDbEntity
8
SK2
62
256
6
ByLayer
370
13
48
1
60
0
100
AcDbLine
10
-32.825002
20
-26.082123
30
0
11
-32.824998
21
-26.918117
31
0
39
0
210
0
220
0
230
1
0
LINE
5
199
100
AcDbEntity
8
SK2
62
256
6
ByLayer
370
13
48
1
60
0
100
AcDbLine
10
0
20
-26.50012
30
0
11
-3.174998
21
-26.918117
31
0
39
0
210
0
220
0
230
1
0
LINE
5
19A
100
AcDbEntity
8
SK2
62
256
6
ByLayer
370
13
48
1
60
0
100
AcDbLine
10
0
20
-26.50012
30
0
11
-3.175002
21
-26.082123
31
0
39
0
210
0
220
0
230
1
0
LINE
5
19B
100
AcDbEntity
8
SK2
62
256
6
ByLayer
370
13
48
1
60
0
100
AcDbLine
10
-3.174998
20
-26.918117
30
0
11
-3.175002
21
-26.082123
31
0
39
0
210
0
220
0
230
1
0
ENDBLK
5
19D
100
AcDbEntity
8
0
100
AcDbBlockEnd
0
BLOCK
5
1A2
100
AcDbEntity
8
0
100
AcDbBlockBegin
2
*D10
70
1
10
0
20
0
30
0
3
*D10
0
LINE
5
1A4
100
AcDbEntity
8
0
62
256
6
ByLayer
370
-2
48
1
60
0
100
AcDbLine
10
6
20
0.6125
30
0
11
6
21
-20.92482
31
0
39
0
210
0
220
0
230
1
0
LINE
5
1A5
100
AcDbEntity
8
0
62
256
6
ByLayer
370
-2
48
1
60
0
100
AcDbLine
10
43
20
-1.5875
30
0
11
43
21
-20.92482
31
0
39
0
210
0
220
0
230
1
0
LINE
5
1A6
100
AcDbEntity
8
0
62
256
6
ByLayer
370
-2
48
1
60
0
100
AcDbLine
10
9.175
20
-17.74982
30
0
11
39.825
21
-17.74982
31
0
39
0
210
0
220
0
230
1
0
SOLID
5
1A7
100
AcDbEntity
8
0
62
256
6
ByLayer
370
-1
48
1
60
0
100
AcDbTrace
10
9.175
20
-17.220653
30
0
11
9.175
21
-18.278987
31
0
12
6
22
-17.74982
32
0
13
6
23
-17.74982
33
0
39
0
210
0
220
0
230
1
0
SOLID
5
1A8
100
AcDbEntity
8
0
62
256
6
ByLayer
370
-1
48
1
60
0
100
AcDbTrace
10
39.825
20
-18.278987
30
0
11
39.825
21
-17.220653
31
0
12
43
22
-17.74982
32
0
13
43
23
-17.74982
33
0
39
0
210
0
220
0
230
1
0
MTEXT
5
1A9
100
AcDbEntity
8
0
62
256
6
ByLayer
370
18
48
1
60
0
100
AcDbMText
10
24.5
20
-10.443319
30
0
210
0
220
0
230
1
1
\A1;37
40
3.50012
41
0
44
1
50
0
71
5
72
5
7
iso_b_vert
0
POINT
5
1AA
100
AcDbEntity
8
Defpoints
62
0
6
ByLayer
370
-1
48
1
60
0
100
AcDbPoint
10
6
20
2.2
30
0
39
0
210
0
220
0
230
1
50
360
0
POINT
5
1AB
100
AcDbEntity
8
Defpoints
62
0
6
ByLayer
370
-1
48
1
60
0
100
AcDbPoint
10
43
20
0
30
0
39
0
210
0
220
0
230
1
50
360
0
POINT
5
1AC
100
AcDbEntity
8
Defpoints
62
0
6
ByLayer
370
-1
48
1
60
0
100
AcDbPoint
10
43
20
-17.74982
30
0
39
0
210
0
220
0
230
1
50
360
0
ENDBLK
5
1A3
100
AcDbEntity
8
0
100
AcDbBlockEnd
0
BLOCK
5
1B8
100
AcDbEntity
8
0
100
AcDbBlockBegin
2
_U4
70
0
10
0
20
0
30
0
3
_U4
0
MTEXT
5
1AE
100
AcDbEntity
8
SK2
62
256
6
ByLayer
370
18
48
1
60
0
100
AcDbMText
10
19.270389
20
-16.717151
30
0
210
0
220
0
230
1
1
\W0.7468;37.00
40
3.50012
41
0
44
1.084337
50
0
71
7
72
5
7
iso_b_vert
0
LINE
5
1AF
100
AcDbEntity
8
SK2
62
256
6
ByLayer
370
13
48
1
60
0
100
AcDbLine
10
6
20
0.6125
30
0
11
6
21
-20.92482
31
0
39
0
210
0
220
0
230
1
0
LINE
5
1B0
100
AcDbEntity
8
SK2
62
256
6
ByLayer
370
13
48
1
60
0
100
AcDbLine
10
43
20
-1.5875
30
0
11
43
21
-20.92482
31
0
39
0
210
0
220
0
230
1
0
LINE
5
1B1
100
AcDbEntity
8
SK2
62
256
6
ByLayer
370
13
48
1
60
0
100
AcDbLine
10
6
20
-17.74982
30
0
11
43
21
-17.74982
31
0
39
0
210
0
220
0
230
1
0
LINE
5
1B2
100
AcDbEntity
8
SK2
62
256
6
ByLayer
370
13
48
1
60
0
100
AcDbLine
10
6
20
-17.74982
30
0
11
9.174998
21
-17.331823
31
0
39
0
210
0
220
0
230
1
0
LINE
5
1B3
100
AcDbEntity
8
SK2
62
256
6
ByLayer
370
13
48
1
60
0
100
AcDbLine
10
6
20
-17.74982
30
0
11
9.175002
21
-18.167817
31
0
39
0
210
0
220
0
230
1
0
LINE
5
1B4
100
AcDbEntity
8
SK2
62
256
6
ByLayer
370
13
48
1
60
0
100
AcDbLine
10
9.174998
20
-17.331823
30
0
11
9.175002
21
-18.167817
31
0
39
0
210
0
220
0
230
1
0
LINE
5
1B5
100
AcDbEntity
8
SK2
62
256
6
ByLayer
370
13
48
1
60
0
100
AcDbLine
10
43
20
-17.74982
30
0
11
39.825002
21
-18.167817
31
0
39
0
210
0
220
0
230
1
0
LINE
5
1B6
100
AcDbEntity
8
SK2
62
256
6
ByLayer
370
13
48
1
60
0
100
AcDbLine
10
43
20
-17.74982
30
0
11
39.824998
21
-17.331823
31
0
39
0
210
0
220
0
230
1
0
LINE
5
1B7
100
AcDbEntity
8
SK2
62
256
6
ByLayer
370
13
48
1
60
0
100
AcDbLine
10
39.825002
20
-18.167817
30
0
11
39.824998
21
-17.331823
31
0
39
0
210
0
220
0
230
1
0
ENDBLK
5
1B9
100
AcDbEntity
8
0
100
AcDbBlockEnd
0
BLOCK
5
1BE
100
AcDbEntity
8
0
100
AcDbBlockBegin
2
*D12
70
1
10
0
20
0
30
0
3
*D12
0
LINE
5
1C0
100
AcDbEntity
8
0
62
256
6
ByLayer
370
-2
48
1
60
0
100
AcDbLine
10
15.2
20
-3.2875
30
0
11
15.2
21
-10.32
31
0
39
0
210
0
220
0
230
1
0
LINE
5
1C1
100
AcDbEntity
8
0
62
256
6
ByLayer
370
-2
48
1
60
0
100
AcDbLine
10
43
20
-1.5875
30
0
11
43
21
-10.32
31
0
39
0
210
0
220
0
230
1
0
LINE
5
1C2
100
AcDbEntity
8
0
62
256
6
ByLayer
370
-2
48
1
60
0
100
AcDbLine
10
18.375
20
-9.82
30
0
11
39.825
21
-9.82
31
0
39
0
210
0
220
0
230
1
0
SOLID
5
1C3
100
AcDbEntity
8
0
62
256
6
ByLayer
370
-1
48
1
60
0
100
AcDbTrace
10
18.375
20
-9.290833
30
0
11
18.375
21
-10.349167
31
0
12
15.2
22
-9.82
32
0
13
15.2
23
-9.82
33
0
39
0
210
0
220
0
230
1
0
SOLID
5
1C4
100
AcDbEntity
8
0
62
256
6
ByLayer
370
-1
48
1
60
0
100
AcDbTrace
10
39.825
20
-10.349167
30
0
11
39.825
21
-9.290833
31
0
12
43
22
-9.82
32
0
13
43
23
-9.82
33
0
39
0
210
0
220
0
230
1
0
MTEXT
5
1C5
100
AcDbEntity
8
0
62
256
6
ByLayer
370
18
48
1
60
0
100
AcDbMText
10
29.1
20
-3.975
30
0
210
0
220
0
230
1
1
\A1;27.8
40
2.8
41
0
44
1
50
0
71
5
72
5
7
iso_b_vert
0
POINT
5
1C6
100
AcDbEntity
8
Defpoints
62
0
6
ByLayer
370
-1
48
1
60
0
100
AcDbPoint
10
15.2
20
-1.7
30
0
39
0
210
0
220
0
230
1
50
360
0
POINT
5
1C7
100
AcDbEntity
8
Defpoints
62
0
6
ByLayer
370
-1
48
1
60
0
100
AcDbPoint
10
43
20
0
30
0
39
0
210
0
220
0
230
1
50
360
0
POINT
5
1C8
100
AcDbEntity
8
Defpoints
62
0
6
ByLayer
370
-1
48
1
60
0
100
AcDbPoint
10
43
20
-9.82
30
0
39
0
210
0
220
0
230
1
50
360
0
ENDBLK
5
1BF
100
AcDbEntity
8
0
100
AcDbBlockEnd
0
BLOCK
5
1D4
100
AcDbEntity
8
0
100
AcDbBlockBegin
2
_U5
70
0
10
0
20
0
30
0
3
_U5
0
MTEXT
5
1CA
100
AcDbEntity
8
SK2
62
256
6
ByLayer
370
18
48
1
60
0
100
AcDbMText
10
24.916454
20
-9.973893
30
0
210
0
220
0
230
1
1
\W0.7468;27.80
40
2.8
41
0
44
1.084337
50
0
71
7
72
5
7
iso_b_vert
0
LINE
5
1CB
100
AcDbEntity
8
SK2
62
256
6
ByLayer
370
13
48
1
60
0
100
AcDbLine
10
15.2
20
-3.2875
30
0
11
15.2
21
-10.32
31
0
39
0
210
0
220
0
230
1
0
LINE
5
1CC
100
AcDbEntity
8
SK2
62
256
6
ByLayer
370
13
48
1
60
0
100
AcDbLine
10
43
20
-1.5875
30
0
11
43
21
-10.32
31
0
39
0
210
0
220
0
230
1
0
LINE
5
1CD
100
AcDbEntity
8
SK2
62
256
6
ByLayer
370
13
48
1
60
0
100
AcDbLine
10
15.2
20
-9.82
30
0
11
43
21
-9.82
31
0
39
0
210
0
220
0
230
1
0
LINE
5
1CE
100
AcDbEntity
8
SK2
62
256
6
ByLayer
370
13
48
1
60
0
100
AcDbLine
10
15.2
20
-9.82
30
0
11
18.374998
21
-9.402003
31
0
39
0
210
0
220
0
230
1
0
LINE
5
1CF
100
AcDbEntity
8
SK2
62
256
6
ByLayer
370
13
48
1
60
0
100
AcDbLine
10
15.2
20
-9.82
30
0
11
18.375002
21
-10.237997
31
0
39
0
210
0
220
0
230
1
0
LINE
5
1D0
100
AcDbEntity
8
SK2
62
256
6
ByLayer
370
13
48
1
60
0
100
AcDbLine
10
18.374998
20
-9.402003
30
0
11
18.375002
21
-10.237997
31
0
39
0
210
0
220
0
230
1
0
LINE
5
1D1
100
AcDbEntity
8
SK2
62
256
6
ByLayer
370
13
48
1
60
0
100
AcDbLine
10
43
20
-9.82
30
0
11
39.825002
21
-10.237997
31
0
39
0
210
0
220
0
230
1
0
LINE
5
1D2
100
AcDbEntity
8
SK2
62
256
6
ByLayer
370
13
48
1
60
0
100
AcDbLine
10
43
20
-9.82
30
0
11
39.824998
21
-9.402003
31
0
39
0
210
0
220
0
230
1
0
LINE
5
1D3
100
AcDbEntity
8
SK2
62
256
6
ByLayer
370
13
48
1
60
0
100
AcDbLine
10
39.825002
20
-10.237997
30
0
11
39.824998
21
-9.402003
31
0
39
0
210
0
220
0
230
1
0
ENDBLK
5
1D5
100
AcDbEntity
8
0
100
AcDbBlockEnd
0
BLOCK
5
1DA
100
AcDbEntity
8
0
100
AcDbBlockBegin
2
*D14
70
1
10
0
20
0
30
0
3
*D14
0
LINE
5
1DC
100
AcDbEntity
8
0
62
256
6
ByLayer
370
-2
48
1
60
0
100
AcDbLine
10
-36
20
-1.5875
30
0
11
-36
21
-39.67512
31
0
39
0
210
0
220
0
230
1
0
LINE
5
1DD
100
AcDbEntity
8
0
62
256
6
ByLayer
370
-2
48
1
60
0
100
AcDbLine
10
43
20
-1.5875
30
0
11
43
21
-39.67512
31
0
39
0
210
0
220
0
230
1
0
LINE
5
1DE
100
AcDbEntity
8
0
62
256
6
ByLayer
370
-2
48
1
60
0
100
AcDbLine
10
-32.825
20
-36.50012
30
0
11
39.825
21
-36.50012
31
0
39
0
210
0
220
0
230
1
0
SOLID
5
1DF
100
AcDbEntity
8
0
62
256
6
ByLayer
370
-1
48
1
60
0
100
AcDbTrace
10
-32.825
20
-35.970953
30
0
11
-32.825
21
-37.029287
31
0
12
-36
22
-36.50012
32
0
13
-36
23
-36.50012
33
0
39
0
210
0
220
0
230
1
0
SOLID
5
1E0
100
AcDbEntity
8
0
62
256
6
ByLayer
370
-1
48
1
60
0
100
AcDbTrace
10
39.825
20
-37.029287
30
0
11
39.825
21
-35.970953
31
0
12
43
22
-36.50012
32
0
13
43
23
-36.50012
33
0
39
0
210
0
220
0
230
1
0
MTEXT
5
1E1
100
AcDbEntity
8
0
62
256
6
ByLayer
370
18
48
1
60
0
100
AcDbMText
10
3.5
20
-29.19362
30
0
210
0
220
0
230
1
1
\A1;79
40
3.50012
41
0
44
1
50
0
71
5
72
5
7
iso_b_vert
0
POINT
5
1E2
100
AcDbEntity
8
Defpoints
62
0
6
ByLayer
370
-1
48
1
60
0
100
AcDbPoint
10
-36
20
0
30
0
39
0
210
0
220
0
230
1
50
360
0
POINT
5
1E3
100
AcDbEntity
8
Defpoints
62
0
6
ByLayer
370
-1
48
1
60
0
100
AcDbPoint
10
43
20
0
30
0
39
0
210
0
220
0
230
1
50
360
0
POINT
5
1E4
100
AcDbEntity
8
Defpoints
62
0
6
ByLayer
370
-1
48
1
60
0
100
AcDbPoint
10
43
20
-36.50012
30
0
39
0
210
0
220
0
230
1
50
360
0
ENDBLK
5
1DB
100
AcDbEntity
8
0
100
AcDbBlockEnd
0
BLOCK
5
1F0
100
AcDbEntity
8
0
100
AcDbBlockBegin
2
_U6
70
0
10
0
20
0
30
0
3
_U6
0
MTEXT
5
1E6
100
AcDbEntity
8
SK2
62
256
6
ByLayer
370
18
48
1
60
0
100
AcDbMText
10
-1.729611
20
-35.467451
30
0
210
0
220
0
230
1
1
\W0.7468;79.00
40
3.50012
41
0
44
1.084337
50
0
71
7
72
5
7
iso_b_vert
0
LINE
5
1E7
100
AcDbEntity
8
SK2
62
256
6
ByLayer
370
13
48
1
60
0
100
AcDbLine
10
-36
20
-1.5875
30
0
11
-36
21
-39.67512
31
0
39
0
210
0
220
0
230
1
0
LINE
5
1E8
100
AcDbEntity
8
SK2
62
256
6
ByLayer
370
13
48
1
60
0
100
AcDbLine
10
43
20
-1.5875
30
0
11
43
21
-39.67512
31
0
39
0
210
0
220
0
230
1
0
LINE
5
1E9
100
AcDbEntity
8
SK2
62
256
6
ByLayer
370
13
48
1
60
0
100
AcDbLine
10
-36
20
-36.50012
30
0
11
43
21
-36.50012
31
0
39
0
210
0
220
0
230
1
0
LINE
5
1EA
100
AcDbEntity
8
SK2
62
256
6
ByLayer
370
13
48
1
60
0
100
AcDbLine
10
-36
20
-36.50012
30
0
11
-32.825002
21
-36.082123
31
0
39
0
210
0
220
0
230
1
0
LINE
5
1EB
100
AcDbEntity
8
SK2
62
256
6
ByLayer
370
13
48
1
60
0
100
AcDbLine
10
-36
20
-36.50012
30
0
11
-32.824998
21
-36.918117
31
0
39
0
210
0
220
0
230
1
0
LINE
5
1EC
100
AcDbEntity
8
SK2
62
256
6
ByLayer
370
13
48
1
60
0
100
AcDbLine
10
-32.825002
20
-36.082123
30
0
11
-32.824998
21
-36.918117
31
0
39
0
210
0
220
0
230
1
0
LINE
5
1ED
100
AcDbEntity
8
SK2
62
256
6
ByLayer
370
13
48
1
60
0
100
AcDbLine
10
43
20
-36.50012
30
0
11
39.825002
21
-36.918117
31
0
39
0
210
0
220
0
230
1
0
LINE
5
1EE
100
AcDbEntity
8
SK2
62
256
6
ByLayer
370
13
48
1
60
0
100
AcDbLine
10
43
20
-36.50012
30
0
11
39.824998
21
-36.082123
31
0
39
0
210
0
220
0
230
1
0
LINE
5
1EF
100
AcDbEntity
8
SK2
62
256
6
ByLayer
370
13
48
1
60
0
100
AcDbLine
10
39.825002
20
-36.918117
30
0
11
39.824998
21
-36.082123
31
0
39
0
210
0
220
0
230
1
0
ENDBLK
5
1F1
100
AcDbEntity
8
0
100
AcDbBlockEnd
0
ENDSEC
0
SECTION
2
ENTITIES
0
ARC
5
B5
100
AcDbEntity
8
1
62
256
6
ByLayer
370
18
48
1
60
0
100
AcDbCircle
39
0
10
1.576278
20
2.474496
30
0
40
0.800000000000001
210
0
220
0
230
1
100
AcDbArc
50
189.878524
51
270.03581
0
ARC
5
B6
100
AcDbEntity
8
1
62
256
6
ByLayer
370
18
48
1
60
0
100
AcDbCircle
39
0
10
1.576278
20
-2.474496
30
0
40
0.800000000000001
210
0
220
0
230
1
100
AcDbArc
50
89.96419
51
170.121476
0
ARC
5
B7
100
AcDbEntity
8
1
62
256
6
ByLayer
370
18
48
1
60
0
100
AcDbCircle
39
0
10
0
20
2.2
30
0
40
0.800000000000003
210
0
220
0
230
1
100
AcDbArc
50
9.878524
51
90
0
ARC
5
B8
100
AcDbEntity
8
1
62
256
6
ByLayer
370
18
48
1
60
0
100
AcDbCircle
39
0
10
0
20
-2.2
30
0
40
0.800000000000003
210
0
220
0
230
1
100
AcDbArc
50
270
51
350.121476
0
ARC
5
B9
100
AcDbEntity
8
SK2
62
256
6
ByLayer
370
13
48
1
60
0
100
AcDbCircle
39
0
10
43
20
0
30
0
40
20
210
0
220
0
230
1
100
AcDbArc
50
9.606349
51
70.00147
0
ARC
5
BA
100
AcDbEntity
8
SK2
62
256
6
ByLayer
370
13
48
1
60
0
100
AcDbCircle
39
0
10
43
20
0
30
0
40
20
210
0
220
0
230
1
100
AcDbArc
50
289.99853
51
350.393651
0
ELLIPSE
5
BB
100
AcDbEntity
8
1
62
256
6
ByLayer
370
18
48
1
60
0
100
AcDbEllipse
10
26.102043
20
1.705296
30
0
11
0.1
21
0
31
0
210
0
220
0
230
1
40
1
41
-3.14010747448134
42
-1.56623347914893
0
ELLIPSE
5
BC
100
AcDbEntity
8
1
62
256
6
ByLayer
370
18
48
1
60
0
100
AcDbEllipse
10
26.102043
20
-1.705296
30
0
11
0.1
21
0
31
0
210
0
220
0
230
1
40
1
41
1.60165730705856
42
3.14010747448242
0
POINT
5
70
100
AcDbEntity
8
80
62
256
6
ByLayer
370
18
48
1
60
0
100
AcDbPoint
10
0
20
0
30
0
39
0
210
0
220
0
230
1
50
360
0
POINT
5
72
100
AcDbEntity
8
81
62
256
6
ByLayer
370
18
48
1
60
0
100
AcDbPoint
10
43
20
0
30
0
39
0
210
0
220
0
230
1
50
360
0
POINT
5
74
100
AcDbEntity
8
1
62
256
6
ByLayer
370
18
48
1
60
0
100
AcDbPoint
10
-36
20
0
30
0
39
0
210
0
220
0
230
1
50
360
0
POINT
5
76
100
AcDbEntity
8
1
62
256
6
ByLayer
370
18
48
1
60
1
100
AcDbPoint
10
0
20
-3
30
0
39
0
210
0
220
0
230
1
50
360
0
POINT
5
77
100
AcDbEntity
8
1
62
256
6
ByLayer
370
18
48
1
60
1
100
AcDbPoint
10
43
20
0
30
0
39
0
210
0
220
0
230
1
50
360
0
POINT
5
78
100
AcDbEntity
8
1
62
256
6
ByLayer
370
18
48
1
60
1
100
AcDbPoint
10
42.3813
20
-1.7
30
0
39
0
210
0
220
0
230
1
50
360
0
POINT
5
79
100
AcDbEntity
8
1
62
256
6
ByLayer
370
18
48
1
60
1
100
AcDbPoint
10
42.3813
20
1.7
30
0
39
0
210
0
220
0
230
1
50
360
0
POINT
5
7A
100
AcDbEntity
8
1
62
256
6
ByLayer
370
18
48
1
60
1
100
AcDbPoint
10
-36
20
3
30
0
39
0
210
0
220
0
230
1
50
360
0
POINT
5
7B
100
AcDbEntity
8
1
62
256
6
ByLayer
370
18
48
1
60
1
100
AcDbPoint
10
-36
20
-3
30
0
39
0
210
0
220
0
230
1
50
360
0
POINT
5
7C
100
AcDbEntity
8
1
62
256
6
ByLayer
370
18
48
1
60
1
100
AcDbPoint
10
-36
20
-3
30
0
39
0
210
0
220
0
230
1
50
360
0
POINT
5
7D
100
AcDbEntity
8
1
62
256
6
ByLayer
370
18
48
1
60
1
100
AcDbPoint
10
0
20
-3
30
0
39
0
210
0
220
0
230
1
50
360
0
POINT
5
7E
100
AcDbEntity
8
1
62
256
6
ByLayer
370
18
48
1
60
1
100
AcDbPoint
10
6
20
2.2
30
0
39
0
210
0
220
0
230
1
50
360
0
POINT
5
7F
100
AcDbEntity
8
1
62
256
6
ByLayer
370
18
48
1
60
1
100
AcDbPoint
10
43
20
0
30
0
39
0
210
0
220
0
230
1
50
360
0
POINT
5
80
100
AcDbEntity
8
1
62
256
6
ByLayer
370
18
48
1
60
1
100
AcDbPoint
10
15.2
20
-1.7
30
0
39
0
210
0
220
0
230
1
50
360
0
POINT
5
81
100
AcDbEntity
8
1
62
256
6
ByLayer
370
18
48
1
60
1
100
AcDbPoint
10
43
20
0
30
0
39
0
210
0
220
0
230
1
50
360
0
POINT
5
82
100
AcDbEntity
8
1
62
256
6
ByLayer
370
18
48
1
60
1
100
AcDbPoint
10
-36
20
0
30
0
39
0
210
0
220
0
230
1
50
360
0
POINT
5
83
100
AcDbEntity
8
1
62
256
6
ByLayer
370
18
48
1
60
1
100
AcDbPoint
10
43
20
0
30
0
39
0
210
0
220
0
230
1
50
360
0
SPLINE
5
BD
100
AcDbEntity
8
SK1
62
256
6
ByLayer
370
18
48
1
60
0
100
AcDbSpline
70
4
71
3
72
8
73
4
40
0
40
0
40
0
40
0
40
1
40
1
40
1
40
1
41
1
10
-35.8509618943233
20
2.03291057784605
30
0
41
1
10
-35.8173578020377
20
2.06855827209043
30
0
41
1
10
-35.7837011578548
20
2.10415673521766
30
0
41
1
10
-35.7499999999999
20
2.13971132504452
30
0
0
SPLINE
5
BE
100
AcDbEntity
8
SK1
62
256
6
ByLayer
370
18
48
1
60
0
100
AcDbSpline
70
4
71
3
72
12
73
8
40
0
40
0
40
0
40
0
40
0.499999999999998
40
0.499999999999998
40
0.749999999999999
40
0.749999999999999
40
1
40
1
40
1
40
1
41
1
10
-35.75
20
2.13971132504457
30
0
41
1
10
-35.7259913046562
20
2.16504040480209
30
0
41
1
10
-35.7033433879313
20
2.19222840504281
30
0
41
1
10
-35.6754686754417
20
2.23058918705914
30
0
41
1
10
-35.667025596347
20
2.24324888738767
30
0
41
1
10
-35.6543350076412
20
2.26563173155634
30
0
41
1
10
-35.65
20
2.27560212776584
30
0
41
1
10
-35.65
20
2.28135987139308
30
0
0
SPLINE
5
BF
100
AcDbEntity
8
SK1
62
256
6
ByLayer
370
18
48
1
60
0
100
AcDbSpline
70
4
71
3
72
12
73
8
40
0
40
0
40
0
40
0
40
0.25
40
0.25
40
0.5
40
0.5
40
1
40
1
40
1
40
1
41
1
10
-35.65
20
-2.3615457515393
30
0
41
1
10
-35.65
20
-2.35786787042778
30
0
41
1
10
-35.6543403470551
20
-2.34980311164986
30
0
41
1
10
-35.6670034572333
20
-2.33056919275626
30
0
41
1
10
-35.6754069618006
20
-2.31921764178736
30
0
41
1
10
-35.7033744297257
20
-2.28369463975463
30
0
41
1
10
-35.7260009806424
20
-2.25755236607404
30
0
41
1
10
-35.7500000000001
20
-2.23223349444405
30
0
0
SPLINE
5
C0
100
AcDbEntity
8
SK1
62
256
6
ByLayer
370
18
48
1
60
0
100
AcDbSpline
70
4
71
3
72
8
73
4
40
0
40
0
40
0
40
0
40
1
40
1
40
1
40
1
41
1
10
-36.0000000000001
20
1.88259570892896
30
0
41
1
10
-35.9478735570756
20
1.97032595551897
30
0
41
1
10
-35.897619057052
20
2.05188295656484
30
0
41
1
10
-35.8509618943233
20
2.12543274724555
30
0
0
SPLINE
5
C1
100
AcDbEntity
8
SK1
62
256
6
ByLayer
370
18
48
1
60
0
100
AcDbSpline
70
4
71
3
72
12
73
8
40
0
40
0
40
0
40
0
40
0.249999999999999
40
0.249999999999999
40
0.499999999999998
40
0.499999999999998
40
1
40
1
40
1
40
1
41
1
10
-35.65
20
2.3615457515393
30
0
41
1
10
-35.65
20
2.35786787042778
30
0
41
1
10
-35.6543403470552
20
2.34980311164986
30
0
41
1
10
-35.6670034572333
20
2.33056919275623
30
0
41
1
10
-35.6754069618006
20
2.31921764178733
30
0
41
1
10
-35.7033744297257
20
2.28369463975457
30
0
41
1
10
-35.7260009806425
20
2.25755236607395
30
0
41
1
10
-35.7500000000001
20
2.23223349444405
30
0
0
SPLINE
5
C2
100
AcDbEntity
8
SK1
62
256
6
ByLayer
370
18
48
1
60
0
100
AcDbSpline
70
4
71
3
72
8
73
4
40
0
40
0
40
0
40
0
40
1
40
1
40
1
40
1
41
1
10
-35.75
20
2.23223349444396
30
0
41
1
10
-35.7837026106533
20
2.19667737192046
30
0
41
1
10
-35.8173589230135
20
2.16107925234297
30
0
41
1
10
-35.8509618943233
20
2.12543274724555
30
0
0
SPLINE
5
C3
100
AcDbEntity
8
SK1
62
256
6
ByLayer
370
18
48
1
60
0
100
AcDbSpline
70
4
71
3
72
10
73
6
40
0
40
0
40
0
40
0
40
0.5
40
0.5
40
1
40
1
40
1
40
1
41
1
10
-35.8509618943233
20
2.03291057784605
30
0
41
1
10
-35.8741904300927
20
1.99133013341364
30
0
41
1
10
-35.8986222732874
20
1.94753357775551
30
0
41
1
10
-35.9485161922248
20
1.85757452900307
30
1E-16
41
1
10
-35.974056478015
20
1.81127419909703
30
-1E-16
41
1
10
-35.9999999999999
20
1.7637888529905
30
-1E-16
0
SPLINE
5
C4
100
AcDbEntity
8
SK1
62
256
6
ByLayer
370
18
48
1
60
0
100
AcDbSpline
70
4
71
3
72
8
73
4
40
0
40
0
40
0
40
0
40
1
40
1
40
1
40
1
41
1
10
-35.75
20
-2.23223349444396
30
0
41
1
10
-35.7837026106533
20
-2.19667737192046
30
0
41
1
10
-35.8173589230135
20
-2.16107925234297
30
0
41
1
10
-35.8509618943233
20
-2.12543274724555
30
0
0
SPLINE
5
C5
100
AcDbEntity
8
SK1
62
256
6
ByLayer
370
18
48
1
60
0
100
AcDbSpline
70
4
71
3
72
8
73
4
40
0
40
0
40
0
40
0
40
1
40
1
40
1
40
1
41
1
10
-36.0000000000001
20
-1.88259570892896
30
0
41
1
10
-35.9478735570755
20
-1.970325955519
30
0
41
1
10
-35.897619057052
20
-2.05188295656484
30
0
41
1
10
-35.8509618943233
20
-2.12543274724555
30
0
0
SPLINE
5
C6
100
AcDbEntity
8
1
62
256
6
ByLayer
370
18
48
1
60
0
100
AcDbSpline
70
4
71
3
72
16
73
12
40
0
40
0
40
0
40
0
40
0.125041228316122
40
0.125041228316122
40
0.340718140995962
40
0.340718140995962
40
0.772071966355644
40
0.772071966355644
40
0.987748879035484
40
0.987748879035484
40
1
40
1
40
1
40
1
41
1
10
26.1028325434958
20
-1.18183812858214
30
1E-16
41
1
10
26.1028217542729
20
-1.21554394375067
30
1E-16
41
1
10
26.1028105093004
20
-1.24749545616575
30
1E-16
41
1
10
26.1027792330849
20
-1.32908875296644
30
0
41
1
10
26.1027587390141
20
-1.37490540390027
30
0
41
1
10
26.1026961244466
20
-1.49512564003811
30
0
41
1
10
26.1026526977151
20
-1.55237887117801
30
0
41
1
10
26.1025876490187
20
-1.59624582499424
30
0
41
1
10
26.1025659829378
20
-1.60403853916333
30
0
41
1
10
26.1025423744957
20
-1.60522110055263
30
0
41
1
10
26.1025411029252
20
-1.6052628780985
30
0
41
1
10
26.1025398286387
20
-1.60528285121765
30
0
0
SPLINE
5
C7
100
AcDbEntity
8
1
62
256
6
ByLayer
370
18
48
1
60
0
100
AcDbSpline
70
4
71
3
72
8
73
4
40
0
40
0
40
0
40
0
40
1
40
1
40
1
40
1
41
1
10
42.4258072309975
20
1.59478738325578
30
0
41
1
10
42.4104753260344
20
1.60650564438583
30
0
41
1
10
42.3991336558506
20
1.60832634077354
30
0
41
1
10
42.3905014601108
20
1.60072936640705
30
0
0
SPLINE
5
C8
100
AcDbEntity
8
1
62
256
6
ByLayer
370
18
48
1
60
0
100
AcDbSpline
70
4
71
3
72
8
73
4
40
0
40
0
40
0
40
0
40
1
40
1
40
1
40
1
41
1
10
42.8506555424597
20
-0.544448168388101
30
0
41
1
10
42.9008624096643
20
-0.403642230183209
30
0
41
1
10
42.9498249304531
20
-0.262389769560968
30
0
41
1
10
42.9975255939004
20
-0.120684502884529
30
0
0
SPLINE
5
C9
100
AcDbEntity
8
1
62
256
6
ByLayer
370
18
48
1
60
0
100
AcDbSpline
70
4
71
3
72
8
73
4
40
0
40
0
40
0
40
0
40
1
40
1
40
1
40
1
41
1
10
42.9975255938956
20
0.120684502898769
30
0
41
1
10
42.9882252175447
20
0.0892336873880311
30
0
41
1
10
42.9788671504987
20
0.0578015030878589
30
0
41
1
10
42.9694516637027
20
0.0263878624964775
30
0
0
SPLINE
5
CA
100
AcDbEntity
8
1
62
256
6
ByLayer
370
18
48
1
60
0
100
AcDbSpline
70
4
71
3
72
26
73
22
40
0
40
0
40
0
40
0
40
0.0399687515439731
40
0.0399687515439731
40
0.0904967119890271
40
0.0904967119890271
40
0.191552632879134
40
0.191552632879134
40
0.292608553769242
40
0.292608553769242
40
0.393664474659349
40
0.393664474659349
40
0.494720395549457
40
0.494720395549457
40
0.595776316439564
40
0.595776316439564
40
0.696832237329671
40
0.696832237329671
40
0.797888158219779
40
0.797888158219779
40
1
40
1
40
1
40
1
41
1
10
37.2379135697118
20
1.61661343660873
30
0
41
1
10
37.3045714753408
20
1.61957291485126
30
0
41
1
10
37.371401383465
20
1.62113075655026
30
0
41
1
10
37.522045372873
20
1.62170961791813
30
0
41
1
10
37.6058825916488
20
1.61997406840794
30
0
41
1
10
37.8566258782218
20
1.60942170902246
30
0
41
1
10
38.0227511047844
20
1.59533949747586
30
0
41
1
10
38.3557436502288
20
1.54819563108376
30
0
41
1
10
38.522485541408
20
1.51601875672557
30
0
41
1
10
38.8559302368359
20
1.43834652065425
30
0
41
1
10
39.0223977469022
20
1.39302660433657
30
0
41
1
10
39.3588921809584
20
1.28568382775845
30
0
41
1
10
39.5278206091525
20
1.22451626829135
30
-1E-16
41
1
10
39.8642835722977
20
1.09086301577423
30
-1E-16
41
1
10
40.032370240255
20
1.01823589812457
30
-1E-16
41
1
10
40.3690054657429
20
0.863005792781422
30
-1E-16
41
1
10
40.5374147809056
20
0.780405805313478
30
0
41
1
10
40.8712685123563
20
0.609523233305993
30
0
41
1
10
41.0373015893141
20
0.521010158536512
30
0
41
1
10
41.5345361908728
20
0.249664636607349
30
0
41
1
10
41.8647598718353
20
0.0608644433000904
30
0
41
1
10
42.1980151374285
20
-0.127841006599056
30
0
0
SPLINE
5
CB
100
AcDbEntity
8
1
62
256
6
ByLayer
370
18
48
1
60
0
100
AcDbSpline
70
4
71
3
72
34
73
30
40
0
40
0
40
0
40
0
40
0.0446899120861855
40
0.0446899120861855
40
0.164103673075421
40
0.164103673075421
40
0.193957113322729
40
0.193957113322729
40
0.223810553570037
40
0.223810553570037
40
0.283517434064649
40
0.283517434064649
40
0.40293119505387
40
0.40293119505387
40
0.462638075548483
40
0.462638075548483
40
0.522344956043095
40
0.522344956043095
40
0.582051836537707
40
0.582051836537707
40
0.641758717032319
40
0.641758717032319
40
0.761172478021544
40
0.761172478021544
40
0.820879358516158
40
0.820879358516158
40
0.880586239010772
40
0.880586239010772
40
1
40
1
40
1
40
1
41
1
10
34.5410375332469
20
-1.63127036772588
30
0
41
1
10
34.4146173062302
20
-1.65154133896866
30
0
41
1
10
34.2886686368259
20
-1.66698152349431
30
0
41
1
10
33.8266567545475
20
-1.70571876911339
30
0
41
1
10
33.4913448117869
20
-1.69912320434727
30
0
41
1
10
33.0671429317349
20
-1.64666575158191
30
0
41
1
10
32.9818189374593
20
-1.63392083021194
30
0
41
1
10
32.8118076563553
20
-1.60424662816865
30
0
41
1
10
32.7270892733472
20
-1.58732662217994
30
0
41
1
10
32.473579410336
20
-1.53054226155945
30
0
41
1
10
32.3054472848364
20
-1.48463223449025
30
0
41
1
10
31.8013070694849
20
-1.32498567289298
30
1E-16
41
1
10
31.465556080357
20
-1.18944570308625
30
1E-16
41
1
10
30.9549763369326
20
-0.949638971244411
30
1E-16
41
1
10
30.7851239229684
20
-0.864453073659178
30
1E-16
41
1
10
30.4476361797649
20
-0.687196126058552
30
0
41
1
10
30.2795502810751
20
-0.594906297273582
30
0
41
1
10
29.9434192877235
20
-0.40510402268734
30
0
41
1
10
29.775411657598
20
-0.307525872424208
30
0
41
1
10
29.4379669828498
20
-0.109564080054923
30
0
41
1
10
29.2680329020186
20
-0.0089306362360446
30
0
41
1
10
28.7572460612465
20
0.291961953955934
30
0
41
1
10
28.4218360647593
20
0.48818259092252
30
0
41
1
10
27.917380961764
20
0.761363505427369
30
0
41
1
10
27.7490262204016
20
0.848944519868724
30
-1E-16
41
1
10
27.4107112707922
20
1.01521849260789
30
-1E-16
41
1
10
27.2400980697552
20
1.09428563527408
30
-1E-16
41
1
10
26.7300966694846
20
1.31212267033101
30
-1E-16
41
1
10
26.3921863929809
20
1.43118173490291
30
0
41
1
10
26.0512839444955
20
1.51898123449251
30
0
0
SPLINE
5
CC
100
AcDbEntity
8
1
62
256
6
ByLayer
370
18
48
1
60
0
100
AcDbSpline
70
4
71
3
72
36
73
32
40
0
40
0
40
0
40
0
40
0.119019128076463
40
0.119019128076463
40
0.178528692114695
40
0.178528692114695
40
0.208283474133809
40
0.208283474133809
40
0.238038256152923
40
0.238038256152923
40
0.357057384229389
40
0.357057384229389
40
0.416566948267621
40
0.416566948267621
40
0.476076512305853
40
0.476076512305853
40
0.595095640382316
40
0.595095640382316
40
0.62485042240143
40
0.62485042240143
40
0.654605204420544
40
0.654605204420544
40
0.714114768458776
40
0.714114768458776
40
0.833133896535239
40
0.833133896535239
40
0.892643460573472
40
0.892643460573472
40
0.952153024611705
40
0.952153024611705
40
1
40
1
40
1
40
1
41
1
10
42.2627911787066
20
-1.67513407027985
30
0
41
1
10
41.9247651143079
20
-1.64064596488004
30
0
41
1
10
41.5899590416734
20
-1.57153175846131
30
0
41
1
10
41.0852234394791
20
-1.42170370723971
30
0
41
1
10
40.9165470511339
20
-1.36405112714911
30
1E-16
41
1
10
40.6618296720478
20
-1.26676610126884
30
1E-16
41
1
10
40.5765029596641
20
-1.23244901042625
30
1E-16
41
1
10
40.4068375669383
20
-1.1608793922569
30
1E-16
41
1
10
40.3223131673207
20
-1.12359080738261
30
1E-16
41
1
10
39.9005218388411
20
-0.930642234288058
30
1E-16
41
1
10
39.5657691872948
20
-0.755493294126268
30
0
41
1
10
39.0600646220136
20
-0.473265251010957
30
0
41
1
10
38.8908841117041
20
-0.375741580650697
30
0
41
1
10
38.5502913374742
20
-0.17653430088717
30
0
41
1
10
38.3812373010492
20
-0.0762933338740197
30
0
41
1
10
37.8758514920862
20
0.223051162474604
30
0
41
1
10
37.5414440184094
20
0.42101486751983
30
0
41
1
10
37.1192836787833
20
0.654120757036594
30
0
41
1
10
37.0346627166764
20
0.700056314427911
30
0
41
1
10
36.8649395098769
20
0.790372447692164
30
0
41
1
10
36.7796514624317
20
0.834818065419967
30
-1E-16
41
1
10
36.5250023202715
20
0.963884376797409
30
-1E-16
41
1
10
36.3562837360465
20
1.04460944255359
30
-1E-16
41
1
10
35.8513280609207
20
1.26873002510556
30
-1E-16
41
1
10
35.5167542517104
20
1.39456211736507
30
0
41
1
10
35.0089477789161
20
1.53756957915343
30
0
41
1
10
34.8380272293402
20
1.57779063140018
30
0
41
1
10
34.4992760420029
20
1.64061247820462
30
0
41
1
10
34.3309468973331
20
1.66343671561288
30
0
41
1
10
34.0276967925175
20
1.68886262833251
30
0
41
1
10
33.8926858612462
20
1.69457305210094
30
0
41
1
10
33.7574970189035
20
1.69462388052261
30
0
0
SPLINE
5
CD
100
AcDbEntity
8
1
62
256
6
ByLayer
370
18
48
1
60
0
100
AcDbSpline
70
4
71
3
72
8
73
4
40
0
40
0
40
0
40
0
40
1
40
1
40
1
40
1
41
1
10
42.7157808879118
20
-0.191945343298755
30
0
41
1
10
42.6490616320672
20
-0.0501694544895201
30
0
41
1
10
42.5682666971143
20
0.10275560865955
30
0
41
1
10
42.472721540901
20
0.267364142788438
30
0
0
SPLINE
5
CE
100
AcDbEntity
8
1
62
256
6
ByLayer
370
18
48
1
60
0
100
AcDbSpline
70
4
71
3
72
50
73
46
40
0
40
0
40
0
40
0
40
0.050363063489851
40
0.050363063489851
40
0.101363582423489
40
0.101363582423489
40
0.152364101357127
40
0.152364101357127
40
0.203364620290765
40
0.203364620290765
40
0.228864879757582
40
0.228864879757582
40
0.254365139224399
40
0.254365139224399
40
0.305365658158031
40
0.305365658158031
40
0.356366177091663
40
0.356366177091663
40
0.407366696025294
40
0.407366696025294
40
0.432866955492109
40
0.432866955492109
40
0.458367214958923
40
0.458367214958923
40
0.509367733892548
40
0.509367733892548
40
0.560368252826174
40
0.560368252826174
40
0.611368771759799
40
0.611368771759799
40
0.662369290693424
40
0.662369290693424
40
0.71336980962705
40
0.71336980962705
40
0.764370328560675
40
0.764370328560675
40
0.815370847494301
40
0.815370847494301
40
0.866371366427926
40
0.866371366427926
40
0.917371885361551
40
0.917371885361551
40
0.968372404295177
40
0.968372404295177
40
1
40
1
40
1
40
1
41
1
10
27.6586642110011
20
1.6236838519284
30
0
41
1
10
27.8236666235095
20
1.6510398326599
30
0
41
1
10
27.9903616672034
20
1.67033537216471
30
0
41
1
10
28.323398311814
20
1.69189304701976
30
0
41
1
10
28.4900937842732
20
1.69411288072686
30
0
41
1
10
28.8225919556194
20
1.68157018678667
30
0
41
1
10
28.9880762339119
20
1.666660689727
30
0
41
1
10
29.3205776664305
20
1.62030495239844
30
0
41
1
10
29.4875541723472
20
1.58900180270285
30
0
41
1
10
29.7390262694203
20
1.52953794392235
30
0
41
1
10
29.8232378606067
20
1.50755934127267
30
0
41
1
10
29.9909625607255
20
1.45970290294105
30
0
41
1
10
30.0744845032596
20
1.43387535506579
30
0
41
1
10
30.3249013257205
20
1.35163976783156
30
-1E-16
41
1
10
30.4914331416512
20
1.29034187794471
30
-1E-16
41
1
10
30.8237737265556
20
1.15524838002025
30
-1E-16
41
1
10
30.989500895217
20
1.08129633419122
30
-1E-16
41
1
10
31.321858584619
20
0.922654767007089
30
-1E-16
41
1
10
31.4883501901083
20
0.837752256165658
30
-1E-16
41
1
10
31.7402872412227
20
0.704455832262681
30
0
41
1
10
31.8246960611576
20
0.659073364992338
30
0
41
1
10
31.9925583312358
20
0.567211639872085
30
0
41
1
10
32.0762193403342
20
0.52062174865938
30
0
41
1
10
32.3263939556812
20
0.378880951094686
30
0
41
1
10
32.4919666810487
20
0.281526126446551
30
0
41
1
10
32.8236606261254
20
0.0861501058672332
30
0
41
1
10
32.9899288152748
20
-0.0116037689182349
30
0
41
1
10
33.3229567997816
20
-0.207851563347702
30
0
41
1
10
33.489694305421
20
-0.30639808032592
30
0
41
1
10
33.8262281848185
20
-0.499809428946236
30
0
41
1
10
33.9936759961194
20
-0.593218632634915
30
0
41
1
10
34.3265990079219
20
-0.773538837898826
30
0
41
1
10
34.4921040861928
20
-0.860452653271665
30
1E-16
41
1
10
34.8238533842776
20
-1.02384975827846
30
1E-16
41
1
10
34.9901357417397
20
-1.10034833005128
30
1E-16
41
1
10
35.3235927724115
20
-1.24278065377624
30
1E-16
41
1
10
35.4913760901478
20
-1.30884881112527
30
1E-16
41
1
10
35.8269356880958
20
-1.42678328604541
30
0
41
1
10
35.9935376162876
20
-1.47825922311372
30
0
41
1
10
36.3262735069388
20
-1.56520930381637
30
0
41
1
10
36.4923896273486
20
-1.60078288159494
30
0
41
1
10
36.8241267878931
20
-1.65608431438673
30
0
41
1
10
36.9897477867574
20
-1.67566740782405
30
0
41
1
10
37.2601688084552
20
-1.69331855811944
30
0
41
1
10
37.3644290290505
20
-1.69678701799788
30
0
41
1
10
37.4686408908833
20
-1.69692165743967
30
0
0
SPLINE
5
CF
100
AcDbEntity
8
1
62
256
6
ByLayer
370
18
48
1
60
0
100
AcDbSpline
70
4
71
3
72
12
73
8
40
0
40
0
40
0
40
0
40
0.500000000000006
40
0.500000000000006
40
0.750000000000003
40
0.750000000000003
40
1
40
1
40
1
40
1
41
1
10
42.4258072309975
20
-1.59478738325578
30
0
41
1
10
42.4896303176804
20
-1.41560424631783
30
0
41
1
10
42.553635226949
20
-1.23380923049993
30
0
41
1
10
42.6525355955737
20
-0.963817145779615
30
0
41
1
10
42.6872687098299
20
-0.87495591058692
30
0
41
1
10
42.7648221661566
20
-0.701545083290853
30
0
41
1
10
42.8063479585758
20
-0.61990125755176
30
0
41
1
10
42.8506555424605
20
-0.544448168387902
30
0
0
SPLINE
5
D0
100
AcDbEntity
8
1
62
256
6
ByLayer
370
18
48
1
60
0
100
AcDbSpline
70
4
71
3
72
10
73
6
40
0
40
0
40
0
40
0
40
0.889454886534009
40
0.889454886534009
40
1
40
1
40
1
40
1
41
1
10
33.4699495684351
20
1.60070116403682
30
0
41
1
10
33.5618593677206
20
1.60624024468007
30
0
41
1
10
33.6538608273502
20
1.60931695236189
30
0
41
1
10
33.7574944683491
20
1.60995140941776
30
0
41
1
10
33.7689551464977
20
1.60998260251287
30
0
41
1
10
33.7804201215866
20
1.6099748185421
30
0
0
SPLINE
5
D1
100
AcDbEntity
8
1
62
256
6
ByLayer
370
18
48
1
60
0
100
AcDbSpline
70
4
71
3
72
22
73
18
40
0
40
0
40
0
40
0
40
0.0839482573137674
40
0.0839482573137674
40
0.312961192985313
40
0.312961192985313
40
0.427467660821086
40
0.427467660821086
40
0.484720894738976
40
0.484720894738976
40
0.541974128656866
40
0.541974128656866
40
0.770987064328433
40
0.770987064328433
40
0.885493532164216
40
0.885493532164216
40
1
40
1
40
1
40
1
41
1
10
37.9573498288727
20
0.177248439887734
30
0
41
1
10
38.0825648752371
20
0.107146112512879
30
0
41
1
10
38.2082248206369
20
0.0363202261952438
30
0
41
1
10
38.6732986404299
20
-0.225434838539428
30
0
41
1
10
39.0095365661851
20
-0.413987702676735
30
0
41
1
10
39.5154367385522
20
-0.67887228981391
30
0
41
1
10
39.6842850198676
20
-0.764263144567423
30
0
41
1
10
39.9387369200786
20
-0.886464685839371
30
1E-16
41
1
10
40.0237545789502
20
-0.926212023173349
30
1E-16
41
1
10
40.1943713611856
20
-1.00341550607132
30
1E-16
41
1
10
40.2801587763093
20
-1.04094385983626
30
1E-16
41
1
10
40.706602548701
20
-1.2202336632011
30
1E-16
41
1
10
41.0430732190528
20
-1.33845963448792
30
0
41
1
10
41.5469473530218
20
-1.47161870005382
30
0
41
1
10
41.7148327566977
20
-1.50865093170069
30
0
41
1
10
42.051597936383
20
-1.56683363858642
30
0
41
1
10
42.2204402379742
20
-1.58777833563113
30
0
41
1
10
42.3904730004722
20
-1.60067668125979
30
0
0
SPLINE
5
D2
100
AcDbEntity
8
1
62
256
6
ByLayer
370
18
48
1
60
0
100
AcDbSpline
70
4
71
3
72
20
73
16
40
0
40
0
40
0
40
0
40
0.125
40
0.125
40
0.25
40
0.25
40
0.375
40
0.375
40
0.5
40
0.5
40
0.625
40
0.625
40
0.75
40
0.75
40
1
40
1
40
1
40
1
41
1
10
42.2033075941032
20
-0.14139684755196
30
0
41
1
10
42.2078053366057
20
-0.232957306210409
30
0
41
1
10
42.2152778157278
20
-0.322311162470925
30
0
41
1
10
42.2332320249597
20
-0.497069162220953
30
0
41
1
10
42.2437598997166
20
-0.582709173415537
30
0
41
1
10
42.2655887023103
20
-0.749070892322408
30
0
41
1
10
42.2766295574731
20
-0.82796298135392
30
1E-16
41
1
10
42.2974946712212
20
-0.977607602967481
30
1E-16
41
1
10
42.3073557852147
20
-1.04860238312901
30
1E-16
41
1
10
42.3250340183686
20
-1.18102077328658
30
1E-16
41
1
10
42.3326688425579
20
-1.24107483726186
30
1E-16
41
1
10
42.3459472397658
20
-1.34924380639862
30
0
41
1
10
42.35160274821
20
-1.39749217426595
30
0
41
1
10
42.3672887387114
20
-1.52245787046547
30
0
41
1
10
42.3753322611006
20
-1.57630955543002
30
0
41
1
10
42.3904730004722
20
-1.60067668125979
30
0
0
SPLINE
5
D3
100
AcDbEntity
8
1
62
256
6
ByLayer
370
18
48
1
60
0
100
AcDbSpline
70
4
71
3
72
30
73
26
40
0
40
0
40
0
40
0
40
0.0392750414264129
40
0.0392750414264129
40
0.141288656759941
40
0.141288656759941
40
0.243302272093468
40
0.243302272093468
40
0.345315887426995
40
0.345315887426995
40
0.447329502760523
40
0.447329502760523
40
0.54934311809405
40
0.54934311809405
40
0.600349925760814
40
0.600349925760814
40
0.651356733427578
40
0.651356733427578
40
0.7533703487611
40
0.7533703487611
40
0.855383964094621
40
0.855383964094621
40
0.957397579428142
40
0.957397579428142
40
1
40
1
40
1
40
1
41
1
10
33.3618113064697
20
-0.230425563631826
30
0
41
1
10
33.2977433993335
20
-0.194683445047531
30
0
41
1
10
33.2336858765627
20
-0.158813442005879
30
0
41
1
10
33.0030398101013
20
-0.0297792419049188
30
0
41
1
10
32.8362074992491
20
0.0635294271301063
30
0
41
1
10
32.5018745033543
20
0.250758437651427
30
0
41
1
10
32.3336623018379
20
0.344620643697624
30
0
41
1
10
31.9967065837519
20
0.526582074176616
30
0
41
1
10
31.8288480021131
20
0.614596352178353
30
0
41
1
10
31.4950019593782
20
0.783308900923942
30
0
41
1
10
31.3288594944935
20
0.863983693168962
30
-1E-16
41
1
10
30.995862865411
20
1.01561351574736
30
-1E-16
41
1
10
30.8291490755917
20
1.0866458544503
30
-1E-16
41
1
10
30.5777055971815
20
1.185147188093
30
-1E-16
41
1
10
30.4936881916415
20
1.21662869053114
30
-1E-16
41
1
10
30.3251545490403
20
1.27655157842776
30
0
41
1
10
30.2405987179374
20
1.30500584029241
30
0
41
1
10
29.9887582910372
20
1.38413798543658
30
0
41
1
10
29.8223221755385
20
1.42899564439759
30
0
41
1
10
29.4890096825759
20
1.50557741452207
30
0
41
1
10
29.3224911668065
20
1.53699333357954
30
0
41
1
10
28.9897768506764
20
1.58224988604431
30
0
41
1
10
28.823524625798
20
1.59619794710937
30
0
41
1
10
28.5862210948758
20
1.60586000898212
30
0
41
1
10
28.516019445774
20
1.60734155303876
30
0
41
1
10
28.445722785952
20
1.60740670591096
30
0
0
SPLINE
5
D4
100
AcDbEntity
8
1
62
256
6
ByLayer
370
18
48
1
60
0
100
AcDbSpline
70
4
71
3
72
32
73
28
40
0
40
0
40
0
40
0
40
0.0318049353900102
40
0.0318049353900102
40
0.106809382729767
40
0.106809382729767
40
0.181813830069524
40
0.181813830069524
40
0.256818277409281
40
0.256818277409281
40
0.406827172088799
40
0.406827172088799
40
0.556836066768318
40
0.556836066768318
40
0.631840514108075
40
0.631840514108075
40
0.706844961447831
40
0.706844961447831
40
0.781849408787588
40
0.781849408787588
40
0.819351632457467
40
0.819351632457467
40
0.856853856127345
40
0.856853856127345
40
0.931858303467102
40
0.931858303467102
40
1
40
1
40
1
40
1
41
1
10
38.0068908898145
20
-0.0965467195859162
30
0
41
1
10
37.9338602914526
20
-0.0558035626339972
30
0
41
1
10
37.8608236412595
20
-0.0149761405978381
30
0
41
1
10
37.6156504684826
20
0.121943092238325
30
0
41
1
10
37.4438777407519
20
0.21796174265171
30
0
41
1
10
37.0994900138628
20
0.406597020379991
30
0
41
1
10
36.9279032577861
20
0.498861201867925
30
0
41
1
10
36.5867761819613
20
0.676325304888138
30
0
41
1
10
36.4167814002458
20
0.761284865053199
30
0
41
1
10
35.9072476825652
20
1.00356725367641
30
-1E-16
41
1
10
35.5676618678558
20
1.14721002440373
30
-1E-16
41
1
10
34.8787047329019
20
1.38345755222616
30
0
41
1
10
34.5361465683688
20
1.47286421852854
30
0
41
1
10
34.0197381273275
20
1.55774008358856
30
0
41
1
10
33.8489298046615
20
1.5778101660683
30
0
41
1
10
33.5082274720361
20
1.60050715774338
30
0
41
1
10
33.3384003763323
20
1.60332933429822
30
0
41
1
10
32.9986630772496
20
1.59288872579091
30
0
41
1
10
32.8286310426326
20
1.57878566538491
30
0
41
1
10
32.5726452500691
20
1.54558499116919
30
0
41
1
10
32.4871722230579
20
1.53250662054515
30
0
41
1
10
32.3156681945916
20
1.50192545513264
30
0
41
1
10
32.2294301303643
20
1.4844091244166
30
0
41
1
10
31.9715596745154
20
1.42610719238127
30
0
41
1
10
31.8007971270193
20
1.37988463518727
30
0
41
1
10
31.4758969936605
20
1.27820990561011
30
0
41
1
10
31.3215961627028
20
1.22392511610502
30
-1E-16
41
1
10
31.1673130498618
20
1.16452128558436
30
-1E-16
0
SPLINE
5
D5
100
AcDbEntity
8
1
62
256
6
ByLayer
370
18
48
1
60
0
100
AcDbSpline
70
4
71
3
72
8
73
4
40
0
40
0
40
0
40
0
40
1
40
1
40
1
40
1
41
1
10
26.0033116063361
20
-1.21760669227638
30
1E-16
41
1
10
26.0033116448005
20
-1.21686229717659
30
1E-16
41
1
10
26.0034089280269
20
-1.21611445183154
30
1E-16
41
1
10
26.0035973034258
20
-1.21538024544773
30
1E-16
0
SPLINE
5
D6
100
AcDbEntity
8
1
62
256
6
ByLayer
370
18
48
1
60
0
100
AcDbSpline
70
4
71
3
72
10
73
6
40
0
40
0
40
0
40
0
40
0.456438692414403
40
0.456438692414403
40
1
40
1
40
1
40
1
41
1
10
26.1025397637693
20
1.60528384910859
30
0
41
1
10
26.1025186247578
20
1.60560288280192
30
0
41
1
10
26.1024967379612
20
1.5999222994962
30
0
41
1
10
26.1024461664055
20
1.57413891298577
30
0
41
1
10
26.1024174645072
20
1.55196359713406
30
0
41
1
10
26.1023859736295
20
1.52159000087855
30
0
0
SPLINE
5
D7
100
AcDbEntity
8
1
62
256
6
ByLayer
370
18
48
1
60
0
100
AcDbSpline
70
4
71
3
72
46
73
42
40
0
40
0
40
0
40
0
40
0.125000000000018
40
0.125000000000018
40
0.187500000000027
40
0.187500000000027
40
0.250000000000036
40
0.250000000000036
40
0.281250000000039
40
0.281250000000039
40
0.312500000000042
40
0.312500000000042
40
0.343750000000045
40
0.343750000000045
40
0.375000000000048
40
0.375000000000048
40
0.406250000000051
40
0.406250000000051
40
0.437500000000054
40
0.437500000000054
40
0.50000000000006
40
0.50000000000006
40
0.562500000000066
40
0.562500000000066
40
0.625000000000073
40
0.625000000000073
40
0.687500000000079
40
0.687500000000079
40
0.703125000000079
40
0.703125000000079
40
0.71093750000008
40
0.71093750000008
40
0.71875000000008
40
0.71875000000008
40
0.734375000000077
40
0.734375000000077
40
0.750000000000073
40
0.750000000000073
40
0.875000000000037
40
0.875000000000037
40
1
40
1
40
1
40
1
41
1
10
7.19926670628669
20
-0.456866042450741
30
0
41
1
10
7.02359025871465
20
-0.35862302448524
30
0
41
1
10
6.85323058294415
20
-0.252027575080234
30
0
41
1
10
6.61024614828821
20
-0.0723101478105548
30
0
41
1
10
6.53136912021734
20
-0.0090603120594324
30
0
41
1
10
6.37974184075301
20
0.12712527092944
30
0
41
1
10
6.30770244017899
20
0.199398377804073
30
0
41
1
10
6.21014429437534
20
0.315674917216967
30
0
41
1
10
6.1793228400644
20
0.35589598599114
30
0
41
1
10
6.12337781295733
20
0.438122066873177
30
0
41
1
10
6.09807877911868
20
0.480304204766952
30
0
41
1
10
6.05434696912244
20
0.56742290267303
30
0
41
1
10
6.03584983923474
20
0.612784591944347
30
0
41
1
10
6.00920205327026
20
0.703079269928736
30
0
41
1
10
6.00079683129297
20
0.748522067572026
30
0
41
1
10
5.99565360443421
20
0.839003345950516
30
-1E-16
41
1
10
5.99897840441778
20
0.882454731709657
30
-1E-16
41
1
10
6.01679089656068
20
0.966020579712904
30
-1E-16
41
1
10
6.03151090197053
20
1.00627810699845
30
-1E-16
41
1
10
6.08830863497496
20
1.11698101961625
30
-1E-16
41
1
10
6.14401072778418
20
1.18041634445998
30
-1E-16
41
1
10
6.27099440994112
20
1.28739164307393
30
-1E-16
41
1
10
6.34292810880379
20
1.33204540493503
30
-1E-16
41
1
10
6.49648035618944
20
1.40954286499826
30
0
41
1
10
6.57734742952317
20
1.44195165539003
30
0
41
1
10
6.74469109758016
20
1.49830489446029
30
0
41
1
10
6.83077157011314
20
1.5220501272654
30
0
41
1
10
6.94043410517418
20
1.54770973266705
30
0
41
1
10
6.96246591019678
20
1.55263611197864
30
0
41
1
10
6.99565251525976
20
1.55973877052111
30
0
41
1
10
7.00667148969342
20
1.56210116916253
30
0
41
1
10
7.0290339055899
20
1.56654957750314
30
0
41
1
10
7.0410632047022
20
1.56807517657725
30
0
41
1
10
7.07888420535488
20
1.56997643106519
30
0
41
1
10
7.10445020991639
20
1.5685881391837
30
0
41
1
10
7.1525705784307
20
1.56278097771579
30
0
41
1
10
7.17631032234229
20
1.55945761968246
30
0
41
1
10
7.39054297353525
20
1.52968973868943
30
0
41
1
10
7.57712972602974
20
1.49519049346699
30
0
41
1
10
7.94152329569516
20
1.40530210988624
30
0
41
1
10
8.11919190215795
20
1.35003825196461
30
-1E-16
41
1
10
8.29421271899733
20
1.28353250551774
30
-1E-16
0
SPLINE
5
D8
100
AcDbEntity
8
1
62
256
6
ByLayer
370
18
48
1
60
0
100
AcDbSpline
70
4
71
3
72
28
73
24
40
0
40
0
40
0
40
0
40
0.156592280209342
40
0.156592280209342
40
0.313184560418684
40
0.313184560418684
40
0.352332630471017
40
0.352332630471017
40
0.39148070052335
40
0.39148070052335
40
0.469776840628016
40
0.469776840628016
40
0.626369120837348
40
0.626369120837348
40
0.704665260942014
40
0.704665260942014
40
0.78296140104668
40
0.78296140104668
40
0.939553681256012
40
0.939553681256012
40
0.978701751308341
40
0.978701751308341
40
1
40
1
40
1
40
1
41
1
10
42.3757992412629
20
-1.61098216722471
30
0
41
1
10
42.0361565445884
20
-1.58585729733883
30
0
41
1
10
41.700876698673
20
-1.52662461796913
30
0
41
1
10
41.029541677579
20
-1.34888311964261
30
0
41
1
10
40.6932705283049
20
-1.23038910691815
30
1E-16
41
1
10
40.2669639347973
20
-1.05042705346193
30
1E-16
41
1
10
40.1812197879121
20
-1.01276099733243
30
1E-16
41
1
10
40.0107313031708
20
-0.935284659901015
30
1E-16
41
1
10
39.9257767820282
20
-0.895392352739322
30
1E-16
41
1
10
39.6715099680241
20
-0.772729930833151
30
0
41
1
10
39.5027802890937
20
-0.686995772177511
30
0
41
1
10
38.9972230652824
20
-0.420951448062112
30
0
41
1
10
38.6611998835926
20
-0.231444160319512
30
0
41
1
10
38.1509093851749
20
0.0575020007350986
30
0
41
1
10
37.9791422195737
20
0.154992275651864
30
0
41
1
10
37.639176683711
20
0.345442430081391
30
0
41
1
10
37.4701892134073
20
0.438660729985799
30
0
41
1
10
36.9642245598676
20
0.709164960996105
30
0
41
1
10
36.6286457950181
20
0.878021647217878
30
-1E-16
41
1
10
36.2045251895709
20
1.06347000706327
30
-1E-16
41
1
10
36.1194580936196
20
1.09925789002517
30
-1E-16
41
1
10
35.9876842406685
20
1.15244995043034
30
-1E-16
41
1
10
35.9411337040511
20
1.17082342150852
30
-1E-16
41
1
10
35.8945908538472
20
1.18873991313629
30
-1E-16
0
SPLINE
5
D9
100
AcDbEntity
8
1
62
256
6
ByLayer
370
18
48
1
60
0
100
AcDbSpline
70
4
71
3
72
8
73
4
40
0
40
0
40
0
40
0
40
1
40
1
40
1
40
1
41
1
10
33.5166549264955
20
1.6142239742656
30
0
41
1
10
33.452098294107
20
1.61116029312785
30
0
41
1
10
33.3875952600395
20
1.60686997189893
30
0
41
1
10
33.3231158259933
20
1.60136938996499
30
0
0
SPLINE
5
DA
100
AcDbEntity
8
1
62
256
6
ByLayer
370
18
48
1
60
0
100
AcDbSpline
70
4
71
3
72
8
73
4
40
0
40
0
40
0
40
0
40
1
40
1
40
1
40
1
41
1
10
42.1615539728452
20
-0.112213201551725
30
0
41
1
10
42.1567441359914
20
-0.0320449698546952
30
0
41
1
10
42.1542596893149
20
0.0497502459876671
30
0
41
1
10
42.155232393802
20
0.130728403652768
30
0
0
SPLINE
5
DB
100
AcDbEntity
8
1
62
256
6
ByLayer
370
18
48
1
60
0
100
AcDbSpline
70
4
71
3
72
8
73
4
40
0
40
0
40
0
40
0
40
1
40
1
40
1
40
1
41
1
10
42.4189300573173
20
1.59946383033193
30
0
41
1
10
42.4212223580443
20
1.59790561361936
30
0
41
1
10
42.423514748627
20
1.59634679778998
30
0
41
1
10
42.4258072309975
20
1.59478738325578
30
0
0
SPLINE
5
DC
100
AcDbEntity
8
1
62
256
6
ByLayer
370
18
48
1
60
0
100
AcDbSpline
70
4
71
3
72
8
73
4
40
0
40
0
40
0
40
0
40
1
40
1
40
1
40
1
41
1
10
42.9975255938956
20
0.120684502898769
30
0
41
1
10
43.0008331388794
20
0.0400248606050297
30
0
41
1
10
43.0008093373177
20
-0.0406052987979422
30
0
41
1
10
42.997525593896
20
-0.120684502888281
30
0
0
SPLINE
5
DD
100
AcDbEntity
8
1
62
256
6
ByLayer
370
18
48
1
60
0
100
AcDbSpline
70
4
71
3
72
8
73
4
40
0
40
0
40
0
40
0
40
1
40
1
40
1
40
1
41
1
10
42.2627911786995
20
1.67513407027988
30
0
41
1
10
42.2652345380237
20
1.6888280140509
30
0
41
1
10
42.2672254046853
20
1.69698262381181
30
0
41
1
10
42.2690241374348
20
1.69925646834778
30
0
0
SPLINE
5
DE
100
AcDbEntity
8
1
62
256
6
ByLayer
370
18
48
1
60
0
100
AcDbSpline
70
4
71
3
72
60
73
56
40
0
40
0
40
0
40
0
40
0.0108062902425444
40
0.0108062902425444
40
0.0594943093895692
40
0.0594943093895692
40
0.108182328536594
40
0.108182328536594
40
0.156870347683619
40
0.156870347683619
40
0.181214357257131
40
0.181214357257131
40
0.205558366830644
40
0.205558366830644
40
0.254246385977669
40
0.254246385977669
40
0.302934405124694
40
0.302934405124694
40
0.351622424271718
40
0.351622424271718
40
0.375966433845231
40
0.375966433845231
40
0.400310443418743
40
0.400310443418743
40
0.448998462565765
40
0.448998462565765
40
0.497686481712788
40
0.497686481712788
40
0.54637450085981
40
0.54637450085981
40
0.570718510433322
40
0.570718510433322
40
0.595062520006834
40
0.595062520006834
40
0.643750539153859
40
0.643750539153859
40
0.692438558300884
40
0.692438558300884
40
0.741126577447909
40
0.741126577447909
40
0.765470587021421
40
0.765470587021421
40
0.789814596594934
40
0.789814596594934
40
0.838502615741956
40
0.838502615741956
40
0.887190634888978
40
0.887190634888978
40
0.935878654036
40
0.935878654036
40
0.960222663609511
40
0.960222663609511
40
0.984566673183022
40
0.984566673183022
40
1
40
1
40
1
40
1
41
1
10
40.0957861220942
20
-1.21438875799265
30
1E-16
41
1
10
40.0556362990485
20
-1.23104360860373
30
1E-16
41
1
10
40.0154952552885
20
-1.24734778587722
30
1E-16
41
1
10
39.7945121641573
20
-1.33513769796917
30
1E-16
41
1
10
39.6129833588352
20
-1.39891942821157
30
0
41
1
10
39.2489186545116
20
-1.51045317326267
30
0
41
1
10
39.065017128745
20
-1.55774580600556
30
0
41
1
10
38.700001671601
20
-1.63157974934344
30
0
41
1
10
38.5191189142415
20
-1.65883279161446
30
0
41
1
10
38.2475145139496
20
-1.6842877796783
30
0
41
1
10
38.15694106671
20
-1.69024101141116
30
0
41
1
10
37.9758963031029
20
-1.6971249726393
30
0
41
1
10
37.8855376213165
20
-1.69804029977243
30
0
41
1
10
37.6136575257057
20
-1.69305375649739
30
0
41
1
10
37.4313050232681
20
-1.67961153904642
30
0
41
1
10
37.0647680519637
20
-1.63166915715138
30
0
41
1
10
36.8824101879272
20
-1.59758446836275
30
0
41
1
10
36.5190839847767
20
-1.51145618479788
30
0
41
1
10
36.3386406974511
20
-1.45874776223027
30
0
41
1
10
36.0670156043974
20
-1.36760307039427
30
1E-16
41
1
10
35.9763267282113
20
-1.3352292453807
30
1E-16
41
1
10
35.7949007169448
20
-1.26620606181291
30
1E-16
41
1
10
35.7042305006008
20
-1.22945646534302
30
1E-16
41
1
10
35.4310544364447
20
-1.11389964855059
30
1E-16
41
1
10
35.2465585567579
20
-1.02939976793059
30
1E-16
41
1
10
34.8820850531215
20
-0.848828177111074
30
1E-16
41
1
10
34.7007610707311
20
-0.753633333712656
30
0
41
1
10
34.3382967727746
20
-0.556210463049922
30
0
41
1
10
34.1578645075406
20
-0.452818102439835
30
0
41
1
10
33.8855963439618
20
-0.295298705370328
30
0
41
1
10
33.7945875550556
20
-0.242372215021675
30
0
41
1
10
33.6123769608287
20
-0.135108693753779
30
0
41
1
10
33.5211771507408
20
-0.0807574036491587
30
0
41
1
10
33.2460710776131
20
0.0823348275829687
30
0
41
1
10
33.0631761360292
20
0.189820119379533
30
0
41
1
10
32.7004226679488
20
0.402070314623586
30
0
41
1
10
32.5194437625715
20
0.50552014953081
30
0
41
1
10
32.1570266134087
20
0.705146228570072
30
0
41
1
10
31.9761931943428
20
0.80225130096278
30
0
41
1
10
31.7026645620341
20
0.939322507393342
30
-1E-16
41
1
10
31.6111347890778
20
0.983636086887287
30
-1E-16
41
1
10
31.427716543522
20
1.06997384232818
30
-1E-16
41
1
10
31.336205615992
20
1.11167267236382
30
-1E-16
41
1
10
31.0625307298007
20
1.23037473869013
30
-1E-16
41
1
10
30.8807670094574
20
1.30153304016702
30
-1E-16
41
1
10
30.5188820714304
20
1.42847551294022
30
0
41
1
10
30.3378461075494
20
1.48326923349902
30
0
41
1
10
29.9746663411815
20
1.57486846477317
30
0
41
1
10
29.7929984135489
20
1.61189853521245
30
0
41
1
10
29.5175656683922
20
1.65216439680373
30
0
41
1
10
29.4257257201134
20
1.66303005268372
30
0
41
1
10
29.2432977644279
20
1.67968951235807
30
0
41
1
10
29.1524427222678
20
1.68544461593871
30
0
41
1
10
29.004062787492
20
1.69062634694856
30
0
41
1
10
28.9465236757753
20
1.69161434993484
30
0
41
1
10
28.8890179530911
20
1.69157999522105
30
0
0
SPLINE
5
DF
100
AcDbEntity
8
1
62
256
6
ByLayer
370
18
48
1
60
0
100
AcDbSpline
70
4
71
3
72
66
73
62
40
0
40
0
40
0
40
0
40
0.0121119164784287
40
0.0121119164784287
40
0.0609616794919788
40
0.0609616794919788
40
0.109811442505529
40
0.109811442505529
40
0.158661205519079
40
0.158661205519079
40
0.183086087025854
40
0.183086087025854
40
0.207510968532628
40
0.207510968532628
40
0.25636073154618
40
0.25636073154618
40
0.305210494559731
40
0.305210494559731
40
0.354060257573283
40
0.354060257573283
40
0.378485139080058
40
0.378485139080058
40
0.402910020586834
40
0.402910020586834
40
0.451759783600387
40
0.451759783600387
40
0.500609546613939
40
0.500609546613939
40
0.525034428120717
40
0.525034428120717
40
0.549459309627494
40
0.549459309627494
40
0.573884191134271
40
0.573884191134271
40
0.598309072641048
40
0.598309072641048
40
0.647158835654601
40
0.647158835654601
40
0.696008598668153
40
0.696008598668153
40
0.72043348017493
40
0.72043348017493
40
0.744858361681706
40
0.744858361681706
40
0.769283243188482
40
0.769283243188482
40
0.793708124695259
40
0.793708124695259
40
0.842557887708811
40
0.842557887708811
40
0.866982769215588
40
0.866982769215588
40
0.891407650722364
40
0.891407650722364
40
0.940257413735918
40
0.940257413735918
40
0.964682295242695
40
0.964682295242695
40
0.989107176749472
40
0.989107176749472
40
1
40
1
40
1
40
1
41
1
10
22.1014043410286
20
-1.21155236277699
30
1E-16
41
1
10
22.0560648219062
20
-1.23014305900421
30
1E-16
41
1
10
22.0106639588098
20
-1.24832191511962
30
1E-16
41
1
10
21.7818121610788
20
-1.33768949300475
30
1E-16
41
1
10
21.5984033716427
20
-1.40065278240485
30
0
41
1
10
21.2348972076832
20
-1.5090846072722
30
0
41
1
10
21.0539707408959
20
-1.55429935077234
30
0
41
1
10
20.6911160994266
20
-1.62521207629948
30
0
41
1
10
20.5100829860985
20
-1.65138466346633
30
0
41
1
10
20.2365010802308
20
-1.67526478155455
30
0
41
1
10
20.1449698573477
20
-1.68069436530948
30
0
41
1
10
19.9613342967237
20
-1.68643191918562
30
0
41
1
10
19.8695773740986
20
-1.68670668133222
30
0
41
1
10
19.5955405891832
20
-1.67973250457749
30
0
41
1
10
19.4134663255533
20
-1.66492176786843
30
0
41
1
10
19.0509740352689
20
-1.61535842722998
30
0
41
1
10
18.8700304388799
20
-1.58067060844476
30
0
41
1
10
18.5064700376736
20
-1.49297234250346
30
0
41
1
10
18.3247076397288
20
-1.43927878579422
30
0
41
1
10
18.0493216023281
20
-1.34585274489288
30
1E-16
41
1
10
17.9572260135594
20
-1.31263147834147
30
1E-16
41
1
10
17.774284821172
20
-1.24244213590666
30
1E-16
41
1
10
17.6833122620533
20
-1.20525617545883
30
1E-16
41
1
10
17.41056509252
20
-1.08907196275456
30
1E-16
41
1
10
17.2289446826074
20
-1.00558015207835
30
1E-16
41
1
10
16.8666432889551
20
-0.825915264092203
30
1E-16
41
1
10
16.6852754281916
20
-0.730666279523774
30
0
41
1
10
16.4114933309475
20
-0.581834855858318
30
0
41
1
10
16.320149972609
20
-0.530891359713593
30
0
41
1
10
16.1368216494749
20
-0.427033819591003
30
0
41
1
10
16.0448251492717
20
-0.374363121781897
30
0
41
1
10
15.8617953782081
20
-0.268856176052907
30
0
41
1
10
15.7704651460073
20
-0.215975199980193
30
0
41
1
10
15.5884664979454
20
-0.109439322063821
30
0
41
1
10
15.4978339969753
20
-0.0557239554157718
30
0
41
1
10
15.2257632518187
20
0.10454489518429
30
0
41
1
10
15.0442179620509
20
0.210350516890202
30
0
41
1
10
14.6813113310072
20
0.420755863486733
30
0
41
1
10
14.4991282442689
20
0.523939010040039
30
0
41
1
10
14.2236455192315
20
0.673774564682248
30
0
41
1
10
14.1317047677342
20
0.723231226035523
30
0
41
1
10
13.9488473039474
20
0.819043202287588
30
-1E-16
41
1
10
13.8576364084845
20
0.865471378241494
30
-1E-16
41
1
10
13.6754884086055
20
0.955227973630826
30
-1E-16
41
1
10
13.5844974163769
20
0.998486405560584
30
-1E-16
41
1
10
13.4030533997299
20
1.08229840191814
30
-1E-16
41
1
10
13.3125550670568
20
1.12276875125735
30
-1E-16
41
1
10
13.0405883308648
20
1.23838740526657
30
-1E-16
41
1
10
12.8587560828465
20
1.30799806589823
30
-1E-16
41
1
10
12.5855192964859
20
1.40130818215945
30
0
41
1
10
12.4941727147431
20
1.43034731832756
30
0
41
1
10
12.3106416656327
20
1.48398084766498
30
0
41
1
10
12.2184328375358
20
1.50856012530633
30
0
41
1
10
11.9436120624466
20
1.57496435983697
30
0
41
1
10
11.7621209613823
20
1.60984540157384
30
0
41
1
10
11.4896256470789
20
1.6468555745314
30
0
41
1
10
11.3987898663597
20
1.65670133938443
30
0
41
1
10
11.2174961322296
20
1.671494735479
30
0
41
1
10
11.1269276961588
20
1.67638719740907
30
0
41
1
10
10.9956072286545
20
1.67976171353823
30
0
41
1
10
10.9550624840317
20
1.68030184902204
30
0
41
1
10
10.9144761694593
20
1.68033693488081
30
0
0
SPLINE
5
E0
100
AcDbEntity
8
1
62
256
6
ByLayer
370
18
48
1
60
0
100
AcDbSpline
70
4
71
3
72
8
73
4
40
0
40
0
40
0
40
0
40
1
40
1
40
1
40
1
41
1
10
25.9999999999999
20
1.39478456734835
30
0
41
1
10
25.9999999999999
20
1.37643307765848
30
0
41
1
10
26
20
1.35736770357755
30
0
41
1
10
26
20
1.33759017723426
30
0
0
SPLINE
5
E1
100
AcDbEntity
8
1
62
256
6
ByLayer
370
18
48
1
60
0
100
AcDbSpline
70
4
71
3
72
12
73
8
40
0
40
0
40
0
40
0
40
0.25
40
0.25
40
0.5
40
0.5
40
1
40
1
40
1
40
1
41
1
10
26.0035973034247
20
-1.21538024545225
30
1E-16
41
1
10
26.0064097450121
20
-1.20441855630881
30
1E-16
41
1
10
26.0130707378928
20
-1.19374840910677
30
1E-16
41
1
10
26.0329436198708
20
-1.17547235571274
30
1E-16
41
1
10
26.0459471244113
20
-1.16807483000753
30
1E-16
41
1
10
26.0897240854273
20
-1.15360840333057
30
1E-16
41
1
10
26.1254507160117
20
-1.15494334668972
30
1E-16
41
1
10
26.1533600437912
20
-1.16702383679788
30
1E-16
0
SPLINE
5
E2
100
AcDbEntity
8
1
62
256
6
ByLayer
370
18
48
1
60
0
100
AcDbSpline
70
4
71
3
72
26
73
22
40
0
40
0
40
0
40
0
40
0.158384780318336
40
0.158384780318336
40
0.237577170477503
40
0.237577170477503
40
0.31676956063667
40
0.31676956063667
40
0.475154340955002
40
0.475154340955002
40
0.554346731114168
40
0.554346731114168
40
0.633539121273334
40
0.633539121273334
40
0.791923901591666
40
0.791923901591666
40
0.871116291750831
40
0.871116291750831
40
0.950308681909995
40
0.950308681909995
40
1
40
1
40
1
40
1
41
1
10
8.29423703782462
20
1.28352270622051
30
-1E-16
41
1
10
8.66718703518575
20
1.143251731193
30
-1E-16
41
1
10
9.03351039198074
20
0.972072277119025
30
-1E-16
41
1
10
9.58483035261642
20
0.686139372497536
30
0
41
1
10
9.76891185577361
20
0.58600869456896
30
0
41
1
10
10.139031265804
20
0.378035516036562
30
0
41
1
10
10.3258273403909
20
0.269967466597251
30
0
41
1
10
10.880687246251
20
-0.053754225779727
30
0
41
1
10
11.2463481820955
20
-0.271371250570496
30
0
41
1
10
11.798830180967
20
-0.582632828682989
30
0
41
1
10
11.9842226314563
20
-0.683747552311246
30
0
41
1
10
12.3562732502548
20
-0.877415869503693
30
1E-16
41
1
10
12.5408685492411
20
-0.968478356956297
30
1E-16
41
1
10
13.0929347544225
20
-1.22134065101329
30
1E-16
41
1
10
13.4585760824256
20
-1.36295176687128
30
1E-16
41
1
10
14.0138354577124
20
-1.52224730085808
30
0
41
1
10
14.2006575411888
20
-1.56633005565448
30
0
41
1
10
14.5700406919471
20
-1.63372019597955
30
0
41
1
10
14.7538183642762
20
-1.65720442961538
30
0
41
1
10
15.0526202056559
20
-1.67869555909556
30
0
41
1
10
15.1677285482177
20
-1.68292164262505
30
0
41
1
10
15.2830217903102
20
-1.68305673552206
30
0
0
SPLINE
5
E3
100
AcDbEntity
8
1
62
256
6
ByLayer
370
18
48
1
60
0
100
AcDbSpline
70
4
71
3
72
24
73
20
40
0
40
0
40
0
40
0
40
0.0084985183111723
40
0.0084985183111723
40
0.150141587123863
40
0.150141587123863
40
0.291784655936553
40
0.291784655936553
40
0.362606190342896
40
0.362606190342896
40
0.433427724749239
40
0.433427724749239
40
0.71671386237462
40
0.71671386237462
40
0.85835693118731
40
0.85835693118731
40
0.929178465593655
40
0.929178465593655
40
1
40
1
40
1
40
1
41
1
10
22.0966701589889
20
1.21925920409888
30
-1E-16
41
1
10
22.1077446213813
20
1.22377138418102
30
-1E-16
41
1
10
22.1188150720172
20
1.22825548386507
30
-1E-16
41
1
10
22.3143241848033
20
1.30697963164761
30
-1E-16
41
1
10
22.4977042318781
20
1.37335626578226
30
0
41
1
10
22.8647199912766
20
1.48811937673108
30
0
41
1
10
23.0480627951091
20
1.53679399781851
30
0
41
1
10
23.3243026710329
20
1.59537006000258
30
0
41
1
10
23.416649663348
20
1.61245698890642
30
0
41
1
10
23.6019161688535
20
1.64167056668063
30
0
41
1
10
23.695083331343
20
1.65380917336643
30
0
41
1
10
24.1586762668366
20
1.70109974603446
30
0
41
1
10
24.5241965991629
20
1.69644621621089
30
0
41
1
10
25.0751545053
20
1.62826011868603
30
0
41
1
10
25.2590482378661
20
1.59523740166296
30
0
41
1
10
25.5369292807593
20
1.53066542848009
30
0
41
1
10
25.6301574310954
20
1.50660479964009
30
0
41
1
10
25.8155513276988
20
1.45400303089784
30
0
41
1
10
25.9078917757272
20
1.42544894559734
30
0
41
1
10
25.9999999999876
20
1.39478456735242
30
0
0
SPLINE
5
E4
100
AcDbEntity
8
1
62
256
6
ByLayer
370
18
48
1
60
0
100
AcDbSpline
70
4
71
3
72
50
73
46
40
0
40
0
40
0
40
0
40
0.0618260547258686
40
0.0618260547258686
40
0.111482869240198
40
0.111482869240198
40
0.161139683754527
40
0.161139683754527
40
0.210796498268856
40
0.210796498268856
40
0.235624905526021
40
0.235624905526021
40
0.260453312783186
40
0.260453312783186
40
0.359766941811846
40
0.359766941811846
40
0.409423756326176
40
0.409423756326176
40
0.43425216358334
40
0.43425216358334
40
0.459080570840504
40
0.459080570840504
40
0.558394199869163
40
0.558394199869163
40
0.583222607126327
40
0.583222607126327
40
0.608051014383491
40
0.608051014383491
40
0.657707828897817
40
0.657707828897817
40
0.75702145792647
40
0.75702145792647
40
0.781849865183633
40
0.781849865183633
40
0.806678272440796
40
0.806678272440796
40
0.85633508695512
40
0.85633508695512
40
0.905991901469445
40
0.905991901469445
40
0.930820308726607
40
0.930820308726607
40
0.955648715983769
40
0.955648715983769
40
1
40
1
40
1
40
1
41
1
10
13.1410095653736
20
1.23167997051377
30
-1E-16
41
1
10
13.3696151712041
20
1.3232017379957
30
-1E-16
41
1
10
13.5983039814194
20
1.40303759211571
30
-1E-16
41
1
10
14.0138354577131
20
1.52224730085825
30
0
41
1
10
14.2006575411894
20
1.56633005565462
30
0
41
1
10
14.5700406919474
20
1.63372019597961
30
0
41
1
10
14.7538183642765
20
1.6572044296154
30
0
41
1
10
15.1210149995109
20
1.68361481047538
30
0
41
1
10
15.3043715723803
20
1.68650862910397
30
0
41
1
10
15.5807443406292
20
1.67519326074543
30
0
41
1
10
15.673025919931
20
1.66881117759596
30
0
41
1
10
15.8581376913877
20
1.65076910563587
30
0
41
1
10
15.9511834131715
20
1.63906600072698
30
0
41
1
10
16.4158297127464
20
1.5678094928777
30
0
41
1
10
16.7819674395277
20
1.47074457428135
30
0
41
1
10
17.3329074636855
20
1.27470504592483
30
-1E-16
41
1
10
17.5168133313855
20
1.20089340101146
30
-1E-16
41
1
10
17.7946162451136
20
1.07904165015415
30
-1E-16
41
1
10
17.8877315137985
20
1.03638174597248
30
-1E-16
41
1
10
18.0734739741571
20
0.948069901111893
30
-1E-16
41
1
10
18.1659614539824
20
0.902468722177929
30
-1E-16
41
1
10
18.6274724131933
20
0.668817333102879
30
0
41
1
10
18.9928385765656
20
0.462526968363306
30
0
41
1
10
19.4532518744057
20
0.19439665720941
30
0
41
1
10
19.5454983551571
20
0.140218306475788
30
0
41
1
10
19.7306488538099
20
0.0313113443144459
30
0
41
1
10
19.8238473389356
20
-0.0234924653501309
30
0
41
1
10
20.1024117125147
20
-0.187210620218877
30
0
41
1
10
20.2865637484842
20
-0.29533409051561
30
0
41
1
10
20.8380324719617
20
-0.610532848823965
30
0
41
1
10
21.2035354877811
20
-0.809885580734175
30
0
41
1
10
21.666456470302
20
-1.03135169680632
30
1E-16
41
1
10
21.7595758705785
20
-1.07439913121229
30
1E-16
41
1
10
21.9451626547867
20
-1.15649560262528
30
1E-16
41
1
10
22.0376602246742
20
-1.19557748689371
30
1E-16
41
1
10
22.3143241848034
20
-1.30697963164766
30
1E-16
41
1
10
22.4977042318782
20
-1.37335626578229
30
0
41
1
10
22.8647199912766
20
-1.48811937673108
30
0
41
1
10
23.0480627951092
20
-1.53679399781853
30
0
41
1
10
23.324302671033
20
-1.59537006000264
30
0
41
1
10
23.4166496633482
20
-1.61245698890647
30
0
41
1
10
23.6019161688539
20
-1.64167056668069
30
0
41
1
10
23.6950833313435
20
-1.65380917336648
30
0
41
1
10
23.9534262513847
20
-1.68016243222377
30
0
41
1
10
24.1179828225706
20
-1.68858451397972
30
0
41
1
10
24.2821074409713
20
-1.6886833459487
30
0
0
SPLINE
5
E5
100
AcDbEntity
8
1
62
256
6
ByLayer
370
18
48
1
60
0
100
AcDbSpline
70
4
71
3
72
8
73
4
40
0
40
0
40
0
40
0
40
1
40
1
40
1
40
1
41
1
10
26.0512839444955
20
1.51898123449254
30
0
41
1
10
26.0260880264275
20
1.52547044865892
30
0
41
1
10
26.00834715644
20
1.53665250200339
30
0
41
1
10
26.0034851140091
20
1.54801458131757
30
0
0
SPLINE
5
E6
100
AcDbEntity
8
1
62
256
6
ByLayer
370
18
48
1
60
0
100
AcDbSpline
70
4
71
3
72
26
73
22
40
0
40
0
40
0
40
0
40
0.0599243037392169
40
0.0599243037392169
40
0.267275100559868
40
0.267275100559868
40
0.319112799765025
40
0.319112799765025
40
0.370950498970183
40
0.370950498970183
40
0.474625897380499
40
0.474625897380499
40
0.68197669420113
40
0.68197669420113
40
0.785652092611449
40
0.785652092611449
40
0.889327491021768
40
0.889327491021768
40
0.993002889432086
40
0.993002889432086
40
1
40
1
40
1
40
1
41
1
10
28.8688411021171
20
0.22594045116216
30
0
41
1
10
28.9668495316316
20
0.171534171898486
30
0
41
1
10
29.0646860684105
20
0.116871337922817
30
0
41
1
10
29.5007217009864
20
-0.127294853983926
30
0
41
1
10
29.8378638347992
20
-0.318099463232102
30
0
41
1
10
30.2647741634519
20
-0.5458015737388
30
0
41
1
10
30.3506081354965
20
-0.590914578700335
30
0
41
1
10
30.5215302252583
20
-0.67906461754913
30
0
41
1
10
30.606724864737
20
-0.722162769554018
30
0
41
1
10
30.8617704152904
20
-0.848207045573645
30
1E-16
41
1
10
31.0310174237427
20
-0.927834169321187
30
1E-16
41
1
10
31.5384138148273
20
-1.15084316211411
30
1E-16
41
1
10
31.8763390738231
20
-1.27825449685801
30
0
41
1
10
32.3897531612682
20
-1.42755055328027
30
0
41
1
10
32.5604516725316
20
-1.46972020432929
30
0
41
1
10
32.8998930816132
20
-1.53773336543892
30
0
41
1
10
33.0689689436576
20
-1.56374735955953
30
0
41
1
10
33.4071350140741
20
-1.59928247424546
30
0
41
1
10
33.5762882266432
20
-1.60884204398863
30
0
41
1
10
33.7574948014087
20
-1.60995141145679
30
0
41
1
10
33.7689558128777
20
-1.60998260432655
30
0
41
1
10
33.7804211215314
20
-1.60997481786308
30
0
0
SPLINE
5
E7
100
AcDbEntity
8
1
62
256
6
ByLayer
370
18
48
1
60
0
100
AcDbSpline
70
4
71
3
72
8
73
4
40
0
40
0
40
0
40
0
40
1
40
1
40
1
40
1
41
1
10
42.2627911786995
20
-1.67513407027988
30
0
41
1
10
42.2652345380237
20
-1.68882801405104
30
0
41
1
10
42.2672254046854
20
-1.69698262381195
30
0
41
1
10
42.2690241374349
20
-1.69925646834787
30
0
0
SPLINE
5
E8
100
AcDbEntity
8
1
62
256
6
ByLayer
370
18
48
1
60
0
100
AcDbSpline
70
4
71
3
72
8
73
4
40
0
40
0
40
0
40
0
40
1
40
1
40
1
40
1
41
1
10
42.8506555424598
20
0.544448168388072
30
0
41
1
10
42.9008624096626
20
0.403642230187927
30
0
41
1
10
42.9498249304498
20
0.262389769570433
30
0
41
1
10
42.9975255938956
20
0.120684502898769
30
0
0
SPLINE
5
E9
100
AcDbEntity
8
1
62
256
6
ByLayer
370
18
48
1
60
0
100
AcDbSpline
70
4
71
3
72
14
73
10
40
0
40
0
40
0
40
0
40
0.461039576352676
40
0.461039576352676
40
0.691559364529014
40
0.691559364529014
40
0.922079152705353
40
0.922079152705353
40
1
40
1
40
1
40
1
41
1
10
42.4189300573152
20
1.59946383041387
30
0
41
1
10
42.0751675671641
20
1.60497776010226
30
0
41
1
10
41.7358767465442
20
1.57615851661745
30
0
41
1
10
41.2260835265002
20
1.48470000435739
30
0
41
1
10
41.056159919902
20
1.44641507303561
30
0
41
1
10
40.7145498013095
20
1.35405306986647
30
0
41
1
10
40.542546710626
20
1.30007121193057
30
0
41
1
10
40.312092032106
20
1.21875916735459
30
0
41
1
10
40.2538725529267
20
1.19743676456025
30
0
41
1
10
40.1956591220718
20
1.17538007003051
30
-1E-16
0
SPLINE
5
EA
100
AcDbEntity
8
1
62
256
6
ByLayer
370
18
48
1
60
0
100
AcDbSpline
70
4
71
3
72
20
73
16
40
0
40
0
40
0
40
0
40
0.0076905938530753
40
0.0076905938530753
40
0.173075494877564
40
0.173075494877564
40
0.338460395902052
40
0.338460395902052
40
0.50384529692654
40
0.50384529692654
40
0.669230197951028
40
0.669230197951028
40
0.834615098975517
40
0.834615098975517
40
1
40
1
40
1
40
1
41
1
10
29.0967862925661
20
-0.146756635268332
30
0
41
1
10
29.0888899523011
20
-0.142359039707713
30
0
41
1
10
29.0809933372995
20
-0.137959452883905
30
0
41
1
10
28.9032738350888
20
-0.0389053324704776
30
0
41
1
10
28.7333474759606
20
0.0566841981654704
30
0
41
1
10
28.3915529146234
20
0.246660795472678
30
0
41
1
10
28.2190193277575
20
0.341761078975594
30
0
41
1
10
27.8761284775212
20
0.526267641547463
30
0
41
1
10
27.7056630064783
20
0.615333941716386
30
0
41
1
10
27.3657306672663
20
0.78628954941496
30
0
41
1
10
27.1961403500204
20
0.867929537802667
30
-1E-16
41
1
10
26.856362328081
20
1.02087918476371
30
-1E-16
41
1
10
26.6863493935273
20
1.09299135189175
30
-1E-16
41
1
10
26.3444665205194
20
1.22489881630088
30
-1E-16
41
1
10
26.1720839947412
20
1.28476002352983
30
0
41
1
10
26
20
1.33759017723429
30
0
0
SPLINE
5
EB
100
AcDbEntity
8
1
62
256
6
ByLayer
370
18
48
1
60
0
100
AcDbSpline
70
4
71
3
72
8
73
4
40
0
40
0
40
0
40
0
40
1
40
1
40
1
40
1
41
1
10
42.3904730004808
20
1.6006766812589
30
0
41
1
10
42.3904829810308
20
1.60069274370565
30
0
41
1
10
42.390492472144
20
1.60071029989865
30
0
41
1
10
42.3905014601111
20
1.60072936640682
30
0
0
SPLINE
5
EC
100
AcDbEntity
8
1
62
256
6
ByLayer
370
18
48
1
60
0
100
AcDbSpline
70
4
71
3
72
8
73
4
40
0
40
0
40
0
40
0
40
1
40
1
40
1
40
1
41
1
10
42.3904730004804
20
-1.60067668125896
30
0
41
1
10
42.3904829810305
20
-1.60069274370574
30
0
41
1
10
42.390492472144
20
-1.60071029989862
30
0
41
1
10
42.390501460111
20
-1.60072936640682
30
0
0
SPLINE
5
ED
100
AcDbEntity
8
1
62
256
6
ByLayer
370
18
48
1
60
0
100
AcDbSpline
70
4
71
3
72
8
73
4
40
0
40
0
40
0
40
0
40
1
40
1
40
1
40
1
41
1
10
42.3757992412629
20
1.61098216722471
30
0
41
1
10
42.3265516440287
20
1.60733910501605
30
0
41
1
10
42.2773957735198
20
1.60297894340539
30
0
41
1
10
42.22831714772
20
1.59791530846002
30
0
0
SPLINE
5
EE
100
AcDbEntity
8
1
62
256
6
ByLayer
370
18
48
1
60
0
100
AcDbSpline
70
4
71
3
72
32
73
28
40
0
40
0
40
0
40
0
40
0.0336493876492388
40
0.0336493876492388
40
0.103281223953358
40
0.103281223953358
40
0.172913060257477
40
0.172913060257477
40
0.242544896561596
40
0.242544896561596
40
0.381808569169839
40
0.381808569169839
40
0.45144040547396
40
0.45144040547396
40
0.486256323626021
40
0.486256323626021
40
0.521072241778081
40
0.521072241778081
40
0.660335914386324
40
0.660335914386324
40
0.729967750690445
40
0.729967750690445
40
0.799599586994566
40
0.799599586994566
40
0.938863259602809
40
0.938863259602809
40
1
40
1
40
1
40
1
41
1
10
33.9832834553431
20
-1.61484280215353
30
0
41
1
10
33.9009153549984
20
-1.61854003304103
30
0
41
1
10
33.8187122260394
20
-1.62021810183984
30
0
41
1
10
33.5670910827122
20
-1.61921516612304
30
0
41
1
10
33.3980512432245
20
-1.60998278477965
30
0
41
1
10
33.0600954365092
20
-1.57499564096403
30
0
41
1
10
32.8911149962401
20
-1.5492052315208
30
0
41
1
10
32.5518551046124
20
-1.48153922254559
30
0
41
1
10
32.3812163625936
20
-1.43948071897015
30
0
41
1
10
31.8681096846404
20
-1.29037962500499
30
0
41
1
10
31.53039871143
20
-1.16289654201989
30
1E-16
41
1
10
31.0233182187591
20
-0.93942210537125
30
1E-16
41
1
10
30.8541683453065
20
-0.859585190726705
30
1E-16
41
1
10
30.5992543281723
20
-0.733136903511848
30
0
41
1
10
30.5141016890395
20
-0.689888021407313
30
0
41
1
10
30.3432558785388
20
-0.601407206789702
30
0
41
1
10
30.2574642921288
20
-0.556117411308861
30
0
41
1
10
29.8308019909087
20
-0.32748249544818
30
0
41
1
10
29.4938845845539
20
-0.135749225060294
30
0
41
1
10
28.9867771955928
20
0.150017175764162
30
0
41
1
10
28.8175195886036
20
0.245087935391865
30
0
41
1
10
28.4775249682438
20
0.432980540694302
30
0
41
1
10
28.3058658469283
20
0.526036886928438
30
0
41
1
10
27.7944929922733
20
0.792868172339524
30
0
41
1
10
27.4572490902496
20
0.954753029012323
30
-1E-16
41
1
10
26.9709234480859
20
1.15669565509984
30
-1E-16
41
1
10
26.8223527934841
20
1.21401330555221
30
-1E-16
41
1
10
26.6730640716957
20
1.26628103833281
30
0
0
SPLINE
5
EF
100
AcDbEntity
8
1
62
256
6
ByLayer
370
18
48
1
60
0
100
AcDbSpline
70
4
71
3
72
14
73
10
40
0
40
0
40
0
40
0
40
0.432198663549714
40
0.432198663549714
40
0.648297995324571
40
0.648297995324571
40
0.864397327099428
40
0.864397327099428
40
1
40
1
40
1
40
1
41
1
10
26.1533600437911
20
-1.16702383679785
30
1E-16
41
1
10
26.4880754674095
20
-1.31190465929626
30
1E-16
41
1
10
26.8204738836834
20
-1.42806677687133
30
0
41
1
10
27.3193319515396
20
-1.55849821950869
30
0
41
1
10
27.4853526062062
20
-1.59473245477051
30
0
41
1
10
27.8194466419104
20
-1.65055000232019
30
0
41
1
10
27.988267265871
20
-1.67019980022789
30
0
41
1
10
28.2609804198615
20
-1.68785269698134
30
0
41
1
10
28.3657854613243
20
-1.6912621008365
30
0
41
1
10
28.4703525937242
20
-1.69130814199522
30
0
0
SPLINE
5
F0
100
AcDbEntity
8
1
62
256
6
ByLayer
370
18
48
1
60
0
100
AcDbSpline
70
4
71
3
72
30
73
26
40
0
40
0
40
0
40
0
40
0.0127001520866921
40
0.0127001520866921
40
0.102454683715175
40
0.102454683715175
40
0.192209215343657
40
0.192209215343657
40
0.28196374697214
40
0.28196374697214
40
0.371718278600622
40
0.371718278600622
40
0.461472810229105
40
0.461472810229105
40
0.551227341857587
40
0.551227341857587
40
0.64098187348607
40
0.64098187348607
40
0.730736405114553
40
0.730736405114553
40
0.820490936743035
40
0.820490936743035
40
0.910245468371518
40
0.910245468371518
40
1
40
1
40
1
40
1
41
1
10
36.5878327472855
20
1.61622014301335
30
0
41
1
10
36.6113128650448
20
1.62044988491627
30
0
41
1
10
36.6347880144435
20
1.62452105678355
30
0
41
1
10
36.8241267878931
20
1.65608431438673
30
0
41
1
10
36.9897477867574
20
1.67566740782405
30
0
41
1
10
37.3235715100142
20
1.69745703303286
30
0
41
1
10
37.4924363245455
20
1.69980250733883
30
0
41
1
10
37.8273679232863
20
1.68700950416499
30
0
41
1
10
37.9933151572027
20
1.67179499331632
30
0
41
1
10
38.3257006479073
20
1.62523161390757
30
0
41
1
10
38.4918705398473
20
1.59395396585128
30
0
41
1
10
38.8238025980777
20
1.51515673042542
30
0
41
1
10
38.9893430440098
20
1.46728708316536
30
0
41
1
10
39.3234108640885
20
1.35737769641784
30
-1E-16
41
1
10
39.4922991946806
20
1.29488333608433
30
-1E-16
41
1
10
39.8269484214369
20
1.15844057150426
30
-1E-16
41
1
10
39.9933221487928
20
1.08434764600298
30
-1E-16
41
1
10
40.3251158020799
20
0.925747329242824
30
-1E-16
41
1
10
40.490473486583
20
0.841117916977936
30
-1E-16
41
1
10
40.8223960890097
20
0.664532867403835
30
0
41
1
10
40.9888314527089
20
0.572408017295373
30
0
41
1
10
41.3237682923652
20
0.382144437599265
30
0
41
1
10
41.4923353721721
20
0.283983599332004
30
0
41
1
10
41.8272461621484
20
0.0866411671356957
30
0
41
1
10
41.9942290259283
20
-0.0129945891413001
30
0
41
1
10
42.1615539728452
20
-0.112213201551725
30
0
0
SPLINE
5
F1
100
AcDbEntity
8
1
62
256
6
ByLayer
370
18
48
1
60
0
100
AcDbSpline
70
4
71
3
72
36
73
32
40
0
40
0
40
0
40
0
40
0.0885268969888089
40
0.0885268969888089
40
0.145493965927006
40
0.145493965927006
40
0.202461034865203
40
0.202461034865203
40
0.2594281038034
40
0.2594281038034
40
0.287911638272499
40
0.287911638272499
40
0.316395172741597
40
0.316395172741597
40
0.430329310617998
40
0.430329310617998
40
0.487296379556199
40
0.487296379556199
40
0.544263448494399
40
0.544263448494399
40
0.6581975863708
40
0.6581975863708
40
0.715164655308999
40
0.715164655308999
40
0.772131724247198
40
0.772131724247198
40
0.886065862123599
40
0.886065862123599
40
0.943032931061799
40
0.943032931061799
40
1
40
1
40
1
40
1
41
1
10
33.3482204673102
20
1.69435615099377
30
0
41
1
10
33.6103423814627
20
1.69452261698282
30
0
41
1
10
33.8728715636888
20
1.67344756539271
30
0
41
1
10
34.309130576304
20
1.60345583664068
30
0
41
1
10
34.4792662088523
20
1.56740022326343
30
0
41
1
10
34.8175714337086
20
1.47975822969639
30
0
41
1
10
34.9860838023861
20
1.42812643019087
30
0
41
1
10
35.3232232201134
20
1.31066920044358
30
-1E-16
41
1
10
35.4918296927006
20
1.24482577967242
30
-1E-16
41
1
10
35.7457875720978
20
1.13638211965568
30
-1E-16
41
1
10
35.8306160424935
20
1.0986221322768
30
-1E-16
41
1
10
36.0008004565909
20
1.02005391873888
30
-1E-16
41
1
10
36.0863728387835
20
0.979137386685153
30
-1E-16
41
1
10
36.5128885681087
20
0.768934940320321
30
0
41
1
10
36.8492888197266
20
0.583097100233005
30
0
41
1
10
37.3549653701553
20
0.291503349469764
30
0
41
1
10
37.5237137964879
20
0.192184396316719
30
0
41
1
10
37.862911563037
20
-0.0085159119235811
30
0
41
1
10
38.034212005224
20
-0.110390306934903
30
0
41
1
10
38.5443183979636
20
-0.410350591377551
30
0
41
1
10
38.8804126895061
20
-0.603302392664887
30
0
41
1
10
39.3864138838084
20
-0.869769104528444
30
1E-16
41
1
10
39.5553960952353
20
-0.954750949255441
30
1E-16
41
1
10
39.895427695235
20
-1.11474685351939
30
1E-16
41
1
10
40.066720719461
20
-1.1897762812649
30
1E-16
41
1
10
40.5754642781574
20
-1.39275931875576
30
0
41
1
10
40.9111774902639
20
-1.50031510201188
30
0
41
1
10
41.4177937519326
20
-1.6130970268641
30
0
41
1
10
41.5871629636939
20
-1.64261179501403
30
0
41
1
10
41.9282112371314
20
-1.68431098355319
30
0
41
1
10
42.0989352385283
20
-1.69631173520611
30
0
41
1
10
42.2690241374538
20
-1.69925646834778
30
0
0
SPLINE
5
F2
100
AcDbEntity
8
1
62
256
6
ByLayer
370
18
48
1
60
0
100
AcDbSpline
70
4
71
3
72
12
73
8
40
0
40
0
40
0
40
0
40
0.357666091128811
40
0.357666091128811
40
0.715332182257622
40
0.715332182257622
40
1
40
1
40
1
40
1
41
1
10
26.0032206328974
20
1.54924967888783
30
0
41
1
10
26.0032258081167
20
1.58255375043106
30
0
41
1
10
26.0032306323201
20
1.61019230455901
30
0
41
1
10
26.0032396371787
20
1.6531526990035
30
0
41
1
10
26.0032438478285
20
1.66868812805004
30
0
41
1
10
26.0032511228878
20
1.68593649298751
30
0
41
1
10
26.0032542654543
20
1.68979213181945
30
0
41
1
10
26.003257321818
20
1.68975409522696
30
0
0
SPLINE
5
F3
100
AcDbEntity
8
1
62
256
6
ByLayer
370
18
48
1
60
0
100
AcDbSpline
70
4
71
3
72
24
73
20
40
0
40
0
40
0
40
0
40
0.210992728083056
40
0.210992728083056
40
0.316489092124587
40
0.316489092124587
40
0.421985456166119
40
0.421985456166119
40
0.52748182020765
40
0.52748182020765
40
0.632978184249182
40
0.632978184249182
40
0.738474548290713
40
0.738474548290713
40
0.843970912332244
40
0.843970912332244
40
0.949467276373776
40
0.949467276373776
40
1
40
1
40
1
40
1
41
1
10
42.2033075941143
20
-0.141396847550965
30
0
41
1
10
41.8697818673987
20
0.0461579656006279
30
0
41
1
10
41.5393095631546
20
0.234089148673405
30
0
41
1
10
41.0417727177226
20
0.504566572163156
30
0
41
1
10
40.8756502031561
20
0.592861134608597
30
0
41
1
10
40.541652285744
20
0.763461093624812
30
0
41
1
10
40.373199296782
20
0.845990349231101
30
-1E-16
41
1
10
40.0363421372712
20
1.00127693533534
30
-1E-16
41
1
10
39.868152758974
20
1.0740119093455
30
-1E-16
41
1
10
39.531506591396
20
1.20804154080452
30
-1E-16
41
1
10
39.3625362399931
20
1.26946953733767
30
-1E-16
41
1
10
39.0257627246433
20
1.37757488424421
30
0
41
1
10
38.8591501856814
20
1.42333894493248
30
0
41
1
10
38.5254619109482
20
1.50190735338387
30
0
41
1
10
38.3586046309953
20
1.53462407388449
30
0
41
1
10
38.025394496354
20
1.58301542089691
30
0
41
1
10
37.8591617968524
20
1.59778863091213
30
0
41
1
10
37.6117974782084
20
1.60918537219919
30
0
41
1
10
37.5314551672367
20
1.61125893660187
30
0
41
1
10
37.4508673298514
20
1.61147104351801
30
0
0
SPLINE
5
F4
100
AcDbEntity
8
1
62
256
6
ByLayer
370
18
48
1
60
0
100
AcDbSpline
70
4
71
3
72
16
73
12
40
0
40
0
40
0
40
0
40
0.500000000000075
40
0.500000000000075
40
0.750000000000112
40
0.750000000000112
40
0.875000000000132
40
0.937500000000142
40
0.968750000000071
40
0.968750000000071
40
1
40
1
40
1
40
1
41
1
10
42.2690241374486
20
1.69925646833843
30
0
41
1
10
42.293892801671
20
1.68317229360159
30
0
41
1
10
42.3188197080658
20
1.66680409516718
30
0
41
1
10
42.356312187769
20
1.64183820299308
30
0
41
1
10
42.3688259757562
20
1.63344779040648
30
0
41
1
10
42.3876266432035
20
1.62075854740553
30
0
41
1
10
42.3970351487117
20
1.61438755756126
30
0
41
1
10
42.4080288673141
20
1.60690757897621
30
0
41
1
10
42.412744699397
20
1.60369151121947
30
0
41
1
10
42.4158895703638
20
1.60154515026159
30
0
41
1
10
42.4176725458483
20
1.60033388741681
30
0
41
1
10
42.4189300572978
20
1.59946383034395
30
0
0
SPLINE
5
F5
100
AcDbEntity
8
1
62
256
6
ByLayer
370
18
48
1
60
0
100
AcDbSpline
70
4
71
3
72
14
73
10
40
0
40
0
40
0
40
0
40
0.263419805263541
40
0.263419805263541
40
0.543707688225065
40
0.543707688225065
40
0.826033561549488
40
0.826033561549488
40
1
40
1
40
1
40
1
41
1
10
42.1980151374267
20
-0.127841006601812
30
0
41
1
10
42.1987270573105
20
-0.128126278555356
30
0
41
1
10
42.1994234708695
20
-0.128796440649381
30
0
41
1
10
42.2007013139366
20
-0.130650388798614
30
0
41
1
10
42.2012973405001
20
-0.131896740134465
30
0
41
1
10
42.2022860965915
20
-0.134727209881447
30
0
41
1
10
42.2026924692993
20
-0.136357066051659
30
0
41
1
10
42.2031326963334
20
-0.139146509132019
30
0
41
1
10
42.2032521158039
20
-0.140267476867592
30
0
41
1
10
42.2033075941028
20
-0.141396847544485
30
0
0
SPLINE
5
F6
100
AcDbEntity
8
1
62
256
6
ByLayer
370
18
48
1
60
0
100
AcDbSpline
70
4
71
3
72
32
73
28
40
0
40
0
40
0
40
0
40
0.138446627963138
40
0.138446627963138
40
0.276893255926276
40
0.276893255926276
40
0.31150491291706
40
0.31150491291706
40
0.346116569907845
40
0.346116569907845
40
0.415339883889414
40
0.415339883889414
40
0.553786511852551
40
0.553786511852551
40
0.62300982583412
40
0.62300982583412
40
0.692233139815689
40
0.692233139815689
40
0.830679767778827
40
0.830679767778827
40
0.865291424769613
40
0.865291424769613
40
0.899903081760398
40
0.899903081760398
40
0.969126395741965
40
0.969126395741965
40
1
40
1
40
1
40
1
41
1
10
26
20
1.41634261596982
30
0
41
1
10
26.342049917011
20
1.30633385622488
30
-1E-16
41
1
10
26.6846484773427
20
1.16551082832248
30
-1E-16
41
1
10
27.3617915361803
20
0.844692303404173
30
-1E-16
41
1
10
27.6980404789785
20
0.664525979234611
30
0
41
1
10
28.1219063894505
20
0.424504529148891
30
0
41
1
10
28.206852467108
20
0.375749861782651
30
0
41
1
10
28.3772650999493
20
0.277001173779809
30
0
41
1
10
28.4629215418116
20
0.226894922781639
30
0
41
1
10
28.718640885441
20
0.0765356505430361
30
0
41
1
10
28.8879587168432
20
-0.0240337929593863
30
0
41
1
10
29.3947385629842
20
-0.322805675203341
30
0
41
1
10
29.7311797980242
20
-0.517833778509242
30
0
41
1
10
30.2410123955766
20
-0.791812670362873
30
0
41
1
10
30.4125356938061
20
-0.880367544028445
30
1E-16
41
1
10
30.7524517861571
20
-1.04577438100904
30
1E-16
41
1
10
30.9214175496259
20
-1.12295560071695
30
1E-16
41
1
10
31.4275412208295
20
-1.33541653322175
30
1E-16
41
1
10
31.7639252463016
20
-1.451664957014
30
0
41
1
10
32.1896405599686
20
-1.55779586761039
30
0
41
1
10
32.2752619470145
20
-1.57709161704571
30
0
41
1
10
32.4457873173319
20
-1.61126303169547
30
0
41
1
10
32.530766198765
20
-1.62616773285589
30
0
41
1
10
32.7851262047456
20
-1.66432505186222
30
0
41
1
10
32.9539166241692
20
-1.68103152654649
30
0
41
1
10
33.1977961357798
20
-1.692510964647
30
0
41
1
10
33.2729918700893
20
-1.69430838610631
30
0
41
1
10
33.3482211511023
20
-1.694356151428
30
0
0
SPLINE
5
F7
100
AcDbEntity
8
1
62
256
6
ByLayer
370
18
48
1
60
0
100
AcDbSpline
70
4
71
3
72
8
73
4
40
0
40
0
40
0
40
0
40
1
40
1
40
1
40
1
41
1
10
42.4258072309975
20
-1.59478738325578
30
0
41
1
10
42.4104753260344
20
-1.60650564438581
30
0
41
1
10
42.3991336558506
20
-1.60832634077354
30
0
41
1
10
42.3905014601108
20
-1.60072936640708
30
0
0
SPLINE
5
F8
100
AcDbEntity
8
1
62
256
6
ByLayer
370
18
48
1
60
0
100
AcDbSpline
70
4
71
3
72
10
73
6
40
0
40
0
40
0
40
0
40
0.5
40
0.5
40
1
40
1
40
1
40
1
41
1
10
42.56602766403
20
0.471697956521723
30
0
41
1
10
42.6141889984083
20
0.480394049696258
30
0
41
1
10
42.6620714330596
20
0.490412220552628
30
0
41
1
10
42.7570457212849
20
0.514196180125907
30
0
41
1
10
42.8041880183552
20
0.527722849854115
30
0
41
1
10
42.8506555424589
20
0.544448168391028
30
0
0
SPLINE
5
F9
100
AcDbEntity
8
1
62
256
6
ByLayer
370
18
48
1
60
0
100
AcDbSpline
70
4
71
3
72
20
73
16
40
0
40
0
40
0
40
0
40
0.10044396406331
40
0.10044396406331
40
0.250369970052759
40
0.250369970052759
40
0.400295976042207
40
0.400295976042207
40
0.550221982031655
40
0.550221982031655
40
0.700147988021103
40
0.700147988021103
40
0.850073994010552
40
0.850073994010552
40
1
40
1
40
1
40
1
41
1
10
42.2851058227216
20
0.274853006107406
30
0
41
1
10
42.2832771717051
20
0.279208457475846
30
0
41
1
10
42.2828452802358
20
0.283985571877139
30
0
41
1
10
42.2851168492064
20
0.297009549754222
30
0
41
1
10
42.289492673353
20
0.306029799554068
30
0
41
1
10
42.3035517342825
20
0.325998189043389
30
0
41
1
10
42.3131380717553
20
0.336917797424832
30
0
41
1
10
42.3376765598924
20
0.360580604432357
30
0
41
1
10
42.3521059582113
20
0.372864737875517
30
0
41
1
10
42.3855318880065
20
0.397599253725019
30
0
41
1
10
42.4047200332118
20
0.410032677248921
30
0
41
1
10
42.4460284484597
20
0.432622451671961
30
0
41
1
10
42.4687147057783
20
0.443128177023965
30
0
41
1
10
42.5160758267788
20
0.460373605817637
30
0
41
1
10
42.5406155259399
20
0.467109497263948
30
0
41
1
10
42.56602766403
20
0.471697956521751
30
0
0
SPLINE
5
FA
100
AcDbEntity
8
1
62
256
6
ByLayer
370
18
48
1
60
0
100
AcDbSpline
70
4
71
3
72
20
73
16
40
0
40
0
40
0
40
0
40
0.483848915276507
40
0.483848915276507
40
0.656054787242945
40
0.656054787242945
40
0.751118893301378
40
0.751118893301378
40
0.831803157303202
40
0.831803157303202
40
0.912880897761833
40
0.912880897761833
40
0.98906087998466
40
0.98906087998466
40
1
40
1
40
1
40
1
41
1
10
42.3757992412651
20
-1.61098216722488
30
0
41
1
10
42.3783425010601
20
-1.6094983028897
30
0
41
1
10
42.3811075485941
20
-1.60781701422891
30
0
41
1
10
42.3849176932087
20
-1.60530625695236
30
0
41
1
10
42.3859532768687
20
-1.60460403306115
30
0
41
1
10
42.3874729515384
20
-1.60351645312949
30
0
41
1
10
42.3880055829745
20
-1.60312278543813
30
0
41
1
10
42.3888883747464
20
-1.60243557379439
30
0
41
1
10
42.3892612794972
20
-1.60212969356488
30
0
41
1
10
42.3898637752466
20
-1.60159412313516
30
0
41
1
10
42.3900994294712
20
-1.60135851572181
30
0
41
1
10
42.3903974819069
20
-1.6009997657969
30
0
41
1
10
42.3904744896619
20
-1.60086570480146
30
0
41
1
10
42.3904986977135
20
-1.60075513629508
30
0
41
1
10
42.3905006228939
20
-1.60074189191445
30
0
41
1
10
42.390501460242
20
-1.60072936627623
30
0
0
SPLINE
5
FB
100
AcDbEntity
8
1
62
256
6
ByLayer
370
18
48
1
60
0
100
AcDbSpline
70
4
71
3
72
8
73
4
40
0
40
0
40
0
40
0
40
1
40
1
40
1
40
1
41
1
10
42.2627911787071
20
-1.67513407027496
30
0
41
1
10
42.3003195998405
20
-1.65444110131352
30
0
41
1
10
42.3379779895435
20
-1.63304896773394
30
0
41
1
10
42.3757992412667
20
-1.61098216722328
30
0
0
SPLINE
5
FC
100
AcDbEntity
8
1
62
256
6
ByLayer
370
18
48
1
60
0
100
AcDbSpline
70
4
71
3
72
24
73
20
40
0
40
0
40
0
40
0
40
0.127583640672263
40
0.127583640672263
40
0.255167281344527
40
0.255167281344527
40
0.382750922016791
40
0.382750922016791
40
0.510334562689054
40
0.510334562689054
40
0.637918203361318
40
0.637918203361318
40
0.765501844033581
40
0.765501844033581
40
0.893085484705844
40
0.893085484705844
40
0.956877305041976
40
0.956877305041976
40
1
40
1
40
1
40
1
41
1
10
42.1552323938021
20
0.130728403652967
30
0
41
1
10
41.97438925923
20
0.238140410876611
30
0
41
1
10
41.7932965042331
20
0.343711675235511
30
0
41
1
10
41.4308743400424
20
0.551612985354637
30
0
41
1
10
41.2492026584995
20
0.653349922922558
30
0
41
1
10
40.8822764189343
20
0.847959311265811
30
-1E-16
41
1
10
40.7001276097534
20
0.940952888752264
30
-1E-16
41
1
10
40.337099500517
20
1.11232996199018
30
-1E-16
41
1
10
40.1562015116784
20
1.19144943720258
30
-1E-16
41
1
10
39.7945121641574
20
1.33513769796917
30
-1E-16
41
1
10
39.6129833588352
20
1.39891942821157
30
0
41
1
10
39.2489186545116
20
1.51045317326265
30
0
41
1
10
39.065017128745
20
1.55774580600556
30
0
41
1
10
38.700001671601
20
1.63157974934344
30
0
41
1
10
38.5191189142415
20
1.65883279161446
30
0
41
1
10
38.2475145139496
20
1.6842877796783
30
0
41
1
10
38.1569410667101
20
1.69024101141116
30
0
41
1
10
38.0052263715845
20
1.6960097398636
30
0
41
1
10
37.9441088632446
20
1.69718189852327
30
0
41
1
10
37.8829328011066
20
1.69718375880069
30
0
0
SPLINE
5
FD
100
AcDbEntity
8
1
62
256
6
ByLayer
370
18
48
1
60
0
100
AcDbSpline
70
4
71
3
72
54
73
50
40
0
40
0
40
0
40
0
40
0.0445935550204859
40
0.0445935550204859
40
0.0929071002520253
40
0.0929071002520253
40
0.141220645483565
40
0.141220645483565
40
0.165377418099336
40
0.165377418099336
40
0.189534190715106
40
0.189534190715106
40
0.237847735946648
40
0.237847735946648
40
0.28616128117819
40
0.28616128117819
40
0.334474826409732
40
0.334474826409732
40
0.382788371641274
40
0.382788371641274
40
0.431101916872816
40
0.431101916872816
40
0.479415462104358
40
0.479415462104358
40
0.503572234720128
40
0.503572234720128
40
0.527729007335899
40
0.527729007335899
40
0.576042552567438
40
0.576042552567438
40
0.624356097798977
40
0.624356097798977
40
0.672669643030517
40
0.672669643030517
40
0.720983188262056
40
0.720983188262056
40
0.769296733493595
40
0.769296733493595
40
0.817610278725134
40
0.817610278725134
40
0.865923823956673
40
0.865923823956673
40
0.914237369188213
40
0.914237369188213
40
0.962550914419752
40
0.962550914419752
40
0.986707687035522
40
0.986707687035522
40
1
40
1
40
1
40
1
41
1
10
31.2028487183743
20
-1.16937766266423
30
1E-16
41
1
10
31.0345451351735
20
-1.241287094234
30
1E-16
41
1
10
30.8668350114997
20
-1.306420124667
30
1E-16
41
1
10
30.5188820714305
20
-1.42847551294025
30
0
41
1
10
30.3378461075494
20
-1.48326923349902
30
0
41
1
10
29.9746663411816
20
-1.57486846477317
30
0
41
1
10
29.7929984135489
20
-1.61189853521245
30
0
41
1
10
29.5175656683922
20
-1.65216439680373
30
0
41
1
10
29.4257257201134
20
-1.66303005268372
30
0
41
1
10
29.2432977644279
20
-1.67968951235807
30
0
41
1
10
29.1524427222678
20
-1.68544461593871
30
0
41
1
10
28.8800140319272
20
-1.69495838338202
30
0
41
1
10
28.6987060112525
20
-1.6911249062546
30
0
41
1
10
28.3368458969964
20
-1.66311316496254
30
0
41
1
10
28.15534317417
20
-1.63910761140795
30
0
41
1
10
27.7906028312948
20
-1.57122564293707
30
0
41
1
10
27.6067623411788
20
-1.52668698059125
30
0
41
1
10
27.2413179994013
20
-1.42104198732147
30
0
41
1
10
27.060039928105
20
-1.35925778650485
30
1E-16
41
1
10
26.6976213896658
20
-1.22074891561167
30
1E-16
41
1
10
26.5163760421093
20
-1.14424626959956
30
1E-16
41
1
10
26.1537211039251
20
-0.976657830460425
30
1E-16
41
1
10
25.9713537736169
20
-0.886863689498398
30
1E-16
41
1
10
25.6960194363311
20
-0.743262795668016
30
0
41
1
10
25.6044151667474
20
-0.693854668935018
30
0
41
1
10
25.4218588639414
20
-0.594000785942598
30
0
41
1
10
25.3307915858488
20
-0.543362353024406
30
0
41
1
10
25.0579615826023
20
-0.389774242903542
30
0
41
1
10
24.8771713403237
20
-0.284136583184647
30
0
41
1
10
24.5147740035521
20
-0.0714776572497442
30
0
41
1
10
24.3332047927854
20
0.0355890057998636
30
0
41
1
10
23.9689112050946
20
0.250552096587398
30
0
41
1
10
23.7843220877069
20
0.357349911123094
30
0
41
1
10
23.4189820405368
20
0.564726315879454
30
0
41
1
10
23.2376831676537
20
0.665304538439216
30
0
41
1
10
22.8747650887213
20
0.855595169632693
30
-1E-16
41
1
10
22.6940515581417
20
0.946701596142276
30
-1E-16
41
1
10
22.3308625412397
20
1.11596903937408
30
-1E-16
41
1
10
22.1485788308146
20
1.19446558457037
30
-1E-16
41
1
10
21.7818121610789
20
1.33768949300472
30
-1E-16
41
1
10
21.5984033716428
20
1.40065278240485
30
0
41
1
10
21.2348972076833
20
1.5090846072722
30
0
41
1
10
21.0539707408959
20
1.55429935077234
30
0
41
1
10
20.6911160994267
20
1.62521207629948
30
0
41
1
10
20.5100829860985
20
1.65138466346633
30
0
41
1
10
20.2365010802309
20
1.67526478155455
30
0
41
1
10
20.1449698573478
20
1.68069436530948
30
0
41
1
10
20.0026291578104
20
1.68514169255695
30
0
41
1
10
19.9521246649104
20
1.68593483410493
30
0
41
1
10
19.901696987969
20
1.68594165507881
30
0
0
SPLINE
5
FE
100
AcDbEntity
8
1
62
256
6
ByLayer
370
18
48
1
60
0
100
AcDbSpline
70
4
71
3
72
36
73
32
40
0
40
0
40
0
40
0
40
0.0699421550948489
40
0.0699421550948489
40
0.116445047340109
40
0.116445047340109
40
0.162947939585369
40
0.162947939585369
40
0.255953724075887
40
0.255953724075887
40
0.302456616321145
40
0.302456616321145
40
0.348959508566402
40
0.348959508566402
40
0.441965293056917
40
0.441965293056917
40
0.488468185302174
40
0.488468185302174
40
0.53497107754743
40
0.53497107754743
40
0.627976862037945
40
0.627976862037945
40
0.72098264652846
40
0.72098264652846
40
0.767485538773718
40
0.767485538773718
40
0.813988431018975
40
0.813988431018975
40
0.906994215509488
40
0.906994215509488
40
1
40
1
40
1
40
1
41
1
10
13.0869213929888
20
-1.21727384936065
30
1E-16
41
1
10
12.9503865710904
20
-1.27245629157642
30
1E-16
41
1
10
12.8135844696872
20
-1.32342413107691
30
1E-16
41
1
10
12.5855192964859
20
-1.40130818215945
30
0
41
1
10
12.4941727147431
20
-1.43034731832756
30
0
41
1
10
12.3106416656326
20
-1.48398084766498
30
0
41
1
10
12.2184328375358
20
-1.50856012530633
30
0
41
1
10
11.9436120624466
20
-1.57496435983694
30
0
41
1
10
11.7621209613823
20
-1.60984540157384
30
0
41
1
10
11.4896256470789
20
-1.6468555745314
30
0
41
1
10
11.3987898663598
20
-1.65670133938443
30
0
41
1
10
11.2174961322296
20
-1.671494735479
30
0
41
1
10
11.1269276961588
20
-1.67638719740907
30
0
41
1
10
10.8544733948178
20
-1.68338840180479
30
0
41
1
10
10.6719849184064
20
-1.67798714299053
30
0
41
1
10
10.3970830507446
20
-1.65418638655089
30
0
41
1
10
10.3049839129149
20
-1.64363711725707
30
0
41
1
10
10.1217524436625
20
-1.61771674380725
30
0
41
1
10
10.0303388282735
20
-1.60235537018843
30
0
41
1
10
9.75696204456193
20
-1.54905737017774
30
0
41
1
10
9.57595122352899
20
-1.50372262832795
30
0
41
1
10
9.21280901753397
20
-1.39636176736101
30
0
41
1
10
9.03153669422503
20
-1.33362458269502
30
1E-16
41
1
10
8.75801796288576
20
-1.22774067452903
30
1E-16
41
1
10
8.66655350605629
20
-1.19052500705917
30
1E-16
41
1
10
8.48291450609722
20
-1.11237392984245
30
1E-16
41
1
10
8.39072315591164
20
-1.07128029281651
30
1E-16
41
1
10
8.11544796697319
20
-0.943495459805632
30
1E-16
41
1
10
7.93242757469355
20
-0.852663281067294
30
1E-16
41
1
10
7.566761382599
20
-0.660677861598174
30
0
41
1
10
7.3838870550087
20
-0.559801475595634
30
0
41
1
10
7.19926578380344
20
-0.456871199948921
30
0
0
SPLINE
5
FF
100
AcDbEntity
8
1
62
256
6
ByLayer
370
18
48
1
60
0
100
AcDbSpline
70
4
71
3
72
14
73
10
40
0
40
0
40
0
40
0
40
0.25
40
0.25
40
0.5
40
0.5
40
0.75
40
0.75
40
1
40
1
40
1
40
1
41
1
10
42.472721540901
20
0.267364142788551
30
0
41
1
10
42.4455755920468
20
0.27185142737028
30
0
41
1
10
42.4175519831807
20
0.26930905010326
30
0
41
1
10
42.361869646096
20
0.260801212078945
30
0
41
1
10
42.3343621855907
20
0.252730167991586
30
0
41
1
10
42.2806071510794
20
0.228769134742663
30
0
41
1
10
42.2542900501423
20
0.213722730968186
30
0
41
1
10
42.2032036288691
20
0.177632886452102
30
0
41
1
10
42.1784368112667
20
0.15587827740498
30
0
41
1
10
42.1552323938018
20
0.130728403652853
30
0
0
SPLINE
5
100
100
AcDbEntity
8
1
62
256
6
ByLayer
370
18
48
1
60
0
100
AcDbSpline
70
4
71
3
72
61
73
57
40
0
40
0
40
0
40
0
40
0.0163051365356314
40
0.0163051365356314
40
0.0550703815440378
40
0.0550703815440378
40
0.0744530040482411
40
0.0744530040482411
40
0.0841443153003427
40
0.0889899709263934
40
0.0914127987394188
40
0.0926242126459314
40
0.0926242126459314
40
0.0932299195991878
40
0.0932299195991878
40
0.0938356265524441
40
0.0938356265524441
40
0.0962584543654695
40
0.0962584543654695
40
0.0986812821784948
40
0.0986812821784948
40
0.103526937804545
40
0.103526937804545
40
0.113218249056647
40
0.113218249056647
40
0.132600871560849
40
0.132600871560849
40
0.171366116569255
40
0.171366116569255
40
0.248896606586066
40
0.248896606586066
40
0.403957586619688
40
0.403957586619688
40
0.442722831628093
40
0.442722831628093
40
0.481488076636499
40
0.481488076636499
40
0.500870699140701
40
0.500870699140701
40
0.503293526953727
40
0.503293526953727
40
0.504504940860239
40
0.504504940860239
40
0.505110647813496
40
0.505110647813496
40
0.505716354766752
40
0.505716354766752
40
0.506927768673265
40
0.506927768673265
40
0.508139182579778
40
0.510562010392803
40
0.520253321644906
40
0.559018566653317
40
0.869140526720608
40
0.869140526720608
40
1
40
1
40
1
40
1
41
1
10
8.29423703773523
20
1.28352270502344
30
-1E-16
41
1
10
8.29277470129384
20
1.26393935044735
30
-1E-16
41
1
10
8.28958493116392
20
1.24402269517887
30
-1E-16
41
1
10
8.2746362980433
20
1.17454356536146
30
0
41
1
10
8.25784551770329
20
1.12141860035376
30
0
41
1
10
8.22254496578938
20
1.03724154215996
30
0
41
1
10
8.20967339864029
20
1.00812766644546
30
0
41
1
10
8.18672681229094
20
0.964132839470324
30
1E-16
41
1
10
8.17439051635341
20
0.94202853825098
30
1E-16
41
1
10
8.15870333432011
20
0.916017224929107
30
1E-16
41
1
10
8.15055981414707
20
0.902948734019816
30
-1E-16
41
1
10
8.14700817259288
20
0.897334105212366
30
-1E-16
41
1
10
8.14522229040691
20
0.894524412110002
30
-1E-16
41
1
10
8.14436860817267
20
0.893665239995585
30
-1E-16
41
1
10
8.14437036365132
20
0.891305284381929
30
-1E-16
41
1
10
8.14518759420355
20
0.89005321419134
30
-1E-16
41
1
10
8.14941486245417
20
0.884418026967268
30
-1E-16
41
1
10
8.1539944137516
20
0.880616120932245
30
-1E-16
41
1
10
8.16282449305419
20
0.872936761483459
30
-1E-16
41
1
10
8.16734176906158
20
0.869198112754162
30
-1E-16
41
1
10
8.1809944544145
20
0.858081571407581
30
-1E-16
41
1
10
8.19024341517812
20
0.850815643933316
30
-1E-16
41
1
10
8.21813355939378
20
0.829158038840063
30
-1E-16
41
1
10
8.23692420327762
20
0.814934980154703
30
0
41
1
10
8.29347649188747
20
0.772476806733437
30
0
41
1
10
8.33145149579775
20
0.744476020422383
30
0
41
1
10
8.44563946775349
20
0.660753234558854
30
0
41
1
10
8.52215660786121
20
0.6053831581319
30
0
41
1
10
8.75175585180185
20
0.439262264528963
30
0
41
1
10
8.90489328097669
20
0.328470834232434
30
0
41
1
10
9.36390632517924
20
-0.0048651172945711
30
0
41
1
10
9.66945254240159
20
-0.228213226613207
30
0
41
1
10
10.051874509783
20
-0.50712086013192
30
0
41
1
10
10.1283878034014
20
-0.562876535008229
30
0
41
1
10
10.281207451715
20
-0.674702996739626
30
0
41
1
10
10.3575504949054
20
-0.730732135776464
30
0
41
1
10
10.4709511145633
20
-0.816284514371347
30
0
41
1
10
10.5089281932136
20
-0.844651282418425
30
0
41
1
10
10.5497526616683
20
-0.878872954358144
30
0
41
1
10
10.5542516263927
20
-0.882714800740757
30
0
41
1
10
10.5607918831865
20
-0.888699118752783
30
0
41
1
10
10.5629471207304
20
-0.89072285475774
30
0
41
1
10
10.5659846801391
20
-0.893958618638408
30
0
41
1
10
10.566976225116
20
-0.895063407645011
30
0
41
1
10
10.5686086355482
20
-0.89748475201975
30
0
41
1
10
10.568975213821
20
-0.8992725272185
30
0
41
1
10
10.565094244592
20
-0.900235926567547
30
0
41
1
10
10.5621503844881
20
-0.899429804863985
30
0
41
1
10
10.5565734222293
20
-0.898945009242823
30
0
41
1
10
10.5482082298805
20
-0.898216954127378
30
0
41
1
10
10.5175386276998
20
-0.895537938433705
30
0
41
1
10
10.400471566726
20
-0.885188232989748
30
0
41
1
10
9.57642421227371
20
-0.808843989387526
30
0
41
1
10
8.78171496594609
20
-0.71042584910569
30
0
41
1
10
7.78659679134842
20
-0.557904497915843
30
0
41
1
10
7.49241068462371
20
-0.509130641152922
30
0
41
1
10
7.19926578380986
20
-0.456871199950058
30
0
0
SPLINE
5
101
100
AcDbEntity
8
1
62
256
6
ByLayer
370
18
48
1
60
0
100
AcDbSpline
70
4
71
3
72
12
73
8
40
0
40
0
40
0
40
0
40
0.664258551229909
40
0.664258551229909
40
0.996387826844764
40
0.996387826844764
40
1
40
1
40
1
40
1
41
1
10
42.2690241374532
20
-1.69925646833545
30
0
41
1
10
42.2938928016533
20
-1.68317229361298
30
0
41
1
10
42.3188197080257
20
-1.66680409519341
30
0
41
1
10
42.3563121876953
20
-1.64183820304237
30
0
41
1
10
42.3688259756712
20
-1.63344779046355
30
0
41
1
10
42.3814960688836
20
-1.62489629131804
30
0
41
1
10
42.3816323863867
20
-1.6248042791814
30
0
41
1
10
42.3817687064783
20
-1.62471225872366
30
0
0
SPLINE
5
102
100
AcDbEntity
8
1
62
256
6
ByLayer
370
18
48
1
60
0
100
AcDbSpline
70
4
71
3
72
18
73
14
40
0
40
0
40
0
40
0
40
0.161628266416596
40
0.161628266416596
40
0.323256532833192
40
0.323256532833192
40
0.484884799249788
40
0.484884799249788
40
0.646513065666384
40
0.646513065666384
40
0.969769598499576
40
0.969769598499576
40
1
40
1
40
1
40
1
41
1
10
42.9694516637027
20
0.0263878624964775
30
0
41
1
10
42.9617352690625
20
0.0006430387672651
30
0
41
1
10
42.9529104599408
20
-0.0245496798040392
30
0
41
1
10
42.9329578095747
20
-0.0737540810680457
30
0
41
1
10
42.9217328087838
20
-0.0978642398627869
30
0
41
1
10
42.8981703738877
20
-0.141771973101868
30
0
41
1
10
42.885473361282
20
-0.162263040717079
30
0
41
1
10
42.8596205210924
20
-0.197482730461814
30
0
41
1
10
42.8467124244326
20
-0.211991104744044
30
0
41
1
10
42.8079317746235
20
-0.245696328845781
30
0
41
1
10
42.7843979113919
20
-0.252508461814642
30
0
41
1
10
42.7627011144557
20
-0.245183176884609
30
0
41
1
10
42.7608800640637
20
-0.244445047817067
30
0
41
1
10
42.7590926049434
20
-0.243598962730402
30
0
0
SPLINE
5
103
100
AcDbEntity
8
1
62
256
6
ByLayer
370
18
48
1
60
0
100
AcDbSpline
70
4
71
3
72
8
73
4
40
0
40
0
40
0
40
0
40
1
40
1
40
1
40
1
41
1
10
42.7379830300662
20
-0.227165667735107
30
0
41
1
10
42.7297504569074
20
-0.217941457426235
30
0
41
1
10
42.7223966681272
20
-0.206003625399376
30
0
41
1
10
42.7157808879118
20
-0.191945343298755
30
0
0
SPLINE
5
104
100
AcDbEntity
8
1
62
256
6
ByLayer
370
18
48
1
60
0
100
AcDbSpline
70
4
71
3
72
8
73
4
40
0
40
0
40
0
40
0
40
1
40
1
40
1
40
1
41
1
10
26.0034851140073
20
1.54801458133127
30
0
41
1
10
26.0033104967462
20
1.5484226434159
30
0
41
1
10
26.0032205688139
20
1.54883728625214
30
0
41
1
10
26.0032206328974
20
1.54924967889198
30
0
0
SPLINE
5
105
100
AcDbEntity
8
1
62
256
6
ByLayer
370
18
48
1
60
0
100
AcDbSpline
70
4
71
3
72
12
73
8
40
0
40
0
40
0
40
0
40
0.5
40
0.5
40
0.75
40
0.75
40
1
40
1
40
1
40
1
41
1
10
42.4258072309975
20
1.59478738325578
30
0
41
1
10
42.4896303176805
20
1.4156042463178
30
0
41
1
10
42.553635226949
20
1.23380923049993
30
0
41
1
10
42.6525355955737
20
0.963817145779615
30
0
41
1
10
42.6872687098299
20
0.87495591058692
30
0
41
1
10
42.7648221661566
20
0.70154508329091
30
0
41
1
10
42.8063479585758
20
0.61990125755176
30
0
41
1
10
42.8506555424605
20
0.544448168387902
30
0
0
SPLINE
5
106
100
AcDbEntity
8
1
62
256
6
ByLayer
370
18
48
1
60
0
100
AcDbSpline
70
4
71
3
72
18
73
14
40
0
40
0
40
0
40
0
40
0.0406694300765431
40
0.0406694300765431
40
0.232535544061234
40
0.232535544061234
40
0.424401658045926
40
0.424401658045926
40
0.616267772030617
40
0.616267772030617
40
0.808133886015309
40
0.808133886015309
40
1
40
1
40
1
40
1
41
1
10
26.0032572311091
20
-1.68975408131169
30
0
41
1
10
26.0032580455441
20
-1.68976446023751
30
0
41
1
10
26.0032588538681
20
-1.68949874193032
30
0
41
1
10
26.0032634401806
20
-1.68638943844945
30
0
41
1
10
26.0032670871359
20
-1.67776851079512
30
0
41
1
10
26.0032742956213
20
-1.64867256531141
30
0
41
1
10
26.0032778604591
20
-1.62817177975558
30
0
41
1
10
26.0032850054585
20
-1.57490180120288
30
0
41
1
10
26.0032885040391
20
-1.5427589101576
30
0
41
1
10
26.0032953934061
20
-1.46789787266712
30
0
41
1
10
26.0032987842448
20
-1.42517876260473
30
0
41
1
10
26.0033054026451
20
-1.32890504253186
30
1E-16
41
1
10
26.0033086208278
20
-1.27538472446469
30
1E-16
41
1
10
26.0033116063377
20
-1.21760669226202
30
1E-16
0
SPLINE
5
107
100
AcDbEntity
8
1
62
256
6
ByLayer
370
18
48
1
60
0
100
AcDbSpline
70
4
71
3
72
38
73
34
40
0
40
0
40
0
40
0
40
0.0319085265278165
40
0.0319085265278165
40
0.104742459665893
40
0.104742459665893
40
0.177576392803969
40
0.177576392803969
40
0.250410325942045
40
0.250410325942045
40
0.286827292511081
40
0.286827292511081
40
0.323244259080117
40
0.323244259080117
40
0.396078192218184
40
0.396078192218184
40
0.468912125356251
40
0.468912125356251
40
0.541746058494318
40
0.541746058494318
40
0.614579991632385
40
0.614579991632385
40
0.687413924770453
40
0.687413924770453
40
0.76024785790852
40
0.76024785790852
40
0.833081791046587
40
0.833081791046587
40
0.905915724184654
40
0.905915724184654
40
0.978749657322721
40
0.978749657322721
40
1
40
1
40
1
40
1
41
1
10
28.4388112407058
20
1.61731392425122
30
0
41
1
10
28.5125248019532
20
1.61763714288674
30
0
41
1
10
28.5861440032777
20
1.61639036627088
30
0
41
1
10
28.8267281793963
20
1.6073343665052
30
0
41
1
10
28.9928556253688
20
1.59385403876246
30
0
41
1
10
29.3253569457756
20
1.54947161059857
30
0
41
1
10
29.4917660149018
20
1.51843251391861
30
0
41
1
10
29.8248384664969
20
1.44247117767014
30
0
41
1
10
29.9911429811906
20
1.397860726072
30
0
41
1
10
30.2428247058147
20
1.31906505054587
30
0
41
1
10
30.3273319759215
20
1.29070106588677
30
0
41
1
10
30.4957848096946
20
1.23090907148236
30
-1E-16
41
1
10
30.5797577999929
20
1.19947476815506
30
-1E-16
41
1
10
30.8310553894779
20
1.10106006698496
30
-1E-16
41
1
10
30.9976550126656
20
1.03001501171141
30
-1E-16
41
1
10
31.3304286556428
20
0.878272771545369
30
-1E-16
41
1
10
31.4964459684821
20
0.797461224627625
30
0
41
1
10
31.8300669253342
20
0.628399670414126
30
0
41
1
10
31.9978176599041
20
0.540134410592685
30
0
41
1
10
32.3345420415632
20
0.357487497279664
30
0
41
1
10
32.5026751075613
20
0.263194717898728
30
0
41
1
10
32.836826919277
20
0.0750678607463442
30
0
41
1
10
33.0035594480862
20
-0.0187491115053717
30
0
41
1
10
33.336395203247
20
-0.206208928901759
30
0
41
1
10
33.5024167921033
20
-0.30000276104596
30
0
41
1
10
33.8360614230522
20
-0.483162676664108
30
0
41
1
10
34.0037961493994
20
-0.572303562846457
30
0
41
1
10
34.3408375314823
20
-0.746409060869524
30
0
41
1
10
34.5087009921365
20
-0.830865107687629
30
1E-16
41
1
10
34.8444665760983
20
-0.988350189961352
30
1E-16
41
1
10
35.0126024752048
20
-1.06127078566394
30
1E-16
41
1
10
35.230200177044
20
-1.14910786230044
30
1E-16
41
1
10
35.2793403385523
20
-1.16851034591247
30
1E-16
41
1
10
35.3284421810304
20
-1.18742661155409
30
1E-16
0
SPLINE
5
108
100
AcDbEntity
8
1
62
256
6
ByLayer
370
18
48
1
60
0
100
AcDbSpline
70
4
71
3
72
8
73
4
40
0
40
0
40
0
40
0
40
1
40
1
40
1
40
1
41
1
10
42.1615539728452
20
-0.112213201551725
30
0
41
1
10
42.1737631180138
20
-0.117785091455687
30
0
41
1
10
42.185914122183
20
-0.122992033656658
30
0
41
1
10
42.1980151374196
20
-0.12784100659357
30
0
0
SPLINE
5
109
100
AcDbEntity
8
1
62
256
6
ByLayer
370
18
48
1
60
0
100
AcDbSpline
70
2053
71
3
72
36
73
32
40
0
40
0
40
0
40
0
40
0.124999999999998
40
0.124999999999998
40
0.187499999999997
40
0.187499999999997
40
0.249999999999996
40
0.249999999999996
40
0.312499999999995
40
0.312499999999995
40
0.343749999999995
40
0.343749999999995
40
0.374999999999994
40
0.374999999999994
40
0.437499999999988
40
0.437499999999988
40
0.499999999999981
40
0.499999999999981
40
0.624999999999979
40
0.624999999999979
40
0.687499999999982
40
0.687499999999982
40
0.749999999999986
40
0.749999999999986
40
0.81249999999999
40
0.81249999999999
40
0.874999999999993
40
0.874999999999993
40
0.937499999999997
40
0.937499999999997
40
1
40
1
40
1
40
1
41
1
10
42.5893189176876
20
-0.69221876819168
30
0
41
1
10
42.5622815488482
20
-0.72599023579599
30
0
41
1
10
42.5381192062325
20
-0.73912260291641
30
0
41
1
10
42.5086188236852
20
-0.724827192414779
30
0
41
1
10
42.5002216487006
20
-0.714608934313276
30
0
41
1
10
42.4861060747138
20
-0.682637014712384
30
0
41
1
10
42.4807035661227
20
-0.661604433891029
30
0
41
1
10
42.4737738159822
20
-0.609097576332772
30
0
41
1
10
42.4724312407282
20
-0.578755489054771
30
0
41
1
10
42.4746264023518
20
-0.528837253386428
30
0
41
1
10
42.4760457670117
20
-0.511959454187945
30
0
41
1
10
42.4804161743959
20
-0.477732126261856
30
0
41
1
10
42.4834168036568
20
-0.460265861672696
30
0
41
1
10
42.4944830226538
20
-0.410229364805957
30
0
41
1
10
42.5049070881756
20
-0.378826214681141
30
0
41
1
10
42.5296547686311
20
-0.326255646264883
30
0
41
1
10
42.5438214197391
20
-0.305150068551228
30
0
41
1
10
42.5876589280749
20
-0.258490879017728
30
0
41
1
10
42.6187717929586
20
-0.248855735384524
30
0
41
1
10
42.6569812877075
20
-0.263618317997697
30
0
41
1
10
42.6684728968741
20
-0.273513476365537
30
0
41
1
10
42.686667394849
20
-0.303773693079023
30
0
41
1
10
42.6933617661922
20
-0.324333482319958
30
0
41
1
10
42.6992759250372
20
-0.37512469929203
30
0
41
1
10
42.6984010802967
20
-0.405722815368392
30
0
41
1
10
42.6885331476528
20
-0.471195511030373
30
0
41
1
10
42.6795424052349
20
-0.506093516218186
30
0
41
1
10
42.6572553524825
20
-0.571082412846096
30
0
41
1
10
42.6440112193799
20
-0.601423924150708
30
0
41
1
10
42.6168379748717
20
-0.65344121044339
30
0
41
1
10
42.6028376021074
20
-0.675333034389524
30
0
41
1
10
42.5893189176876
20
-0.69221876819168
30
0
0
SPLINE
5
10A
100
AcDbEntity
8
1
62
256
6
ByLayer
370
18
48
1
60
0
100
AcDbSpline
70
4
71
3
72
20
73
16
40
0
40
0
40
0
40
0
40
0.483848915270735
40
0.483848915270735
40
0.656054787231814
40
0.656054787231814
40
0.751118893293523
40
0.751118893293523
40
0.831803157295758
40
0.831803157295758
40
0.912880897754519
40
0.912880897754519
40
0.989060879976876
40
0.989060879976876
40
1
40
1
40
1
40
1
41
1
10
42.3757992412651
20
1.61098216722488
30
0
41
1
10
42.3783425010601
20
1.6094983028897
30
0
41
1
10
42.381107548594
20
1.60781701422894
30
0
41
1
10
42.3849176932086
20
1.60530625695242
30
0
41
1
10
42.3859532768686
20
1.60460403306121
30
0
41
1
10
42.3874729515383
20
1.60351645312957
30
0
41
1
10
42.3880055829744
20
1.60312278543819
30
0
41
1
10
42.3888883747463
20
1.60243557379442
30
0
41
1
10
42.3892612794972
20
1.60212969356493
30
0
41
1
10
42.3898637752466
20
1.60159412313519
30
0
41
1
10
42.3900994294712
20
1.60135851572181
30
0
41
1
10
42.3903974819069
20
1.60099976579693
30
0
41
1
10
42.3904744896619
20
1.60086570480146
30
0
41
1
10
42.3904986977135
20
1.60075513629505
30
0
41
1
10
42.3905006228939
20
1.60074189191445
30
0
41
1
10
42.390501460242
20
1.6007293662762
30
0
0
SPLINE
5
10B
100
AcDbEntity
8
1
62
256
6
ByLayer
370
18
48
1
60
0
100
AcDbSpline
70
4
71
3
72
8
73
4
40
0
40
0
40
0
40
0
40
1
40
1
40
1
40
1
41
1
10
42.2627911787071
20
1.67513407027494
30
0
41
1
10
42.3003195998405
20
1.65444110131352
30
0
41
1
10
42.3379779895434
20
1.63304896773397
30
0
41
1
10
42.3757992412667
20
1.61098216722328
30
0
0
SPLINE
5
10C
100
AcDbEntity
8
1
62
256
6
ByLayer
370
18
48
1
60
0
100
AcDbSpline
70
4
71
3
72
12
73
8
40
0
40
0
40
0
40
0
40
0.260099736649427
40
0.43389536082715
40
0.540501729920817
40
0.75011405033623
40
1
40
1
40
1
40
1
41
1
10
28.4679710859276
20
1.60739547515306
30
0
41
1
10
28.2627379108488
20
1.60787623918748
30
0
41
1
10
27.9205306976667
20
1.60813976437007
30
0
41
1
10
27.494162738856
20
1.6065147018395
30
0
41
1
10
27.1084235494511
20
1.60560623174175
30
0
41
1
10
26.6614108355328
20
1.60696511057478
30
0
41
1
10
26.2993865264812
20
1.60581766843114
30
0
41
1
10
26.1025232147919
20
1.60499978838143
30
0
0
SPLINE
5
10D
100
AcDbEntity
8
1
62
256
6
ByLayer
370
18
48
1
60
0
100
AcDbSpline
70
4
71
2
72
6
73
3
40
0
40
0
40
0
40
1
40
1
40
1
41
1
10
32.9685848747314
20
0.0009086469491422
30
0
41
1
10
32.9684998334795
20
0.000959742980541
30
0
41
1
10
32.9684147917739
20
0.0010138883453124
30
0
0
SPLINE
5
10E
100
AcDbEntity
8
1
62
256
6
ByLayer
370
18
48
1
60
0
100
AcDbSpline
70
4
71
3
72
10
73
6
40
0
40
0
40
0
40
0
40
0.018100661034838
40
0.425220503610523
40
1
40
1
40
1
40
1
41
1
10
42.4347325746503
20
0.286459207617071
30
0
41
1
10
42.4206166363185
20
0.291527124760279
30
0
41
1
10
42.0890870136467
20
0.410797704969582
30
0
41
1
10
41.3156177429979
20
0.708257462412206
30
0
41
1
10
40.562430906784
20
1.01524357724654
30
-1E-16
41
1
10
40.1244666870695
20
1.20242151740851
30
-1E-16
0
SPLINE
5
10F
100
AcDbEntity
8
1
62
256
6
ByLayer
370
18
48
1
60
0
100
AcDbSpline
70
4
71
1
72
4
73
2
40
0
40
0
40
1
40
1
41
1
10
42.4257932043872
20
1.59499615852178
30
0
41
1
10
42.3818253151069
20
1.62467405225064
30
0
0
SPLINE
5
110
100
AcDbEntity
8
1
62
256
6
ByLayer
370
18
48
1
60
0
100
AcDbSpline
70
4
71
1
72
4
73
2
40
0
40
0
40
1
40
1
41
1
10
42.3818253151074
20
-1.6246740522503
30
0
41
1
10
42.4257932043871
20
-1.59499615852181
30
0
0
SPLINE
5
111
100
AcDbEntity
8
1
62
256
6
ByLayer
370
18
48
1
60
0
100
AcDbSpline
70
4
71
3
72
24
73
20
40
0
40
0
40
0
40
0
40
3.53862244015E-05
40
6.56474606741E-05
40
9.41169024337E-05
40
0.0001977102807164
40
0.0002896259922779
40
0.0004588813479389
40
0.0014684778931276
40
0.0022947537339347
40
0.0038602353729114
40
0.0069433876150974
40
0.0133691360163229
40
0.0277874179430793
40
0.0537296952166467
40
0.0951438201026049
40
0.271416875004123
40
0.573139710378973
40
1
40
1
40
1
40
1
41
1
10
34.2641456780365
20
-0.0097174004769158
30
0
41
1
10
34.264147513968
20
-0.0097163926657799
30
0
41
1
10
34.2641443501604
20
-0.0097122740340012
30
0
41
1
10
34.2641138411976
20
-0.0096975935394426
30
0
41
1
10
34.264015077392
20
-0.0096574884865106
30
0
41
1
10
34.2638674142108
20
-0.009598573569491
30
0
41
1
10
34.263562257233
20
-0.0094826571432236
30
0
41
1
10
34.2622527971529
20
-0.0090116607829316
30
0
41
1
10
34.260090242746
20
-0.008263820301039
30
0
41
1
10
34.2565339508715
20
-0.0069999856102072
30
0
41
1
10
34.2507589264774
20
-0.0049627720533749
30
0
41
1
10
34.239090077879
20
-0.0008432172061532
30
0
41
1
10
34.2138014563783
20
0.0080489751811967
30
0
41
1
10
34.1642529924667
20
0.0253922865902609
30
0
41
1
10
34.0774598346103
20
0.0556731891593074
30
0
41
1
10
33.8188335410464
20
0.146381663714067
30
0
41
1
10
33.2692664863711
20
0.344418264195184
30
0
41
1
10
32.3179153470742
20
0.706181399047153
30
0
41
1
10
31.5597913165231
20
1.01671308936085
30
-1E-16
41
1
10
31.1182857022473
20
1.20538589103563
30
-1E-16
0
SPLINE
5
112
100
AcDbEntity
8
1
62
256
6
ByLayer
370
18
48
1
60
0
100
AcDbSpline
70
4
71
3
72
23
73
19
40
0
40
0
40
0
40
0
40
3.07394210549E-05
40
7.77497334378E-05
40
0.0001594458570877
40
0.0002334952320934
40
0.0003664374927998
40
0.0004915821547509
40
0.0015348911038635
40
0.0023659160981432
40
0.0038931975265076
40
0.0067590075355767
40
0.0123200684447906
40
0.0236713500356444
40
0.0944743529162215
40
0.27355849050068
40
0.575503014077533
40
1
40
1
40
1
40
1
41
1
10
16.2110079437128
20
0.0084157359649453
30
0
41
1
10
16.2110120361924
20
0.008416364016
30
0
41
1
10
16.2110173921547
20
0.0084197079895887
30
0
41
1
10
16.210991390119
20
0.0084394071561462
30
0
41
1
10
16.2108495452104
20
0.0084988380496327
30
0
41
1
10
16.2106495722334
20
0.0085819454407954
30
0
41
1
10
16.2103568107239
20
0.0086959131820095
30
0
41
1
10
16.209044866294
20
0.0091751922704191
30
0
41
1
10
16.206922601155
20
0.0099097978155669
30
0
41
1
10
16.203435084417
20
0.0111658959592944
30
0
41
1
10
16.1980309729068
20
0.0130930604862556
30
0
41
1
10
16.1877539445877
20
0.0167655906609525
30
0
41
1
10
16.1672839130022
20
0.0240512094476344
30
0
41
1
10
16.0763120074537
20
0.0562228067502986
30
0
41
1
10
15.8038269392649
20
0.151419628459735
30
0
41
1
10
15.2313522133775
20
0.358690006667274
30
0
41
1
10
14.297437498724
20
0.714519282355013
30
0
41
1
10
13.5562393245686
20
1.01833928862851
30
-1E-16
41
1
10
13.125719500199
20
1.20221424445339
30
-1E-16
0
SPLINE
5
113
100
AcDbEntity
8
1
62
256
6
ByLayer
370
18
48
1
60
0
100
AcDbSpline
70
4
71
3
72
8
73
4
40
0
40
0
40
0
40
0
40
1
40
1
40
1
40
1
41
1
10
18.8283365717389
20
0.552096876272941
30
0
41
1
10
18.7943222287496
20
0.570810894001681
30
0
41
1
10
18.7601339892487
20
0.589888461228497
30
0
41
1
10
18.7259073213737
20
0.609298626877461
30
0
0
SPLINE
5
114
100
AcDbEntity
8
1
62
256
6
ByLayer
370
18
48
1
60
0
100
AcDbSpline
70
4
71
3
72
25
73
21
40
0
40
0
40
0
40
0
40
4.03388881948E-05
40
7.63433813322E-05
40
0.0001898582079409
40
0.0002690217480307
40
0.0003010568525892
40
0.0003306134791839
40
0.0005934813614633
40
0.0008025502898477
40
0.0011839240140275
40
0.0018905709545147
40
0.0032341589984012
40
0.0058943910286515
40
0.0114817615189898
40
0.0505588023840812
40
0.147851270247603
40
0.328162047310354
40
0.624404731099352
40
1
40
1
40
1
40
1
41
1
10
25.2908872016011
20
-0.0177647267356349
30
0
41
1
10
25.2908981801809
20
-0.0177672529098345
30
0
41
1
10
25.2909127760519
20
-0.0177698791638363
30
0
41
1
10
25.2908748238091
20
-0.0177511792930432
30
0
41
1
10
25.2908185206373
20
-0.0177252919713737
30
0
41
1
10
25.2906987577085
20
-0.0176787465038046
30
0
41
1
10
25.2905885784972
20
-0.0176386624502243
30
0
41
1
10
25.2902900220776
20
-0.0175330681113337
30
0
41
1
10
25.2897304963408
20
-0.0173456055290444
30
0
41
1
10
25.288941998653
20
-0.0170677481033294
30
0
41
1
10
25.2876791530333
20
-0.0166310119271316
30
0
41
1
10
25.2853350585117
20
-0.0158223920797695
30
0
41
1
10
25.2807212930884
20
-0.0142501339834951
30
0
41
1
10
25.271204067205
20
-0.0110462041062931
30
0
41
1
10
25.2232499464742
20
0.0049791702595883
30
0
41
1
10
25.0760161344554
20
0.056122977276857
30
0
41
1
10
24.7508874959337
20
0.170183484031554
30
0
41
1
10
24.1617154176713
20
0.384308239017088
30
0
41
1
10
23.2931300718286
20
0.716253349507667
30
0
41
1
10
22.6146390443454
20
0.995005878344898
30
-1E-16
41
1
10
22.2373641312046
20
1.15602699763716
30
-1E-16
0
SPLINE
5
115
100
AcDbEntity
8
1
62
256
6
ByLayer
370
18
48
1
60
0
100
AcDbSpline
70
4
71
3
72
15
73
11
40
0
40
0
40
0
40
0
40
0.209264106789
40
0.357328829552589
40
0.473375577489631
40
0.552861443710267
40
0.621829024493974
40
0.683375875657178
40
0.931090103424041
40
1
40
1
40
1
40
1
41
1
10
33.7533472046128
20
-1.60995667639753
30
0
41
1
10
33.9512673678323
20
-1.60994735051545
30
0
41
1
10
34.2892335597681
20
-1.60995437778865
30
0
41
1
10
34.7369850542734
20
-1.61077196376598
30
0
41
1
10
35.061980508238
20
-1.61041397882917
30
0
41
1
10
35.3121695406294
20
-1.61030190612507
30
0
41
1
10
35.5108046961458
20
-1.61048491878756
30
0
41
1
10
35.8685638454003
20
-1.61129239846827
30
0
41
1
10
36.226261352846
20
-1.6109233063205
30
0
41
1
10
36.5257480142981
20
-1.61091355370331
30
0
41
1
10
36.5909282868191
20
-1.61092241736131
30
0
0
SPLINE
5
116
100
AcDbEntity
8
1
62
256
6
ByLayer
370
18
48
1
60
0
100
AcDbSpline
70
4
71
3
72
13
73
9
40
0
40
0
40
0
40
0
40
0.367022111555135
40
0.606846511553885
40
0.783374304564343
40
0.838075451882683
40
0.922509513032119
40
1
40
1
40
1
40
1
41
1
10
37.4711310406454
20
1.61141903725803
30
0
41
1
10
37.112547043761
20
1.61118166969317
30
0
41
1
10
36.5196556702435
20
1.61073192176462
30
0
41
1
10
35.754313496041
20
1.61119003519957
30
0
41
1
10
35.2940950091527
20
1.61020313631215
30
0
41
1
10
34.9856870044272
20
1.61052224464763
30
0
41
1
10
34.7740541574841
20
1.61066875430964
30
0
41
1
10
34.6158565009316
20
1.61049862431835
30
0
41
1
10
34.5401496852403
20
1.61040392221503
30
0
0
SPLINE
5
117
100
AcDbEntity
8
1
62
256
6
ByLayer
370
18
48
1
60
0
100
AcDbSpline
70
4
71
3
72
8
73
4
40
0
40
0
40
0
40
0
40
1
40
1
40
1
40
1
41
1
10
34.2322741808635
20
1.61006407362768
30
0
41
1
10
34.0726277420437
20
1.60995206188917
30
0
41
1
10
33.912986272951
20
1.60994915429822
30
0
41
1
10
33.7533472046127
20
1.60995667639753
30
0
0
SPLINE
5
118
100
AcDbEntity
8
1
62
256
6
ByLayer
370
18
48
1
60
0
100
AcDbSpline
70
4
71
3
72
11
73
7
40
0
40
0
40
0
40
0
40
0.37925244396369
40
0.69738151408314
40
0.859178230046032
40
1
40
1
40
1
40
1
41
1
10
26.1025232147919
20
-1.60499978838143
30
0
41
1
10
26.2993865264812
20
-1.60581766843114
30
0
41
1
10
26.6614108355328
20
-1.60696511057478
30
0
41
1
10
27.1084235494511
20
-1.60560623174175
30
0
41
1
10
27.4303921094346
20
-1.60636451302921
30
0
41
1
10
27.5875860637698
20
-1.60689760605641
30
0
41
1
10
27.6607571975432
20
-1.6071238904093
30
0
0
LINE
5
84
100
AcDbEntity
8
SK1
62
256
6
ByLayer
370
18
48
1
60
0
100
AcDbLine
10
-35.75
20
2.139671
30
0
11
-35.75
21
2.232233
31
0
39
0
210
0
220
0
230
1
0
LINE
5
86
100
AcDbEntity
8
SK1
62
256
6
ByLayer
370
18
48
1
60
0
100
AcDbLine
10
-35.065
20
-3
30
0
11
-35.065
21
3
31
0
39
0
210
0
220
0
230
1
0
LINE
5
87
100
AcDbEntity
8
SK1
62
256
6
ByLayer
370
18
48
1
60
0
100
AcDbLine
10
-36
20
1.763746
30
0
11
-36
21
1.882596
31
0
39
0
210
0
220
0
230
1
0
LINE
5
88
100
AcDbEntity
8
SK1
62
256
6
ByLayer
370
18
48
1
60
0
100
AcDbLine
10
-35.850962
20
2.03291
30
0
11
-35.850962
21
2.125433
31
0
39
0
210
0
220
0
230
1
0
LINE
5
89
100
AcDbEntity
8
SK1
62
256
6
ByLayer
370
18
48
1
60
0
100
AcDbLine
10
-35.65
20
-2.415
30
0
11
-35.65
21
-2.361546
31
0
39
0
210
0
220
0
230
1
0
LINE
5
8A
100
AcDbEntity
8
SK1
62
256
6
ByLayer
370
18
48
1
60
0
100
AcDbLine
10
-36
20
1.763789
30
0
11
-36
21
-1.882596
31
0
39
0
210
0
220
0
230
1
0
LINE
5
8B
100
AcDbEntity
8
SK1
62
256
6
ByLayer
370
18
48
1
60
0
100
AcDbLine
10
-35.65
20
2.28136
30
0
11
-35.65
21
2.415
31
0
39
0
210
0
220
0
230
1
0
LINE
5
8C
100
AcDbEntity
8
1
62
256
6
ByLayer
370
18
48
1
60
0
100
AcDbLine
10
0
20
3
30
0
11
0
21
0
31
0
39
0
210
0
220
0
230
1
0
LINE
5
8D
100
AcDbEntity
8
1
62
256
6
ByLayer
370
18
48
1
60
0
100
AcDbLine
10
0
20
0
30
0
11
0
21
-3
31
0
39
0
210
0
220
0
230
1
0
LINE
5
8E
100
AcDbEntity
8
1
62
256
6
ByLayer
370
18
48
1
60
0
100
AcDbLine
10
26
20
1.416343
30
0
11
26
21
1.394785
31
0
39
0
210
0
220
0
230
1
0
LINE
5
8F
100
AcDbEntity
8
1
62
256
6
ByLayer
370
18
48
1
60
0
100
AcDbLine
10
1.576778
20
1.674496
30
0
11
1.576778
21
0
31
0
39
0
210
0
220
0
230
1
0
LINE
5
90
100
AcDbEntity
8
1
62
256
6
ByLayer
370
18
48
1
60
0
100
AcDbLine
10
1.576778
20
0
30
0
11
1.576778
21
-1.674496
31
0
39
0
210
0
220
0
230
1
0
LINE
5
91
100
AcDbEntity
8
1
62
256
6
ByLayer
370
18
48
1
60
0
100
AcDbLine
10
0.788139
20
2.337248
30
0
11
0.788139
21
0
31
0
39
0
210
0
220
0
230
1
0
LINE
5
92
100
AcDbEntity
8
1
62
256
6
ByLayer
370
18
48
1
60
0
100
AcDbLine
10
0.788139
20
0
30
0
11
0.788139
21
-2.337248
31
0
39
0
210
0
220
0
230
1
0
LINE
5
93
100
AcDbEntity
8
1
62
256
6
ByLayer
370
18
48
1
60
0
100
AcDbLine
10
42.969452
20
0.026388
30
0
11
42.566028
21
0.471698
31
0
39
0
210
0
220
0
230
1
0
LINE
5
94
100
AcDbEntity
8
SK1
62
256
6
ByLayer
370
18
48
1
60
0
100
AcDbLine
10
0
20
3
30
0
11
0
21
-3
31
0
39
0
210
0
220
0
230
1
0
LINE
5
95
100
AcDbEntity
8
1
62
256
6
ByLayer
370
18
48
1
60
0
100
AcDbLine
10
41.629945
20
0.193673
30
0
11
41.629864
21
0.201096
31
0
39
0
210
0
220
0
230
1
0
LINE
5
96
100
AcDbEntity
8
1
62
256
6
ByLayer
370
18
48
1
60
0
100
AcDbLine
10
1.576778
20
-1.674496
30
0
11
10.907413
21
-1.680328
31
0
39
0
210
0
220
0
230
1
0
LINE
5
97
100
AcDbEntity
8
1
62
256
6
ByLayer
370
18
48
1
60
0
100
AcDbLine
10
15.2848
20
-1.683063
30
0
11
19.898497
21
-1.685947
31
0
39
0
210
0
220
0
230
1
0
LINE
5
98
100
AcDbEntity
8
1
62
256
6
ByLayer
370
18
48
1
60
0
100
AcDbLine
10
24.282736
20
-1.688687
30
0
11
26.003255
21
-1.689762
31
0
39
0
210
0
220
0
230
1
0
LINE
5
99
100
AcDbEntity
8
1
62
256
6
ByLayer
370
18
48
1
60
0
100
AcDbLine
10
28.469181
20
-1.691304
30
0
11
28.887982
21
-1.691565
31
0
39
0
210
0
220
0
230
1
0
LINE
5
9A
100
AcDbEntity
8
1
62
256
6
ByLayer
370
18
48
1
60
0
100
AcDbLine
10
33.347252
20
-1.694352
30
0
11
33.753598
21
-1.694606
31
0
39
0
210
0
220
0
230
1
0
LINE
5
9B
100
AcDbEntity
8
1
62
256
6
ByLayer
370
18
48
1
60
0
100
AcDbLine
10
37.472135
20
-1.69693
30
0
11
37.880465
21
-1.697186
31
0
39
0
210
0
220
0
230
1
0
LINE
5
9C
100
AcDbEntity
8
1
62
256
6
ByLayer
370
18
48
1
60
0
100
AcDbLine
10
37.880465
20
1.697186
30
0
11
37.472135
21
1.69693
31
0
39
0
210
0
220
0
230
1
0
LINE
5
9D
100
AcDbEntity
8
1
62
256
6
ByLayer
370
18
48
1
60
0
100
AcDbLine
10
33.753598
20
1.694606
30
0
11
33.347252
21
1.694352
31
0
39
0
210
0
220
0
230
1
0
LINE
5
9E
100
AcDbEntity
8
1
62
256
6
ByLayer
370
18
48
1
60
0
100
AcDbLine
10
28.887982
20
1.691565
30
0
11
28.469181
21
1.691304
31
0
39
0
210
0
220
0
230
1
0
LINE
5
9F
100
AcDbEntity
8
1
62
256
6
ByLayer
370
18
48
1
60
0
100
AcDbLine
10
26.003255
20
1.689762
30
0
11
24.282736
21
1.688687
31
0
39
0
210
0
220
0
230
1
0
LINE
5
A0
100
AcDbEntity
8
1
62
256
6
ByLayer
370
18
48
1
60
0
100
AcDbLine
10
19.898497
20
1.685947
30
0
11
15.2848
21
1.683063
31
0
39
0
210
0
220
0
230
1
0
LINE
5
A1
100
AcDbEntity
8
1
62
256
6
ByLayer
370
18
48
1
60
0
100
AcDbLine
10
10.907413
20
1.680328
30
0
11
1.576778
21
1.674496
31
0
39
0
210
0
220
0
230
1
0
LINE
5
A2
100
AcDbEntity
8
SK1
62
256
6
ByLayer
370
18
48
1
60
0
100
AcDbLine
10
-35.65
20
-2.415
30
0
11
-35.065
21
-3
31
0
39
0
210
0
220
0
230
1
0
LINE
5
A3
100
AcDbEntity
8
SK1
62
256
6
ByLayer
370
18
48
1
60
0
100
AcDbLine
10
-35.065
20
3
30
0
11
-35.65
21
2.415
31
0
39
0
210
0
220
0
230
1
0
LINE
5
A4
100
AcDbEntity
8
SK1
62
256
6
ByLayer
370
18
48
1
60
0
100
AcDbLine
10
-35.065
20
-3
30
0
11
0
21
-3
31
0
39
0
210
0
220
0
230
1
0
LINE
5
A5
100
AcDbEntity
8
SK1
62
256
6
ByLayer
370
18
48
1
60
0
100
AcDbLine
10
0
20
3
30
0
11
-35.065
21
3
31
0
39
0
210
0
220
0
230
1
0
LINE
5
A6
100
AcDbEntity
8
SK4
62
256
6
ByLayer
370
18
48
0.05
60
0
100
AcDbLine
10
48
20
0
30
0
11
-41
21
0
31
0
39
0
210
0
220
0
230
1
0
LINE
5
A8
100
AcDbEntity
8
4
62
256
6
ByLayer
370
18
48
0.05
60
0
100
AcDbLine
10
-36
20
0
30
0
11
48
21
0
31
0
39
0
210
0
220
0
230
1
0
LINE
5
AA
100
AcDbEntity
8
80
62
256
6
ByLayer
370
18
48
1
60
0
100
AcDbLine
10
0
20
0
30
0
11
-6
21
0
31
0
39
0
210
0
220
0
230
1
0
LINE
5
AB
100
AcDbEntity
8
81
62
256
6
ByLayer
370
18
48
1
60
0
100
AcDbLine
10
43
20
0
30
0
11
49
21
0
31
0
39
0
210
0
220
0
230
1
0
LINE
5
AC
100
AcDbEntity
8
SK2
62
256
6
ByLayer
370
13
48
1
60
0
100
AcDbLine
10
43.542919
20
1.491776
30
0
11
50.925758
21
21.77758
31
0
39
0
210
0
220
0
230
1
0
LINE
5
AE
100
AcDbEntity
8
SK2
62
256
6
ByLayer
370
13
48
1
60
0
100
AcDbLine
10
43.542919
20
-1.491776
30
0
11
50.925758
21
-21.77758
31
0
39
0
210
0
220
0
230
1
0
LINE
5
AF
100
AcDbEntity
8
1
62
256
6
ByLayer
370
13
48
1
60
0
100
AcDbLine
10
49.839921
20
18.794028
30
0
11
52.936532
21
17.977735
31
0
39
0
210
0
220
0
230
1
0
LINE
5
B0
100
AcDbEntity
8
1
62
256
6
ByLayer
370
13
48
1
60
0
100
AcDbLine
10
49.839921
20
18.794028
30
0
11
52.619748
21
17.204086
31
0
39
0
210
0
220
0
230
1
0
LINE
5
B1
100
AcDbEntity
8
1
62
256
6
ByLayer
370
13
48
1
60
0
100
AcDbLine
10
52.936532
20
17.977735
30
0
11
52.619748
21
17.204086
31
0
39
0
210
0
220
0
230
1
0
LINE
5
B2
100
AcDbEntity
8
1
62
256
6
ByLayer
370
13
48
1
60
0
100
AcDbLine
10
49.839921
20
-18.794028
30
0
11
52.619745
21
-17.204088
31
0
39
0
210
0
220
0
230
1
0
LINE
5
B3
100
AcDbEntity
8
1
62
256
6
ByLayer
370
13
48
1
60
0
100
AcDbLine
10
49.839921
20
-18.794028
30
0
11
52.936535
21
-17.977734
31
0
39
0
210
0
220
0
230
1
0
LINE
5
B4
100
AcDbEntity
8
1
62
256
6
ByLayer
370
13
48
1
60
0
100
AcDbLine
10
52.619745
20
-17.204088
30
0
11
52.936535
21
-17.977734
31
0
39
0
210
0
220
0
230
1
0
MTEXT
5
119
100
AcDbEntity
8
SK2
62
256
6
ByLayer
370
18
48
1
60
0
100
AcDbMText
10
56.717388
20
-2.467451
30
0
210
0
220
0
230
1
1
\W0.7237;140.00
40
3.50012
41
0
44
1.084337
50
0
71
7
72
5
7
iso_b_vert
0
MTEXT
5
11C
100
AcDbEntity
8
SK6
62
256
6
ByLayer
370
18
48
1
60
0
100
AcDbMText
10
-35.831725
20
-82.716039
30
0
210
0
220
0
230
1
1
\W0.7494;860.1-0340-027A1-GM X1BM
40
3.175
41
0
44
1.084337
50
0
71
7
72
5
7
iso_b_vert
0
DIMENSION
5
11F
100
AcDbEntity
8
SK2
62
256
6
ByLayer
370
18
48
1
60
0
100
AcDbDimension
2
_U0
10
43
20
-26.50012
30
0
11
21.5
21
-26.50012
31
0
70
32
71
2
72
1
41
1
210
0
220
0
230
1
3
Standard
100
AcDbAlignedDimension
13
0
23
-3
33
0
14
43
24
0
34
0
50
0
100
AcDbRotatedDimension
1001
ACAD
1000
DSTYLE
1002
{
1070
   371
1070
    13
1070
   372
1070
    13
1070
     3
1000

1070
   170
1070
     0
1070
   144
1040
1.0
1070
   277
1070
     2
1070
   284
1070
     8
1070
   278
1070
    46
1070
   146
1040
0.999966
1070
   345
1005
16
1070
   347
1005
16
1070
   346
1005
16
1070
   344
1005
120
1070
   343
1005
120
1070
   172
1070
     1
1070
    76
1070
     0
1070
    75
1070
     0
1070
   282
1070
     0
1070
   281
1070
     0
1070
    71
1070
     0
1070
    74
1070
     0
1070
   279
1070
     0
1070
   173
1070
     1
1070
   340
1005
11A
1070
   271
1070
     1
1070
   272
1070
     2
1070
    77
1070
     1
1070
    73
1070
     1
1070
   171
1070
     3
1070
   274
1070
     4
1070
   177
1070
   150
1070
   176
1070
     9
1070
   178
1070
    43
1070
    78
1070
     8
1070
    48
1040
-0.1
1070
    41
1040
3.175
1070
   147
1040
1.75006
1070
    42
1040
1.5875
1070
    44
1040
3.175
1070
   140
1040
3.50012
1002
}
1001
ACAD_DSTYLE_DIM_LINETYPE
1070
   380
1005
16
1001
ACAD_DSTYLE_DIM_EXT1_LINETYPE
1070
   381
1005
16
1001
ACAD_DSTYLE_DIM_EXT2_LINETYPE
1070
   382
1005
16
0
DIMENSION
5
145
100
AcDbEntity
8
2
62
256
6
ByLayer
370
18
48
1
60
0
100
AcDbDimension
2
_U1
10
49.75006
20
1.7
30
0
11
49.75006
21
17.356569
31
0
70
32
71
1
72
1
41
1
210
0
220
0
230
1
3
Standard
100
AcDbAlignedDimension
13
42.3813
23
-1.7
33
0
14
42.3813
24
1.7
34
0
50
90
100
AcDbRotatedDimension
1001
ACAD
1000
DSTYLE
1002
{
1070
   371
1070
    13
1070
   372
1070
    13
1070
     3
1000

1070
   170
1070
     0
1070
   144
1040
1.0
1070
   277
1070
     2
1070
   284
1070
     8
1070
   278
1070
    46
1070
   146
1040
0.999966
1070
   345
1005
16
1070
   347
1005
16
1070
   346
1005
16
1070
   344
1005
120
1070
   343
1005
120
1070
   172
1070
     1
1070
    76
1070
     0
1070
    75
1070
     0
1070
   282
1070
     0
1070
   281
1070
     0
1070
    71
1070
     0
1070
    74
1070
     0
1070
   279
1070
     0
1070
   173
1070
     1
1070
   340
1005
11A
1070
   271
1070
     1
1070
   272
1070
     2
1070
    77
1070
     1
1070
    73
1070
     0
1070
   171
1070
     3
1070
   274
1070
     4
1070
   177
1070
   150
1070
   176
1070
     9
1070
   178
1070
    43
1070
    78
1070
     8
1070
    48
1040
-0.1
1070
    41
1040
3.175
1070
   147
1040
1.75006
1070
    42
1040
1.5875
1070
    44
1040
3.175
1070
   140
1040
3.50012
1002
}
1001
ACAD_DSTYLE_DIM_LINETYPE
1070
   380
1005
16
1001
ACAD_DSTYLE_DIM_EXT1_LINETYPE
1070
   381
1005
16
1001
ACAD_DSTYLE_DIM_EXT2_LINETYPE
1070
   382
1005
16
0
DIMENSION
5
164
100
AcDbEntity
8
SK2
62
256
6
ByLayer
370
18
48
1
60
0
100
AcDbDimension
2
_U2
10
-39.24994
20
-3
30
0
11
-39.24994
21
17.10734
31
0
70
32
71
1
72
1
41
1
210
0
220
0
230
1
3
Standard
100
AcDbAlignedDimension
13
-36
23
3
33
0
14
-36
24
-3
34
0
50
90
100
AcDbRotatedDimension
1001
ACAD
1000
DSTYLE
1002
{
1070
   371
1070
    13
1070
   372
1070
    13
1070
     3
1000

1070
   170
1070
     0
1070
   144
1040
1.0
1070
   277
1070
     2
1070
   284
1070
     8
1070
   278
1070
    46
1070
   146
1040
0.999966
1070
   345
1005
16
1070
   347
1005
16
1070
   346
1005
16
1070
   344
1005
120
1070
   343
1005
120
1070
   172
1070
     1
1070
    76
1070
     0
1070
    75
1070
     0
1070
   282
1070
     0
1070
   281
1070
     0
1070
    71
1070
     0
1070
    74
1070
     0
1070
   279
1070
     0
1070
   173
1070
     1
1070
   340
1005
11A
1070
   271
1070
     1
1070
   272
1070
     2
1070
    77
1070
     1
1070
    73
1070
     0
1070
   171
1070
     3
1070
   274
1070
     4
1070
   177
1070
   150
1070
   176
1070
     9
1070
   178
1070
    43
1070
    78
1070
     8
1070
    48
1040
-0.1
1070
    41
1040
3.175
1070
   147
1040
1.75006
1070
    42
1040
1.5875
1070
    44
1040
3.175
1070
   140
1040
3.50012
1002
}
1001
ACAD_DSTYLE_DIM_LINETYPE
1070
   380
1005
16
1001
ACAD_DSTYLE_DIM_EXT1_LINETYPE
1070
   381
1005
16
1001
ACAD_DSTYLE_DIM_EXT2_LINETYPE
1070
   382
1005
16
0
DIMENSION
5
182
100
AcDbEntity
8
SK2
62
256
6
ByLayer
370
18
48
1
60
0
100
AcDbDimension
2
_U3
10
0
20
-26.50012
30
0
11
-18
21
-26.50012
31
0
70
32
71
1
72
1
41
1
210
0
220
0
230
1
3
Standard
100
AcDbAlignedDimension
13
-36
23
-3
33
0
14
0
24
-3
34
0
50
0
100
AcDbRotatedDimension
1001
ACAD
1000
DSTYLE
1002
{
1070
   371
1070
    13
1070
   372
1070
    13
1070
     3
1000

1070
   170
1070
     0
1070
   144
1040
1.0
1070
   277
1070
     2
1070
   284
1070
     8
1070
   278
1070
    46
1070
   146
1040
0.999966
1070
   345
1005
16
1070
   347
1005
16
1070
   346
1005
16
1070
   344
1005
120
1070
   343
1005
120
1070
   172
1070
     1
1070
    76
1070
     0
1070
    75
1070
     0
1070
   282
1070
     0
1070
   281
1070
     0
1070
    71
1070
     0
1070
    74
1070
     0
1070
   279
1070
     0
1070
   173
1070
     1
1070
   340
1005
11A
1070
   271
1070
     1
1070
   272
1070
     2
1070
    77
1070
     1
1070
    73
1070
     1
1070
   171
1070
     3
1070
   274
1070
     4
1070
   177
1070
   150
1070
   176
1070
     9
1070
   178
1070
    43
1070
    78
1070
     8
1070
    48
1040
-0.1
1070
    41
1040
3.175
1070
   147
1040
1.75006
1070
    42
1040
1.5875
1070
    44
1040
3.175
1070
   140
1040
3.50012
1002
}
1001
ACAD_DSTYLE_DIM_LINETYPE
1070
   380
1005
16
1001
ACAD_DSTYLE_DIM_EXT1_LINETYPE
1070
   381
1005
16
1001
ACAD_DSTYLE_DIM_EXT2_LINETYPE
1070
   382
1005
16
0
DIMENSION
5
19E
100
AcDbEntity
8
SK2
62
256
6
ByLayer
370
18
48
1
60
0
100
AcDbDimension
2
_U4
10
43
20
-17.74982
30
0
11
24.5
21
-17.74982
31
0
70
32
71
1
72
1
41
1
210
0
220
0
230
1
3
Standard
100
AcDbAlignedDimension
13
6
23
2.2
33
0
14
43
24
0
34
0
50
0
100
AcDbRotatedDimension
1001
ACAD
1000
DSTYLE
1002
{
1070
   371
1070
    13
1070
   372
1070
    13
1070
     3
1000

1070
   170
1070
     0
1070
   144
1040
1.0
1070
   277
1070
     2
1070
   284
1070
     8
1070
   278
1070
    46
1070
   146
1040
0.999966
1070
   345
1005
16
1070
   347
1005
16
1070
   346
1005
16
1070
   344
1005
120
1070
   343
1005
120
1070
   172
1070
     1
1070
    76
1070
     0
1070
    75
1070
     0
1070
   282
1070
     0
1070
   281
1070
     0
1070
    71
1070
     0
1070
    74
1070
     0
1070
   279
1070
     0
1070
   173
1070
     1
1070
   340
1005
11A
1070
   271
1070
     1
1070
   272
1070
     2
1070
    77
1070
     1
1070
    73
1070
     1
1070
   171
1070
     3
1070
   274
1070
     4
1070
   177
1070
   150
1070
   176
1070
     9
1070
   178
1070
    43
1070
    78
1070
     8
1070
    48
1040
-0.1
1070
    41
1040
3.175
1070
   147
1040
1.75006
1070
    42
1040
1.5875
1070
    44
1040
3.175
1070
   140
1040
3.50012
1002
}
1001
ACAD_DSTYLE_DIM_LINETYPE
1070
   380
1005
16
1001
ACAD_DSTYLE_DIM_EXT1_LINETYPE
1070
   381
1005
16
1001
ACAD_DSTYLE_DIM_EXT2_LINETYPE
1070
   382
1005
16
0
DIMENSION
5
1BA
100
AcDbEntity
8
SK2
62
256
6
ByLayer
370
18
48
1
60
0
100
AcDbDimension
2
_U5
10
43
20
-9.82
30
0
11
29.1
21
-9.82
31
0
70
32
71
1
72
1
41
1
210
0
220
0
230
1
3
Standard
100
AcDbAlignedDimension
13
15.2
23
-1.7
33
0
14
43
24
0
34
0
50
0
100
AcDbRotatedDimension
1001
ACAD
1000
DSTYLE
1002
{
1070
   371
1070
    13
1070
   372
1070
    13
1070
     3
1000

1070
   170
1070
     0
1070
   144
1040
1.0
1070
   277
1070
     2
1070
   284
1070
     8
1070
   278
1070
    46
1070
   146
1040
1.25
1070
   345
1005
16
1070
   347
1005
16
1070
   346
1005
16
1070
   344
1005
120
1070
   343
1005
120
1070
   172
1070
     1
1070
    76
1070
     0
1070
    75
1070
     0
1070
   282
1070
     0
1070
   281
1070
     0
1070
    71
1070
     0
1070
    74
1070
     0
1070
   279
1070
     0
1070
   173
1070
     1
1070
   340
1005
11A
1070
   271
1070
     1
1070
   272
1070
     2
1070
    77
1070
     1
1070
    73
1070
     1
1070
   171
1070
     3
1070
   274
1070
     4
1070
   177
1070
   150
1070
   176
1070
     9
1070
   178
1070
    43
1070
    78
1070
     8
1070
    48
1040
-0.1
1070
    41
1040
3.175
1070
   147
1040
0.42
1070
    42
1040
1.5875
1070
    44
1040
0.5
1070
   140
1040
2.8
1002
}
1001
ACAD_DSTYLE_DIM_LINETYPE
1070
   380
1005
16
1001
ACAD_DSTYLE_DIM_EXT1_LINETYPE
1070
   381
1005
16
1001
ACAD_DSTYLE_DIM_EXT2_LINETYPE
1070
   382
1005
16
0
DIMENSION
5
1D6
100
AcDbEntity
8
SK2
62
256
6
ByLayer
370
18
48
1
60
0
100
AcDbDimension
2
_U6
10
43
20
-36.50012
30
0
11
3.5
21
-36.50012
31
0
70
32
71
1
72
1
41
1
210
0
220
0
230
1
3
Standard
100
AcDbAlignedDimension
13
-36
23
0
33
0
14
43
24
0
34
0
50
0
100
AcDbRotatedDimension
1001
ACAD
1000
DSTYLE
1002
{
1070
   371
1070
    13
1070
   372
1070
    13
1070
     3
1000

1070
   170
1070
     0
1070
   144
1040
1.0
1070
   277
1070
     2
1070
   284
1070
     8
1070
   278
1070
    46
1070
   146
1040
0.999966
1070
   345
1005
16
1070
   347
1005
16
1070
   346
1005
16
1070
   344
1005
120
1070
   343
1005
120
1070
   172
1070
     1
1070
    76
1070
     0
1070
    75
1070
     0
1070
   282
1070
     0
1070
   281
1070
     0
1070
    71
1070
     0
1070
    74
1070
     0
1070
   279
1070
     0
1070
   173
1070
     1
1070
   340
1005
11A
1070
   271
1070
     1
1070
   272
1070
     2
1070
    77
1070
     1
1070
    73
1070
     1
1070
   171
1070
     3
1070
   274
1070
     4
1070
   177
1070
   150
1070
   176
1070
     9
1070
   178
1070
    43
1070
    78
1070
     8
1070
    48
1040
-0.1
1070
    41
1040
3.175
1070
   147
1040
1.75006
1070
    42
1040
1.5875
1070
    44
1040
3.175
1070
   140
1040
3.50012
1002
}
1001
ACAD_DSTYLE_DIM_LINETYPE
1070
   380
1005
16
1001
ACAD_DSTYLE_DIM_EXT1_LINETYPE
1070
   381
1005
16
1001
ACAD_DSTYLE_DIM_EXT2_LINETYPE
1070
   382
1005
16
0
ENDSEC
0
SECTION
2
OBJECTS
0
DICTIONARY
5
262
330
0
100
AcDbDictionary
280
0
281
1
3
ACAD_GROUP
350
263
3
ACAD_MLINESTYLE
350
264
0
DICTIONARY
5
263
330
0
100
AcDbDictionary
280
0
281
1
0
DICTIONARY
5
264
330
0
100
AcDbDictionary
280
0
281
1
3
Standard
350
18
0
MLINESTYLE
5
18
330
264
100
AcDbMlineStyle
2
Standard
70
0
3

62
256
51
90
52
90
71
2
49
-0.5
62
256
6
ByLayer
49
0.5
62
256
6
ByLayer
0
RASTERVARIABLES
5
250
330

100
AcDbRasterVariables
90
0
70
1
71
1
72
1
0
ENDSEC
0
EOF
