0
SECTION
2
HEADER
9
$ACADVER
1
AC1015
9
$DWGCODEPAGE
3
ANSI_1252
9
$HANDSEED
5
276
9
$ANGBASE
50
0
9
$ANGDIR
70
0
9
$ATTMODE
70
1
9
$AUNITS
70
0
9
$AUPREC
70
0
9
$CECOLOR
62
256
9
$CELTSCALE
40
1
9
$CELTYPE
6
ByLayer
9
$CELWEIGHT
370
18
9
$CLAYER
8
0
9
$CMLJUST
70
0
9
$CMLSCALE
40
1
9
$CMLSTYLE
2
Standard
9
$DIMSTYLE
2
Standard
9
$TEXTSIZE
40
0.2
9
$TEXTSTYLE
7
Standard
9
$LUNITS
70
2
9
$LUPREC
70
4
9
$EXTNAMES
290
1
9
$INSUNITS
70
4
9
$LTSCALE
40
1
9
$LWDISPLAY
290
1
9
$PDMODE
70
0
9
$PDSIZE
40
0
9
$PLINEGEN
70
0
0
ENDSEC
0
SECTION
2
CLASSES
0
CLASS
1
RASTERVARIABLES
2
AcDbRasterVariables
3
ISM
90
0
280
0
281
0
0
ENDSEC
0
SECTION
2
TABLES
0
TABLE
2
VPORT
5
26c
100
AcDbSymbolTable
0
VPORT
5
1
100
AcDbSymbolTableRecord
100
AcDbViewportTableRecord
2
*Active
70
0
10
0
20
0
11
1
21
1
12
-1
22
1
13
0
23
0
14
0.5
24
0.5
15
10
25
10
16
0
26
0
36
1
17
0
27
0
37
0
0
ENDTAB
0
TABLE
2
LTYPE
5
26d
100
AcDbSymbolTable
0
LTYPE
5
14
100
AcDbSymbolTableRecord
100
AcDbLinetypeTableRecord
70
0
2
ByBlock
3

72
65
73
0
40
0
0
LTYPE
5
15
100
AcDbSymbolTableRecord
100
AcDbLinetypeTableRecord
70
0
2
ByLayer
3

72
65
73
0
40
0
0
LTYPE
5
16
100
AcDbSymbolTableRecord
100
AcDbLinetypeTableRecord
70
0
2
Continuous
3
Solid line
72
65
73
0
40
0
0
LTYPE
5
6E
100
AcDbSymbolTableRecord
100
AcDbLinetypeTableRecord
70
0
2
CENTER
3
____ _ ____ _ ____ _ ____
72
65
73
4
40
47.5
49
22
74
0
49
-8.5
74
0
49
8.5
74
0
49
-8.5
74
0
0
LTYPE
5
6F
100
AcDbSymbolTableRecord
100
AcDbLinetypeTableRecord
70
0
2
DASHED
3
__ __ __ __ __ __ __ __ __
72
65
73
2
40
25.72
49
12.86
74
0
49
-12.86
74
0
0
ENDTAB
0
TABLE
2
LAYER
5
26e
100
AcDbSymbolTable
0
LAYER
5
10
100
AcDbSymbolTableRecord
100
AcDbLayerTableRecord
2
0
70
0
62
7
6
Continuous
290
1
370
-3
390
0
0
LAYER
5
71
100
AcDbSymbolTableRecord
100
AcDbLayerTableRecord
2
80
70
0
62
-6
6
Continuous
290
1
370
-3
390
0
0
LAYER
5
73
100
AcDbSymbolTableRecord
100
AcDbLayerTableRecord
2
81
70
0
62
-3
6
Continuous
290
1
370
-3
390
0
0
LAYER
5
75
100
AcDbSymbolTableRecord
100
AcDbLayerTableRecord
2
1
70
0
62
4
6
Continuous
290
1
370
-3
390
0
0
LAYER
5
A8
100
AcDbSymbolTableRecord
100
AcDbLayerTableRecord
2
4
70
0
62
-2
6
CENTER
290
1
370
-3
390
0
0
LAYER
5
130
100
AcDbSymbolTableRecord
100
AcDbLayerTableRecord
2
Defpoints
70
0
62
7
6
Continuous
290
0
370
-3
390
0
0
LAYER
5
15D
100
AcDbSymbolTableRecord
100
AcDbLayerTableRecord
2
2
70
0
62
7
6
Continuous
290
1
370
-3
390
0
0
LAYER
5
258
100
AcDbSymbolTableRecord
100
AcDbLayerTableRecord
2
SK1
70
0
62
4
6
Continuous
290
1
370
-3
390
0
0
LAYER
5
259
100
AcDbSymbolTableRecord
100
AcDbLayerTableRecord
2
SK4
70
0
62
2
6
CENTER
290
1
370
-3
390
0
0
LAYER
5
25a
100
AcDbSymbolTableRecord
100
AcDbLayerTableRecord
2
SK2
70
0
62
7
6
Continuous
290
1
370
-3
390
0
0
LAYER
5
25b
100
AcDbSymbolTableRecord
100
AcDbLayerTableRecord
2
SK6
70
0
62
5
6
Continuous
290
1
370
-3
390
0
0
ENDTAB
0
TABLE
2
STYLE
5
26f
100
AcDbSymbolTable
0
STYLE
5
11
100
AcDbSymbolTableRecord
100
AcDbTextStyleTableRecord
2
Standard
3
txt
70
0
71
0
40
0
41
1
42
0
50
0
0
STYLE
5
121
100
AcDbSymbolTableRecord
100
AcDbTextStyleTableRecord
2
iso_b_vert
3
simplex.shx
70
0
71
0
40
0
41
1
42
0
50
0
0
STYLE
5
122
100
AcDbSymbolTableRecord
100
AcDbTextStyleTableRecord
2
DWGDirectTextStyle
3
simplex
70
0
71
0
40
0
41
1
42
0
50
0
0
ENDTAB
0
TABLE
2
DIMSTYLE
5
270
100
AcDbSymbolTable
100
AcDbDimStyleTable
0
DIMSTYLE
105
27
100
AcDbSymbolTableRecord
100
AcDbDimStyleTableRecord
2
Standard
70
0
3
<>
41
0.18
42
0.0625
44
0.18
140
0.18
147
0.09
73
0
74
0
77
1
271
2
275
0
278
52
280
0
340
11
0
ENDTAB
0
TABLE
2
VIEW
5
271
100
AcDbSymbolTable
0
ENDTAB
0
TABLE
2
UCS
5
272
100
AcDbSymbolTable
0
ENDTAB
0
TABLE
2
APPID
5
273
100
AcDbSymbolTable
0
APPID
5
12
100
AcDbSymbolTableRecord
100
AcDbRegAppTableRecord
2
ACAD
70
0
0
APPID
5
125
100
AcDbSymbolTableRecord
100
AcDbRegAppTableRecord
2
ACAD_DSTYLE_DIMBREAK
70
0
0
APPID
5
217
100
AcDbSymbolTableRecord
100
AcDbRegAppTableRecord
2
ACAD_DSTYLE_DIM_LINETYPE
70
0
0
APPID
5
218
100
AcDbSymbolTableRecord
100
AcDbRegAppTableRecord
2
ACAD_DSTYLE_DIM_EXT1_LINETYPE
70
0
0
APPID
5
219
100
AcDbSymbolTableRecord
100
AcDbRegAppTableRecord
2
ACAD_DSTYLE_DIM_EXT2_LINETYPE
70
0
0
APPID
5
254
100
AcDbSymbolTableRecord
100
AcDbRegAppTableRecord
2
ACAD_MLEADERVER
70
0
0
ENDTAB
0
TABLE
2
BLOCK_RECORD
5
274
100
AcDbSymbolTable
0
BLOCK_RECORD
5
1F
100
AcDbSymbolTableRecord
100
AcDbBlockTableRecord
2
*Model_Space
340
0
70
0
0
BLOCK_RECORD
5
1B
100
AcDbSymbolTableRecord
100
AcDbBlockTableRecord
2
*Paper_Space
340
0
70
0
0
BLOCK_RECORD
5
23
100
AcDbSymbolTableRecord
100
AcDbBlockTableRecord
2
*Paper_Space0
340
0
70
0
0
BLOCK_RECORD
5
127
100
AcDbSymbolTableRecord
100
AcDbBlockTableRecord
2
_Closed
340
0
70
0
0
BLOCK_RECORD
5
131
100
AcDbSymbolTableRecord
100
AcDbBlockTableRecord
2
*D2
340
0
70
0
0
BLOCK_RECORD
5
13D
100
AcDbSymbolTableRecord
100
AcDbBlockTableRecord
2
_U0
340
0
70
0
0
BLOCK_RECORD
5
14F
100
AcDbSymbolTableRecord
100
AcDbBlockTableRecord
2
*D4
340
0
70
0
0
BLOCK_RECORD
5
15E
100
AcDbSymbolTableRecord
100
AcDbBlockTableRecord
2
_U1
340
0
70
0
0
BLOCK_RECORD
5
16E
100
AcDbSymbolTableRecord
100
AcDbBlockTableRecord
2
*D6
340
0
70
0
0
BLOCK_RECORD
5
17C
100
AcDbSymbolTableRecord
100
AcDbBlockTableRecord
2
_U2
340
0
70
0
0
BLOCK_RECORD
5
18C
100
AcDbSymbolTableRecord
100
AcDbBlockTableRecord
2
*D8
340
0
70
0
0
BLOCK_RECORD
5
198
100
AcDbSymbolTableRecord
100
AcDbBlockTableRecord
2
_U3
340
0
70
0
0
BLOCK_RECORD
5
1A8
100
AcDbSymbolTableRecord
100
AcDbBlockTableRecord
2
*D10
340
0
70
0
0
BLOCK_RECORD
5
1B4
100
AcDbSymbolTableRecord
100
AcDbBlockTableRecord
2
_U4
340
0
70
0
0
BLOCK_RECORD
5
1C4
100
AcDbSymbolTableRecord
100
AcDbBlockTableRecord
2
*D12
340
0
70
0
0
BLOCK_RECORD
5
1D0
100
AcDbSymbolTableRecord
100
AcDbBlockTableRecord
2
_U5
340
0
70
0
0
BLOCK_RECORD
5
1E0
100
AcDbSymbolTableRecord
100
AcDbBlockTableRecord
2
*D14
340
0
70
0
0
BLOCK_RECORD
5
1EC
100
AcDbSymbolTableRecord
100
AcDbBlockTableRecord
2
_U6
340
0
70
0
0
ENDTAB
0
ENDSEC
0
SECTION
2
BLOCKS
0
BLOCK
5
20
100
AcDbEntity
8
0
100
AcDbBlockBegin
2
*Model_Space
70
0
10
0
20
0
30
0
3
*Model_Space
0
ENDBLK
5
21
100
AcDbEntity
8
0
100
AcDbBlockEnd
0
BLOCK
5
1C
100
AcDbEntity
8
0
100
AcDbBlockBegin
2
*Paper_Space
70
0
10
0
20
0
30
0
3
*Paper_Space
0
ENDBLK
5
1D
100
AcDbEntity
8
0
100
AcDbBlockEnd
0
BLOCK
5
24
100
AcDbEntity
8
0
100
AcDbBlockBegin
2
*Paper_Space0
70
0
10
0
20
0
30
0
3
*Paper_Space0
0
ENDBLK
5
25
100
AcDbEntity
8
0
100
AcDbBlockEnd
0
BLOCK
5
128
100
AcDbEntity
8
0
100
AcDbBlockBegin
2
_Closed
70
0
10
0
20
0
30
0
3
_Closed
0
LINE
5
12A
100
AcDbEntity
8
0
62
256
6
ByLayer
370
-2
48
1
60
0
100
AcDbLine
10
-1
20
0.166667
30
0
11
0
21
0
31
0
39
0
210
0
220
0
230
1
0
LINE
5
12B
100
AcDbEntity
8
0
62
256
6
ByLayer
370
-2
48
1
60
0
100
AcDbLine
10
0
20
0
30
0
11
-1
21
-0.166667
31
0
39
0
210
0
220
0
230
1
0
LINE
5
12C
100
AcDbEntity
8
0
62
256
6
ByLayer
370
-2
48
1
60
0
100
AcDbLine
10
-1
20
0.166667
30
0
11
-1
21
-0.166667
31
0
39
0
210
0
220
0
230
1
0
LINE
5
12D
100
AcDbEntity
8
0
62
256
6
ByLayer
370
-2
48
1
60
0
100
AcDbLine
10
0
20
0
30
0
11
-1
21
0
31
0
39
0
210
0
220
0
230
1
0
ENDBLK
5
129
100
AcDbEntity
8
0
100
AcDbBlockEnd
0
BLOCK
5
132
100
AcDbEntity
8
0
100
AcDbBlockBegin
2
*D2
70
1
10
0
20
0
30
0
3
*D2
0
LINE
5
134
100
AcDbEntity
8
0
62
256
6
ByLayer
370
-2
48
1
60
0
100
AcDbLine
10
0
20
-4.5875
30
0
11
0
21
-29.67512
31
0
39
0
210
0
220
0
230
1
0
LINE
5
135
100
AcDbEntity
8
0
62
256
6
ByLayer
370
-2
48
1
60
0
100
AcDbLine
10
30
20
-1.5875
30
0
11
30
21
-29.67512
31
0
39
0
210
0
220
0
230
1
0
LINE
5
136
100
AcDbEntity
8
0
62
256
6
ByLayer
370
-2
48
1
60
0
100
AcDbLine
10
3.175
20
-26.50012
30
0
11
26.825
21
-26.50012
31
0
39
0
210
0
220
0
230
1
0
SOLID
5
137
100
AcDbEntity
8
0
62
256
6
ByLayer
370
-1
48
1
60
0
100
AcDbTrace
10
3.175
20
-25.970953
30
0
11
3.175
21
-27.029287
31
0
12
0
22
-26.50012
32
0
13
0
23
-26.50012
33
0
39
0
210
0
220
0
230
1
0
SOLID
5
138
100
AcDbEntity
8
0
62
256
6
ByLayer
370
-1
48
1
60
0
100
AcDbTrace
10
26.825
20
-27.029287
30
0
11
26.825
21
-25.970953
31
0
12
30
22
-26.50012
32
0
13
30
23
-26.50012
33
0
39
0
210
0
220
0
230
1
0
MTEXT
5
139
100
AcDbEntity
8
0
62
256
6
ByLayer
370
18
48
1
60
0
100
AcDbMText
10
15
20
-19.193619
30
0
210
0
220
0
230
1
1
\A1;30
40
3.50012
41
0
44
1
50
0
71
5
72
5
7
iso_b_vert
0
POINT
5
13A
100
AcDbEntity
8
Defpoints
62
0
6
ByLayer
370
-1
48
1
60
0
100
AcDbPoint
10
0
20
-3
30
0
39
0
210
0
220
0
230
1
50
360
0
POINT
5
13B
100
AcDbEntity
8
Defpoints
62
0
6
ByLayer
370
-1
48
1
60
0
100
AcDbPoint
10
30
20
0
30
0
39
0
210
0
220
0
230
1
50
360
0
POINT
5
13C
100
AcDbEntity
8
Defpoints
62
0
6
ByLayer
370
-1
48
1
60
0
100
AcDbPoint
10
30
20
-26.50012
30
0
39
0
210
0
220
0
230
1
50
360
0
ENDBLK
5
133
100
AcDbEntity
8
0
100
AcDbBlockEnd
0
BLOCK
5
14A
100
AcDbEntity
8
0
100
AcDbBlockBegin
2
_U0
70
0
10
0
20
0
30
0
3
_U0
0
MTEXT
5
13E
100
AcDbEntity
8
SK2
62
256
6
ByLayer
370
18
48
1
60
0
100
AcDbMText
10
9.770389
20
-25.467451
30
0
210
0
220
0
230
1
1
\W0.7468;30.00
40
3.50012
41
0
44
1.084337
50
0
71
7
72
5
7
iso_b_vert
0
MTEXT
5
13F
100
AcDbEntity
8
SK2
62
256
6
ByLayer
370
18
48
1
60
0
100
AcDbMText
10
6.244329
20
-25.400814
30
0
210
0
220
0
230
1
1
\W0.1790;(
40
3.175
41
0
44
1.084337
50
0
71
7
72
5
7
iso_b_vert
0
MTEXT
5
140
100
AcDbEntity
8
SK2
62
256
6
ByLayer
370
18
48
1
60
0
100
AcDbMText
10
23.758393
20
-25.400814
30
0
210
0
220
0
230
1
1
\W0.1969;)
40
3.175
41
0
44
1.084337
50
0
71
7
72
5
7
iso_b_vert
0
LINE
5
141
100
AcDbEntity
8
SK2
62
256
6
ByLayer
370
13
48
1
60
0
100
AcDbLine
10
0
20
-4.5875
30
0
11
0
21
-29.67512
31
0
39
0
210
0
220
0
230
1
0
LINE
5
142
100
AcDbEntity
8
SK2
62
256
6
ByLayer
370
13
48
1
60
0
100
AcDbLine
10
30
20
-1.5875
30
0
11
30
21
-29.67512
31
0
39
0
210
0
220
0
230
1
0
LINE
5
143
100
AcDbEntity
8
SK2
62
256
6
ByLayer
370
13
48
1
60
0
100
AcDbLine
10
0
20
-26.50012
30
0
11
30
21
-26.50012
31
0
39
0
210
0
220
0
230
1
0
LINE
5
144
100
AcDbEntity
8
SK2
62
256
6
ByLayer
370
13
48
1
60
0
100
AcDbLine
10
0
20
-26.50012
30
0
11
3.174998
21
-26.082123
31
0
39
0
210
0
220
0
230
1
0
LINE
5
145
100
AcDbEntity
8
SK2
62
256
6
ByLayer
370
13
48
1
60
0
100
AcDbLine
10
0
20
-26.50012
30
0
11
3.175002
21
-26.918117
31
0
39
0
210
0
220
0
230
1
0
LINE
5
146
100
AcDbEntity
8
SK2
62
256
6
ByLayer
370
13
48
1
60
0
100
AcDbLine
10
3.174998
20
-26.082123
30
0
11
3.175002
21
-26.918117
31
0
39
0
210
0
220
0
230
1
0
LINE
5
147
100
AcDbEntity
8
SK2
62
256
6
ByLayer
370
13
48
1
60
0
100
AcDbLine
10
30
20
-26.50012
30
0
11
26.825002
21
-26.918117
31
0
39
0
210
0
220
0
230
1
0
LINE
5
148
100
AcDbEntity
8
SK2
62
256
6
ByLayer
370
13
48
1
60
0
100
AcDbLine
10
30
20
-26.50012
30
0
11
26.824998
21
-26.082123
31
0
39
0
210
0
220
0
230
1
0
LINE
5
149
100
AcDbEntity
8
SK2
62
256
6
ByLayer
370
13
48
1
60
0
100
AcDbLine
10
26.825002
20
-26.918117
30
0
11
26.824998
21
-26.082123
31
0
39
0
210
0
220
0
230
1
0
ENDBLK
5
14B
100
AcDbEntity
8
0
100
AcDbBlockEnd
0
BLOCK
5
150
100
AcDbEntity
8
0
100
AcDbBlockBegin
2
*D4
70
1
10
0
20
0
30
0
3
*D4
0
LINE
5
152
100
AcDbEntity
8
0
62
256
6
ByLayer
370
-2
48
1
60
0
100
AcDbLine
10
30.9142
20
-1.85
30
0
11
39.92506
21
-1.85
31
0
39
0
210
0
220
0
230
1
0
LINE
5
153
100
AcDbEntity
8
0
62
256
6
ByLayer
370
-2
48
1
60
0
100
AcDbLine
10
30.9142
20
1.85
30
0
11
39.92506
21
1.85
31
0
39
0
210
0
220
0
230
1
0
LINE
5
154
100
AcDbEntity
8
0
62
256
6
ByLayer
370
-2
48
1
60
0
100
AcDbLine
10
36.75006
20
1.85
30
0
11
36.75006
21
26.646466
31
0
39
0
210
0
220
0
230
1
0
LINE
5
155
100
AcDbEntity
8
0
62
256
6
ByLayer
370
-2
48
1
60
0
100
AcDbLine
10
36.75006
20
-5.025
30
0
11
36.75006
21
-8.2
31
0
39
0
210
0
220
0
230
1
0
LINE
5
156
100
AcDbEntity
8
0
62
256
6
ByLayer
370
-2
48
1
60
0
100
AcDbLine
10
36.75006
20
5.025
30
0
11
36.75006
21
8.2
31
0
39
0
210
0
220
0
230
1
0
SOLID
5
157
100
AcDbEntity
8
0
62
256
6
ByLayer
370
-1
48
1
60
0
100
AcDbTrace
10
37.279227
20
-5.025
30
0
11
36.220893
21
-5.025
31
0
12
36.75006
22
-1.85
32
0
13
36.75006
23
-1.85
33
0
39
0
210
0
220
0
230
1
0
SOLID
5
158
100
AcDbEntity
8
0
62
256
6
ByLayer
370
-1
48
1
60
0
100
AcDbTrace
10
36.220893
20
5.025
30
0
11
37.279227
21
5.025
31
0
12
36.75006
22
1.85
32
0
13
36.75006
23
1.85
33
0
39
0
210
0
220
0
230
1
0
MTEXT
5
159
100
AcDbEntity
8
0
62
256
6
ByLayer
370
18
48
1
60
0
100
AcDbMText
10
29.443559
20
17.423233
30
0
210
0
220
0
230
1
1
\A1;3.7
40
3.50012
41
0
44
1
50
90
71
5
72
5
7
iso_b_vert
0
POINT
5
15A
100
AcDbEntity
8
Defpoints
62
0
6
ByLayer
370
-1
48
1
60
0
100
AcDbPoint
10
29.3267
20
-1.85
30
0
39
0
210
0
220
0
230
1
50
360
0
POINT
5
15B
100
AcDbEntity
8
Defpoints
62
0
6
ByLayer
370
-1
48
1
60
0
100
AcDbPoint
10
29.3267
20
1.85
30
0
39
0
210
0
220
0
230
1
50
360
0
POINT
5
15C
100
AcDbEntity
8
Defpoints
62
0
6
ByLayer
370
-1
48
1
60
0
100
AcDbPoint
10
36.75006
20
1.85
30
0
39
0
210
0
220
0
230
1
50
360
0
ENDBLK
5
151
100
AcDbEntity
8
0
100
AcDbBlockEnd
0
BLOCK
5
169
100
AcDbEntity
8
0
100
AcDbBlockBegin
2
_U1
70
0
10
0
20
0
30
0
3
_U1
0
MTEXT
5
15F
100
AcDbEntity
8
2
62
256
6
ByLayer
370
18
48
1
60
0
100
AcDbMText
10
36.060403
20
6.007505
30
0
210
0
220
0
230
1
1
\W0.7346;3.70
40
3.50012
41
0
44
1.084337
50
90
71
7
72
5
7
iso_b_vert
0
LINE
5
160
100
AcDbEntity
8
2
62
256
6
ByLayer
370
13
48
1
60
0
100
AcDbLine
10
30.9142
20
-1.85
30
0
11
39.92506
21
-1.85
31
0
39
0
210
0
220
0
230
1
0
LINE
5
161
100
AcDbEntity
8
2
62
256
6
ByLayer
370
13
48
1
60
0
100
AcDbLine
10
30.9142
20
1.85
30
0
11
39.92506
21
1.85
31
0
39
0
210
0
220
0
230
1
0
LINE
5
162
100
AcDbEntity
8
2
62
256
6
ByLayer
370
13
48
1
60
0
100
AcDbLine
10
36.75006
20
14.06468
30
0
11
36.75006
21
-10.6003
31
0
39
0
210
0
220
0
230
1
0
LINE
5
163
100
AcDbEntity
8
2
62
256
6
ByLayer
370
13
48
1
60
0
100
AcDbLine
10
36.75006
20
-1.85
30
0
11
37.168057
21
-5.024998
31
0
39
0
210
0
220
0
230
1
0
LINE
5
164
100
AcDbEntity
8
2
62
256
6
ByLayer
370
13
48
1
60
0
100
AcDbLine
10
36.75006
20
-1.85
30
0
11
36.332063
21
-5.025002
31
0
39
0
210
0
220
0
230
1
0
LINE
5
165
100
AcDbEntity
8
2
62
256
6
ByLayer
370
13
48
1
60
0
100
AcDbLine
10
37.168057
20
-5.024998
30
0
11
36.332063
21
-5.025002
31
0
39
0
210
0
220
0
230
1
0
LINE
5
166
100
AcDbEntity
8
2
62
256
6
ByLayer
370
13
48
1
60
0
100
AcDbLine
10
36.75006
20
1.85
30
0
11
36.332063
21
5.024998
31
0
39
0
210
0
220
0
230
1
0
LINE
5
167
100
AcDbEntity
8
2
62
256
6
ByLayer
370
13
48
1
60
0
100
AcDbLine
10
36.75006
20
1.85
30
0
11
37.168057
21
5.025002
31
0
39
0
210
0
220
0
230
1
0
LINE
5
168
100
AcDbEntity
8
2
62
256
6
ByLayer
370
13
48
1
60
0
100
AcDbLine
10
36.332063
20
5.024998
30
0
11
37.168057
21
5.025002
31
0
39
0
210
0
220
0
230
1
0
ENDBLK
5
16A
100
AcDbEntity
8
0
100
AcDbBlockEnd
0
BLOCK
5
16F
100
AcDbEntity
8
0
100
AcDbBlockBegin
2
*D6
70
1
10
0
20
0
30
0
3
*D6
0
LINE
5
171
100
AcDbEntity
8
0
62
256
6
ByLayer
370
-2
48
1
60
0
100
AcDbLine
10
-37.5875
20
3
30
0
11
-42.42494
21
3
31
0
39
0
210
0
220
0
230
1
0
LINE
5
172
100
AcDbEntity
8
0
62
256
6
ByLayer
370
-2
48
1
60
0
100
AcDbLine
10
-37.5875
20
-3
30
0
11
-42.42494
21
-3
31
0
39
0
210
0
220
0
230
1
0
LINE
5
173
100
AcDbEntity
8
0
62
256
6
ByLayer
370
-2
48
1
60
0
100
AcDbLine
10
-39.24994
20
3
30
0
11
-39.24994
21
23.747151
31
0
39
0
210
0
220
0
230
1
0
LINE
5
174
100
AcDbEntity
8
0
62
256
6
ByLayer
370
-2
48
1
60
0
100
AcDbLine
10
-39.24994
20
6.175
30
0
11
-39.24994
21
9.35
31
0
39
0
210
0
220
0
230
1
0
LINE
5
175
100
AcDbEntity
8
0
62
256
6
ByLayer
370
-2
48
1
60
0
100
AcDbLine
10
-39.24994
20
-6.175
30
0
11
-39.24994
21
-9.35
31
0
39
0
210
0
220
0
230
1
0
SOLID
5
176
100
AcDbEntity
8
0
62
256
6
ByLayer
370
-1
48
1
60
0
100
AcDbTrace
10
-39.779107
20
6.175
30
0
11
-38.720773
21
6.175
31
0
12
-39.24994
22
3
32
0
13
-39.24994
23
3
33
0
39
0
210
0
220
0
230
1
0
SOLID
5
177
100
AcDbEntity
8
0
62
256
6
ByLayer
370
-1
48
1
60
0
100
AcDbTrace
10
-38.720773
20
-6.175
30
0
11
-39.779107
21
-6.175
31
0
12
-39.24994
22
-3
32
0
13
-39.24994
23
-3
33
0
39
0
210
0
220
0
230
1
0
MTEXT
5
178
100
AcDbEntity
8
0
62
256
6
ByLayer
370
18
48
1
60
0
100
AcDbMText
10
-46.556441
20
17.10734
30
0
210
0
220
0
230
1
1
\A1;6
40
3.50012
41
0
44
1
50
90
71
5
72
5
7
iso_b_vert
0
POINT
5
179
100
AcDbEntity
8
Defpoints
62
0
6
ByLayer
370
-1
48
1
60
0
100
AcDbPoint
10
-36
20
3
30
0
39
0
210
0
220
0
230
1
50
360
0
POINT
5
17A
100
AcDbEntity
8
Defpoints
62
0
6
ByLayer
370
-1
48
1
60
0
100
AcDbPoint
10
-36
20
-3
30
0
39
0
210
0
220
0
230
1
50
360
0
POINT
5
17B
100
AcDbEntity
8
Defpoints
62
0
6
ByLayer
370
-1
48
1
60
0
100
AcDbPoint
10
-39.24994
20
-3
30
0
39
0
210
0
220
0
230
1
50
360
0
ENDBLK
5
170
100
AcDbEntity
8
0
100
AcDbBlockEnd
0
BLOCK
5
187
100
AcDbEntity
8
0
100
AcDbBlockBegin
2
_U2
70
0
10
0
20
0
30
0
3
_U2
0
MTEXT
5
17D
100
AcDbEntity
8
SK2
62
256
6
ByLayer
370
18
48
1
60
0
100
AcDbMText
10
-39.939597
20
13.157505
30
0
210
0
220
0
230
1
1
\W0.7346;6.00
40
3.50012
41
0
44
1.084337
50
90
71
7
72
5
7
iso_b_vert
0
LINE
5
17E
100
AcDbEntity
8
SK2
62
256
6
ByLayer
370
13
48
1
60
0
100
AcDbLine
10
-37.5875
20
3
30
0
11
-42.42494
21
3
31
0
39
0
210
0
220
0
230
1
0
LINE
5
17F
100
AcDbEntity
8
SK2
62
256
6
ByLayer
370
13
48
1
60
0
100
AcDbLine
10
-37.5875
20
-3
30
0
11
-42.42494
21
-3
31
0
39
0
210
0
220
0
230
1
0
LINE
5
180
100
AcDbEntity
8
SK2
62
256
6
ByLayer
370
13
48
1
60
0
100
AcDbLine
10
-39.24994
20
-11.7503
30
0
11
-39.24994
21
21.21468
31
0
39
0
210
0
220
0
230
1
0
LINE
5
181
100
AcDbEntity
8
SK2
62
256
6
ByLayer
370
13
48
1
60
0
100
AcDbLine
10
-39.24994
20
3
30
0
11
-39.667937
21
6.174998
31
0
39
0
210
0
220
0
230
1
0
LINE
5
182
100
AcDbEntity
8
SK2
62
256
6
ByLayer
370
13
48
1
60
0
100
AcDbLine
10
-39.24994
20
3
30
0
11
-38.831943
21
6.175002
31
0
39
0
210
0
220
0
230
1
0
LINE
5
183
100
AcDbEntity
8
SK2
62
256
6
ByLayer
370
13
48
1
60
0
100
AcDbLine
10
-39.667937
20
6.174998
30
0
11
-38.831943
21
6.175002
31
0
39
0
210
0
220
0
230
1
0
LINE
5
184
100
AcDbEntity
8
SK2
62
256
6
ByLayer
370
13
48
1
60
0
100
AcDbLine
10
-39.24994
20
-3
30
0
11
-38.831943
21
-6.174998
31
0
39
0
210
0
220
0
230
1
0
LINE
5
185
100
AcDbEntity
8
SK2
62
256
6
ByLayer
370
13
48
1
60
0
100
AcDbLine
10
-39.24994
20
-3
30
0
11
-39.667937
21
-6.175002
31
0
39
0
210
0
220
0
230
1
0
LINE
5
186
100
AcDbEntity
8
SK2
62
256
6
ByLayer
370
13
48
1
60
0
100
AcDbLine
10
-38.831943
20
-6.174998
30
0
11
-39.667937
21
-6.175002
31
0
39
0
210
0
220
0
230
1
0
ENDBLK
5
188
100
AcDbEntity
8
0
100
AcDbBlockEnd
0
BLOCK
5
18D
100
AcDbEntity
8
0
100
AcDbBlockBegin
2
*D8
70
1
10
0
20
0
30
0
3
*D8
0
LINE
5
18F
100
AcDbEntity
8
0
62
256
6
ByLayer
370
-2
48
1
60
0
100
AcDbLine
10
-36
20
-4.5875
30
0
11
-36
21
-29.67512
31
0
39
0
210
0
220
0
230
1
0
LINE
5
190
100
AcDbEntity
8
0
62
256
6
ByLayer
370
-2
48
1
60
0
100
AcDbLine
10
0
20
-4.5875
30
0
11
0
21
-29.67512
31
0
39
0
210
0
220
0
230
1
0
LINE
5
191
100
AcDbEntity
8
0
62
256
6
ByLayer
370
-2
48
1
60
0
100
AcDbLine
10
-32.825
20
-26.50012
30
0
11
-3.175
21
-26.50012
31
0
39
0
210
0
220
0
230
1
0
SOLID
5
192
100
AcDbEntity
8
0
62
256
6
ByLayer
370
-1
48
1
60
0
100
AcDbTrace
10
-32.825
20
-25.970953
30
0
11
-32.825
21
-27.029287
31
0
12
-36
22
-26.50012
32
0
13
-36
23
-26.50012
33
0
39
0
210
0
220
0
230
1
0
SOLID
5
193
100
AcDbEntity
8
0
62
256
6
ByLayer
370
-1
48
1
60
0
100
AcDbTrace
10
-3.175
20
-27.029287
30
0
11
-3.175
21
-25.970953
31
0
12
0
22
-26.50012
32
0
13
0
23
-26.50012
33
0
39
0
210
0
220
0
230
1
0
MTEXT
5
194
100
AcDbEntity
8
0
62
256
6
ByLayer
370
18
48
1
60
0
100
AcDbMText
10
-18
20
-19.193619
30
0
210
0
220
0
230
1
1
\A1;36
40
3.50012
41
0
44
1
50
0
71
5
72
5
7
iso_b_vert
0
POINT
5
195
100
AcDbEntity
8
Defpoints
62
0
6
ByLayer
370
-1
48
1
60
0
100
AcDbPoint
10
-36
20
-3
30
0
39
0
210
0
220
0
230
1
50
360
0
POINT
5
196
100
AcDbEntity
8
Defpoints
62
0
6
ByLayer
370
-1
48
1
60
0
100
AcDbPoint
10
0
20
-3
30
0
39
0
210
0
220
0
230
1
50
360
0
POINT
5
197
100
AcDbEntity
8
Defpoints
62
0
6
ByLayer
370
-1
48
1
60
0
100
AcDbPoint
10
0
20
-26.50012
30
0
39
0
210
0
220
0
230
1
50
360
0
ENDBLK
5
18E
100
AcDbEntity
8
0
100
AcDbBlockEnd
0
BLOCK
5
1A3
100
AcDbEntity
8
0
100
AcDbBlockBegin
2
_U3
70
0
10
0
20
0
30
0
3
_U3
0
MTEXT
5
199
100
AcDbEntity
8
SK2
62
256
6
ByLayer
370
18
48
1
60
0
100
AcDbMText
10
-23.229611
20
-25.467451
30
0
210
0
220
0
230
1
1
\W0.7468;36.00
40
3.50012
41
0
44
1.084337
50
0
71
7
72
5
7
iso_b_vert
0
LINE
5
19A
100
AcDbEntity
8
SK2
62
256
6
ByLayer
370
13
48
1
60
0
100
AcDbLine
10
-36
20
-4.5875
30
0
11
-36
21
-29.67512
31
0
39
0
210
0
220
0
230
1
0
LINE
5
19B
100
AcDbEntity
8
SK2
62
256
6
ByLayer
370
13
48
1
60
0
100
AcDbLine
10
0
20
-4.5875
30
0
11
0
21
-29.67512
31
0
39
0
210
0
220
0
230
1
0
LINE
5
19C
100
AcDbEntity
8
SK2
62
256
6
ByLayer
370
13
48
1
60
0
100
AcDbLine
10
-36
20
-26.50012
30
0
11
0
21
-26.50012
31
0
39
0
210
0
220
0
230
1
0
LINE
5
19D
100
AcDbEntity
8
SK2
62
256
6
ByLayer
370
13
48
1
60
0
100
AcDbLine
10
-36
20
-26.50012
30
0
11
-32.825002
21
-26.082123
31
0
39
0
210
0
220
0
230
1
0
LINE
5
19E
100
AcDbEntity
8
SK2
62
256
6
ByLayer
370
13
48
1
60
0
100
AcDbLine
10
-36
20
-26.50012
30
0
11
-32.824998
21
-26.918117
31
0
39
0
210
0
220
0
230
1
0
LINE
5
19F
100
AcDbEntity
8
SK2
62
256
6
ByLayer
370
13
48
1
60
0
100
AcDbLine
10
-32.825002
20
-26.082123
30
0
11
-32.824998
21
-26.918117
31
0
39
0
210
0
220
0
230
1
0
LINE
5
1A0
100
AcDbEntity
8
SK2
62
256
6
ByLayer
370
13
48
1
60
0
100
AcDbLine
10
0
20
-26.50012
30
0
11
-3.174998
21
-26.918117
31
0
39
0
210
0
220
0
230
1
0
LINE
5
1A1
100
AcDbEntity
8
SK2
62
256
6
ByLayer
370
13
48
1
60
0
100
AcDbLine
10
0
20
-26.50012
30
0
11
-3.175002
21
-26.082123
31
0
39
0
210
0
220
0
230
1
0
LINE
5
1A2
100
AcDbEntity
8
SK2
62
256
6
ByLayer
370
13
48
1
60
0
100
AcDbLine
10
-3.174998
20
-26.918117
30
0
11
-3.175002
21
-26.082123
31
0
39
0
210
0
220
0
230
1
0
ENDBLK
5
1A4
100
AcDbEntity
8
0
100
AcDbBlockEnd
0
BLOCK
5
1A9
100
AcDbEntity
8
0
100
AcDbBlockBegin
2
*D10
70
1
10
0
20
0
30
0
3
*D10
0
LINE
5
1AB
100
AcDbEntity
8
0
62
256
6
ByLayer
370
-2
48
1
60
0
100
AcDbLine
10
2
20
0.7625
30
0
11
2
21
-20.92482
31
0
39
0
210
0
220
0
230
1
0
LINE
5
1AC
100
AcDbEntity
8
0
62
256
6
ByLayer
370
-2
48
1
60
0
100
AcDbLine
10
30
20
-1.5875
30
0
11
30
21
-20.92482
31
0
39
0
210
0
220
0
230
1
0
LINE
5
1AD
100
AcDbEntity
8
0
62
256
6
ByLayer
370
-2
48
1
60
0
100
AcDbLine
10
5.175
20
-17.74982
30
0
11
26.825
21
-17.74982
31
0
39
0
210
0
220
0
230
1
0
SOLID
5
1AE
100
AcDbEntity
8
0
62
256
6
ByLayer
370
-1
48
1
60
0
100
AcDbTrace
10
5.175
20
-17.220653
30
0
11
5.175
21
-18.278987
31
0
12
2
22
-17.74982
32
0
13
2
23
-17.74982
33
0
39
0
210
0
220
0
230
1
0
SOLID
5
1AF
100
AcDbEntity
8
0
62
256
6
ByLayer
370
-1
48
1
60
0
100
AcDbTrace
10
26.825
20
-18.278987
30
0
11
26.825
21
-17.220653
31
0
12
30
22
-17.74982
32
0
13
30
23
-17.74982
33
0
39
0
210
0
220
0
230
1
0
MTEXT
5
1B0
100
AcDbEntity
8
0
62
256
6
ByLayer
370
18
48
1
60
0
100
AcDbMText
10
16
20
-10.443319
30
0
210
0
220
0
230
1
1
\A1;28
40
3.50012
41
0
44
1
50
0
71
5
72
5
7
iso_b_vert
0
POINT
5
1B1
100
AcDbEntity
8
Defpoints
62
0
6
ByLayer
370
-1
48
1
60
0
100
AcDbPoint
10
2
20
2.35
30
0
39
0
210
0
220
0
230
1
50
360
0
POINT
5
1B2
100
AcDbEntity
8
Defpoints
62
0
6
ByLayer
370
-1
48
1
60
0
100
AcDbPoint
10
30
20
0
30
0
39
0
210
0
220
0
230
1
50
360
0
POINT
5
1B3
100
AcDbEntity
8
Defpoints
62
0
6
ByLayer
370
-1
48
1
60
0
100
AcDbPoint
10
30
20
-17.74982
30
0
39
0
210
0
220
0
230
1
50
360
0
ENDBLK
5
1AA
100
AcDbEntity
8
0
100
AcDbBlockEnd
0
BLOCK
5
1BF
100
AcDbEntity
8
0
100
AcDbBlockBegin
2
_U4
70
0
10
0
20
0
30
0
3
_U4
0
MTEXT
5
1B5
100
AcDbEntity
8
SK2
62
256
6
ByLayer
370
18
48
1
60
0
100
AcDbMText
10
10.770389
20
-16.717151
30
0
210
0
220
0
230
1
1
\W0.7468;28.00
40
3.50012
41
0
44
1.084337
50
0
71
7
72
5
7
iso_b_vert
0
LINE
5
1B6
100
AcDbEntity
8
SK2
62
256
6
ByLayer
370
13
48
1
60
0
100
AcDbLine
10
2
20
0.7625
30
0
11
2
21
-20.92482
31
0
39
0
210
0
220
0
230
1
0
LINE
5
1B7
100
AcDbEntity
8
SK2
62
256
6
ByLayer
370
13
48
1
60
0
100
AcDbLine
10
30
20
-1.5875
30
0
11
30
21
-20.92482
31
0
39
0
210
0
220
0
230
1
0
LINE
5
1B8
100
AcDbEntity
8
SK2
62
256
6
ByLayer
370
13
48
1
60
0
100
AcDbLine
10
2
20
-17.74982
30
0
11
30
21
-17.74982
31
0
39
0
210
0
220
0
230
1
0
LINE
5
1B9
100
AcDbEntity
8
SK2
62
256
6
ByLayer
370
13
48
1
60
0
100
AcDbLine
10
2
20
-17.74982
30
0
11
5.174998
21
-17.331823
31
0
39
0
210
0
220
0
230
1
0
LINE
5
1BA
100
AcDbEntity
8
SK2
62
256
6
ByLayer
370
13
48
1
60
0
100
AcDbLine
10
2
20
-17.74982
30
0
11
5.175002
21
-18.167817
31
0
39
0
210
0
220
0
230
1
0
LINE
5
1BB
100
AcDbEntity
8
SK2
62
256
6
ByLayer
370
13
48
1
60
0
100
AcDbLine
10
5.174998
20
-17.331823
30
0
11
5.175002
21
-18.167817
31
0
39
0
210
0
220
0
230
1
0
LINE
5
1BC
100
AcDbEntity
8
SK2
62
256
6
ByLayer
370
13
48
1
60
0
100
AcDbLine
10
30
20
-17.74982
30
0
11
26.825002
21
-18.167817
31
0
39
0
210
0
220
0
230
1
0
LINE
5
1BD
100
AcDbEntity
8
SK2
62
256
6
ByLayer
370
13
48
1
60
0
100
AcDbLine
10
30
20
-17.74982
30
0
11
26.824998
21
-17.331823
31
0
39
0
210
0
220
0
230
1
0
LINE
5
1BE
100
AcDbEntity
8
SK2
62
256
6
ByLayer
370
13
48
1
60
0
100
AcDbLine
10
26.825002
20
-18.167817
30
0
11
26.824998
21
-17.331823
31
0
39
0
210
0
220
0
230
1
0
ENDBLK
5
1C0
100
AcDbEntity
8
0
100
AcDbBlockEnd
0
BLOCK
5
1C5
100
AcDbEntity
8
0
100
AcDbBlockBegin
2
*D12
70
1
10
0
20
0
30
0
3
*D12
0
LINE
5
1C7
100
AcDbEntity
8
0
62
256
6
ByLayer
370
-2
48
1
60
0
100
AcDbLine
10
10.9
20
-3.4375
30
0
11
10.9
21
-10.32
31
0
39
0
210
0
220
0
230
1
0
LINE
5
1C8
100
AcDbEntity
8
0
62
256
6
ByLayer
370
-2
48
1
60
0
100
AcDbLine
10
30
20
-1.5875
30
0
11
30
21
-10.32
31
0
39
0
210
0
220
0
230
1
0
LINE
5
1C9
100
AcDbEntity
8
0
62
256
6
ByLayer
370
-2
48
1
60
0
100
AcDbLine
10
14.075
20
-9.82
30
0
11
26.825
21
-9.82
31
0
39
0
210
0
220
0
230
1
0
SOLID
5
1CA
100
AcDbEntity
8
0
62
256
6
ByLayer
370
-1
48
1
60
0
100
AcDbTrace
10
14.075
20
-9.290833
30
0
11
14.075
21
-10.349167
31
0
12
10.9
22
-9.82
32
0
13
10.9
23
-9.82
33
0
39
0
210
0
220
0
230
1
0
SOLID
5
1CB
100
AcDbEntity
8
0
62
256
6
ByLayer
370
-1
48
1
60
0
100
AcDbTrace
10
26.825
20
-10.349167
30
0
11
26.825
21
-9.290833
31
0
12
30
22
-9.82
32
0
13
30
23
-9.82
33
0
39
0
210
0
220
0
230
1
0
MTEXT
5
1CC
100
AcDbEntity
8
0
62
256
6
ByLayer
370
18
48
1
60
0
100
AcDbMText
10
20.45
20
-3.975
30
0
210
0
220
0
230
1
1
\A1;19.1
40
2.8
41
0
44
1
50
0
71
5
72
5
7
iso_b_vert
0
POINT
5
1CD
100
AcDbEntity
8
Defpoints
62
0
6
ByLayer
370
-1
48
1
60
0
100
AcDbPoint
10
10.9
20
-1.85
30
0
39
0
210
0
220
0
230
1
50
360
0
POINT
5
1CE
100
AcDbEntity
8
Defpoints
62
0
6
ByLayer
370
-1
48
1
60
0
100
AcDbPoint
10
30
20
0
30
0
39
0
210
0
220
0
230
1
50
360
0
POINT
5
1CF
100
AcDbEntity
8
Defpoints
62
0
6
ByLayer
370
-1
48
1
60
0
100
AcDbPoint
10
30
20
-9.82
30
0
39
0
210
0
220
0
230
1
50
360
0
ENDBLK
5
1C6
100
AcDbEntity
8
0
100
AcDbBlockEnd
0
BLOCK
5
1DB
100
AcDbEntity
8
0
100
AcDbBlockBegin
2
_U5
70
0
10
0
20
0
30
0
3
_U5
0
MTEXT
5
1D1
100
AcDbEntity
8
SK2
62
256
6
ByLayer
370
18
48
1
60
0
100
AcDbMText
10
16.966348
20
-9.973893
30
0
210
0
220
0
230
1
1
\W0.6261;19.10
40
2.8
41
0
44
1.084337
50
0
71
7
72
5
7
iso_b_vert
0
LINE
5
1D2
100
AcDbEntity
8
SK2
62
256
6
ByLayer
370
13
48
1
60
0
100
AcDbLine
10
10.9
20
-3.4375
30
0
11
10.9
21
-10.32
31
0
39
0
210
0
220
0
230
1
0
LINE
5
1D3
100
AcDbEntity
8
SK2
62
256
6
ByLayer
370
13
48
1
60
0
100
AcDbLine
10
30
20
-1.5875
30
0
11
30
21
-10.32
31
0
39
0
210
0
220
0
230
1
0
LINE
5
1D4
100
AcDbEntity
8
SK2
62
256
6
ByLayer
370
13
48
1
60
0
100
AcDbLine
10
10.9
20
-9.82
30
0
11
30
21
-9.82
31
0
39
0
210
0
220
0
230
1
0
LINE
5
1D5
100
AcDbEntity
8
SK2
62
256
6
ByLayer
370
13
48
1
60
0
100
AcDbLine
10
10.9
20
-9.82
30
0
11
14.074998
21
-9.402003
31
0
39
0
210
0
220
0
230
1
0
LINE
5
1D6
100
AcDbEntity
8
SK2
62
256
6
ByLayer
370
13
48
1
60
0
100
AcDbLine
10
10.9
20
-9.82
30
0
11
14.075002
21
-10.237997
31
0
39
0
210
0
220
0
230
1
0
LINE
5
1D7
100
AcDbEntity
8
SK2
62
256
6
ByLayer
370
13
48
1
60
0
100
AcDbLine
10
14.074998
20
-9.402003
30
0
11
14.075002
21
-10.237997
31
0
39
0
210
0
220
0
230
1
0
LINE
5
1D8
100
AcDbEntity
8
SK2
62
256
6
ByLayer
370
13
48
1
60
0
100
AcDbLine
10
30
20
-9.82
30
0
11
26.825002
21
-10.237997
31
0
39
0
210
0
220
0
230
1
0
LINE
5
1D9
100
AcDbEntity
8
SK2
62
256
6
ByLayer
370
13
48
1
60
0
100
AcDbLine
10
30
20
-9.82
30
0
11
26.824998
21
-9.402003
31
0
39
0
210
0
220
0
230
1
0
LINE
5
1DA
100
AcDbEntity
8
SK2
62
256
6
ByLayer
370
13
48
1
60
0
100
AcDbLine
10
26.825002
20
-10.237997
30
0
11
26.824998
21
-9.402003
31
0
39
0
210
0
220
0
230
1
0
ENDBLK
5
1DC
100
AcDbEntity
8
0
100
AcDbBlockEnd
0
BLOCK
5
1E1
100
AcDbEntity
8
0
100
AcDbBlockBegin
2
*D14
70
1
10
0
20
0
30
0
3
*D14
0
LINE
5
1E3
100
AcDbEntity
8
0
62
256
6
ByLayer
370
-2
48
1
60
0
100
AcDbLine
10
-36
20
-1.5875
30
0
11
-36
21
-39.67512
31
0
39
0
210
0
220
0
230
1
0
LINE
5
1E4
100
AcDbEntity
8
0
62
256
6
ByLayer
370
-2
48
1
60
0
100
AcDbLine
10
30
20
-1.5875
30
0
11
30
21
-39.67512
31
0
39
0
210
0
220
0
230
1
0
LINE
5
1E5
100
AcDbEntity
8
0
62
256
6
ByLayer
370
-2
48
1
60
0
100
AcDbLine
10
-32.825
20
-36.50012
30
0
11
26.825
21
-36.50012
31
0
39
0
210
0
220
0
230
1
0
SOLID
5
1E6
100
AcDbEntity
8
0
62
256
6
ByLayer
370
-1
48
1
60
0
100
AcDbTrace
10
-32.825
20
-35.970953
30
0
11
-32.825
21
-37.029287
31
0
12
-36
22
-36.50012
32
0
13
-36
23
-36.50012
33
0
39
0
210
0
220
0
230
1
0
SOLID
5
1E7
100
AcDbEntity
8
0
62
256
6
ByLayer
370
-1
48
1
60
0
100
AcDbTrace
10
26.825
20
-37.029287
30
0
11
26.825
21
-35.970953
31
0
12
30
22
-36.50012
32
0
13
30
23
-36.50012
33
0
39
0
210
0
220
0
230
1
0
MTEXT
5
1E8
100
AcDbEntity
8
0
62
256
6
ByLayer
370
18
48
1
60
0
100
AcDbMText
10
-3
20
-29.193619
30
0
210
0
220
0
230
1
1
\A1;66
40
3.50012
41
0
44
1
50
0
71
5
72
5
7
iso_b_vert
0
POINT
5
1E9
100
AcDbEntity
8
Defpoints
62
0
6
ByLayer
370
-1
48
1
60
0
100
AcDbPoint
10
-36
20
0
30
0
39
0
210
0
220
0
230
1
50
360
0
POINT
5
1EA
100
AcDbEntity
8
Defpoints
62
0
6
ByLayer
370
-1
48
1
60
0
100
AcDbPoint
10
30
20
0
30
0
39
0
210
0
220
0
230
1
50
360
0
POINT
5
1EB
100
AcDbEntity
8
Defpoints
62
0
6
ByLayer
370
-1
48
1
60
0
100
AcDbPoint
10
30
20
-36.50012
30
0
39
0
210
0
220
0
230
1
50
360
0
ENDBLK
5
1E2
100
AcDbEntity
8
0
100
AcDbBlockEnd
0
BLOCK
5
1F7
100
AcDbEntity
8
0
100
AcDbBlockBegin
2
_U6
70
0
10
0
20
0
30
0
3
_U6
0
MTEXT
5
1ED
100
AcDbEntity
8
SK2
62
256
6
ByLayer
370
18
48
1
60
0
100
AcDbMText
10
-8.229611
20
-35.467451
30
0
210
0
220
0
230
1
1
\W0.7468;66.00
40
3.50012
41
0
44
1.084337
50
0
71
7
72
5
7
iso_b_vert
0
LINE
5
1EE
100
AcDbEntity
8
SK2
62
256
6
ByLayer
370
13
48
1
60
0
100
AcDbLine
10
-36
20
-1.5875
30
0
11
-36
21
-39.67512
31
0
39
0
210
0
220
0
230
1
0
LINE
5
1EF
100
AcDbEntity
8
SK2
62
256
6
ByLayer
370
13
48
1
60
0
100
AcDbLine
10
30
20
-1.5875
30
0
11
30
21
-39.67512
31
0
39
0
210
0
220
0
230
1
0
LINE
5
1F0
100
AcDbEntity
8
SK2
62
256
6
ByLayer
370
13
48
1
60
0
100
AcDbLine
10
-36
20
-36.50012
30
0
11
30
21
-36.50012
31
0
39
0
210
0
220
0
230
1
0
LINE
5
1F1
100
AcDbEntity
8
SK2
62
256
6
ByLayer
370
13
48
1
60
0
100
AcDbLine
10
-36
20
-36.50012
30
0
11
-32.825002
21
-36.082123
31
0
39
0
210
0
220
0
230
1
0
LINE
5
1F2
100
AcDbEntity
8
SK2
62
256
6
ByLayer
370
13
48
1
60
0
100
AcDbLine
10
-36
20
-36.50012
30
0
11
-32.824998
21
-36.918117
31
0
39
0
210
0
220
0
230
1
0
LINE
5
1F3
100
AcDbEntity
8
SK2
62
256
6
ByLayer
370
13
48
1
60
0
100
AcDbLine
10
-32.825002
20
-36.082123
30
0
11
-32.824998
21
-36.918117
31
0
39
0
210
0
220
0
230
1
0
LINE
5
1F4
100
AcDbEntity
8
SK2
62
256
6
ByLayer
370
13
48
1
60
0
100
AcDbLine
10
30
20
-36.50012
30
0
11
26.825002
21
-36.918117
31
0
39
0
210
0
220
0
230
1
0
LINE
5
1F5
100
AcDbEntity
8
SK2
62
256
6
ByLayer
370
13
48
1
60
0
100
AcDbLine
10
30
20
-36.50012
30
0
11
26.824998
21
-36.082123
31
0
39
0
210
0
220
0
230
1
0
LINE
5
1F6
100
AcDbEntity
8
SK2
62
256
6
ByLayer
370
13
48
1
60
0
100
AcDbLine
10
26.825002
20
-36.918117
30
0
11
26.824998
21
-36.082123
31
0
39
0
210
0
220
0
230
1
0
ENDBLK
5
1F8
100
AcDbEntity
8
0
100
AcDbBlockEnd
0
ENDSEC
0
SECTION
2
ENTITIES
0
ARC
5
B4
100
AcDbEntity
8
1
62
256
6
ByLayer
370
18
48
1
60
0
100
AcDbCircle
39
0
10
1.540399
20
2.632632
30
0
40
0.800000000000003
210
0
220
0
230
1
100
AcDbArc
50
195.687789
51
270.03581
0
ARC
5
B5
100
AcDbEntity
8
1
62
256
6
ByLayer
370
18
48
1
60
0
100
AcDbCircle
39
0
10
1.540399
20
-2.632632
30
0
40
0.800000000000003
210
0
220
0
230
1
100
AcDbArc
50
89.96419
51
164.312211
0
ARC
5
B6
100
AcDbEntity
8
1
62
256
6
ByLayer
370
18
48
1
60
0
100
AcDbCircle
39
0
10
0
20
2.2
30
0
40
0.799999999999999
210
0
220
0
230
1
100
AcDbArc
50
15.687789
51
90
0
ARC
5
B7
100
AcDbEntity
8
1
62
256
6
ByLayer
370
18
48
1
60
0
100
AcDbCircle
39
0
10
0
20
-2.2
30
0
40
0.799999999999999
210
0
220
0
230
1
100
AcDbArc
50
270
51
344.312211
0
ARC
5
B8
100
AcDbEntity
8
SK2
62
256
6
ByLayer
370
13
48
1
60
0
100
AcDbCircle
39
0
10
30
20
0
30
0
40
20
210
0
220
0
230
1
100
AcDbArc
50
9.606349
51
70.001229
0
ARC
5
B9
100
AcDbEntity
8
SK2
62
256
6
ByLayer
370
13
48
1
60
0
100
AcDbCircle
39
0
10
30
20
0
30
0
40
20
210
0
220
0
230
1
100
AcDbArc
50
289.998771
51
350.393651
0
ELLIPSE
5
BA
100
AcDbEntity
8
1
62
256
6
ByLayer
370
18
48
1
60
0
100
AcDbEllipse
10
3.602042
20
-1.841658
30
0
11
-0.1
21
1.22460635382238E-17
31
0
210
0
220
0
230
1
40
1
41
-1.56339653737448
42
-0.000114129615934787
0
ELLIPSE
5
BB
100
AcDbEntity
8
1
62
256
6
ByLayer
370
18
48
1
60
0
100
AcDbEllipse
10
3.602042
20
1.841658
30
0
11
-0.1
21
1.22460635382238E-17
31
0
210
0
220
0
230
1
40
1
41
0.000114129615941448
42
1.00360422594352
0
POINT
5
70
100
AcDbEntity
8
80
62
256
6
ByLayer
370
18
48
1
60
0
100
AcDbPoint
10
0
20
0
30
0
39
0
210
0
220
0
230
1
50
360
0
POINT
5
72
100
AcDbEntity
8
81
62
256
6
ByLayer
370
18
48
1
60
0
100
AcDbPoint
10
30
20
0
30
0
39
0
210
0
220
0
230
1
50
360
0
POINT
5
74
100
AcDbEntity
8
1
62
256
6
ByLayer
370
18
48
1
60
0
100
AcDbPoint
10
-36
20
0
30
0
39
0
210
0
220
0
230
1
50
360
0
POINT
5
76
100
AcDbEntity
8
1
62
256
6
ByLayer
370
18
48
1
60
1
100
AcDbPoint
10
0
20
-3
30
0
39
0
210
0
220
0
230
1
50
360
0
POINT
5
77
100
AcDbEntity
8
1
62
256
6
ByLayer
370
18
48
1
60
1
100
AcDbPoint
10
30
20
0
30
0
39
0
210
0
220
0
230
1
50
360
0
POINT
5
78
100
AcDbEntity
8
1
62
256
6
ByLayer
370
18
48
1
60
1
100
AcDbPoint
10
29.3267
20
-1.85
30
0
39
0
210
0
220
0
230
1
50
360
0
POINT
5
79
100
AcDbEntity
8
1
62
256
6
ByLayer
370
18
48
1
60
1
100
AcDbPoint
10
29.3267
20
1.85
30
0
39
0
210
0
220
0
230
1
50
360
0
POINT
5
7A
100
AcDbEntity
8
1
62
256
6
ByLayer
370
18
48
1
60
1
100
AcDbPoint
10
-36
20
3
30
0
39
0
210
0
220
0
230
1
50
360
0
POINT
5
7B
100
AcDbEntity
8
1
62
256
6
ByLayer
370
18
48
1
60
1
100
AcDbPoint
10
-36
20
-3
30
0
39
0
210
0
220
0
230
1
50
360
0
POINT
5
7C
100
AcDbEntity
8
1
62
256
6
ByLayer
370
18
48
1
60
1
100
AcDbPoint
10
-36
20
-3
30
0
39
0
210
0
220
0
230
1
50
360
0
POINT
5
7D
100
AcDbEntity
8
1
62
256
6
ByLayer
370
18
48
1
60
1
100
AcDbPoint
10
0
20
-3
30
0
39
0
210
0
220
0
230
1
50
360
0
POINT
5
7E
100
AcDbEntity
8
1
62
256
6
ByLayer
370
18
48
1
60
1
100
AcDbPoint
10
2
20
2.35
30
0
39
0
210
0
220
0
230
1
50
360
0
POINT
5
7F
100
AcDbEntity
8
1
62
256
6
ByLayer
370
18
48
1
60
1
100
AcDbPoint
10
30
20
0
30
0
39
0
210
0
220
0
230
1
50
360
0
POINT
5
80
100
AcDbEntity
8
1
62
256
6
ByLayer
370
18
48
1
60
1
100
AcDbPoint
10
10.9
20
-1.85
30
0
39
0
210
0
220
0
230
1
50
360
0
POINT
5
81
100
AcDbEntity
8
1
62
256
6
ByLayer
370
18
48
1
60
1
100
AcDbPoint
10
30
20
0
30
0
39
0
210
0
220
0
230
1
50
360
0
POINT
5
82
100
AcDbEntity
8
1
62
256
6
ByLayer
370
18
48
1
60
1
100
AcDbPoint
10
-36
20
0
30
0
39
0
210
0
220
0
230
1
50
360
0
POINT
5
83
100
AcDbEntity
8
1
62
256
6
ByLayer
370
18
48
1
60
1
100
AcDbPoint
10
30
20
0
30
0
39
0
210
0
220
0
230
1
50
360
0
SPLINE
5
BC
100
AcDbEntity
8
1
62
256
6
ByLayer
370
18
48
1
60
0
100
AcDbSpline
70
4
71
3
72
28
73
24
40
0
40
0
40
0
40
0
40
0.0830219938394103
40
0.0830219938394103
40
0.166043987678821
40
0.166043987678821
40
0.332087975357641
40
0.332087975357641
40
0.415109969197051
40
0.415109969197051
40
0.498131963036462
40
0.498131963036462
40
0.664175950715285
40
0.664175950715285
40
0.747197944554695
40
0.747197944554695
40
0.830219938394106
40
0.830219938394106
40
0.913241932233516
40
0.913241932233516
40
0.996263926072926
40
0.996263926072926
40
1
40
1
40
1
40
1
41
1
10
29.1333262173184
20
-0.175681481687263
30
0
41
1
10
28.9995507316662
20
-0.0948767022340462
30
0
41
1
10
28.865786193589
20
-0.0128188265228744
30
0
41
1
10
28.5987960694543
20
0.150810301249038
30
0
41
1
10
28.4661678401724
20
0.232083416400201
30
0
41
1
10
28.0693888047411
20
0.472104253991148
30
0
41
1
10
27.8063463414414
20
0.626737058497724
30
0
41
1
10
27.4102865726757
20
0.844803864370107
30
-1E-16
41
1
10
27.2780422077038
20
0.915247880144392
30
-1E-16
41
1
10
27.012283066633
20
1.05026217552341
30
-1E-16
41
1
10
26.8782547522994
20
1.11503625271192
30
-1E-16
41
1
10
26.4787636792272
20
1.2969030771967
30
-1E-16
41
1
10
26.2149614019411
20
1.40189087727444
30
-1E-16
41
1
10
25.819351876681
20
1.53070668386491
30
0
41
1
10
25.6874957882621
20
1.56895385011353
30
0
41
1
10
25.4231503945326
20
1.63493559343465
30
0
41
1
10
25.2906630018087
20
1.66262683129665
30
0
41
1
10
25.0241515925397
20
1.7079011635532
30
0
41
1
10
24.8901545430842
20
1.72544948998825
30
0
41
1
10
24.6242335096595
20
1.74918102404973
30
0
41
1
10
24.4917991014285
20
1.75546208996195
30
0
41
1
10
24.3537323385718
20
1.75598850801475
30
0
41
1
10
24.3477873899034
20
1.75599948728723
30
0
41
1
10
24.3418430556914
20
1.75599874348947
30
0
0
SPLINE
5
BD
100
AcDbEntity
8
1
62
256
6
ByLayer
370
18
48
1
60
0
100
AcDbSpline
70
4
71
3
72
32
73
28
40
0
40
0
40
0
40
0
40
0.0787079892554158
40
0.0787079892554158
40
0.160695342753449
40
0.160695342753449
40
0.242682696251483
40
0.242682696251483
40
0.324670049749516
40
0.324670049749516
40
0.406657403247549
40
0.406657403247549
40
0.488644756745583
40
0.488644756745583
40
0.570632110243616
40
0.570632110243616
40
0.65261946374165
40
0.65261946374165
40
0.734606817239683
40
0.734606817239683
40
0.816594170737716
40
0.816594170737716
40
0.89858152423575
40
0.89858152423575
40
0.980568877733783
40
0.980568877733783
40
1
40
1
40
1
40
1
41
1
10
11.2062089478466
20
-0.219288087162312
30
0
41
1
10
11.0779981641858
20
-0.141636519496501
30
0
41
1
10
10.9489785737444
20
-0.0631462526936559
30
0
41
1
10
10.6877470753584
20
0.0959115176832768
30
0
41
1
10
10.5553044296615
20
0.176876635721783
30
0
41
1
10
10.2907066615443
20
0.336587203898091
30
0
41
1
10
10.158506696316
20
0.415296244010847
30
0
41
1
10
9.89408200985261
20
0.569788701974204
30
0
41
1
10
9.76196242297857
20
0.645619301134104
30
0
41
1
10
9.49668319378463
20
0.792971442630829
30
0
41
1
10
9.36350627696794
20
0.864496362028888
30
-1E-16
41
1
10
9.09573276169925
20
1.0023066100596
30
-1E-16
41
1
10
8.96214200124629
20
1.0680013855677
30
-1E-16
41
1
10
8.69631622128028
20
1.19141220300202
30
-1E-16
41
1
10
8.56369591001283
20
1.24935063515608
30
-1E-16
41
1
10
8.29902853325785
20
1.35662517349459
30
-1E-16
41
1
10
8.16709401535033
20
1.40572938870437
30
-1E-16
41
1
10
7.90255766369097
20
1.49518831071703
30
0
41
1
10
7.76996456402281
20
1.53556253392216
30
0
41
1
10
7.50392827302346
20
1.60613191340403
30
0
41
1
10
7.37013613309992
20
1.63612639207625
30
0
41
1
10
7.10242782676693
20
1.68589171560694
30
0
41
1
10
6.96909872049827
20
1.70556010824561
30
0
41
1
10
6.70364343969342
20
1.73289544063314
30
0
41
1
10
6.57144504276144
20
1.74071706677719
30
0
41
1
10
6.4077916795458
20
1.74391537467537
30
0
41
1
10
6.37643330322209
20
1.74422893659846
30
0
41
1
10
6.34506969089921
20
1.7442362617513
30
0
0
SPLINE
5
BE
100
AcDbEntity
8
1
62
256
6
ByLayer
370
18
48
1
60
0
100
AcDbSpline
70
4
71
3
72
22
73
18
40
0
40
0
40
0
40
0
40
0.500463333942023
40
0.500463333942023
40
0.706111872724543
40
0.706111872724543
40
0.827647034933993
40
0.827647034933993
40
0.900211661511388
40
0.900211661511388
40
0.943745892244758
40
0.943745892244758
40
0.969811511840542
40
0.969811511840542
40
0.985021375048477
40
0.985021375048477
40
1
40
1
40
1
40
1
41
1
10
29.2143258716445
20
1.84916363909897
30
0
41
1
10
29.2389891757638
20
1.83328257960969
30
0
41
1
10
29.2637381064711
20
1.81708159193607
30
0
41
1
10
29.2988269167783
20
1.79376315458907
30
0
41
1
10
29.3090691137463
20
1.78691521384346
30
0
41
1
10
29.3253975538143
20
1.77593501680957
30
0
41
1
10
29.3314677188706
20
1.77183940679831
30
0
41
1
10
29.3411394618787
20
1.76529168351536
30
0
41
1
10
29.3447501917257
20
1.76284227541564
30
0
41
1
10
29.3505111581496
20
1.75892583774328
30
0
41
1
10
29.3526677849001
20
1.75745782060815
30
0
41
1
10
29.3561078255742
20
1.75511299769681
30
0
41
1
10
29.3573907586798
20
1.75423766529889
30
0
41
1
10
29.3594553939357
20
1.75282901364258
30
0
41
1
10
29.360224590174
20
1.75230426554683
30
0
41
1
10
29.3617633825965
20
1.75125464848313
30
0
41
1
10
29.3625730000787
20
1.75070327144672
30
0
41
1
10
29.3632139649423
20
1.75026196479797
30
0
0
SPLINE
5
BF
100
AcDbEntity
8
1
62
256
6
ByLayer
370
18
48
1
60
0
100
AcDbSpline
70
4
71
3
72
8
73
4
40
0
40
0
40
0
40
0
40
1
40
1
40
1
40
1
41
1
10
29.332000883209
20
1.75291367286209
30
0
41
1
10
29.3329286276695
20
1.75237751998767
30
0
41
1
10
29.3338802447781
20
1.75181741706646
30
0
41
1
10
29.3348523577476
20
1.75123328643088
30
0
0
SPLINE
5
C0
100
AcDbEntity
8
1
62
256
6
ByLayer
370
18
48
1
60
0
100
AcDbSpline
70
4
71
3
72
32
73
28
40
0
40
0
40
0
40
0
40
0.0624999999999979
40
0.0624999999999979
40
0.124999999999996
40
0.124999999999996
40
0.249999999999992
40
0.249999999999992
40
0.312499999999989
40
0.312499999999989
40
0.374999999999987
40
0.374999999999987
40
0.437499999999985
40
0.437499999999985
40
0.499999999999983
40
0.499999999999983
40
0.624999999999985
40
0.624999999999985
40
0.687499999999988
40
0.687499999999988
40
0.74999999999999
40
0.74999999999999
40
0.812499999999992
40
0.812499999999992
40
0.874999999999995
40
0.874999999999995
40
1
40
1
40
1
40
1
41
1
10
29.6935747581637
20
-0.348668123007627
30
0
41
1
10
29.694861544857
20
-0.370687592974946
30
0
41
1
10
29.6935105929821
20
-0.395987434937609
30
0
41
1
10
29.6855269196718
20
-0.448816989315048
30
0
41
1
10
29.6788764100035
20
-0.476654443531146
30
0
41
1
10
29.6535044525169
20
-0.557392919848951
30
0
41
1
10
29.6301672346096
20
-0.606018655913715
30
0
41
1
10
29.5956727963502
20
-0.659702314784965
30
0
41
1
10
29.5841712767622
20
-0.674549971914871
30
0
41
1
10
29.5621126376337
20
-0.697400848314288
30
0
41
1
10
29.5516310017693
20
-0.705405642966412
30
0
41
1
10
29.5315154965862
20
-0.714635433466526
30
0
41
1
10
29.5222119636119
20
-0.715668311217399
30
0
41
1
10
29.5051029841706
20
-0.710549435601763
30
0
41
1
10
29.4972660102577
20
-0.70427324796043
30
0
41
1
10
29.4770180374968
20
-0.674967841208826
30
0
41
1
10
29.4671635988025
20
-0.640382958877723
30
0
41
1
10
29.4618428814254
20
-0.571302832980081
30
0
41
1
10
29.4616673941576
20
-0.545908929796013
30
0
41
1
10
29.4653235587209
20
-0.491508367736799
30
0
41
1
10
29.4691295863831
20
-0.463472240279231
30
0
41
1
10
29.4809389386602
20
-0.40868310592279
30
0
41
1
10
29.4888872262139
20
-0.382438073175109
30
0
41
1
10
29.5076870462574
20
-0.335948452708919
30
0
41
1
10
29.5186100709885
20
-0.315501639846389
30
0
41
1
10
29.5531302186089
20
-0.265425796674549
30
0
41
1
10
29.5789075026199
20
-0.246122425819607
30
0
41
1
10
29.6026208078148
20
-0.24018175933017
30
0
0
SPLINE
5
C1
100
AcDbEntity
8
1
62
256
6
ByLayer
370
18
48
1
60
0
100
AcDbSpline
70
4
71
3
72
16
73
12
40
0
40
0
40
0
40
0
40
0.499999999999994
40
0.499999999999994
40
0.624999999999995
40
0.624999999999995
40
0.749999999999997
40
0.749999999999997
40
0.874999999999998
40
0.874999999999998
40
1
40
1
40
1
40
1
41
1
10
29.3714428396337
20
-1.74466644368854
30
0
41
1
10
29.4418979589377
20
-1.5456822726596
30
0
41
1
10
29.5129162142327
20
-1.34317513057883
30
0
41
1
10
29.6064141532296
20
-1.09245336232056
30
0
41
1
10
29.6251531732473
20
-1.04220950454663
30
0
41
1
10
29.66400276903
20
-0.942947776654137
30
0
41
1
10
29.6840681288547
20
-0.89440236514659
30
0
41
1
10
29.7259989104427
20
-0.799762896761621
30
0
41
1
10
29.7478489191591
20
-0.753639127389903
30
0
41
1
10
29.7936653220482
20
-0.663859471640194
30
0
41
1
10
29.817760646128
20
-0.620053064404601
30
0
41
1
10
29.8424119568398
20
-0.578638944305112
30
0
0
SPLINE
5
C2
100
AcDbEntity
8
1
62
256
6
ByLayer
370
18
48
1
60
0
100
AcDbSpline
70
4
71
3
72
8
73
4
40
0
40
0
40
0
40
0
40
1
40
1
40
1
40
1
41
1
10
29.9973072639308
20
0.131333135527967
30
0
41
1
10
30.0009118237335
20
0.0434303237153131
30
0
41
1
10
30.0008834457514
20
-0.0441223650426537
30
0
41
1
10
29.997307263932
20
-0.131333135499091
30
0
0
SPLINE
5
C3
100
AcDbEntity
8
1
62
256
6
ByLayer
370
18
48
1
60
0
100
AcDbSpline
70
4
71
3
72
10
73
6
40
0
40
0
40
0
40
0
40
0.569000271216503
40
0.569000271216503
40
1
40
1
40
1
40
1
41
1
10
3.50234337507752
20
1.77507214327588
30
0
41
1
10
3.50234424839442
20
1.79745036996294
30
0
41
1
10
3.50234497216849
20
1.81349123525661
30
0
41
1
10
3.50234606632969
20
1.83029189601191
30
0
41
1
10
3.50234648267209
20
1.83389600189292
30
0
41
1
10
3.50234686864988
20
1.83386165638552
30
0
0
SPLINE
5
C4
100
AcDbEntity
8
1
62
256
6
ByLayer
370
18
48
1
60
0
100
AcDbSpline
70
4
71
3
72
20
73
16
40
0
40
0
40
0
40
0
40
0.221207138130142
40
0.221207138130142
40
0.442414276260284
40
0.442414276260284
40
0.663621414390425
40
0.663621414390425
40
0.77422498345548
40
0.77422498345548
40
0.884828552520534
40
0.884828552520534
40
0.995432121585589
40
0.995432121585589
40
1
40
1
40
1
40
1
41
1
10
29.2608114732137
20
0.277741951228904
30
0
41
1
10
29.2331917326357
20
0.303504262210083
30
0
41
1
10
29.2063517574639
20
0.328096282013575
30
0
41
1
10
29.1539451064458
20
0.375369322549005
30
0
41
1
10
29.1284407898783
20
0.397956752935499
30
0
41
1
10
29.0798956425041
20
0.439434353442948
30
0
41
1
10
29.0569989755727
20
0.458170241403025
30
0
41
1
10
29.0263221005999
20
0.481604492159562
30
0
41
1
10
29.0165981386731
20
0.488735188325023
30
0
41
1
10
28.998704940754
20
0.501098586219342
30
0
41
1
10
28.990733654526
20
0.506112117515869
30
0
41
1
10
28.9757631831374
20
0.5149748591856
30
0
41
1
10
28.9687757922387
20
0.518809943140894
30
0
41
1
10
28.9630681768564
20
0.520924942341026
30
0
41
1
10
28.9628445072668
20
0.521005830894069
30
0
41
1
10
28.9626235769268
20
0.521083687096905
30
0
0
SPLINE
5
C5
100
AcDbEntity
8
1
62
256
6
ByLayer
370
18
48
1
60
0
100
AcDbSpline
70
4
71
3
72
8
73
4
40
0
40
0
40
0
40
0
40
1
40
1
40
1
40
1
41
1
10
29.3714428396336
20
1.74466644368869
30
0
41
1
10
29.3556600965872
20
1.75664147406826
30
0
41
1
10
29.3438743045519
20
1.75867746943828
30
0
41
1
10
29.3348523577496
20
1.75123328643059
30
0
0
SPLINE
5
C6
100
AcDbEntity
8
1
62
256
6
ByLayer
370
18
48
1
60
0
100
AcDbSpline
70
4
71
3
72
8
73
4
40
0
40
0
40
0
40
0
40
1
40
1
40
1
40
1
41
1
10
29.8424119568398
20
0.578638944305141
30
0
41
1
10
29.8953237506793
20
0.429996637301855
30
0
41
1
10
29.9469613210073
20
0.280896784166657
30
0
41
1
10
29.9973072639241
20
0.131333135535158
30
0
0
SPLINE
5
C7
100
AcDbEntity
8
1
62
256
6
ByLayer
370
18
48
1
60
0
100
AcDbSpline
70
4
71
3
72
8
73
4
40
0
40
0
40
0
40
0
40
1
40
1
40
1
40
1
41
1
10
29.0889699338049
20
-0.144454398874615
30
0
41
1
10
29.1020231400048
20
-0.150635276162006
30
0
41
1
10
29.1150109199234
20
-0.15639447356142
30
0
41
1
10
29.1279495995295
20
-0.161744372843771
30
0
0
SPLINE
5
C8
100
AcDbEntity
8
1
62
256
6
ByLayer
370
18
48
1
60
0
100
AcDbSpline
70
4
71
3
72
34
73
30
40
0
40
0
40
0
40
0
40
0.0629623764944133
40
0.0629623764944133
40
0.125924752988827
40
0.125924752988827
40
0.251849505977653
40
0.251849505977653
40
0.37777425896648
40
0.37777425896648
40
0.440736635460893
40
0.440736635460893
40
0.4722178237081
40
0.4722178237081
40
0.503699011955306
40
0.503699011955306
40
0.629623764944135
40
0.629623764944135
40
0.692586141438548
40
0.692586141438548
40
0.755548517932961
40
0.755548517932961
40
0.818510894427375
40
0.818510894427375
40
0.84999208267458
40
0.84999208267458
40
0.881473270921786
40
0.881473270921786
40
1
40
1
40
1
40
1
41
1
10
11.5
20
1.8341630611485
30
0
41
1
10
11.6861855701239
20
1.82574914480025
30
0
41
1
10
11.8727679825442
20
1.8056109237487
30
0
41
1
10
12.244075990208
20
1.74308610315296
30
0
41
1
10
12.4283372029819
20
1.70088145325772
30
0
41
1
10
12.9799230206051
20
1.54394962698893
30
-1E-16
41
1
10
13.346117788115
20
1.39898640369589
30
-1E-16
41
1
10
14.0915873291177
20
1.04096861036794
30
-1E-16
41
1
10
14.457896464916
20
0.834304349835946
30
-1E-16
41
1
10
15.0094469545568
20
0.500105232309778
30
0
41
1
10
15.1936262345802
20
0.38462598935439
30
0
41
1
10
15.4719813824273
20
0.207564134338753
30
0
41
1
10
15.5653036499738
20
0.14778488571821
30
0
41
1
10
15.7508339858459
20
0.0286874798551651
30
0
41
1
10
15.8432616610917
20
-0.03077410013384
30
0
41
1
10
16.3043248523448
20
-0.326713113677101
30
0
41
1
10
16.6697543160902
20
-0.559073442432094
30
0
41
1
10
17.2244742302388
20
-0.882892750378716
30
1E-16
41
1
10
17.4112780591054
20
-0.987083821635593
30
1E-16
41
1
10
17.7810010904054
20
-1.17964368201947
30
1E-16
41
1
10
17.9647748697803
20
-1.26854734361447
30
1E-16
41
1
10
18.3320694410175
20
-1.42966800484481
30
1E-16
41
1
10
18.5155679486203
20
-1.50190506019283
30
1E-16
41
1
10
18.7920983758351
20
-1.59614974696311
30
0
41
1
10
18.8844909992768
20
-1.62521030027159
30
0
41
1
10
19.0699760659181
20
-1.67833183755553
30
0
41
1
10
19.1632722515483
20
-1.70242719540551
30
0
41
1
10
19.6052228565447
20
-1.80360730932659
30
0
41
1
10
19.9496180478836
20
-1.84412940202395
30
0
41
1
10
20.2957182232262
20
-1.84435537938558
30
0
0
SPLINE
5
C9
100
AcDbEntity
8
1
62
256
6
ByLayer
370
18
48
1
60
0
100
AcDbSpline
70
4
71
3
72
8
73
4
40
0
40
0
40
0
40
0
40
1
40
1
40
1
40
1
41
1
10
28.7734551142916
20
1.81889961810131
30
0
41
1
10
28.9203551327721
20
1.83621406489849
30
0
41
1
10
29.0671430232653
20
1.84633929958971
30
0
41
1
10
29.2143258716476
20
1.84916363910503
30
0
0
SPLINE
5
CA
100
AcDbEntity
8
1
62
256
6
ByLayer
370
18
48
1
60
0
100
AcDbSpline
70
4
71
3
72
56
73
52
40
0
40
0
40
0
40
0
40
0.124999999999987
40
0.124999999999987
40
0.156249999999984
40
0.156249999999984
40
0.18749999999998
40
0.18749999999998
40
0.249999999999977
40
0.249999999999977
40
0.281249999999976
40
0.281249999999976
40
0.312499999999975
40
0.312499999999975
40
0.343749999999974
40
0.343749999999974
40
0.374999999999973
40
0.374999999999973
40
0.437499999999971
40
0.437499999999971
40
0.468749999999971
40
0.468749999999971
40
0.499999999999971
40
0.499999999999971
40
0.562499999999969
40
0.562499999999969
40
0.624999999999966
40
0.624999999999966
40
0.656249999999965
40
0.656249999999965
40
0.664062499999963
40
0.664062499999963
40
0.667968749999963
40
0.667968749999963
40
0.671874999999964
40
0.671874999999964
40
0.679687499999965
40
0.679687499999965
40
0.687499999999967
40
0.687499999999967
40
0.695312499999968
40
0.695312499999968
40
0.70312499999997
40
0.70312499999997
40
0.718749999999969
40
0.718749999999969
40
0.74999999999997
40
0.74999999999997
40
0.874999999999985
40
0.874999999999985
40
1
40
1
40
1
40
1
41
1
10
3.08984527128138
20
-0.501227054415466
30
0
41
1
10
2.9046240455832
20
-0.388206383047759
30
0
41
1
10
2.72672181655463
20
-0.264792826215853
30
0
41
1
10
2.52002210712672
20
-0.0881715308872799
30
0
41
1
10
2.47949854310198
20
-0.0516833009404536
30
0
41
1
10
2.40045177673471
20
0.0241461813064916
30
0
41
1
10
2.36172771622151
20
0.0637100984842789
30
0
41
1
10
2.25116051874753
20
0.185875767248035
30
0
41
1
10
2.18469066911624
20
0.271652693571468
30
0
41
1
10
2.10216461174122
20
0.410613649058519
30
0
41
1
10
2.07734938786075
20
0.459243265310164
30
0
41
1
10
2.03694322978552
20
0.558314981233963
30
0
41
1
10
2.0213783764213
20
0.60845624255731
30
0
41
1
10
2.00139711231967
20
0.710218795999992
30
0
41
1
10
1.99726457787398
20
0.761381015295143
30
0
41
1
10
2.00154876965456
20
0.859855613015895
30
-1E-16
41
1
10
2.01001554584428
20
0.908350682369729
30
-1E-16
41
1
10
2.05247731256151
20
1.04571630762004
30
-1E-16
41
1
10
2.10329782030584
20
1.12653284235111
30
-1E-16
41
1
10
2.19628002012689
20
1.2298179299658
30
-1E-16
41
1
10
2.2301596941704
20
1.2615422331981
30
-1E-16
41
1
10
2.30249775491194
20
1.32074758982566
30
-1E-16
41
1
10
2.34106790888998
20
1.34825844722352
30
-1E-16
41
1
10
2.46010906663139
20
1.42420872779047
30
-1E-16
41
1
10
2.54456675402975
20
1.46685216017514
30
-1E-16
41
1
10
2.72021165685487
20
1.54186053200121
30
0
41
1
10
2.81160435864803
20
1.57417891200856
30
0
41
1
10
2.95199047858372
20
1.61681649450645
30
0
41
1
10
2.99927305782441
20
1.63002550134124
30
0
41
1
10
3.05890829494001
20
1.64545669707635
30
0
41
1
10
3.0708621530018
20
1.64848877800972
30
0
41
1
10
3.08882842332989
20
1.65295758466235
30
0
41
1
10
3.0947677953221
20
1.6544921926054
30
0
41
1
10
3.10723411653896
20
1.65700257400232
30
0
41
1
10
3.11381345855275
20
1.6579322466637
30
0
41
1
10
3.13365342072072
20
1.66001316332824
30
0
41
1
10
3.14754912705058
20
1.66020042152672
30
0
41
1
10
3.174626119799
20
1.65929158089497
30
0
41
1
10
3.18791117938349
20
1.65805567590999
30
0
41
1
10
3.21399685018474
20
1.65447673621827
30
0
41
1
10
3.22680145774282
20
1.65237748650389
30
0
41
1
10
3.25255048972454
20
1.64832054340249
30
0
41
1
10
3.26540899362669
20
1.646256805826
30
0
41
1
10
3.30393059738003
20
1.6399530671134
30
0
41
1
10
3.32954257949959
20
1.6356023494894
30
0
41
1
10
3.40616994720736
20
1.62208430686516
30
0
41
1
10
3.45693942603867
20
1.61245944962246
30
0
41
1
10
3.70925626780829
20
1.56101177064701
30
0
41
1
10
3.90631483045607
20
1.50891378614614
30
-1E-16
41
1
10
4.28937272573663
20
1.38019153714365
30
-1E-16
41
1
10
4.4759532804749
20
1.30349707476464
30
-1E-16
41
1
10
4.66013795494206
20
1.2146413850281
30
-1E-16
0
SPLINE
5
CB
100
AcDbEntity
8
1
62
256
6
ByLayer
370
18
48
1
60
0
100
AcDbSpline
70
4
71
3
72
8
73
4
40
0
40
0
40
0
40
0
40
1
40
1
40
1
40
1
41
1
10
29.537815419521
20
0.502192420277396
30
0
41
1
10
29.6410827364007
20
0.520395317673461
30
0
41
1
10
29.7446703890071
20
0.541829288578867
30
0
41
1
10
29.84241195684
20
0.578638944305197
30
0
0
SPLINE
5
CC
100
AcDbEntity
8
1
62
256
6
ByLayer
370
18
48
1
60
0
100
AcDbSpline
70
4
71
3
72
8
73
4
40
0
40
0
40
0
40
0
40
1
40
1
40
1
40
1
41
1
10
29.3714428396337
20
-1.74466644368866
30
0
41
1
10
29.3556600965873
20
-1.75664147406826
30
0
41
1
10
29.3438743045519
20
-1.75867746943831
30
0
41
1
10
29.3348523577496
20
-1.75123328643062
30
0
0
SPLINE
5
CD
100
AcDbEntity
8
1
62
256
6
ByLayer
370
18
48
1
60
0
100
AcDbSpline
70
4
71
3
72
8
73
4
40
0
40
0
40
0
40
0
40
1
40
1
40
1
40
1
41
1
10
3.54812728147993
20
1.75413315952142
30
0
41
1
10
3.52216959781845
20
1.75896478550922
30
0
41
1
10
3.50502436980253
20
1.7670220375517
30
0
41
1
10
3.50241070076862
20
1.77467824230104
30
0
0
SPLINE
5
CE
100
AcDbEntity
8
1
62
256
6
ByLayer
370
18
48
1
60
0
100
AcDbSpline
70
4
71
3
72
30
73
26
40
0
40
0
40
0
40
0
40
0.0622859047912206
40
0.0622859047912206
40
0.124571809582442
40
0.124571809582442
40
0.249143619164883
40
0.249143619164883
40
0.373715428747325
40
0.373715428747325
40
0.498287238329766
40
0.498287238329766
40
0.622859047912208
40
0.622859047912208
40
0.685144952703427
40
0.685144952703427
40
0.747430857494647
40
0.747430857494647
40
0.872002667077086
40
0.872002667077086
40
0.934288571868305
40
0.934288571868305
40
0.996574476659523
40
0.996574476659523
40
1
40
1
40
1
40
1
41
1
10
29.3320008832056
20
-1.75291367286496
30
0
41
1
10
29.1973553456718
20
-1.74194070429945
30
0
41
1
10
29.0627256738796
20
-1.72569619615101
30
0
41
1
10
28.7928982884502
20
-1.68128059008484
30
0
41
1
10
28.6576960260672
20
-1.65329220835815
30
0
41
1
10
28.255104252003
20
-1.55387746895022
30
0
41
1
10
27.9892223636369
20
-1.46682161273006
30
0
41
1
10
27.4563451553603
20
-1.25715741804339
30
1E-16
41
1
10
27.1891505160414
20
-1.13461807953422
30
1E-16
41
1
10
26.6488132692729
20
-0.859149139730619
30
1E-16
41
1
10
26.3817959694349
20
-0.710123106525231
30
0
41
1
10
25.8489539946717
20
-0.397981724067364
30
0
41
1
10
25.582927456063
20
-0.235100257424506
30
0
41
1
10
25.1805855978327
20
0.0132394831322813
30
0
41
1
10
25.0452963810931
20
0.096952270694743
30
0
41
1
10
24.7761069440949
20
0.262082702221932
30
0
41
1
10
24.6421839926637
20
0.343535278227449
30
0
41
1
10
24.2412888762554
20
0.582824059317261
30
0
41
1
10
23.9751072858049
20
0.735535917326786
30
0
41
1
10
23.5743124027812
20
0.949590918187624
30
-1E-16
41
1
10
23.440359472279
20
1.01827993428725
30
-1E-16
41
1
10
23.1709066670439
20
1.14911878270655
30
-1E-16
41
1
10
23.0355983986149
20
1.21115262534119
30
-1E-16
41
1
10
22.8941170009982
20
1.27159736200156
30
-1E-16
41
1
10
22.886743171281
20
1.27473518341748
30
-1E-16
41
1
10
22.8793708563103
20
1.27785979116336
30
-1E-16
0
SPLINE
5
CF
100
AcDbEntity
8
1
62
256
6
ByLayer
370
18
48
1
60
0
100
AcDbSpline
70
4
71
3
72
32
73
28
40
0
40
0
40
0
40
0
40
0.0247656771548276
40
0.0247656771548276
40
0.0835891585444726
40
0.0835891585444726
40
0.142412639934118
40
0.142412639934118
40
0.260059602713408
40
0.260059602713408
40
0.377706565492698
40
0.377706565492698
40
0.495353528271988
40
0.495353528271988
40
0.613000491051279
40
0.613000491051279
40
0.671823972440924
40
0.671823972440924
40
0.730647453830571
40
0.730647453830571
40
0.848294416609863
40
0.848294416609863
40
0.90711789799951
40
0.90711789799951
40
0.965941379389157
40
0.965941379389157
40
1
40
1
40
1
40
1
41
1
10
11.8124798584606
20
-1.75535057385247
30
0
41
1
10
11.7562953781408
20
-1.75666798156445
30
0
41
1
10
11.7000716044592
20
-1.75695000373992
30
0
41
1
10
11.5100642504912
20
-1.75432897827218
30
0
41
1
10
11.3761014396354
20
-1.74690730175553
30
0
41
1
10
11.1069066515164
20
-1.72061900345719
30
0
41
1
10
10.9712810171181
20
-1.70140639967431
30
0
41
1
10
10.5677236688741
20
-1.62744977085995
30
0
41
1
10
10.3013853907008
20
-1.55693313574116
30
0
41
1
10
9.76738158136732
20
-1.37671523577018
30
1E-16
41
1
10
9.50034611358146
20
-1.26768510534865
30
1E-16
41
1
10
8.95904273217243
20
-1.01562507220075
30
1E-16
41
1
10
8.69139111910999
20
-0.875683034090741
30
1E-16
41
1
10
8.15714766098992
20
-0.577935607084697
30
0
41
1
10
7.89080671197914
20
-0.419723026197801
30
0
41
1
10
7.48733546785081
20
-0.175567647267258
30
0
41
1
10
7.35180379924418
20
-0.0925394094759895
30
0
41
1
10
7.08218832133855
20
0.0727518559218936
30
0
41
1
10
6.94809939593674
20
0.154965489479707
30
0
41
1
10
6.54680417318889
20
0.39848755044369
30
0
41
1
10
6.28062395869097
20
0.556751878965258
30
0
41
1
10
5.87926400117806
20
0.781480740061482
30
0
41
1
10
5.74512344295974
20
0.854271499929553
30
-1E-16
41
1
10
5.4754102975335
20
0.994442431775667
30
-1E-16
41
1
10
5.33982522427647
20
1.06178745657402
30
-1E-16
41
1
10
5.12755824519127
20
1.16132927407094
30
-1E-16
41
1
10
5.04992151960462
20
1.19649042787012
30
-1E-16
41
1
10
4.97241127977008
20
1.23024331070852
30
-1E-16
0
SPLINE
5
D0
100
AcDbEntity
8
1
62
256
6
ByLayer
370
18
48
1
60
0
100
AcDbSpline
70
4
71
3
72
8
73
4
40
0
40
0
40
0
40
0
40
1
40
1
40
1
40
1
41
1
10
29.3632139645898
20
-1.75026196477592
30
0
41
1
10
29.3376883209607
20
-1.75070999340096
30
0
41
1
10
29.3121763367077
20
-1.75094102660154
30
0
41
1
10
29.2866760363939
20
-1.75095753233475
30
0
0
SPLINE
5
D1
100
AcDbEntity
8
1
62
256
6
ByLayer
370
18
48
1
60
0
100
AcDbSpline
70
4
71
3
72
36
73
32
40
0
40
0
40
0
40
0
40
0.0149466338033365
40
0.0149466338033365
40
0.0961780643562982
40
0.0961780643562982
40
0.17740949490926
40
0.17740949490926
40
0.258640925462222
40
0.258640925462222
40
0.339872356015184
40
0.339872356015184
40
0.421103786568146
40
0.421103786568146
40
0.502335217121107
40
0.502335217121107
40
0.583566647674069
40
0.583566647674069
40
0.664798078227031
40
0.664798078227031
40
0.746029508779993
40
0.746029508779993
40
0.827260939332954
40
0.827260939332954
40
0.908492369885916
40
0.908492369885916
40
0.949108085162396
40
0.949108085162396
40
0.989723800438876
40
0.989723800438876
40
1
40
1
40
1
40
1
41
1
10
25.0017480978832
20
-0.133405366859336
30
0
41
1
10
24.9675659374674
20
-0.112574190267822
30
0
41
1
10
24.9333969251968
20
-0.0917225772909092
30
0
41
1
10
24.7135722888243
20
0.0425184173866171
30
0
41
1
10
24.5280413811747
20
0.156075064447322
30
0
41
1
10
24.1557683602149
20
0.381110807167062
30
0
41
1
10
23.9684531368964
20
0.49269052300096
30
0
41
1
10
23.5939820618086
20
0.70768918840497
30
0
41
1
10
23.4063857784684
20
0.81115060246276
30
0
41
1
10
23.0332784457993
20
1.00624083535166
30
-1E-16
41
1
10
22.8476290881604
20
1.09766905037611
30
-1E-16
41
1
10
22.4760269892452
20
1.26521103988452
30
-1E-16
41
1
10
22.2899889824653
20
1.3413454215538
30
-1E-16
41
1
10
21.9161120526853
20
1.47716921266951
30
0
41
1
10
21.7296744222338
20
1.53590644325178
30
0
41
1
10
21.3593168198108
20
1.63217578972359
30
0
41
1
10
21.1748034035962
20
1.66987967143172
30
0
41
1
10
20.8055865206724
20
1.72516470150313
30
0
41
1
10
20.6208319102774
20
1.74241483981049
30
0
41
1
10
20.2489086676273
20
1.75438844284912
30
0
41
1
10
20.0610146284255
20
1.74919222986023
30
0
41
1
10
19.6893722774325
20
1.71733365601455
30
0
41
1
10
19.5046725357857
20
1.69063121760635
30
0
41
1
10
19.1354579506227
20
1.61601003870266
30
0
41
1
10
18.9509437983224
20
1.56819038659154
30
0
41
1
10
18.673117601626
20
1.48238287379965
30
0
41
1
10
18.5803054363728
20
1.45135852848389
30
0
41
1
10
18.3940664618621
20
1.38465633616653
30
-1E-16
41
1
10
18.300349879208
20
1.34882172023032
30
-1E-16
41
1
10
18.1833627032617
20
1.30146141363107
30
-1E-16
41
1
10
18.1597643293381
20
1.29177258827221
30
-1E-16
41
1
10
18.1361878253669
20
1.28196092099341
30
-1E-16
0
SPLINE
5
D2
100
AcDbEntity
8
1
62
256
6
ByLayer
370
18
48
1
60
0
100
AcDbSpline
70
4
71
3
72
52
73
48
40
0
40
0
40
0
40
0
40
0.0097205759663991
40
0.0097205759663991
40
0.0502361002998423
40
0.0502361002998423
40
0.0907516246332855
40
0.0907516246332855
40
0.131267148966729
40
0.131267148966729
40
0.171782673300172
40
0.171782673300172
40
0.212298197633615
40
0.212298197633615
40
0.252813721967058
40
0.252813721967058
40
0.293329246300501
40
0.293329246300501
40
0.333844770633945
40
0.333844770633945
40
0.374360294967388
40
0.374360294967388
40
0.414875819300831
40
0.414875819300831
40
0.455391343634274
40
0.455391343634274
40
0.495906867967717
40
0.495906867967717
40
0.536422392301161
40
0.536422392301161
40
0.617453440968046
40
0.617453440968046
40
0.698484489634931
40
0.698484489634931
40
0.739000013968373
40
0.739000013968373
40
0.779515538301816
40
0.779515538301816
40
0.820031062635258
40
0.820031062635258
40
0.8605465869687
40
0.8605465869687
40
0.901062111302143
40
0.901062111302143
40
0.941577635635585
40
0.941577635635585
40
1
40
1
40
1
40
1
41
1
10
5.55049282984069
20
1.76157071686768
30
0
41
1
10
5.58240115211652
20
1.76731528542652
30
0
41
1
10
5.61427086157983
20
1.77272721469092
30
0
41
1
10
5.77873387147517
20
1.79897224873747
30
0
41
1
10
5.91080618035124
20
1.81436739940537
30
0
41
1
10
6.17493457676389
20
1.83346245728626
30
0
41
1
10
6.30699564273874
20
1.83719335729637
30
0
41
1
10
6.57134735963569
20
1.83295299551312
30
0
41
1
10
6.70362162814877
20
1.82494065272127
30
0
41
1
10
6.96971762031282
20
1.79710401087189
30
0
41
1
10
7.10405224173113
20
1.77721721837793
30
0
41
1
10
7.37029448844939
20
1.7261807687394
30
0
41
1
10
7.5025673164169
20
1.69499775798329
30
0
41
1
10
7.7669935682446
20
1.62248752507068
30
0
41
1
10
7.89902291268027
20
1.58112058004994
30
0
41
1
10
8.16282309126419
20
1.48825149096388
30
-1E-16
41
1
10
8.29462378607334
20
1.43672955570315
30
-1E-16
41
1
10
8.55961207881722
20
1.32498221015999
30
-1E-16
41
1
10
8.69263840676373
20
1.26463305912833
30
-1E-16
41
1
10
8.95990897681224
20
1.13481036240961
30
-1E-16
41
1
10
9.09303679381549
20
1.06590808979865
30
-1E-16
41
1
10
9.35830256644437
20
0.923153005159065
30
-1E-16
41
1
10
9.49051997339402
20
0.848965913820166
30
-1E-16
41
1
10
9.75433796937972
20
0.695309352602919
30
0
41
1
10
9.88599242579858
20
0.61590086932668
30
0
41
1
10
10.1502052228208
20
0.45402808847561
30
0
41
1
10
10.2825989104376
20
0.371328816428615
30
0
41
1
10
10.548268273217
20
0.202772465419258
30
0
41
1
10
10.6821713864769
20
0.116658037786721
30
0
41
1
10
11.0819779202445
20
-0.139429498127072
30
0
41
1
10
11.3453989505148
20
-0.309297729760033
30
0
41
1
10
11.8731597975127
20
-0.636313016724813
30
0
41
1
10
12.1366438750929
20
-0.794748182948354
30
0
41
1
10
12.5375848292037
20
-1.0151920549323
30
1E-16
41
1
10
12.6712482562314
20
-1.08566039683737
30
1E-16
41
1
10
12.9362351204781
20
-1.21881208071287
30
1E-16
41
1
10
13.0680837377403
20
-1.28153142044644
30
1E-16
41
1
10
13.3322247254436
20
-1.39749736521995
30
1E-16
41
1
10
13.4641537057696
20
-1.45118063676634
30
1E-16
41
1
10
13.7279441548725
20
-1.54960648800147
30
0
41
1
10
13.8599343572109
20
-1.59419606523591
30
0
41
1
10
14.1255576461776
20
-1.67282234013086
30
0
41
1
10
14.2595069773893
20
-1.70718066177116
30
0
41
1
10
14.5258869762226
20
-1.76439227321694
30
0
41
1
10
14.6583709980188
20
-1.78717403926427
30
0
41
1
10
14.9813412634654
20
-1.82856521838434
30
0
41
1
10
15.1710607106623
20
-1.84099525978866
30
0
41
1
10
15.3612433028365
20
-1.84125488293372
30
0
0
SPLINE
5
D3
100
AcDbEntity
8
1
62
256
6
ByLayer
370
18
48
1
60
0
100
AcDbSpline
70
4
71
3
72
24
73
20
40
0
40
0
40
0
40
0
40
0.139476238982704
40
0.139476238982704
40
0.211186552400811
40
0.211186552400811
40
0.282896865818917
40
0.282896865818917
40
0.426317492655134
40
0.426317492655134
40
0.569738119491351
40
0.569738119491351
40
0.641448432909458
40
0.641448432909458
40
0.713158746327567
40
0.713158746327567
40
0.856579373163783
40
0.856579373163783
40
1
40
1
40
1
40
1
41
1
10
23.5517461710084
20
1.77245935728055
30
0
41
1
10
23.8098742074459
20
1.81910781834043
30
0
41
1
10
24.0648760082287
20
1.84407677975804
30
0
41
1
10
24.4531970674035
20
1.84800263622003
30
0
41
1
10
24.5852791985021
20
1.84350512052188
30
0
41
1
10
24.8503383453285
20
1.82273928342616
30
0
41
1
10
24.9836297796176
20
1.80641115233843
30
0
41
1
10
25.3836959703195
20
1.73964179893383
30
0
41
1
10
25.6469816861363
20
1.67226745280089
30
0
41
1
10
26.1738492749819
20
1.49796867925431
30
-1E-16
41
1
10
26.4371646662716
20
1.39093270356329
30
-1E-16
41
1
10
26.8359742229492
20
1.20365323881509
30
-1E-16
41
1
10
26.9698295512991
20
1.13661661996278
30
-1E-16
41
1
10
27.235224166689
20
0.99676543191174
30
-1E-16
41
1
10
27.3672750150631
20
0.923695564824556
30
-1E-16
41
1
10
27.7627859253971
20
0.696958867067281
30
0
41
1
10
28.0256078820459
20
0.535806888674813
30
0
41
1
10
28.5545221930956
20
0.200649287602602
30
0
41
1
10
28.8217237919272
20
0.0259970245182615
30
0
41
1
10
29.088969933805
20
-0.1444543988747
30
0
0
SPLINE
5
D4
100
AcDbEntity
8
1
62
256
6
ByLayer
370
18
48
1
60
0
100
AcDbSpline
70
4
71
3
72
10
73
6
40
0
40
0
40
0
40
0
40
0.745624247134296
40
0.745624247134296
40
1
40
1
40
1
40
1
41
1
10
29.3320008832055
20
1.75291367286496
30
0
41
1
10
29.1973553456717
20
1.74194070429945
30
0
41
1
10
29.0627256738795
20
1.72569619615098
30
0
41
1
10
28.8817850818411
20
1.69591202118826
30
0
41
1
10
28.8357245962254
20
1.68766285434941
30
0
41
1
10
28.7896818882608
20
1.6787659363597
30
0
0
SPLINE
5
D5
100
AcDbEntity
8
1
62
256
6
ByLayer
370
18
48
1
60
0
100
AcDbSpline
70
4
71
3
72
32
73
28
40
0
40
0
40
0
40
0
40
0.182938418097843
40
0.182938418097843
40
0.240268024818741
40
0.240268024818741
40
0.297597631539639
40
0.297597631539639
40
0.412256844981433
40
0.412256844981433
40
0.46958645170233
40
0.46958645170233
40
0.526916058423227
40
0.526916058423227
40
0.584245665144124
40
0.584245665144124
40
0.641575271865021
40
0.641575271865021
40
0.756234485306817
40
0.756234485306817
40
0.870893698748613
40
0.870893698748613
40
0.928223305469513
40
0.928223305469513
40
0.985552912190412
40
0.985552912190412
40
1
40
1
40
1
40
1
41
1
10
20.9698519671308
20
-1.75481044599107
30
0
41
1
10
20.5422960562952
20
-1.7792543925168
30
0
41
1
10
20.1197582756625
20
-1.74519978650628
30
0
41
1
10
19.5561848290691
20
-1.62474261004945
30
0
41
1
10
19.420637022447
20
-1.59030639933815
30
0
41
1
10
19.1515904546942
20
-1.51189303082651
30
0
41
1
10
19.0177271481179
20
-1.46772914217607
30
0
41
1
10
18.6170006352548
20
-1.32141931823796
30
1E-16
41
1
10
18.3510768348188
20
-1.20613561773209
30
1E-16
41
1
10
17.9496283695226
20
-1.01054917808827
30
1E-16
41
1
10
17.8154065770017
20
-0.941673106243371
30
1E-16
41
1
10
17.5454565609108
20
-0.797398917287012
30
0
41
1
10
17.4102520141041
20
-0.722220045855408
30
0
41
1
10
17.1407267419968
20
-0.568050738715527
30
0
41
1
10
17.0060989485761
20
-0.488935465429137
30
0
41
1
10
16.7364056728921
20
-0.327748623326841
30
0
41
1
10
16.6009165269659
20
-0.245408679171419
30
0
41
1
10
16.1970194126284
20
0.0016037383232117
30
0
41
1
10
15.9304212486107
20
0.166812016586363
30
0
41
1
10
15.3967984551255
20
0.488530759051116
30
0
41
1
10
15.1299141707803
20
0.645485574508058
30
0
41
1
10
14.7248335863734
20
0.867095597449037
30
-1E-16
41
1
10
14.5896919760959
20
0.93838173758121
30
-1E-16
41
1
10
14.3212783251059
20
1.073493296729
30
-1E-16
41
1
10
14.1875820086578
20
1.13743153670208
30
-1E-16
41
1
10
14.0204003690969
20
1.21243064433526
30
-1E-16
41
1
10
13.9867616487129
20
1.22727668104648
30
-1E-16
41
1
10
13.9531282659941
20
1.24186568450125
30
-1E-16
0
SPLINE
5
D6
100
AcDbEntity
8
1
62
256
6
ByLayer
370
18
48
1
60
0
100
AcDbSpline
70
4
71
3
72
44
73
40
40
0
40
0
40
0
40
0
40
0.0253427753929486
40
0.0253427753929486
40
0.0829398199579008
40
0.0829398199579008
40
0.140536864522853
40
0.140536864522853
40
0.198133909087806
40
0.198133909087806
40
0.255730953652758
40
0.255730953652758
40
0.313327998217711
40
0.313327998217711
40
0.370925042782664
40
0.370925042782664
40
0.428522087347616
40
0.428522087347616
40
0.486119131912568
40
0.486119131912568
40
0.543716176477521
40
0.543716176477521
40
0.601313221042473
40
0.601313221042473
40
0.658910265607426
40
0.658910265607426
40
0.716507310172378
40
0.716507310172378
40
0.774104354737331
40
0.774104354737331
40
0.831701399302283
40
0.831701399302283
40
0.889298443867235
40
0.889298443867235
40
0.946895488432188
40
0.946895488432188
40
0.975694010714664
40
0.975694010714664
40
1
40
1
40
1
40
1
41
1
10
6.26665066656267
20
1.75323551640372
30
0
41
1
10
6.32487759368445
20
1.75442120962481
30
0
41
1
10
6.38308018044043
20
1.75452466463528
30
0
41
1
10
6.57351773771779
20
1.75146735164861
30
0
41
1
10
6.70566106371487
20
1.74408157710894
30
0
41
1
10
6.97101813740508
20
1.71757071074691
30
0
41
1
10
7.10430166260156
20
1.69828071778946
30
0
41
1
10
7.3719106272309
20
1.64917408746766
30
0
41
1
10
7.50569233780152
20
1.61948018672999
30
0
41
1
10
7.77166619048623
20
1.54942390695382
30
0
41
1
10
7.90422119036091
20
1.50926061632427
30
0
41
1
10
8.16866175074759
20
1.42012712550826
30
-1E-16
41
1
10
8.30054829291024
20
1.37116618750321
30
-1E-16
41
1
10
8.56511676484286
20
1.26407526231415
30
-1E-16
41
1
10
8.69768602034904
20
1.20617960831035
30
-1E-16
41
1
10
8.96340233424223
20
1.08275016309381
30
-1E-16
41
1
10
9.09692326626896
20
1.01703312127486
30
-1E-16
41
1
10
9.36466204689896
20
0.879011721338401
30
-1E-16
41
1
10
9.49781094367538
20
0.80733538494701
30
0
41
1
10
9.76301196263753
20
0.659592026895041
30
0
41
1
10
9.89509172703069
20
0.583544199801878
30
0
41
1
10
10.1594246204487
20
0.428518018647111
30
0
41
1
10
10.291574301113
20
0.349499723957848
30
0
41
1
10
10.5560617946583
20
0.189086869764395
30
0
41
1
10
10.6884511403414
20
0.10774665081334
30
0
41
1
10
10.9549065865988
20
-0.0554065580529937
30
0
41
1
10
11.0893079508653
20
-0.137667847412928
30
0
41
1
10
11.3562148926666
20
-0.300324730612829
30
0
41
1
10
11.4889660311423
20
-0.380684743266499
30
0
41
1
10
11.7540305337404
20
-0.537416221605923
30
0
41
1
10
11.8862619910261
20
-0.614115069649529
30
0
41
1
10
12.1505092410772
20
-0.763886158432967
30
0
41
1
10
12.2826431906462
20
-0.836662334340673
30
1E-16
41
1
10
12.548166464171
20
-0.97548613541673
30
1E-16
41
1
10
12.6813131788241
20
-1.04219520764161
30
1E-16
41
1
10
12.8816715370208
20
-1.13838355416161
30
1E-16
41
1
10
12.9486186424303
20
-1.16989434049688
30
1E-16
41
1
10
13.0716114935413
20
-1.22552920016741
30
1E-16
41
1
10
13.1278162890024
20
-1.24999928550881
30
1E-16
41
1
10
13.1839369332156
20
-1.27360169262647
30
1E-16
0
SPLINE
5
D7
100
AcDbEntity
8
1
62
256
6
ByLayer
370
18
48
1
60
0
100
AcDbSpline
70
4
71
3
72
28
73
24
40
0
40
0
40
0
40
0
40
0.0429859707031069
40
0.0429859707031069
40
0.122737139811182
40
0.122737139811182
40
0.202488308919259
40
0.202488308919259
40
0.282239478027334
40
0.282239478027334
40
0.36199064713541
40
0.36199064713541
40
0.521492985351561
40
0.521492985351561
40
0.601244154459635
40
0.601244154459635
40
0.680995323567709
40
0.680995323567709
40
0.840497661783852
40
0.840497661783852
40
0.920248830891926
40
0.920248830891926
40
1
40
1
40
1
40
1
41
1
10
24.1426616289984
20
1.76061995479745
30
0
41
1
10
24.2137042747048
20
1.76413038451983
30
0
41
1
10
24.2847958916515
20
1.76589761783527
30
0
41
1
10
24.4880397022539
20
1.76612323549907
30
0
41
1
10
24.6204123135459
20
1.76046183842746
30
0
41
1
10
24.8862041302052
20
1.73789865668383
30
0
41
1
10
25.0201327958146
20
1.72090139257386
30
0
41
1
10
25.2866299292692
20
1.67660936543925
30
0
41
1
10
25.4190960444299
20
1.64938205609306
30
0
41
1
10
25.6833846421072
20
1.5842674493498
30
0
41
1
10
25.8152004195853
20
1.5464017065097
30
0
41
1
10
26.2106623565031
20
1.41857792033315
30
-1E-16
41
1
10
26.4743401540069
20
1.31409190615932
30
-1E-16
41
1
10
26.8736144993246
20
1.13262702925328
30
-1E-16
41
1
10
27.0076277521518
20
1.06791400466693
30
-1E-16
41
1
10
27.2733718041024
20
0.932916361783384
30
-1E-16
41
1
10
27.4055917607133
20
0.862425752220361
30
-1E-16
41
1
10
27.801541340222
20
0.644059747036039
30
0
41
1
10
28.0644885955599
20
0.48907689094014
30
0
41
1
10
28.4610644858979
20
0.248180880436706
30
0
41
1
10
28.5936152296869
20
0.166560350907957
30
0
41
1
10
28.8604422269727
20
0.0021400280939758
30
0
41
1
10
28.994211378897
20
-0.0804176899589493
30
0
41
1
10
29.1279495995383
20
-0.161744372849654
30
0
0
SPLINE
5
D8
100
AcDbEntity
8
1
62
256
6
ByLayer
370
18
48
1
60
0
100
AcDbSpline
70
4
71
3
72
8
73
4
40
0
40
0
40
0
40
0
40
1
40
1
40
1
40
1
41
1
10
3.50235833158652
20
-1.13434195890656
30
1E-16
41
1
10
3.50235833665667
20
-1.13392093729206
30
1E-16
41
1
10
3.50238206243392
20
-1.13349937783062
30
1E-16
41
1
10
3.5024291108935
20
-1.13307971155334
30
1E-16
0
SPLINE
5
D9
100
AcDbEntity
8
1
62
256
6
ByLayer
370
18
48
1
60
0
100
AcDbSpline
70
4
71
3
72
8
73
4
40
0
40
0
40
0
40
0
40
1
40
1
40
1
40
1
41
1
10
29.2075147239985
20
-1.82256599629042
30
0
41
1
10
29.2488398007737
20
-1.8002284416819
30
0
41
1
10
29.2903217048403
20
-1.77700049011651
30
0
41
1
10
29.3320008832102
20
-1.75291367285632
30
0
0
SPLINE
5
DA
100
AcDbEntity
8
1
62
256
6
ByLayer
370
18
48
1
60
0
100
AcDbSpline
70
4
71
3
72
12
73
8
40
0
40
0
40
0
40
0
40
0.309243778796614
40
0.309243778796614
40
0.654621889398307
40
0.654621889398307
40
1
40
1
40
1
40
1
41
1
10
9.02642494746564
20
1.31941079272716
30
-1E-16
41
1
10
9.28030583306222
20
1.43290870131051
30
-1E-16
41
1
10
9.53472290074916
20
1.5309303883023
30
-1E-16
41
1
10
10.0792969286281
20
1.69969199854816
30
0
41
1
10
10.3634190542547
20
1.76318447601415
30
0
41
1
10
10.930335901541
20
1.8372493814071
30
0
41
1
10
11.2133419459107
20
1.84781406534054
30
0
41
1
10
11.5000000000081
20
1.83073764588426
30
0
0
SPLINE
5
DB
100
AcDbEntity
8
1
62
256
6
ByLayer
370
18
48
1
60
0
100
AcDbSpline
70
4
71
3
72
16
73
12
40
0
40
0
40
0
40
0
40
0.0985399208649989
40
0.0985399208649989
40
0.323904940648749
40
0.323904940648749
40
0.549269960432499
40
0.549269960432499
40
0.77463498021625
40
0.77463498021625
40
1
40
1
40
1
40
1
41
1
10
29.1598005922997
20
0.363563631969129
30
0
41
1
10
29.168822730126
20
0.366754802300278
30
0
41
1
10
29.1782314309152
20
0.370321312999664
30
0
41
1
10
29.2102259444854
20
0.383173604770519
30
0
41
1
10
29.2346613813454
20
0.394003469799173
30
0
41
1
10
29.2872809139843
20
0.417652915275596
30
0
41
1
10
29.3150261275571
20
0.430239758772643
30
0
41
1
10
29.3742497404667
20
0.45461662436162
30
0
41
1
10
29.4059055542642
20
0.466618453437348
30
0
41
1
10
29.4703436228475
20
0.487397926361069
30
0
41
1
10
29.5035002921499
20
0.496143703592537
30
0
41
1
10
29.5378154195208
20
0.502192420277964
30
0
0
SPLINE
5
DC
100
AcDbEntity
8
1
62
256
6
ByLayer
370
18
48
1
60
0
100
AcDbSpline
70
4
71
3
72
8
73
4
40
0
40
0
40
0
40
0
40
1
40
1
40
1
40
1
41
1
10
29.088969933805
20
-0.144454398874615
30
0
41
1
10
29.0832505764781
20
-0.0564687790976564
30
0
41
1
10
29.0800169569505
20
0.0322587574944748
30
0
41
1
10
29.0805148622086
20
0.121839780825354
30
0
0
SPLINE
5
DD
100
AcDbEntity
8
1
62
256
6
ByLayer
370
18
48
1
60
0
100
AcDbSpline
70
4
71
3
72
12
73
8
40
0
40
0
40
0
40
0
40
0.64560143108596
40
0.64560143108596
40
0.910889578965133
40
0.910889578965133
40
1
40
1
40
1
40
1
41
1
10
29.2143258716473
20
-1.84916363909719
30
0
41
1
10
29.2389891757656
20
-1.83328257960847
30
0
41
1
10
29.263738106472
20
-1.81708159193545
30
0
41
1
10
29.2988269167782
20
-1.7937631545891
30
0
41
1
10
29.3090691137461
20
-1.78691521384354
30
0
41
1
10
29.3227795555664
20
-1.77769551177886
30
0
41
1
10
29.3262285200703
20
-1.77537180840298
30
0
41
1
10
29.329675533163
20
-1.77304497681339
30
0
0
SPLINE
5
DE
100
AcDbEntity
8
1
62
256
6
ByLayer
370
18
48
1
60
0
100
AcDbSpline
70
4
71
3
72
38
73
34
40
0
40
0
40
0
40
0
40
0.0343685749154601
40
0.0343685749154601
40
0.115908111393034
40
0.115908111393034
40
0.197447647870608
40
0.197447647870608
40
0.278987184348181
40
0.278987184348181
40
0.319756952586968
40
0.319756952586968
40
0.360526720825755
40
0.360526720825755
40
0.442066257303327
40
0.442066257303327
40
0.482836025542114
40
0.482836025542114
40
0.5236057937809
40
0.5236057937809
40
0.605145330258472
40
0.605145330258472
40
0.645915098497258
40
0.645915098497258
40
0.686684866736044
40
0.686684866736044
40
0.768224403213618
40
0.768224403213618
40
0.808994171452406
40
0.808994171452406
40
0.849763939691193
40
0.849763939691193
40
1
40
1
40
1
40
1
41
1
10
21.5347516519161
20
-1.76746058260889
30
0
41
1
10
21.4226082136002
20
-1.788121969987
30
0
41
1
10
21.3106068849305
20
-1.80469161102113
30
0
41
1
10
20.9326757940794
20
-1.84658084715201
30
0
41
1
10
20.6657471649916
20
-1.85259064453928
30
0
41
1
10
20.1269433987562
20
-1.81547068820575
30
0
41
1
10
19.8607117824031
20
-1.77287721214614
30
0
41
1
10
19.3288416941518
20
-1.64375510169557
30
0
41
1
10
19.0632261645446
20
-1.55717059398822
30
1E-16
41
1
10
18.6605774325502
20
-1.39709430452129
30
1E-16
41
1
10
18.525415967974
20
-1.33852021809724
30
1E-16
41
1
10
18.2574251583865
20
-1.21398236732861
30
1E-16
41
1
10
18.1240450390204
20
-1.14784224257187
30
1E-16
41
1
10
17.7246378087863
20
-0.93936840919946
30
1E-16
41
1
10
17.4593867801529
20
-0.786927923288886
30
0
41
1
10
17.0584433168997
20
-0.54431582272187
30
0
41
1
10
16.9240368583153
20
-0.460919407524841
30
0
41
1
10
16.6545679917147
20
-0.291236478340295
30
0
41
1
10
16.5206442957356
20
-0.205700146104448
30
0
41
1
10
16.1201704830439
20
0.0512181421038633
30
0
41
1
10
15.8549387645224
20
0.222943679239478
30
0
41
1
10
15.4551410973804
20
0.474002695998166
30
0
41
1
10
15.321575705789
20
0.556640141749995
30
0
41
1
10
15.0530293029033
20
0.71852800671661
30
0
41
1
10
14.9178213766939
20
0.79785994347526
30
0
41
1
10
14.5157245240126
20
1.02515557466009
30
-1E-16
41
1
10
14.2501541755201
20
1.16378972584386
30
-1E-16
41
1
10
13.8509611017905
20
1.34706629187275
30
-1E-16
41
1
10
13.7177751901808
20
1.40406338288366
30
-1E-16
41
1
10
13.4503544294277
20
1.50890228660501
30
-1E-16
41
1
10
13.3158354062403
20
1.55685780586458
30
0
41
1
10
12.6844098829801
20
1.75684447480987
30
0
41
1
10
12.1990323701928
20
1.83877691620887
30
0
41
1
10
11.7053578173703
20
1.83898484341475
30
0
0
SPLINE
5
DF
100
AcDbEntity
8
1
62
256
6
ByLayer
370
18
48
1
60
0
100
AcDbSpline
70
4
71
3
72
8
73
4
40
0
40
0
40
0
40
0
40
1
40
1
40
1
40
1
41
1
10
29.3632139647173
20
1.75026196468912
30
0
41
1
10
29.3659568545293
20
1.74839768238812
30
0
41
1
10
29.3686998111786
20
1.74653250921799
30
0
41
1
10
29.3714428396339
20
1.74466644368852
30
0
0
SPLINE
5
E0
100
AcDbEntity
8
1
62
256
6
ByLayer
370
18
48
1
60
0
100
AcDbSpline
70
4
71
3
72
32
73
28
40
0
40
0
40
0
40
0
40
0.0941683859795147
40
0.0941683859795147
40
0.188336771959029
40
0.188336771959029
40
0.376673543918059
40
0.376673543918059
40
0.423757736907816
40
0.423757736907816
40
0.470841929897574
40
0.470841929897574
40
0.56501031587709
40
0.56501031587709
40
0.612094508866848
40
0.612094508866848
40
0.659178701856606
40
0.659178701856606
40
0.753347087836122
40
0.753347087836122
40
0.80043128082588
40
0.80043128082588
40
0.847515473815637
40
0.847515473815637
40
0.941683859795152
40
0.941683859795152
40
1
40
1
40
1
40
1
41
1
10
29.2075147239998
20
-1.82256599627973
30
0
41
1
10
28.9397296446904
20
-1.79264089526114
30
0
41
1
10
28.6741457701668
20
-1.7392003866656
30
0
41
1
10
28.1425276060301
20
-1.58934683375025
30
0
41
1
10
27.8765992517506
20
-1.49273182690635
30
1E-16
41
1
10
27.0681921117827
20
-1.1441747771143
30
1E-16
41
1
10
26.5423351036546
20
-0.84513865832551
30
1E-16
41
1
10
25.8721242762813
20
-0.429429046111096
30
0
41
1
10
25.737019954504
20
-0.344010917104669
30
0
41
1
10
25.4691659580524
20
-0.172784775154895
30
0
41
1
10
25.335951130801
20
-0.0866409698284656
30
0
41
1
10
24.9370087129329
20
0.171126773667311
30
0
41
1
10
24.6719249399903
20
0.341999206011451
30
0
41
1
10
24.2711089445866
20
0.589803198316361
30
0
41
1
10
24.1368017736332
20
0.67107923132437
30
0
41
1
10
23.8672335133826
20
0.829458554204479
30
-1E-16
41
1
10
23.7333833495702
20
0.905806196049866
30
-1E-16
41
1
10
23.333240626834
20
1.1246003640799
30
-1E-16
41
1
10
23.0680480702202
20
1.2564475125609
30
-1E-16
41
1
10
22.6687000320832
20
1.4286491549754
30
-1E-16
41
1
10
22.5352392853991
20
1.48168664388686
30
-1E-16
41
1
10
22.2669107768443
20
1.5781739028271
30
0
41
1
10
22.131779162598
20
1.62170521315693
30
0
41
1
10
21.7299372268106
20
1.73482281084554
30
0
41
1
10
21.4644129710224
20
1.78764400733186
30
0
41
1
10
21.0338985757858
20
1.83536148704283
30
0
41
1
10
20.8688462416461
20
1.84461412531309
30
0
41
1
10
20.7030517517457
20
1.84460645091278
30
0
0
SPLINE
5
E1
100
AcDbEntity
8
1
62
256
6
ByLayer
370
18
48
1
60
0
100
AcDbSpline
70
4
71
3
72
38
73
34
40
0
40
0
40
0
40
0
40
0.107108830253554
40
0.107108830253554
40
0.151753388740875
40
0.151753388740875
40
0.196397947228197
40
0.196397947228197
40
0.285687064202841
40
0.285687064202841
40
0.330331622690163
40
0.330331622690163
40
0.374976181177484
40
0.374976181177484
40
0.464265298152129
40
0.464265298152129
40
0.508909856639452
40
0.508909856639452
40
0.553554415126775
40
0.553554415126775
40
0.642843532101421
40
0.642843532101421
40
0.687488090588744
40
0.687488090588744
40
0.732132649076066
40
0.732132649076066
40
0.821421766050711
40
0.821421766050711
40
0.910710883025355
40
0.910710883025355
40
0.955355441512678
40
0.955355441512678
40
1
40
1
40
1
40
1
41
1
10
12.538564674813
20
-1.7613574440312
30
0
41
1
10
12.2191880752604
20
-1.8203545389959
30
0
41
1
10
11.900985831365
20
-1.8462343457592
30
0
41
1
10
11.4441646570589
20
-1.83349459600458
30
0
41
1
10
11.3090099430473
20
-1.82357728261871
30
0
41
1
10
11.0409339057486
20
-1.79200043727295
30
0
41
1
10
10.907449170794
20
-1.7703688121079
30
0
41
1
10
10.5076849060801
20
-1.68872225205996
30
0
41
1
10
10.2423772880019
20
-1.61174401725415
30
0
41
1
10
9.84097367819328
20
-1.46577927446035
30
1E-16
41
1
10
9.70645793172798
20
-1.41173085951277
30
1E-16
41
1
10
9.43689953483687
20
-1.29456453419806
30
1E-16
41
1
10
9.30287153066951
20
-1.2319225775249
30
1E-16
41
1
10
8.90208300024503
20
-1.0332420425801
30
1E-16
41
1
10
8.63677527522751
20
-0.886221490239365
30
1E-16
41
1
10
8.23657041413054
20
-0.650791062004288
30
0
41
1
10
8.10295882562235
20
-0.5695889039159
30
0
41
1
10
7.83416916889917
20
-0.403324454182268
30
0
41
1
10
7.69885020860457
20
-0.318137181476345
30
0
41
1
10
7.29647700816861
20
-0.0624349611612161
30
0
41
1
10
7.03092651643658
20
0.109872149161419
30
0
41
1
10
6.63149275968831
20
0.362953226659869
30
0
41
1
10
6.4981943899262
20
0.446466740922688
30
0
41
1
10
6.23055805958163
20
0.610642925123358
30
0
41
1
10
6.09588146780848
20
0.691504962732466
30
0
41
1
10
5.69139673165023
20
0.926659554511787
30
-1E-16
41
1
10
5.42493973696185
20
1.071223383334
30
-1E-16
41
1
10
4.89243978117679
20
1.32908834059458
30
-1E-16
41
1
10
4.62640339666746
20
1.44237779476001
30
-1E-16
41
1
10
4.22293902486277
20
1.58323311096345
30
0
41
1
10
4.08760960748424
20
1.62532763441447
30
0
41
1
10
3.8178940556777
20
1.69813637486746
30
0
41
1
10
3.68311731907531
20
1.72900682767136
30
0
41
1
10
3.54812728147996
20
1.75413315952142
30
0
0
SPLINE
5
E2
100
AcDbEntity
8
1
62
256
6
ByLayer
370
18
48
1
60
0
100
AcDbSpline
70
4
71
3
72
14
73
10
40
0
40
0
40
0
40
0
40
0.25
40
0.25
40
0.5
40
0.5
40
0.75
40
0.75
40
1
40
1
40
1
40
1
41
1
10
3.50242911089356
20
-1.13307971155288
30
1E-16
41
1
10
3.50393287805261
20
-1.1196662996968
30
1E-16
41
1
10
3.50990006013151
20
-1.10642556871002
30
1E-16
41
1
10
3.52931533862849
20
-1.08375176628473
30
1E-16
41
1
10
3.54281985095409
20
-1.07433184590332
30
1E-16
41
1
10
3.57356447107821
20
-1.06215001447146
30
1E-16
41
1
10
3.59089503637293
20
-1.05931047360394
30
1E-16
41
1
10
3.62519622540066
20
-1.06100642493965
30
1E-16
41
1
10
3.64198115908511
20
-1.06549906297445
30
1E-16
41
1
10
3.65650402349695
20
-1.07315194936635
30
1E-16
0
SPLINE
5
E3
100
AcDbEntity
8
1
62
256
6
ByLayer
370
18
48
1
60
0
100
AcDbSpline
70
4
71
3
72
8
73
4
40
0
40
0
40
0
40
0
40
1
40
1
40
1
40
1
41
1
10
29.8424119568398
20
-0.578638944305141
30
0
41
1
10
29.8953237506842
20
-0.429996637288156
30
0
41
1
10
29.9469613210168
20
-0.280896784139145
30
0
41
1
10
29.997307263938
20
-0.131333135493748
30
0
0
SPLINE
5
E4
100
AcDbEntity
8
1
62
256
6
ByLayer
370
18
48
1
60
0
100
AcDbSpline
70
4
71
3
72
65
73
61
40
0
40
0
40
0
40
0
40
0.0169783173903016
40
0.0169783173903016
40
0.0347749470959103
40
0.0347749470959103
40
0.052571576801519
40
0.052571576801519
40
0.0703682065071276
40
0.0703682065071276
40
0.0881648362127364
40
0.0881648362127364
40
0.105961465918345
40
0.105961465918345
40
0.110410623344747
40
0.110410623344747
40
0.110966768023048
40
0.110966768023048
40
0.111522912701348
40
0.111522912701348
40
0.112635202057948
40
0.112635202057948
40
0.114859780771149
40
0.114859780771149
40
0.123758095623954
40
0.123758095623954
40
0.141554725329563
40
0.141554725329563
40
0.177147984740781
40
0.177147984740781
40
0.248334503563216
40
0.248334503563216
40
0.390707541208088
40
0.390707541208088
40
0.461894060030524
40
0.461894060030524
40
0.479690689736133
40
0.479690689736133
40
0.484139847162535
40
0.484139847162535
40
0.486364425875736
40
0.486364425875736
40
0.487476715232337
40
0.487476715232337
40
0.488589004588937
40
0.488589004588937
40
0.488867076928088
40
0.488867076928088
40
0.489145149267238
40
0.489145149267238
40
0.489701293945538
40
0.489701293945538
40
0.490813583302139
40
0.49303816201534
40
0.497487319441743
40
0.533080578852966
40
0.533080578852966
40
0.817826654142749
40
0.817826654142749
40
1
40
1
40
1
40
1
41
1
10
4.66013788871331
20
1.21464142124626
30
-1E-16
41
1
10
4.66113147093589
20
1.1990288025186
30
-1E-16
41
1
10
4.65990256447739
20
1.18304931892237
30
-1E-16
41
1
10
4.6525527633562
20
1.14946352639373
30
-1E-16
41
1
10
4.64645999383697
20
1.13156506663779
30
-1E-16
41
1
10
4.63122630071553
20
1.0941474264952
30
-1E-16
41
1
10
4.62209639048441
20
1.07462057282453
30
-1E-16
41
1
10
4.60179755678752
20
1.03336939382268
30
0
41
1
10
4.59062276484329
20
1.01164863022387
30
0
41
1
10
4.56499771350283
20
0.966704423956571
30
1E-16
41
1
10
4.55099409112592
20
0.943225873138289
30
1E-16
41
1
10
4.52013859178584
20
0.894446379906668
30
-1E-16
41
1
10
4.50242757946614
20
0.869534130463734
30
-1E-16
41
1
10
4.47815520182229
20
0.837673738492441
30
-1E-16
41
1
10
4.47319758864177
20
0.831270386618542
30
-1E-16
41
1
10
4.46751370302152
20
0.824029664158502
30
-1E-16
41
1
10
4.46683843817982
20
0.823250438377698
30
-1E-16
41
1
10
4.46566901517713
20
0.821578480139436
30
-1E-16
41
1
10
4.46586347347778
20
0.820354056902715
30
-1E-16
41
1
10
4.46783446396506
20
0.817033319467072
30
-1E-16
41
1
10
4.469907059874
20
0.815050903907149
30
0
41
1
10
4.47595433856782
20
0.809249378203674
30
0
41
1
10
4.48031866974276
20
0.805594178281297
30
0
41
1
10
4.50220985061793
20
0.78752154912479
30
0
41
1
10
4.52050370540968
20
0.773721705425203
30
0
41
1
10
4.57534778267706
20
0.732406125148401
30
0
41
1
10
4.6123721853325
20
0.705314347534568
30
0
41
1
10
4.72370760358041
20
0.624292887307178
30
0
41
1
10
4.79841943252308
20
0.570783384471781
30
0
41
1
10
5.02267517366496
20
0.410249769694303
30
0
41
1
10
5.17232478372728
20
0.303160250221481
30
0
41
1
10
5.62076020667001
20
-0.0193393598914042
30
0
41
1
10
5.91916279191938
20
-0.235894677349478
30
0
41
1
10
6.36747528670048
20
-0.560935380468237
30
0
41
1
10
6.51742678676055
20
-0.668678006112287
30
0
41
1
10
6.70260476066881
20
-0.806759264299302
30
0
41
1
10
6.73958714171897
20
-0.834496237556465
30
0
41
1
10
6.78496997331587
20
-0.870299431435626
30
0
41
1
10
6.79400114644724
20
-0.877519133342616
30
0
41
1
10
6.80733628770261
20
-0.888623556525232
30
0
41
1
10
6.81175171757644
20
-0.892368761922
30
0
41
1
10
6.81821756817914
20
-0.898172863112279
30
0
41
1
10
6.82035070785753
20
-0.900137989657424
30
0
41
1
10
6.82445079592389
20
-0.904220083528969
30
0
41
1
10
6.82673155408054
20
-0.906219801059962
30
0
41
1
10
6.82815431734522
20
-0.909505861837886
30
0
41
1
10
6.82824246904965
20
-0.910330807191315
30
0
41
1
10
6.82723220613272
20
-0.911149945438524
30
0
41
1
10
6.82650232437709
20
-0.911202912200281
30
0
41
1
10
6.82447154013153
20
-0.911284417354409
30
0
41
1
10
6.82308549734648
20
-0.911140259846917
30
0
41
1
10
6.81895801467431
20
-0.910883082308118
30
0
41
1
10
6.81070329353454
20
-0.910367929643371
30
0
41
1
10
6.79144399417521
20
-0.909160322322151
30
0
41
1
10
6.68691218930519
20
-0.902544075435316
30
0
41
1
10
6.58798731175366
20
-0.895930696742511
30
0
41
1
10
5.79737117532969
20
-0.840546417177165
30
1E-16
41
1
10
5.10024146061301
20
-0.773668268895165
30
0
41
1
10
3.967190536131
20
-0.633461506806356
30
0
41
1
10
3.52736784907177
20
-0.571120526993042
30
0
41
1
10
3.08984492795293
20
-0.501228166133785
30
0
0
SPLINE
5
E5
100
AcDbEntity
8
1
62
256
6
ByLayer
370
18
48
1
60
0
100
AcDbSpline
70
4
71
3
72
10
73
6
40
0
40
0
40
0
40
0
40
0.5
40
0.5
40
1
40
1
40
1
40
1
41
1
10
29.2608114732137
20
0.277741951228904
30
0
41
1
10
29.2280649402933
20
0.260735612211533
30
0
41
1
10
29.1963942691951
20
0.239485925517386
30
0
41
1
10
29.1359999856844
20
0.187683276819769
30
0
41
1
10
29.1071599575609
20
0.156943381072665
30
0
41
1
10
29.0805148622086
20
0.121839780825354
30
0
0
SPLINE
5
E6
100
AcDbEntity
8
1
62
256
6
ByLayer
370
18
48
1
60
0
100
AcDbSpline
70
4
71
3
72
8
73
4
40
0
40
0
40
0
40
0
40
1
40
1
40
1
40
1
41
1
10
29.2075147240145
20
1.82256599627954
30
0
41
1
10
29.2101873811008
20
1.83764012809161
30
0
41
1
10
29.2123409409538
20
1.8465977051122
30
0
41
1
10
29.2143258716357
20
1.84916363910503
30
0
0
SPLINE
5
E7
100
AcDbEntity
8
1
62
256
6
ByLayer
370
18
48
1
60
0
100
AcDbSpline
70
4
71
3
72
8
73
4
40
0
40
0
40
0
40
0
40
1
40
1
40
1
40
1
41
1
10
3.50241070076862
20
1.77467824230104
30
0
41
1
10
3.50236593238316
20
1.77480938205937
30
0
41
1
10
3.50234336995374
20
1.77494092393837
30
0
41
1
10
3.50234337507737
20
1.77507214327531
30
0
0
SPLINE
5
E8
100
AcDbEntity
8
1
62
256
6
ByLayer
370
18
48
1
60
0
100
AcDbSpline
70
4
71
3
72
48
73
44
40
0
40
0
40
0
40
0
40
0.0219625329087128
40
0.0219625329087128
40
0.0585114314823548
40
0.0585114314823548
40
0.0950603300559968
40
0.0950603300559968
40
0.168158127203279
40
0.168158127203279
40
0.204707025776921
40
0.204707025776921
40
0.241255924350564
40
0.241255924350564
40
0.314353721497849
40
0.314353721497849
40
0.387451518645134
40
0.387451518645134
40
0.424000417218777
40
0.424000417218777
40
0.46054931579242
40
0.46054931579242
40
0.533647112939704
40
0.533647112939704
40
0.570196011513346
40
0.570196011513346
40
0.606744910086988
40
0.606744910086988
40
0.679842707234272
40
0.679842707234272
40
0.716391605807914
40
0.716391605807914
40
0.752940504381556
40
0.752940504381556
40
0.826038301528839
40
0.826038301528839
40
0.86258720010248
40
0.86258720010248
40
0.899136098676121
40
0.899136098676121
40
0.972233895823404
40
0.972233895823404
40
1
40
1
40
1
40
1
41
1
10
26.8924807080945
20
-1.36479314539676
30
1E-16
41
1
10
26.8116328968794
20
-1.40000100061999
30
1E-16
41
1
10
26.7307740660647
20
-1.43358693638603
30
1E-16
41
1
10
26.5150924834972
20
-1.51848692193838
30
1E-16
41
1
10
26.3799552147784
20
-1.56663096312784
30
0
41
1
10
26.1083303280169
20
-1.65254181908506
30
0
41
1
10
25.9713717302711
20
-1.69031726490198
30
0
41
1
10
25.5645136118588
20
-1.78553086526472
30
0
41
1
10
25.2957694343359
20
-1.82500339238123
30
0
41
1
10
24.8917405688336
20
-1.84769439823592
30
0
41
1
10
24.7569891714443
20
-1.84917968883102
30
0
41
1
10
24.4866508349873
20
-1.83970354340332
30
0
41
1
10
24.3505935515697
20
-1.82870930002216
30
0
41
1
10
23.9413671755664
20
-1.77715818864561
30
0
41
1
10
23.6719766102998
20
-1.71861497132303
30
0
41
1
10
23.1337761889642
20
-1.55793748497109
30
1E-16
41
1
10
22.8643219910505
20
-1.45639795977738
30
1E-16
41
1
10
22.4563816378209
20
-1.27430050806461
30
1E-16
41
1
10
22.3198049712273
20
-1.2085648074623
30
1E-16
41
1
10
22.048722905768
20
-1.07094433274264
30
1E-16
41
1
10
21.9136819837087
20
-0.998749139089853
30
1E-16
41
1
10
21.5092953054873
20
-0.773191051207704
30
0
41
1
10
21.2409627480122
20
-0.610410518075099
30
0
41
1
10
20.834364882147
20
-0.356143783330424
30
0
41
1
10
20.6976715746399
20
-0.269231503868411
30
0
41
1
10
20.4252575694053
20
-0.0947278784743162
30
0
41
1
10
20.2900015943486
20
-0.0070859788746418
30
0
41
1
10
19.885192684048
20
0.254022448207337
30
0
41
1
10
19.6163156948178
20
0.425260300418415
30
0
41
1
10
19.2110810003283
20
0.672590246178572
30
0
41
1
10
19.0757709306025
20
0.75356747206348
30
0
41
1
10
18.8031813984894
20
0.910284103469365
30
-1E-16
41
1
10
18.6666849454905
20
0.985657231783961
30
-1E-16
41
1
10
18.2602563778699
20
1.19966353460464
30
-1E-16
41
1
10
17.9918780316404
20
1.32746607729024
30
-1E-16
41
1
10
17.5872566570957
20
1.49037428158906
30
-1E-16
41
1
10
17.4520990247075
20
1.53995822395888
30
-1E-16
41
1
10
17.1805600881334
20
1.62892405296779
30
0
41
1
10
17.0437223037115
20
1.66849850251177
30
0
41
1
10
16.6360356385562
20
1.76891858073145
30
0
41
1
10
16.3666332620615
20
1.81186281741634
30
0
41
1
10
15.9947975719348
20
1.8378098584302
30
0
41
1
10
15.892437081286
20
1.8414420099254
30
0
41
1
10
15.789864195159
20
1.84152161907764
30
0
0
SPLINE
5
E9
100
AcDbEntity
8
1
62
256
6
ByLayer
370
18
48
1
60
0
100
AcDbSpline
70
4
71
3
72
28
73
24
40
0
40
0
40
0
40
0
40
0.0256831690146272
40
0.0256831690146272
40
0.0952772283707255
40
0.0952772283707255
40
0.164871287726824
40
0.164871287726824
40
0.30405940643902
40
0.30405940643902
40
0.443247525151217
40
0.443247525151217
40
0.512841584507316
40
0.512841584507316
40
0.582435643863416
40
0.582435643863416
40
0.721623762575612
40
0.721623762575612
40
0.791217821931709
40
0.791217821931709
40
0.860811881287806
40
0.860811881287806
40
1
40
1
40
1
40
1
41
1
10
8.93576167119076
20
-1.34602509952475
30
1E-16
41
1
10
8.88601590980971
20
-1.36774675428768
30
1E-16
41
1
10
8.83625377980647
20
-1.38884844665782
30
1E-16
41
1
10
8.65149576314633
20
-1.46472687601462
30
1E-16
41
1
10
8.5162966940573
20
-1.51549265809436
30
1E-16
41
1
10
8.24510876968782
20
-1.60721136433998
30
0
41
1
10
8.10844607759523
20
-1.64817934349733
30
0
41
1
10
7.6994997809314
20
-1.75298202085952
30
0
41
1
10
7.42963095070201
20
-1.79907411924495
30
0
41
1
10
6.89073819054676
20
-1.84306978789189
30
0
41
1
10
6.62083104451975
20
-1.84073949591883
30
0
41
1
10
6.21121753651286
20
-1.79983478842325
30
0
41
1
10
6.07479739664302
20
-1.77990002678627
30
0
41
1
10
5.8037573369765
20
-1.72852629489571
30
0
41
1
10
5.66865573663864
20
-1.69709285732637
30
0
41
1
10
5.26376076209115
20
-1.5864137233668
30
0
41
1
10
4.99475549153138
20
-1.49045062461005
30
1E-16
41
1
10
4.5871566121418
20
-1.31722477530829
30
1E-16
41
1
10
4.45003876228535
20
-1.25443232445832
30
1E-16
41
1
10
4.17728467951611
20
-1.1212955270322
30
1E-16
41
1
10
4.04139847999843
20
-1.05099934964912
30
1E-16
41
1
10
3.63485443209908
20
-0.829403205844926
30
1E-16
41
1
10
3.3643264055012
20
-0.668582476931505
30
0
41
1
10
3.08984492795364
20
-0.501228166133899
30
0
0
SPLINE
5
EA
100
AcDbEntity
8
1
62
256
6
ByLayer
370
18
48
1
60
0
100
AcDbSpline
70
4
71
3
72
18
73
14
40
0
40
0
40
0
40
0
40
0.293815143168135
40
0.293815143168135
40
0.440722714752203
40
0.440722714752203
40
0.58763028633627
40
0.58763028633627
40
0.734537857920338
40
0.734537857920338
40
0.881445429504406
40
0.881445429504406
40
1
40
1
40
1
40
1
41
1
10
3.65650402349692
20
-1.07315194936632
30
1E-16
41
1
10
3.92199594768505
20
-1.21305407033654
30
1E-16
41
1
10
4.1859086619564
20
-1.33582334090897
30
1E-16
41
1
10
4.58263194614543
20
-1.49249078985721
30
1E-16
41
1
10
4.71495068715177
20
-1.54018327911186
30
1E-16
41
1
10
4.97992004067112
20
-1.62613266844789
30
0
41
1
10
5.11263668445108
20
-1.66429928307585
30
0
41
1
10
5.38000715764508
20
-1.72967727687876
30
0
41
1
10
5.51345431993434
20
-1.75663889446849
30
0
41
1
10
5.77873387147582
20
-1.79897224873753
30
0
41
1
10
5.91080618035187
20
-1.81436739940543
30
0
41
1
10
6.14944633054884
20
-1.83161979461397
30
0
41
1
10
6.2560202426713
20
-1.83553657686858
30
0
41
1
10
6.36265409144235
20
-1.83564716852905
30
0
0
SPLINE
5
EB
100
AcDbEntity
8
1
62
256
6
ByLayer
370
18
48
1
60
0
100
AcDbSpline
70
4
71
3
72
44
73
40
40
0
40
0
40
0
40
0
40
0.0239815706936475
40
0.0239815706936475
40
0.104995760516388
40
0.104995760516388
40
0.145502855427758
40
0.145502855427758
40
0.186009950339128
40
0.186009950339128
40
0.267024140161869
40
0.267024140161869
40
0.307531235073239
40
0.307531235073239
40
0.348038329984611
40
0.348038329984611
40
0.510066709630096
40
0.510066709630096
40
0.550573804541468
40
0.550573804541468
40
0.591080899452841
40
0.591080899452841
40
0.672095089275587
40
0.672095089275587
40
0.712602184186961
40
0.712602184186961
40
0.753109279098335
40
0.753109279098335
40
0.793616374009709
40
0.793616374009709
40
0.834123468921083
40
0.834123468921083
40
0.874630563832458
40
0.874630563832458
40
0.915137658743832
40
0.915137658743832
40
0.996151848566579
40
0.996151848566579
40
1
40
1
40
1
40
1
41
1
10
14.555388093144
20
1.76788854092746
30
0
41
1
10
14.6339473252361
20
1.78201001462378
30
0
41
1
10
14.7123277145245
20
1.79408901676086
30
0
41
1
10
15.055144463301
20
1.83802367877772
30
0
41
1
10
15.3177498472941
20
1.84881699244073
30
0
41
1
10
15.7146204303542
20
1.82971028835991
30
0
41
1
10
15.8472352801972
20
1.81747505863339
30
0
41
1
10
16.113739090979
20
1.78099387471988
30
0
41
1
10
16.2474435725905
20
1.75680718893193
30
0
41
1
10
16.6456275795885
20
1.66834698637047
30
0
41
1
10
16.9084237590869
20
1.58736446795157
30
0
41
1
10
17.3043157298052
20
1.43759066328738
30
-1E-16
41
1
10
17.4363871773018
20
1.38280831883264
30
-1E-16
41
1
10
17.7015006777019
20
1.26406149032175
30
-1E-16
41
1
10
17.8352127882548
20
1.20001186460155
30
-1E-16
41
1
10
18.5021288675651
20
0.86239421444219
30
-1E-16
41
1
10
19.0227609023789
20
0.538519527468651
30
0
41
1
10
19.6892179029161
20
0.113146639822304
30
0
41
1
10
19.8229838987287
20
0.0268097620775904
30
0
41
1
10
20.0881190785966
20
-0.144227568399259
30
0
41
1
10
20.2202921745268
20
-0.228893820605464
30
0
41
1
10
20.6161437874212
20
-0.479634708739042
30
0
41
1
10
20.8787142377639
20
-0.643090047803469
30
0
41
1
10
21.2765507945336
20
-0.873598954164237
30
1E-16
41
1
10
21.4099296862129
20
-0.948685641349954
30
1E-16
41
1
10
21.6764144995271
20
-1.09228363195143
30
1E-16
41
1
10
21.8091500662114
20
-1.1599667837317
30
1E-16
41
1
10
22.0737125584323
20
-1.28733395792045
30
1E-16
41
1
10
22.2053869104322
20
-1.34717184395598
30
1E-16
41
1
10
22.4685473190088
20
-1.45797559823089
30
1E-16
41
1
10
22.6004350803422
20
-1.50855978031021
30
1E-16
41
1
10
22.8647707807773
20
-1.60023357101969
30
0
41
1
10
22.9970773715033
20
-1.64141629447459
30
0
41
1
10
23.262966263144
20
-1.71335325105036
30
0
41
1
10
23.3970322399732
20
-1.74383571484717
30
0
41
1
10
23.7954524749729
20
-1.81767767842516
30
0
41
1
10
24.0576232317122
20
-1.84400345548485
30
0
41
1
10
24.3338655534618
20
-1.84679621595498
30
0
41
1
10
24.3463940080003
20
-1.8468702356048
30
0
41
1
10
24.3589246772037
20
-1.84689158791795
30
0
0
SPLINE
5
EC
100
AcDbEntity
8
1
62
256
6
ByLayer
370
18
48
1
60
0
100
AcDbSpline
70
4
71
3
72
16
73
12
40
0
40
0
40
0
40
0
40
0.287831259716348
40
0.287831259716348
40
0.508102151342297
40
0.508102151342297
40
0.694017839224458
40
0.694017839224458
40
0.880831170133082
40
0.880831170133082
40
1
40
1
40
1
40
1
41
1
10
29.3366519516403
20
-1.74185977822117
30
0
41
1
10
29.3367683680839
20
-1.74204792160563
30
0
41
1
10
29.336822379085
20
-1.74243492941886
30
0
41
1
10
29.3367665652788
20
-1.74351015375422
30
0
41
1
10
29.3366905903163
20
-1.74412016792715
30
0
41
1
10
29.3364422178404
20
-1.74548091618413
30
0
41
1
10
29.3362832239928
20
-1.74621140464592
30
0
41
1
10
29.3358885991848
20
-1.74779426668189
30
0
41
1
10
29.335646822752
20
-1.7486695438601
30
0
41
1
10
29.335215349919
20
-1.75010585806427
30
0
41
1
10
29.3350358218349
20
-1.75067542945902
30
0
41
1
10
29.3348523577488
20
-1.7512332864313
30
0
0
SPLINE
5
ED
100
AcDbEntity
8
1
62
256
6
ByLayer
370
18
48
1
60
0
100
AcDbSpline
70
4
71
3
72
8
73
4
40
0
40
0
40
0
40
0
40
1
40
1
40
1
40
1
41
1
10
11.4999999999988
20
1.83073764588499
30
0
41
1
10
11.4999999999988
20
1.80286406322639
30
0
41
1
10
11.5
20
1.77454688853487
30
0
41
1
10
11.5
20
1.74579237666589
30
0
0
SPLINE
5
EE
100
AcDbEntity
8
1
62
256
6
ByLayer
370
18
48
1
60
0
100
AcDbSpline
70
4
71
3
72
8
73
4
40
0
40
0
40
0
40
0
40
1
40
1
40
1
40
1
41
1
10
29.9973072639367
20
0.131333135531094
30
0
41
1
10
29.9871862625606
20
0.0971072359474192
30
0
41
1
10
29.977002483677
20
0.0629016236501059
30
0
41
1
10
29.9667562222539
20
0.0287162033168045
30
0
0
SPLINE
5
EF
100
AcDbEntity
8
1
62
256
6
ByLayer
370
18
48
1
60
0
100
AcDbSpline
70
4
71
3
72
10
73
6
40
0
40
0
40
0
40
0
40
0.317636274853749
40
0.317636274853749
40
1
40
1
40
1
40
1
41
1
10
29.5933479639509
20
-0.254409620540713
30
0
41
1
10
29.6007709798305
20
-0.262534284555329
30
0
41
1
10
29.6100468551633
20
-0.271722240674308
30
0
41
1
10
29.6419881029899
20
-0.302242126897738
30
0
41
1
10
29.6671569489349
20
-0.324862643048903
30
0
41
1
10
29.6935747581635
20
-0.348668123007712
30
0
0
SPLINE
5
F0
100
AcDbEntity
8
1
62
256
6
ByLayer
370
18
48
1
60
0
100
AcDbSpline
70
4
71
3
72
16
73
12
40
0
40
0
40
0
40
0
40
0.248601677971612
40
0.248601677971612
40
0.497203355943223
40
0.497203355943223
40
0.745805033914835
40
0.745805033914835
40
0.994406711886446
40
0.994406711886446
40
1
40
1
40
1
40
1
41
1
10
29.3632139647173
20
1.75026196477367
30
0
41
1
10
29.1775638629096
20
1.75352051375245
30
0
41
1
10
28.9926363109994
20
1.74530049882017
30
0
41
1
10
28.6227062892923
20
1.70780233287016
30
0
41
1
10
28.4376903615526
20
1.67844802957524
30
0
41
1
10
28.0654987971295
20
1.59851819701876
30
0
41
1
10
27.8776468869433
20
1.54738911346106
30
0
41
1
10
27.5057987814636
20
1.42764920782258
30
-1E-16
41
1
10
27.3208911264663
20
1.35864439204522
30
-1E-16
41
1
10
27.1317946227832
20
1.27983654884002
30
-1E-16
41
1
10
27.1276336790612
20
1.27809833538774
30
-1E-16
41
1
10
27.1234726502635
20
1.27635600680253
30
-1E-16
0
SPLINE
5
F1
100
AcDbEntity
8
1
62
256
6
ByLayer
370
18
48
1
60
0
100
AcDbSpline
70
4
71
3
72
22
73
18
40
0
40
0
40
0
40
0
40
0.0094713852437685
40
0.0094713852437685
40
0.133287462088299
40
0.133287462088299
40
0.257103538932829
40
0.257103538932829
40
0.504735692621886
40
0.504735692621886
40
0.628551769466415
40
0.628551769466415
40
0.752367846310943
40
0.752367846310943
40
0.876183923155472
40
0.876183923155472
40
1
40
1
40
1
40
1
41
1
10
16.02139338045
20
-0.145207725627813
30
0
41
1
10
16.0070697019133
20
-0.136489301593343
30
0
41
1
10
15.9927476842333
20
-0.12776704360067
30
0
41
1
10
15.7912311248623
20
-0.0049873521639938
30
0
41
1
10
15.6041442516962
20
0.109749710702772
30
0
41
1
10
15.229840372834
20
0.336786484232334
30
0
41
1
10
15.0425896049441
20
0.449027047938756
30
0
41
1
10
14.4819997700947
20
0.773402170998907
30
0
41
1
10
14.1131302134177
20
0.973525788655479
30
-1E-16
41
1
10
13.5548902162259
20
1.23118237923461
30
-1E-16
41
1
10
13.3676022629867
20
1.31059296475865
30
-1E-16
41
1
10
12.9933148391163
20
1.45146561455823
30
0
41
1
10
12.8062285062881
20
1.51298543162929
30
0
41
1
10
12.4319717251329
20
1.61534098733767
30
0
41
1
10
12.2451370139264
20
1.65659248072316
30
0
41
1
10
11.8727405276393
20
1.71746557013185
30
0
41
1
10
11.6867903366201
20
1.73725615803443
30
0
41
1
10
11.5000000000071
20
1.7457923765902
30
0
0
SPLINE
5
F2
100
AcDbEntity
8
1
62
256
6
ByLayer
370
18
48
1
60
0
100
AcDbSpline
70
4
71
3
72
24
73
20
40
0
40
0
40
0
40
0
40
0.0541204735869771
40
0.0541204735869771
40
0.138815971187355
40
0.138815971187355
40
0.308206966388113
40
0.308206966388113
40
0.477597961588872
40
0.477597961588872
40
0.646988956789631
40
0.646988956789631
40
0.816379951990389
40
0.816379951990389
40
0.901075449590766
40
0.901075449590766
40
0.985770947191144
40
0.985770947191144
40
1
40
1
40
1
40
1
41
1
10
6.96169077119367
20
0.157215601832917
30
0
41
1
10
7.04735340054447
20
0.105236757305391
30
0
41
1
10
7.1332035531496
20
0.052912046364213
30
0
41
1
10
7.3541491950142
20
-0.0817763210883129
30
0
41
1
10
7.48969889355769
20
-0.164366721505786
30
0
41
1
10
7.89322593118504
20
-0.407379265597115
30
0
41
1
10
8.15962076307468
20
-0.564983993263837
30
0
41
1
10
8.69392662246696
20
-0.861864577591945
30
1E-16
41
1
10
8.96156339937076
20
-1.00150202114639
30
1E-16
41
1
10
9.50291793298061
20
-1.25341008165458
30
1E-16
41
1
10
9.77000635076948
20
-1.36254150947659
30
1E-16
41
1
10
10.3040804171176
20
-1.54334014796765
30
0
41
1
10
10.5704618813428
20
-1.61430119947039
30
0
41
1
10
10.974018411803
20
-1.68919537507287
30
0
41
1
10
11.1096380120753
20
-1.7087625454549
30
0
41
1
10
11.3788676361826
20
-1.73583379294482
30
0
41
1
10
11.5128567734746
20
-1.74367304373612
30
0
41
1
10
11.6690547522036
20
-1.74636265309485
30
0
41
1
10
11.6915106469715
20
-1.74658173583433
30
0
41
1
10
11.7139573207339
20
-1.74663450522155
30
0
0
SPLINE
5
F3
100
AcDbEntity
8
1
62
256
6
ByLayer
370
18
48
1
60
0
100
AcDbSpline
70
4
71
3
72
8
73
4
40
0
40
0
40
0
40
0
40
1
40
1
40
1
40
1
41
1
10
20.3574639596488
20
1.73841003307226
30
0
41
1
10
20.4769311533197
20
1.74766742072492
30
0
41
1
10
20.5963532847377
20
1.75237207857785
30
0
41
1
10
20.7159840456387
20
1.75250407449931
30
0
0
SPLINE
5
F4
100
AcDbEntity
8
1
62
256
6
ByLayer
370
18
48
1
60
0
100
AcDbSpline
70
4
71
3
72
22
73
18
40
0
40
0
40
0
40
0
40
0.0064131356681953
40
0.0064131356681953
40
0.0967392142438144
40
0.0967392142438144
40
0.277391371395053
40
0.277391371395053
40
0.458043528546292
40
0.458043528546292
40
0.63869568569753
40
0.63869568569753
40
0.819347842848768
40
0.819347842848768
40
0.909673921424384
40
0.909673921424384
40
1
40
1
40
1
40
1
41
1
10
24.8862108849929
20
0.205039911418055
30
0
41
1
10
24.8957607991953
20
0.199225332459605
30
0
41
1
10
24.9053139374835
20
0.193404846510134
30
0
41
1
10
25.0494693279591
20
0.105519492088206
30
0
41
1
10
25.1847660357332
20
0.0222896109579267
30
0
41
1
10
25.5871616013916
20
-0.224717041766496
30
0
41
1
10
25.8532339099989
20
-0.38685950858968
30
0
41
1
10
26.3861562485253
20
-0.697806783860045
30
0
41
1
10
26.6532014439834
20
-0.846386297728998
30
1E-16
41
1
10
27.1935473126586
20
-1.12125335733694
30
1E-16
41
1
10
27.4607947853694
20
-1.24370030402878
30
1E-16
41
1
10
27.9937555230901
20
-1.4534950786707
30
1E-16
41
1
10
28.2596793774793
20
-1.54078216865884
30
0
41
1
10
28.6623019379288
20
-1.64078741081454
30
0
41
1
10
28.7975051492499
20
-1.66901396706928
30
0
41
1
10
29.0673494525528
20
-1.71398335510787
30
0
41
1
10
29.2019168978234
20
-1.73057492158219
30
0
41
1
10
29.3366519516404
20
-1.74185977822117
30
0
0
SPLINE
5
F5
100
AcDbEntity
8
1
62
256
6
ByLayer
370
18
48
1
60
0
100
AcDbSpline
70
4
71
3
72
8
73
4
40
0
40
0
40
0
40
0
40
1
40
1
40
1
40
1
41
1
10
29.2075147239985
20
1.82256599629042
30
0
41
1
10
29.2488398007729
20
1.80022844168232
30
0
41
1
10
29.2903217048387
20
1.77700049011739
30
0
41
1
10
29.3320008832077
20
1.75291367285774
30
0
0
SPLINE
5
F6
100
AcDbEntity
8
1
62
256
6
ByLayer
370
18
48
1
60
0
100
AcDbSpline
70
4
71
3
72
8
73
4
40
0
40
0
40
0
40
0
40
1
40
1
40
1
40
1
41
1
10
29.3320008832117
20
-1.75291367286164
30
0
41
1
10
29.3329286276714
20
-1.75237751998767
30
0
41
1
10
29.3338802447789
20
-1.75181741706598
30
0
41
1
10
29.3348523577475
20
-1.75123328643088
30
0
0
SPLINE
5
F7
100
AcDbEntity
8
1
62
256
6
ByLayer
370
18
48
1
60
0
100
AcDbSpline
70
4
71
3
72
18
73
14
40
0
40
0
40
0
40
0
40
0.25
40
0.25
40
0.375
40
0.375
40
0.5
40
0.5
40
0.625
40
0.625
40
0.75
40
0.75
40
1
40
1
40
1
40
1
41
1
10
29.9667562222539
20
0.0287162033168045
30
0
41
1
10
29.9511100485726
20
-0.0234853755632685
30
0
41
1
10
29.9319876724986
20
-0.0743921144511432
30
0
41
1
10
29.8985156955378
20
-0.146830413145665
30
0
41
1
10
29.8868488671912
20
-0.169681332850246
30
0
41
1
10
29.8625559830443
20
-0.212694797367448
30
0
41
1
10
29.8497630797903
20
-0.233093407605139
30
0
41
1
10
29.8239523189541
20
-0.269622565188484
30
0
41
1
10
29.8111002404865
20
-0.285581474574627
30
0
41
1
10
29.7854748871088
20
-0.312816950184697
30
0
41
1
10
29.7726182907173
20
-0.324086626763233
30
0
41
1
10
29.7360235984199
20
-0.348894455995179
30
0
41
1
10
29.7133670045337
20
-0.354039526386856
30
0
41
1
10
29.6935747581634
20
-0.348668123007741
30
0
0
SPLINE
5
F8
100
AcDbEntity
8
1
62
256
6
ByLayer
370
18
48
1
60
0
100
AcDbSpline
70
4
71
3
72
8
73
4
40
0
40
0
40
0
40
0
40
1
40
1
40
1
40
1
41
1
10
29.6026208078149
20
-0.240181759329971
30
0
41
1
10
29.5073217832672
20
-0.084551286383487
30
0
41
1
10
29.3940605908815
20
0.0874736333858834
30
0
41
1
10
29.2608114732137
20
0.27774195122899
30
0
0
SPLINE
5
F9
100
AcDbEntity
8
1
62
256
6
ByLayer
370
18
48
1
60
0
100
AcDbSpline
70
4
71
3
72
36
73
32
40
0
40
0
40
0
40
0
40
0.0207475295142743
40
0.0207475295142743
40
0.0819508089196332
40
0.0819508089196332
40
0.143154088324992
40
0.143154088324992
40
0.265560647135708
40
0.265560647135708
40
0.296162286838387
40
0.296162286838387
40
0.326763926541067
40
0.326763926541067
40
0.387967205946424
40
0.387967205946424
40
0.449170485351781
40
0.449170485351781
40
0.510373764757138
40
0.510373764757138
40
0.632780323567851
40
0.632780323567851
40
0.66338196327053
40
0.66338196327053
40
0.693983602973209
40
0.693983602973209
40
0.755186882378568
40
0.755186882378568
40
0.877593441189284
40
0.877593441189284
40
1
40
1
40
1
40
1
41
1
10
20.1736122195284
20
1.84260347770598
30
0
41
1
10
20.2358806338702
20
1.84434956357569
30
0
41
1
10
20.2981794940486
20
1.84479227596043
30
0
41
1
10
20.5445246260901
20
1.84137262947763
30
0
41
1
10
20.7291090368559
20
1.82741237561982
30
0
41
1
10
21.1015265250585
20
1.77619722472082
30
0
41
1
10
21.2860832752206
20
1.73939597319918
30
0
41
1
10
21.8379564338234
20
1.59811279517862
30
0
41
1
10
22.203392165609
20
1.46277510317233
30
-1E-16
41
1
10
22.6668930722507
20
1.24968716957014
30
-1E-16
41
1
10
22.7601497263002
20
1.20476431107463
30
-1E-16
41
1
10
22.9455794336205
20
1.11180487215083
30
-1E-16
41
1
10
23.0379544642954
20
1.06368576067717
30
-1E-16
41
1
10
23.3144400202728
20
0.914974174157777
30
-1E-16
41
1
10
23.4979011220107
20
0.810017575670713
30
0
41
1
10
23.8649915183624
20
0.591222753696798
30
0
41
1
10
24.0486031166526
20
0.477355281881017
30
0
41
1
10
24.418045854083
20
0.24364909362248
30
0
41
1
10
24.6047326761468
20
0.12328889782512
30
0
41
1
10
25.1591129075814
20
-0.233994046472986
30
0
41
1
10
25.524198718144
20
-0.469446586553744
30
0
41
1
10
25.984813005498
20
-0.74512006482604
30
0
41
1
10
26.0771526761219
20
-0.799315632586797
30
0
41
1
10
26.262519225672
20
-0.905433872941558
30
1E-16
41
1
10
26.355756963971
20
-0.957466575699129
30
1E-16
41
1
10
26.6338113818797
20
-1.10792683029854
30
1E-16
41
1
10
26.8177725832968
20
-1.2011981802315
30
1E-16
41
1
10
27.368562692886
20
-1.45671088026094
30
1E-16
41
1
10
27.7342666527406
20
-1.59475608909435
30
0
41
1
10
28.4785686954155
20
-1.78907765593073
30
0
41
1
10
28.8452052221081
20
-1.84208046298858
30
0
41
1
10
29.2143258716472
20
-1.84916363910503
30
0
0
SPLINE
5
FA
100
AcDbEntity
8
1
62
256
6
ByLayer
370
18
48
1
60
0
100
AcDbSpline
70
4
71
3
72
14
73
10
40
0
40
0
40
0
40
0
40
0.25
40
0.25
40
0.5
40
0.5
40
0.75
40
0.75
40
1
40
1
40
1
40
1
41
1
10
29.1333262173199
20
-0.17568148168715
30
0
41
1
10
29.1441073464727
20
-0.372845248261029
30
0
41
1
10
29.1666926030717
20
-0.560668130046054
30
0
41
1
10
29.2141399289405
20
-0.917961583229726
30
1E-16
41
1
10
29.2377189356188
20
-1.0785407686908
30
1E-16
41
1
10
29.275677469179
20
-1.36269356788242
30
1E-16
41
1
10
29.2890202970022
20
-1.47868859946232
30
0
41
1
10
29.3115851071645
20
-1.65763379673481
30
0
41
1
10
29.3203452218344
20
-1.71550608418568
30
0
41
1
10
29.3366519516403
20
-1.74185977822117
30
0
0
SPLINE
5
FB
100
AcDbEntity
8
1
62
256
6
ByLayer
370
18
48
1
60
0
100
AcDbSpline
70
4
71
3
72
26
73
22
40
0
40
0
40
0
40
0
40
0.130115516509137
40
0.130115516509137
40
0.195173274763706
40
0.195173274763706
40
0.260231033018274
40
0.260231033018274
40
0.390346549527414
40
0.390346549527414
40
0.455404307781982
40
0.455404307781982
40
0.520462066036551
40
0.520462066036551
40
0.65057758254569
40
0.65057758254569
40
0.78069309905483
40
0.78069309905483
40
0.910808615563969
40
0.910808615563969
40
1
40
1
40
1
40
1
41
1
10
4.66013788871331
20
1.21464142124603
30
-1E-16
41
1
10
4.94803767469423
20
1.07690583259486
30
-1E-16
41
1
10
5.23227925586085
20
0.922050103724871
30
-1E-16
41
1
10
5.65923082511128
20
0.672617693839669
30
0
41
1
10
5.80163800408644
20
0.586604168711801
30
0
41
1
10
6.08772987998549
20
0.410422167466152
30
0
41
1
10
6.23189976550944
20
0.319735710056335
30
0
41
1
10
6.66114847367092
20
0.0465797469318545
30
0
41
1
10
6.94421314072261
20
-0.136921225800933
30
0
41
1
10
7.36975454580104
20
-0.405507055225854
30
0
41
1
10
7.51165064625138
20
-0.49409307918711
30
0
41
1
10
7.79662537641062
20
-0.667667318687762
30
0
41
1
10
7.94020780157956
20
-0.752978104505985
30
0
41
1
10
8.37066533940774
20
-0.998793579973096
30
1E-16
41
1
10
8.65400587550124
20
-1.1482394606445
30
1E-16
41
1
10
9.22088866272537
20
-1.40975170604483
30
1E-16
41
1
10
9.50466307700285
20
-1.52161495275186
30
1E-16
41
1
10
10.0792969286281
20
-1.69969199854816
30
0
41
1
10
10.3634190542548
20
-1.76318447601415
30
0
41
1
10
10.8411821228248
20
-1.82560187751363
30
0
41
1
10
11.0352742034507
20
-1.83855013194127
30
0
41
1
10
11.2304757152255
20
-1.83868376898539
30
0
0
SPLINE
5
FC
100
AcDbEntity
8
1
62
256
6
ByLayer
370
18
48
1
60
0
100
AcDbSpline
70
4
71
3
72
16
73
12
40
0
40
0
40
0
40
0
40
0.499999999999994
40
0.499999999999994
40
0.624999999999996
40
0.624999999999996
40
0.749999999999997
40
0.749999999999997
40
0.874999999999999
40
0.874999999999999
40
1
40
1
40
1
40
1
41
1
10
29.3714428396337
20
1.74466644368857
30
0
41
1
10
29.4418979589377
20
1.54568227265963
30
0
41
1
10
29.5129162142327
20
1.34317513057886
30
0
41
1
10
29.6064141532296
20
1.09245336232056
30
0
41
1
10
29.6251531732474
20
1.04220950454663
30
0
41
1
10
29.66400276903
20
0.942947776654137
30
0
41
1
10
29.6840681288547
20
0.89440236514659
30
0
41
1
10
29.7259989104427
20
0.799762896761621
30
0
41
1
10
29.7478489191591
20
0.753639127389903
30
0
41
1
10
29.7936653220482
20
0.663859471640194
30
0
41
1
10
29.8177606461279
20
0.620053064404601
30
0
41
1
10
29.8424119568398
20
0.578638944305141
30
0
0
SPLINE
5
FD
100
AcDbEntity
8
1
62
256
6
ByLayer
370
18
48
1
60
0
100
AcDbSpline
70
4
71
3
72
22
73
18
40
0
40
0
40
0
40
0
40
0.188464341634359
40
0.188464341634359
40
0.282696512451539
40
0.282696512451539
40
0.376928683268718
40
0.376928683268718
40
0.565393024903084
40
0.565393024903084
40
0.659625195720267
40
0.659625195720267
40
0.75385736653745
40
0.75385736653745
40
0.942321708171808
40
0.942321708171808
40
1
40
1
40
1
40
1
41
1
10
29.0805148622086
20
0.121839780825383
30
0
41
1
10
28.8110465599042
20
0.296066370730131
30
0
41
1
10
28.5426354928247
20
0.467330023840873
30
0
41
1
10
28.1372814984692
20
0.713149816279838
30
0
41
1
10
28.0017987348636
20
0.79337776602955
30
0
41
1
10
27.7292136216118
20
0.949009296077264
30
-1E-16
41
1
10
27.5933591711685
20
1.02342025430605
30
-1E-16
41
1
10
27.1876268516087
20
1.2342899974426
30
-1E-16
41
1
10
26.919266031422
20
1.35938975670533
30
-1E-16
41
1
10
26.5150924834973
20
1.51848692193838
30
-1E-16
41
1
10
26.3799552147783
20
1.56663096312784
30
0
41
1
10
26.1083303280169
20
1.65254181908506
30
0
41
1
10
25.9713717302711
20
1.69031726490198
30
0
41
1
10
25.5645136118588
20
1.78553086526472
30
0
41
1
10
25.2957694343359
20
1.82500339238123
30
0
41
1
10
24.9439832446614
20
1.84476035325972
30
0
41
1
10
24.861521492401
20
1.84711270916125
30
0
41
1
10
24.7789530217402
20
1.84715454947656
30
0
0
SPLINE
5
FE
100
AcDbEntity
8
1
62
256
6
ByLayer
370
18
48
1
60
0
100
AcDbSpline
70
4
71
3
72
46
73
42
40
0
40
0
40
0
40
0
40
0.0175016739729116
40
0.0175016739729116
40
0.0540407738649713
40
0.0540407738649713
40
0.0905798737570309
40
0.0905798737570309
40
0.16365807354115
40
0.16365807354115
40
0.23673627332527
40
0.23673627332527
40
0.309814473109389
40
0.309814473109389
40
0.382892672893508
40
0.382892672893508
40
0.419431772785569
40
0.419431772785569
40
0.455970872677629
40
0.455970872677629
40
0.529049072461751
40
0.529049072461751
40
0.565588172353813
40
0.565588172353813
40
0.602127272245874
40
0.602127272245874
40
0.675205472029999
40
0.675205472029999
40
0.711744571922062
40
0.711744571922062
40
0.748283671814125
40
0.748283671814125
40
0.82136187159825
40
0.82136187159825
40
0.857900971490312
40
0.857900971490312
40
0.894440071382375
40
0.894440071382375
40
0.967518271166498
40
0.967518271166498
40
1
40
1
40
1
40
1
41
1
10
17.9157565047723
20
-1.35479721528631
30
1E-16
41
1
10
17.8512569097643
20
-1.38295009708071
30
1E-16
41
1
10
17.7867329465801
20
-1.41006136150008
30
1E-16
41
1
10
17.5872566570957
20
-1.49037428158906
30
1E-16
41
1
10
17.4520990247075
20
-1.53995822395888
30
1E-16
41
1
10
17.1805600881334
20
-1.62892405296782
30
0
41
1
10
17.0437223037115
20
-1.66849850251177
30
0
41
1
10
16.6360356385562
20
-1.76891858073145
30
0
41
1
10
16.3666332620615
20
-1.81186281741634
30
0
41
1
10
15.8276818732644
20
-1.84947134763797
30
0
41
1
10
15.5582027487065
20
-1.84394443960639
30
0
41
1
10
15.0115049578728
20
-1.78269860673487
30
0
41
1
10
14.741830584083
20
-1.72750226894576
30
0
41
1
10
14.2027203903937
20
-1.57386690298188
30
0
41
1
10
13.9333879470011
20
-1.47541383958321
30
1E-16
41
1
10
13.5257583084368
20
-1.2977704732759
30
1E-16
41
1
10
13.3887613682158
20
-1.23354441880429
30
1E-16
41
1
10
13.1169886835026
20
-1.09848613466792
30
1E-16
41
1
10
12.9817453192217
20
-1.02737329171074
30
1E-16
41
1
10
12.5768769053422
20
-0.804835635557509
30
0
41
1
10
12.308364068043
20
-0.643820970301192
30
0
41
1
10
11.901795621754
20
-0.391749715721346
30
0
41
1
10
11.7653301549115
20
-0.305674530468281
30
0
41
1
10
11.4925404946465
20
-0.131195969906656
30
0
41
1
10
11.3570094892885
20
-0.0437078729422922
30
0
41
1
10
10.9512608363711
20
0.216785328347299
30
0
41
1
10
10.6822295890823
20
0.388397421082232
30
0
41
1
10
10.2772129874526
20
0.636991715748081
30
0
41
1
10
10.1417767959943
20
0.718097851550141
30
0
41
1
10
9.86922134932726
20
0.875524560607658
30
-1E-16
41
1
10
9.73227886525012
20
0.951862912435416
30
-1E-16
41
1
10
9.32504178400779
20
1.16858117912727
30
-1E-16
41
1
10
9.05635830788557
20
1.29845352801297
30
-1E-16
41
1
10
8.65149576314633
20
1.46472687601462
30
-1E-16
41
1
10
8.51629669405733
20
1.51549265809436
30
-1E-16
41
1
10
8.24510876968787
20
1.60721136433998
30
0
41
1
10
8.10844607759526
20
1.64817934349733
30
0
41
1
10
7.69949978093146
20
1.75298202085952
30
0
41
1
10
7.42963095070203
20
1.79907411924495
30
0
41
1
10
7.04042129951614
20
1.83084953007591
30
0
41
1
10
6.92056699873763
20
1.83582080239219
30
0
41
1
10
6.80038389445468
20
1.8359320834235
30
0
0
SPLINE
5
FF
100
AcDbEntity
8
1
62
256
6
ByLayer
370
18
48
1
60
0
100
AcDbSpline
70
4
71
3
72
28
73
24
40
0
40
0
40
0
40
0
40
0.0580003108633487
40
0.0580003108633487
40
0.138893322680095
40
0.138893322680095
40
0.219786334496841
40
0.219786334496841
40
0.300679346313587
40
0.300679346313587
40
0.462465369947082
40
0.462465369947082
40
0.54335838176383
40
0.54335838176383
40
0.624251393580577
40
0.624251393580577
40
0.705144405397325
40
0.705144405397325
40
0.786037417214073
40
0.786037417214073
40
0.947823440847565
40
0.947823440847565
40
1
40
1
40
1
40
1
41
1
10
20.2708470453427
20
-0.259319165349496
30
0
41
1
10
20.1761413476056
20
-0.202120726069523
30
0
41
1
10
20.0813992405386
20
-0.144437874849075
30
0
41
1
10
19.8542475044285
20
-0.0053367392164887
30
0
41
1
10
19.7216033769678
20
0.0761582668999949
30
0
41
1
10
19.4547188895286
20
0.238405084271079
30
0
41
1
10
19.3205767162538
20
0.319502207601261
30
0
41
1
10
19.0548502185571
20
0.477888513567962
30
0
41
1
10
18.9225689975665
20
0.555427559379751
30
0
41
1
10
18.5260294733352
20
0.781456533729681
30
0
41
1
10
18.2628747236606
20
0.923496082884981
30
-1E-16
41
1
10
17.8650820369358
20
1.11771016766943
30
-1E-16
41
1
10
17.7320552236171
20
1.17928422049931
30
-1E-16
41
1
10
17.4644941654776
20
1.29486091330833
30
-1E-16
41
1
10
17.3309078312417
20
1.34851091497765
30
-1E-16
41
1
10
17.0639177379885
20
1.44680351190641
30
0
41
1
10
16.9305578477547
20
1.49129061736065
30
0
41
1
10
16.6634142806635
20
1.57015414494106
30
0
41
1
10
16.529302764385
20
1.60481227391685
30
0
41
1
10
16.1296756619324
20
1.69260551028225
30
0
41
1
10
15.8661801228064
20
1.728331233364
30
0
41
1
10
15.51665958094
20
1.74773272813675
30
0
41
1
10
15.4314294365645
20
1.75002082643667
30
0
41
1
10
15.34608770541
20
1.74993416597385
30
0
0
SPLINE
5
100
100
AcDbEntity
8
1
62
256
6
ByLayer
370
18
48
1
60
0
100
AcDbSpline
70
4
71
3
72
20
73
16
40
0
40
0
40
0
40
0
40
0.039671890612505
40
0.039671890612505
40
0.199726575510421
40
0.199726575510421
40
0.359781260408337
40
0.359781260408337
40
0.519835945306253
40
0.519835945306253
40
0.679890630204169
40
0.679890630204169
40
0.839945315102084
40
0.839945315102084
40
1
40
1
40
1
40
1
41
1
10
3.50234686049282
20
-1.83386184075198
30
0
41
1
10
3.50234698693575
20
-1.83386736695491
30
0
41
1
10
3.50234711010856
20
-1.83348329642806
30
0
41
1
10
3.50234771814209
20
-1.82958803845113
30
0
41
1
10
3.50234816987805
20
-1.81995768671948
30
0
41
1
10
3.50234907343088
20
-1.78814264442573
30
0
41
1
10
3.50234952603108
20
-1.76609056748035
30
0
41
1
10
3.50235050965671
20
-1.70994461255367
30
0
41
1
10
3.50235104075608
20
-1.67583542045455
30
0
41
1
10
3.50235223253179
20
-1.59512185722556
30
0
41
1
10
3.50235287921166
20
-1.54948651741495
30
0
41
1
10
3.50235428287263
20
-1.44808773455921
30
1E-16
41
1
10
3.50235503986721
20
-1.39232321559186
30
1E-16
41
1
10
3.50235664300877
20
-1.27044490006117
30
1E-16
41
1
10
3.50235748947873
20
-1.20426995541504
30
1E-16
41
1
10
3.50235833158732
20
-1.13434195890247
30
1E-16
0
SPLINE
5
101
100
AcDbEntity
8
1
62
256
6
ByLayer
370
18
48
1
60
0
100
AcDbSpline
70
4
71
3
72
38
73
34
40
0
40
0
40
0
40
0
40
0.0746894526143453
40
0.0746894526143453
40
0.187690873481939
40
0.187690873481939
40
0.244191583915736
40
0.244191583915736
40
0.300692294349534
40
0.300692294349534
40
0.357193004783331
40
0.357193004783331
40
0.41369371521713
40
0.41369371521713
40
0.526695136084725
40
0.526695136084725
40
0.583195846518522
40
0.583195846518522
40
0.63969655695232
40
0.63969655695232
40
0.696197267386118
40
0.696197267386118
40
0.752697977819915
40
0.752697977819915
40
0.809198688253713
40
0.809198688253713
40
0.865699398687511
40
0.865699398687511
40
0.922200109121308
40
0.922200109121308
40
0.978700819555106
40
0.978700819555106
40
1
40
1
40
1
40
1
41
1
10
15.0761856344129
20
1.75066412192436
30
0
41
1
10
15.2517953015546
20
1.76170134900155
30
0
41
1
10
15.4264122161133
20
1.76301426642232
30
0
41
1
10
15.8652311868758
20
1.74038734798975
30
0
41
1
10
16.1286070429582
20
1.70559158444087
30
0
41
1
10
16.5280566996274
20
1.61895784673092
30
0
41
1
10
16.6621195723678
20
1.58462544312212
30
0
41
1
10
16.9292084309518
20
1.50635460801794
30
0
41
1
10
17.0625364622972
20
1.46213683166101
30
0
41
1
10
17.3294471778013
20
1.3642477251565
30
-1E-16
41
1
10
17.4629488787043
20
1.3107555634202
30
-1E-16
41
1
10
17.7304974654488
20
1.19537260565932
30
-1E-16
41
1
10
17.8635097151869
20
1.13385849691139
30
-1E-16
41
1
10
18.2612150528049
20
0.939633748404503
30
-1E-16
41
1
10
18.5242748885103
20
0.797428513415042
30
0
41
1
10
18.9206464705643
20
0.570842531674799
30
0
41
1
10
19.0528663326247
20
0.493066499661438
30
0
41
1
10
19.3184662959416
20
0.334140362156575
30
0
41
1
10
19.4525502385653
20
0.252724329973347
30
0
41
1
10
19.7194103882205
20
0.0896752716208766
30
0
41
1
10
19.8520235949982
20
0.0077437543494909
30
0
41
1
10
20.1165524464595
20
-0.155218821578472
30
0
41
1
10
20.2485874012947
20
-0.235947285126969
30
0
41
1
10
20.5126153627991
20
-0.395464307003294
30
0
41
1
10
20.6444232393116
20
-0.47463130195905
30
0
41
1
10
20.9087686315136
20
-0.62972200419506
30
0
41
1
10
21.0415416959024
20
-0.705146118255612
30
0
41
1
10
21.3083747086181
20
-0.851901991869624
30
1E-16
41
1
10
21.4423770274073
20
-0.923808658433586
30
1E-16
41
1
10
21.7082129736152
20
-1.05996882084574
30
1E-16
41
1
10
21.8407043302083
20
-1.12371921081609
30
1E-16
41
1
10
22.0227556968726
20
-1.20644972766757
30
1E-16
41
1
10
22.0725293436386
20
-1.22865748072991
30
1E-16
41
1
10
22.1222692116879
20
-1.25035806141273
30
1E-16
0
SPLINE
5
102
100
AcDbEntity
8
1
62
256
6
ByLayer
370
18
48
1
60
0
100
AcDbSpline
70
4
71
3
72
8
73
4
40
0
40
0
40
0
40
0
40
1
40
1
40
1
40
1
41
1
10
29.2075147240145
20
-1.82256599627954
30
0
41
1
10
29.2101873811008
20
-1.83764012809172
30
0
41
1
10
29.2123409409538
20
-1.84659770511232
30
0
41
1
10
29.2143258716357
20
-1.84916363910509
30
0
0
SPLINE
5
103
100
AcDbEntity
8
1
62
256
6
ByLayer
370
18
48
1
60
0
100
AcDbSpline
70
4
71
3
72
18
73
14
40
0
40
0
40
0
40
0
40
0.28906858748402
40
0.28906858748402
40
0.466099488538597
40
0.466099488538597
40
0.643130389593174
40
0.643130389593174
40
0.820161290647752
40
0.820161290647752
40
0.99719219170233
40
0.99719219170233
40
1
40
1
40
1
40
1
41
1
10
3.60250398149967
20
-1.09464208756879
30
1E-16
41
1
10
3.6024860543111
20
-1.21103999358195
30
1E-16
41
1
10
3.60246699858371
20
-1.31499195203617
30
1E-16
41
1
10
3.60243826239247
20
-1.45804912410253
30
0
41
1
10
3.60242784489009
20
-1.50620122834144
30
0
41
1
10
3.60240816824438
20
-1.58971267557996
30
0
41
1
10
3.60239881803645
20
-1.62539873821496
30
0
41
1
10
3.60238108428686
20
-1.68260215739505
30
0
41
1
10
3.6023727191936
20
-1.70414230339367
30
0
41
1
10
3.60235596018489
20
-1.73341909674832
30
0
41
1
10
3.60234752625666
20
-1.74115570941507
30
0
41
1
10
3.60233830167795
20
-1.74164217418146
30
0
41
1
10
3.60233815753574
20
-1.7416479935105
30
0
41
1
10
3.60233801327047
20
-1.74165203690805
30
0
0
SPLINE
5
104
100
AcDbEntity
8
1
62
256
6
ByLayer
370
18
48
1
60
0
100
AcDbSpline
70
4
71
3
72
14
73
10
40
0
40
0
40
0
40
0
40
0.257111547822832
40
0.257111547822832
40
0.540494889673088
40
0.540494889673088
40
0.826780250870075
40
0.826780250870075
40
1
40
1
40
1
40
1
41
1
10
29.1279495995364
20
-0.161744372852439
30
0
41
1
10
29.128654981358
20
-0.16203603489393
30
0
41
1
10
29.129343669437
20
-0.162714304241803
30
0
41
1
10
29.1306329475137
20
-0.164604978308461
30
0
41
1
10
29.131243339014
20
-0.165898727197089
30
0
41
1
10
29.1322603579245
20
-0.168833102337345
30
0
41
1
10
29.1326803305523
20
-0.170521706320585
30
0
41
1
10
29.1331378569321
20
-0.173392331150581
30
0
41
1
10
29.133263338168
20
-0.174531556633809
30
0
41
1
10
29.1333262173207
20
-0.175681481701616
30
0
0
SPLINE
5
105
100
AcDbEntity
8
1
62
256
6
ByLayer
370
18
48
1
60
0
100
AcDbSpline
70
4
71
3
72
24
73
20
40
0
40
0
40
0
40
0
40
0.149070295950238
40
0.149070295950238
40
0.229735987916751
40
0.229735987916751
40
0.310401679883263
40
0.310401679883263
40
0.391067371849775
40
0.391067371849775
40
0.471733063816287
40
0.471733063816287
40
0.633064447749311
40
0.633064447749311
40
0.713730139715823
40
0.713730139715823
40
0.794395831682336
40
0.794395831682336
40
1
40
1
40
1
40
1
41
1
10
15.7276935679786
20
0.29883184621616
30
0
41
1
10
15.9742468675156
20
0.150577198912998
30
0
41
1
10
16.2208037717831
20
-0.0011525531855625
30
0
41
1
10
16.6042406936861
20
-0.234445735231731
30
0
41
1
10
16.7397297699944
20
-0.316398720327612
30
0
41
1
10
17.0094438759465
20
-0.476887973868429
30
0
41
1
10
17.1440832568187
20
-0.555691056094503
30
0
41
1
10
17.4136190663218
20
-0.709327763383129
30
0
41
1
10
17.5488166559891
20
-0.784277573986572
30
0
41
1
10
17.8187952778224
20
-0.928190488451605
30
1E-16
41
1
10
17.9530362062327
20
-0.996931064706729
30
1E-16
41
1
10
18.3545391697017
20
-1.19226315696991
30
1E-16
41
1
10
18.6205140759607
20
-1.30754489140418
30
1E-16
41
1
10
19.0212815833348
20
-1.45412104161807
30
0
41
1
10
19.1551546355637
20
-1.49841765931612
30
0
41
1
10
19.424213040379
20
-1.57717031321346
30
0
41
1
10
19.5597651633602
20
-1.61181870961076
30
0
41
1
10
20.0370337971908
20
-1.71474841540351
30
0
41
1
10
20.3756647452551
20
-1.75212857944936
30
0
41
1
10
20.7159840457665
20
-1.75250407449948
30
0
0
SPLINE
5
106
100
AcDbEntity
8
SK1
62
256
6
ByLayer
370
18
48
1
60
0
100
AcDbSpline
70
4
71
3
72
12
73
8
40
0
40
0
40
0
40
0
40
0.500000000000002
40
0.500000000000002
40
0.750000000000001
40
0.750000000000001
40
1
40
1
40
1
40
1
41
1
10
-35.75
20
-0.441876784772631
30
0
41
1
10
-35.7259913046562
20
-0.438388996888222
30
0
41
1
10
-35.7033433879313
20
-0.42657745737597
30
0
41
1
10
-35.6754686754417
20
-0.397731540963235
30
0
41
1
10
-35.667025596347
20
-0.385953363502296
30
0
41
1
10
-35.6543350076412
20
-0.358116528281329
30
0
41
1
10
-35.65
20
-0.341563122178485
30
0
41
1
10
-35.65
20
-0.324170220340335
30
0
0
SPLINE
5
107
100
AcDbEntity
8
SK1
62
256
6
ByLayer
370
18
48
1
60
0
100
AcDbSpline
70
4
71
3
72
8
73
4
40
0
40
0
40
0
40
0
40
1
40
1
40
1
40
1
41
1
10
-36.0000000000001
20
1.20498069877951
30
-1E-16
41
1
10
-35.9478735570756
20
1.15593618375698
30
-1E-16
41
1
10
-35.897619057052
20
1.09841427849628
30
-1E-16
41
1
10
-35.8509618943233
20
1.02918267835622
30
-1E-16
0
SPLINE
5
108
100
AcDbEntity
8
SK1
62
256
6
ByLayer
370
18
48
1
60
0
100
AcDbSpline
70
4
71
3
72
8
73
4
40
0
40
0
40
0
40
0
40
1
40
1
40
1
40
1
41
1
10
-35.8509618943233
20
-0.456583136353089
30
0
41
1
10
-35.8173593613093
20
-0.451674713775446
30
0
41
1
10
-35.7837030300216
20
-0.446772886709539
30
0
41
1
10
-35.7499999999999
20
-0.441876784772518
30
0
0
SPLINE
5
109
100
AcDbEntity
8
SK1
62
256
6
ByLayer
370
18
48
1
60
0
100
AcDbSpline
70
4
71
3
72
8
73
4
40
0
40
0
40
0
40
0
40
1
40
1
40
1
40
1
41
1
10
-35.75
20
1.04388902993676
30
-1E-16
41
1
10
-35.7837022233689
20
1.0389930451837
30
-1E-16
41
1
10
-35.8173585182301
20
1.03409122408496
30
-1E-16
41
1
10
-35.8509618943233
20
1.02918267835622
30
-1E-16
0
SPLINE
5
10A
100
AcDbEntity
8
SK1
62
256
6
ByLayer
370
18
48
1
60
0
100
AcDbSpline
70
4
71
3
72
12
73
8
40
0
40
0
40
0
40
0
40
0.250000000000001
40
0.250000000000001
40
0.500000000000002
40
0.500000000000002
40
1
40
1
40
1
40
1
41
1
10
-35.65
20
0.963493485741054
30
-1E-16
41
1
10
-35.65
20
0.979611837859579
30
-1E-16
41
1
10
-35.6543403470552
20
0.993661759968006
30
-1E-16
41
1
10
-35.6670034572333
20
1.01572590449621
30
-1E-16
41
1
10
-35.6754069618006
20
1.02417653972142
30
-1E-16
41
1
10
-35.7033744297257
20
1.04294658574651
30
-1E-16
41
1
10
-35.7260009806425
20
1.04737541217278
30
-1E-16
41
1
10
-35.7500000000001
20
1.04388902993688
30
-1E-16
0
SPLINE
5
10B
100
AcDbEntity
8
SK1
62
256
6
ByLayer
370
18
48
1
60
0
100
AcDbSpline
70
4
71
3
72
10
73
6
40
0
40
0
40
0
40
0
40
0.5
40
0.5
40
1
40
1
40
1
40
1
41
1
10
-35.8509618943233
20
-0.456583136353089
30
0
41
1
10
-35.8741904300927
20
-0.501818217148326
30
0
41
1
10
-35.8986222732874
20
-0.545142646526273
30
0
41
1
10
-35.9485161922248
20
-0.627109017318048
30
0
41
1
10
-35.974056478015
20
-0.665916585805235
30
0
41
1
10
-35.9999999999999
20
-0.702877344898184
30
0
0
SPLINE
5
10C
100
AcDbEntity
8
SK1
62
256
6
ByLayer
370
18
48
1
60
0
100
AcDbSpline
70
4
71
3
72
10
73
6
40
0
40
0
40
0
40
0
40
0.5
40
0.5
40
1
40
1
40
1
40
1
41
1
10
-35.8509618943233
20
0.456583136353089
30
0
41
1
10
-35.8741904300927
20
0.501818217148326
30
0
41
1
10
-35.8986222732874
20
0.545142646526301
30
0
41
1
10
-35.9485161922248
20
0.627109017318048
30
0
41
1
10
-35.974056478015
20
0.665916585805235
30
0
41
1
10
-35.9999999999999
20
0.702877344898184
30
0
0
SPLINE
5
10D
100
AcDbEntity
8
SK1
62
256
6
ByLayer
370
18
48
1
60
0
100
AcDbSpline
70
4
71
3
72
8
73
4
40
0
40
0
40
0
40
0
40
1
40
1
40
1
40
1
41
1
10
-35.8509618943233
20
0.456583136353089
30
0
41
1
10
-35.8173593613093
20
0.451674713775446
30
0
41
1
10
-35.7837030300216
20
0.446772886709539
30
0
41
1
10
-35.7499999999999
20
0.441876784772546
30
0
0
SPLINE
5
10E
100
AcDbEntity
8
SK1
62
256
6
ByLayer
370
18
48
1
60
0
100
AcDbSpline
70
4
71
3
72
12
73
8
40
0
40
0
40
0
40
0
40
0.499999999999998
40
0.499999999999998
40
0.749999999999999
40
0.749999999999999
40
1
40
1
40
1
40
1
41
1
10
-35.75
20
0.441876784772631
30
0
41
1
10
-35.7259913046562
20
0.438388996888222
30
0
41
1
10
-35.7033433879313
20
0.42657745737597
30
0
41
1
10
-35.6754686754417
20
0.397731540963235
30
0
41
1
10
-35.667025596347
20
0.385953363502296
30
0
41
1
10
-35.6543350076412
20
0.358116528281329
30
0
41
1
10
-35.65
20
0.341563122178485
30
0
41
1
10
-35.65
20
0.324170220340335
30
0
0
SPLINE
5
10F
100
AcDbEntity
8
1
62
256
6
ByLayer
370
18
48
1
60
0
100
AcDbSpline
70
4
71
3
72
12
73
8
40
0
40
0
40
0
40
0
40
0.318739263866012
40
0.539756082141227
40
0.646123800390569
40
0.787528247952026
40
1
40
1
40
1
40
1
41
1
10
6.36375709783457
20
1.7442371551393
30
0
41
1
10
6.07031544726215
20
1.7441381576883
30
0
41
1
10
5.57344721392823
20
1.74396369388532
30
0
41
1
10
4.97852542402859
20
1.74260355976551
30
0
41
1
10
4.54718276955936
20
1.7428330950217
30
0
41
1
10
4.12344642176399
20
1.7430002651117
30
0
41
1
10
3.7977872891779
20
1.74225383515537
30
0
41
1
10
3.60226628278178
20
1.74157372619334
30
0
0
SPLINE
5
110
100
AcDbEntity
8
1
62
256
6
ByLayer
370
18
48
1
60
0
100
AcDbSpline
70
4
71
2
72
6
73
3
40
0
40
0
40
0
40
1
40
1
40
1
41
1
10
19.8624218516873
20
0.0014303226199104
30
0
41
1
10
19.862291915158
20
0.0015025071005255
30
0
41
1
10
19.8621619816519
20
0.0015778762515595
30
0
0
SPLINE
5
111
100
AcDbEntity
8
1
62
256
6
ByLayer
370
18
48
1
60
0
100
AcDbSpline
70
4
71
2
72
6
73
3
40
0
40
0
40
0
40
1
40
1
40
1
41
1
10
10.8618155394583
20
0.0015953289548065
30
0
41
1
10
10.8616981429837
20
0.0016668889638538
30
0
41
1
10
10.8615807472561
20
0.0017418629272754
30
0
0
SPLINE
5
112
100
AcDbEntity
8
1
62
256
6
ByLayer
370
18
48
1
60
0
100
AcDbSpline
70
4
71
1
72
4
73
2
40
0
40
0
40
1
40
1
41
1
10
29.3714282044172
20
1.74486080635464
30
0
41
1
10
29.3296754824564
20
1.77304499389174
30
0
0
SPLINE
5
113
100
AcDbEntity
8
1
62
256
6
ByLayer
370
18
48
1
60
0
100
AcDbSpline
70
4
71
1
72
4
73
2
40
0
40
0
40
1
40
1
41
1
10
29.3296754824565
20
-1.77304499389172
30
0
41
1
10
29.3714282044172
20
-1.74486080635464
30
0
0
SPLINE
5
114
100
AcDbEntity
8
1
62
256
6
ByLayer
370
18
48
1
60
0
100
AcDbSpline
70
4
71
2
72
6
73
3
40
0
40
0
40
0
40
1
40
1
40
1
41
1
10
28.962453824819
20
0.521341399097793
30
0
41
1
10
27.8899191763585
20
0.929380953759562
30
-1E-16
41
1
10
26.8383840149298
20
1.38821312678363
30
-1E-16
0
SPLINE
5
115
100
AcDbEntity
8
1
62
256
6
ByLayer
370
18
48
1
60
0
100
AcDbSpline
70
4
71
2
72
6
73
3
40
0
40
0
40
0
40
1
40
1
40
1
41
1
10
26.8383840149301
20
-1.38821312678351
30
1E-16
41
1
10
26.976447130817
20
-1.32796996820875
30
1E-16
41
1
10
27.1148722532541
20
-1.26860241485778
30
1E-16
0
SPLINE
5
116
100
AcDbEntity
8
1
62
256
6
ByLayer
370
18
48
1
60
0
100
AcDbSpline
70
4
71
3
72
22
73
18
40
0
40
0
40
0
40
0
40
4.54800695224E-05
40
0.0001119713011699
40
0.0002295202847952
40
0.0003371020058285
40
0.0009811018068815
40
0.0014940359570147
40
0.0024311897568317
40
0.0041732502233712
40
0.0075027486059966
40
0.0141456842821579
40
0.0282323563730985
40
0.160689272815299
40
0.369569092225148
40
0.649314586441364
40
1
40
1
40
1
40
1
41
1
10
12.372277450018
20
0.0099840709033003
30
0
41
1
10
12.3722814716647
20
0.0099836462918859
30
0
41
1
10
12.3722818584557
20
0.0099858666357022
30
0
41
1
10
12.372213977457
20
0.0100138511387797
30
0
41
1
10
12.3720012817559
20
0.0100919379846403
30
0
41
1
10
12.3711149776192
20
0.0104063934119552
30
0
41
1
10
12.3695323013239
20
0.0109527560139497
30
0
41
1
10
12.3670689251788
20
0.011806131946912
30
0
41
1
10
12.363259537603
20
0.013124910574561
30
0
41
1
10
12.3561227653156
20
0.0155957597701786
30
0
41
1
10
12.3421823356886
20
0.0204212698196784
30
0
41
1
10
12.3135599301839
20
0.0303310692944194
30
0
41
1
10
12.131229294054
20
0.093532112977357
30
0
41
1
10
11.7084598024638
20
0.242487450830879
30
0
41
1
10
10.9735445038613
20
0.513415814343517
30
0
41
1
10
9.98749936203336
20
0.899405028809468
30
-1E-16
41
1
10
9.2538633327261
20
1.20730175662149
30
-1E-16
41
1
10
8.84792545337484
20
1.38425542415911
30
-1E-16
0
SPLINE
5
117
100
AcDbEntity
8
1
62
256
6
ByLayer
370
18
48
1
60
0
100
AcDbSpline
70
4
71
3
72
8
73
4
40
0
40
0
40
0
40
0
40
1
40
1
40
1
40
1
41
1
10
8.84792545337513
20
-1.38425542415899
30
1E-16
41
1
10
8.90666536825296
20
-1.35864992169863
30
1E-16
41
1
10
8.96545046755026
20
-1.33316339012902
30
1E-16
41
1
10
9.02428077895343
20
-1.30779546163077
30
1E-16
0
SPLINE
5
118
100
AcDbEntity
8
1
62
256
6
ByLayer
370
18
48
1
60
0
100
AcDbSpline
70
4
71
3
72
14
73
10
40
0
40
0
40
0
40
0
40
0.20034697414425
40
0.327128014670687
40
0.451725783771788
40
0.630610625711058
40
0.821659485652932
40
0.954999944461195
40
1
40
1
40
1
40
1
41
1
10
20.7006141002793
20
-1.75256096554528
30
0
41
1
10
20.8910880770919
20
-1.75257765465682
30
0
41
1
10
21.2020970774988
20
-1.75264770068517
30
0
41
1
10
21.6315619687657
20
-1.75354252261116
30
0
41
1
10
22.0406368955352
20
-1.75314042531872
30
0
41
1
10
22.5108087636868
20
-1.75469405519161
30
0
41
1
10
22.989292726515
20
-1.75372657458584
30
0
41
1
10
23.3404913773303
20
-1.75459068590652
30
0
41
1
10
23.5100441038599
20
-1.7545050052023
30
0
41
1
10
23.5528266070006
20
-1.75447385161763
30
0
0
SPLINE
5
119
100
AcDbEntity
8
1
62
256
6
ByLayer
370
18
48
1
60
0
100
AcDbSpline
70
4
71
3
72
15
73
11
40
0
40
0
40
0
40
0
40
0.203588617857319
40
0.33164070086291
40
0.435857271939121
40
0.562286776792576
40
0.692399570574391
40
0.834654842172391
40
0.952545419669892
40
1
40
1
40
1
40
1
41
1
10
15.3639119357495
20
1.75000068930822
30
0
41
1
10
15.1719957172951
20
1.74982663049033
30
0
41
1
10
14.859366970946
20
1.74952067561094
30
0
41
1
10
14.4484949121148
20
1.74907955057949
30
0
41
1
10
14.1103513561131
20
1.74867546848557
30
0
41
1
10
13.7702658002624
20
1.74876356474019
30
0
41
1
10
13.3943242249896
20
1.74756797348132
30
0
41
1
10
13.0264283253981
20
1.74826045155754
30
0
41
1
10
12.7364547304031
20
1.7474436713068
30
0
41
1
10
12.5805857087284
20
1.74727448809759
30
0
41
1
10
12.5358508837691
20
1.7472382473276
30
0
0
SPLINE
5
11A
100
AcDbEntity
8
1
62
256
6
ByLayer
370
18
48
1
60
0
100
AcDbSpline
70
4
71
3
72
12
73
8
40
0
40
0
40
0
40
0
40
0.301331605275059
40
0.501874165714389
40
0.652726949581324
40
0.966177335346591
40
1
40
1
40
1
40
1
41
1
10
3.60226628278173
20
-1.74157372619334
30
0
41
1
10
3.79778728917788
20
-1.74225383515537
30
0
41
1
10
4.12344642176396
20
-1.7430002651117
30
0
41
1
10
4.54718276955933
20
-1.7428330950217
30
0
41
1
10
4.97852542402856
20
-1.74260355976551
30
0
41
1
10
5.30192520175785
20
-1.74334292934233
30
0
41
1
10
5.52736270477757
20
-1.74366045096983
30
0
41
1
10
5.54931899865349
20
-1.74368963720542
30
0
0
SPLINE
5
11B
100
AcDbEntity
8
1
62
256
6
ByLayer
370
18
48
1
60
0
100
AcDbSpline
70
4
71
3
72
23
73
19
40
0
40
0
40
0
40
0
40
7.2454975957E-06
40
8.38632097015E-05
40
0.0001543450223314
40
0.0002831916714407
40
0.0004045938544158
40
0.0011312768204667
40
0.0017088343088632
40
0.0027586879532513
40
0.0046935123867799
40
0.0083401589288325
40
0.0154630287190843
40
0.0301308443451487
40
0.162873467078232
40
0.370330403746407
40
0.649355966114515
40
1
40
1
40
1
40
1
41
1
10
21.3291094960553
20
0.0252566595222089
30
0
41
1
10
21.3291104959776
20
0.0252566424712733
30
0
41
1
10
21.3291198580626
20
0.025256743408903
30
0
41
1
10
21.3291189167971
20
0.025263256960443
30
0
41
1
10
21.3290132034945
20
0.0253099848276861
30
0
41
1
10
21.3287553077805
20
0.0254083250146664
30
0
41
1
10
21.3277342041812
20
0.0257777444336398
30
0
41
1
10
21.3259853220229
20
0.0263815220996548
30
0
41
1
10
21.3232371913402
20
0.0273364714670663
30
0
41
1
10
21.3190311571821
20
0.0287965679120532
30
0
41
1
10
21.3112313646993
20
0.0315053695122458
30
0
41
1
10
21.2962677275899
20
0.036702565951515
30
0
41
1
10
21.2663192430161
20
0.0471110997910387
30
0
41
1
10
21.0843572528439
20
0.110453932766006
30
0
41
1
10
20.6670482504659
20
0.25807783035205
30
0
41
1
10
19.9425676552754
20
0.52581251491128
30
0
41
1
10
18.9701670183288
20
0.906828881510592
30
-1E-16
41
1
10
18.2456768121488
20
1.21094097888425
30
-1E-16
41
1
10
17.8443699328194
20
1.38582409365222
30
-1E-16
0
SPLINE
5
11C
100
AcDbEntity
8
1
62
256
6
ByLayer
370
18
48
1
60
0
100
AcDbSpline
70
4
71
3
72
15
73
11
40
0
40
0
40
0
40
0
40
0.209322116092947
40
0.339948515034356
40
0.456673888360747
40
0.597523140585978
40
0.726349928537235
40
0.851529832366301
40
0.954716350100729
40
1
40
1
40
1
40
1
41
1
10
11.6990689087005
20
-1.7466220133436
30
0
41
1
10
11.8983612056262
20
-1.74678789301962
30
0
41
1
10
12.2220226039717
20
-1.74713202372831
30
0
41
1
10
12.6568197693648
20
-1.74721936031926
30
0
41
1
10
13.0264283253981
20
-1.74826045155754
30
0
41
1
10
13.3943242249896
20
-1.74756797348132
30
0
41
1
10
13.7702658002624
20
-1.74876356474019
30
0
41
1
10
14.1103513561131
20
-1.74867546848557
30
0
41
1
10
14.3708955246483
20
-1.74898681918651
30
0
41
1
10
14.5122529923298
20
-1.74914466538684
30
0
41
1
10
14.5553671294879
20
-1.74919194453304
30
0
0
SPLINE
5
11D
100
AcDbEntity
8
1
62
256
6
ByLayer
370
18
48
1
60
0
100
AcDbSpline
70
4
71
3
72
14
73
10
40
0
40
0
40
0
40
0
40
0.20352589884033
40
0.331491229153901
40
0.465986271184169
40
0.658689406281847
40
0.839123196222502
40
0.96479984636983
40
1
40
1
40
1
40
1
41
1
10
24.3618367894348
20
1.75599694324637
30
0
41
1
10
24.1699975240244
20
1.75505207614134
30
0
41
1
10
23.8575416779442
20
1.75396225326648
30
0
41
1
10
23.4183265639236
20
1.75478219651094
30
0
41
1
10
22.9892927265151
20
1.75372657458584
30
0
41
1
10
22.5108087636868
20
1.75469405519161
30
0
41
1
10
22.0406368955352
20
1.75314042531872
30
0
41
1
10
21.7189201690263
20
1.75345665448896
30
0
41
1
10
21.5672823530963
20
1.75331067477225
30
0
41
1
10
21.5341038207917
20
1.7532703080665
30
0
0
SPLINE
5
11E
100
AcDbEntity
8
1
62
256
6
ByLayer
370
18
48
1
60
0
100
AcDbSpline
70
4
71
3
72
8
73
4
40
0
40
0
40
0
40
0
40
1
40
1
40
1
40
1
41
1
10
21.1266260595898
20
1.75272096461148
30
0
41
1
10
20.9846219646298
20
1.75260041777784
30
0
41
1
10
20.842617745073
20
1.75257340774189
30
0
41
1
10
20.7006141002793
20
1.75256096554528
30
0
0
SPLINE
5
11F
100
AcDbEntity
8
1
62
256
6
ByLayer
370
18
48
1
60
0
100
AcDbSpline
70
4
71
2
72
6
73
3
40
0
40
0
40
0
40
1
40
1
40
1
41
1
10
28.6506579044993
20
0.131352888175201
30
0
41
1
10
28.650498408504
20
0.134549482233041
30
0
41
1
10
28.6503389159103
20
0.137749165405324
30
0
0
LINE
5
84
100
AcDbEntity
8
1
62
256
6
ByLayer
370
18
48
1
60
0
100
AcDbLine
10
1.540899
20
1.832633
30
0
11
1.540899
21
0
31
0
39
0
210
0
220
0
230
1
0
LINE
5
85
100
AcDbEntity
8
1
62
256
6
ByLayer
370
18
48
1
60
0
100
AcDbLine
10
1.540899
20
0
30
0
11
1.540899
21
-1.832633
31
0
39
0
210
0
220
0
230
1
0
LINE
5
86
100
AcDbEntity
8
1
62
256
6
ByLayer
370
18
48
1
60
0
100
AcDbLine
10
0
20
3
30
0
11
0
21
0
31
0
39
0
210
0
220
0
230
1
0
LINE
5
87
100
AcDbEntity
8
1
62
256
6
ByLayer
370
18
48
1
60
0
100
AcDbLine
10
0
20
0
30
0
11
0
21
-3
31
0
39
0
210
0
220
0
230
1
0
LINE
5
88
100
AcDbEntity
8
1
62
256
6
ByLayer
370
18
48
1
60
0
100
AcDbLine
10
29.966756
20
0.028716
30
0
11
29.537815
21
0.502192
31
0
39
0
210
0
220
0
230
1
0
LINE
5
89
100
AcDbEntity
8
1
62
256
6
ByLayer
370
18
48
1
60
0
100
AcDbLine
10
0.7702
20
2.416316
30
0
11
0.7702
21
0
31
0
39
0
210
0
220
0
230
1
0
LINE
5
8A
100
AcDbEntity
8
1
62
256
6
ByLayer
370
18
48
1
60
0
100
AcDbLine
10
0.7702
20
0
30
0
11
0.7702
21
-2.416316
31
0
39
0
210
0
220
0
230
1
0
LINE
5
8B
100
AcDbEntity
8
1
62
256
6
ByLayer
370
18
48
1
60
0
100
AcDbLine
10
11.5
20
1.834163
30
0
11
11.5
21
1.830738
31
0
39
0
210
0
220
0
230
1
0
LINE
5
8C
100
AcDbEntity
8
SK1
62
256
6
ByLayer
370
18
48
1
60
0
100
AcDbLine
10
-35.65
20
-0.32417
30
0
11
-35.65
21
0.963493
31
0
39
0
210
0
220
0
230
1
0
LINE
5
8E
100
AcDbEntity
8
SK1
62
256
6
ByLayer
370
18
48
1
60
0
100
AcDbLine
10
-36
20
1.204981
30
0
11
-36
21
2.065
31
0
39
0
210
0
220
0
230
1
0
LINE
5
8F
100
AcDbEntity
8
SK1
62
256
6
ByLayer
370
18
48
1
60
0
100
AcDbLine
10
-35.75
20
0.441877
30
0
11
-35.75
21
1.043889
31
0
39
0
210
0
220
0
230
1
0
LINE
5
90
100
AcDbEntity
8
SK1
62
256
6
ByLayer
370
18
48
1
60
0
100
AcDbLine
10
-36
20
0.702877
30
0
11
-36
21
1.204981
31
0
39
0
210
0
220
0
230
1
0
LINE
5
91
100
AcDbEntity
8
SK1
62
256
6
ByLayer
370
18
48
1
60
0
100
AcDbLine
10
-36
20
-2.065
30
0
11
-36
21
-0.702877
31
0
39
0
210
0
220
0
230
1
0
LINE
5
92
100
AcDbEntity
8
SK1
62
256
6
ByLayer
370
18
48
1
60
0
100
AcDbLine
10
0
20
3
30
0
11
0
21
-3
31
0
39
0
210
0
220
0
230
1
0
LINE
5
93
100
AcDbEntity
8
SK1
62
256
6
ByLayer
370
18
48
1
60
0
100
AcDbLine
10
-35.065
20
-3
30
0
11
-35.065
21
3
31
0
39
0
210
0
220
0
230
1
0
LINE
5
94
100
AcDbEntity
8
SK1
62
256
6
ByLayer
370
18
48
1
60
0
100
AcDbLine
10
-35.850962
20
0.456583
30
0
11
-35.850962
21
1.029183
31
0
39
0
210
0
220
0
230
1
0
LINE
5
95
100
AcDbEntity
8
1
62
256
6
ByLayer
370
18
48
1
60
0
100
AcDbLine
10
1.540899
20
-1.832633
30
0
11
3.502331
21
-1.833858
31
0
39
0
210
0
220
0
230
1
0
LINE
5
96
100
AcDbEntity
8
1
62
256
6
ByLayer
370
18
48
1
60
0
100
AcDbLine
10
6.363571
20
-1.835647
30
0
11
6.793191
21
-1.835915
31
0
39
0
210
0
220
0
230
1
0
LINE
5
97
100
AcDbEntity
8
1
62
256
6
ByLayer
370
18
48
1
60
0
100
AcDbLine
10
11.231297
20
-1.838689
30
0
11
11.699634
21
-1.838982
31
0
39
0
210
0
220
0
230
1
0
LINE
5
98
100
AcDbEntity
8
1
62
256
6
ByLayer
370
18
48
1
60
0
100
AcDbLine
10
15.36366
20
-1.841272
30
0
11
15.783668
21
-1.841534
31
0
39
0
210
0
220
0
230
1
0
LINE
5
99
100
AcDbEntity
8
1
62
256
6
ByLayer
370
18
48
1
60
0
100
AcDbLine
10
20.29527
20
-1.844354
30
0
11
20.699768
21
-1.844607
31
0
39
0
210
0
220
0
230
1
0
LINE
5
9A
100
AcDbEntity
8
1
62
256
6
ByLayer
370
18
48
1
60
0
100
AcDbLine
10
24.36307
20
-1.846896
30
0
11
24.774513
21
-1.847154
31
0
39
0
210
0
220
0
230
1
0
LINE
5
9B
100
AcDbEntity
8
1
62
256
6
ByLayer
370
18
48
1
60
0
100
AcDbLine
10
24.774513
20
1.847154
30
0
11
24.36307
21
1.846896
31
0
39
0
210
0
220
0
230
1
0
LINE
5
9C
100
AcDbEntity
8
1
62
256
6
ByLayer
370
18
48
1
60
0
100
AcDbLine
10
20.699768
20
1.844607
30
0
11
20.29527
21
1.844354
31
0
39
0
210
0
220
0
230
1
0
LINE
5
9D
100
AcDbEntity
8
1
62
256
6
ByLayer
370
18
48
1
60
0
100
AcDbLine
10
15.783668
20
1.841534
30
0
11
15.36366
21
1.841272
31
0
39
0
210
0
220
0
230
1
0
LINE
5
9E
100
AcDbEntity
8
1
62
256
6
ByLayer
370
18
48
1
60
0
100
AcDbLine
10
11.699634
20
1.838982
30
0
11
11.231297
21
1.838689
31
0
39
0
210
0
220
0
230
1
0
LINE
5
9F
100
AcDbEntity
8
1
62
256
6
ByLayer
370
18
48
1
60
0
100
AcDbLine
10
6.793191
20
1.835915
30
0
11
6.363571
21
1.835647
31
0
39
0
210
0
220
0
230
1
0
LINE
5
A0
100
AcDbEntity
8
1
62
256
6
ByLayer
370
18
48
1
60
0
100
AcDbLine
10
3.502331
20
1.833858
30
0
11
1.540899
21
1.832633
31
0
39
0
210
0
220
0
230
1
0
LINE
5
A1
100
AcDbEntity
8
SK1
62
256
6
ByLayer
370
18
48
1
60
0
100
AcDbLine
10
-36
20
-2.065
30
0
11
-35.065
21
-3
31
0
39
0
210
0
220
0
230
1
0
LINE
5
A2
100
AcDbEntity
8
SK1
62
256
6
ByLayer
370
18
48
1
60
0
100
AcDbLine
10
-35.065
20
3
30
0
11
-36
21
2.065
31
0
39
0
210
0
220
0
230
1
0
LINE
5
A3
100
AcDbEntity
8
SK1
62
256
6
ByLayer
370
18
48
1
60
0
100
AcDbLine
10
-35.065
20
-3
30
0
11
0
21
-3
31
0
39
0
210
0
220
0
230
1
0
LINE
5
A4
100
AcDbEntity
8
SK1
62
256
6
ByLayer
370
18
48
1
60
0
100
AcDbLine
10
0
20
3
30
0
11
-35.065
21
3
31
0
39
0
210
0
220
0
230
1
0
LINE
5
A5
100
AcDbEntity
8
SK4
62
256
6
ByLayer
370
18
48
0.05
60
0
100
AcDbLine
10
35
20
0
30
0
11
-41
21
0
31
0
39
0
210
0
220
0
230
1
0
LINE
5
A7
100
AcDbEntity
8
4
62
256
6
ByLayer
370
18
48
0.05
60
0
100
AcDbLine
10
-36
20
0
30
0
11
35
21
0
31
0
39
0
210
0
220
0
230
1
0
LINE
5
A9
100
AcDbEntity
8
80
62
256
6
ByLayer
370
18
48
1
60
0
100
AcDbLine
10
0
20
0
30
0
11
-6
21
0
31
0
39
0
210
0
220
0
230
1
0
LINE
5
AA
100
AcDbEntity
8
81
62
256
6
ByLayer
370
18
48
1
60
0
100
AcDbLine
10
30
20
0
30
0
11
36
21
0
31
0
39
0
210
0
220
0
230
1
0
LINE
5
AB
100
AcDbEntity
8
SK2
62
256
6
ByLayer
370
13
48
1
60
0
100
AcDbLine
10
30.542925
20
1.491774
30
0
11
37.92585
21
21.777546
31
0
39
0
210
0
220
0
230
1
0
LINE
5
AD
100
AcDbEntity
8
SK2
62
256
6
ByLayer
370
13
48
1
60
0
100
AcDbLine
10
30.542925
20
-1.491774
30
0
11
37.92585
21
-21.777546
31
0
39
0
210
0
220
0
230
1
0
LINE
5
AE
100
AcDbEntity
8
1
62
256
6
ByLayer
370
13
48
1
60
0
100
AcDbLine
10
36.84
20
18.793999
30
0
11
39.936608
21
17.977694
31
0
39
0
210
0
220
0
230
1
0
LINE
5
AF
100
AcDbEntity
8
1
62
256
6
ByLayer
370
13
48
1
60
0
100
AcDbLine
10
36.84
20
18.793999
30
0
11
39.619821
21
17.204046
31
0
39
0
210
0
220
0
230
1
0
LINE
5
B0
100
AcDbEntity
8
1
62
256
6
ByLayer
370
13
48
1
60
0
100
AcDbLine
10
39.936608
20
17.977694
30
0
11
39.619821
21
17.204046
31
0
39
0
210
0
220
0
230
1
0
LINE
5
B1
100
AcDbEntity
8
1
62
256
6
ByLayer
370
13
48
1
60
0
100
AcDbLine
10
36.84
20
-18.793999
30
0
11
39.619818
21
-17.204047
31
0
39
0
210
0
220
0
230
1
0
LINE
5
B2
100
AcDbEntity
8
1
62
256
6
ByLayer
370
13
48
1
60
0
100
AcDbLine
10
36.84
20
-18.793999
30
0
11
39.936611
21
-17.977692
31
0
39
0
210
0
220
0
230
1
0
LINE
5
B3
100
AcDbEntity
8
1
62
256
6
ByLayer
370
13
48
1
60
0
100
AcDbLine
10
39.619818
20
-17.204047
30
0
11
39.936611
21
-17.977692
31
0
39
0
210
0
220
0
230
1
0
MTEXT
5
120
100
AcDbEntity
8
SK2
62
256
6
ByLayer
370
18
48
1
60
0
100
AcDbMText
10
43.717388
20
-2.467451
30
0
210
0
220
0
230
1
1
\W0.7237;140.00
40
3.50012
41
0
44
1.084337
50
0
71
7
72
5
7
iso_b_vert
0
MTEXT
5
123
100
AcDbEntity
8
SK6
62
256
6
ByLayer
370
18
48
1
60
0
100
AcDbMText
10
-42.331725
20
-97.202896
30
0
210
0
220
0
230
1
1
\W0.7348;860.1-0370-019A1-GM X1BM
40
3.175
41
0
44
1.084337
50
0
71
7
72
5
7
iso_b_vert
0
DIMENSION
5
126
100
AcDbEntity
8
SK2
62
256
6
ByLayer
370
18
48
1
60
0
100
AcDbDimension
2
_U0
10
30
20
-26.50012
30
0
11
15
21
-26.50012
31
0
70
32
71
2
72
1
41
1
210
0
220
0
230
1
3
Standard
100
AcDbAlignedDimension
13
0
23
-3
33
0
14
30
24
0
34
0
50
0
100
AcDbRotatedDimension
1001
ACAD
1000
DSTYLE
1002
{
1070
   371
1070
    13
1070
   372
1070
    13
1070
     3
1000

1070
   170
1070
     0
1070
   144
1040
1.0
1070
   277
1070
     2
1070
   284
1070
     8
1070
   278
1070
    46
1070
   146
1040
0.999966
1070
   345
1005
16
1070
   347
1005
16
1070
   346
1005
16
1070
   344
1005
127
1070
   343
1005
127
1070
   172
1070
     1
1070
    76
1070
     0
1070
    75
1070
     0
1070
   282
1070
     0
1070
   281
1070
     0
1070
    71
1070
     0
1070
    74
1070
     0
1070
   279
1070
     0
1070
   173
1070
     1
1070
   340
1005
121
1070
   271
1070
     1
1070
   272
1070
     2
1070
    77
1070
     1
1070
    73
1070
     1
1070
   171
1070
     3
1070
   274
1070
     4
1070
   177
1070
   150
1070
   176
1070
     9
1070
   178
1070
    43
1070
    78
1070
     8
1070
    48
1040
-0.1
1070
    41
1040
3.175
1070
   147
1040
1.75006
1070
    42
1040
1.5875
1070
    44
1040
3.175
1070
   140
1040
3.50012
1002
}
1001
ACAD_DSTYLE_DIM_LINETYPE
1070
   380
1005
16
1001
ACAD_DSTYLE_DIM_EXT1_LINETYPE
1070
   381
1005
16
1001
ACAD_DSTYLE_DIM_EXT2_LINETYPE
1070
   382
1005
16
0
DIMENSION
5
14C
100
AcDbEntity
8
2
62
256
6
ByLayer
370
18
48
1
60
0
100
AcDbDimension
2
_U1
10
36.75006
20
1.85
30
0
11
36.75006
21
17.423233
31
0
70
32
71
1
72
1
41
1
210
0
220
0
230
1
3
Standard
100
AcDbAlignedDimension
13
29.3267
23
-1.85
33
0
14
29.3267
24
1.85
34
0
50
90
100
AcDbRotatedDimension
1001
ACAD
1000
DSTYLE
1002
{
1070
   371
1070
    13
1070
   372
1070
    13
1070
     3
1000

1070
   170
1070
     0
1070
   144
1040
1.0
1070
   277
1070
     2
1070
   284
1070
     8
1070
   278
1070
    46
1070
   146
1040
0.999966
1070
   345
1005
16
1070
   347
1005
16
1070
   346
1005
16
1070
   344
1005
127
1070
   343
1005
127
1070
   172
1070
     1
1070
    76
1070
     0
1070
    75
1070
     0
1070
   282
1070
     0
1070
   281
1070
     0
1070
    71
1070
     0
1070
    74
1070
     0
1070
   279
1070
     0
1070
   173
1070
     1
1070
   340
1005
121
1070
   271
1070
     1
1070
   272
1070
     2
1070
    77
1070
     1
1070
    73
1070
     0
1070
   171
1070
     3
1070
   274
1070
     4
1070
   177
1070
   150
1070
   176
1070
     9
1070
   178
1070
    43
1070
    78
1070
     8
1070
    48
1040
-0.1
1070
    41
1040
3.175
1070
   147
1040
1.75006
1070
    42
1040
1.5875
1070
    44
1040
3.175
1070
   140
1040
3.50012
1002
}
1001
ACAD_DSTYLE_DIM_LINETYPE
1070
   380
1005
16
1001
ACAD_DSTYLE_DIM_EXT1_LINETYPE
1070
   381
1005
16
1001
ACAD_DSTYLE_DIM_EXT2_LINETYPE
1070
   382
1005
16
0
DIMENSION
5
16B
100
AcDbEntity
8
SK2
62
256
6
ByLayer
370
18
48
1
60
0
100
AcDbDimension
2
_U2
10
-39.24994
20
-3
30
0
11
-39.24994
21
17.10734
31
0
70
32
71
1
72
1
41
1
210
0
220
0
230
1
3
Standard
100
AcDbAlignedDimension
13
-36
23
3
33
0
14
-36
24
-3
34
0
50
90
100
AcDbRotatedDimension
1001
ACAD
1000
DSTYLE
1002
{
1070
   371
1070
    13
1070
   372
1070
    13
1070
     3
1000

1070
   170
1070
     0
1070
   144
1040
1.0
1070
   277
1070
     2
1070
   284
1070
     8
1070
   278
1070
    46
1070
   146
1040
0.999966
1070
   345
1005
16
1070
   347
1005
16
1070
   346
1005
16
1070
   344
1005
127
1070
   343
1005
127
1070
   172
1070
     1
1070
    76
1070
     0
1070
    75
1070
     0
1070
   282
1070
     0
1070
   281
1070
     0
1070
    71
1070
     0
1070
    74
1070
     0
1070
   279
1070
     0
1070
   173
1070
     1
1070
   340
1005
121
1070
   271
1070
     1
1070
   272
1070
     2
1070
    77
1070
     1
1070
    73
1070
     0
1070
   171
1070
     3
1070
   274
1070
     4
1070
   177
1070
   150
1070
   176
1070
     9
1070
   178
1070
    43
1070
    78
1070
     8
1070
    48
1040
-0.1
1070
    41
1040
3.175
1070
   147
1040
1.75006
1070
    42
1040
1.5875
1070
    44
1040
3.175
1070
   140
1040
3.50012
1002
}
1001
ACAD_DSTYLE_DIM_LINETYPE
1070
   380
1005
16
1001
ACAD_DSTYLE_DIM_EXT1_LINETYPE
1070
   381
1005
16
1001
ACAD_DSTYLE_DIM_EXT2_LINETYPE
1070
   382
1005
16
0
DIMENSION
5
189
100
AcDbEntity
8
SK2
62
256
6
ByLayer
370
18
48
1
60
0
100
AcDbDimension
2
_U3
10
0
20
-26.50012
30
0
11
-18
21
-26.50012
31
0
70
32
71
1
72
1
41
1
210
0
220
0
230
1
3
Standard
100
AcDbAlignedDimension
13
-36
23
-3
33
0
14
0
24
-3
34
0
50
0
100
AcDbRotatedDimension
1001
ACAD
1000
DSTYLE
1002
{
1070
   371
1070
    13
1070
   372
1070
    13
1070
     3
1000

1070
   170
1070
     0
1070
   144
1040
1.0
1070
   277
1070
     2
1070
   284
1070
     8
1070
   278
1070
    46
1070
   146
1040
0.999966
1070
   345
1005
16
1070
   347
1005
16
1070
   346
1005
16
1070
   344
1005
127
1070
   343
1005
127
1070
   172
1070
     1
1070
    76
1070
     0
1070
    75
1070
     0
1070
   282
1070
     0
1070
   281
1070
     0
1070
    71
1070
     0
1070
    74
1070
     0
1070
   279
1070
     0
1070
   173
1070
     1
1070
   340
1005
121
1070
   271
1070
     1
1070
   272
1070
     2
1070
    77
1070
     1
1070
    73
1070
     1
1070
   171
1070
     3
1070
   274
1070
     4
1070
   177
1070
   150
1070
   176
1070
     9
1070
   178
1070
    43
1070
    78
1070
     8
1070
    48
1040
-0.1
1070
    41
1040
3.175
1070
   147
1040
1.75006
1070
    42
1040
1.5875
1070
    44
1040
3.175
1070
   140
1040
3.50012
1002
}
1001
ACAD_DSTYLE_DIM_LINETYPE
1070
   380
1005
16
1001
ACAD_DSTYLE_DIM_EXT1_LINETYPE
1070
   381
1005
16
1001
ACAD_DSTYLE_DIM_EXT2_LINETYPE
1070
   382
1005
16
0
DIMENSION
5
1A5
100
AcDbEntity
8
SK2
62
256
6
ByLayer
370
18
48
1
60
0
100
AcDbDimension
2
_U4
10
30
20
-17.74982
30
0
11
16
21
-17.74982
31
0
70
32
71
1
72
1
41
1
210
0
220
0
230
1
3
Standard
100
AcDbAlignedDimension
13
2
23
2.35
33
0
14
30
24
0
34
0
50
0
100
AcDbRotatedDimension
1001
ACAD
1000
DSTYLE
1002
{
1070
   371
1070
    13
1070
   372
1070
    13
1070
     3
1000

1070
   170
1070
     0
1070
   144
1040
1.0
1070
   277
1070
     2
1070
   284
1070
     8
1070
   278
1070
    46
1070
   146
1040
0.999966
1070
   345
1005
16
1070
   347
1005
16
1070
   346
1005
16
1070
   344
1005
127
1070
   343
1005
127
1070
   172
1070
     1
1070
    76
1070
     0
1070
    75
1070
     0
1070
   282
1070
     0
1070
   281
1070
     0
1070
    71
1070
     0
1070
    74
1070
     0
1070
   279
1070
     0
1070
   173
1070
     1
1070
   340
1005
121
1070
   271
1070
     1
1070
   272
1070
     2
1070
    77
1070
     1
1070
    73
1070
     1
1070
   171
1070
     3
1070
   274
1070
     4
1070
   177
1070
   150
1070
   176
1070
     9
1070
   178
1070
    43
1070
    78
1070
     8
1070
    48
1040
-0.1
1070
    41
1040
3.175
1070
   147
1040
1.75006
1070
    42
1040
1.5875
1070
    44
1040
3.175
1070
   140
1040
3.50012
1002
}
1001
ACAD_DSTYLE_DIM_LINETYPE
1070
   380
1005
16
1001
ACAD_DSTYLE_DIM_EXT1_LINETYPE
1070
   381
1005
16
1001
ACAD_DSTYLE_DIM_EXT2_LINETYPE
1070
   382
1005
16
0
DIMENSION
5
1C1
100
AcDbEntity
8
SK2
62
256
6
ByLayer
370
18
48
1
60
0
100
AcDbDimension
2
_U5
10
30
20
-9.82
30
0
11
20.45
21
-9.82
31
0
70
32
71
1
72
1
41
1
210
0
220
0
230
1
3
Standard
100
AcDbAlignedDimension
13
10.9
23
-1.85
33
0
14
30
24
0
34
0
50
0
100
AcDbRotatedDimension
1001
ACAD
1000
DSTYLE
1002
{
1070
   371
1070
    13
1070
   372
1070
    13
1070
     3
1000

1070
   170
1070
     0
1070
   144
1040
1.0
1070
   277
1070
     2
1070
   284
1070
     8
1070
   278
1070
    46
1070
   146
1040
1.25
1070
   345
1005
16
1070
   347
1005
16
1070
   346
1005
16
1070
   344
1005
127
1070
   343
1005
127
1070
   172
1070
     1
1070
    76
1070
     0
1070
    75
1070
     0
1070
   282
1070
     0
1070
   281
1070
     0
1070
    71
1070
     0
1070
    74
1070
     0
1070
   279
1070
     0
1070
   173
1070
     1
1070
   340
1005
121
1070
   271
1070
     1
1070
   272
1070
     2
1070
    77
1070
     1
1070
    73
1070
     1
1070
   171
1070
     3
1070
   274
1070
     4
1070
   177
1070
   150
1070
   176
1070
     9
1070
   178
1070
    43
1070
    78
1070
     8
1070
    48
1040
-0.1
1070
    41
1040
3.175
1070
   147
1040
0.42
1070
    42
1040
1.5875
1070
    44
1040
0.5
1070
   140
1040
2.8
1002
}
1001
ACAD_DSTYLE_DIM_LINETYPE
1070
   380
1005
16
1001
ACAD_DSTYLE_DIM_EXT1_LINETYPE
1070
   381
1005
16
1001
ACAD_DSTYLE_DIM_EXT2_LINETYPE
1070
   382
1005
16
0
DIMENSION
5
1DD
100
AcDbEntity
8
SK2
62
256
6
ByLayer
370
18
48
1
60
0
100
AcDbDimension
2
_U6
10
30
20
-36.50012
30
0
11
-3
21
-36.50012
31
0
70
32
71
1
72
1
41
1
210
0
220
0
230
1
3
Standard
100
AcDbAlignedDimension
13
-36
23
0
33
0
14
30
24
0
34
0
50
0
100
AcDbRotatedDimension
1001
ACAD
1000
DSTYLE
1002
{
1070
   371
1070
    13
1070
   372
1070
    13
1070
     3
1000

1070
   170
1070
     0
1070
   144
1040
1.0
1070
   277
1070
     2
1070
   284
1070
     8
1070
   278
1070
    46
1070
   146
1040
0.999966
1070
   345
1005
16
1070
   347
1005
16
1070
   346
1005
16
1070
   344
1005
127
1070
   343
1005
127
1070
   172
1070
     1
1070
    76
1070
     0
1070
    75
1070
     0
1070
   282
1070
     0
1070
   281
1070
     0
1070
    71
1070
     0
1070
    74
1070
     0
1070
   279
1070
     0
1070
   173
1070
     1
1070
   340
1005
121
1070
   271
1070
     1
1070
   272
1070
     2
1070
    77
1070
     1
1070
    73
1070
     1
1070
   171
1070
     3
1070
   274
1070
     4
1070
   177
1070
   150
1070
   176
1070
     9
1070
   178
1070
    43
1070
    78
1070
     8
1070
    48
1040
-0.1
1070
    41
1040
3.175
1070
   147
1040
1.75006
1070
    42
1040
1.5875
1070
    44
1040
3.175
1070
   140
1040
3.50012
1002
}
1001
ACAD_DSTYLE_DIM_LINETYPE
1070
   380
1005
16
1001
ACAD_DSTYLE_DIM_EXT1_LINETYPE
1070
   381
1005
16
1001
ACAD_DSTYLE_DIM_EXT2_LINETYPE
1070
   382
1005
16
0
ENDSEC
0
SECTION
2
OBJECTS
0
DICTIONARY
5
269
330
0
100
AcDbDictionary
280
0
281
1
3
ACAD_GROUP
350
26a
3
ACAD_MLINESTYLE
350
26b
0
DICTIONARY
5
26a
330
0
100
AcDbDictionary
280
0
281
1
0
DICTIONARY
5
26b
330
0
100
AcDbDictionary
280
0
281
1
3
Standard
350
18
0
MLINESTYLE
5
18
330
26b
100
AcDbMlineStyle
2
Standard
70
0
3

62
256
51
90
52
90
71
2
49
-0.5
62
256
6
ByLayer
49
0.5
62
256
6
ByLayer
0
RASTERVARIABLES
5
257
330

100
AcDbRasterVariables
90
0
70
1
71
1
72
1
0
ENDSEC
0
EOF
