0
SECTION
2
HEADER
9
$ACADVER
1
AC1015
9
$DWGCODEPAGE
3
ANSI_1252
9
$HANDSEED
5
273
9
$ANGBASE
50
0
9
$ANGDIR
70
0
9
$ATTMODE
70
1
9
$AUNITS
70
0
9
$AUPREC
70
0
9
$CECOLOR
62
256
9
$CELTSCALE
40
1
9
$CELTYPE
6
ByLayer
9
$CELWEIGHT
370
18
9
$CLAYER
8
0
9
$CMLJUST
70
0
9
$CMLSCALE
40
1
9
$CMLSTYLE
2
Standard
9
$DIMSTYLE
2
Standard
9
$TEXTSIZE
40
0.2
9
$TEXTSTYLE
7
Standard
9
$LUNITS
70
2
9
$LUPREC
70
4
9
$EXTNAMES
290
1
9
$INSUNITS
70
4
9
$LTSCALE
40
1
9
$LWDISPLAY
290
1
9
$PDMODE
70
0
9
$PDSIZE
40
0
9
$PLINEGEN
70
0
0
ENDSEC
0
SECTION
2
CLASSES
0
CLASS
1
RASTERVARIABLES
2
AcDbRasterVariables
3
ISM
90
0
280
0
281
0
0
ENDSEC
0
SECTION
2
TABLES
0
TABLE
2
VPORT
5
269
100
AcDbSymbolTable
0
VPORT
5
1
100
AcDbSymbolTableRecord
100
AcDbViewportTableRecord
2
*Active
70
0
10
0
20
0
11
1
21
1
12
-1
22
1
13
0
23
0
14
0.5
24
0.5
15
10
25
10
16
0
26
0
36
1
17
0
27
0
37
0
0
ENDTAB
0
TABLE
2
LTYPE
5
26a
100
AcDbSymbolTable
0
LTYPE
5
14
100
AcDbSymbolTableRecord
100
AcDbLinetypeTableRecord
70
0
2
ByBlock
3

72
65
73
0
40
0
0
LTYPE
5
15
100
AcDbSymbolTableRecord
100
AcDbLinetypeTableRecord
70
0
2
ByLayer
3

72
65
73
0
40
0
0
LTYPE
5
16
100
AcDbSymbolTableRecord
100
AcDbLinetypeTableRecord
70
0
2
Continuous
3
Solid line
72
65
73
0
40
0
0
LTYPE
5
6E
100
AcDbSymbolTableRecord
100
AcDbLinetypeTableRecord
70
0
2
CENTER
3
____ _ ____ _ ____ _ ____
72
65
73
4
40
47.5
49
22
74
0
49
-8.5
74
0
49
8.5
74
0
49
-8.5
74
0
0
LTYPE
5
6F
100
AcDbSymbolTableRecord
100
AcDbLinetypeTableRecord
70
0
2
DASHED
3
__ __ __ __ __ __ __ __ __
72
65
73
2
40
25.72
49
12.86
74
0
49
-12.86
74
0
0
ENDTAB
0
TABLE
2
LAYER
5
26b
100
AcDbSymbolTable
0
LAYER
5
10
100
AcDbSymbolTableRecord
100
AcDbLayerTableRecord
2
0
70
0
62
7
6
Continuous
290
1
370
-3
390
0
0
LAYER
5
71
100
AcDbSymbolTableRecord
100
AcDbLayerTableRecord
2
80
70
0
62
-6
6
Continuous
290
1
370
-3
390
0
0
LAYER
5
73
100
AcDbSymbolTableRecord
100
AcDbLayerTableRecord
2
81
70
0
62
-3
6
Continuous
290
1
370
-3
390
0
0
LAYER
5
75
100
AcDbSymbolTableRecord
100
AcDbLayerTableRecord
2
1
70
0
62
4
6
Continuous
290
1
370
-3
390
0
0
LAYER
5
A8
100
AcDbSymbolTableRecord
100
AcDbLayerTableRecord
2
4
70
0
62
-2
6
CENTER
290
1
370
-3
390
0
0
LAYER
5
12D
100
AcDbSymbolTableRecord
100
AcDbLayerTableRecord
2
Defpoints
70
0
62
7
6
Continuous
290
0
370
-3
390
0
0
LAYER
5
15A
100
AcDbSymbolTableRecord
100
AcDbLayerTableRecord
2
2
70
0
62
7
6
Continuous
290
1
370
-3
390
0
0
LAYER
5
255
100
AcDbSymbolTableRecord
100
AcDbLayerTableRecord
2
SK1
70
0
62
4
6
Continuous
290
1
370
-3
390
0
0
LAYER
5
256
100
AcDbSymbolTableRecord
100
AcDbLayerTableRecord
2
SK4
70
0
62
2
6
CENTER
290
1
370
-3
390
0
0
LAYER
5
257
100
AcDbSymbolTableRecord
100
AcDbLayerTableRecord
2
SK2
70
0
62
7
6
Continuous
290
1
370
-3
390
0
0
LAYER
5
258
100
AcDbSymbolTableRecord
100
AcDbLayerTableRecord
2
SK6
70
0
62
5
6
Continuous
290
1
370
-3
390
0
0
ENDTAB
0
TABLE
2
STYLE
5
26c
100
AcDbSymbolTable
0
STYLE
5
11
100
AcDbSymbolTableRecord
100
AcDbTextStyleTableRecord
2
Standard
3
txt
70
0
71
0
40
0
41
1
42
0
50
0
0
STYLE
5
11E
100
AcDbSymbolTableRecord
100
AcDbTextStyleTableRecord
2
iso_b_vert
3
simplex.shx
70
0
71
0
40
0
41
1
42
0
50
0
0
STYLE
5
11F
100
AcDbSymbolTableRecord
100
AcDbTextStyleTableRecord
2
DWGDirectTextStyle
3
simplex
70
0
71
0
40
0
41
1
42
0
50
0
0
ENDTAB
0
TABLE
2
DIMSTYLE
5
26d
100
AcDbSymbolTable
100
AcDbDimStyleTable
0
DIMSTYLE
105
27
100
AcDbSymbolTableRecord
100
AcDbDimStyleTableRecord
2
Standard
70
0
3
<>
41
0.18
42
0.0625
44
0.18
140
0.18
147
0.09
73
0
74
0
77
1
271
2
275
0
278
52
280
0
340
11
0
ENDTAB
0
TABLE
2
VIEW
5
26e
100
AcDbSymbolTable
0
ENDTAB
0
TABLE
2
UCS
5
26f
100
AcDbSymbolTable
0
ENDTAB
0
TABLE
2
APPID
5
270
100
AcDbSymbolTable
0
APPID
5
12
100
AcDbSymbolTableRecord
100
AcDbRegAppTableRecord
2
ACAD
70
0
0
APPID
5
122
100
AcDbSymbolTableRecord
100
AcDbRegAppTableRecord
2
ACAD_DSTYLE_DIMBREAK
70
0
0
APPID
5
214
100
AcDbSymbolTableRecord
100
AcDbRegAppTableRecord
2
ACAD_DSTYLE_DIM_LINETYPE
70
0
0
APPID
5
215
100
AcDbSymbolTableRecord
100
AcDbRegAppTableRecord
2
ACAD_DSTYLE_DIM_EXT1_LINETYPE
70
0
0
APPID
5
216
100
AcDbSymbolTableRecord
100
AcDbRegAppTableRecord
2
ACAD_DSTYLE_DIM_EXT2_LINETYPE
70
0
0
APPID
5
251
100
AcDbSymbolTableRecord
100
AcDbRegAppTableRecord
2
ACAD_MLEADERVER
70
0
0
ENDTAB
0
TABLE
2
BLOCK_RECORD
5
271
100
AcDbSymbolTable
0
BLOCK_RECORD
5
1F
100
AcDbSymbolTableRecord
100
AcDbBlockTableRecord
2
*Model_Space
340
0
70
0
0
BLOCK_RECORD
5
1B
100
AcDbSymbolTableRecord
100
AcDbBlockTableRecord
2
*Paper_Space
340
0
70
0
0
BLOCK_RECORD
5
23
100
AcDbSymbolTableRecord
100
AcDbBlockTableRecord
2
*Paper_Space0
340
0
70
0
0
BLOCK_RECORD
5
124
100
AcDbSymbolTableRecord
100
AcDbBlockTableRecord
2
_Closed
340
0
70
0
0
BLOCK_RECORD
5
12E
100
AcDbSymbolTableRecord
100
AcDbBlockTableRecord
2
*D2
340
0
70
0
0
BLOCK_RECORD
5
13A
100
AcDbSymbolTableRecord
100
AcDbBlockTableRecord
2
_U0
340
0
70
0
0
BLOCK_RECORD
5
14C
100
AcDbSymbolTableRecord
100
AcDbBlockTableRecord
2
*D4
340
0
70
0
0
BLOCK_RECORD
5
15B
100
AcDbSymbolTableRecord
100
AcDbBlockTableRecord
2
_U1
340
0
70
0
0
BLOCK_RECORD
5
16B
100
AcDbSymbolTableRecord
100
AcDbBlockTableRecord
2
*D6
340
0
70
0
0
BLOCK_RECORD
5
179
100
AcDbSymbolTableRecord
100
AcDbBlockTableRecord
2
_U2
340
0
70
0
0
BLOCK_RECORD
5
189
100
AcDbSymbolTableRecord
100
AcDbBlockTableRecord
2
*D8
340
0
70
0
0
BLOCK_RECORD
5
195
100
AcDbSymbolTableRecord
100
AcDbBlockTableRecord
2
_U3
340
0
70
0
0
BLOCK_RECORD
5
1A5
100
AcDbSymbolTableRecord
100
AcDbBlockTableRecord
2
*D10
340
0
70
0
0
BLOCK_RECORD
5
1B1
100
AcDbSymbolTableRecord
100
AcDbBlockTableRecord
2
_U4
340
0
70
0
0
BLOCK_RECORD
5
1C1
100
AcDbSymbolTableRecord
100
AcDbBlockTableRecord
2
*D12
340
0
70
0
0
BLOCK_RECORD
5
1CD
100
AcDbSymbolTableRecord
100
AcDbBlockTableRecord
2
_U5
340
0
70
0
0
BLOCK_RECORD
5
1DD
100
AcDbSymbolTableRecord
100
AcDbBlockTableRecord
2
*D14
340
0
70
0
0
BLOCK_RECORD
5
1E9
100
AcDbSymbolTableRecord
100
AcDbBlockTableRecord
2
_U6
340
0
70
0
0
ENDTAB
0
ENDSEC
0
SECTION
2
BLOCKS
0
BLOCK
5
20
100
AcDbEntity
8
0
100
AcDbBlockBegin
2
*Model_Space
70
0
10
0
20
0
30
0
3
*Model_Space
0
ENDBLK
5
21
100
AcDbEntity
8
0
100
AcDbBlockEnd
0
BLOCK
5
1C
100
AcDbEntity
8
0
100
AcDbBlockBegin
2
*Paper_Space
70
0
10
0
20
0
30
0
3
*Paper_Space
0
ENDBLK
5
1D
100
AcDbEntity
8
0
100
AcDbBlockEnd
0
BLOCK
5
24
100
AcDbEntity
8
0
100
AcDbBlockBegin
2
*Paper_Space0
70
0
10
0
20
0
30
0
3
*Paper_Space0
0
ENDBLK
5
25
100
AcDbEntity
8
0
100
AcDbBlockEnd
0
BLOCK
5
125
100
AcDbEntity
8
0
100
AcDbBlockBegin
2
_Closed
70
0
10
0
20
0
30
0
3
_Closed
0
LINE
5
127
100
AcDbEntity
8
0
62
256
6
ByLayer
370
-2
48
1
60
0
100
AcDbLine
10
-1
20
0.166667
30
0
11
0
21
0
31
0
39
0
210
0
220
0
230
1
0
LINE
5
128
100
AcDbEntity
8
0
62
256
6
ByLayer
370
-2
48
1
60
0
100
AcDbLine
10
0
20
0
30
0
11
-1
21
-0.166667
31
0
39
0
210
0
220
0
230
1
0
LINE
5
129
100
AcDbEntity
8
0
62
256
6
ByLayer
370
-2
48
1
60
0
100
AcDbLine
10
-1
20
0.166667
30
0
11
-1
21
-0.166667
31
0
39
0
210
0
220
0
230
1
0
LINE
5
12A
100
AcDbEntity
8
0
62
256
6
ByLayer
370
-2
48
1
60
0
100
AcDbLine
10
0
20
0
30
0
11
-1
21
0
31
0
39
0
210
0
220
0
230
1
0
ENDBLK
5
126
100
AcDbEntity
8
0
100
AcDbBlockEnd
0
BLOCK
5
12F
100
AcDbEntity
8
0
100
AcDbBlockBegin
2
*D2
70
1
10
0
20
0
30
0
3
*D2
0
LINE
5
131
100
AcDbEntity
8
0
62
256
6
ByLayer
370
-2
48
1
60
0
100
AcDbLine
10
0
20
-4.5875
30
0
11
0
21
-29.67512
31
0
39
0
210
0
220
0
230
1
0
LINE
5
132
100
AcDbEntity
8
0
62
256
6
ByLayer
370
-2
48
1
60
0
100
AcDbLine
10
30
20
-1.5875
30
0
11
30
21
-29.67512
31
0
39
0
210
0
220
0
230
1
0
LINE
5
133
100
AcDbEntity
8
0
62
256
6
ByLayer
370
-2
48
1
60
0
100
AcDbLine
10
3.175
20
-26.50012
30
0
11
26.825
21
-26.50012
31
0
39
0
210
0
220
0
230
1
0
SOLID
5
134
100
AcDbEntity
8
0
62
256
6
ByLayer
370
-1
48
1
60
0
100
AcDbTrace
10
3.175
20
-25.970953
30
0
11
3.175
21
-27.029287
31
0
12
0
22
-26.50012
32
0
13
0
23
-26.50012
33
0
39
0
210
0
220
0
230
1
0
SOLID
5
135
100
AcDbEntity
8
0
62
256
6
ByLayer
370
-1
48
1
60
0
100
AcDbTrace
10
26.825
20
-27.029287
30
0
11
26.825
21
-25.970953
31
0
12
30
22
-26.50012
32
0
13
30
23
-26.50012
33
0
39
0
210
0
220
0
230
1
0
MTEXT
5
136
100
AcDbEntity
8
0
62
256
6
ByLayer
370
18
48
1
60
0
100
AcDbMText
10
15
20
-19.193619
30
0
210
0
220
0
230
1
1
\A1;30
40
3.50012
41
0
44
1
50
0
71
5
72
5
7
iso_b_vert
0
POINT
5
137
100
AcDbEntity
8
Defpoints
62
0
6
ByLayer
370
-1
48
1
60
0
100
AcDbPoint
10
0
20
-3
30
0
39
0
210
0
220
0
230
1
50
360
0
POINT
5
138
100
AcDbEntity
8
Defpoints
62
0
6
ByLayer
370
-1
48
1
60
0
100
AcDbPoint
10
30
20
0
30
0
39
0
210
0
220
0
230
1
50
360
0
POINT
5
139
100
AcDbEntity
8
Defpoints
62
0
6
ByLayer
370
-1
48
1
60
0
100
AcDbPoint
10
30
20
-26.50012
30
0
39
0
210
0
220
0
230
1
50
360
0
ENDBLK
5
130
100
AcDbEntity
8
0
100
AcDbBlockEnd
0
BLOCK
5
147
100
AcDbEntity
8
0
100
AcDbBlockBegin
2
_U0
70
0
10
0
20
0
30
0
3
_U0
0
MTEXT
5
13B
100
AcDbEntity
8
SK2
62
256
6
ByLayer
370
18
48
1
60
0
100
AcDbMText
10
9.770389
20
-25.467451
30
0
210
0
220
0
230
1
1
\W0.7468;30.00
40
3.50012
41
0
44
1.084337
50
0
71
7
72
5
7
iso_b_vert
0
MTEXT
5
13C
100
AcDbEntity
8
SK2
62
256
6
ByLayer
370
18
48
1
60
0
100
AcDbMText
10
6.244329
20
-25.400814
30
0
210
0
220
0
230
1
1
\W0.1790;(
40
3.175
41
0
44
1.084337
50
0
71
7
72
5
7
iso_b_vert
0
MTEXT
5
13D
100
AcDbEntity
8
SK2
62
256
6
ByLayer
370
18
48
1
60
0
100
AcDbMText
10
23.758393
20
-25.400814
30
0
210
0
220
0
230
1
1
\W0.1969;)
40
3.175
41
0
44
1.084337
50
0
71
7
72
5
7
iso_b_vert
0
LINE
5
13E
100
AcDbEntity
8
SK2
62
256
6
ByLayer
370
13
48
1
60
0
100
AcDbLine
10
0
20
-4.5875
30
0
11
0
21
-29.67512
31
0
39
0
210
0
220
0
230
1
0
LINE
5
13F
100
AcDbEntity
8
SK2
62
256
6
ByLayer
370
13
48
1
60
0
100
AcDbLine
10
30
20
-1.5875
30
0
11
30
21
-29.67512
31
0
39
0
210
0
220
0
230
1
0
LINE
5
140
100
AcDbEntity
8
SK2
62
256
6
ByLayer
370
13
48
1
60
0
100
AcDbLine
10
0
20
-26.50012
30
0
11
30
21
-26.50012
31
0
39
0
210
0
220
0
230
1
0
LINE
5
141
100
AcDbEntity
8
SK2
62
256
6
ByLayer
370
13
48
1
60
0
100
AcDbLine
10
0
20
-26.50012
30
0
11
3.174998
21
-26.082123
31
0
39
0
210
0
220
0
230
1
0
LINE
5
142
100
AcDbEntity
8
SK2
62
256
6
ByLayer
370
13
48
1
60
0
100
AcDbLine
10
0
20
-26.50012
30
0
11
3.175002
21
-26.918117
31
0
39
0
210
0
220
0
230
1
0
LINE
5
143
100
AcDbEntity
8
SK2
62
256
6
ByLayer
370
13
48
1
60
0
100
AcDbLine
10
3.174998
20
-26.082123
30
0
11
3.175002
21
-26.918117
31
0
39
0
210
0
220
0
230
1
0
LINE
5
144
100
AcDbEntity
8
SK2
62
256
6
ByLayer
370
13
48
1
60
0
100
AcDbLine
10
30
20
-26.50012
30
0
11
26.825002
21
-26.918117
31
0
39
0
210
0
220
0
230
1
0
LINE
5
145
100
AcDbEntity
8
SK2
62
256
6
ByLayer
370
13
48
1
60
0
100
AcDbLine
10
30
20
-26.50012
30
0
11
26.824998
21
-26.082123
31
0
39
0
210
0
220
0
230
1
0
LINE
5
146
100
AcDbEntity
8
SK2
62
256
6
ByLayer
370
13
48
1
60
0
100
AcDbLine
10
26.825002
20
-26.918117
30
0
11
26.824998
21
-26.082123
31
0
39
0
210
0
220
0
230
1
0
ENDBLK
5
148
100
AcDbEntity
8
0
100
AcDbBlockEnd
0
BLOCK
5
14D
100
AcDbEntity
8
0
100
AcDbBlockBegin
2
*D4
70
1
10
0
20
0
30
0
3
*D4
0
LINE
5
14F
100
AcDbEntity
8
0
62
256
6
ByLayer
370
-2
48
1
60
0
100
AcDbLine
10
30.9597
20
-1.725
30
0
11
39.92506
21
-1.725
31
0
39
0
210
0
220
0
230
1
0
LINE
5
150
100
AcDbEntity
8
0
62
256
6
ByLayer
370
-2
48
1
60
0
100
AcDbLine
10
30.9597
20
1.725
30
0
11
39.92506
21
1.725
31
0
39
0
210
0
220
0
230
1
0
LINE
5
151
100
AcDbEntity
8
0
62
256
6
ByLayer
370
-2
48
1
60
0
100
AcDbLine
10
36.75006
20
1.725
30
0
11
36.75006
21
26.521466
31
0
39
0
210
0
220
0
230
1
0
LINE
5
152
100
AcDbEntity
8
0
62
256
6
ByLayer
370
-2
48
1
60
0
100
AcDbLine
10
36.75006
20
-4.9
30
0
11
36.75006
21
-8.075
31
0
39
0
210
0
220
0
230
1
0
LINE
5
153
100
AcDbEntity
8
0
62
256
6
ByLayer
370
-2
48
1
60
0
100
AcDbLine
10
36.75006
20
4.9
30
0
11
36.75006
21
8.075
31
0
39
0
210
0
220
0
230
1
0
SOLID
5
154
100
AcDbEntity
8
0
62
256
6
ByLayer
370
-1
48
1
60
0
100
AcDbTrace
10
37.279227
20
-4.9
30
0
11
36.220893
21
-4.9
31
0
12
36.75006
22
-1.725
32
0
13
36.75006
23
-1.725
33
0
39
0
210
0
220
0
230
1
0
SOLID
5
155
100
AcDbEntity
8
0
62
256
6
ByLayer
370
-1
48
1
60
0
100
AcDbTrace
10
36.220893
20
4.9
30
0
11
37.279227
21
4.9
31
0
12
36.75006
22
1.725
32
0
13
36.75006
23
1.725
33
0
39
0
210
0
220
0
230
1
0
MTEXT
5
156
100
AcDbEntity
8
0
62
256
6
ByLayer
370
18
48
1
60
0
100
AcDbMText
10
29.443559
20
17.298233
30
0
210
0
220
0
230
1
1
\A1;3.5
40
3.50012
41
0
44
1
50
90
71
5
72
5
7
iso_b_vert
0
POINT
5
157
100
AcDbEntity
8
Defpoints
62
0
6
ByLayer
370
-1
48
1
60
0
100
AcDbPoint
10
29.3722
20
-1.725
30
0
39
0
210
0
220
0
230
1
50
360
0
POINT
5
158
100
AcDbEntity
8
Defpoints
62
0
6
ByLayer
370
-1
48
1
60
0
100
AcDbPoint
10
29.3722
20
1.725
30
0
39
0
210
0
220
0
230
1
50
360
0
POINT
5
159
100
AcDbEntity
8
Defpoints
62
0
6
ByLayer
370
-1
48
1
60
0
100
AcDbPoint
10
36.75006
20
1.725
30
0
39
0
210
0
220
0
230
1
50
360
0
ENDBLK
5
14E
100
AcDbEntity
8
0
100
AcDbBlockEnd
0
BLOCK
5
166
100
AcDbEntity
8
0
100
AcDbBlockBegin
2
_U1
70
0
10
0
20
0
30
0
3
_U1
0
MTEXT
5
15C
100
AcDbEntity
8
2
62
256
6
ByLayer
370
18
48
1
60
0
100
AcDbMText
10
36.060403
20
5.882505
30
0
210
0
220
0
230
1
1
\W0.7640;3.45
40
3.50012
41
0
44
1.084337
50
90
71
7
72
5
7
iso_b_vert
0
LINE
5
15D
100
AcDbEntity
8
2
62
256
6
ByLayer
370
13
48
1
60
0
100
AcDbLine
10
30.9597
20
-1.725
30
0
11
39.92506
21
-1.725
31
0
39
0
210
0
220
0
230
1
0
LINE
5
15E
100
AcDbEntity
8
2
62
256
6
ByLayer
370
13
48
1
60
0
100
AcDbLine
10
30.9597
20
1.725
30
0
11
39.92506
21
1.725
31
0
39
0
210
0
220
0
230
1
0
LINE
5
15F
100
AcDbEntity
8
2
62
256
6
ByLayer
370
13
48
1
60
0
100
AcDbLine
10
36.75006
20
14.308226
30
0
11
36.75006
21
-10.4753
31
0
39
0
210
0
220
0
230
1
0
LINE
5
160
100
AcDbEntity
8
2
62
256
6
ByLayer
370
13
48
1
60
0
100
AcDbLine
10
36.75006
20
-1.725
30
0
11
37.168057
21
-4.899998
31
0
39
0
210
0
220
0
230
1
0
LINE
5
161
100
AcDbEntity
8
2
62
256
6
ByLayer
370
13
48
1
60
0
100
AcDbLine
10
36.75006
20
-1.725
30
0
11
36.332063
21
-4.900002
31
0
39
0
210
0
220
0
230
1
0
LINE
5
162
100
AcDbEntity
8
2
62
256
6
ByLayer
370
13
48
1
60
0
100
AcDbLine
10
37.168057
20
-4.899998
30
0
11
36.332063
21
-4.900002
31
0
39
0
210
0
220
0
230
1
0
LINE
5
163
100
AcDbEntity
8
2
62
256
6
ByLayer
370
13
48
1
60
0
100
AcDbLine
10
36.75006
20
1.725
30
0
11
36.332063
21
4.899998
31
0
39
0
210
0
220
0
230
1
0
LINE
5
164
100
AcDbEntity
8
2
62
256
6
ByLayer
370
13
48
1
60
0
100
AcDbLine
10
36.75006
20
1.725
30
0
11
37.168057
21
4.900002
31
0
39
0
210
0
220
0
230
1
0
LINE
5
165
100
AcDbEntity
8
2
62
256
6
ByLayer
370
13
48
1
60
0
100
AcDbLine
10
36.332063
20
4.899998
30
0
11
37.168057
21
4.900002
31
0
39
0
210
0
220
0
230
1
0
ENDBLK
5
167
100
AcDbEntity
8
0
100
AcDbBlockEnd
0
BLOCK
5
16C
100
AcDbEntity
8
0
100
AcDbBlockBegin
2
*D6
70
1
10
0
20
0
30
0
3
*D6
0
LINE
5
16E
100
AcDbEntity
8
0
62
256
6
ByLayer
370
-2
48
1
60
0
100
AcDbLine
10
-37.5875
20
3
30
0
11
-42.42494
21
3
31
0
39
0
210
0
220
0
230
1
0
LINE
5
16F
100
AcDbEntity
8
0
62
256
6
ByLayer
370
-2
48
1
60
0
100
AcDbLine
10
-37.5875
20
-3
30
0
11
-42.42494
21
-3
31
0
39
0
210
0
220
0
230
1
0
LINE
5
170
100
AcDbEntity
8
0
62
256
6
ByLayer
370
-2
48
1
60
0
100
AcDbLine
10
-39.24994
20
3
30
0
11
-39.24994
21
23.747151
31
0
39
0
210
0
220
0
230
1
0
LINE
5
171
100
AcDbEntity
8
0
62
256
6
ByLayer
370
-2
48
1
60
0
100
AcDbLine
10
-39.24994
20
6.175
30
0
11
-39.24994
21
9.35
31
0
39
0
210
0
220
0
230
1
0
LINE
5
172
100
AcDbEntity
8
0
62
256
6
ByLayer
370
-2
48
1
60
0
100
AcDbLine
10
-39.24994
20
-6.175
30
0
11
-39.24994
21
-9.35
31
0
39
0
210
0
220
0
230
1
0
SOLID
5
173
100
AcDbEntity
8
0
62
256
6
ByLayer
370
-1
48
1
60
0
100
AcDbTrace
10
-39.779107
20
6.175
30
0
11
-38.720773
21
6.175
31
0
12
-39.24994
22
3
32
0
13
-39.24994
23
3
33
0
39
0
210
0
220
0
230
1
0
SOLID
5
174
100
AcDbEntity
8
0
62
256
6
ByLayer
370
-1
48
1
60
0
100
AcDbTrace
10
-38.720773
20
-6.175
30
0
11
-39.779107
21
-6.175
31
0
12
-39.24994
22
-3
32
0
13
-39.24994
23
-3
33
0
39
0
210
0
220
0
230
1
0
MTEXT
5
175
100
AcDbEntity
8
0
62
256
6
ByLayer
370
18
48
1
60
0
100
AcDbMText
10
-46.556441
20
17.10734
30
0
210
0
220
0
230
1
1
\A1;6
40
3.50012
41
0
44
1
50
90
71
5
72
5
7
iso_b_vert
0
POINT
5
176
100
AcDbEntity
8
Defpoints
62
0
6
ByLayer
370
-1
48
1
60
0
100
AcDbPoint
10
-36
20
3
30
0
39
0
210
0
220
0
230
1
50
360
0
POINT
5
177
100
AcDbEntity
8
Defpoints
62
0
6
ByLayer
370
-1
48
1
60
0
100
AcDbPoint
10
-36
20
-3
30
0
39
0
210
0
220
0
230
1
50
360
0
POINT
5
178
100
AcDbEntity
8
Defpoints
62
0
6
ByLayer
370
-1
48
1
60
0
100
AcDbPoint
10
-39.24994
20
-3
30
0
39
0
210
0
220
0
230
1
50
360
0
ENDBLK
5
16D
100
AcDbEntity
8
0
100
AcDbBlockEnd
0
BLOCK
5
184
100
AcDbEntity
8
0
100
AcDbBlockBegin
2
_U2
70
0
10
0
20
0
30
0
3
_U2
0
MTEXT
5
17A
100
AcDbEntity
8
SK2
62
256
6
ByLayer
370
18
48
1
60
0
100
AcDbMText
10
-39.939597
20
13.157505
30
0
210
0
220
0
230
1
1
\W0.7346;6.00
40
3.50012
41
0
44
1.084337
50
90
71
7
72
5
7
iso_b_vert
0
LINE
5
17B
100
AcDbEntity
8
SK2
62
256
6
ByLayer
370
13
48
1
60
0
100
AcDbLine
10
-37.5875
20
3
30
0
11
-42.42494
21
3
31
0
39
0
210
0
220
0
230
1
0
LINE
5
17C
100
AcDbEntity
8
SK2
62
256
6
ByLayer
370
13
48
1
60
0
100
AcDbLine
10
-37.5875
20
-3
30
0
11
-42.42494
21
-3
31
0
39
0
210
0
220
0
230
1
0
LINE
5
17D
100
AcDbEntity
8
SK2
62
256
6
ByLayer
370
13
48
1
60
0
100
AcDbLine
10
-39.24994
20
-11.7503
30
0
11
-39.24994
21
21.21468
31
0
39
0
210
0
220
0
230
1
0
LINE
5
17E
100
AcDbEntity
8
SK2
62
256
6
ByLayer
370
13
48
1
60
0
100
AcDbLine
10
-39.24994
20
3
30
0
11
-39.667937
21
6.174998
31
0
39
0
210
0
220
0
230
1
0
LINE
5
17F
100
AcDbEntity
8
SK2
62
256
6
ByLayer
370
13
48
1
60
0
100
AcDbLine
10
-39.24994
20
3
30
0
11
-38.831943
21
6.175002
31
0
39
0
210
0
220
0
230
1
0
LINE
5
180
100
AcDbEntity
8
SK2
62
256
6
ByLayer
370
13
48
1
60
0
100
AcDbLine
10
-39.667937
20
6.174998
30
0
11
-38.831943
21
6.175002
31
0
39
0
210
0
220
0
230
1
0
LINE
5
181
100
AcDbEntity
8
SK2
62
256
6
ByLayer
370
13
48
1
60
0
100
AcDbLine
10
-39.24994
20
-3
30
0
11
-38.831943
21
-6.174998
31
0
39
0
210
0
220
0
230
1
0
LINE
5
182
100
AcDbEntity
8
SK2
62
256
6
ByLayer
370
13
48
1
60
0
100
AcDbLine
10
-39.24994
20
-3
30
0
11
-39.667937
21
-6.175002
31
0
39
0
210
0
220
0
230
1
0
LINE
5
183
100
AcDbEntity
8
SK2
62
256
6
ByLayer
370
13
48
1
60
0
100
AcDbLine
10
-38.831943
20
-6.174998
30
0
11
-39.667937
21
-6.175002
31
0
39
0
210
0
220
0
230
1
0
ENDBLK
5
185
100
AcDbEntity
8
0
100
AcDbBlockEnd
0
BLOCK
5
18A
100
AcDbEntity
8
0
100
AcDbBlockBegin
2
*D8
70
1
10
0
20
0
30
0
3
*D8
0
LINE
5
18C
100
AcDbEntity
8
0
62
256
6
ByLayer
370
-2
48
1
60
0
100
AcDbLine
10
-36
20
-4.5875
30
0
11
-36
21
-29.67512
31
0
39
0
210
0
220
0
230
1
0
LINE
5
18D
100
AcDbEntity
8
0
62
256
6
ByLayer
370
-2
48
1
60
0
100
AcDbLine
10
0
20
-4.5875
30
0
11
0
21
-29.67512
31
0
39
0
210
0
220
0
230
1
0
LINE
5
18E
100
AcDbEntity
8
0
62
256
6
ByLayer
370
-2
48
1
60
0
100
AcDbLine
10
-32.825
20
-26.50012
30
0
11
-3.175
21
-26.50012
31
0
39
0
210
0
220
0
230
1
0
SOLID
5
18F
100
AcDbEntity
8
0
62
256
6
ByLayer
370
-1
48
1
60
0
100
AcDbTrace
10
-32.825
20
-25.970953
30
0
11
-32.825
21
-27.029287
31
0
12
-36
22
-26.50012
32
0
13
-36
23
-26.50012
33
0
39
0
210
0
220
0
230
1
0
SOLID
5
190
100
AcDbEntity
8
0
62
256
6
ByLayer
370
-1
48
1
60
0
100
AcDbTrace
10
-3.175
20
-27.029287
30
0
11
-3.175
21
-25.970953
31
0
12
0
22
-26.50012
32
0
13
0
23
-26.50012
33
0
39
0
210
0
220
0
230
1
0
MTEXT
5
191
100
AcDbEntity
8
0
62
256
6
ByLayer
370
18
48
1
60
0
100
AcDbMText
10
-18
20
-19.193619
30
0
210
0
220
0
230
1
1
\A1;36
40
3.50012
41
0
44
1
50
0
71
5
72
5
7
iso_b_vert
0
POINT
5
192
100
AcDbEntity
8
Defpoints
62
0
6
ByLayer
370
-1
48
1
60
0
100
AcDbPoint
10
-36
20
-3
30
0
39
0
210
0
220
0
230
1
50
360
0
POINT
5
193
100
AcDbEntity
8
Defpoints
62
0
6
ByLayer
370
-1
48
1
60
0
100
AcDbPoint
10
0
20
-3
30
0
39
0
210
0
220
0
230
1
50
360
0
POINT
5
194
100
AcDbEntity
8
Defpoints
62
0
6
ByLayer
370
-1
48
1
60
0
100
AcDbPoint
10
0
20
-26.50012
30
0
39
0
210
0
220
0
230
1
50
360
0
ENDBLK
5
18B
100
AcDbEntity
8
0
100
AcDbBlockEnd
0
BLOCK
5
1A0
100
AcDbEntity
8
0
100
AcDbBlockBegin
2
_U3
70
0
10
0
20
0
30
0
3
_U3
0
MTEXT
5
196
100
AcDbEntity
8
SK2
62
256
6
ByLayer
370
18
48
1
60
0
100
AcDbMText
10
-23.229611
20
-25.467451
30
0
210
0
220
0
230
1
1
\W0.7468;36.00
40
3.50012
41
0
44
1.084337
50
0
71
7
72
5
7
iso_b_vert
0
LINE
5
197
100
AcDbEntity
8
SK2
62
256
6
ByLayer
370
13
48
1
60
0
100
AcDbLine
10
-36
20
-4.5875
30
0
11
-36
21
-29.67512
31
0
39
0
210
0
220
0
230
1
0
LINE
5
198
100
AcDbEntity
8
SK2
62
256
6
ByLayer
370
13
48
1
60
0
100
AcDbLine
10
0
20
-4.5875
30
0
11
0
21
-29.67512
31
0
39
0
210
0
220
0
230
1
0
LINE
5
199
100
AcDbEntity
8
SK2
62
256
6
ByLayer
370
13
48
1
60
0
100
AcDbLine
10
-36
20
-26.50012
30
0
11
0
21
-26.50012
31
0
39
0
210
0
220
0
230
1
0
LINE
5
19A
100
AcDbEntity
8
SK2
62
256
6
ByLayer
370
13
48
1
60
0
100
AcDbLine
10
-36
20
-26.50012
30
0
11
-32.825002
21
-26.082123
31
0
39
0
210
0
220
0
230
1
0
LINE
5
19B
100
AcDbEntity
8
SK2
62
256
6
ByLayer
370
13
48
1
60
0
100
AcDbLine
10
-36
20
-26.50012
30
0
11
-32.824998
21
-26.918117
31
0
39
0
210
0
220
0
230
1
0
LINE
5
19C
100
AcDbEntity
8
SK2
62
256
6
ByLayer
370
13
48
1
60
0
100
AcDbLine
10
-32.825002
20
-26.082123
30
0
11
-32.824998
21
-26.918117
31
0
39
0
210
0
220
0
230
1
0
LINE
5
19D
100
AcDbEntity
8
SK2
62
256
6
ByLayer
370
13
48
1
60
0
100
AcDbLine
10
0
20
-26.50012
30
0
11
-3.174998
21
-26.918117
31
0
39
0
210
0
220
0
230
1
0
LINE
5
19E
100
AcDbEntity
8
SK2
62
256
6
ByLayer
370
13
48
1
60
0
100
AcDbLine
10
0
20
-26.50012
30
0
11
-3.175002
21
-26.082123
31
0
39
0
210
0
220
0
230
1
0
LINE
5
19F
100
AcDbEntity
8
SK2
62
256
6
ByLayer
370
13
48
1
60
0
100
AcDbLine
10
-3.174998
20
-26.918117
30
0
11
-3.175002
21
-26.082123
31
0
39
0
210
0
220
0
230
1
0
ENDBLK
5
1A1
100
AcDbEntity
8
0
100
AcDbBlockEnd
0
BLOCK
5
1A6
100
AcDbEntity
8
0
100
AcDbBlockBegin
2
*D10
70
1
10
0
20
0
30
0
3
*D10
0
LINE
5
1A8
100
AcDbEntity
8
0
62
256
6
ByLayer
370
-2
48
1
60
0
100
AcDbLine
10
2
20
0.6375
30
0
11
2
21
-20.92482
31
0
39
0
210
0
220
0
230
1
0
LINE
5
1A9
100
AcDbEntity
8
0
62
256
6
ByLayer
370
-2
48
1
60
0
100
AcDbLine
10
30
20
-1.5875
30
0
11
30
21
-20.92482
31
0
39
0
210
0
220
0
230
1
0
LINE
5
1AA
100
AcDbEntity
8
0
62
256
6
ByLayer
370
-2
48
1
60
0
100
AcDbLine
10
5.175
20
-17.74982
30
0
11
26.825
21
-17.74982
31
0
39
0
210
0
220
0
230
1
0
SOLID
5
1AB
100
AcDbEntity
8
0
62
256
6
ByLayer
370
-1
48
1
60
0
100
AcDbTrace
10
5.175
20
-17.220653
30
0
11
5.175
21
-18.278987
31
0
12
2
22
-17.74982
32
0
13
2
23
-17.74982
33
0
39
0
210
0
220
0
230
1
0
SOLID
5
1AC
100
AcDbEntity
8
0
62
256
6
ByLayer
370
-1
48
1
60
0
100
AcDbTrace
10
26.825
20
-18.278987
30
0
11
26.825
21
-17.220653
31
0
12
30
22
-17.74982
32
0
13
30
23
-17.74982
33
0
39
0
210
0
220
0
230
1
0
MTEXT
5
1AD
100
AcDbEntity
8
0
62
256
6
ByLayer
370
18
48
1
60
0
100
AcDbMText
10
16
20
-10.443319
30
0
210
0
220
0
230
1
1
\A1;28
40
3.50012
41
0
44
1
50
0
71
5
72
5
7
iso_b_vert
0
POINT
5
1AE
100
AcDbEntity
8
Defpoints
62
0
6
ByLayer
370
-1
48
1
60
0
100
AcDbPoint
10
2
20
2.225
30
0
39
0
210
0
220
0
230
1
50
360
0
POINT
5
1AF
100
AcDbEntity
8
Defpoints
62
0
6
ByLayer
370
-1
48
1
60
0
100
AcDbPoint
10
30
20
0
30
0
39
0
210
0
220
0
230
1
50
360
0
POINT
5
1B0
100
AcDbEntity
8
Defpoints
62
0
6
ByLayer
370
-1
48
1
60
0
100
AcDbPoint
10
30
20
-17.74982
30
0
39
0
210
0
220
0
230
1
50
360
0
ENDBLK
5
1A7
100
AcDbEntity
8
0
100
AcDbBlockEnd
0
BLOCK
5
1BC
100
AcDbEntity
8
0
100
AcDbBlockBegin
2
_U4
70
0
10
0
20
0
30
0
3
_U4
0
MTEXT
5
1B2
100
AcDbEntity
8
SK2
62
256
6
ByLayer
370
18
48
1
60
0
100
AcDbMText
10
10.770389
20
-16.717151
30
0
210
0
220
0
230
1
1
\W0.7468;28.00
40
3.50012
41
0
44
1.084337
50
0
71
7
72
5
7
iso_b_vert
0
LINE
5
1B3
100
AcDbEntity
8
SK2
62
256
6
ByLayer
370
13
48
1
60
0
100
AcDbLine
10
2
20
0.6375
30
0
11
2
21
-20.92482
31
0
39
0
210
0
220
0
230
1
0
LINE
5
1B4
100
AcDbEntity
8
SK2
62
256
6
ByLayer
370
13
48
1
60
0
100
AcDbLine
10
30
20
-1.5875
30
0
11
30
21
-20.92482
31
0
39
0
210
0
220
0
230
1
0
LINE
5
1B5
100
AcDbEntity
8
SK2
62
256
6
ByLayer
370
13
48
1
60
0
100
AcDbLine
10
2
20
-17.74982
30
0
11
30
21
-17.74982
31
0
39
0
210
0
220
0
230
1
0
LINE
5
1B6
100
AcDbEntity
8
SK2
62
256
6
ByLayer
370
13
48
1
60
0
100
AcDbLine
10
2
20
-17.74982
30
0
11
5.174998
21
-17.331823
31
0
39
0
210
0
220
0
230
1
0
LINE
5
1B7
100
AcDbEntity
8
SK2
62
256
6
ByLayer
370
13
48
1
60
0
100
AcDbLine
10
2
20
-17.74982
30
0
11
5.175002
21
-18.167817
31
0
39
0
210
0
220
0
230
1
0
LINE
5
1B8
100
AcDbEntity
8
SK2
62
256
6
ByLayer
370
13
48
1
60
0
100
AcDbLine
10
5.174998
20
-17.331823
30
0
11
5.175002
21
-18.167817
31
0
39
0
210
0
220
0
230
1
0
LINE
5
1B9
100
AcDbEntity
8
SK2
62
256
6
ByLayer
370
13
48
1
60
0
100
AcDbLine
10
30
20
-17.74982
30
0
11
26.825002
21
-18.167817
31
0
39
0
210
0
220
0
230
1
0
LINE
5
1BA
100
AcDbEntity
8
SK2
62
256
6
ByLayer
370
13
48
1
60
0
100
AcDbLine
10
30
20
-17.74982
30
0
11
26.824998
21
-17.331823
31
0
39
0
210
0
220
0
230
1
0
LINE
5
1BB
100
AcDbEntity
8
SK2
62
256
6
ByLayer
370
13
48
1
60
0
100
AcDbLine
10
26.825002
20
-18.167817
30
0
11
26.824998
21
-17.331823
31
0
39
0
210
0
220
0
230
1
0
ENDBLK
5
1BD
100
AcDbEntity
8
0
100
AcDbBlockEnd
0
BLOCK
5
1C2
100
AcDbEntity
8
0
100
AcDbBlockBegin
2
*D12
70
1
10
0
20
0
30
0
3
*D12
0
LINE
5
1C4
100
AcDbEntity
8
0
62
256
6
ByLayer
370
-2
48
1
60
0
100
AcDbLine
10
12.2
20
-3.3125
30
0
11
12.2
21
-10.32
31
0
39
0
210
0
220
0
230
1
0
LINE
5
1C5
100
AcDbEntity
8
0
62
256
6
ByLayer
370
-2
48
1
60
0
100
AcDbLine
10
30
20
-1.5875
30
0
11
30
21
-10.32
31
0
39
0
210
0
220
0
230
1
0
LINE
5
1C6
100
AcDbEntity
8
0
62
256
6
ByLayer
370
-2
48
1
60
0
100
AcDbLine
10
15.375
20
-9.82
30
0
11
26.825
21
-9.82
31
0
39
0
210
0
220
0
230
1
0
SOLID
5
1C7
100
AcDbEntity
8
0
62
256
6
ByLayer
370
-1
48
1
60
0
100
AcDbTrace
10
15.375
20
-9.290833
30
0
11
15.375
21
-10.349167
31
0
12
12.2
22
-9.82
32
0
13
12.2
23
-9.82
33
0
39
0
210
0
220
0
230
1
0
SOLID
5
1C8
100
AcDbEntity
8
0
62
256
6
ByLayer
370
-1
48
1
60
0
100
AcDbTrace
10
26.825
20
-10.349167
30
0
11
26.825
21
-9.290833
31
0
12
30
22
-9.82
32
0
13
30
23
-9.82
33
0
39
0
210
0
220
0
230
1
0
MTEXT
5
1C9
100
AcDbEntity
8
0
62
256
6
ByLayer
370
18
48
1
60
0
100
AcDbMText
10
21.1
20
-3.975
30
0
210
0
220
0
230
1
1
\A1;17.8
40
2.8
41
0
44
1
50
0
71
5
72
5
7
iso_b_vert
0
POINT
5
1CA
100
AcDbEntity
8
Defpoints
62
0
6
ByLayer
370
-1
48
1
60
0
100
AcDbPoint
10
12.2
20
-1.725
30
0
39
0
210
0
220
0
230
1
50
360
0
POINT
5
1CB
100
AcDbEntity
8
Defpoints
62
0
6
ByLayer
370
-1
48
1
60
0
100
AcDbPoint
10
30
20
0
30
0
39
0
210
0
220
0
230
1
50
360
0
POINT
5
1CC
100
AcDbEntity
8
Defpoints
62
0
6
ByLayer
370
-1
48
1
60
0
100
AcDbPoint
10
30
20
-9.82
30
0
39
0
210
0
220
0
230
1
50
360
0
ENDBLK
5
1C3
100
AcDbEntity
8
0
100
AcDbBlockEnd
0
BLOCK
5
1D8
100
AcDbEntity
8
0
100
AcDbBlockBegin
2
_U5
70
0
10
0
20
0
30
0
3
_U5
0
MTEXT
5
1CE
100
AcDbEntity
8
SK2
62
256
6
ByLayer
370
18
48
1
60
0
100
AcDbMText
10
17.266401
20
-9.973893
30
0
210
0
220
0
230
1
1
\W0.6864;17.80
40
2.8
41
0
44
1.084337
50
0
71
7
72
5
7
iso_b_vert
0
LINE
5
1CF
100
AcDbEntity
8
SK2
62
256
6
ByLayer
370
13
48
1
60
0
100
AcDbLine
10
12.2
20
-3.3125
30
0
11
12.2
21
-10.32
31
0
39
0
210
0
220
0
230
1
0
LINE
5
1D0
100
AcDbEntity
8
SK2
62
256
6
ByLayer
370
13
48
1
60
0
100
AcDbLine
10
30
20
-1.5875
30
0
11
30
21
-10.32
31
0
39
0
210
0
220
0
230
1
0
LINE
5
1D1
100
AcDbEntity
8
SK2
62
256
6
ByLayer
370
13
48
1
60
0
100
AcDbLine
10
12.2
20
-9.82
30
0
11
30
21
-9.82
31
0
39
0
210
0
220
0
230
1
0
LINE
5
1D2
100
AcDbEntity
8
SK2
62
256
6
ByLayer
370
13
48
1
60
0
100
AcDbLine
10
12.2
20
-9.82
30
0
11
15.374998
21
-9.402003
31
0
39
0
210
0
220
0
230
1
0
LINE
5
1D3
100
AcDbEntity
8
SK2
62
256
6
ByLayer
370
13
48
1
60
0
100
AcDbLine
10
12.2
20
-9.82
30
0
11
15.375002
21
-10.237997
31
0
39
0
210
0
220
0
230
1
0
LINE
5
1D4
100
AcDbEntity
8
SK2
62
256
6
ByLayer
370
13
48
1
60
0
100
AcDbLine
10
15.374998
20
-9.402003
30
0
11
15.375002
21
-10.237997
31
0
39
0
210
0
220
0
230
1
0
LINE
5
1D5
100
AcDbEntity
8
SK2
62
256
6
ByLayer
370
13
48
1
60
0
100
AcDbLine
10
30
20
-9.82
30
0
11
26.825002
21
-10.237997
31
0
39
0
210
0
220
0
230
1
0
LINE
5
1D6
100
AcDbEntity
8
SK2
62
256
6
ByLayer
370
13
48
1
60
0
100
AcDbLine
10
30
20
-9.82
30
0
11
26.824998
21
-9.402003
31
0
39
0
210
0
220
0
230
1
0
LINE
5
1D7
100
AcDbEntity
8
SK2
62
256
6
ByLayer
370
13
48
1
60
0
100
AcDbLine
10
26.825002
20
-10.237997
30
0
11
26.824998
21
-9.402003
31
0
39
0
210
0
220
0
230
1
0
ENDBLK
5
1D9
100
AcDbEntity
8
0
100
AcDbBlockEnd
0
BLOCK
5
1DE
100
AcDbEntity
8
0
100
AcDbBlockBegin
2
*D14
70
1
10
0
20
0
30
0
3
*D14
0
LINE
5
1E0
100
AcDbEntity
8
0
62
256
6
ByLayer
370
-2
48
1
60
0
100
AcDbLine
10
-36
20
-1.5875
30
0
11
-36
21
-39.67512
31
0
39
0
210
0
220
0
230
1
0
LINE
5
1E1
100
AcDbEntity
8
0
62
256
6
ByLayer
370
-2
48
1
60
0
100
AcDbLine
10
30
20
-1.5875
30
0
11
30
21
-39.67512
31
0
39
0
210
0
220
0
230
1
0
LINE
5
1E2
100
AcDbEntity
8
0
62
256
6
ByLayer
370
-2
48
1
60
0
100
AcDbLine
10
-32.825
20
-36.50012
30
0
11
26.825
21
-36.50012
31
0
39
0
210
0
220
0
230
1
0
SOLID
5
1E3
100
AcDbEntity
8
0
62
256
6
ByLayer
370
-1
48
1
60
0
100
AcDbTrace
10
-32.825
20
-35.970953
30
0
11
-32.825
21
-37.029287
31
0
12
-36
22
-36.50012
32
0
13
-36
23
-36.50012
33
0
39
0
210
0
220
0
230
1
0
SOLID
5
1E4
100
AcDbEntity
8
0
62
256
6
ByLayer
370
-1
48
1
60
0
100
AcDbTrace
10
26.825
20
-37.029287
30
0
11
26.825
21
-35.970953
31
0
12
30
22
-36.50012
32
0
13
30
23
-36.50012
33
0
39
0
210
0
220
0
230
1
0
MTEXT
5
1E5
100
AcDbEntity
8
0
62
256
6
ByLayer
370
18
48
1
60
0
100
AcDbMText
10
-3
20
-29.19362
30
0
210
0
220
0
230
1
1
\A1;66
40
3.50012
41
0
44
1
50
0
71
5
72
5
7
iso_b_vert
0
POINT
5
1E6
100
AcDbEntity
8
Defpoints
62
0
6
ByLayer
370
-1
48
1
60
0
100
AcDbPoint
10
-36
20
0
30
0
39
0
210
0
220
0
230
1
50
360
0
POINT
5
1E7
100
AcDbEntity
8
Defpoints
62
0
6
ByLayer
370
-1
48
1
60
0
100
AcDbPoint
10
30
20
0
30
0
39
0
210
0
220
0
230
1
50
360
0
POINT
5
1E8
100
AcDbEntity
8
Defpoints
62
0
6
ByLayer
370
-1
48
1
60
0
100
AcDbPoint
10
30
20
-36.50012
30
0
39
0
210
0
220
0
230
1
50
360
0
ENDBLK
5
1DF
100
AcDbEntity
8
0
100
AcDbBlockEnd
0
BLOCK
5
1F4
100
AcDbEntity
8
0
100
AcDbBlockBegin
2
_U6
70
0
10
0
20
0
30
0
3
_U6
0
MTEXT
5
1EA
100
AcDbEntity
8
SK2
62
256
6
ByLayer
370
18
48
1
60
0
100
AcDbMText
10
-8.229611
20
-35.467451
30
0
210
0
220
0
230
1
1
\W0.7468;66.00
40
3.50012
41
0
44
1.084337
50
0
71
7
72
5
7
iso_b_vert
0
LINE
5
1EB
100
AcDbEntity
8
SK2
62
256
6
ByLayer
370
13
48
1
60
0
100
AcDbLine
10
-36
20
-1.5875
30
0
11
-36
21
-39.67512
31
0
39
0
210
0
220
0
230
1
0
LINE
5
1EC
100
AcDbEntity
8
SK2
62
256
6
ByLayer
370
13
48
1
60
0
100
AcDbLine
10
30
20
-1.5875
30
0
11
30
21
-39.67512
31
0
39
0
210
0
220
0
230
1
0
LINE
5
1ED
100
AcDbEntity
8
SK2
62
256
6
ByLayer
370
13
48
1
60
0
100
AcDbLine
10
-36
20
-36.50012
30
0
11
30
21
-36.50012
31
0
39
0
210
0
220
0
230
1
0
LINE
5
1EE
100
AcDbEntity
8
SK2
62
256
6
ByLayer
370
13
48
1
60
0
100
AcDbLine
10
-36
20
-36.50012
30
0
11
-32.825002
21
-36.082123
31
0
39
0
210
0
220
0
230
1
0
LINE
5
1EF
100
AcDbEntity
8
SK2
62
256
6
ByLayer
370
13
48
1
60
0
100
AcDbLine
10
-36
20
-36.50012
30
0
11
-32.824998
21
-36.918117
31
0
39
0
210
0
220
0
230
1
0
LINE
5
1F0
100
AcDbEntity
8
SK2
62
256
6
ByLayer
370
13
48
1
60
0
100
AcDbLine
10
-32.825002
20
-36.082123
30
0
11
-32.824998
21
-36.918117
31
0
39
0
210
0
220
0
230
1
0
LINE
5
1F1
100
AcDbEntity
8
SK2
62
256
6
ByLayer
370
13
48
1
60
0
100
AcDbLine
10
30
20
-36.50012
30
0
11
26.825002
21
-36.918117
31
0
39
0
210
0
220
0
230
1
0
LINE
5
1F2
100
AcDbEntity
8
SK2
62
256
6
ByLayer
370
13
48
1
60
0
100
AcDbLine
10
30
20
-36.50012
30
0
11
26.824998
21
-36.082123
31
0
39
0
210
0
220
0
230
1
0
LINE
5
1F3
100
AcDbEntity
8
SK2
62
256
6
ByLayer
370
13
48
1
60
0
100
AcDbLine
10
26.825002
20
-36.918117
30
0
11
26.824998
21
-36.082123
31
0
39
0
210
0
220
0
230
1
0
ENDBLK
5
1F5
100
AcDbEntity
8
0
100
AcDbBlockEnd
0
ENDSEC
0
SECTION
2
ENTITIES
0
ARC
5
B4
100
AcDbEntity
8
1
62
256
6
ByLayer
370
18
48
1
60
0
100
AcDbCircle
39
0
10
1.570149
20
2.507623
30
0
40
0.799999999999995
210
0
220
0
230
1
100
AcDbArc
50
191.084945
51
270.03581
0
ARC
5
B5
100
AcDbEntity
8
1
62
256
6
ByLayer
370
18
48
1
60
0
100
AcDbCircle
39
0
10
1.570149
20
-2.507623
30
0
40
0.799999999999995
210
0
220
0
230
1
100
AcDbArc
50
89.96419
51
168.915055
0
ARC
5
B6
100
AcDbEntity
8
1
62
256
6
ByLayer
370
18
48
1
60
0
100
AcDbCircle
39
0
10
0
20
2.2
30
0
40
0.800000000000005
210
0
220
0
230
1
100
AcDbArc
50
11.084945
51
90
0
ARC
5
B7
100
AcDbEntity
8
1
62
256
6
ByLayer
370
18
48
1
60
0
100
AcDbCircle
39
0
10
0
20
-2.2
30
0
40
0.800000000000005
210
0
220
0
230
1
100
AcDbArc
50
270
51
348.915055
0
ARC
5
B8
100
AcDbEntity
8
SK2
62
256
6
ByLayer
370
13
48
1
60
0
100
AcDbCircle
39
0
10
30
20
0
30
0
40
20
210
0
220
0
230
1
100
AcDbArc
50
9.606349
51
70.001427
0
ARC
5
B9
100
AcDbEntity
8
SK2
62
256
6
ByLayer
370
13
48
1
60
0
100
AcDbCircle
39
0
10
30
20
0
30
0
40
20
210
0
220
0
230
1
100
AcDbArc
50
289.998573
51
350.393651
0
ELLIPSE
5
BA
100
AcDbEntity
8
1
62
256
6
ByLayer
370
18
48
1
60
0
100
AcDbEllipse
10
3.602043
20
-1.722924
30
0
11
-0.1
21
1.22460635382238E-17
31
0
210
0
220
0
230
1
40
1
41
-1.55611480063745
42
-0.000367558738328393
0
ELLIPSE
5
BB
100
AcDbEntity
8
1
62
256
6
ByLayer
370
18
48
1
60
0
100
AcDbEllipse
10
3.602043
20
1.722924
30
0
11
-0.1
21
1.22460635382238E-17
31
0
210
0
220
0
230
1
40
1
41
0.000367558738323952
42
0.959697792128108
0
POINT
5
70
100
AcDbEntity
8
80
62
256
6
ByLayer
370
18
48
1
60
0
100
AcDbPoint
10
0
20
0
30
0
39
0
210
0
220
0
230
1
50
360
0
POINT
5
72
100
AcDbEntity
8
81
62
256
6
ByLayer
370
18
48
1
60
0
100
AcDbPoint
10
30
20
0
30
0
39
0
210
0
220
0
230
1
50
360
0
POINT
5
74
100
AcDbEntity
8
1
62
256
6
ByLayer
370
18
48
1
60
0
100
AcDbPoint
10
-36
20
0
30
0
39
0
210
0
220
0
230
1
50
360
0
POINT
5
76
100
AcDbEntity
8
1
62
256
6
ByLayer
370
18
48
1
60
1
100
AcDbPoint
10
0
20
-3
30
0
39
0
210
0
220
0
230
1
50
360
0
POINT
5
77
100
AcDbEntity
8
1
62
256
6
ByLayer
370
18
48
1
60
1
100
AcDbPoint
10
30
20
0
30
0
39
0
210
0
220
0
230
1
50
360
0
POINT
5
78
100
AcDbEntity
8
1
62
256
6
ByLayer
370
18
48
1
60
1
100
AcDbPoint
10
29.3722
20
-1.725
30
0
39
0
210
0
220
0
230
1
50
360
0
POINT
5
79
100
AcDbEntity
8
1
62
256
6
ByLayer
370
18
48
1
60
1
100
AcDbPoint
10
29.3722
20
1.725
30
0
39
0
210
0
220
0
230
1
50
360
0
POINT
5
7A
100
AcDbEntity
8
1
62
256
6
ByLayer
370
18
48
1
60
1
100
AcDbPoint
10
-36
20
3
30
0
39
0
210
0
220
0
230
1
50
360
0
POINT
5
7B
100
AcDbEntity
8
1
62
256
6
ByLayer
370
18
48
1
60
1
100
AcDbPoint
10
-36
20
-3
30
0
39
0
210
0
220
0
230
1
50
360
0
POINT
5
7C
100
AcDbEntity
8
1
62
256
6
ByLayer
370
18
48
1
60
1
100
AcDbPoint
10
-36
20
-3
30
0
39
0
210
0
220
0
230
1
50
360
0
POINT
5
7D
100
AcDbEntity
8
1
62
256
6
ByLayer
370
18
48
1
60
1
100
AcDbPoint
10
0
20
-3
30
0
39
0
210
0
220
0
230
1
50
360
0
POINT
5
7E
100
AcDbEntity
8
1
62
256
6
ByLayer
370
18
48
1
60
1
100
AcDbPoint
10
2
20
2.225
30
0
39
0
210
0
220
0
230
1
50
360
0
POINT
5
7F
100
AcDbEntity
8
1
62
256
6
ByLayer
370
18
48
1
60
1
100
AcDbPoint
10
30
20
0
30
0
39
0
210
0
220
0
230
1
50
360
0
POINT
5
80
100
AcDbEntity
8
1
62
256
6
ByLayer
370
18
48
1
60
1
100
AcDbPoint
10
12.2
20
-1.725
30
0
39
0
210
0
220
0
230
1
50
360
0
POINT
5
81
100
AcDbEntity
8
1
62
256
6
ByLayer
370
18
48
1
60
1
100
AcDbPoint
10
30
20
0
30
0
39
0
210
0
220
0
230
1
50
360
0
POINT
5
82
100
AcDbEntity
8
1
62
256
6
ByLayer
370
18
48
1
60
1
100
AcDbPoint
10
-36
20
0
30
0
39
0
210
0
220
0
230
1
50
360
0
POINT
5
83
100
AcDbEntity
8
1
62
256
6
ByLayer
370
18
48
1
60
1
100
AcDbPoint
10
30
20
0
30
0
39
0
210
0
220
0
230
1
50
360
0
SPLINE
5
BC
100
AcDbEntity
8
1
62
256
6
ByLayer
370
18
48
1
60
0
100
AcDbSpline
70
4
71
3
72
8
73
4
40
0
40
0
40
0
40
0
40
1
40
1
40
1
40
1
41
1
10
29.1494918535862
20
-0.118290160078033
30
0
41
1
10
29.1616758862623
20
-0.123813552859161
30
0
41
1
10
29.1738031482366
20
-0.128973791647894
30
0
41
1
10
29.1858815886946
20
-0.133778437773032
30
0
0
SPLINE
5
BD
100
AcDbEntity
8
1
62
256
6
ByLayer
370
18
48
1
60
0
100
AcDbSpline
70
4
71
3
72
16
73
12
40
0
40
0
40
0
40
0
40
0.120930642333116
40
0.120930642333116
40
0.340697981749837
40
0.340697981749837
40
0.560465321166558
40
0.560465321166558
40
0.780232660583279
40
0.780232660583279
40
1
40
1
40
1
40
1
41
1
10
29.2211847341163
20
0.329305170166464
30
0
41
1
10
29.2302509115428
20
0.334458383941637
30
0
41
1
10
29.2399908606741
20
0.340066842639175
30
0
41
1
10
29.2691768087244
20
0.357004241268584
30
0
41
1
10
29.2905013866856
20
0.369182266083413
30
0
41
1
10
29.3360751208953
20
0.394314986422188
30
0
41
1
10
29.3605379460868
20
0.407584503703163
30
0
41
1
10
29.4135950395851
20
0.43290837051515
30
0
41
1
10
29.4413464857728
20
0.44441584254514
30
0
41
1
10
29.4996201884179
20
0.463537531846868
30
0
41
1
10
29.530299226764
20
0.471341632023353
30
0
41
1
10
29.5613851677933
20
0.476714640335388
30
0
0
SPLINE
5
BE
100
AcDbEntity
8
1
62
256
6
ByLayer
370
18
48
1
60
0
100
AcDbSpline
70
4
71
3
72
36
73
32
40
0
40
0
40
0
40
0
40
0.0628184055642977
40
0.0628184055642977
40
0.170114929666341
40
0.170114929666341
40
0.277411453768383
40
0.277411453768383
40
0.384707977870426
40
0.384707977870426
40
0.492004501972469
40
0.492004501972469
40
0.545652764023491
40
0.545652764023491
40
0.599301026074512
40
0.599301026074512
40
0.652949288125533
40
0.652949288125533
40
0.706597550176554
40
0.706597550176554
40
0.760245812227576
40
0.760245812227576
40
0.813894074278597
40
0.813894074278597
40
0.867542336329619
40
0.867542336329619
40
0.92119059838064
40
0.92119059838064
40
0.974838860431662
40
0.974838860431662
40
1
40
1
40
1
40
1
41
1
10
15.1634135195795
20
1.63248988930056
30
0
41
1
10
15.3190350823559
20
1.64163931483043
30
0
41
1
10
15.4740771467635
20
1.64361182739705
30
0
41
1
10
15.8940759851076
20
1.62834232874277
30
0
41
1
10
16.1583492986688
20
1.59884340560137
30
0
41
1
10
16.6924885369485
20
1.4964994230875
30
0
41
1
10
16.9614761147699
20
1.42523580087968
30
0
41
1
10
17.4977993143131
20
1.24647351151637
30
-1E-16
41
1
10
17.7628451532362
20
1.14089603961287
30
-1E-16
41
1
10
18.2926275058289
20
0.903276870442767
30
-1E-16
41
1
10
18.5568321195455
20
0.77165830641411
30
0
41
1
10
18.9567474660864
20
0.56006977420023
30
0
41
1
10
19.0909328748755
20
0.486881658392974
30
0
41
1
10
19.3584356349001
20
0.33827735133616
30
0
41
1
10
19.4915418817843
20
0.263142735929961
30
0
41
1
10
19.7570282149024
20
0.112168346712394
30
0
41
1
10
19.8892566854069
20
0.0360286696748631
30
0
41
1
10
20.1535898012575
20
-0.11588914501678
30
0
41
1
10
20.2858276450019
20
-0.191402112090714
30
0
41
1
10
20.5507375686955
20
-0.341088016481024
30
0
41
1
10
20.6832187696718
20
-0.415620162100623
30
0
41
1
10
20.9493733276923
20
-0.56198167749551
30
0
41
1
10
21.083791531806
20
-0.633607972867537
30
0
41
1
10
21.3515148638379
20
-0.771958518139542
30
0
41
1
10
21.4845568921406
20
-0.839155328149417
30
1E-16
41
1
10
21.7499662995041
20
-0.967225531738194
30
1E-16
41
1
10
21.8824852154893
20
-1.02740272873004
30
1E-16
41
1
10
22.1473079790715
20
-1.14125974665896
30
1E-16
41
1
10
22.2794310871164
20
-1.19545875539257
30
1E-16
41
1
10
22.4739744393647
20
-1.269181775617
30
1E-16
41
1
10
22.5362158749925
20
-1.29164712257341
30
1E-16
41
1
10
22.5985788609419
20
-1.31312169643982
30
0
0
SPLINE
5
BF
100
AcDbEntity
8
1
62
256
6
ByLayer
370
18
48
1
60
0
100
AcDbSpline
70
4
71
3
72
8
73
4
40
0
40
0
40
0
40
0
40
1
40
1
40
1
40
1
41
1
10
29.6530595157625
20
-0.268138439862497
30
0
41
1
10
29.6570240497336
20
-0.277978879060072
30
0
41
1
10
29.6712243156344
20
-0.293537690527472
30
0
41
1
10
29.6875821665498
20
-0.310056334976849
30
0
0
SPLINE
5
C0
100
AcDbEntity
8
1
62
256
6
ByLayer
370
18
48
1
60
0
100
AcDbSpline
70
4
71
3
72
32
73
28
40
0
40
0
40
0
40
0
40
0.0624492567622325
40
0.0624492567622325
40
0.124898513524465
40
0.124898513524465
40
0.249797027048929
40
0.249797027048929
40
0.312246283811163
40
0.312246283811163
40
0.374695540573398
40
0.374695540573398
40
0.499594054097867
40
0.499594054097867
40
0.624492567622336
40
0.624492567622336
40
0.686941824384572
40
0.686941824384572
40
0.749391081146807
40
0.749391081146807
40
0.874289594671281
40
0.874289594671281
40
0.936738851433519
40
0.936738851433519
40
0.999188108195758
40
0.999188108195758
40
1
40
1
40
1
40
1
41
1
10
29.3685019733108
20
-1.63462519187695
30
0
41
1
10
29.2334287143928
20
-1.6244175617407
30
0
41
1
10
29.0980440786137
20
-1.60879204849266
30
0
41
1
10
28.8290200613516
20
-1.56710018595314
30
0
41
1
10
28.695111279764
20
-1.54099891173931
30
0
41
1
10
28.2943890091405
20
-1.4481581557277
30
0
41
1
10
28.0286413965085
20
-1.36699418516514
30
0
41
1
10
27.6280786751752
20
-1.21971277334046
30
1E-16
41
1
10
27.4941832578325
20
-1.16640709898255
30
1E-16
41
1
10
27.2251318520387
20
-1.05192798456983
30
1E-16
41
1
10
27.0895135123281
20
-0.990459363786215
30
1E-16
41
1
10
26.6854991932541
20
-0.798038176151891
30
0
41
1
10
26.4187482301038
20
-0.659014630336571
30
0
41
1
10
25.8858368193294
20
-0.367639604402512
30
0
41
1
10
25.6195159135463
20
-0.215463780178283
30
0
41
1
10
25.2166707669362
20
0.0164514969977176
30
0
41
1
10
25.0812301118938
20
0.0945925414631574
30
0
41
1
10
24.8114555864091
20
0.248874317818149
30
0
41
1
10
24.6772294318892
20
0.324969110278431
30
0
41
1
10
24.2755033205141
20
0.548437244350623
30
0
41
1
10
24.0089095830465
20
0.691001134943633
30
0
41
1
10
23.6078961146596
20
0.890343983956996
30
-1E-16
41
1
10
23.4739492498737
20
0.954237484781629
30
-1E-16
41
1
10
23.2047854838775
20
1.07581278593634
30
-1E-16
41
1
10
23.0690844739641
20
1.13367661725576
30
-1E-16
41
1
10
22.9326180799631
20
1.18784286393753
30
-1E-16
41
1
10
22.9308667802577
20
1.18853732693208
30
0
41
1
10
22.9291155860201
20
1.18923108419742
30
0
0
SPLINE
5
C1
100
AcDbEntity
8
1
62
256
6
ByLayer
370
18
48
1
60
0
100
AcDbSpline
70
4
71
3
72
14
73
10
40
0
40
0
40
0
40
0
40
0.0559417622704873
40
0.0559417622704873
40
0.386958040603449
40
0.386958040603449
40
0.717974318936413
40
0.717974318936413
40
1
40
1
40
1
40
1
41
1
10
21.3959605172141
20
1.60177052512483
30
0
41
1
10
21.3732224407804
20
1.6046887672089
30
0
41
1
10
21.3504676938358
20
1.60745625042608
30
0
41
1
10
21.1929436274045
20
1.62554690124645
30
0
41
1
10
21.0572640172051
20
1.63577998958044
30
0
41
1
10
20.7879959807247
20
1.64536738124471
30
0
41
1
10
20.6539444423908
20
1.64474063137357
30
0
41
1
10
20.4062921782941
20
1.63333791181867
30
0
41
1
10
20.2925522296678
20
1.62431057933554
30
0
41
1
10
20.1788063780536
20
1.61148648261991
30
0
0
SPLINE
5
C2
100
AcDbEntity
8
1
62
256
6
ByLayer
370
18
48
1
60
0
100
AcDbSpline
70
4
71
3
72
30
73
26
40
0
40
0
40
0
40
0
40
0.0341479237586165
40
0.0341479237586165
40
0.149316402139431
40
0.149316402139431
40
0.20690064132984
40
0.20690064132984
40
0.264484880520248
40
0.264484880520248
40
0.379653358901065
40
0.379653358901065
40
0.437237598091475
40
0.437237598091475
40
0.494821837281884
40
0.494821837281884
40
0.609990315662706
40
0.609990315662706
40
0.667574554853117
40
0.667574554853117
40
0.725158794043527
40
0.725158794043527
40
0.95549575080517
40
0.95549575080517
40
1
40
1
40
1
40
1
41
1
10
11.8983501487195
20
-1.63550331779516
30
0
41
1
10
11.8191303316085
20
-1.63792621024129
30
0
41
1
10
11.7399286716013
20
-1.63844440465118
30
0
41
1
10
11.3933413478574
20
-1.6321650399567
30
0
41
1
10
11.1258948547811
20
-1.60655991026289
30
0
41
1
10
10.7196958948329
20
-1.53523588802963
30
0
41
1
10
10.5845123493286
20
-1.50634693717581
30
0
41
1
10
10.3157598462454
20
-1.43929341452542
30
0
41
1
10
10.1818463479273
20
-1.40093395195012
30
0
41
1
10
9.78048640786608
20
-1.27268536613585
30
1E-16
41
1
10
9.5138594712399
20
-1.16986163800544
30
1E-16
41
1
10
9.11066800662738
20
-0.993389036006079
30
1E-16
41
1
10
8.97580287066393
20
-0.930874723879697
30
1E-16
41
1
10
8.70484133783793
20
-0.799424434579464
30
0
41
1
10
8.57012652416216
20
-0.73119086743165
30
0
41
1
10
8.16723865406072
20
-0.520835914242156
30
0
41
1
10
7.90068605517632
20
-0.372618899109284
30
0
41
1
10
7.49955471562254
20
-0.145603559109077
30
0
41
1
10
7.36564331518903
20
-0.0691438139031675
30
0
41
1
10
7.09680903341794
20
0.0842967730278872
30
0
41
1
10
6.96157180955723
20
0.161451734812943
30
0
41
1
10
6.28466996970445
20
0.543599853104723
30
0
41
1
10
5.75500905201534
20
0.829357350661269
30
-1E-16
41
1
10
5.11271025661623
20
1.10747604859011
30
-1E-16
41
1
10
5.00813088132202
20
1.15063695499867
30
-1E-16
41
1
10
4.90351861038403
20
1.19142555892435
30
-1E-16
0
SPLINE
5
C3
100
AcDbEntity
8
1
62
256
6
ByLayer
370
18
48
1
60
0
100
AcDbSpline
70
4
71
3
72
10
73
6
40
0
40
0
40
0
40
0
40
0.607801522087159
40
0.607801522087159
40
1
40
1
40
1
40
1
41
1
10
3.50302905869449
20
1.66026426493488
30
0
41
1
10
3.50303197452939
20
1.68017611505058
30
0
41
1
10
3.50303463293983
20
1.69402163573599
30
0
41
1
10
3.50303864813242
20
1.70657382480695
30
0
41
1
10
3.50304013920012
20
1.70896595970052
30
0
41
1
10
3.50304157133843
20
1.70883034055214
30
0
0
SPLINE
5
C4
100
AcDbEntity
8
1
62
256
6
ByLayer
370
18
48
1
60
0
100
AcDbSpline
70
4
71
3
72
10
73
6
40
0
40
0
40
0
40
0
40
0.726125232146933
40
0.726125232146933
40
1
40
1
40
1
40
1
41
1
10
29.3815010113348
20
1.62421004965685
30
0
41
1
10
29.3816130346927
20
1.62439063498829
30
0
41
1
10
29.3816645461387
20
1.62476373138287
30
0
41
1
10
29.3816235149288
20
1.62556812211454
30
0
41
1
10
29.3816005525862
20
1.62582078949319
30
0
41
1
10
29.3815650015513
20
1.62610409910968
30
0
0
SPLINE
5
C5
100
AcDbEntity
8
1
62
256
6
ByLayer
370
18
48
1
60
0
100
AcDbSpline
70
4
71
3
72
8
73
4
40
0
40
0
40
0
40
0
40
1
40
1
40
1
40
1
41
1
10
29.6513932061208
20
-0.260004558616231
30
0
41
1
10
29.5590868811808
20
-0.107124234974549
30
0
41
1
10
29.4477274478025
20
0.0631618768898363
30
0
41
1
10
29.3148918671874
20
0.25306732130835
30
0
0
SPLINE
5
C6
100
AcDbEntity
8
1
62
256
6
ByLayer
370
18
48
1
60
0
100
AcDbSpline
70
4
71
3
72
38
73
34
40
0
40
0
40
0
40
0
40
0.0310126343245018
40
0.0310126343245018
40
0.113057381952696
40
0.113057381952696
40
0.154079755766795
40
0.154079755766795
40
0.195102129580893
40
0.195102129580893
40
0.277146877209089
40
0.277146877209089
40
0.318169251023188
40
0.318169251023188
40
0.359191624837287
40
0.359191624837287
40
0.523281120093682
40
0.523281120093682
40
0.564303493907781
40
0.564303493907781
40
0.60532586772188
40
0.60532586772188
40
0.687370615350075
40
0.687370615350075
40
0.728392989164173
40
0.728392989164173
40
0.769415362978271
40
0.769415362978271
40
0.851460110606466
40
0.851460110606466
40
0.933504858234661
40
0.933504858234661
40
1
40
1
40
1
40
1
41
1
10
21.5320974764719
20
-1.65537962453436
30
0
41
1
10
21.4308932560624
20
-1.6718271554216
30
0
41
1
10
21.3299814451713
20
-1.68513366017916
30
0
41
1
10
20.9626183910086
20
-1.7221161271537
30
0
41
1
10
20.696863138907
20
-1.72682059223123
30
0
41
1
10
20.2957207763653
20
-1.70019454342429
30
0
41
1
10
20.1615419204113
20
-1.68570480723236
30
0
41
1
10
19.8915576298843
20
-1.64541974618189
30
0
41
1
10
19.7570253307697
20
-1.61980342460245
30
0
41
1
10
19.3554410453307
20
-1.52775304088721
30
0
41
1
10
19.0896995040929
20
-1.44599992928846
30
0
41
1
10
18.689809664261
20
-1.2968130472685
30
1E-16
41
1
10
18.556326517993
20
-1.24263228730902
30
1E-16
41
1
10
18.2882798385632
20
-1.12602456972286
30
1E-16
41
1
10
18.1532165592157
20
-1.06337690185788
30
1E-16
41
1
10
17.4794174443825
20
-0.734249510526098
30
0
41
1
10
16.9521572761128
20
-0.424002776558865
30
0
41
1
10
16.2802097569141
20
-0.0220760821000567
30
0
41
1
10
16.1447799075087
20
0.0593011765922427
30
0
41
1
10
15.8759993167601
20
0.219843974217696
30
0
41
1
10
15.7422306037703
20
0.299230332070095
30
0
41
1
10
15.3418027681206
20
0.53317296458809
30
0
41
1
10
15.076055919722
20
0.68356443910946
30
0
41
1
10
14.6750542654085
20
0.894092559021317
30
-1E-16
41
1
10
14.5410189186006
20
0.961802184994582
30
-1E-16
41
1
10
14.2714556541303
20
1.09107856561519
30
-1E-16
41
1
10
14.1363125383659
20
1.15240280335783
30
-1E-16
41
1
10
13.7340117233203
20
1.32305533036882
30
-1E-16
41
1
10
13.4680175544142
20
1.42001546333176
30
0
41
1
10
12.9347237890084
20
1.57516472274438
30
0
41
1
10
12.6674641975023
20
1.63361704621784
30
0
41
1
10
12.1781096049481
20
1.69944314709963
30
0
41
1
10
11.9613372971735
20
1.7140380060429
30
0
41
1
10
11.7450592132382
20
1.71397519077814
30
0
0
SPLINE
5
C7
100
AcDbEntity
8
1
62
256
6
ByLayer
370
18
48
1
60
0
100
AcDbSpline
70
4
71
3
72
8
73
4
40
0
40
0
40
0
40
0
40
1
40
1
40
1
40
1
41
1
10
3.61685834709394
20
-1.63008647315431
30
0
41
1
10
3.59485328329453
20
-1.63401186923079
30
0
41
1
10
3.57283699324014
20
-1.6377961216152
30
0
41
1
10
3.55080817001959
20
-1.64143813640175
30
0
0
SPLINE
5
C8
100
AcDbEntity
8
1
62
256
6
ByLayer
370
18
48
1
60
0
100
AcDbSpline
70
4
71
3
72
8
73
4
40
0
40
0
40
0
40
0
40
1
40
1
40
1
40
1
41
1
10
29.9974892055728
20
0.122459275000324
30
0
41
1
10
29.9880520582966
20
0.090545945180935
30
0
41
1
10
29.97855637261
20
0.0586515228820303
30
0
41
1
10
29.9690024234646
20
0.0267759192960284
30
0
0
SPLINE
5
C9
100
AcDbEntity
8
1
62
256
6
ByLayer
370
18
48
1
60
0
100
AcDbSpline
70
4
71
3
72
8
73
4
40
0
40
0
40
0
40
0
40
1
40
1
40
1
40
1
41
1
10
3.50307779261556
20
-1.01551158421435
30
1E-16
41
1
10
3.50307781197364
20
-1.0147319364753
30
1E-16
41
1
10
3.50315673214439
20
-1.01394945431491
30
1E-16
41
1
10
3.50331044312966
20
-1.01317876330319
30
1E-16
0
SPLINE
5
CA
100
AcDbEntity
8
1
62
256
6
ByLayer
370
18
48
1
60
0
100
AcDbSpline
70
4
71
3
72
8
73
4
40
0
40
0
40
0
40
0
40
1
40
1
40
1
40
1
41
1
10
29.2535783670965
20
1.69970562869813
30
0
41
1
10
29.2917450565967
20
1.67872742711381
30
0
41
1
10
29.3300424122391
20
1.65702510464996
30
0
41
1
10
29.3685019733108
20
1.63462519187695
30
0
0
SPLINE
5
CB
100
AcDbEntity
8
1
62
256
6
ByLayer
370
18
48
1
60
0
100
AcDbSpline
70
4
71
3
72
36
73
32
40
0
40
0
40
0
40
0
40
0.0943083818165668
40
0.0943083818165668
40
0.188616763633134
40
0.188616763633134
40
0.235770954541417
40
0.235770954541417
40
0.2829251454497
40
0.2829251454497
40
0.377233527266267
40
0.377233527266267
40
0.424387718174551
40
0.424387718174551
40
0.471541909082834
40
0.471541909082834
40
0.565850290899399
40
0.565850290899399
40
0.613004481807683
40
0.613004481807683
40
0.660158672715966
40
0.660158672715966
40
0.754467054532531
40
0.754467054532531
40
0.848775436349096
40
0.848775436349096
40
0.895929627257379
40
0.895929627257379
40
0.943083818165661
40
0.943083818165661
40
1
40
1
40
1
40
1
41
1
10
29.253578367096
20
-1.69970562870287
30
0
41
1
10
28.9852303497042
20
-1.67189479638839
30
0
41
1
10
28.7190536845704
20
-1.62204191355804
30
0
41
1
10
28.186611015026
20
-1.48217404018106
30
0
41
1
10
27.9203936910572
20
-1.39200585203372
30
1E-16
41
1
10
27.5165291647363
20
-1.22970008355304
30
1E-16
41
1
10
27.3814643700689
20
-1.17124816741548
30
1E-16
41
1
10
27.1135260052725
20
-1.04783332221913
30
1E-16
41
1
10
26.980173591651
20
-0.982637582134942
30
1E-16
41
1
10
26.580571695954
20
-0.778627172090239
30
0
41
1
10
26.3148044221623
20
-0.631389645182082
30
0
41
1
10
25.9134060997814
20
-0.399224654914292
30
0
41
1
10
25.778825400825
20
-0.319889012696592
30
0
41
1
10
25.5091922812561
20
-0.159152468743571
30
0
41
1
10
25.3752194118185
20
-0.0783655446871023
30
0
41
1
10
24.9744975354949
20
0.163003762351764
30
0
41
1
10
24.7089034680577
20
0.322529580325437
30
0
41
1
10
24.3087777561194
20
0.553018325677499
30
0
41
1
10
24.1751129008111
20
0.628381540325904
30
0
41
1
10
23.9067073252318
20
0.775332676964268
30
0
41
1
10
23.771457595049
20
0.847230540449516
30
-1E-16
41
1
10
23.3681891022458
20
1.05248867789936
30
-1E-16
41
1
10
23.1018969539379
20
1.17555842662287
30
-1E-16
41
1
10
22.5694762178172
20
1.38875794671426
30
-1E-16
41
1
10
22.3031081560347
20
1.4786149639593
30
0
41
1
10
21.899587979948
20
1.58394839357902
30
0
41
1
10
21.7643287623639
20
1.61403731857561
30
0
41
1
10
21.4960491874192
20
1.66290805990869
30
0
41
1
10
21.3625065966188
20
1.68185935067632
30
0
41
1
10
21.0683191390347
20
1.71147522470378
30
0
41
1
10
20.9077325652431
20
1.71961061888714
30
0
41
1
10
20.746899099811
20
1.71961372715691
30
0
0
SPLINE
5
CC
100
AcDbEntity
8
1
62
256
6
ByLayer
370
18
48
1
60
0
100
AcDbSpline
70
4
71
3
72
36
73
32
40
0
40
0
40
0
40
0
40
0.0209316039400401
40
0.0209316039400401
40
0.109937821763674
40
0.109937821763674
40
0.198944039587307
40
0.198944039587307
40
0.243447148499124
40
0.243447148499124
40
0.287950257410941
40
0.287950257410941
40
0.376956475234574
40
0.376956475234574
40
0.42145958414639
40
0.42145958414639
40
0.465962693058206
40
0.465962693058206
40
0.64397512870547
40
0.64397512870547
40
0.688478237617286
40
0.688478237617286
40
0.732981346529102
40
0.732981346529102
40
0.821987564352735
40
0.821987564352735
40
0.866490673264551
40
0.866490673264551
40
0.910993782176367
40
0.910993782176367
40
1
40
1
40
1
40
1
41
1
10
12.5873948730486
20
-1.64069719301938
30
0
41
1
10
12.5241343689273
20
-1.65165277424197
30
0
41
1
10
12.4607376766301
20
-1.6614251040657
30
0
41
1
10
12.1268824829107
20
-1.70633402286623
30
0
41
1
10
11.8600800382606
20
-1.72005059816749
30
0
41
1
10
11.3267003247632
20
-1.70300792284576
30
0
41
1
10
11.0607030203102
20
-1.67220898873359
30
0
41
1
10
10.6578641500291
20
-1.5935085181969
30
0
41
1
10
10.5225723626567
20
-1.56160243866614
30
0
41
1
10
10.2531952256023
20
-1.4879769232578
30
0
41
1
10
10.1191540406748
20
-1.44634941070251
30
0
41
1
10
9.71806824024372
20
-1.30818684688273
30
1E-16
41
1
10
9.45231076402791
20
-1.19806321776827
30
1E-16
41
1
10
9.05139367551777
20
-1.01141351148325
30
1E-16
41
1
10
8.91754176125698
20
-0.945397934665777
30
1E-16
41
1
10
8.64837177302371
20
-0.807044298029979
30
0
41
1
10
8.51283124645335
20
-0.734564868596891
30
0
41
1
10
7.84076808945571
20
-0.364251387784435
30
0
41
1
10
7.31318657612701
20
-0.0380579932034379
30
0
41
1
10
6.63812399290259
20
0.359630539724122
30
0
41
1
10
6.50315320787254
20
0.438193495946507
30
0
41
1
10
6.23494732002664
20
0.590872093256962
30
0
41
1
10
6.10135139008781
20
0.665211709152828
30
0
41
1
10
5.70108732814509
20
0.880761274453249
30
-1E-16
41
1
10
5.43490468379417
20
1.01444699140313
30
-1E-16
41
1
10
5.03262810022562
20
1.19401606000633
30
-1E-16
41
1
10
4.89774695651857
20
1.25048306156378
30
-1E-16
41
1
10
4.62750517770902
20
1.35481830486609
30
-1E-16
41
1
10
4.49289181962899
20
1.40241186798377
30
0
41
1
10
4.08949838448248
20
1.53065132338912
30
0
41
1
10
3.82109669364834
20
1.59675146431616
30
0
41
1
10
3.55080817001959
20
1.64143813640175
30
0
0
SPLINE
5
CD
100
AcDbEntity
8
1
62
256
6
ByLayer
370
18
48
1
60
0
100
AcDbSpline
70
4
71
3
72
34
73
30
40
0
40
0
40
0
40
0
40
0.0625000000000015
40
0.0625000000000015
40
0.125000000000003
40
0.125000000000003
40
0.187500000000004
40
0.187500000000004
40
0.250000000000006
40
0.250000000000006
40
0.312500000000007
40
0.312500000000007
40
0.375000000000009
40
0.375000000000009
40
0.500000000000012
40
0.500000000000012
40
0.56250000000001
40
0.56250000000001
40
0.625000000000009
40
0.625000000000009
40
0.687500000000007
40
0.687500000000007
40
0.750000000000006
40
0.750000000000006
40
0.812500000000004
40
0.812500000000004
40
0.875000000000003
40
0.875000000000003
40
1
40
1
40
1
40
1
41
1
10
29.6875821665504
20
-0.310056334976679
30
0
41
1
10
29.6937094122336
20
-0.328405195033326
30
0
41
1
10
29.6972597378332
20
-0.35131378541459
30
0
41
1
10
29.6973596291795
20
-0.405021006517245
30
0
41
1
10
29.6938565507479
20
-0.435141615643857
30
0
41
1
10
29.6805868988525
20
-0.497132484406762
30
0
41
1
10
29.6709240966635
20
-0.528577552762982
30
0
41
1
10
29.6487553134696
20
-0.58644001064846
30
0
41
1
10
29.6362302949095
20
-0.613084586663661
30
0
41
1
10
29.610732411497
20
-0.658944460033467
30
0
41
1
10
29.5978300197862
20
-0.678079436606112
30
0
41
1
10
29.5729417646772
20
-0.707775057063543
30
0
41
1
10
29.5612261067581
20
-0.718113632550711
30
0
41
1
10
29.5276737674574
20
-0.735970875559445
30
0
41
1
10
29.5088398107925
20
-0.729015186641476
30
0
41
1
10
29.4879273295799
20
-0.690108781368735
30
0
41
1
10
29.4821910191211
20
-0.672315657456835
30
0
41
1
10
29.4740652632326
20
-0.6286825297326
30
0
41
1
10
29.471617772739
20
-0.602389879984685
30
0
41
1
10
29.4711739274794
20
-0.544791979697123
30
0
41
1
10
29.4731974500257
20
-0.51303962322504
30
0
41
1
10
29.4826037103122
20
-0.449595478419695
30
0
41
1
10
29.4900024987631
20
-0.418127988914563
30
0
41
1
10
29.5092018412506
20
-0.361935823982804
30
0
41
1
10
29.5209117639546
20
-0.337369351890373
30
0
41
1
10
29.5462371631417
20
-0.29780325872801
30
0
41
1
10
29.5599806269962
20
-0.282512683406708
30
0
41
1
10
29.6011175537915
20
-0.250559706399599
30
0
41
1
10
29.629031337948
20
-0.246983762757765
30
0
41
1
10
29.651393206121
20
-0.260004558615862
30
0
0
SPLINE
5
CE
100
AcDbEntity
8
1
62
256
6
ByLayer
370
18
48
1
60
0
100
AcDbSpline
70
4
71
3
72
8
73
4
40
0
40
0
40
0
40
0
40
1
40
1
40
1
40
1
41
1
10
29.4167657294383
20
-1.61975268772309
30
0
41
1
10
29.4015484925945
20
-1.63137405093613
30
0
41
1
10
29.390219489145
20
-1.63334328527944
30
0
41
1
10
29.3815650015513
20
-1.62610409910943
30
0
0
SPLINE
5
CF
100
AcDbEntity
8
1
62
256
6
ByLayer
370
18
48
1
60
0
100
AcDbSpline
70
4
71
3
72
24
73
20
40
0
40
0
40
0
40
0
40
0.167504197892006
40
0.167504197892006
40
0.335008395784011
40
0.335008395784011
40
0.418760494730014
40
0.418760494730014
40
0.502512593676017
40
0.502512593676017
40
0.670016791568023
40
0.670016791568023
40
0.753768890514026
40
0.753768890514026
40
0.837520989460028
40
0.837520989460028
40
0.921273088406031
40
0.921273088406031
40
1
40
1
40
1
40
1
41
1
10
29.1912093738183
20
-0.147382588741948
30
0
41
1
10
28.9225272388275
20
0.004508561670832
30
0
41
1
10
28.6571183089702
20
0.158060789812339
30
0
41
1
10
28.1283599451576
20
0.455388962663022
30
0
41
1
10
27.8647697399148
20
0.599415687554654
30
0
41
1
10
27.4670669036807
20
0.802527240928413
30
0
41
1
10
27.3341159595981
20
0.868115507911341
30
-1E-16
41
1
10
27.0667525481651
20
0.993747686888725
30
-1E-16
41
1
10
26.9324699515271
20
1.05368617811206
30
-1E-16
41
1
10
26.5328384645582
20
1.22150428472972
30
-1E-16
41
1
10
26.2685591853337
20
1.31820857492406
30
0
41
1
10
25.872153308346
20
1.43632578110584
30
0
41
1
10
25.7400034790543
20
1.47128597486804
30
0
41
1
10
25.4751316300764
20
1.53116529155747
30
0
41
1
10
25.3424135287984
20
1.55603976456979
30
0
41
1
10
25.075520052819
20
1.59640976500637
30
0
41
1
10
24.9409834597065
20
1.6119278649922
30
0
41
1
10
24.6818272500985
20
1.63172068059825
30
0
41
1
10
24.5567465316521
20
1.63668809342647
30
0
41
1
10
24.4320201844342
20
1.63686367215937
30
0
0
SPLINE
5
D0
100
AcDbEntity
8
1
62
256
6
ByLayer
370
18
48
1
60
0
100
AcDbSpline
70
4
71
3
72
34
73
30
40
0
40
0
40
0
40
0
40
0.0209870204232659
40
0.0209870204232659
40
0.102327404137524
40
0.102327404137524
40
0.183667787851781
40
0.183667787851781
40
0.26500817156604
40
0.26500817156604
40
0.346348555280298
40
0.346348555280298
40
0.427688938994556
40
0.427688938994556
40
0.509029322708814
40
0.509029322708814
40
0.590369706423073
40
0.590369706423073
40
0.67171009013733
40
0.67171009013733
40
0.753050473851589
40
0.753050473851589
40
0.834390857565847
40
0.834390857565847
40
0.915731241280105
40
0.915731241280105
40
0.997071624994363
40
0.997071624994363
40
1
40
1
40
1
40
1
41
1
10
11.3425441643581
20
-0.232893282356258
30
0
41
1
10
11.3082702589023
20
-0.213570344243237
30
0
41
1
10
11.2739724217454
20
-0.194184541561896
30
0
41
1
10
11.1065898371277
20
-0.0994386478035949
30
0
41
1
10
10.9730032104636
20
-0.0236224377929659
30
0
41
1
10
10.7043857264949
20
0.128723443795508
30
0
41
1
10
10.5708671456862
20
0.204613227288718
30
0
41
1
10
10.3047849766835
20
0.353720620622283
30
0
41
1
10
10.1720299456989
20
0.426942711053215
30
0
41
1
10
9.90697952989677
20
0.570141486067541
30
0
41
1
10
9.77479070111895
20
0.640143789390805
30
0
41
1
10
9.50992327862554
20
0.775648356200008
30
0
41
1
10
9.3772010594023
20
0.841149613373375
30
-1E-16
41
1
10
9.11098209405083
20
0.966786614334154
30
-1E-16
41
1
10
8.9775232606064
20
1.02684845738608
30
-1E-16
41
1
10
8.70896873117977
20
1.14052700951967
30
-1E-16
41
1
10
8.57521603017494
20
1.19360553061736
30
-1E-16
41
1
10
8.30886851970382
20
1.29122356673324
30
0
41
1
10
8.17638219969254
20
1.33554682574001
30
0
41
1
10
7.91135390210485
20
1.41571992079835
30
0
41
1
10
7.77879633726906
20
1.45161896209692
30
0
41
1
10
7.51362620497824
20
1.51334651026909
30
0
41
1
10
7.38097859606029
20
1.53925964069239
30
0
41
1
10
7.11450215386924
20
1.58176397800864
30
0
41
1
10
6.98040343806031
20
1.59831303921516
30
0
41
1
10
6.71202341426755
20
1.62008305252232
30
0
41
1
10
6.57872925334704
20
1.62532466520685
30
0
41
1
10
6.44091028497579
20
1.62565959984448
30
0
41
1
10
6.43612139381273
20
1.62566478636774
30
0
41
1
10
6.43133287543736
20
1.62566349937822
30
0
0
SPLINE
5
D1
100
AcDbEntity
8
1
62
256
6
ByLayer
370
18
48
1
60
0
100
AcDbSpline
70
4
71
3
72
14
73
10
40
0
40
0
40
0
40
0
40
0.261966549090488
40
0.261966549090488
40
0.542849129754735
40
0.542849129754735
40
0.825859791507515
40
0.825859791507515
40
1
40
1
40
1
40
1
41
1
10
29.1858815887011
20
-0.133778437780649
30
0
41
1
10
29.1865924420778
20
-0.13406120598566
30
0
41
1
10
29.1872880714045
20
-0.134727730724421
30
0
41
1
10
29.1885713110506
20
-0.136579173985808
30
0
41
1
10
29.1891725160667
20
-0.137830496253912
30
0
41
1
10
29.1901714590429
20
-0.140674695194946
30
0
41
1
10
29.1905829557309
20
-0.142313710644032
30
0
41
1
10
29.1910301040217
20
-0.145119538269256
30
0
41
1
10
29.1911519307403
20
-0.146246567198205
30
0
41
1
10
29.1912093738189
20
-0.147382588751384
30
0
0
SPLINE
5
D2
100
AcDbEntity
8
1
62
256
6
ByLayer
370
18
48
1
60
0
100
AcDbSpline
70
4
71
3
72
8
73
4
40
0
40
0
40
0
40
0
40
1
40
1
40
1
40
1
41
1
10
29.1494918535862
20
-0.118290160078033
30
0
41
1
10
29.1444919346272
20
-0.0364236305419183
30
0
41
1
10
29.1418610428628
20
0.0469610500259705
30
0
41
1
10
29.1427769669796
20
0.129844255681178
30
0
0
SPLINE
5
D3
100
AcDbEntity
8
1
62
256
6
ByLayer
370
18
48
1
60
0
100
AcDbSpline
70
4
71
3
72
32
73
28
40
0
40
0
40
0
40
0
40
0.497411007515723
40
0.497411007515723
40
0.670159218889701
40
0.670159218889701
40
0.783885623527483
40
0.783885623527483
40
0.858419865218363
40
0.858419865218363
40
0.907447067174468
40
0.907447067174468
40
0.939892841525362
40
0.939892841525362
40
0.961384236487234
40
0.961384236487234
40
0.975600572351538
40
0.975600572351538
40
0.984734006479458
40
0.984734006479458
40
0.990536304452875
40
0.990536304452875
40
0.996464395811638
40
0.996464395811638
40
0.999007374074274
40
0.999007374074274
40
1
40
1
40
1
40
1
41
1
10
29.2598959272255
20
1.72422589927859
30
0
41
1
10
29.2849505826159
20
1.70803504290458
30
0
41
1
10
29.3100750800728
20
1.69154925848068
30
0
41
1
10
29.3439200545616
20
1.66902466029822
30
0
41
1
10
29.3526417308624
20
1.6631915102445
30
0
41
1
10
29.3671547909178
20
1.65343756504043
30
0
41
1
10
29.372929650028
20
1.64954409964355
30
0
41
1
10
29.3825245071907
20
1.64305615910143
30
0
41
1
10
29.3863366295421
20
1.64047363341498
30
0
41
1
10
29.3926499604045
20
1.63618862165288
30
0
41
1
10
29.3951523678925
20
1.63448805084459
30
0
41
1
10
29.3992914751471
20
1.63167111608732
30
0
41
1
10
29.4009347733517
20
1.63055165258032
30
0
41
1
10
29.403651901325
20
1.62869852464581
30
0
41
1
10
29.4047307176318
20
1.62796218424162
30
0
41
1
10
29.4065141722728
20
1.62674380585619
30
0
41
1
10
29.407220327178
20
1.62626100715082
30
0
41
1
10
29.4084167094318
20
1.62544418719656
30
0
41
1
10
29.4088947371566
20
1.62511814722453
30
0
41
1
10
29.4096832916154
20
1.62458057615305
30
0
41
1
10
29.4099906993359
20
1.6243710297889
30
0
41
1
10
29.4105986276645
20
1.6239560427347
30
0
41
1
10
29.4109037561452
20
1.62374745563363
30
0
41
1
10
29.4112811013515
20
1.62348758980488
30
0
41
1
10
29.4113878838764
20
1.62341375160437
30
0
41
1
10
29.41150994576
20
1.62332854872352
30
0
41
1
10
29.4115414212975
20
1.62330646896061
30
0
41
1
10
29.4115689992705
20
1.62328698085668
30
0
0
SPLINE
5
D4
100
AcDbEntity
8
1
62
256
6
ByLayer
370
18
48
1
60
0
100
AcDbSpline
70
4
71
3
72
8
73
4
40
0
40
0
40
0
40
0
40
1
40
1
40
1
40
1
41
1
10
3.50325029640328
20
1.65959298856458
30
0
41
1
10
3.50310401560586
20
1.65981543285912
30
0
41
1
10
3.50302902593168
20
1.66004053639824
30
0
41
1
10
3.50302905869449
20
1.66026426493784
30
0
0
SPLINE
5
D5
100
AcDbEntity
8
1
62
256
6
ByLayer
370
18
48
1
60
0
100
AcDbSpline
70
4
71
3
72
8
73
4
40
0
40
0
40
0
40
0
40
1
40
1
40
1
40
1
41
1
10
29.2535783670892
20
1.69970562870287
30
0
41
1
10
29.2560549275772
20
1.7136015001401
30
0
41
1
10
29.2580737577596
20
1.72188876718121
30
0
41
1
10
29.2598959272085
20
1.72422589929019
30
0
0
SPLINE
5
D6
100
AcDbEntity
8
1
62
256
6
ByLayer
370
18
48
1
60
0
100
AcDbSpline
70
4
71
3
72
32
73
28
40
0
40
0
40
0
40
0
40
0.036384240973105
40
0.036384240973105
40
0.11315986845836
40
0.11315986845836
40
0.189935495943615
40
0.189935495943615
40
0.26671112342887
40
0.26671112342887
40
0.343486750914125
40
0.343486750914125
40
0.42026237839938
40
0.42026237839938
40
0.497038005884634
40
0.497038005884634
40
0.573813633369889
40
0.573813633369889
40
0.650589260855144
40
0.650589260855144
40
0.727364888340399
40
0.727364888340399
40
0.804140515825654
40
0.804140515825654
40
0.880916143310909
40
0.880916143310909
40
1
40
1
40
1
40
1
41
1
10
24.9697856175125
20
-0.0811949296586647
30
0
41
1
10
24.8873310959412
20
-0.0344539097412735
30
0
41
1
10
24.8048320200817
20
0.0124314711013938
30
0
41
1
10
24.5483828756972
20
0.157893751947569
30
0
41
1
10
24.3743110382711
20
0.255977718469495
30
0
41
1
10
24.0261629666956
20
0.448360763665136
30
0
41
1
10
23.852816029504
20
0.542583013190693
30
0
41
1
10
23.506730906563
20
0.723579448112957
30
0
41
1
10
23.333824254516
20
0.810262384188576
30
0
41
1
10
22.986828390181
20
0.974131025192293
30
-1E-16
41
1
10
22.8126847806211
20
1.05190486470215
30
-1E-16
41
1
10
22.4656854047364
20
1.19430231917849
30
-1E-16
41
1
10
22.2924383968811
20
1.25914181658697
30
-1E-16
41
1
10
21.9448795284815
20
1.37417095518174
30
0
41
1
10
21.7708474615832
20
1.42489039259897
30
0
41
1
10
21.4239798741792
20
1.50953582999023
30
0
41
1
10
21.2507720473879
20
1.54370516619292
30
0
41
1
10
20.903021289134
20
1.59396727227545
30
0
41
1
10
20.7291617572432
20
1.61092059612483
30
0
41
1
10
20.382272890829
20
1.62676141552302
30
0
41
1
10
20.2089560178798
20
1.62580121733526
30
0
41
1
10
19.8607445371595
20
1.60554306013347
30
0
41
1
10
19.6872316946028
20
1.58663348663035
30
0
41
1
10
19.3403199723446
20
1.53172683955779
30
0
41
1
10
19.1664211818222
20
1.49566971867017
30
0
41
1
10
18.7232219656651
20
1.38242893266133
30
0
41
1
10
18.4566189423071
20
1.29537478940421
30
0
41
1
10
18.1902672708127
20
1.19285278761504
30
-1E-16
0
SPLINE
5
D7
100
AcDbEntity
8
1
62
256
6
ByLayer
370
18
48
1
60
0
100
AcDbSpline
70
4
71
3
72
22
73
18
40
0
40
0
40
0
40
0
40
0.189462570309117
40
0.189462570309117
40
0.284193855463675
40
0.284193855463675
40
0.378925140618233
40
0.378925140618233
40
0.473656425772791
40
0.473656425772791
40
0.56838771092735
40
0.56838771092735
40
0.757850281236466
40
0.757850281236466
40
0.947312851545583
40
0.947312851545583
40
1
40
1
40
1
40
1
41
1
10
29.1427769669797
20
0.129844255681149
30
0
41
1
10
28.8734468214936
20
0.292380158160682
30
0
41
1
10
28.6050409462732
20
0.451430457879326
30
0
41
1
10
28.2004387065521
20
0.679307705535194
30
0
41
1
10
28.0653831828308
20
0.753706402471408
30
0
41
1
10
27.7938725291457
20
0.897686645153925
30
-1E-16
41
1
10
27.6572802185476
20
0.967013967827
30
-1E-16
41
1
10
27.3862323743183
20
1.09734657169969
30
-1E-16
41
1
10
27.2512850383151
20
1.15875775506174
30
-1E-16
41
1
10
26.9819760025967
20
1.27346745589773
30
-1E-16
41
1
10
26.8478501523068
20
1.32701438091851
30
-1E-16
41
1
10
26.4444790123906
20
1.47332520810224
30
0
41
1
10
26.1743090122501
20
1.55224178616498
30
0
41
1
10
25.6292469397777
20
1.66887296806948
30
0
41
1
10
25.3596728370386
20
1.70421218912165
30
0
41
1
10
25.0156255423721
20
1.72040829066353
30
0
41
1
10
24.9408481658483
20
1.72216642924678
30
0
41
1
10
24.8660638659038
20
1.72215819730127
30
0
0
SPLINE
5
D8
100
AcDbEntity
8
1
62
256
6
ByLayer
370
18
48
1
60
0
100
AcDbSpline
70
4
71
3
72
50
73
46
40
0
40
0
40
0
40
0
40
0.0331343064224607
40
0.0331343064224607
40
0.105087131303837
40
0.105087131303837
40
0.141063543744526
40
0.141063543744526
40
0.177039956185214
40
0.177039956185214
40
0.213016368625903
40
0.213016368625903
40
0.248992781066591
40
0.248992781066591
40
0.320945605947966
40
0.320945605947966
40
0.392898430829342
40
0.392898430829342
40
0.464851255710717
40
0.464851255710717
40
0.500827668151405
40
0.500827668151405
40
0.536804080592094
40
0.536804080592094
40
0.572780493032782
40
0.572780493032782
40
0.60875690547347
40
0.60875690547347
40
0.644733317914158
40
0.644733317914158
40
0.680709730354847
40
0.680709730354847
40
0.752662555236222
40
0.752662555236222
40
0.788638967676909
40
0.788638967676909
40
0.824615380117596
40
0.824615380117596
40
0.860591792558283
40
0.860591792558283
40
0.89656820499897
40
0.89656820499897
40
0.968521029880346
40
0.968521029880346
40
1
40
1
40
1
40
1
41
1
10
18.1638996791053
20
-1.19613189203392
30
1E-16
41
1
10
18.0389241501497
20
-1.25014228818796
30
1E-16
41
1
10
17.9144498468337
20
-1.30036153751038
30
1E-16
41
1
10
17.5201945858569
20
-1.44682606674115
30
0
41
1
10
17.2515953014574
20
-1.52873761461783
30
0
41
1
10
16.8469860946027
20
-1.62052054728988
30
0
41
1
10
16.7116036067592
20
-1.64578010436136
30
0
41
1
10
16.4392800551561
20
-1.68522548169844
30
0
41
1
10
16.3025010128969
20
-1.69934889485023
30
0
41
1
10
16.0314355154882
20
-1.71591523440196
30
0
41
1
10
15.8967374722706
20
-1.71842214282262
30
0
41
1
10
15.6273144296819
20
-1.71197589088049
30
0
41
1
10
15.4926511424198
20
-1.70307595920426
30
0
41
1
10
15.0884216320029
20
-1.65957971342016
30
0
41
1
10
14.8187670911128
20
-1.6077489863485
30
0
41
1
10
14.2725945873692
20
-1.46116373792765
30
0
41
1
10
14.0026627584971
20
-1.36805769669533
30
1E-16
41
1
10
13.4644600776551
20
-1.14780768333446
30
1E-16
41
1
10
13.1951609858424
20
-1.02189485069726
30
1E-16
41
1
10
12.7880690254503
20
-0.812828020928151
30
0
41
1
10
12.6515086939468
20
-0.739074233091003
30
0
41
1
10
12.3795802019464
20
-0.588580076013045
30
0
41
1
10
12.2441385390425
20
-0.511767901783855
30
0
41
1
10
11.9739967931283
20
-0.355557829778462
30
0
41
1
10
11.8392071650758
20
-0.276309733760314
30
0
41
1
10
11.5701532974091
20
-0.115580782379851
30
0
41
1
10
11.4356207075723
20
-0.0345485121438003
30
0
41
1
10
11.1654625065696
20
0.1270042400987
30
0
41
1
10
11.0299200096535
20
0.207664106349995
30
0
41
1
10
10.757518586427
20
0.368105431755538
30
0
41
1
10
10.6208290895347
20
0.447905384683679
30
0
41
1
10
10.2143541380364
20
0.680272974260504
30
0
41
1
10
9.94509117247179
20
0.825778731819327
30
-1E-16
41
1
10
9.54072736933418
20
1.02581262935149
30
-1E-16
41
1
10
9.40612012733044
20
1.08978100912492
30
-1E-16
41
1
10
9.13556565138617
20
1.20987768204671
30
-1E-16
41
1
10
8.99953624159977
20
1.26608564444677
30
-1E-16
41
1
10
8.72619739051021
20
1.37006502144916
30
-1E-16
41
1
10
8.59028630389696
20
1.41719877014793
30
0
41
1
10
8.31991125064994
20
1.50185847034939
30
0
41
1
10
8.18525313543611
20
1.53916238438134
30
0
41
1
10
7.78098826150858
20
1.63485625258755
30
0
41
1
10
7.51155201285056
20
1.67757918848969
30
0
41
1
10
7.12175017842156
20
1.70657869785626
30
0
41
1
10
7.00215251027007
20
1.71099103361809
30
0
41
1
10
6.88286957894647
20
1.71094045974414
30
0
0
SPLINE
5
D9
100
AcDbEntity
8
1
62
256
6
ByLayer
370
18
48
1
60
0
100
AcDbSpline
70
4
71
3
72
14
73
10
40
0
40
0
40
0
40
0
40
0.499999999999994
40
0.499999999999994
40
0.624999999999996
40
0.624999999999996
40
0.749999999999997
40
0.749999999999997
40
1
40
1
40
1
40
1
41
1
10
29.4167657294358
20
-1.61975268772298
30
0
41
1
10
29.4818414452813
20
-1.43694729089478
30
0
41
1
10
29.547180691284
20
-1.25152359066175
30
0
41
1
10
29.6317263103358
20
-1.02116408126119
30
0
41
1
10
29.6489878969394
20
-0.975321365679974
30
0
41
1
10
29.6851935528901
20
-0.884608878906676
30
0
41
1
10
29.704019644538
20
-0.839756057428474
30
0
41
1
10
29.7622833865145
20
-0.709389795179447
30
0
41
1
10
29.8039228260399
20
-0.627316605933117
30
0
41
1
10
29.8492894331308
20
-0.550126285464671
30
0
0
SPLINE
5
DA
100
AcDbEntity
8
1
62
256
6
ByLayer
370
18
48
1
60
0
100
AcDbSpline
70
4
71
3
72
50
73
46
40
0
40
0
40
0
40
0
40
0.0024824312839666
40
0.0024824312839666
40
0.0384588763912993
40
0.0384588763912993
40
0.110411766605962
40
0.110411766605962
40
0.182364656820625
40
0.182364656820625
40
0.254317547035287
40
0.254317547035287
40
0.290293992142618
40
0.290293992142618
40
0.32627043724995
40
0.32627043724995
40
0.398223327464612
40
0.398223327464612
40
0.434199772571944
40
0.434199772571944
40
0.470176217679276
40
0.470176217679276
40
0.54212910789394
40
0.54212910789394
40
0.578105553001272
40
0.578105553001272
40
0.614081998108604
40
0.614081998108604
40
0.686034888323268
40
0.686034888323268
40
0.722011333430601
40
0.722011333430601
40
0.757987778537934
40
0.757987778537934
40
0.793964223645266
40
0.793964223645266
40
0.829940668752599
40
0.829940668752599
40
0.901893558967264
40
0.901893558967264
40
0.937870004074597
40
0.937870004074597
40
0.97384644918193
40
0.97384644918193
40
1
40
1
40
1
40
1
41
1
10
27.1445089166085
20
-1.20418204059266
30
1E-16
41
1
10
27.1352146615691
20
-1.20817814266414
30
1E-16
41
1
10
27.1259218939271
20
-1.21215503061262
30
1E-16
41
1
10
26.9819760025966
20
-1.27346745589773
30
1E-16
41
1
10
26.8478501523068
20
-1.32701438091851
30
1E-16
41
1
10
26.4444790123905
20
-1.47332520810224
30
0
41
1
10
26.1743090122501
20
-1.55224178616501
30
0
41
1
10
25.6292469397776
20
-1.66887296806951
30
0
41
1
10
25.3596728370385
20
-1.70421218912165
30
0
41
1
10
24.8212944727088
20
-1.7295564682129
30
0
41
1
10
24.5531493003322
20
-1.71939446394822
30
0
41
1
10
24.1463832678124
20
-1.66986208022419
30
0
41
1
10
24.0096315899152
20
-1.6475048306275
30
0
41
1
10
23.7377433672408
20
-1.59202565347215
30
0
41
1
10
23.6028012456217
20
-1.5587584242621
30
0
41
1
10
23.1984847772291
20
-1.44434182416424
30
0
41
1
10
22.9295584214308
20
-1.34895690545324
30
1E-16
41
1
10
22.5251684995425
20
-1.17909159071274
30
1E-16
41
1
10
22.3901085814855
20
-1.11804831412053
30
1E-16
41
1
10
22.118120663223
20
-0.988685685558551
30
1E-16
41
1
10
21.9813787769954
20
-0.920308641661336
30
1E-16
41
1
10
21.5747481104398
20
-0.708060115614558
30
0
41
1
10
21.3065696720258
20
-0.5554578378256
30
0
41
1
10
20.9025819532564
20
-0.319731828874581
30
0
41
1
10
20.7677697580282
20
-0.239807730761555
30
0
41
1
10
20.4972364286355
20
-0.0782447587583874
30
0
41
1
10
20.3616478936219
20
0.0038770400916519
30
0
41
1
10
19.9526190214006
20
0.249906297196645
30
0
41
1
10
19.682504171284
20
0.409480808877788
30
0
41
1
10
19.2788702595726
20
0.638812521755341
30
0
41
1
10
19.1446141019301
20
0.713603690319218
30
0
41
1
10
18.875155570839
20
0.857501159833532
30
-1E-16
41
1
10
18.7400250166095
20
0.926734875737338
30
-1E-16
41
1
10
18.4686796036698
20
1.05930339382729
30
-1E-16
41
1
10
18.3318618040399
20
1.12280275144084
30
-1E-16
41
1
10
18.0602790079778
20
1.24149742995266
30
-1E-16
41
1
10
17.9251125724788
20
1.29640037009807
30
-1E-16
41
1
10
17.5201945858567
20
1.44682606674121
30
0
41
1
10
17.2515953014572
20
1.52873761461788
30
0
41
1
10
16.8469860946025
20
1.62052054728991
30
0
41
1
10
16.7116036067591
20
1.64578010436139
30
0
41
1
10
16.4392800551559
20
1.68522548169847
30
0
41
1
10
16.3025010128967
20
1.69934889485023
30
0
41
1
10
16.0684409466607
20
1.7136536240387
30
0
41
1
10
15.9703547504952
20
1.71662257107374
30
0
41
1
10
15.872383818669
20
1.71655666530774
30
0
0
SPLINE
5
DB
100
AcDbEntity
8
1
62
256
6
ByLayer
370
18
48
1
60
0
100
AcDbSpline
70
4
71
3
72
30
73
26
40
0
40
0
40
0
40
0
40
0.034821616026766
40
0.034821616026766
40
0.103762929167711
40
0.103762929167711
40
0.172704242308656
40
0.172704242308656
40
0.310586868590547
40
0.310586868590547
40
0.379528181731492
40
0.379528181731492
40
0.448469494872437
40
0.448469494872437
40
0.517410808013383
40
0.517410808013383
40
0.586352121154328
40
0.586352121154328
40
0.655293434295274
40
0.655293434295274
40
0.724234747436219
40
0.724234747436219
40
0.86211737371811
40
0.86211737371811
40
1
40
1
40
1
40
1
41
1
10
9.06945389493558
20
-1.23611704845908
30
1E-16
41
1
10
9.00076444869251
20
-1.26448016500902
30
1E-16
41
1
10
8.93189727170017
20
-1.29181582485546
30
1E-16
41
1
10
8.7261973905099
20
-1.37006502144928
30
1E-16
41
1
10
8.59028630389662
20
-1.41719877014802
30
0
41
1
10
8.3199112506496
20
-1.5018584703495
30
0
41
1
10
8.1852531354358
20
-1.53916238438143
30
0
41
1
10
7.78098826150824
20
-1.63485625258761
30
0
41
1
10
7.51155201285019
20
-1.67757918848972
30
0
41
1
10
7.10480073587351
20
-1.70783966041338
30
0
41
1
10
6.96795869035145
20
-1.71216173633067
30
0
41
1
10
6.69557380292272
20
-1.70912895450257
30
0
41
1
10
6.56006996074325
20
-1.70184099450464
30
0
41
1
10
6.28980281959585
20
-1.67607075792625
30
0
41
1
10
6.15530572581983
20
-1.65747835922434
30
0
41
1
10
5.88600646890086
20
-1.60947622092439
30
0
41
1
10
5.75118000481208
20
-1.5801249352387
30
0
41
1
10
5.48079904981202
20
-1.51099256358387
30
0
41
1
10
5.34519417424295
20
-1.47125906080518
30
0
41
1
10
5.07299223641624
20
-1.38121618601852
30
1E-16
41
1
10
4.93634989458624
20
-1.33089485213858
30
1E-16
41
1
10
4.52919527162348
20
-1.16896947982372
30
1E-16
41
1
10
4.25945968402166
20
-1.04566023957889
30
1E-16
41
1
10
3.72118761796034
20
-0.771373820594278
30
0
41
1
10
3.45159514139186
20
-0.621598435307789
30
0
41
1
10
3.17700111962378
20
-0.466578965872458
30
0
0
SPLINE
5
DC
100
AcDbEntity
8
1
62
256
6
ByLayer
370
18
48
1
60
0
100
AcDbSpline
70
4
71
3
72
14
73
10
40
0
40
0
40
0
40
0
40
0.622178085914463
40
0.622178085914463
40
0.842249318532508
40
0.842249318532508
40
0.96421158492012
40
0.96421158492012
40
1
40
1
40
1
40
1
41
1
10
29.3685019733108
20
1.63462519187695
30
0
41
1
10
29.3710379525555
20
1.63314816737923
30
0
41
1
10
29.3737970669597
20
1.63147345451796
30
0
41
1
10
29.3775999604728
20
1.62897112930114
30
0
41
1
10
29.3786295074011
20
1.62827409261104
30
0
41
1
10
29.3801447031494
20
1.62719180565787
30
0
41
1
10
29.3806775254458
20
1.62679881888388
30
0
41
1
10
29.3812971137281
20
1.62631767302611
30
0
41
1
10
29.3814339886168
20
1.62620958745438
30
0
41
1
10
29.3815650015513
20
1.62610409910937
30
0
0
SPLINE
5
DD
100
AcDbEntity
8
1
62
256
6
ByLayer
370
18
48
1
60
0
100
AcDbSpline
70
4
71
3
72
18
73
14
40
0
40
0
40
0
40
0
40
0.285090304891187
40
0.285090304891187
40
0.427635457336781
40
0.427635457336781
40
0.570180609782375
40
0.570180609782375
40
0.712725762227968
40
0.712725762227968
40
0.855270914673562
40
0.855270914673562
40
1
40
1
40
1
40
1
41
1
10
3.65384549627794
20
-0.956288285307068
30
1E-16
41
1
10
3.92009510840018
20
-1.09001653358399
30
1E-16
41
1
10
4.18481475953547
20
-1.20807151654461
30
1E-16
41
1
10
4.58244141267636
20
-1.35992764753789
30
1E-16
41
1
10
4.71501071332159
20
-1.40640027048269
30
0
41
1
10
4.98036033694453
20
-1.4907075313898
30
0
41
1
10
5.1132131948612
20
-1.52844056973558
30
0
41
1
10
5.38060015304026
20
-1.59377045667122
30
0
41
1
10
5.51499891535795
20
-1.62135921048923
30
0
41
1
10
5.78145733289838
20
-1.66553194818499
30
0
41
1
10
5.91406126106159
20
-1.68221557747512
30
0
41
1
10
6.1810860251008
20
-1.70478889741207
30
0
41
1
10
6.31536196540969
20
-1.71055181724967
30
0
41
1
10
6.44975636969983
20
-1.71066779857716
30
0
0
SPLINE
5
DE
100
AcDbEntity
8
1
62
256
6
ByLayer
370
18
48
1
60
0
100
AcDbSpline
70
4
71
3
72
46
73
42
40
0
40
0
40
0
40
0
40
0.0187760029468295
40
0.0187760029468295
40
0.0998889928521626
40
0.0998889928521626
40
0.181001982757496
40
0.181001982757496
40
0.221558477710162
40
0.221558477710162
40
0.262114972662827
40
0.262114972662827
40
0.343227962568159
40
0.343227962568159
40
0.383784457520825
40
0.383784457520825
40
0.42434095247349
40
0.42434095247349
40
0.505453942378823
40
0.505453942378823
40
0.586566932284156
40
0.586566932284156
40
0.627123427236822
40
0.627123427236822
40
0.667679922189488
40
0.667679922189488
40
0.748792912094819
40
0.748792912094819
40
0.789349407047485
40
0.789349407047485
40
0.829905902000151
40
0.829905902000151
40
0.870462396952817
40
0.870462396952817
40
0.911018891905483
40
0.911018891905483
40
0.951575386858148
40
0.951575386858148
40
0.992131881810814
40
0.992131881810814
40
1
40
1
40
1
40
1
41
1
10
14.6276426194043
20
1.64535187374634
30
0
41
1
10
14.6893682959139
20
1.65587364793726
30
0
41
1
10
14.7512366298774
20
1.66526653187702
30
0
41
1
10
15.0813328948995
20
1.70905633425923
30
0
41
1
10
15.3464639634053
20
1.72237519254563
30
0
41
1
10
15.8756237806551
20
1.70510168177088
30
0
41
1
10
16.1391589086524
20
1.67447384152635
30
0
41
1
10
16.5382159875172
20
1.59674289565916
30
0
41
1
10
16.6721039476911
20
1.56535546798764
30
0
41
1
10
16.9394871792701
20
1.49239220875779
30
0
41
1
10
17.0725010743021
20
1.45115762733661
30
0
41
1
10
17.4705097977962
20
1.31451299472769
30
-1E-16
41
1
10
17.7338900190173
20
1.20550619385099
30
-1E-16
41
1
10
18.1310401768583
20
1.02108216347128
30
-1E-16
41
1
10
18.2635913885574
20
0.955900238042091
30
-1E-16
41
1
10
18.5298278312126
20
0.819029265654535
30
-1E-16
41
1
10
18.6641621924027
20
0.747264469118448
30
0
41
1
10
19.0645375721305
20
0.526783750758312
30
0
41
1
10
19.3284335113222
20
0.371872754976408
30
0
41
1
10
19.8571822256737
20
0.0579566148043114
30
0
41
1
10
20.1211071373789
20
-0.102613313110623
30
0
41
1
10
20.5216869292836
20
-0.339821457319857
30
0
41
1
10
20.6558085885348
20
-0.418736346065657
30
0
41
1
10
20.9217633804609
20
-0.572108643027605
30
0
41
1
10
21.0544007037103
20
-0.646458191784888
30
0
41
1
10
21.4514611256117
20
-0.862493788643349
30
1E-16
41
1
10
21.7146245393985
20
-0.997667977281566
30
1E-16
41
1
10
22.1126472170646
20
-1.17899888019369
30
1E-16
41
1
10
22.2455451153501
20
-1.23630774388599
30
1E-16
41
1
10
22.5128020203016
20
-1.34314720684361
30
1E-16
41
1
10
22.6465887347706
20
-1.39188642074154
30
1E-16
41
1
10
22.9124459956497
20
-1.47973383969639
30
0
41
1
10
23.044705599661
20
-1.51904712785512
30
0
41
1
10
23.308813450145
20
-1.58768608242249
30
0
41
1
10
23.4409792973618
20
-1.61681830776766
30
0
41
1
10
23.7054022450249
20
-1.66489159433004
30
0
41
1
10
23.8375293769195
20
-1.68385816151633
30
0
41
1
10
24.1026486528725
20
-1.71086131496406
30
0
41
1
10
24.2362872362569
20
-1.71883422014019
30
0
41
1
10
24.3960860404322
20
-1.72164049005565
30
0
41
1
10
24.4220248321101
20
-1.72188656248846
30
0
41
1
10
24.4479396018684
20
-1.72192354602495
30
0
0
SPLINE
5
DF
100
AcDbEntity
8
1
62
256
6
ByLayer
370
18
48
1
60
0
100
AcDbSpline
70
4
71
3
72
18
73
14
40
0
40
0
40
0
40
0
40
0.11003145258237
40
0.11003145258237
40
0.283467387077699
40
0.283467387077699
40
0.630339256068357
40
0.630339256068357
40
0.803775190563686
40
0.803775190563686
40
0.977211125059015
40
0.977211125059015
40
1
40
1
40
1
40
1
41
1
10
3.60263256409388
20
-0.981977517080566
30
1E-16
41
1
10
3.60262519222209
20
-1.02575806195983
30
1E-16
41
1
10
3.60261735611724
20
-1.06778496224874
30
1E-16
41
1
10
3.60259649897142
20
-1.17047748297256
30
1E-16
41
1
10
3.60258307650699
20
-1.22815717348095
30
1E-16
41
1
10
3.60254156350862
20
-1.38592585717993
30
0
41
1
10
3.60251214143258
20
-1.47106119163109
30
0
41
1
10
3.60246737718285
20
-1.55781265263803
30
0
41
1
10
3.60245235394527
20
-1.58000610329245
30
0
41
1
10
3.60242118915457
20
-1.61125285193941
30
0
41
1
10
3.60240495255411
20
-1.62031438312212
30
0
41
1
10
3.60238542856681
20
-1.62271495852951
30
0
41
1
10
3.60238314836297
20
-1.62287704801159
30
0
41
1
10
3.60238085364742
20
-1.62292235661437
30
0
0
SPLINE
5
E0
100
AcDbEntity
8
1
62
256
6
ByLayer
370
18
48
1
60
0
100
AcDbSpline
70
4
71
3
72
34
73
30
40
0
40
0
40
0
40
0
40
0.0169717529019391
40
0.0169717529019391
40
0.0747969439077072
40
0.0747969439077072
40
0.132622134913475
40
0.132622134913475
40
0.190447325919244
40
0.190447325919244
40
0.306097707930778
40
0.306097707930778
40
0.363922898936546
40
0.363922898936546
40
0.421748089942313
40
0.421748089942313
40
0.537398471953848
40
0.537398471953848
40
0.595223662959616
40
0.595223662959616
40
0.653048853965384
40
0.653048853965384
40
0.768699235976924
40
0.768699235976924
40
0.826524426982692
40
0.826524426982692
40
0.88434961798846
40
0.88434961798846
40
1
40
1
40
1
40
1
41
1
10
20.3375915893102
20
1.71935135630073
30
0
41
1
10
20.3882676167707
20
1.71942019457077
30
0
41
1
10
20.4389312989403
20
1.71868224649967
30
0
41
1
10
20.6622390420231
20
1.7118777786049
30
0
41
1
10
20.8353433974007
20
1.69718878638096
30
0
41
1
10
21.1811627821585
20
1.64943405696269
30
0
41
1
10
21.3535849290301
20
1.61646607932039
30
0
41
1
10
21.6990011047793
20
1.53327550598405
30
0
41
1
10
21.8725794618531
20
1.4828174116391
30
0
41
1
10
22.3891421678209
20
1.3093972839217
30
-1E-16
41
1
10
22.7294995389077
20
1.16427633590456
30
-1E-16
41
1
10
23.2425738738287
20
0.913093786483756
30
-1E-16
41
1
10
23.4140346016148
20
0.823795807939888
30
-1E-16
41
1
10
23.7593459755381
20
0.635977934961659
30
0
41
1
10
23.9325877593329
20
0.537755840404913
30
0
41
1
10
24.4503043521763
20
0.236919878042869
30
0
41
1
10
24.7964858695422
20
0.0261207082268413
30
0
41
1
10
25.3142363311413
20
-0.283327824388579
30
0
41
1
10
25.4874453198607
20
-0.385904600227235
30
0
41
1
10
25.8327175433925
20
-0.585132687319202
30
0
41
1
10
26.0041689214681
20
-0.681426268245758
30
0
41
1
10
26.5171555035406
20
-0.957260539048946
30
1E-16
41
1
10
26.8573055566729
20
-1.12377754242499
30
1E-16
41
1
10
27.3735303742466
20
-1.33502340668124
30
1E-16
41
1
10
27.5471081611474
20
-1.39912529815345
30
1E-16
41
1
10
27.8908060408539
20
-1.51029740059866
30
0
41
1
10
28.0617168645375
20
-1.55774265847529
30
0
41
1
10
28.5737651858531
20
-1.67446882239298
30
0
41
1
10
28.9142899469878
20
-1.71807742091264
30
0
41
1
10
29.2598959272196
20
-1.72422589928999
30
0
0
SPLINE
5
E1
100
AcDbEntity
8
1
62
256
6
ByLayer
370
18
48
1
60
0
100
AcDbSpline
70
4
71
3
72
8
73
4
40
0
40
0
40
0
40
0
40
1
40
1
40
1
40
1
41
1
10
29.2535783670965
20
-1.69970562869815
30
0
41
1
10
29.2917450565967
20
-1.67872742711384
30
0
41
1
10
29.3300424122391
20
-1.65702510464996
30
0
41
1
10
29.3685019733108
20
-1.63462519187695
30
0
0
SPLINE
5
E2
100
AcDbEntity
8
1
62
256
6
ByLayer
370
18
48
1
60
0
100
AcDbSpline
70
4
71
3
72
32
73
28
40
0
40
0
40
0
40
0
40
0.0679971477748429
40
0.0679971477748429
40
0.135994295549686
40
0.135994295549686
40
0.271988591099372
40
0.271988591099372
40
0.305987164986794
40
0.305987164986794
40
0.339985738874217
40
0.339985738874217
40
0.40798288664906
40
0.40798288664906
40
0.543977182198745
40
0.543977182198745
40
0.611974329973588
40
0.611974329973588
40
0.679971477748431
40
0.679971477748431
40
0.815965773298117
40
0.815965773298117
40
0.88396292107296
40
0.88396292107296
40
0.951960068847803
40
0.951960068847803
40
1
40
1
40
1
40
1
41
1
10
12.75
20
1.51114276608965
30
0
41
1
10
12.9230811248569
20
1.46226004523507
30
0
41
1
10
13.0958594746092
20
1.4051881672716
30
0
41
1
10
13.4423160994795
20
1.27604484956373
30
-1E-16
41
1
10
13.6149793303623
20
1.20429863379079
30
-1E-16
41
1
10
14.1297007737133
20
0.972214132558946
30
-1E-16
41
1
10
14.4701224449734
20
0.794555025781847
30
0
41
1
10
14.8992425796363
20
0.553973973971779
30
0
41
1
10
14.9852454723914
20
0.504929662096089
30
0
41
1
10
15.1578005782648
20
0.405260712009522
30
0
41
1
10
15.2445705060387
20
0.354506927575699
30
0
41
1
10
15.503757604398
20
0.201651932055029
30
0
41
1
10
15.6753613799918
20
0.098811622007787
30
0
41
1
10
16.188849628162
20
-0.208746067876405
30
0
41
1
10
16.529317229756
20
-0.412662346176489
30
0
41
1
10
17.0458313546746
20
-0.702325850052546
30
0
41
1
10
17.2196164708109
20
-0.796477393730356
30
0
41
1
10
17.5637990588045
20
-0.973445712928367
30
1E-16
41
1
10
17.7349094085597
20
-1.05667624262821
30
1E-16
41
1
10
18.2475531902583
20
-1.28787772018055
30
1E-16
41
1
10
18.5883427038787
20
-1.41744736712158
30
0
41
1
10
19.1067366632508
20
-1.56439518428022
30
0
41
1
10
19.2799669417852
20
-1.60516332484878
30
0
41
1
10
19.6252859576622
20
-1.66855220396207
30
0
41
1
10
19.7979487084788
20
-1.69133566617515
30
0
41
1
10
20.0935511964291
20
-1.71434515961943
30
0
41
1
10
20.2156072203028
20
-1.71918565596357
30
0
41
1
10
20.3375917114254
20
-1.7193513564666
30
0
0
SPLINE
5
E3
100
AcDbEntity
8
1
62
256
6
ByLayer
370
18
48
1
60
0
100
AcDbSpline
70
4
71
3
72
56
73
52
40
0
40
0
40
0
40
0
40
0.0200967692880644
40
0.0200967692880644
40
0.0581663585722288
40
0.0581663585722288
40
0.0772011532143111
40
0.0772011532143111
40
0.0962359478563934
40
0.0962359478563934
40
0.0968307851889584
40
0.0968307851889584
40
0.0974256225215236
40
0.0974256225215236
40
0.0986152971866537
40
0.0986152971866537
40
0.100994646516914
40
0.100994646516914
40
0.105753345177435
40
0.105753345177435
40
0.115270742498476
40
0.115270742498476
40
0.134305537140558
40
0.134305537140558
40
0.172375126424723
40
0.172375126424723
40
0.248514304993051
40
0.248514304993051
40
0.40079266212971
40
0.40079266212971
40
0.476931840698039
40
0.476931840698039
40
0.495966635340121
40
0.495966635340121
40
0.500725334000642
40
0.500725334000642
40
0.503104683330902
40
0.503104683330902
40
0.503402101997185
40
0.503402101997185
40
0.503699520663467
40
0.503699520663467
40
0.504294357996032
40
0.504294357996032
40
0.505484032661162
40
0.515001429982201
40
0.553071019266357
40
0.553071019266357
40
0.857627733539611
40
0.857627733539611
40
1
40
1
40
1
40
1
41
1
10
4.36715809952685
20
1.273914687759
30
-1E-16
41
1
10
4.36601535772337
20
1.25077244836615
30
-1E-16
41
1
10
4.36201604524211
20
1.22723592437572
30
-1E-16
41
1
10
4.34490339866727
20
1.15618245225147
30
0
41
1
10
4.32764290076187
20
1.10540189733234
30
0
41
1
10
4.29193679290395
20
1.02458341603483
30
0
41
1
10
4.27894972940177
20
0.996558028193334
30
1E-16
41
1
10
4.24843692590727
20
0.939885652895924
30
1E-16
41
1
10
4.23091750794114
20
0.911273772628789
30
1E-16
41
1
10
4.21112893975984
20
0.881316942325128
30
-1E-16
41
1
10
4.2102885943076
20
0.880501409342656
30
-1E-16
41
1
10
4.20997851733762
20
0.878279054329965
30
-1E-16
41
1
10
4.21073126063544
20
0.877003384032463
30
-1E-16
41
1
10
4.21314976858824
20
0.873658234038231
30
-1E-16
41
1
10
4.21523415549632
20
0.871625079394676
30
-1E-16
41
1
10
4.22146340279175
20
0.865691616978722
30
-1E-16
41
1
10
4.22589530307138
20
0.861937933862578
30
-1E-16
41
1
10
4.23927382705477
20
0.850788764662752
30
-1E-16
41
1
10
4.24840646620186
20
0.843569392443101
30
-1E-16
41
1
10
4.27595174301186
20
0.822057252820969
30
-1E-16
41
1
10
4.29456384966718
20
0.807959783482914
30
0
41
1
10
4.35057670348692
20
0.765889296642939
30
0
41
1
10
4.38821371523426
20
0.73817009399329
30
0
41
1
10
4.50138909478099
20
0.655291608282965
30
0
41
1
10
4.57725732365893
20
0.600486978371634
30
0
41
1
10
4.80491746017813
20
0.436079297586616
30
0
41
1
10
4.95677173964813
20
0.326434765410511
30
0
41
1
10
5.41191069880986
20
-0.0035111845939184
30
0
41
1
10
5.71490519416904
20
-0.224737506607084
30
0
41
1
10
6.16991180022046
20
-0.556293242363779
30
0
41
1
10
6.32212021112144
20
-0.666126682273074
30
0
41
1
10
6.50987480200325
20
-0.807081912932887
30
0
41
1
10
6.54739515272598
20
-0.835322977971202
30
0
41
1
10
6.59314048546474
20
-0.872126532820772
30
0
41
1
10
6.60226031120882
20
-0.879548287622981
30
0
41
1
10
6.61542901460376
20
-0.89124990677783
30
0
41
1
10
6.62023711885521
20
-0.894973747806461
30
0
41
1
10
6.62373112731018
20
-0.900459314822342
30
0
41
1
10
6.62411399655102
20
-0.901121214041467
30
0
41
1
10
6.62414582147534
20
-0.902474007096288
30
0
41
1
10
6.62349373469721
20
-0.902889882466269
30
0
41
1
10
6.62150641454997
20
-0.903248412062794
30
0
41
1
10
6.62007972836869
20
-0.903031704260883
30
0
41
1
10
6.61589398765491
20
-0.902690880279778
30
0
41
1
10
6.59078028939246
20
-0.900643374083813
30
0
41
1
10
6.47640450338378
20
-0.891210804755218
30
0
41
1
10
6.36495276645923
20
-0.881551772437803
30
0
41
1
10
5.56330349771505
20
-0.809357834718242
30
0
41
1
10
4.85667075203773
20
-0.726339193937548
30
0
41
1
10
3.82827881339705
20
-0.57548301921662
30
0
41
1
10
3.5019441586619
20
-0.523112711251883
30
0
41
1
10
3.17690263776291
20
-0.466486362684776
30
0
0
SPLINE
5
E4
100
AcDbEntity
8
1
62
256
6
ByLayer
370
18
48
1
60
0
100
AcDbSpline
70
4
71
3
72
26
73
22
40
0
40
0
40
0
40
0
40
0.0766301746105446
40
0.0766301746105446
40
0.158765880919572
40
0.158765880919572
40
0.323037293537628
40
0.323037293537628
40
0.405172999846655
40
0.405172999846655
40
0.487308706155681
40
0.487308706155681
40
0.651580118773734
40
0.651580118773734
40
0.733715825082761
40
0.733715825082761
40
0.815851531391789
40
0.815851531391789
40
0.980122944009845
40
0.980122944009845
40
1
40
1
40
1
40
1
41
1
10
6.85928158685013
20
0.229199241852427
30
0
41
1
10
6.98559832055949
20
0.1582737050432
30
0
41
1
10
7.11174270767117
20
0.0867655736300321
30
0
41
1
10
7.37163977680666
20
-0.0606669845796546
30
0
41
1
10
7.50559597248269
20
-0.136707220714328
30
0
41
1
10
7.90686489278568
20
-0.362566064397299
30
0
41
1
10
8.1735271574565
20
-0.51012745451834
30
0
41
1
10
8.57654363796055
20
-0.719723110715989
30
0
41
1
10
8.71129696924027
20
-0.787738857814645
30
0
41
1
10
8.98233091522206
20
-0.918812924115315
30
1E-16
41
1
10
9.11722669162472
20
-0.981160483489504
30
1E-16
41
1
10
9.52052461582269
20
-1.15731620543471
30
1E-16
41
1
10
9.78725867139048
20
-1.26007583011452
30
1E-16
41
1
10
10.1887554137243
20
-1.38847895383972
30
0
41
1
10
10.3227144117208
20
-1.42692508740961
30
0
41
1
10
10.5915583988756
20
-1.49422137362251
30
0
41
1
10
10.7268030243099
20
-1.52327204503828
30
0
41
1
10
11.1330637077217
20
-1.59518304569661
30
0
41
1
10
11.4006035836633
20
-1.62132265529993
30
0
41
1
10
11.7003702317919
20
-1.62748718430933
30
0
41
1
10
11.73271746695
20
-1.62782888105701
30
0
41
1
10
11.7650602795044
20
-1.6278501845469
30
0
0
SPLINE
5
E5
100
AcDbEntity
8
1
62
256
6
ByLayer
370
18
48
1
60
0
100
AcDbSpline
70
4
71
3
72
10
73
6
40
0
40
0
40
0
40
0
40
0.360086443095645
40
0.360086443095645
40
1
40
1
40
1
40
1
41
1
10
20.3971504711907
20
1.62011779939533
30
0
41
1
10
20.4415161238205
20
1.62338142909664
30
0
41
1
10
20.4858992845183
20
1.62607336132083
30
0
41
1
10
20.6092367382206
20
1.63196373486917
30
0
41
1
10
20.6882786147969
20
1.63381718229948
30
0
41
1
10
20.7674873708292
20
1.63377875145855
30
0
0
SPLINE
5
E6
100
AcDbEntity
8
1
62
256
6
ByLayer
370
18
48
1
60
0
100
AcDbSpline
70
4
71
3
72
24
73
20
40
0
40
0
40
0
40
0
40
0.0074888923747402
40
0.0074888923747402
40
0.0977171748861278
40
0.0977171748861278
40
0.278173739908899
40
0.278173739908899
40
0.458630304931674
40
0.458630304931674
40
0.548858587443059
40
0.548858587443059
40
0.639086869954443
40
0.639086869954443
40
0.819543434977218
40
0.819543434977218
40
0.909771717488609
40
0.909771717488609
40
1
40
1
40
1
40
1
41
1
10
24.9242890884293
20
0.19460832794249
30
0
41
1
10
24.9354803597959
20
0.188258173707595
30
0
41
1
10
24.9466759974903
20
0.181900437201762
30
0
41
1
10
25.0928193514646
20
0.0988481443838509
30
0
41
1
10
25.2282585034579
20
0.0211851704673904
30
0
41
1
10
25.6311744505651
20
-0.209379343968976
30
0
41
1
10
25.897581408747
20
-0.360759712098172
30
0
41
1
10
26.430702526423
20
-0.650755244517427
30
0
41
1
10
26.6975716210176
20
-0.789199917255615
30
0
41
1
10
27.1017748714115
20
-0.980899039986753
30
1E-16
41
1
10
27.2374123903417
20
-1.04212766028658
30
1E-16
41
1
10
27.5064981428489
20
-1.15621034746715
30
1E-16
41
1
10
27.6404172470458
20
-1.20935909705125
30
1E-16
41
1
10
28.0410858664697
20
-1.35626565585054
30
0
41
1
10
28.3069434964414
20
-1.43731767445067
30
0
41
1
10
28.7078439091092
20
-1.53018417715339
30
0
41
1
10
28.8418133922504
20
-1.55632274426998
30
0
41
1
10
29.110962485925
20
-1.59814723429122
30
0
41
1
10
29.2463301554761
20
-1.61369615744727
30
0
41
1
10
29.3815010113437
20
-1.62421004965756
30
0
0
SPLINE
5
E7
100
AcDbEntity
8
1
62
256
6
ByLayer
370
18
48
1
60
0
100
AcDbSpline
70
4
71
3
72
8
73
4
40
0
40
0
40
0
40
0
40
1
40
1
40
1
40
1
41
1
10
29.9974892055728
20
0.122459275000352
30
0
41
1
10
30.000849950508
20
0.0405022689313626
30
0
41
1
10
30.0008213733387
20
-0.0411991677597996
30
0
41
1
10
29.9974892055732
20
-0.122459274988984
30
0
0
SPLINE
5
E8
100
AcDbEntity
8
1
62
256
6
ByLayer
370
18
48
1
60
0
100
AcDbSpline
70
4
71
3
72
16
73
12
40
0
40
0
40
0
40
0
40
0.26174859294944
40
0.26174859294944
40
0.523497185898879
40
0.523497185898879
40
0.785245778848319
40
0.785245778848319
40
0.916120075323021
40
0.916120075323021
40
1
40
1
40
1
40
1
41
1
10
29.3148918671873
20
0.253067321308237
30
0
41
1
10
29.2919716515337
20
0.273813383292264
30
0
41
1
10
29.2696327692096
20
0.293613299211017
30
0
41
1
10
29.2260413959161
20
0.331534361161346
30
0
41
1
10
29.2053109049118
20
0.349046701998759
30
0
41
1
10
29.1673092277303
20
0.379368274751698
30
0
41
1
10
29.150255023268
20
0.391925773375959
30
0
41
1
10
29.1290173831555
20
0.405589199284663
30
0
41
1
10
29.1227015787409
20
0.40921232472482
30
0
41
1
10
29.1135272159667
20
0.413706571013876
30
0
41
1
10
29.1099749621173
20
0.415418530710781
30
0
41
1
10
29.1068489439673
20
0.416646749360695
30
0
0
SPLINE
5
E9
100
AcDbEntity
8
1
62
256
6
ByLayer
370
18
48
1
60
0
100
AcDbSpline
70
4
71
3
72
18
73
14
40
0
40
0
40
0
40
0
40
0.125
40
0.125
40
0.25
40
0.25
40
0.375
40
0.375
40
0.5
40
0.5
40
0.75
40
0.75
40
1
40
1
40
1
40
1
41
1
10
29.1912093738184
20
-0.147382588741948
30
0
41
1
10
29.1958987308673
20
-0.240121536253668
30
0
41
1
10
29.203575817611
20
-0.330600358447612
30
0
41
1
10
29.2219335366491
20
-0.507516287411306
30
0
41
1
10
29.232659112294
20
-0.594176738614919
30
0
41
1
10
29.2548663333323
20
-0.762546027585188
30
0
41
1
10
29.2660802102409
20
-0.842374357682871
30
1E-16
41
1
10
29.2872541164224
20
-0.993769926807772
30
1E-16
41
1
10
29.2972485468786
20
-1.06556001486956
30
1E-16
41
1
10
29.3241316727758
20
-1.2665258207048
30
1E-16
41
1
10
29.3367871351681
20
-1.37633008514894
30
0
41
1
10
29.3579990044871
20
-1.544984515039
30
0
41
1
10
29.3661689007657
20
-1.59949418395868
30
0
41
1
10
29.3815010113352
20
-1.62421004965762
30
0
0
SPLINE
5
EA
100
AcDbEntity
8
1
62
256
6
ByLayer
370
18
48
1
60
0
100
AcDbSpline
70
4
71
3
72
12
73
8
40
0
40
0
40
0
40
0
40
0.662993680197247
40
0.662993680197247
40
0.893247877768945
40
0.893247877768945
40
1
40
1
40
1
40
1
41
1
10
29.2598959272204
20
-1.72422589928183
30
0
41
1
10
29.2849505826124
20
-1.70803504290677
30
0
41
1
10
29.3100750800711
20
-1.69154925848181
30
0
41
1
10
29.3439200545616
20
-1.66902466029825
30
0
41
1
10
29.3526417308624
20
-1.66319151024453
30
0
41
1
10
29.3654507805658
20
-1.65458279723387
30
0
41
1
10
29.3695148854955
20
-1.65184529364822
30
0
41
1
10
29.3735883760331
20
-1.64909565497709
30
0
0
SPLINE
5
EB
100
AcDbEntity
8
1
62
256
6
ByLayer
370
18
48
1
60
0
100
AcDbSpline
70
4
71
3
72
8
73
4
40
0
40
0
40
0
40
0
40
1
40
1
40
1
40
1
41
1
10
29.6513932061208
20
-0.260004558616202
30
0
41
1
10
29.6509902784963
20
-0.261730187503048
30
0
41
1
10
29.6515909937188
20
-0.264493395580757
30
0
41
1
10
29.6530595157624
20
-0.268138439862469
30
0
0
SPLINE
5
EC
100
AcDbEntity
8
1
62
256
6
ByLayer
370
18
48
1
60
0
100
AcDbSpline
70
4
71
3
72
44
73
40
40
0
40
0
40
0
40
0
40
8.13021055501E-05
40
8.13021055501E-05
40
0.0407299632531874
40
0.0407299632531874
40
0.122027285548464
40
0.122027285548464
40
0.162675946696102
40
0.162675946696102
40
0.20332460784374
40
0.20332460784374
40
0.243973268991378
40
0.243973268991378
40
0.284621930139016
40
0.284621930139016
40
0.325270591286654
40
0.325270591286654
40
0.365919252434292
40
0.365919252434292
40
0.40656791358193
40
0.40656791358193
40
0.447216574729568
40
0.447216574729568
40
0.528513897024845
40
0.528513897024845
40
0.569162558172482
40
0.569162558172482
40
0.609811219320119
40
0.609811219320119
40
0.691108541615394
40
0.691108541615394
40
0.73175720276303
40
0.73175720276303
40
0.772405863910667
40
0.772405863910667
40
0.935000508501213
40
0.935000508501213
40
1
40
1
40
1
40
1
41
1
10
5.64742868782179
20
1.64331298729411
30
0
41
1
10
5.64769517125936
20
1.64335720665162
30
0
41
1
10
5.64796165003315
20
1.64340140400043
30
0
41
1
10
5.78145733289841
20
1.66553194818502
30
0
41
1
10
5.91406126106159
20
1.68221557747512
30
0
41
1
10
6.31155342038554
20
1.71581814507644
30
0
41
1
10
6.57557256820735
20
1.71645374584523
30
0
41
1
10
6.97437874202561
20
1.68432925802404
30
0
41
1
10
7.10794669673314
20
1.66816415690155
30
0
41
1
10
7.37622546498829
20
1.62467007124795
30
0
41
1
10
7.5094021157974
20
1.5975404580407
30
0
41
1
10
7.77514552596671
20
1.53356640259364
30
0
41
1
10
7.90772701498435
20
1.49677808471066
30
0
41
1
10
8.17223428226399
20
1.41363407461742
30
0
41
1
10
8.30421758918666
20
1.367281594726
30
-1E-16
41
1
10
8.56905627810215
20
1.26645479863976
30
-1E-16
41
1
10
8.70178138438195
20
1.21188240753318
30
-1E-16
41
1
10
8.96791397826433
20
1.09429111925164
30
-1E-16
41
1
10
9.10188141205361
20
1.03106253603599
30
-1E-16
41
1
10
9.36950956168144
20
0.899222493298197
30
-1E-16
41
1
10
9.50268381022067
20
0.830631641622659
30
-1E-16
41
1
10
9.76791534037585
20
0.688415367349847
30
0
41
1
10
9.90004912986848
20
0.614895005563284
30
0
41
1
10
10.2968925773627
20
0.390161934346224
30
0
41
1
10
10.5609079564065
20
0.232935322910095
30
0
41
1
10
10.9611422719792
20
-0.0057713735772893
30
0
41
1
10
11.095662261942
20
-0.0861506571763186
30
0
41
1
10
11.3624148399012
20
-0.245186208521261
30
0
41
1
10
11.4950959007504
20
-0.323869160213945
30
0
41
1
10
11.8926666581229
20
-0.554817245934657
30
0
41
1
10
12.1559969704612
20
-0.703754039000273
30
0
41
1
10
12.5540929268802
20
-0.910645966411835
30
1E-16
41
1
10
12.6871416405822
20
-0.977130230252016
30
1E-16
41
1
10
12.9541785512428
20
-1.10463235533354
30
1E-16
41
1
10
13.0882040045805
20
-1.16533143491787
30
1E-16
41
1
10
13.7544848199154
20
-1.44453564318204
30
0
41
1
10
14.2771873855292
20
-1.60238026223666
30
0
41
1
10
15.0275966951598
20
-1.70192781504616
30
0
41
1
10
15.2400440426408
20
-1.71614128172177
30
0
41
1
10
15.4518358240711
20
-1.71628330621525
30
0
0
SPLINE
5
ED
100
AcDbEntity
8
1
62
256
6
ByLayer
370
18
48
1
60
0
100
AcDbSpline
70
4
71
3
72
26
73
22
40
0
40
0
40
0
40
0
40
0.0581057480940369
40
0.0581057480940369
40
0.130559152086803
40
0.130559152086803
40
0.275465960072336
40
0.275465960072336
40
0.420372768057869
40
0.420372768057869
40
0.492826172050635
40
0.492826172050635
40
0.565279576043402
40
0.565279576043402
40
0.710186384028935
40
0.710186384028935
40
0.782639788021701
40
0.782639788021701
40
0.855093192014468
40
0.855093192014468
40
1
40
1
40
1
40
1
41
1
10
23.65172878018
20
1.65453506520976
30
0
41
1
10
23.7577484134254
20
1.67218903451166
30
0
41
1
10
23.8637796283492
20
1.68653182439823
30
0
41
1
10
24.1026486528725
20
1.71086131496406
30
0
41
1
10
24.2362872362569
20
1.71883422014019
30
0
41
1
10
24.6377904579341
20
1.72588512654568
30
0
41
1
10
24.9027380222874
20
1.70827869407222
30
0
41
1
10
25.4306601444085
20
1.63021887809725
30
0
41
1
10
25.6940606087646
20
1.56970549586524
30
0
41
1
10
26.0932697014761
20
1.4493623775453
30
0
41
1
10
26.2274738218422
20
1.40405927729896
30
-1E-16
41
1
10
26.4942885149038
20
1.30516033024355
30
-1E-16
41
1
10
26.6270172447993
20
1.25156600007543
30
-1E-16
41
1
10
27.0240434821269
20
1.07955667220924
30
-1E-16
41
1
10
27.2872831921297
20
0.950019361938303
30
-1E-16
41
1
10
27.6842154686339
20
0.739209062349772
30
0
41
1
10
27.816867593423
20
0.666185563215294
30
0
41
1
10
28.0835252825282
20
0.515549921456142
30
0
41
1
10
28.2176556916053
20
0.437814493075052
30
0
41
1
10
28.6175369186466
20
0.202271116202354
30
0
41
1
10
28.8824892401247
20
0.0410064149116636
30
0
41
1
10
29.1494918535864
20
-0.118290160078118
30
0
0
SPLINE
5
EE
100
AcDbEntity
8
1
62
256
6
ByLayer
370
18
48
1
60
0
100
AcDbSpline
70
4
71
3
72
20
73
16
40
0
40
0
40
0
40
0
40
0.124999999999997
40
0.124999999999997
40
0.249999999999994
40
0.249999999999994
40
0.374999999999991
40
0.374999999999991
40
0.499999999999987
40
0.499999999999987
40
0.624999999999984
40
0.624999999999984
40
0.749999999999981
40
0.749999999999981
40
1
40
1
40
1
40
1
41
1
10
29.9690024234646
20
0.0267759192960284
30
0
41
1
10
29.9607663588101
20
-0.0007027210069452
30
0
41
1
10
29.9515265054997
20
-0.0276800882516
30
0
41
1
10
29.9310480407161
20
-0.0806050582249895
30
0
41
1
10
29.9196462116194
20
-0.106877288508741
30
0
41
1
10
29.8956016179952
20
-0.156299474364346
30
0
41
1
10
29.8829930993566
20
-0.179476471497992
30
0
41
1
10
29.8566205353167
20
-0.222503643439978
30
0
41
1
10
29.842811721274
20
-0.242313099108856
30
0
41
1
10
29.8157466094131
20
-0.275738259353744
30
0
41
1
10
29.8021060939201
20
-0.289869801756396
30
0
41
1
10
29.7756624870166
20
-0.311530912019919
30
0
41
1
10
29.7630658145038
20
-0.318968726966659
30
0
41
1
10
29.7267395769633
20
-0.331484128414701
30
0
41
1
10
29.7055454737845
20
-0.325982470377397
30
0
41
1
10
29.6875821665504
20
-0.310056334976679
30
0
0
SPLINE
5
EF
100
AcDbEntity
8
1
62
256
6
ByLayer
370
18
48
1
60
0
100
AcDbSpline
70
4
71
3
72
8
73
4
40
0
40
0
40
0
40
0
40
1
40
1
40
1
40
1
41
1
10
29.4167657294383
20
1.61975268772306
30
0
41
1
10
29.4015484925945
20
1.6313740509361
30
0
41
1
10
29.3902194891449
20
1.63334328527944
30
0
41
1
10
29.3815650015513
20
1.62610409910943
30
0
0
SPLINE
5
F0
100
AcDbEntity
8
1
62
256
6
ByLayer
370
18
48
1
60
0
100
AcDbSpline
70
4
71
3
72
10
73
6
40
0
40
0
40
0
40
0
40
0.5
40
0.5
40
1
40
1
40
1
40
1
41
1
10
29.3148918671873
20
0.253067321308237
30
0
41
1
10
29.2842819482717
20
0.241059449029535
30
0
41
1
10
29.2543697838042
20
0.225045725933228
30
0
41
1
10
29.1966988003442
20
0.184185255941315
30
0
41
1
10
29.1688179235113
20
0.159085836429398
30
0
41
1
10
29.1427769669796
20
0.129844255681178
30
0
0
SPLINE
5
F1
100
AcDbEntity
8
1
62
256
6
ByLayer
370
18
48
1
60
0
100
AcDbSpline
70
4
71
3
72
46
73
42
40
0
40
0
40
0
40
0
40
0.124999999999991
40
0.124999999999991
40
0.187499999999988
40
0.187499999999988
40
0.249999999999985
40
0.249999999999985
40
0.312499999999983
40
0.312499999999983
40
0.34374999999998
40
0.34374999999998
40
0.374999999999978
40
0.374999999999978
40
0.406249999999976
40
0.406249999999976
40
0.437499999999974
40
0.437499999999974
40
0.499999999999969
40
0.499999999999969
40
0.562499999999965
40
0.562499999999965
40
0.62499999999996
40
0.62499999999996
40
0.687499999999956
40
0.687499999999956
40
0.695312499999958
40
0.695312499999958
40
0.70312499999996
40
0.70312499999996
40
0.718749999999965
40
0.718749999999965
40
0.726562499999967
40
0.726562499999967
40
0.734374999999969
40
0.734374999999969
40
0.74999999999997
40
0.74999999999997
40
0.874999999999985
40
0.874999999999985
40
1
40
1
40
1
40
1
41
1
10
3.17680813029097
20
-0.466469125357634
30
0
41
1
10
2.9991554205881
20
-0.365352952745184
30
0
41
1
10
2.8272024551211
20
-0.255489529544917
30
0
41
1
10
2.58295627610406
20
-0.0695925118045011
30
0
41
1
10
2.5038486810725
20
-0.0040677553052433
30
0
41
1
10
2.35242499041053
20
0.137466399388472
30
0
41
1
10
2.28108605264805
20
0.212511133040039
30
0
41
1
10
2.1538641342633
20
0.374077899064133
30
0
41
1
10
2.09883408198092
20
0.459442628635713
30
0
41
1
10
2.03931827058131
20
0.595310542422396
30
0
41
1
10
2.02346362527214
20
0.642055859131801
30
0
41
1
10
2.00278299877667
20
0.734598832884899
30
0
41
1
10
1.9977415275859
20
0.781499178709794
30
0
41
1
10
1.99979129196788
20
0.872314317494926
30
-1E-16
41
1
10
2.00670068248411
20
0.915819822288086
30
-1E-16
41
1
10
2.03155334940107
20
0.999316478630988
30
-1E-16
41
1
10
2.04946645107026
20
1.03880363852795
30
-1E-16
41
1
10
2.11477725369636
20
1.14770140909531
30
-1E-16
41
1
10
2.17491167847734
20
1.20996724135591
30
-1E-16
41
1
10
2.30883891678866
20
1.31515706938973
30
-1E-16
41
1
10
2.38363567179127
20
1.35931183527086
30
-1E-16
41
1
10
2.54214954827586
20
1.43610724207636
30
0
41
1
10
2.62528772899967
20
1.46841736758466
30
0
41
1
10
2.79670442134929
20
1.52470246308627
30
0
41
1
10
2.88471915610941
20
1.54853733814159
30
0
41
1
10
2.98549017660642
20
1.57178557199637
30
0
41
1
10
2.99671106865077
20
1.57431829484293
30
0
41
1
10
3.01919956482527
20
1.5792864297668
30
0
41
1
10
3.03019466233718
20
1.58192146202808
30
0
41
1
10
3.06527054040075
20
1.58820658282855
30
0
41
1
10
3.09194186941235
20
1.5886386543425
30
0
41
1
10
3.1301047815468
20
1.58623792061641
30
0
41
1
10
3.14235852423138
20
1.58480648840865
30
0
41
1
10
3.16660655634041
20
1.5815564579469
30
0
41
1
10
3.17870744518717
20
1.57988942097038
30
0
41
1
10
3.21497880461482
20
1.57481118983969
30
0
41
1
10
3.23909976768232
20
1.57130052927616
30
0
41
1
10
3.45564175696231
20
1.53851335674489
30
0
41
1
10
3.64411847808236
20
1.50077020053115
30
0
41
1
10
4.0114153406052
20
1.40383509413198
30
0
41
1
10
4.19051870174394
20
1.34460255061703
30
-1E-16
41
1
10
4.36712592938335
20
1.27392457028225
30
-1E-16
0
SPLINE
5
F2
100
AcDbEntity
8
1
62
256
6
ByLayer
370
18
48
1
60
0
100
AcDbSpline
70
4
71
3
72
10
73
6
40
0
40
0
40
0
40
0
40
0.726125232143661
40
0.726125232143661
40
1
40
1
40
1
40
1
41
1
10
29.3815010113348
20
-1.62421004965685
30
0
41
1
10
29.3816130346927
20
-1.62439063498829
30
0
41
1
10
29.3816645461387
20
-1.62476373138287
30
0
41
1
10
29.3816235149288
20
-1.62556812211454
30
0
41
1
10
29.3816005525862
20
-1.62582078949319
30
0
41
1
10
29.3815650015513
20
-1.62610409910968
30
0
0
SPLINE
5
F3
100
AcDbEntity
8
1
62
256
6
ByLayer
370
18
48
1
60
0
100
AcDbSpline
70
4
71
3
72
28
73
24
40
0
40
0
40
0
40
0
40
0.151753586441518
40
0.151753586441518
40
0.227630379662278
40
0.227630379662278
40
0.303507172883038
40
0.303507172883038
40
0.455260759324556
40
0.455260759324556
40
0.531137552545316
40
0.531137552545316
40
0.569075949155696
40
0.569075949155696
40
0.607014345766076
40
0.607014345766076
40
0.758767932207596
40
0.758767932207596
40
0.834644725428356
40
0.834644725428356
40
0.910521518649116
40
0.910521518649116
40
1
40
1
40
1
40
1
41
1
10
4.36715809953947
20
1.27391468801454
30
-1E-16
41
1
10
4.72027298185469
20
1.13415893045175
30
-1E-16
41
1
10
5.06718541332228
20
0.966896490812218
30
-1E-16
41
1
10
5.58872342737675
20
0.689864339230809
30
0
41
1
10
5.76289251868968
20
0.593396792551488
30
0
41
1
10
6.11276274568243
20
0.393485971019118
30
0
41
1
10
6.28939070476073
20
0.289484673634746
30
0
41
1
10
6.81541255500809
20
-0.0231753776816959
30
0
41
1
10
7.16201303336265
20
-0.232713092222838
30
0
41
1
10
7.68401691040995
20
-0.534830357702219
30
0
41
1
10
7.8585412323236
20
-0.633215575924709
30
0
41
1
10
8.12209356738666
20
-0.775658596134605
30
0
41
1
10
8.21039216305059
20
-0.8224172821688
30
1E-16
41
1
10
8.38600309256267
20
-0.91306141775911
30
1E-16
41
1
10
8.47349934210814
20
-0.957017091726925
30
1E-16
41
1
10
8.91003279718564
20
-1.16924291851893
30
1E-16
41
1
10
9.25627840220608
20
-1.31488719056736
30
1E-16
41
1
10
9.77944680079918
20
-1.48750407567491
30
0
41
1
10
9.95508854819937
20
-1.53742097825187
30
0
41
1
10
10.3071583628904
20
-1.61929727028726
30
0
41
1
10
10.4817546015804
20
-1.65110871875731
30
0
41
1
10
10.8611044579787
20
-1.70000226665135
30
0
41
1
10
11.0657612428097
20
-1.71345651813672
30
0
41
1
10
11.2708954091164
20
-1.71371258763637
30
0
0
SPLINE
5
F4
100
AcDbEntity
8
1
62
256
6
ByLayer
370
18
48
1
60
0
100
AcDbSpline
70
4
71
3
72
8
73
4
40
0
40
0
40
0
40
0
40
1
40
1
40
1
40
1
41
1
10
29.5613851677934
20
0.476714640335416
30
0
41
1
10
29.6591979079921
20
0.493620953887785
30
0
41
1
10
29.7565169825083
20
0.515906261562378
30
0
41
1
10
29.8492894331309
20
0.550126285463563
30
0
0
SPLINE
5
F5
100
AcDbEntity
8
1
62
256
6
ByLayer
370
18
48
1
60
0
100
AcDbSpline
70
4
71
3
72
8
73
4
40
0
40
0
40
0
40
0
40
1
40
1
40
1
40
1
41
1
10
29.8492894331308
20
-0.550126285464614
30
0
41
1
10
29.8999442247649
20
-0.408020974086895
30
0
41
1
10
29.949349976957
20
-0.265467395550502
30
0
41
1
10
29.9974892055779
20
-0.122459274984834
30
0
0
SPLINE
5
F6
100
AcDbEntity
8
1
62
256
6
ByLayer
370
18
48
1
60
0
100
AcDbSpline
70
4
71
3
72
16
73
12
40
0
40
0
40
0
40
0
40
0.230038616410837
40
0.230038616410837
40
0.460077232821673
40
0.460077232821673
40
0.69011584923251
40
0.69011584923251
40
0.920154465643346
40
0.920154465643346
40
1
40
1
40
1
40
1
41
1
10
29.4115689992736
20
1.62328698085952
30
0
41
1
10
29.2375566235317
20
1.62639414891527
30
0
41
1
10
29.0635559416022
20
1.62071662590429
30
0
41
1
10
28.7154640800146
20
1.59053103984158
30
0
41
1
10
28.5411893727217
20
1.56616487179437
30
0
41
1
10
28.1939943154804
20
1.50138351806879
30
0
41
1
10
28.0210252892736
20
1.46079479700012
30
0
41
1
10
27.6748455422952
20
1.36391500116719
30
0
41
1
10
27.5015281756326
20
1.30767791368993
30
0
41
1
10
27.2673189537839
20
1.22231955084467
30
0
41
1
10
27.2069429519407
20
1.19948411130451
30
0
41
1
10
27.1465514381579
20
1.17585921675223
30
-1E-16
0
SPLINE
5
F7
100
AcDbEntity
8
1
62
256
6
ByLayer
370
18
48
1
60
0
100
AcDbSpline
70
4
71
3
72
20
73
16
40
0
40
0
40
0
40
0
40
0.0310078917835685
40
0.0310078917835685
40
0.192506576486307
40
0.192506576486307
40
0.354005261189046
40
0.354005261189046
40
0.515503945891784
40
0.515503945891784
40
0.677002630594523
40
0.677002630594523
40
0.838501315297261
40
0.838501315297261
40
1
40
1
40
1
40
1
41
1
10
15.9774878346458
20
-0.085442964179407
30
0
41
1
10
15.9440731510876
20
-0.0665152476063611
30
0
41
1
10
15.9106578177764
20
-0.0475705364587213
30
0
41
1
10
15.7031991944437
20
0.0700757183335838
30
0
41
1
10
15.5289326016342
20
0.168665653254379
30
0
41
1
10
15.181234444155
20
0.363257225648311
30
0
41
1
10
15.0081792537319
20
0.458732842354579
30
0
41
1
10
14.6621691424106
20
0.643500143203454
30
0
41
1
10
14.4890625665913
20
0.73244345955294
30
0
41
1
10
14.1418908897784
20
0.902419536430244
30
-1E-16
41
1
10
13.9676870765734
20
0.98340845789582
30
-1E-16
41
1
10
13.6196311005001
20
1.13346653245765
30
-1E-16
41
1
10
13.4455599091258
20
1.20218798963742
30
-1E-16
41
1
10
13.0973017676934
20
1.32593810685631
30
0
41
1
10
12.9237973251636
20
1.38089412376777
30
0
41
1
10
12.7500000001125
20
1.42792158419678
30
0
0
SPLINE
5
F8
100
AcDbEntity
8
1
62
256
6
ByLayer
370
18
48
1
60
0
100
AcDbSpline
70
4
71
3
72
8
73
4
40
0
40
0
40
0
40
0
40
1
40
1
40
1
40
1
41
1
10
29.8492894331308
20
0.550126285464614
30
0
41
1
10
29.8999442247631
20
0.40802097409204
30
0
41
1
10
29.9493499769534
20
0.265467395560819
30
0
41
1
10
29.9974892055727
20
0.122459275000324
30
0
0
SPLINE
5
F9
100
AcDbEntity
8
1
62
256
6
ByLayer
370
18
48
1
60
0
100
AcDbSpline
70
4
71
3
72
8
73
4
40
0
40
0
40
0
40
0
40
1
40
1
40
1
40
1
41
1
10
29.3685019733108
20
1.63462519187695
30
0
41
1
10
29.3290669552422
20
1.63164504553203
30
0
41
1
10
29.2896053965166
20
1.62820309808726
30
0
41
1
10
29.2501467610977
20
1.62430426346535
30
0
0
SPLINE
5
FA
100
AcDbEntity
8
1
62
256
6
ByLayer
370
18
48
1
60
0
100
AcDbSpline
70
4
71
3
72
32
73
28
40
0
40
0
40
0
40
0
40
0.0038913980095718
40
0.0038913980095718
40
0.0619836971605147
40
0.0619836971605147
40
0.178168295462401
40
0.178168295462401
40
0.236260594613344
40
0.236260594613344
40
0.294352893764287
40
0.294352893764287
40
0.410537492066175
40
0.410537492066175
40
0.526722090368064
40
0.526722090368064
40
0.584814389519007
40
0.584814389519007
40
0.642906688669949
40
0.642906688669949
40
0.875275885273715
40
0.875275885273715
40
0.933368184424657
40
0.933368184424657
40
0.991460483575598
40
0.991460483575598
40
1
40
1
40
1
40
1
41
1
10
20.9496994534548
20
-1.63953718368504
30
0
41
1
10
20.9406720057719
20
-1.63990705232422
30
0
41
1
10
20.931648656485
20
-1.64025257265422
30
0
41
1
10
20.7879959807247
20
-1.64536738124471
30
0
41
1
10
20.6539444423908
20
-1.64474063137357
30
0
41
1
10
20.2527797446462
20
-1.62626969770213
30
0
41
1
10
19.9863877149456
20
-1.59311774757254
30
0
41
1
10
19.584560723074
20
-1.51183842487197
30
0
41
1
10
19.4502723861384
20
-1.47969888616811
30
0
41
1
10
19.180372648646
20
-1.40566139895563
30
0
41
1
10
19.0448145572359
20
-1.36360106978361
30
0
41
1
10
18.6414042762508
20
-1.22512624859542
30
1E-16
41
1
10
18.3747231085517
20
-1.11646828944458
30
1E-16
41
1
10
17.8406045231384
20
-0.87255748929303
30
1E-16
41
1
10
17.5733053647015
20
-0.737687068265132
30
0
41
1
10
17.1678316751363
20
-0.520948684436661
30
0
41
1
10
17.0322949375094
20
-0.446542728649973
30
0
41
1
10
16.7617314901362
20
-0.295521480260504
30
0
41
1
10
16.6260785712636
20
-0.218563085837104
30
0
41
1
10
15.9517017042561
20
0.166210169331634
30
0
41
1
10
15.422515628732
20
0.47563753211702
30
0
41
1
10
14.7479110376919
20
0.818484153603521
30
-1E-16
41
1
10
14.612155062044
20
0.885022805166471
30
-1E-16
41
1
10
14.3428029644149
20
1.01083060104639
30
-1E-16
41
1
10
14.2087115615657
20
1.07021268811849
30
-1E-16
41
1
10
14.0551897394697
20
1.13389775055384
30
-1E-16
41
1
10
14.0355204470542
20
1.14198055616859
30
-1E-16
41
1
10
14.015856070662
20
1.14998264663532
30
-1E-16
0
SPLINE
5
FB
100
AcDbEntity
8
1
62
256
6
ByLayer
370
18
48
1
60
0
100
AcDbSpline
70
4
71
3
72
42
73
38
40
0
40
0
40
0
40
0
40
0.0391756605838482
40
0.0391756605838482
40
0.095787973455629
40
0.095787973455629
40
0.15240028632741
40
0.15240028632741
40
0.209012599199191
40
0.209012599199191
40
0.265624912070972
40
0.265624912070972
40
0.322237224942753
40
0.322237224942753
40
0.378849537814534
40
0.378849537814534
40
0.435461850686315
40
0.435461850686315
40
0.492074163558096
40
0.492074163558096
40
0.548686476429877
40
0.548686476429877
40
0.605298789301658
40
0.605298789301658
40
0.661911102173439
40
0.661911102173439
40
0.71852341504522
40
0.71852341504522
40
0.775135727917
40
0.775135727917
40
0.831748040788782
40
0.831748040788782
40
0.888360353660562
40
0.888360353660562
40
0.944972666532343
40
0.944972666532343
40
1
40
1
40
1
40
1
41
1
10
6.17385938055645
20
1.62809183247168
30
0
41
1
10
6.26562352107695
20
1.63310648601626
30
0
41
1
10
6.35750161825155
20
1.63557675593333
30
0
41
1
10
6.58248877999634
20
1.63575566815177
30
0
41
1
10
6.71572591193586
20
1.6309179542109
30
0
41
1
10
6.98401563757579
20
1.60989947509933
30
0
41
1
10
7.11808551290596
20
1.59368836795616
30
0
41
1
10
7.38445950888476
20
1.55177812868013
30
0
41
1
10
7.51704887727854
20
1.52612768188348
30
0
41
1
10
7.78211336105556
20
1.46486529298946
30
0
41
1
10
7.91461696842833
20
1.42915888411287
30
0
41
1
10
8.1795184261002
20
1.34927328978858
30
0
41
1
10
8.31194711205507
20
1.30507154320122
30
0
41
1
10
8.5781848258159
20
1.20759773689619
30
-1E-16
41
1
10
8.71188518282003
20
1.15454510749871
30
-1E-16
41
1
10
8.98033308676571
20
1.04081203930846
30
-1E-16
41
1
10
9.11376781302019
20
0.980690343764081
30
-1E-16
41
1
10
9.37989461590388
20
0.854847394831893
30
-1E-16
41
1
10
9.51256476821362
20
0.789200415562618
30
0
41
1
10
9.77731098706749
20
0.653314465817033
30
0
41
1
10
9.90944348503695
20
0.583102232773996
30
0
41
1
10
10.1743755532615
20
0.439382594861598
30
0
41
1
10
10.3070707037707
20
0.365858070292887
30
0
41
1
10
10.5730282889617
20
0.216057199177897
30
0
41
1
10
10.7064721570042
20
0.139810819238392
30
0
41
1
10
10.9750298112502
20
-0.0133996519462869
30
0
41
1
10
11.1085768866014
20
-0.0896764177193177
30
0
41
1
10
11.374583250613
20
-0.241281812458055
30
0
41
1
10
11.5071119645565
20
-0.316402537553131
30
0
41
1
10
11.7721112883695
20
-0.463387062765264
30
0
41
1
10
11.904498096581
20
-0.535527719225712
30
0
41
1
10
12.1693140894454
20
-0.676890972384228
30
0
41
1
10
12.3018918666384
20
-0.745756500063123
30
0
41
1
10
12.5685134505326
20
-0.877556221127094
30
1E-16
41
1
10
12.7026221533106
20
-0.941187127725186
30
1E-16
41
1
10
12.9668088703847
20
-1.06164834308308
30
1E-16
41
1
10
13.0963071978029
20
-1.1178594177656
30
1E-16
41
1
10
13.2255878520803
20
-1.16939987817531
30
1E-16
0
SPLINE
5
FC
100
AcDbEntity
8
1
62
256
6
ByLayer
370
18
48
1
60
0
100
AcDbSpline
70
4
71
3
72
26
73
22
40
0
40
0
40
0
40
0
40
0.0336608033774496
40
0.0336608033774496
40
0.114189069762664
40
0.114189069762664
40
0.194717336147878
40
0.194717336147878
40
0.275245602533092
40
0.275245602533092
40
0.355773868918306
40
0.355773868918306
40
0.516830401688731
40
0.516830401688731
40
0.597358668073941
40
0.597358668073941
40
0.677886934459149
40
0.677886934459149
40
0.838943467229575
40
0.838943467229575
40
1
40
1
40
1
40
1
41
1
10
24.238812585105
20
1.64240007902427
30
0
41
1
10
24.2941069281592
20
1.64479829959336
30
0
41
1
10
24.3494533900312
20
1.64621157500485
30
0
41
1
10
24.5374387655758
20
1.64776270153459
30
0
41
1
10
24.6704002459072
20
1.64339148740115
30
0
41
1
10
24.9374304370852
20
1.62411539734796
30
0
41
1
10
25.0719259170764
20
1.60912439794325
30
0
41
1
10
25.3387747043563
20
1.56970082860056
30
0
41
1
10
25.4714568168247
20
1.5452753614048
30
0
41
1
10
25.7362462759504
20
1.4862398373514
30
0
41
1
10
25.8683451368113
20
1.45164950701661
30
0
41
1
10
26.2645741461669
20
1.33448869422497
30
0
41
1
10
26.5287113400375
20
1.23826304341347
30
-1E-16
41
1
10
26.928110421493
20
1.07082215344383
30
-1E-16
41
1
10
27.0623051269499
20
1.01097012210974
30
-1E-16
41
1
10
27.3296491004657
20
0.885346271359737
30
-1E-16
41
1
10
27.4625741343476
20
0.819707964628975
30
-1E-16
41
1
10
27.8601623779812
20
0.616291438204172
30
0
41
1
10
28.1236470587011
20
0.471906222395603
30
0
41
1
10
28.6521237215792
20
0.173419036758787
30
0
41
1
10
28.9172761105361
20
0.0191359006834375
30
0
41
1
10
29.1858815887026
20
-0.133778437778062
30
0
0
SPLINE
5
FD
100
AcDbEntity
8
1
62
256
6
ByLayer
370
18
48
1
60
0
100
AcDbSpline
70
4
71
3
72
8
73
4
40
0
40
0
40
0
40
0
40
1
40
1
40
1
40
1
41
1
10
29.2535783670892
20
-1.69970562870287
30
0
41
1
10
29.2560549275771
20
-1.71360150013979
30
0
41
1
10
29.2580737577596
20
-1.72188876718084
30
0
41
1
10
29.2598959272084
20
-1.72422589929005
30
0
0
SPLINE
5
FE
100
AcDbEntity
8
1
62
256
6
ByLayer
370
18
48
1
60
0
100
AcDbSpline
70
4
71
3
72
12
73
8
40
0
40
0
40
0
40
0
40
0.250000000000001
40
0.250000000000001
40
0.500000000000001
40
0.500000000000001
40
1
40
1
40
1
40
1
41
1
10
3.50331044312969
20
-1.01317876330299
30
1E-16
41
1
10
3.50588209713271
20
-1.00028475561774
30
1E-16
41
1
10
3.51241621059398
20
-0.987733295699343
30
1E-16
41
1
10
3.53218767349813
20
-0.966302399671548
30
1E-16
41
1
10
3.54528457983923
20
-0.957600455709382
30
1E-16
41
1
10
3.58947204604579
20
-0.940618261902074
30
1E-16
41
1
10
3.62570209893897
20
-0.942152800951988
30
1E-16
41
1
10
3.65384549627794
20
-0.956288285307068
30
1E-16
0
SPLINE
5
FF
100
AcDbEntity
8
1
62
256
6
ByLayer
370
18
48
1
60
0
100
AcDbSpline
70
4
71
3
72
24
73
20
40
0
40
0
40
0
40
0
40
0.0558657534411587
40
0.0558657534411587
40
0.138021340168486
40
0.138021340168486
40
0.220176926895815
40
0.220176926895815
40
0.302332513623143
40
0.302332513623143
40
0.466643687077799
40
0.466643687077799
40
0.630954860532455
40
0.630954860532455
40
0.79526603398711
40
0.79526603398711
40
0.959577207441766
40
0.959577207441766
40
1
40
1
40
1
40
1
41
1
10
20.2927974193776
20
-0.205297772166148
30
0
41
1
10
20.202770324504
20
-0.154462574218598
30
0
41
1
10
20.1128243832787
20
-0.103333806990634
30
0
41
1
10
19.8906907269387
20
0.0235348662878891
30
0
41
1
10
19.758406007299
20
0.0992606202196669
30
0
41
1
10
19.49283314347
20
0.249485566614055
30
0
41
1
10
19.3596962077106
20
0.324289281114375
30
0
41
1
10
19.092149104966
20
0.472305639986843
30
0
41
1
10
18.9578890530773
20
0.545260147605489
30
0
41
1
10
18.5577763066569
20
0.756294697961863
30
0
41
1
10
18.2934397702999
20
0.887757465581387
30
-1E-16
41
1
10
17.7634363804196
20
1.12537195561595
30
-1E-16
41
1
10
17.4983013467485
20
1.23114707995543
30
-1E-16
41
1
10
16.9618828706676
20
1.41062044619912
30
0
41
1
10
16.6927881424641
20
1.48246693778663
30
0
41
1
10
16.1583967803177
20
1.58625835657082
30
0
41
1
10
15.8939892484309
20
1.61663971718318
30
0
41
1
10
15.5637718207276
20
1.62987406786434
30
0
41
1
10
15.4985832182689
20
1.63115065235891
30
0
41
1
10
15.4333580108891
20
1.63112269221813
30
0
0
SPLINE
5
100
100
AcDbEntity
8
1
62
256
6
ByLayer
370
18
48
1
60
0
100
AcDbSpline
70
4
71
3
72
18
73
14
40
0
40
0
40
0
40
0
40
0.12225520184497
40
0.12225520184497
40
0.268546001537474
40
0.268546001537474
40
0.414836801229979
40
0.414836801229979
40
0.707418400614988
40
0.707418400614988
40
0.853709200307494
40
0.853709200307494
40
1
40
1
40
1
40
1
41
1
10
9.16877020460322
20
1.27016778814539
30
-1E-16
41
1
10
9.31402514251948
20
1.32845766802038
30
-1E-16
41
1
10
9.45932008089628
20
1.38187981133109
30
0
41
1
10
9.7794468008
20
1.48750407567516
30
0
41
1
10
9.95508854820025
20
1.5374209782521
30
0
41
1
10
10.3071583628913
20
1.61929727028743
30
0
41
1
10
10.4817546015813
20
1.65110871875746
30
0
41
1
10
11.0039729103743
20
1.71841625943904
30
0
41
1
10
11.3503342481583
20
1.7258855684093
30
0
41
1
10
11.8752320590833
20
1.67956103388704
30
0
41
1
10
12.0518836887788
20
1.65427441382124
30
0
41
1
10
12.4021702343738
20
1.58610140633172
30
0
41
1
10
12.5762573432797
20
1.54312790333546
30
0
41
1
10
12.7499999999895
20
1.49188066206531
30
0
0
SPLINE
5
101
100
AcDbEntity
8
1
62
256
6
ByLayer
370
18
48
1
60
0
100
AcDbSpline
70
4
71
3
72
20
73
16
40
0
40
0
40
0
40
0
40
0.0558781238883892
40
0.0558781238883892
40
0.213231769906991
40
0.213231769906991
40
0.370585415925593
40
0.370585415925593
40
0.527939061944194
40
0.527939061944194
40
0.685292707962796
40
0.685292707962796
40
0.842646353981398
40
0.842646353981398
40
1
40
1
40
1
40
1
41
1
10
3.50304156877053
20
-1.70883058100421
30
0
41
1
10
3.50304235695379
20
-1.70875760890269
30
0
41
1
10
3.5030431272852
20
-1.7079190809178
30
0
41
1
10
3.50304601450358
20
-1.70179981905625
30
0
41
1
10
3.50304805211081
20
-1.69104786364792
30
0
41
1
10
3.50305197197605
20
-1.65757801133807
30
0
41
1
10
3.50305385532334
20
-1.6350019326502
30
0
41
1
10
3.50305759783922
20
-1.57841399896228
30
0
41
1
10
3.50305945834072
20
-1.54437002403014
30
0
41
1
10
3.50306322861465
20
-1.46447896719653
30
0
41
1
10
3.50306509483227
20
-1.41957438350695
30
0
41
1
10
3.50306881321904
20
-1.3202458998353
30
1E-16
41
1
10
3.50307066540034
20
-1.2658210948764
30
1E-16
41
1
10
3.50307431817564
20
-1.14722367060509
30
1E-16
41
1
10
3.50307611465539
20
-1.08309157773974
30
1E-16
41
1
10
3.50307779261561
20
-1.0155115842127
30
1E-16
0
SPLINE
5
102
100
AcDbEntity
8
1
62
256
6
ByLayer
370
18
48
1
60
0
100
AcDbSpline
70
4
71
3
72
24
73
20
40
0
40
0
40
0
40
0
40
0.149808602891063
40
0.149808602891063
40
0.230091129303638
40
0.230091129303638
40
0.310373655716212
40
0.310373655716212
40
0.470938708541363
40
0.470938708541363
40
0.631503761366513
40
0.631503761366513
40
0.711786287779088
40
0.711786287779088
40
0.792068814191664
40
0.792068814191664
40
0.952633867016813
40
0.952633867016813
40
1
40
1
40
1
40
1
41
1
10
15.7494079884227
20
0.291225153200969
30
0
41
1
10
15.9988018256413
20
0.151563748149414
30
0
41
1
10
16.2483360902521
20
0.0084601620959575
30
0
41
1
10
16.635025768949
20
-0.210911657745584
30
0
41
1
10
16.7707053738616
20
-0.287470383672201
30
0
41
1
10
17.0413346579656
20
-0.437740078394398
30
0
41
1
10
17.1769149625614
20
-0.511801454302145
30
0
41
1
10
17.5824406917334
20
-0.72758086793678
30
0
41
1
10
17.8498211114618
20
-0.861953444336365
30
1E-16
41
1
10
18.3841184243989
20
-1.10517157417132
30
1E-16
41
1
10
18.6509133593694
20
-1.21361532754568
30
1E-16
41
1
10
19.0544760054649
20
-1.35198561732187
30
0
41
1
10
19.1900816191447
20
-1.3940400781666
30
0
41
1
10
19.4600222547634
20
-1.46812645959531
30
0
41
1
10
19.594342451586
20
-1.50033597807624
30
0
41
1
10
19.9962701522573
20
-1.58192138302093
30
0
41
1
10
20.2627648605928
20
-1.61541686510688
30
0
41
1
10
20.6092367382378
20
-1.63196373487
30
0
41
1
10
20.6882786148313
20
-1.6338171823003
30
0
41
1
10
20.7674873708809
20
-1.63377875145852
30
0
0
SPLINE
5
103
100
AcDbEntity
8
1
62
256
6
ByLayer
370
18
48
1
60
0
100
AcDbSpline
70
4
71
3
72
8
73
4
40
0
40
0
40
0
40
0
40
1
40
1
40
1
40
1
41
1
10
3.55080817001959
20
1.64143813640175
30
0
41
1
10
3.52543575676674
20
1.64563294532604
30
0
41
1
10
3.50775080687072
20
1.65274921348177
30
0
41
1
10
3.50325029640092
20
1.65959298856964
30
0
0
SPLINE
5
104
100
AcDbEntity
8
1
62
256
6
ByLayer
370
18
48
1
60
0
100
AcDbSpline
70
4
71
3
72
14
73
10
40
0
40
0
40
0
40
0
40
0.500000000000012
40
0.500000000000012
40
0.625000000000009
40
0.625000000000009
40
0.750000000000006
40
0.750000000000006
40
1
40
1
40
1
40
1
41
1
10
29.4167657294358
20
1.61975268772295
30
0
41
1
10
29.4818414452813
20
1.43694729089478
30
0
41
1
10
29.547180691284
20
1.25152359066175
30
0
41
1
10
29.6317263103357
20
1.02116408126119
30
0
41
1
10
29.6489878969394
20
0.975321365679974
30
0
41
1
10
29.6851935528901
20
0.884608878906619
30
0
41
1
10
29.704019644538
20
0.839756057428502
30
0
41
1
10
29.7622833865145
20
0.709389795179561
30
0
41
1
10
29.8039228260399
20
0.627316605933174
30
0
41
1
10
29.8492894331308
20
0.550126285464671
30
0
0
SPLINE
5
105
100
AcDbEntity
8
1
62
256
6
ByLayer
370
18
48
1
60
0
100
AcDbSpline
70
4
71
3
72
14
73
10
40
0
40
0
40
0
40
0
40
0.622178085915332
40
0.622178085915332
40
0.842249318531998
40
0.842249318531998
40
0.964211584921564
40
0.964211584921564
40
1
40
1
40
1
40
1
41
1
10
29.3685019733108
20
-1.63462519187695
30
0
41
1
10
29.3710379525555
20
-1.63314816737923
30
0
41
1
10
29.3737970669597
20
-1.63147345451796
30
0
41
1
10
29.3775999604728
20
-1.62897112930114
30
0
41
1
10
29.378629507401
20
-1.62827409261101
30
0
41
1
10
29.3801447031494
20
-1.62719180565784
30
0
41
1
10
29.3806775254458
20
-1.62679881888386
30
0
41
1
10
29.3812971137281
20
-1.62631767302608
30
0
41
1
10
29.3814339886169
20
-1.62620958745435
30
0
41
1
10
29.3815650015513
20
-1.62610409910934
30
0
0
SPLINE
5
106
100
AcDbEntity
8
1
62
256
6
ByLayer
370
18
48
1
60
0
100
AcDbSpline
70
4
71
3
72
8
73
4
40
0
40
0
40
0
40
0
40
1
40
1
40
1
40
1
41
1
10
29.4115689992724
20
1.6232869808554
30
0
41
1
10
29.4133011910902
20
1.62210923171904
30
0
41
1
10
29.4150334341177
20
1.62093113400354
30
0
41
1
10
29.4167657294383
20
1.61975268772309
30
0
0
SPLINE
5
107
100
AcDbEntity
8
1
62
256
6
ByLayer
370
18
48
1
60
0
100
AcDbSpline
70
4
71
3
72
8
73
4
40
0
40
0
40
0
40
0
40
1
40
1
40
1
40
1
41
1
10
12.7499999999997
20
1.4918806620623
30
0
41
1
10
12.7499999999997
20
1.47126273746269
30
0
41
1
10
12.75
20
1.44994106932856
30
0
41
1
10
12.75
20
1.42792158479145
30
0
0
SPLINE
5
108
100
AcDbEntity
8
SK1
62
256
6
ByLayer
370
18
48
1
60
0
100
AcDbSpline
70
4
71
3
72
10
73
6
40
0
40
0
40
0
40
0
40
0.5
40
0.5
40
1
40
1
40
1
40
1
41
1
10
-35.8509618943233
20
0.502362750984503
30
0
41
1
10
-35.8741904300927
20
0.546883032742102
30
0
41
1
10
-35.8986222732874
20
0.589437021687871
30
0
41
1
10
-35.9485161922248
20
0.669792379646793
30
0
41
1
10
-35.974056478015
20
0.70775706985458
30
0
41
1
10
-35.9999999999999
20
0.743841847768863
30
0
0
SPLINE
5
109
100
AcDbEntity
8
SK1
62
256
6
ByLayer
370
18
48
1
60
0
100
AcDbSpline
70
4
71
3
72
8
73
4
40
0
40
0
40
0
40
0
40
1
40
1
40
1
40
1
41
1
10
-35.8509618943233
20
-0.502362750984503
30
0
41
1
10
-35.8173602921664
20
-0.498204735264721
30
0
41
1
10
-35.783703037159
20
-0.494052077381269
30
0
41
1
10
-35.7499999999999
20
-0.489904382926738
30
0
0
SPLINE
5
10A
100
AcDbEntity
8
SK1
62
256
6
ByLayer
370
18
48
1
60
0
100
AcDbSpline
70
4
71
3
72
10
73
6
40
0
40
0
40
0
40
0
40
0.5
40
0.5
40
1
40
1
40
1
40
1
41
1
10
-35.8509618943233
20
-0.502362750984503
30
0
41
1
10
-35.8741904300927
20
-0.546883032742102
30
0
41
1
10
-35.8986222732874
20
-0.589437021687871
30
0
41
1
10
-35.9485161922248
20
-0.669792379646793
30
0
41
1
10
-35.974056478015
20
-0.70775706985458
30
0
41
1
10
-35.9999999999999
20
-0.743841847768863
30
0
0
SPLINE
5
10B
100
AcDbEntity
8
SK1
62
256
6
ByLayer
370
18
48
1
60
0
100
AcDbSpline
70
4
71
3
72
12
73
8
40
0
40
0
40
0
40
0
40
0.5
40
0.5
40
0.75
40
0.75
40
1
40
1
40
1
40
1
41
1
10
-35.75
20
-0.489904382926852
30
0
41
1
10
-35.7259913046562
20
-0.486949731330668
30
0
41
1
10
-35.7033433879313
20
-0.475677701481061
30
0
41
1
10
-35.6754686754417
20
-0.447543552897315
30
0
41
1
10
-35.667025596347
20
-0.435991101415198
30
0
41
1
10
-35.6543350076412
20
-0.408524888663209
30
0
41
1
10
-35.65
20
-0.392119712937529
30
0
41
1
10
-35.65
20
-0.374780608689179
30
0
0
SPLINE
5
10C
100
AcDbEntity
8
SK1
62
256
6
ByLayer
370
18
48
1
60
0
100
AcDbSpline
70
4
71
3
72
8
73
4
40
0
40
0
40
0
40
0
40
1
40
1
40
1
40
1
41
1
10
-35.8509618943233
20
0.502362750984503
30
0
41
1
10
-35.8173602921664
20
0.498204735264721
30
0
41
1
10
-35.783703037159
20
0.494052077381269
30
0
41
1
10
-35.7499999999999
20
0.489904382926738
30
0
0
SPLINE
5
10D
100
AcDbEntity
8
SK1
62
256
6
ByLayer
370
18
48
1
60
0
100
AcDbSpline
70
4
71
3
72
8
73
4
40
0
40
0
40
0
40
0
40
1
40
1
40
1
40
1
41
1
10
-36.0000000000001
20
1.16919468605983
30
-1E-16
41
1
10
-35.9478735570756
20
1.11805543351852
30
-1E-16
41
1
10
-35.897619057052
20
1.05853776181368
30
-1E-16
41
1
10
-35.8509618943233
20
0.987435870915903
30
-1E-16
0
SPLINE
5
10E
100
AcDbEntity
8
SK1
62
256
6
ByLayer
370
18
48
1
60
0
100
AcDbSpline
70
4
71
3
72
12
73
8
40
0
40
0
40
0
40
0
40
0.250000000000001
40
0.250000000000001
40
0.500000000000002
40
0.500000000000002
40
1
40
1
40
1
40
1
41
1
10
-35.65
20
0.916378196957851
30
-1E-16
41
1
10
-35.65
20
0.932641456556865
30
-1E-16
41
1
10
-35.6543403470552
20
0.946922677772335
30
-1E-16
41
1
10
-35.6670034572333
20
0.969491994648251
30
-1E-16
41
1
10
-35.6754069618006
20
0.978222215877139
30
-1E-16
41
1
10
-35.7033744297257
20
0.997836025851171
30
-1E-16
41
1
10
-35.7260009806424
20
1.00284769978609
30
-1E-16
41
1
10
-35.7500000000001
20
0.999894238973781
30
-1E-16
0
SPLINE
5
10F
100
AcDbEntity
8
SK1
62
256
6
ByLayer
370
18
48
1
60
0
100
AcDbSpline
70
4
71
3
72
8
73
4
40
0
40
0
40
0
40
0
40
1
40
1
40
1
40
1
41
1
10
-35.75
20
0.999894238973667
30
-1E-16
41
1
10
-35.7837023211151
20
0.995746632639708
30
-1E-16
41
1
10
-35.8173586203946
20
0.991594093508354
30
-1E-16
41
1
10
-35.8509618943233
20
0.987435870915903
30
-1E-16
0
SPLINE
5
110
100
AcDbEntity
8
SK1
62
256
6
ByLayer
370
18
48
1
60
0
100
AcDbSpline
70
4
71
3
72
12
73
8
40
0
40
0
40
0
40
0
40
0.5
40
0.5
40
0.75
40
0.75
40
1
40
1
40
1
40
1
41
1
10
-35.75
20
0.489904382926852
30
0
41
1
10
-35.7259913046562
20
0.486949731330668
30
0
41
1
10
-35.7033433879313
20
0.475677701481061
30
0
41
1
10
-35.6754686754417
20
0.447543552897315
30
0
41
1
10
-35.667025596347
20
0.435991101415226
30
0
41
1
10
-35.6543350076412
20
0.408524888663209
30
0
41
1
10
-35.65
20
0.392119712937529
30
0
41
1
10
-35.65
20
0.374780608689179
30
0
0
SPLINE
5
111
100
AcDbEntity
8
1
62
256
6
ByLayer
370
18
48
1
60
0
100
AcDbSpline
70
4
71
1
72
4
73
2
40
0
40
0
40
1
40
1
41
1
10
29.4167474888242
20
1.61996342374468
30
0
41
1
10
29.3736025030013
20
1.6490861254502
30
0
0
SPLINE
5
112
100
AcDbEntity
8
1
62
256
6
ByLayer
370
18
48
1
60
0
100
AcDbSpline
70
4
71
1
72
4
73
2
40
0
40
0
40
1
40
1
41
1
10
29.3736025030013
20
-1.6490861254502
30
0
41
1
10
29.4167474888242
20
-1.61996342374465
30
0
0
SPLINE
5
113
100
AcDbEntity
8
1
62
256
6
ByLayer
370
18
48
1
60
0
100
AcDbSpline
70
4
71
3
72
10
73
6
40
0
40
0
40
0
40
0
40
0.0507226526709307
40
0.464385239537302
40
1
40
1
40
1
40
1
41
1
10
29.1083021731097
20
0.416799081712014
30
0
41
1
10
29.0735253422774
20
0.429592999429161
30
0
41
1
10
28.7553317379752
20
0.547238953597287
30
0
41
1
10
28.075547117169
20
0.814796286109043
30
0
41
1
10
27.4348277099989
20
1.07944246402676
30
-1E-16
41
1
10
27.0753425907201
20
1.2337948922862
30
-1E-16
0
SPLINE
5
114
100
AcDbEntity
8
1
62
256
6
ByLayer
370
18
48
1
60
0
100
AcDbSpline
70
4
71
3
72
24
73
20
40
0
40
0
40
0
40
0
40
1.50201202586E-05
40
9.53857579978E-05
40
0.000149490638399
40
0.0002259887608243
40
0.0002839327796536
40
0.0005349206550483
40
0.0007324358829059
40
0.0010879832489654
40
0.001732007877046
40
0.0029230656853345
40
0.0054556786889953
40
0.0114323473168839
40
0.0267680554221967
40
0.155774679170339
40
0.370003235841635
40
0.663331390541083
40
1
40
1
40
1
40
1
41
1
10
12.281683429215
20
-0.0064283702521664
30
0
41
1
10
12.2816848665155
20
-0.006428212910663
30
0
41
1
10
12.2816919960734
20
-0.006426515084712
30
0
41
1
10
12.2816825156993
20
-0.0064166538408017
30
0
41
1
10
12.2816138761001
20
-0.0063835095571676
30
0
41
1
10
12.2815163464997
20
-0.006341083878965
30
0
41
1
10
12.2811710955524
20
-0.0062074193222372
30
0
41
1
10
12.28063872095
20
-0.0060113722341271
30
0
41
1
10
12.2798522035008
20
-0.0057153274439941
30
0
41
1
10
12.2786612157933
20
-0.0052698520129297
30
0
41
1
10
12.2764952170895
20
-0.0044595315804656
30
0
41
1
10
12.2721788606128
20
-0.0028481288319426
30
0
41
1
10
12.2624405070243
20
0.0007068366803082
30
0
41
1
10
12.2381729769368
20
0.0093734946681536
30
0
41
1
10
12.0833654058106
20
0.0634357582506198
30
0
41
1
10
11.7092280700976
20
0.194343704320687
30
0
41
1
10
11.0508948951184
20
0.435856235871824
30
0
41
1
10
10.1819271644177
20
0.771636707624282
30
0
41
1
10
9.53964504702836
20
1.03722676788451
30
-1E-16
41
1
10
9.19796209166833
20
1.18338436327576
30
-1E-16
0
SPLINE
5
115
100
AcDbEntity
8
1
62
256
6
ByLayer
370
18
48
1
60
0
100
AcDbSpline
70
4
71
3
72
14
73
10
40
0
40
0
40
0
40
0
40
0.198286743113518
40
0.323987435148001
40
0.445481894766651
40
0.619284360998573
40
0.813018935988193
40
0.947302284091022
40
1
40
1
40
1
40
1
41
1
10
20.7442485935084
20
-1.63378178376658
30
0
41
1
10
20.936696818559
20
-1.63379410739674
30
0
41
1
10
21.2511461293941
20
-1.63384723263189
30
0
41
1
10
21.6835111105358
20
-1.6346698190508
30
0
41
1
10
22.0921259233368
20
-1.63424539105009
30
0
41
1
10
22.5667682577891
20
-1.63566208933605
30
0
41
1
10
23.0538230121126
20
-1.63496044177327
30
0
41
1
10
23.4233407039665
20
-1.63526831403084
30
0
41
1
10
23.6048172857254
20
-1.63532549044979
30
0
41
1
10
23.6559635064702
20
-1.63534568527126
30
0
0
SPLINE
5
116
100
AcDbEntity
8
1
62
256
6
ByLayer
370
18
48
1
60
0
100
AcDbSpline
70
4
71
3
72
14
73
10
40
0
40
0
40
0
40
0
40
0.202633513333458
40
0.330410368116852
40
0.57587020766495
40
0.709002503517127
40
0.848747289409536
40
0.960111611896936
40
1
40
1
40
1
40
1
41
1
10
15.4508385644545
20
1.63120014627884
30
0
41
1
10
15.2571346905895
20
1.63091634968211
30
0
41
1
10
14.9412832931112
20
1.63054587355612
30
0
41
1
10
14.3907874403109
20
1.63030813868136
30
0
41
1
10
13.9067158996906
20
1.62998530146083
30
0
41
1
10
13.4112123675083
20
1.62892003062802
30
0
41
1
10
13.0438931280524
20
1.62934567394637
30
0
41
1
10
12.7657116140626
20
1.62867097049886
30
0
41
1
10
12.6211215216128
20
1.628511192849
30
0
41
1
10
12.5829902635724
20
1.62847713906765
30
0
0
SPLINE
5
117
100
AcDbEntity
8
1
62
256
6
ByLayer
370
18
48
1
60
0
100
AcDbSpline
70
4
71
3
72
12
73
8
40
0
40
0
40
0
40
0
40
0.232931299548096
40
0.42722211290645
40
0.548797307175782
40
0.817186741594464
40
1
40
1
40
1
40
1
41
1
10
3.60231778579052
20
-1.62285398425999
30
0
41
1
10
3.76100371903777
20
-1.62348916981773
30
0
41
1
10
4.05205592728837
20
-1.62428185644853
30
0
41
1
10
4.42596782465239
20
-1.62444567152264
30
0
41
1
10
4.82400481181389
20
-1.62389025204573
30
0
41
1
10
5.21426465029199
20
-1.624936290145
30
0
41
1
10
5.521675392916
20
-1.6251041384634
30
0
41
1
10
5.64622899690164
20
-1.62516727237048
30
0
0
SPLINE
5
118
100
AcDbEntity
8
1
62
256
6
ByLayer
370
18
48
1
60
0
100
AcDbSpline
70
4
71
3
72
14
73
10
40
0
40
0
40
0
40
0
40
0.206919685863546
40
0.330739287516796
40
0.441312674930051
40
0.580064961158983
40
0.712251720775317
40
0.955968247994497
40
1
40
1
40
1
40
1
41
1
10
11.7420952242675
20
-1.62783453115384
30
0
41
1
10
11.9413123379615
20
-1.62799660961696
30
0
41
1
10
12.2597414732665
20
-1.62831939403009
30
0
41
1
10
12.6846301830369
20
-1.62847431501209
30
0
41
1
10
13.0438931280524
20
-1.62934567394637
30
0
41
1
10
13.4112123675083
20
-1.62892003062802
30
0
41
1
10
13.9067158996906
20
-1.62998530146083
30
0
41
1
10
14.311031060564
20
-1.63025494751889
30
0
41
1
10
14.588069829212
20
-1.63038914549691
30
0
41
1
10
14.6304626930215
20
-1.6304103710097
30
0
0
SPLINE
5
119
100
AcDbEntity
8
1
62
256
6
ByLayer
370
18
48
1
60
0
100
AcDbSpline
70
4
71
3
72
14
73
10
40
0
40
0
40
0
40
0
40
0.199180655914136
40
0.324703631700945
40
0.458744451037263
40
0.652129122571487
40
0.825617684671967
40
0.946892713498594
40
1
40
1
40
1
40
1
41
1
10
24.4496737679153
20
1.63684800438978
30
0
41
1
10
24.256004008083
20
1.63617871031258
30
0
41
1
10
23.9402849670699
20
1.63537762748911
30
0
41
1
10
23.4942443992134
20
1.63532738909333
30
0
41
1
10
23.0538230121126
20
1.63496044177327
30
0
41
1
10
22.5667682577891
20
1.63566208933605
30
0
41
1
10
22.0921259233368
20
1.63424539105009
30
0
41
1
10
21.7538760617054
20
1.63459673101138
30
0
41
1
10
21.584320480294
20
1.63442040915123
30
0
41
1
10
21.5326833422448
20
1.63435408015064
30
0
0
SPLINE
5
11A
100
AcDbEntity
8
1
62
256
6
ByLayer
370
18
48
1
60
0
100
AcDbSpline
70
4
71
3
72
8
73
4
40
0
40
0
40
0
40
0
40
1
40
1
40
1
40
1
41
1
10
21.1520135685938
20
1.63390293191418
30
0
41
1
10
21.0160917762334
20
1.63380926280112
30
0
41
1
10
20.8801699363061
20
1.6337904876367
30
0
41
1
10
20.7442485935084
20
1.63378178376658
30
0
0
SPLINE
5
11B
100
AcDbEntity
8
1
62
256
6
ByLayer
370
18
48
1
60
0
100
AcDbSpline
70
4
71
3
72
24
73
20
40
0
40
0
40
0
40
0
40
6.52424463883E-05
40
0.0001479094314913
40
0.0002075538836153
40
0.000257447362308
40
0.0003438238697872
40
0.0007150544962852
40
0.0010069172068685
40
0.0015321223654839
40
0.0024828236260943
40
0.0042430135916152
40
0.0077315237785266
40
0.0150850873617078
40
0.0317945061390212
40
0.156319720672684
40
0.360139870170368
40
0.64136635200918
40
1
40
1
40
1
40
1
41
1
10
21.2553806145321
20
0.0032166682030947
30
0
41
1
10
21.255387555825
20
0.0032178550889341
30
0
41
1
10
21.2553889793595
20
0.0032255368573146
30
0
41
1
10
21.2553379041771
20
0.0032544290087912
30
0
41
1
10
21.2552291610218
20
0.0033014562689289
30
0
41
1
10
21.2550910866184
20
0.0033580261697352
30
0
41
1
10
21.2546166120289
20
0.0035395453482181
30
0
41
1
10
21.2537898832342
20
0.0038342544976615
30
0
41
1
10
21.2525626112355
20
0.0042833987703261
30
0
41
1
10
21.2507081116823
20
0.0049569342173186
30
0
41
1
10
21.247332779712
20
0.0061834565744334
30
0
41
1
10
21.2408555725597
20
0.0085256972723471
30
0
41
1
10
21.2276369597826
20
0.0132482889146956
30
0
41
1
10
21.1985857959502
20
0.0234753190486003
30
0
41
1
10
21.0408899383511
20
0.0781435813159135
30
0
41
1
10
20.6710471082412
20
0.208311407287198
30
0
41
1
10
20.0226572775783
20
0.446412466357458
30
0
41
1
10
19.1300006410645
20
0.792137182701509
30
0
41
1
10
18.4592448948179
20
1.06952735546568
30
-1E-16
41
1
10
18.0851141215729
20
1.22986807835454
30
-1E-16
0
SPLINE
5
11C
100
AcDbEntity
8
1
62
256
6
ByLayer
370
18
48
1
60
0
100
AcDbSpline
70
4
71
3
72
13
73
9
40
0
40
0
40
0
40
0
40
0.251528323995116
40
0.413579061588786
40
0.60617785936707
40
0.693421369182017
40
0.832846295328012
40
1
40
1
40
1
40
1
41
1
10
6.45056397475892
20
1.62567665764837
30
0
41
1
10
6.21175233603148
20
1.62553851202398
30
0
41
1
10
5.81908319204774
20
1.62521197899679
30
0
41
1
10
5.24356727559939
20
1.62501483182277
30
0
41
1
10
4.82400481181389
20
1.62389025204573
30
0
41
1
10
4.42596782465239
20
1.62444567152264
30
0
41
1
10
4.05205592728839
20
1.62428185644853
30
0
41
1
10
3.76100371903775
20
1.62348916981773
30
0
41
1
10
3.60231778579052
20
1.62285398425999
30
0
0
LINE
5
84
100
AcDbEntity
8
1
62
256
6
ByLayer
370
18
48
1
60
0
100
AcDbLine
10
29.969002
20
0.026776
30
0
11
29.561385
21
0.476715
31
0
39
0
210
0
220
0
230
1
0
LINE
5
85
100
AcDbEntity
8
1
62
256
6
ByLayer
370
18
48
1
60
0
100
AcDbLine
10
0
20
3
30
0
11
0
21
0
31
0
39
0
210
0
220
0
230
1
0
LINE
5
86
100
AcDbEntity
8
1
62
256
6
ByLayer
370
18
48
1
60
0
100
AcDbLine
10
0
20
0
30
0
11
0
21
-3
31
0
39
0
210
0
220
0
230
1
0
LINE
5
87
100
AcDbEntity
8
1
62
256
6
ByLayer
370
18
48
1
60
0
100
AcDbLine
10
0.785075
20
2.353811
30
0
11
0.785075
21
0
31
0
39
0
210
0
220
0
230
1
0
LINE
5
88
100
AcDbEntity
8
1
62
256
6
ByLayer
370
18
48
1
60
0
100
AcDbLine
10
0.785075
20
0
30
0
11
0.785075
21
-2.353811
31
0
39
0
210
0
220
0
230
1
0
LINE
5
89
100
AcDbEntity
8
1
62
256
6
ByLayer
370
18
48
1
60
0
100
AcDbLine
10
1.570649
20
1.707623
30
0
11
1.570649
21
0
31
0
39
0
210
0
220
0
230
1
0
LINE
5
8A
100
AcDbEntity
8
1
62
256
6
ByLayer
370
18
48
1
60
0
100
AcDbLine
10
1.570649
20
0
30
0
11
1.570649
21
-1.707623
31
0
39
0
210
0
220
0
230
1
0
LINE
5
8B
100
AcDbEntity
8
1
62
256
6
ByLayer
370
18
48
1
60
0
100
AcDbLine
10
12.75
20
1.511143
30
0
11
12.75
21
1.491881
31
0
39
0
210
0
220
0
230
1
0
LINE
5
8C
100
AcDbEntity
8
SK1
62
256
6
ByLayer
370
18
48
1
60
0
100
AcDbLine
10
-35.65
20
-0.374781
30
0
11
-35.65
21
0.916378
31
0
39
0
210
0
220
0
230
1
0
LINE
5
8E
100
AcDbEntity
8
SK1
62
256
6
ByLayer
370
18
48
1
60
0
100
AcDbLine
10
-36
20
1.169195
30
0
11
-36
21
2.065
31
0
39
0
210
0
220
0
230
1
0
LINE
5
8F
100
AcDbEntity
8
SK1
62
256
6
ByLayer
370
18
48
1
60
0
100
AcDbLine
10
-35.850962
20
0.502363
30
0
11
-35.850962
21
0.987436
31
0
39
0
210
0
220
0
230
1
0
LINE
5
90
100
AcDbEntity
8
SK1
62
256
6
ByLayer
370
18
48
1
60
0
100
AcDbLine
10
-36
20
-2.065
30
0
11
-36
21
-0.743842
31
0
39
0
210
0
220
0
230
1
0
LINE
5
91
100
AcDbEntity
8
SK1
62
256
6
ByLayer
370
18
48
1
60
0
100
AcDbLine
10
-35.75
20
0.489904
30
0
11
-35.75
21
0.999894
31
0
39
0
210
0
220
0
230
1
0
LINE
5
92
100
AcDbEntity
8
SK1
62
256
6
ByLayer
370
18
48
1
60
0
100
AcDbLine
10
-36
20
0.743842
30
0
11
-36
21
1.169195
31
0
39
0
210
0
220
0
230
1
0
LINE
5
93
100
AcDbEntity
8
SK1
62
256
6
ByLayer
370
18
48
1
60
0
100
AcDbLine
10
0
20
3
30
0
11
0
21
-3
31
0
39
0
210
0
220
0
230
1
0
LINE
5
94
100
AcDbEntity
8
SK1
62
256
6
ByLayer
370
18
48
1
60
0
100
AcDbLine
10
-35.065
20
-3
30
0
11
-35.065
21
3
31
0
39
0
210
0
220
0
230
1
0
LINE
5
95
100
AcDbEntity
8
1
62
256
6
ByLayer
370
18
48
1
60
0
100
AcDbLine
10
1.570649
20
-1.707623
30
0
11
3.503026
21
-1.70883
31
0
39
0
210
0
220
0
230
1
0
LINE
5
96
100
AcDbEntity
8
1
62
256
6
ByLayer
370
18
48
1
60
0
100
AcDbLine
10
6.450435
20
-1.710673
30
0
11
6.882943
21
-1.710943
31
0
39
0
210
0
220
0
230
1
0
LINE
5
97
100
AcDbEntity
8
1
62
256
6
ByLayer
370
18
48
1
60
0
100
AcDbLine
10
11.272795
20
-1.713687
30
0
11
11.74279
21
-1.71398
31
0
39
0
210
0
220
0
230
1
0
LINE
5
98
100
AcDbEntity
8
1
62
256
6
ByLayer
370
18
48
1
60
0
100
AcDbLine
10
15.452242
20
-1.716299
30
0
11
15.872127
21
-1.716561
31
0
39
0
210
0
220
0
230
1
0
LINE
5
99
100
AcDbEntity
8
1
62
256
6
ByLayer
370
18
48
1
60
0
100
AcDbLine
10
20.340526
20
-1.719354
30
0
11
20.744592
21
-1.719606
31
0
39
0
210
0
220
0
230
1
0
LINE
5
9A
100
AcDbEntity
8
1
62
256
6
ByLayer
370
18
48
1
60
0
100
AcDbLine
10
24.450505
20
-1.721923
30
0
11
24.863489
21
-1.722181
31
0
39
0
210
0
220
0
230
1
0
LINE
5
9B
100
AcDbEntity
8
1
62
256
6
ByLayer
370
18
48
1
60
0
100
AcDbLine
10
24.863489
20
1.722181
30
0
11
24.450505
21
1.721923
31
0
39
0
210
0
220
0
230
1
0
LINE
5
9C
100
AcDbEntity
8
1
62
256
6
ByLayer
370
18
48
1
60
0
100
AcDbLine
10
20.744592
20
1.719606
30
0
11
20.340526
21
1.719354
31
0
39
0
210
0
220
0
230
1
0
LINE
5
9D
100
AcDbEntity
8
1
62
256
6
ByLayer
370
18
48
1
60
0
100
AcDbLine
10
15.872127
20
1.716561
30
0
11
15.452242
21
1.716299
31
0
39
0
210
0
220
0
230
1
0
LINE
5
9E
100
AcDbEntity
8
1
62
256
6
ByLayer
370
18
48
1
60
0
100
AcDbLine
10
11.74279
20
1.71398
30
0
11
11.272795
21
1.713687
31
0
39
0
210
0
220
0
230
1
0
LINE
5
9F
100
AcDbEntity
8
1
62
256
6
ByLayer
370
18
48
1
60
0
100
AcDbLine
10
6.882943
20
1.710943
30
0
11
6.450435
21
1.710673
31
0
39
0
210
0
220
0
230
1
0
LINE
5
A0
100
AcDbEntity
8
1
62
256
6
ByLayer
370
18
48
1
60
0
100
AcDbLine
10
3.503026
20
1.70883
30
0
11
1.570649
21
1.707623
31
0
39
0
210
0
220
0
230
1
0
LINE
5
A1
100
AcDbEntity
8
SK1
62
256
6
ByLayer
370
18
48
1
60
0
100
AcDbLine
10
-36
20
-2.065
30
0
11
-35.065
21
-3
31
0
39
0
210
0
220
0
230
1
0
LINE
5
A2
100
AcDbEntity
8
SK1
62
256
6
ByLayer
370
18
48
1
60
0
100
AcDbLine
10
-35.065
20
3
30
0
11
-36
21
2.065
31
0
39
0
210
0
220
0
230
1
0
LINE
5
A3
100
AcDbEntity
8
SK1
62
256
6
ByLayer
370
18
48
1
60
0
100
AcDbLine
10
-35.065
20
-3
30
0
11
0
21
-3
31
0
39
0
210
0
220
0
230
1
0
LINE
5
A4
100
AcDbEntity
8
SK1
62
256
6
ByLayer
370
18
48
1
60
0
100
AcDbLine
10
0
20
3
30
0
11
-35.065
21
3
31
0
39
0
210
0
220
0
230
1
0
LINE
5
A5
100
AcDbEntity
8
SK4
62
256
6
ByLayer
370
18
48
0.05
60
0
100
AcDbLine
10
35
20
0
30
0
11
-41
21
0
31
0
39
0
210
0
220
0
230
1
0
LINE
5
A7
100
AcDbEntity
8
4
62
256
6
ByLayer
370
18
48
0.05
60
0
100
AcDbLine
10
-36
20
0
30
0
11
35
21
0
31
0
39
0
210
0
220
0
230
1
0
LINE
5
A9
100
AcDbEntity
8
80
62
256
6
ByLayer
370
18
48
1
60
0
100
AcDbLine
10
0
20
0
30
0
11
-6
21
0
31
0
39
0
210
0
220
0
230
1
0
LINE
5
AA
100
AcDbEntity
8
81
62
256
6
ByLayer
370
18
48
1
60
0
100
AcDbLine
10
30
20
0
30
0
11
36
21
0
31
0
39
0
210
0
220
0
230
1
0
LINE
5
AB
100
AcDbEntity
8
SK2
62
256
6
ByLayer
370
13
48
1
60
0
100
AcDbLine
10
30.54292
20
1.491776
30
0
11
37.925774
21
21.777574
31
0
39
0
210
0
220
0
230
1
0
LINE
5
AD
100
AcDbEntity
8
SK2
62
256
6
ByLayer
370
13
48
1
60
0
100
AcDbLine
10
30.54292
20
-1.491776
30
0
11
37.925774
21
-21.777574
31
0
39
0
210
0
220
0
230
1
0
LINE
5
AE
100
AcDbEntity
8
1
62
256
6
ByLayer
370
13
48
1
60
0
100
AcDbLine
10
36.839935
20
18.794023
30
0
11
39.936546
21
17.977728
31
0
39
0
210
0
220
0
230
1
0
LINE
5
AF
100
AcDbEntity
8
1
62
256
6
ByLayer
370
13
48
1
60
0
100
AcDbLine
10
36.839935
20
18.794023
30
0
11
39.619761
21
17.204079
31
0
39
0
210
0
220
0
230
1
0
LINE
5
B0
100
AcDbEntity
8
1
62
256
6
ByLayer
370
13
48
1
60
0
100
AcDbLine
10
39.936546
20
17.977728
30
0
11
39.619761
21
17.204079
31
0
39
0
210
0
220
0
230
1
0
LINE
5
B1
100
AcDbEntity
8
1
62
256
6
ByLayer
370
13
48
1
60
0
100
AcDbLine
10
36.839935
20
-18.794023
30
0
11
39.619758
21
-17.20408
31
0
39
0
210
0
220
0
230
1
0
LINE
5
B2
100
AcDbEntity
8
1
62
256
6
ByLayer
370
13
48
1
60
0
100
AcDbLine
10
36.839935
20
-18.794023
30
0
11
39.936549
21
-17.977727
31
0
39
0
210
0
220
0
230
1
0
LINE
5
B3
100
AcDbEntity
8
1
62
256
6
ByLayer
370
13
48
1
60
0
100
AcDbLine
10
39.619758
20
-17.20408
30
0
11
39.936549
21
-17.977727
31
0
39
0
210
0
220
0
230
1
0
MTEXT
5
11D
100
AcDbEntity
8
SK2
62
256
6
ByLayer
370
18
48
1
60
0
100
AcDbMText
10
43.717388
20
-2.467451
30
0
210
0
220
0
230
1
1
\W0.7237;140.00
40
3.50012
41
0
44
1.084337
50
0
71
7
72
5
7
iso_b_vert
0
MTEXT
5
120
100
AcDbEntity
8
SK6
62
256
6
ByLayer
370
18
48
1
60
0
100
AcDbMText
10
-42.331725
20
-95.436362
30
0
210
0
220
0
230
1
1
\W0.7388;860.1-0345-017A1-GM X1BM
40
3.175
41
0
44
1.084337
50
0
71
7
72
5
7
iso_b_vert
0
DIMENSION
5
123
100
AcDbEntity
8
SK2
62
256
6
ByLayer
370
18
48
1
60
0
100
AcDbDimension
2
_U0
10
30
20
-26.50012
30
0
11
15
21
-26.50012
31
0
70
32
71
2
72
1
41
1
210
0
220
0
230
1
3
Standard
100
AcDbAlignedDimension
13
0
23
-3
33
0
14
30
24
0
34
0
50
0
100
AcDbRotatedDimension
1001
ACAD
1000
DSTYLE
1002
{
1070
   371
1070
    13
1070
   372
1070
    13
1070
     3
1000

1070
   170
1070
     0
1070
   144
1040
1.0
1070
   277
1070
     2
1070
   284
1070
     8
1070
   278
1070
    46
1070
   146
1040
0.999966
1070
   345
1005
16
1070
   347
1005
16
1070
   346
1005
16
1070
   344
1005
124
1070
   343
1005
124
1070
   172
1070
     1
1070
    76
1070
     0
1070
    75
1070
     0
1070
   282
1070
     0
1070
   281
1070
     0
1070
    71
1070
     0
1070
    74
1070
     0
1070
   279
1070
     0
1070
   173
1070
     1
1070
   340
1005
11E
1070
   271
1070
     1
1070
   272
1070
     2
1070
    77
1070
     1
1070
    73
1070
     1
1070
   171
1070
     3
1070
   274
1070
     4
1070
   177
1070
   150
1070
   176
1070
     9
1070
   178
1070
    43
1070
    78
1070
     8
1070
    48
1040
-0.1
1070
    41
1040
3.175
1070
   147
1040
1.75006
1070
    42
1040
1.5875
1070
    44
1040
3.175
1070
   140
1040
3.50012
1002
}
1001
ACAD_DSTYLE_DIM_LINETYPE
1070
   380
1005
16
1001
ACAD_DSTYLE_DIM_EXT1_LINETYPE
1070
   381
1005
16
1001
ACAD_DSTYLE_DIM_EXT2_LINETYPE
1070
   382
1005
16
0
DIMENSION
5
149
100
AcDbEntity
8
2
62
256
6
ByLayer
370
18
48
1
60
0
100
AcDbDimension
2
_U1
10
36.75006
20
1.725
30
0
11
36.75006
21
17.298233
31
0
70
32
71
1
72
1
41
1
210
0
220
0
230
1
3
Standard
100
AcDbAlignedDimension
13
29.3722
23
-1.725
33
0
14
29.3722
24
1.725
34
0
50
90
100
AcDbRotatedDimension
1001
ACAD
1000
DSTYLE
1002
{
1070
   371
1070
    13
1070
   372
1070
    13
1070
     3
1000

1070
   170
1070
     0
1070
   144
1040
1.0
1070
   277
1070
     2
1070
   284
1070
     8
1070
   278
1070
    46
1070
   146
1040
0.999966
1070
   345
1005
16
1070
   347
1005
16
1070
   346
1005
16
1070
   344
1005
124
1070
   343
1005
124
1070
   172
1070
     1
1070
    76
1070
     0
1070
    75
1070
     0
1070
   282
1070
     0
1070
   281
1070
     0
1070
    71
1070
     0
1070
    74
1070
     0
1070
   279
1070
     0
1070
   173
1070
     1
1070
   340
1005
11E
1070
   271
1070
     1
1070
   272
1070
     2
1070
    77
1070
     1
1070
    73
1070
     0
1070
   171
1070
     3
1070
   274
1070
     4
1070
   177
1070
   150
1070
   176
1070
     9
1070
   178
1070
    43
1070
    78
1070
     8
1070
    48
1040
-0.1
1070
    41
1040
3.175
1070
   147
1040
1.75006
1070
    42
1040
1.5875
1070
    44
1040
3.175
1070
   140
1040
3.50012
1002
}
1001
ACAD_DSTYLE_DIM_LINETYPE
1070
   380
1005
16
1001
ACAD_DSTYLE_DIM_EXT1_LINETYPE
1070
   381
1005
16
1001
ACAD_DSTYLE_DIM_EXT2_LINETYPE
1070
   382
1005
16
0
DIMENSION
5
168
100
AcDbEntity
8
SK2
62
256
6
ByLayer
370
18
48
1
60
0
100
AcDbDimension
2
_U2
10
-39.24994
20
-3
30
0
11
-39.24994
21
17.10734
31
0
70
32
71
1
72
1
41
1
210
0
220
0
230
1
3
Standard
100
AcDbAlignedDimension
13
-36
23
3
33
0
14
-36
24
-3
34
0
50
90
100
AcDbRotatedDimension
1001
ACAD
1000
DSTYLE
1002
{
1070
   371
1070
    13
1070
   372
1070
    13
1070
     3
1000

1070
   170
1070
     0
1070
   144
1040
1.0
1070
   277
1070
     2
1070
   284
1070
     8
1070
   278
1070
    46
1070
   146
1040
0.999966
1070
   345
1005
16
1070
   347
1005
16
1070
   346
1005
16
1070
   344
1005
124
1070
   343
1005
124
1070
   172
1070
     1
1070
    76
1070
     0
1070
    75
1070
     0
1070
   282
1070
     0
1070
   281
1070
     0
1070
    71
1070
     0
1070
    74
1070
     0
1070
   279
1070
     0
1070
   173
1070
     1
1070
   340
1005
11E
1070
   271
1070
     1
1070
   272
1070
     2
1070
    77
1070
     1
1070
    73
1070
     0
1070
   171
1070
     3
1070
   274
1070
     4
1070
   177
1070
   150
1070
   176
1070
     9
1070
   178
1070
    43
1070
    78
1070
     8
1070
    48
1040
-0.1
1070
    41
1040
3.175
1070
   147
1040
1.75006
1070
    42
1040
1.5875
1070
    44
1040
3.175
1070
   140
1040
3.50012
1002
}
1001
ACAD_DSTYLE_DIM_LINETYPE
1070
   380
1005
16
1001
ACAD_DSTYLE_DIM_EXT1_LINETYPE
1070
   381
1005
16
1001
ACAD_DSTYLE_DIM_EXT2_LINETYPE
1070
   382
1005
16
0
DIMENSION
5
186
100
AcDbEntity
8
SK2
62
256
6
ByLayer
370
18
48
1
60
0
100
AcDbDimension
2
_U3
10
0
20
-26.50012
30
0
11
-18
21
-26.50012
31
0
70
32
71
1
72
1
41
1
210
0
220
0
230
1
3
Standard
100
AcDbAlignedDimension
13
-36
23
-3
33
0
14
0
24
-3
34
0
50
0
100
AcDbRotatedDimension
1001
ACAD
1000
DSTYLE
1002
{
1070
   371
1070
    13
1070
   372
1070
    13
1070
     3
1000

1070
   170
1070
     0
1070
   144
1040
1.0
1070
   277
1070
     2
1070
   284
1070
     8
1070
   278
1070
    46
1070
   146
1040
0.999966
1070
   345
1005
16
1070
   347
1005
16
1070
   346
1005
16
1070
   344
1005
124
1070
   343
1005
124
1070
   172
1070
     1
1070
    76
1070
     0
1070
    75
1070
     0
1070
   282
1070
     0
1070
   281
1070
     0
1070
    71
1070
     0
1070
    74
1070
     0
1070
   279
1070
     0
1070
   173
1070
     1
1070
   340
1005
11E
1070
   271
1070
     1
1070
   272
1070
     2
1070
    77
1070
     1
1070
    73
1070
     1
1070
   171
1070
     3
1070
   274
1070
     4
1070
   177
1070
   150
1070
   176
1070
     9
1070
   178
1070
    43
1070
    78
1070
     8
1070
    48
1040
-0.1
1070
    41
1040
3.175
1070
   147
1040
1.75006
1070
    42
1040
1.5875
1070
    44
1040
3.175
1070
   140
1040
3.50012
1002
}
1001
ACAD_DSTYLE_DIM_LINETYPE
1070
   380
1005
16
1001
ACAD_DSTYLE_DIM_EXT1_LINETYPE
1070
   381
1005
16
1001
ACAD_DSTYLE_DIM_EXT2_LINETYPE
1070
   382
1005
16
0
DIMENSION
5
1A2
100
AcDbEntity
8
SK2
62
256
6
ByLayer
370
18
48
1
60
0
100
AcDbDimension
2
_U4
10
30
20
-17.74982
30
0
11
16
21
-17.74982
31
0
70
32
71
1
72
1
41
1
210
0
220
0
230
1
3
Standard
100
AcDbAlignedDimension
13
2
23
2.225
33
0
14
30
24
0
34
0
50
0
100
AcDbRotatedDimension
1001
ACAD
1000
DSTYLE
1002
{
1070
   371
1070
    13
1070
   372
1070
    13
1070
     3
1000

1070
   170
1070
     0
1070
   144
1040
1.0
1070
   277
1070
     2
1070
   284
1070
     8
1070
   278
1070
    46
1070
   146
1040
0.999966
1070
   345
1005
16
1070
   347
1005
16
1070
   346
1005
16
1070
   344
1005
124
1070
   343
1005
124
1070
   172
1070
     1
1070
    76
1070
     0
1070
    75
1070
     0
1070
   282
1070
     0
1070
   281
1070
     0
1070
    71
1070
     0
1070
    74
1070
     0
1070
   279
1070
     0
1070
   173
1070
     1
1070
   340
1005
11E
1070
   271
1070
     1
1070
   272
1070
     2
1070
    77
1070
     1
1070
    73
1070
     1
1070
   171
1070
     3
1070
   274
1070
     4
1070
   177
1070
   150
1070
   176
1070
     9
1070
   178
1070
    43
1070
    78
1070
     8
1070
    48
1040
-0.1
1070
    41
1040
3.175
1070
   147
1040
1.75006
1070
    42
1040
1.5875
1070
    44
1040
3.175
1070
   140
1040
3.50012
1002
}
1001
ACAD_DSTYLE_DIM_LINETYPE
1070
   380
1005
16
1001
ACAD_DSTYLE_DIM_EXT1_LINETYPE
1070
   381
1005
16
1001
ACAD_DSTYLE_DIM_EXT2_LINETYPE
1070
   382
1005
16
0
DIMENSION
5
1BE
100
AcDbEntity
8
SK2
62
256
6
ByLayer
370
18
48
1
60
0
100
AcDbDimension
2
_U5
10
30
20
-9.82
30
0
11
21.1
21
-9.82
31
0
70
32
71
1
72
1
41
1
210
0
220
0
230
1
3
Standard
100
AcDbAlignedDimension
13
12.2
23
-1.725
33
0
14
30
24
0
34
0
50
0
100
AcDbRotatedDimension
1001
ACAD
1000
DSTYLE
1002
{
1070
   371
1070
    13
1070
   372
1070
    13
1070
     3
1000

1070
   170
1070
     0
1070
   144
1040
1.0
1070
   277
1070
     2
1070
   284
1070
     8
1070
   278
1070
    46
1070
   146
1040
1.25
1070
   345
1005
16
1070
   347
1005
16
1070
   346
1005
16
1070
   344
1005
124
1070
   343
1005
124
1070
   172
1070
     1
1070
    76
1070
     0
1070
    75
1070
     0
1070
   282
1070
     0
1070
   281
1070
     0
1070
    71
1070
     0
1070
    74
1070
     0
1070
   279
1070
     0
1070
   173
1070
     1
1070
   340
1005
11E
1070
   271
1070
     1
1070
   272
1070
     2
1070
    77
1070
     1
1070
    73
1070
     1
1070
   171
1070
     3
1070
   274
1070
     4
1070
   177
1070
   150
1070
   176
1070
     9
1070
   178
1070
    43
1070
    78
1070
     8
1070
    48
1040
-0.1
1070
    41
1040
3.175
1070
   147
1040
0.42
1070
    42
1040
1.5875
1070
    44
1040
0.5
1070
   140
1040
2.8
1002
}
1001
ACAD_DSTYLE_DIM_LINETYPE
1070
   380
1005
16
1001
ACAD_DSTYLE_DIM_EXT1_LINETYPE
1070
   381
1005
16
1001
ACAD_DSTYLE_DIM_EXT2_LINETYPE
1070
   382
1005
16
0
DIMENSION
5
1DA
100
AcDbEntity
8
SK2
62
256
6
ByLayer
370
18
48
1
60
0
100
AcDbDimension
2
_U6
10
30
20
-36.50012
30
0
11
-3
21
-36.50012
31
0
70
32
71
1
72
1
41
1
210
0
220
0
230
1
3
Standard
100
AcDbAlignedDimension
13
-36
23
0
33
0
14
30
24
0
34
0
50
0
100
AcDbRotatedDimension
1001
ACAD
1000
DSTYLE
1002
{
1070
   371
1070
    13
1070
   372
1070
    13
1070
     3
1000

1070
   170
1070
     0
1070
   144
1040
1.0
1070
   277
1070
     2
1070
   284
1070
     8
1070
   278
1070
    46
1070
   146
1040
0.999966
1070
   345
1005
16
1070
   347
1005
16
1070
   346
1005
16
1070
   344
1005
124
1070
   343
1005
124
1070
   172
1070
     1
1070
    76
1070
     0
1070
    75
1070
     0
1070
   282
1070
     0
1070
   281
1070
     0
1070
    71
1070
     0
1070
    74
1070
     0
1070
   279
1070
     0
1070
   173
1070
     1
1070
   340
1005
11E
1070
   271
1070
     1
1070
   272
1070
     2
1070
    77
1070
     1
1070
    73
1070
     1
1070
   171
1070
     3
1070
   274
1070
     4
1070
   177
1070
   150
1070
   176
1070
     9
1070
   178
1070
    43
1070
    78
1070
     8
1070
    48
1040
-0.1
1070
    41
1040
3.175
1070
   147
1040
1.75006
1070
    42
1040
1.5875
1070
    44
1040
3.175
1070
   140
1040
3.50012
1002
}
1001
ACAD_DSTYLE_DIM_LINETYPE
1070
   380
1005
16
1001
ACAD_DSTYLE_DIM_EXT1_LINETYPE
1070
   381
1005
16
1001
ACAD_DSTYLE_DIM_EXT2_LINETYPE
1070
   382
1005
16
0
ENDSEC
0
SECTION
2
OBJECTS
0
DICTIONARY
5
266
330
0
100
AcDbDictionary
280
0
281
1
3
ACAD_GROUP
350
267
3
ACAD_MLINESTYLE
350
268
0
DICTIONARY
5
267
330
0
100
AcDbDictionary
280
0
281
1
0
DICTIONARY
5
268
330
0
100
AcDbDictionary
280
0
281
1
3
Standard
350
18
0
MLINESTYLE
5
18
330
268
100
AcDbMlineStyle
2
Standard
70
0
3

62
256
51
90
52
90
71
2
49
-0.5
62
256
6
ByLayer
49
0.5
62
256
6
ByLayer
0
RASTERVARIABLES
5
254
330

100
AcDbRasterVariables
90
0
70
1
71
1
72
1
0
ENDSEC
0
EOF
