0
SECTION
2
HEADER
9
$ACADVER
1
AC1015
9
$DWGCODEPAGE
3
ANSI_1252
9
$HANDSEED
5
25b
9
$ANGBASE
50
0
9
$ANGDIR
70
0
9
$ATTMODE
70
1
9
$AUNITS
70
0
9
$AUPREC
70
0
9
$CECOLOR
62
256
9
$CELTSCALE
40
1
9
$CELTYPE
6
ByLayer
9
$CELWEIGHT
370
18
9
$CLAYER
8
0
9
$CMLJUST
70
0
9
$CMLSCALE
40
1
9
$CMLSTYLE
2
Standard
9
$DIMSTYLE
2
Standard
9
$TEXTSIZE
40
0.2
9
$TEXTSTYLE
7
Standard
9
$LUNITS
70
2
9
$LUPREC
70
4
9
$EXTNAMES
290
1
9
$INSUNITS
70
4
9
$LTSCALE
40
1
9
$LWDISPLAY
290
1
9
$PDMODE
70
0
9
$PDSIZE
40
0
9
$PLINEGEN
70
0
0
ENDSEC
0
SECTION
2
CLASSES
0
CLASS
1
RASTERVARIABLES
2
AcDbRasterVariables
3
ISM
90
0
280
0
281
0
0
ENDSEC
0
SECTION
2
TABLES
0
TABLE
2
VPORT
5
251
100
AcDbSymbolTable
0
VPORT
5
1
100
AcDbSymbolTableRecord
100
AcDbViewportTableRecord
2
*Active
70
0
10
0
20
0
11
1
21
1
12
-1
22
1
13
0
23
0
14
0.5
24
0.5
15
10
25
10
16
0
26
0
36
1
17
0
27
0
37
0
0
ENDTAB
0
TABLE
2
LTYPE
5
252
100
AcDbSymbolTable
0
LTYPE
5
14
100
AcDbSymbolTableRecord
100
AcDbLinetypeTableRecord
70
0
2
ByBlock
3

72
65
73
0
40
0
0
LTYPE
5
15
100
AcDbSymbolTableRecord
100
AcDbLinetypeTableRecord
70
0
2
ByLayer
3

72
65
73
0
40
0
0
LTYPE
5
16
100
AcDbSymbolTableRecord
100
AcDbLinetypeTableRecord
70
0
2
Continuous
3
Solid line
72
65
73
0
40
0
0
LTYPE
5
6E
100
AcDbSymbolTableRecord
100
AcDbLinetypeTableRecord
70
0
2
CENTER
3
____ _ ____ _ ____ _ ____
72
65
73
4
40
47.5
49
22
74
0
49
-8.5
74
0
49
8.5
74
0
49
-8.5
74
0
0
LTYPE
5
6F
100
AcDbSymbolTableRecord
100
AcDbLinetypeTableRecord
70
0
2
DASHED
3
__ __ __ __ __ __ __ __ __
72
65
73
2
40
25.72
49
12.86
74
0
49
-12.86
74
0
0
ENDTAB
0
TABLE
2
LAYER
5
253
100
AcDbSymbolTable
0
LAYER
5
10
100
AcDbSymbolTableRecord
100
AcDbLayerTableRecord
2
0
70
0
62
7
6
Continuous
290
1
370
-3
390
0
0
LAYER
5
71
100
AcDbSymbolTableRecord
100
AcDbLayerTableRecord
2
80
70
0
62
-6
6
Continuous
290
1
370
-3
390
0
0
LAYER
5
73
100
AcDbSymbolTableRecord
100
AcDbLayerTableRecord
2
81
70
0
62
-3
6
Continuous
290
1
370
-3
390
0
0
LAYER
5
75
100
AcDbSymbolTableRecord
100
AcDbLayerTableRecord
2
1
70
0
62
4
6
Continuous
290
1
370
-3
390
0
0
LAYER
5
A2
100
AcDbSymbolTableRecord
100
AcDbLayerTableRecord
2
4
70
0
62
-2
6
CENTER
290
1
370
-3
390
0
0
LAYER
5
115
100
AcDbSymbolTableRecord
100
AcDbLayerTableRecord
2
Defpoints
70
0
62
7
6
Continuous
290
0
370
-3
390
0
0
LAYER
5
142
100
AcDbSymbolTableRecord
100
AcDbLayerTableRecord
2
2
70
0
62
7
6
Continuous
290
1
370
-3
390
0
0
LAYER
5
23d
100
AcDbSymbolTableRecord
100
AcDbLayerTableRecord
2
SK1
70
0
62
4
6
Continuous
290
1
370
-3
390
0
0
LAYER
5
23e
100
AcDbSymbolTableRecord
100
AcDbLayerTableRecord
2
SK4
70
0
62
2
6
CENTER
290
1
370
-3
390
0
0
LAYER
5
23f
100
AcDbSymbolTableRecord
100
AcDbLayerTableRecord
2
SK2
70
0
62
7
6
Continuous
290
1
370
-3
390
0
0
LAYER
5
240
100
AcDbSymbolTableRecord
100
AcDbLayerTableRecord
2
SK6
70
0
62
5
6
Continuous
290
1
370
-3
390
0
0
ENDTAB
0
TABLE
2
STYLE
5
254
100
AcDbSymbolTable
0
STYLE
5
11
100
AcDbSymbolTableRecord
100
AcDbTextStyleTableRecord
2
Standard
3
txt
70
0
71
0
40
0
41
1
42
0
50
0
0
STYLE
5
106
100
AcDbSymbolTableRecord
100
AcDbTextStyleTableRecord
2
iso_b_vert
3
simplex.shx
70
0
71
0
40
0
41
1
42
0
50
0
0
STYLE
5
107
100
AcDbSymbolTableRecord
100
AcDbTextStyleTableRecord
2
DWGDirectTextStyle
3
simplex
70
0
71
0
40
0
41
1
42
0
50
0
0
ENDTAB
0
TABLE
2
DIMSTYLE
5
255
100
AcDbSymbolTable
100
AcDbDimStyleTable
0
DIMSTYLE
105
27
100
AcDbSymbolTableRecord
100
AcDbDimStyleTableRecord
2
Standard
70
0
3
<>
41
0.18
42
0.0625
44
0.18
140
0.18
147
0.09
73
0
74
0
77
1
271
2
275
0
278
52
280
0
340
11
0
ENDTAB
0
TABLE
2
VIEW
5
256
100
AcDbSymbolTable
0
ENDTAB
0
TABLE
2
UCS
5
257
100
AcDbSymbolTable
0
ENDTAB
0
TABLE
2
APPID
5
258
100
AcDbSymbolTable
0
APPID
5
12
100
AcDbSymbolTableRecord
100
AcDbRegAppTableRecord
2
ACAD
70
0
0
APPID
5
10A
100
AcDbSymbolTableRecord
100
AcDbRegAppTableRecord
2
ACAD_DSTYLE_DIMBREAK
70
0
0
APPID
5
1FC
100
AcDbSymbolTableRecord
100
AcDbRegAppTableRecord
2
ACAD_DSTYLE_DIM_LINETYPE
70
0
0
APPID
5
1FD
100
AcDbSymbolTableRecord
100
AcDbRegAppTableRecord
2
ACAD_DSTYLE_DIM_EXT1_LINETYPE
70
0
0
APPID
5
1FE
100
AcDbSymbolTableRecord
100
AcDbRegAppTableRecord
2
ACAD_DSTYLE_DIM_EXT2_LINETYPE
70
0
0
APPID
5
239
100
AcDbSymbolTableRecord
100
AcDbRegAppTableRecord
2
ACAD_MLEADERVER
70
0
0
ENDTAB
0
TABLE
2
BLOCK_RECORD
5
259
100
AcDbSymbolTable
0
BLOCK_RECORD
5
1F
100
AcDbSymbolTableRecord
100
AcDbBlockTableRecord
2
*Model_Space
340
0
70
0
0
BLOCK_RECORD
5
1B
100
AcDbSymbolTableRecord
100
AcDbBlockTableRecord
2
*Paper_Space
340
0
70
0
0
BLOCK_RECORD
5
23
100
AcDbSymbolTableRecord
100
AcDbBlockTableRecord
2
*Paper_Space0
340
0
70
0
0
BLOCK_RECORD
5
10C
100
AcDbSymbolTableRecord
100
AcDbBlockTableRecord
2
_Closed
340
0
70
0
0
BLOCK_RECORD
5
116
100
AcDbSymbolTableRecord
100
AcDbBlockTableRecord
2
*D2
340
0
70
0
0
BLOCK_RECORD
5
122
100
AcDbSymbolTableRecord
100
AcDbBlockTableRecord
2
_U0
340
0
70
0
0
BLOCK_RECORD
5
134
100
AcDbSymbolTableRecord
100
AcDbBlockTableRecord
2
*D4
340
0
70
0
0
BLOCK_RECORD
5
143
100
AcDbSymbolTableRecord
100
AcDbBlockTableRecord
2
_U1
340
0
70
0
0
BLOCK_RECORD
5
153
100
AcDbSymbolTableRecord
100
AcDbBlockTableRecord
2
*D6
340
0
70
0
0
BLOCK_RECORD
5
161
100
AcDbSymbolTableRecord
100
AcDbBlockTableRecord
2
_U2
340
0
70
0
0
BLOCK_RECORD
5
171
100
AcDbSymbolTableRecord
100
AcDbBlockTableRecord
2
*D8
340
0
70
0
0
BLOCK_RECORD
5
17D
100
AcDbSymbolTableRecord
100
AcDbBlockTableRecord
2
_U3
340
0
70
0
0
BLOCK_RECORD
5
18D
100
AcDbSymbolTableRecord
100
AcDbBlockTableRecord
2
*D10
340
0
70
0
0
BLOCK_RECORD
5
199
100
AcDbSymbolTableRecord
100
AcDbBlockTableRecord
2
_U4
340
0
70
0
0
BLOCK_RECORD
5
1A9
100
AcDbSymbolTableRecord
100
AcDbBlockTableRecord
2
*D12
340
0
70
0
0
BLOCK_RECORD
5
1B5
100
AcDbSymbolTableRecord
100
AcDbBlockTableRecord
2
_U5
340
0
70
0
0
BLOCK_RECORD
5
1C5
100
AcDbSymbolTableRecord
100
AcDbBlockTableRecord
2
*D14
340
0
70
0
0
BLOCK_RECORD
5
1D1
100
AcDbSymbolTableRecord
100
AcDbBlockTableRecord
2
_U6
340
0
70
0
0
ENDTAB
0
ENDSEC
0
SECTION
2
BLOCKS
0
BLOCK
5
20
100
AcDbEntity
8
0
100
AcDbBlockBegin
2
*Model_Space
70
0
10
0
20
0
30
0
3
*Model_Space
0
ENDBLK
5
21
100
AcDbEntity
8
0
100
AcDbBlockEnd
0
BLOCK
5
1C
100
AcDbEntity
8
0
100
AcDbBlockBegin
2
*Paper_Space
70
0
10
0
20
0
30
0
3
*Paper_Space
0
ENDBLK
5
1D
100
AcDbEntity
8
0
100
AcDbBlockEnd
0
BLOCK
5
24
100
AcDbEntity
8
0
100
AcDbBlockBegin
2
*Paper_Space0
70
0
10
0
20
0
30
0
3
*Paper_Space0
0
ENDBLK
5
25
100
AcDbEntity
8
0
100
AcDbBlockEnd
0
BLOCK
5
10D
100
AcDbEntity
8
0
100
AcDbBlockBegin
2
_Closed
70
0
10
0
20
0
30
0
3
_Closed
0
LINE
5
10F
100
AcDbEntity
8
0
62
256
6
ByLayer
370
-2
48
1
60
0
100
AcDbLine
10
-1
20
0.166667
30
0
11
0
21
0
31
0
39
0
210
0
220
0
230
1
0
LINE
5
110
100
AcDbEntity
8
0
62
256
6
ByLayer
370
-2
48
1
60
0
100
AcDbLine
10
0
20
0
30
0
11
-1
21
-0.166667
31
0
39
0
210
0
220
0
230
1
0
LINE
5
111
100
AcDbEntity
8
0
62
256
6
ByLayer
370
-2
48
1
60
0
100
AcDbLine
10
-1
20
0.166667
30
0
11
-1
21
-0.166667
31
0
39
0
210
0
220
0
230
1
0
LINE
5
112
100
AcDbEntity
8
0
62
256
6
ByLayer
370
-2
48
1
60
0
100
AcDbLine
10
0
20
0
30
0
11
-1
21
0
31
0
39
0
210
0
220
0
230
1
0
ENDBLK
5
10E
100
AcDbEntity
8
0
100
AcDbBlockEnd
0
BLOCK
5
117
100
AcDbEntity
8
0
100
AcDbBlockBegin
2
*D2
70
1
10
0
20
0
30
0
3
*D2
0
LINE
5
119
100
AcDbEntity
8
0
62
256
6
ByLayer
370
-2
48
1
60
0
100
AcDbLine
10
0
20
-6.5875
30
0
11
0
21
-31.67512
31
0
39
0
210
0
220
0
230
1
0
LINE
5
11A
100
AcDbEntity
8
0
62
256
6
ByLayer
370
-2
48
1
60
0
100
AcDbLine
10
63
20
-1.5875
30
0
11
63
21
-31.67512
31
0
39
0
210
0
220
0
230
1
0
LINE
5
11B
100
AcDbEntity
8
0
62
256
6
ByLayer
370
-2
48
1
60
0
100
AcDbLine
10
3.175
20
-28.50012
30
0
11
59.825
21
-28.50012
31
0
39
0
210
0
220
0
230
1
0
SOLID
5
11C
100
AcDbEntity
8
0
62
256
6
ByLayer
370
-1
48
1
60
0
100
AcDbTrace
10
3.175
20
-27.970953
30
0
11
3.175
21
-29.029287
31
0
12
0
22
-28.50012
32
0
13
0
23
-28.50012
33
0
39
0
210
0
220
0
230
1
0
SOLID
5
11D
100
AcDbEntity
8
0
62
256
6
ByLayer
370
-1
48
1
60
0
100
AcDbTrace
10
59.825
20
-29.029287
30
0
11
59.825
21
-27.970953
31
0
12
63
22
-28.50012
32
0
13
63
23
-28.50012
33
0
39
0
210
0
220
0
230
1
0
MTEXT
5
11E
100
AcDbEntity
8
0
62
256
6
ByLayer
370
18
48
1
60
0
100
AcDbMText
10
31.5
20
-21.193619
30
0
210
0
220
0
230
1
1
\A1;63
40
3.50012
41
0
44
1
50
0
71
5
72
5
7
iso_b_vert
0
POINT
5
11F
100
AcDbEntity
8
Defpoints
62
0
6
ByLayer
370
-1
48
1
60
0
100
AcDbPoint
10
0
20
-5
30
0
39
0
210
0
220
0
230
1
50
360
0
POINT
5
120
100
AcDbEntity
8
Defpoints
62
0
6
ByLayer
370
-1
48
1
60
0
100
AcDbPoint
10
63
20
0
30
0
39
0
210
0
220
0
230
1
50
360
0
POINT
5
121
100
AcDbEntity
8
Defpoints
62
0
6
ByLayer
370
-1
48
1
60
0
100
AcDbPoint
10
63
20
-28.50012
30
0
39
0
210
0
220
0
230
1
50
360
0
ENDBLK
5
118
100
AcDbEntity
8
0
100
AcDbBlockEnd
0
BLOCK
5
12F
100
AcDbEntity
8
0
100
AcDbBlockBegin
2
_U0
70
0
10
0
20
0
30
0
3
_U0
0
MTEXT
5
123
100
AcDbEntity
8
SK2
62
256
6
ByLayer
370
18
48
1
60
0
100
AcDbMText
10
26.270389
20
-27.467451
30
0
210
0
220
0
230
1
1
\W0.7468;63.00
40
3.50012
41
0
44
1.084337
50
0
71
7
72
5
7
iso_b_vert
0
MTEXT
5
124
100
AcDbEntity
8
SK2
62
256
6
ByLayer
370
18
48
1
60
0
100
AcDbMText
10
22.744329
20
-27.400814
30
0
210
0
220
0
230
1
1
\W0.1790;(
40
3.175
41
0
44
1.084337
50
0
71
7
72
5
7
iso_b_vert
0
MTEXT
5
125
100
AcDbEntity
8
SK2
62
256
6
ByLayer
370
18
48
1
60
0
100
AcDbMText
10
40.258393
20
-27.400814
30
0
210
0
220
0
230
1
1
\W0.1969;)
40
3.175
41
0
44
1.084337
50
0
71
7
72
5
7
iso_b_vert
0
LINE
5
126
100
AcDbEntity
8
SK2
62
256
6
ByLayer
370
13
48
1
60
0
100
AcDbLine
10
0
20
-6.5875
30
0
11
0
21
-31.67512
31
0
39
0
210
0
220
0
230
1
0
LINE
5
127
100
AcDbEntity
8
SK2
62
256
6
ByLayer
370
13
48
1
60
0
100
AcDbLine
10
63
20
-1.5875
30
0
11
63
21
-31.67512
31
0
39
0
210
0
220
0
230
1
0
LINE
5
128
100
AcDbEntity
8
SK2
62
256
6
ByLayer
370
13
48
1
60
0
100
AcDbLine
10
0
20
-28.50012
30
0
11
63
21
-28.50012
31
0
39
0
210
0
220
0
230
1
0
LINE
5
129
100
AcDbEntity
8
SK2
62
256
6
ByLayer
370
13
48
1
60
0
100
AcDbLine
10
0
20
-28.50012
30
0
11
3.174998
21
-28.082123
31
0
39
0
210
0
220
0
230
1
0
LINE
5
12A
100
AcDbEntity
8
SK2
62
256
6
ByLayer
370
13
48
1
60
0
100
AcDbLine
10
0
20
-28.50012
30
0
11
3.175002
21
-28.918117
31
0
39
0
210
0
220
0
230
1
0
LINE
5
12B
100
AcDbEntity
8
SK2
62
256
6
ByLayer
370
13
48
1
60
0
100
AcDbLine
10
3.174998
20
-28.082123
30
0
11
3.175002
21
-28.918117
31
0
39
0
210
0
220
0
230
1
0
LINE
5
12C
100
AcDbEntity
8
SK2
62
256
6
ByLayer
370
13
48
1
60
0
100
AcDbLine
10
63
20
-28.50012
30
0
11
59.825002
21
-28.918117
31
0
39
0
210
0
220
0
230
1
0
LINE
5
12D
100
AcDbEntity
8
SK2
62
256
6
ByLayer
370
13
48
1
60
0
100
AcDbLine
10
63
20
-28.50012
30
0
11
59.824998
21
-28.082123
31
0
39
0
210
0
220
0
230
1
0
LINE
5
12E
100
AcDbEntity
8
SK2
62
256
6
ByLayer
370
13
48
1
60
0
100
AcDbLine
10
59.825002
20
-28.918117
30
0
11
59.824998
21
-28.082123
31
0
39
0
210
0
220
0
230
1
0
ENDBLK
5
130
100
AcDbEntity
8
0
100
AcDbBlockEnd
0
BLOCK
5
135
100
AcDbEntity
8
0
100
AcDbBlockBegin
2
*D4
70
1
10
0
20
0
30
0
3
*D4
0
LINE
5
137
100
AcDbEntity
8
0
62
256
6
ByLayer
370
-2
48
1
60
0
100
AcDbLine
10
62.986
20
-4.4
30
0
11
72.92506
21
-4.4
31
0
39
0
210
0
220
0
230
1
0
LINE
5
138
100
AcDbEntity
8
0
62
256
6
ByLayer
370
-2
48
1
60
0
100
AcDbLine
10
62.986
20
4.4
30
0
11
72.92506
21
4.4
31
0
39
0
210
0
220
0
230
1
0
LINE
5
139
100
AcDbEntity
8
0
62
256
6
ByLayer
370
-2
48
1
60
0
100
AcDbLine
10
69.75006
20
4.4
30
0
11
69.75006
21
29.196466
31
0
39
0
210
0
220
0
230
1
0
LINE
5
13A
100
AcDbEntity
8
0
62
256
6
ByLayer
370
-2
48
1
60
0
100
AcDbLine
10
69.75006
20
-7.575
30
0
11
69.75006
21
-10.75
31
0
39
0
210
0
220
0
230
1
0
LINE
5
13B
100
AcDbEntity
8
0
62
256
6
ByLayer
370
-2
48
1
60
0
100
AcDbLine
10
69.75006
20
7.575
30
0
11
69.75006
21
10.75
31
0
39
0
210
0
220
0
230
1
0
SOLID
5
13C
100
AcDbEntity
8
0
62
256
6
ByLayer
370
-1
48
1
60
0
100
AcDbTrace
10
70.279227
20
-7.575
30
0
11
69.220893
21
-7.575
31
0
12
69.75006
22
-4.4
32
0
13
69.75006
23
-4.4
33
0
39
0
210
0
220
0
230
1
0
SOLID
5
13D
100
AcDbEntity
8
0
62
256
6
ByLayer
370
-1
48
1
60
0
100
AcDbTrace
10
69.220893
20
7.575
30
0
11
70.279227
21
7.575
31
0
12
69.75006
22
4.4
32
0
13
69.75006
23
4.4
33
0
39
0
210
0
220
0
230
1
0
MTEXT
5
13E
100
AcDbEntity
8
0
62
256
6
ByLayer
370
18
48
1
60
0
100
AcDbMText
10
62.44356
20
19.973233
30
0
210
0
220
0
230
1
1
\A1;8.8
40
3.50012
41
0
44
1
50
90
71
5
72
5
7
iso_b_vert
0
POINT
5
13F
100
AcDbEntity
8
Defpoints
62
0
6
ByLayer
370
-1
48
1
60
0
100
AcDbPoint
10
61.3985
20
-4.4
30
0
39
0
210
0
220
0
230
1
50
360
0
POINT
5
140
100
AcDbEntity
8
Defpoints
62
0
6
ByLayer
370
-1
48
1
60
0
100
AcDbPoint
10
61.3985
20
4.4
30
0
39
0
210
0
220
0
230
1
50
360
0
POINT
5
141
100
AcDbEntity
8
Defpoints
62
0
6
ByLayer
370
-1
48
1
60
0
100
AcDbPoint
10
69.75006
20
4.4
30
0
39
0
210
0
220
0
230
1
50
360
0
ENDBLK
5
136
100
AcDbEntity
8
0
100
AcDbBlockEnd
0
BLOCK
5
14E
100
AcDbEntity
8
0
100
AcDbBlockBegin
2
_U1
70
0
10
0
20
0
30
0
3
_U1
0
MTEXT
5
144
100
AcDbEntity
8
2
62
256
6
ByLayer
370
18
48
1
60
0
100
AcDbMText
10
69.060403
20
8.557505
30
0
210
0
220
0
230
1
1
\W0.7346;8.80
40
3.50012
41
0
44
1.084337
50
90
71
7
72
5
7
iso_b_vert
0
LINE
5
145
100
AcDbEntity
8
2
62
256
6
ByLayer
370
13
48
1
60
0
100
AcDbLine
10
62.986
20
-4.4
30
0
11
72.92506
21
-4.4
31
0
39
0
210
0
220
0
230
1
0
LINE
5
146
100
AcDbEntity
8
2
62
256
6
ByLayer
370
13
48
1
60
0
100
AcDbLine
10
62.986
20
4.4
30
0
11
72.92506
21
4.4
31
0
39
0
210
0
220
0
230
1
0
LINE
5
147
100
AcDbEntity
8
2
62
256
6
ByLayer
370
13
48
1
60
0
100
AcDbLine
10
69.75006
20
-4.4
30
0
11
69.75006
21
16.61468
31
0
39
0
210
0
220
0
230
1
0
LINE
5
148
100
AcDbEntity
8
2
62
256
6
ByLayer
370
13
48
1
60
0
100
AcDbLine
10
69.75006
20
-4.4
30
0
11
69.332063
21
-1.225002
31
0
39
0
210
0
220
0
230
1
0
LINE
5
149
100
AcDbEntity
8
2
62
256
6
ByLayer
370
13
48
1
60
0
100
AcDbLine
10
69.75006
20
-4.4
30
0
11
70.168057
21
-1.224998
31
0
39
0
210
0
220
0
230
1
0
LINE
5
14A
100
AcDbEntity
8
2
62
256
6
ByLayer
370
13
48
1
60
0
100
AcDbLine
10
69.332063
20
-1.225002
30
0
11
70.168057
21
-1.224998
31
0
39
0
210
0
220
0
230
1
0
LINE
5
14B
100
AcDbEntity
8
2
62
256
6
ByLayer
370
13
48
1
60
0
100
AcDbLine
10
69.75006
20
4.4
30
0
11
70.168057
21
1.225002
31
0
39
0
210
0
220
0
230
1
0
LINE
5
14C
100
AcDbEntity
8
2
62
256
6
ByLayer
370
13
48
1
60
0
100
AcDbLine
10
69.75006
20
4.4
30
0
11
69.332063
21
1.224998
31
0
39
0
210
0
220
0
230
1
0
LINE
5
14D
100
AcDbEntity
8
2
62
256
6
ByLayer
370
13
48
1
60
0
100
AcDbLine
10
70.168057
20
1.225002
30
0
11
69.332063
21
1.224998
31
0
39
0
210
0
220
0
230
1
0
ENDBLK
5
14F
100
AcDbEntity
8
0
100
AcDbBlockEnd
0
BLOCK
5
154
100
AcDbEntity
8
0
100
AcDbBlockBegin
2
*D6
70
1
10
0
20
0
30
0
3
*D6
0
LINE
5
156
100
AcDbEntity
8
0
62
256
6
ByLayer
370
-2
48
1
60
0
100
AcDbLine
10
-41.5875
20
5
30
0
11
-46.42494
21
5
31
0
39
0
210
0
220
0
230
1
0
LINE
5
157
100
AcDbEntity
8
0
62
256
6
ByLayer
370
-2
48
1
60
0
100
AcDbLine
10
-41.5875
20
-5
30
0
11
-46.42494
21
-5
31
0
39
0
210
0
220
0
230
1
0
LINE
5
158
100
AcDbEntity
8
0
62
256
6
ByLayer
370
-2
48
1
60
0
100
AcDbLine
10
-43.24994
20
5
30
0
11
-43.24994
21
28.117532
31
0
39
0
210
0
220
0
230
1
0
LINE
5
159
100
AcDbEntity
8
0
62
256
6
ByLayer
370
-2
48
1
60
0
100
AcDbLine
10
-43.24994
20
8.175
30
0
11
-43.24994
21
11.35
31
0
39
0
210
0
220
0
230
1
0
LINE
5
15A
100
AcDbEntity
8
0
62
256
6
ByLayer
370
-2
48
1
60
0
100
AcDbLine
10
-43.24994
20
-8.175
30
0
11
-43.24994
21
-11.35
31
0
39
0
210
0
220
0
230
1
0
SOLID
5
15B
100
AcDbEntity
8
0
62
256
6
ByLayer
370
-1
48
1
60
0
100
AcDbTrace
10
-43.779107
20
8.175
30
0
11
-42.720773
21
8.175
31
0
12
-43.24994
22
5
32
0
13
-43.24994
23
5
33
0
39
0
210
0
220
0
230
1
0
SOLID
5
15C
100
AcDbEntity
8
0
62
256
6
ByLayer
370
-1
48
1
60
0
100
AcDbTrace
10
-42.720773
20
-8.175
30
0
11
-43.779107
21
-8.175
31
0
12
-43.24994
22
-5
32
0
13
-43.24994
23
-5
33
0
39
0
210
0
220
0
230
1
0
MTEXT
5
15D
100
AcDbEntity
8
0
62
256
6
ByLayer
370
18
48
1
60
0
100
AcDbMText
10
-50.556441
20
19.97767
30
0
210
0
220
0
230
1
1
\A1;10
40
3.50012
41
0
44
1
50
90
71
5
72
5
7
iso_b_vert
0
POINT
5
15E
100
AcDbEntity
8
Defpoints
62
0
6
ByLayer
370
-1
48
1
60
0
100
AcDbPoint
10
-40
20
5
30
0
39
0
210
0
220
0
230
1
50
360
0
POINT
5
15F
100
AcDbEntity
8
Defpoints
62
0
6
ByLayer
370
-1
48
1
60
0
100
AcDbPoint
10
-40
20
-5
30
0
39
0
210
0
220
0
230
1
50
360
0
POINT
5
160
100
AcDbEntity
8
Defpoints
62
0
6
ByLayer
370
-1
48
1
60
0
100
AcDbPoint
10
-43.24994
20
-5
30
0
39
0
210
0
220
0
230
1
50
360
0
ENDBLK
5
155
100
AcDbEntity
8
0
100
AcDbBlockEnd
0
BLOCK
5
16C
100
AcDbEntity
8
0
100
AcDbBlockBegin
2
_U2
70
0
10
0
20
0
30
0
3
_U2
0
MTEXT
5
162
100
AcDbEntity
8
SK2
62
256
6
ByLayer
370
18
48
1
60
0
100
AcDbMText
10
-43.939597
20
15.157505
30
0
210
0
220
0
230
1
1
\W0.6864;10.00
40
3.50012
41
0
44
1.084337
50
90
71
7
72
5
7
iso_b_vert
0
LINE
5
163
100
AcDbEntity
8
SK2
62
256
6
ByLayer
370
13
48
1
60
0
100
AcDbLine
10
-41.5875
20
5
30
0
11
-46.42494
21
5
31
0
39
0
210
0
220
0
230
1
0
LINE
5
164
100
AcDbEntity
8
SK2
62
256
6
ByLayer
370
13
48
1
60
0
100
AcDbLine
10
-41.5875
20
-5
30
0
11
-46.42494
21
-5
31
0
39
0
210
0
220
0
230
1
0
LINE
5
165
100
AcDbEntity
8
SK2
62
256
6
ByLayer
370
13
48
1
60
0
100
AcDbLine
10
-43.24994
20
-5
30
0
11
-43.24994
21
24.955339
31
0
39
0
210
0
220
0
230
1
0
LINE
5
166
100
AcDbEntity
8
SK2
62
256
6
ByLayer
370
13
48
1
60
0
100
AcDbLine
10
-43.24994
20
5
30
0
11
-42.831943
21
1.825002
31
0
39
0
210
0
220
0
230
1
0
LINE
5
167
100
AcDbEntity
8
SK2
62
256
6
ByLayer
370
13
48
1
60
0
100
AcDbLine
10
-43.24994
20
5
30
0
11
-43.667937
21
1.824998
31
0
39
0
210
0
220
0
230
1
0
LINE
5
168
100
AcDbEntity
8
SK2
62
256
6
ByLayer
370
13
48
1
60
0
100
AcDbLine
10
-42.831943
20
1.825002
30
0
11
-43.667937
21
1.824998
31
0
39
0
210
0
220
0
230
1
0
LINE
5
169
100
AcDbEntity
8
SK2
62
256
6
ByLayer
370
13
48
1
60
0
100
AcDbLine
10
-43.24994
20
-5
30
0
11
-43.667937
21
-1.825002
31
0
39
0
210
0
220
0
230
1
0
LINE
5
16A
100
AcDbEntity
8
SK2
62
256
6
ByLayer
370
13
48
1
60
0
100
AcDbLine
10
-43.24994
20
-5
30
0
11
-42.831943
21
-1.824998
31
0
39
0
210
0
220
0
230
1
0
LINE
5
16B
100
AcDbEntity
8
SK2
62
256
6
ByLayer
370
13
48
1
60
0
100
AcDbLine
10
-43.667937
20
-1.825002
30
0
11
-42.831943
21
-1.824998
31
0
39
0
210
0
220
0
230
1
0
ENDBLK
5
16D
100
AcDbEntity
8
0
100
AcDbBlockEnd
0
BLOCK
5
172
100
AcDbEntity
8
0
100
AcDbBlockBegin
2
*D8
70
1
10
0
20
0
30
0
3
*D8
0
LINE
5
174
100
AcDbEntity
8
0
62
256
6
ByLayer
370
-2
48
1
60
0
100
AcDbLine
10
-40
20
-6.5875
30
0
11
-40
21
-31.67512
31
0
39
0
210
0
220
0
230
1
0
LINE
5
175
100
AcDbEntity
8
0
62
256
6
ByLayer
370
-2
48
1
60
0
100
AcDbLine
10
0
20
-6.5875
30
0
11
0
21
-31.67512
31
0
39
0
210
0
220
0
230
1
0
LINE
5
176
100
AcDbEntity
8
0
62
256
6
ByLayer
370
-2
48
1
60
0
100
AcDbLine
10
-36.825
20
-28.50012
30
0
11
-3.175
21
-28.50012
31
0
39
0
210
0
220
0
230
1
0
SOLID
5
177
100
AcDbEntity
8
0
62
256
6
ByLayer
370
-1
48
1
60
0
100
AcDbTrace
10
-36.825
20
-27.970953
30
0
11
-36.825
21
-29.029287
31
0
12
-40
22
-28.50012
32
0
13
-40
23
-28.50012
33
0
39
0
210
0
220
0
230
1
0
SOLID
5
178
100
AcDbEntity
8
0
62
256
6
ByLayer
370
-1
48
1
60
0
100
AcDbTrace
10
-3.175
20
-29.029287
30
0
11
-3.175
21
-27.970953
31
0
12
0
22
-28.50012
32
0
13
0
23
-28.50012
33
0
39
0
210
0
220
0
230
1
0
MTEXT
5
179
100
AcDbEntity
8
0
62
256
6
ByLayer
370
18
48
1
60
0
100
AcDbMText
10
-20
20
-21.193619
30
0
210
0
220
0
230
1
1
\A1;40
40
3.50012
41
0
44
1
50
0
71
5
72
5
7
iso_b_vert
0
POINT
5
17A
100
AcDbEntity
8
Defpoints
62
0
6
ByLayer
370
-1
48
1
60
0
100
AcDbPoint
10
-40
20
-5
30
0
39
0
210
0
220
0
230
1
50
360
0
POINT
5
17B
100
AcDbEntity
8
Defpoints
62
0
6
ByLayer
370
-1
48
1
60
0
100
AcDbPoint
10
0
20
-5
30
0
39
0
210
0
220
0
230
1
50
360
0
POINT
5
17C
100
AcDbEntity
8
Defpoints
62
0
6
ByLayer
370
-1
48
1
60
0
100
AcDbPoint
10
0
20
-28.50012
30
0
39
0
210
0
220
0
230
1
50
360
0
ENDBLK
5
173
100
AcDbEntity
8
0
100
AcDbBlockEnd
0
BLOCK
5
188
100
AcDbEntity
8
0
100
AcDbBlockBegin
2
_U3
70
0
10
0
20
0
30
0
3
_U3
0
MTEXT
5
17E
100
AcDbEntity
8
SK2
62
256
6
ByLayer
370
18
48
1
60
0
100
AcDbMText
10
-25.413884
20
-27.467451
30
0
210
0
220
0
230
1
1
\W0.7694;40.00
40
3.50012
41
0
44
1.084337
50
0
71
7
72
5
7
iso_b_vert
0
LINE
5
17F
100
AcDbEntity
8
SK2
62
256
6
ByLayer
370
13
48
1
60
0
100
AcDbLine
10
-40
20
-6.5875
30
0
11
-40
21
-31.67512
31
0
39
0
210
0
220
0
230
1
0
LINE
5
180
100
AcDbEntity
8
SK2
62
256
6
ByLayer
370
13
48
1
60
0
100
AcDbLine
10
0
20
-6.5875
30
0
11
0
21
-31.67512
31
0
39
0
210
0
220
0
230
1
0
LINE
5
181
100
AcDbEntity
8
SK2
62
256
6
ByLayer
370
13
48
1
60
0
100
AcDbLine
10
-40
20
-28.50012
30
0
11
0
21
-28.50012
31
0
39
0
210
0
220
0
230
1
0
LINE
5
182
100
AcDbEntity
8
SK2
62
256
6
ByLayer
370
13
48
1
60
0
100
AcDbLine
10
-40
20
-28.50012
30
0
11
-36.825002
21
-28.082123
31
0
39
0
210
0
220
0
230
1
0
LINE
5
183
100
AcDbEntity
8
SK2
62
256
6
ByLayer
370
13
48
1
60
0
100
AcDbLine
10
-40
20
-28.50012
30
0
11
-36.824998
21
-28.918117
31
0
39
0
210
0
220
0
230
1
0
LINE
5
184
100
AcDbEntity
8
SK2
62
256
6
ByLayer
370
13
48
1
60
0
100
AcDbLine
10
-36.825002
20
-28.082123
30
0
11
-36.824998
21
-28.918117
31
0
39
0
210
0
220
0
230
1
0
LINE
5
185
100
AcDbEntity
8
SK2
62
256
6
ByLayer
370
13
48
1
60
0
100
AcDbLine
10
0
20
-28.50012
30
0
11
-3.174998
21
-28.918117
31
0
39
0
210
0
220
0
230
1
0
LINE
5
186
100
AcDbEntity
8
SK2
62
256
6
ByLayer
370
13
48
1
60
0
100
AcDbLine
10
0
20
-28.50012
30
0
11
-3.175002
21
-28.082123
31
0
39
0
210
0
220
0
230
1
0
LINE
5
187
100
AcDbEntity
8
SK2
62
256
6
ByLayer
370
13
48
1
60
0
100
AcDbLine
10
-3.174998
20
-28.918117
30
0
11
-3.175002
21
-28.082123
31
0
39
0
210
0
220
0
230
1
0
ENDBLK
5
189
100
AcDbEntity
8
0
100
AcDbBlockEnd
0
BLOCK
5
18E
100
AcDbEntity
8
0
100
AcDbBlockBegin
2
*D10
70
1
10
0
20
0
30
0
3
*D10
0
LINE
5
190
100
AcDbEntity
8
0
62
256
6
ByLayer
370
-2
48
1
60
0
100
AcDbLine
10
2
20
3.3125
30
0
11
2
21
-22.92482
31
0
39
0
210
0
220
0
230
1
0
LINE
5
191
100
AcDbEntity
8
0
62
256
6
ByLayer
370
-2
48
1
60
0
100
AcDbLine
10
63
20
-1.5875
30
0
11
63
21
-22.92482
31
0
39
0
210
0
220
0
230
1
0
LINE
5
192
100
AcDbEntity
8
0
62
256
6
ByLayer
370
-2
48
1
60
0
100
AcDbLine
10
5.175
20
-19.74982
30
0
11
59.825
21
-19.74982
31
0
39
0
210
0
220
0
230
1
0
SOLID
5
193
100
AcDbEntity
8
0
62
256
6
ByLayer
370
-1
48
1
60
0
100
AcDbTrace
10
5.175
20
-19.220653
30
0
11
5.175
21
-20.278987
31
0
12
2
22
-19.74982
32
0
13
2
23
-19.74982
33
0
39
0
210
0
220
0
230
1
0
SOLID
5
194
100
AcDbEntity
8
0
62
256
6
ByLayer
370
-1
48
1
60
0
100
AcDbTrace
10
59.825
20
-20.278987
30
0
11
59.825
21
-19.220653
31
0
12
63
22
-19.74982
32
0
13
63
23
-19.74982
33
0
39
0
210
0
220
0
230
1
0
MTEXT
5
195
100
AcDbEntity
8
0
62
256
6
ByLayer
370
18
48
1
60
0
100
AcDbMText
10
32.5
20
-12.443319
30
0
210
0
220
0
230
1
1
\A1;61
40
3.50012
41
0
44
1
50
0
71
5
72
5
7
iso_b_vert
0
POINT
5
196
100
AcDbEntity
8
Defpoints
62
0
6
ByLayer
370
-1
48
1
60
0
100
AcDbPoint
10
2
20
4.9
30
0
39
0
210
0
220
0
230
1
50
360
0
POINT
5
197
100
AcDbEntity
8
Defpoints
62
0
6
ByLayer
370
-1
48
1
60
0
100
AcDbPoint
10
63
20
0
30
0
39
0
210
0
220
0
230
1
50
360
0
POINT
5
198
100
AcDbEntity
8
Defpoints
62
0
6
ByLayer
370
-1
48
1
60
0
100
AcDbPoint
10
63
20
-19.74982
30
0
39
0
210
0
220
0
230
1
50
360
0
ENDBLK
5
18F
100
AcDbEntity
8
0
100
AcDbBlockEnd
0
BLOCK
5
1A4
100
AcDbEntity
8
0
100
AcDbBlockBegin
2
_U4
70
0
10
0
20
0
30
0
3
_U4
0
MTEXT
5
19A
100
AcDbEntity
8
SK2
62
256
6
ByLayer
370
18
48
1
60
0
100
AcDbMText
10
27.707837
20
-18.717151
30
0
210
0
220
0
230
1
1
\W0.6864;61.00
40
3.50012
41
0
44
1.084337
50
0
71
7
72
5
7
iso_b_vert
0
LINE
5
19B
100
AcDbEntity
8
SK2
62
256
6
ByLayer
370
13
48
1
60
0
100
AcDbLine
10
2
20
3.3125
30
0
11
2
21
-22.92482
31
0
39
0
210
0
220
0
230
1
0
LINE
5
19C
100
AcDbEntity
8
SK2
62
256
6
ByLayer
370
13
48
1
60
0
100
AcDbLine
10
63
20
-1.5875
30
0
11
63
21
-22.92482
31
0
39
0
210
0
220
0
230
1
0
LINE
5
19D
100
AcDbEntity
8
SK2
62
256
6
ByLayer
370
13
48
1
60
0
100
AcDbLine
10
2
20
-19.74982
30
0
11
63
21
-19.74982
31
0
39
0
210
0
220
0
230
1
0
LINE
5
19E
100
AcDbEntity
8
SK2
62
256
6
ByLayer
370
13
48
1
60
0
100
AcDbLine
10
2
20
-19.74982
30
0
11
5.174998
21
-19.331823
31
0
39
0
210
0
220
0
230
1
0
LINE
5
19F
100
AcDbEntity
8
SK2
62
256
6
ByLayer
370
13
48
1
60
0
100
AcDbLine
10
2
20
-19.74982
30
0
11
5.175002
21
-20.167817
31
0
39
0
210
0
220
0
230
1
0
LINE
5
1A0
100
AcDbEntity
8
SK2
62
256
6
ByLayer
370
13
48
1
60
0
100
AcDbLine
10
5.174998
20
-19.331823
30
0
11
5.175002
21
-20.167817
31
0
39
0
210
0
220
0
230
1
0
LINE
5
1A1
100
AcDbEntity
8
SK2
62
256
6
ByLayer
370
13
48
1
60
0
100
AcDbLine
10
63
20
-19.74982
30
0
11
59.825002
21
-20.167817
31
0
39
0
210
0
220
0
230
1
0
LINE
5
1A2
100
AcDbEntity
8
SK2
62
256
6
ByLayer
370
13
48
1
60
0
100
AcDbLine
10
63
20
-19.74982
30
0
11
59.824998
21
-19.331823
31
0
39
0
210
0
220
0
230
1
0
LINE
5
1A3
100
AcDbEntity
8
SK2
62
256
6
ByLayer
370
13
48
1
60
0
100
AcDbLine
10
59.825002
20
-20.167817
30
0
11
59.824998
21
-19.331823
31
0
39
0
210
0
220
0
230
1
0
ENDBLK
5
1A5
100
AcDbEntity
8
0
100
AcDbBlockEnd
0
BLOCK
5
1AA
100
AcDbEntity
8
0
100
AcDbBlockBegin
2
*D12
70
1
10
0
20
0
30
0
3
*D12
0
LINE
5
1AC
100
AcDbEntity
8
0
62
256
6
ByLayer
370
-2
48
1
60
0
100
AcDbLine
10
17.4
20
-5.9875
30
0
11
17.4
21
-12.32
31
0
39
0
210
0
220
0
230
1
0
LINE
5
1AD
100
AcDbEntity
8
0
62
256
6
ByLayer
370
-2
48
1
60
0
100
AcDbLine
10
63
20
-1.5875
30
0
11
63
21
-12.32
31
0
39
0
210
0
220
0
230
1
0
LINE
5
1AE
100
AcDbEntity
8
0
62
256
6
ByLayer
370
-2
48
1
60
0
100
AcDbLine
10
20.575
20
-11.82
30
0
11
59.825
21
-11.82
31
0
39
0
210
0
220
0
230
1
0
SOLID
5
1AF
100
AcDbEntity
8
0
62
256
6
ByLayer
370
-1
48
1
60
0
100
AcDbTrace
10
20.575
20
-11.290833
30
0
11
20.575
21
-12.349167
31
0
12
17.4
22
-11.82
32
0
13
17.4
23
-11.82
33
0
39
0
210
0
220
0
230
1
0
SOLID
5
1B0
100
AcDbEntity
8
0
62
256
6
ByLayer
370
-1
48
1
60
0
100
AcDbTrace
10
59.825
20
-12.349167
30
0
11
59.825
21
-11.290833
31
0
12
63
22
-11.82
32
0
13
63
23
-11.82
33
0
39
0
210
0
220
0
230
1
0
MTEXT
5
1B1
100
AcDbEntity
8
0
62
256
6
ByLayer
370
18
48
1
60
0
100
AcDbMText
10
40.2
20
-5.975
30
0
210
0
220
0
230
1
1
\A1;45.6
40
2.8
41
0
44
1
50
0
71
5
72
5
7
iso_b_vert
0
POINT
5
1B2
100
AcDbEntity
8
Defpoints
62
0
6
ByLayer
370
-1
48
1
60
0
100
AcDbPoint
10
17.4
20
-4.4
30
0
39
0
210
0
220
0
230
1
50
360
0
POINT
5
1B3
100
AcDbEntity
8
Defpoints
62
0
6
ByLayer
370
-1
48
1
60
0
100
AcDbPoint
10
63
20
0
30
0
39
0
210
0
220
0
230
1
50
360
0
POINT
5
1B4
100
AcDbEntity
8
Defpoints
62
0
6
ByLayer
370
-1
48
1
60
0
100
AcDbPoint
10
63
20
-11.82
30
0
39
0
210
0
220
0
230
1
50
360
0
ENDBLK
5
1AB
100
AcDbEntity
8
0
100
AcDbBlockEnd
0
BLOCK
5
1C0
100
AcDbEntity
8
0
100
AcDbBlockBegin
2
_U5
70
0
10
0
20
0
30
0
3
_U5
0
MTEXT
5
1B6
100
AcDbEntity
8
SK2
62
256
6
ByLayer
370
18
48
1
60
0
100
AcDbMText
10
35.869041
20
-11.973893
30
0
210
0
220
0
230
1
1
\W0.7694;45.60
40
2.8
41
0
44
1.084337
50
0
71
7
72
5
7
iso_b_vert
0
LINE
5
1B7
100
AcDbEntity
8
SK2
62
256
6
ByLayer
370
13
48
1
60
0
100
AcDbLine
10
17.4
20
-5.9875
30
0
11
17.4
21
-12.32
31
0
39
0
210
0
220
0
230
1
0
LINE
5
1B8
100
AcDbEntity
8
SK2
62
256
6
ByLayer
370
13
48
1
60
0
100
AcDbLine
10
63
20
-1.5875
30
0
11
63
21
-12.32
31
0
39
0
210
0
220
0
230
1
0
LINE
5
1B9
100
AcDbEntity
8
SK2
62
256
6
ByLayer
370
13
48
1
60
0
100
AcDbLine
10
17.4
20
-11.82
30
0
11
63
21
-11.82
31
0
39
0
210
0
220
0
230
1
0
LINE
5
1BA
100
AcDbEntity
8
SK2
62
256
6
ByLayer
370
13
48
1
60
0
100
AcDbLine
10
17.4
20
-11.82
30
0
11
20.574998
21
-11.402003
31
0
39
0
210
0
220
0
230
1
0
LINE
5
1BB
100
AcDbEntity
8
SK2
62
256
6
ByLayer
370
13
48
1
60
0
100
AcDbLine
10
17.4
20
-11.82
30
0
11
20.575002
21
-12.237997
31
0
39
0
210
0
220
0
230
1
0
LINE
5
1BC
100
AcDbEntity
8
SK2
62
256
6
ByLayer
370
13
48
1
60
0
100
AcDbLine
10
20.574998
20
-11.402003
30
0
11
20.575002
21
-12.237997
31
0
39
0
210
0
220
0
230
1
0
LINE
5
1BD
100
AcDbEntity
8
SK2
62
256
6
ByLayer
370
13
48
1
60
0
100
AcDbLine
10
63
20
-11.82
30
0
11
59.825002
21
-12.237997
31
0
39
0
210
0
220
0
230
1
0
LINE
5
1BE
100
AcDbEntity
8
SK2
62
256
6
ByLayer
370
13
48
1
60
0
100
AcDbLine
10
63
20
-11.82
30
0
11
59.824998
21
-11.402003
31
0
39
0
210
0
220
0
230
1
0
LINE
5
1BF
100
AcDbEntity
8
SK2
62
256
6
ByLayer
370
13
48
1
60
0
100
AcDbLine
10
59.825002
20
-12.237997
30
0
11
59.824998
21
-11.402003
31
0
39
0
210
0
220
0
230
1
0
ENDBLK
5
1C1
100
AcDbEntity
8
0
100
AcDbBlockEnd
0
BLOCK
5
1C6
100
AcDbEntity
8
0
100
AcDbBlockBegin
2
*D14
70
1
10
0
20
0
30
0
3
*D14
0
LINE
5
1C8
100
AcDbEntity
8
0
62
256
6
ByLayer
370
-2
48
1
60
0
100
AcDbLine
10
-40
20
-1.5875
30
0
11
-40
21
-41.67512
31
0
39
0
210
0
220
0
230
1
0
LINE
5
1C9
100
AcDbEntity
8
0
62
256
6
ByLayer
370
-2
48
1
60
0
100
AcDbLine
10
63
20
-1.5875
30
0
11
63
21
-41.67512
31
0
39
0
210
0
220
0
230
1
0
LINE
5
1CA
100
AcDbEntity
8
0
62
256
6
ByLayer
370
-2
48
1
60
0
100
AcDbLine
10
-36.825
20
-38.50012
30
0
11
59.825
21
-38.50012
31
0
39
0
210
0
220
0
230
1
0
SOLID
5
1CB
100
AcDbEntity
8
0
62
256
6
ByLayer
370
-1
48
1
60
0
100
AcDbTrace
10
-36.825
20
-37.970953
30
0
11
-36.825
21
-39.029287
31
0
12
-40
22
-38.50012
32
0
13
-40
23
-38.50012
33
0
39
0
210
0
220
0
230
1
0
SOLID
5
1CC
100
AcDbEntity
8
0
62
256
6
ByLayer
370
-1
48
1
60
0
100
AcDbTrace
10
59.825
20
-39.029287
30
0
11
59.825
21
-37.970953
31
0
12
63
22
-38.50012
32
0
13
63
23
-38.50012
33
0
39
0
210
0
220
0
230
1
0
MTEXT
5
1CD
100
AcDbEntity
8
0
62
256
6
ByLayer
370
18
48
1
60
0
100
AcDbMText
10
11.5
20
-31.193619
30
0
210
0
220
0
230
1
1
\A1;103
40
3.50012
41
0
44
1
50
0
71
5
72
5
7
iso_b_vert
0
POINT
5
1CE
100
AcDbEntity
8
Defpoints
62
0
6
ByLayer
370
-1
48
1
60
0
100
AcDbPoint
10
-40
20
0
30
0
39
0
210
0
220
0
230
1
50
360
0
POINT
5
1CF
100
AcDbEntity
8
Defpoints
62
0
6
ByLayer
370
-1
48
1
60
0
100
AcDbPoint
10
63
20
0
30
0
39
0
210
0
220
0
230
1
50
360
0
POINT
5
1D0
100
AcDbEntity
8
Defpoints
62
0
6
ByLayer
370
-1
48
1
60
0
100
AcDbPoint
10
63
20
-38.50012
30
0
39
0
210
0
220
0
230
1
50
360
0
ENDBLK
5
1C7
100
AcDbEntity
8
0
100
AcDbBlockEnd
0
BLOCK
5
1DC
100
AcDbEntity
8
0
100
AcDbBlockBegin
2
_U6
70
0
10
0
20
0
30
0
3
_U6
0
MTEXT
5
1D2
100
AcDbEntity
8
SK2
62
256
6
ByLayer
370
18
48
1
60
0
100
AcDbMText
10
5.400059
20
-37.467451
30
0
210
0
220
0
230
1
1
\W0.7022;103.00
40
3.50012
41
0
44
1.084337
50
0
71
7
72
5
7
iso_b_vert
0
LINE
5
1D3
100
AcDbEntity
8
SK2
62
256
6
ByLayer
370
13
48
1
60
0
100
AcDbLine
10
-40
20
-1.5875
30
0
11
-40
21
-41.67512
31
0
39
0
210
0
220
0
230
1
0
LINE
5
1D4
100
AcDbEntity
8
SK2
62
256
6
ByLayer
370
13
48
1
60
0
100
AcDbLine
10
63
20
-1.5875
30
0
11
63
21
-41.67512
31
0
39
0
210
0
220
0
230
1
0
LINE
5
1D5
100
AcDbEntity
8
SK2
62
256
6
ByLayer
370
13
48
1
60
0
100
AcDbLine
10
-40
20
-38.50012
30
0
11
63
21
-38.50012
31
0
39
0
210
0
220
0
230
1
0
LINE
5
1D6
100
AcDbEntity
8
SK2
62
256
6
ByLayer
370
13
48
1
60
0
100
AcDbLine
10
-40
20
-38.50012
30
0
11
-36.825002
21
-38.082123
31
0
39
0
210
0
220
0
230
1
0
LINE
5
1D7
100
AcDbEntity
8
SK2
62
256
6
ByLayer
370
13
48
1
60
0
100
AcDbLine
10
-40
20
-38.50012
30
0
11
-36.824998
21
-38.918117
31
0
39
0
210
0
220
0
230
1
0
LINE
5
1D8
100
AcDbEntity
8
SK2
62
256
6
ByLayer
370
13
48
1
60
0
100
AcDbLine
10
-36.825002
20
-38.082123
30
0
11
-36.824998
21
-38.918117
31
0
39
0
210
0
220
0
230
1
0
LINE
5
1D9
100
AcDbEntity
8
SK2
62
256
6
ByLayer
370
13
48
1
60
0
100
AcDbLine
10
63
20
-38.50012
30
0
11
59.825002
21
-38.918117
31
0
39
0
210
0
220
0
230
1
0
LINE
5
1DA
100
AcDbEntity
8
SK2
62
256
6
ByLayer
370
13
48
1
60
0
100
AcDbLine
10
63
20
-38.50012
30
0
11
59.824998
21
-38.082123
31
0
39
0
210
0
220
0
230
1
0
LINE
5
1DB
100
AcDbEntity
8
SK2
62
256
6
ByLayer
370
13
48
1
60
0
100
AcDbLine
10
59.825002
20
-38.918117
30
0
11
59.824998
21
-38.082123
31
0
39
0
210
0
220
0
230
1
0
ENDBLK
5
1DD
100
AcDbEntity
8
0
100
AcDbBlockEnd
0
ENDSEC
0
SECTION
2
ENTITIES
0
ARC
5
AE
100
AcDbEntity
8
1
62
256
6
ByLayer
370
18
48
1
60
0
100
AcDbCircle
39
0
10
1.278178
20
5.162424
30
0
40
0.799999999999995
210
0
220
0
230
1
100
AcDbArc
50
216.978473
51
270.03581
0
ARC
5
AF
100
AcDbEntity
8
1
62
256
6
ByLayer
370
18
48
1
60
0
100
AcDbCircle
39
0
10
1.278178
20
-5.162424
30
0
40
0.799999999999995
210
0
220
0
230
1
100
AcDbArc
50
89.96419
51
143.021527
0
ARC
5
B0
100
AcDbEntity
8
1
62
256
6
ByLayer
370
18
48
1
60
0
100
AcDbCircle
39
0
10
0
20
4.2
30
0
40
0.8
210
0
220
0
230
1
100
AcDbArc
50
36.978473
51
90
0
ARC
5
B1
100
AcDbEntity
8
1
62
256
6
ByLayer
370
18
48
1
60
0
100
AcDbCircle
39
0
10
0
20
-4.2
30
0
40
0.8
210
0
220
0
230
1
100
AcDbArc
50
270
51
323.021527
0
ARC
5
B2
100
AcDbEntity
8
SK2
62
256
6
ByLayer
370
13
48
1
60
0
100
AcDbCircle
39
0
10
63
20
0
30
0
40
20
210
0
220
0
230
1
100
AcDbArc
50
9.606349
51
69.999644
0
ARC
5
B3
100
AcDbEntity
8
SK2
62
256
6
ByLayer
370
13
48
1
60
0
100
AcDbCircle
39
0
10
63
20
0
30
0
40
20
210
0
220
0
230
1
100
AcDbArc
50
290.000356
51
350.393651
0
ELLIPSE
5
B4
100
AcDbEntity
8
1
62
256
6
ByLayer
370
18
48
1
60
0
100
AcDbEllipse
10
3.602366
20
1.275404
30
0
11
4.61380150183785E-05
21
0.00999989356361207
31
0
210
0
220
0
230
1
40
0.009006
41
-1.88271315605926
42
-0.311981059601152
0
ELLIPSE
5
B5
100
AcDbEntity
8
1
62
256
6
ByLayer
370
18
48
1
60
0
100
AcDbEllipse
10
3.641116
20
1.266846
30
0
11
-0.00419041639272726
21
-0.00907967017328067
31
0
210
0
220
0
230
1
40
0.139355
41
1.29339334878787
42
2.85915755559457
0
ELLIPSE
5
B6
100
AcDbEntity
8
1
62
256
6
ByLayer
370
18
48
1
60
0
100
AcDbEllipse
10
3.562733
20
-3.579875
30
0
11
-0.001663013886685
21
0.0098607497084498
31
0
210
0
220
0
230
1
40
0.544157
41
0.580151812534402
42
1.96035969722049
0
ELLIPSE
5
B7
100
AcDbEntity
8
1
62
256
6
ByLayer
370
18
48
1
60
0
100
AcDbEllipse
10
3.601864
20
-3.581765
30
0
11
-0.00237238391184123
21
-0.00971451463403277
31
0
210
0
220
0
230
1
40
0.372177
41
-2.56453311012884
42
-0.995091048860115
0
POINT
5
70
100
AcDbEntity
8
80
62
256
6
ByLayer
370
18
48
1
60
0
100
AcDbPoint
10
0
20
0
30
0
39
0
210
0
220
0
230
1
50
360
0
POINT
5
72
100
AcDbEntity
8
81
62
256
6
ByLayer
370
18
48
1
60
0
100
AcDbPoint
10
63
20
0
30
0
39
0
210
0
220
0
230
1
50
360
0
POINT
5
74
100
AcDbEntity
8
1
62
256
6
ByLayer
370
18
48
1
60
0
100
AcDbPoint
10
-40
20
0
30
0
39
0
210
0
220
0
230
1
50
360
0
POINT
5
76
100
AcDbEntity
8
1
62
256
6
ByLayer
370
18
48
1
60
1
100
AcDbPoint
10
0
20
-5
30
0
39
0
210
0
220
0
230
1
50
360
0
POINT
5
77
100
AcDbEntity
8
1
62
256
6
ByLayer
370
18
48
1
60
1
100
AcDbPoint
10
63
20
0
30
0
39
0
210
0
220
0
230
1
50
360
0
POINT
5
78
100
AcDbEntity
8
1
62
256
6
ByLayer
370
18
48
1
60
1
100
AcDbPoint
10
61.3985
20
-4.4
30
0
39
0
210
0
220
0
230
1
50
360
0
POINT
5
79
100
AcDbEntity
8
1
62
256
6
ByLayer
370
18
48
1
60
1
100
AcDbPoint
10
61.3985
20
4.4
30
0
39
0
210
0
220
0
230
1
50
360
0
POINT
5
7A
100
AcDbEntity
8
1
62
256
6
ByLayer
370
18
48
1
60
1
100
AcDbPoint
10
-40
20
5
30
0
39
0
210
0
220
0
230
1
50
360
0
POINT
5
7B
100
AcDbEntity
8
1
62
256
6
ByLayer
370
18
48
1
60
1
100
AcDbPoint
10
-40
20
-5
30
0
39
0
210
0
220
0
230
1
50
360
0
POINT
5
7C
100
AcDbEntity
8
1
62
256
6
ByLayer
370
18
48
1
60
1
100
AcDbPoint
10
-40
20
-5
30
0
39
0
210
0
220
0
230
1
50
360
0
POINT
5
7D
100
AcDbEntity
8
1
62
256
6
ByLayer
370
18
48
1
60
1
100
AcDbPoint
10
0
20
-5
30
0
39
0
210
0
220
0
230
1
50
360
0
POINT
5
7E
100
AcDbEntity
8
1
62
256
6
ByLayer
370
18
48
1
60
1
100
AcDbPoint
10
2
20
4.9
30
0
39
0
210
0
220
0
230
1
50
360
0
POINT
5
7F
100
AcDbEntity
8
1
62
256
6
ByLayer
370
18
48
1
60
1
100
AcDbPoint
10
63
20
0
30
0
39
0
210
0
220
0
230
1
50
360
0
POINT
5
80
100
AcDbEntity
8
1
62
256
6
ByLayer
370
18
48
1
60
1
100
AcDbPoint
10
17.4
20
-4.4
30
0
39
0
210
0
220
0
230
1
50
360
0
POINT
5
81
100
AcDbEntity
8
1
62
256
6
ByLayer
370
18
48
1
60
1
100
AcDbPoint
10
63
20
0
30
0
39
0
210
0
220
0
230
1
50
360
0
POINT
5
82
100
AcDbEntity
8
1
62
256
6
ByLayer
370
18
48
1
60
1
100
AcDbPoint
10
-40
20
0
30
0
39
0
210
0
220
0
230
1
50
360
0
POINT
5
83
100
AcDbEntity
8
1
62
256
6
ByLayer
370
18
48
1
60
1
100
AcDbPoint
10
63
20
0
30
0
39
0
210
0
220
0
230
1
50
360
0
SPLINE
5
B8
100
AcDbEntity
8
1
62
256
6
ByLayer
370
18
48
1
60
0
100
AcDbSpline
70
4
71
3
72
22
73
18
40
0
40
0
40
0
40
0
40
0.0725215732826046
40
0.0725215732826046
40
0.14504314656521
40
0.14504314656521
40
0.290086293130421
40
0.290086293130421
40
0.435129439695632
40
0.435129439695632
40
0.507651012978237
40
0.507651012978237
40
0.580172586260843
40
0.580172586260843
40
0.870258879391269
40
0.870258879391269
40
1
40
1
40
1
40
1
41
1
10
61.4291423186529
20
-4.15325652884772
30
0
41
1
10
61.1262250769135
20
-4.13327846657918
30
0
41
1
10
60.8241446787152
20
-4.10674072857617
30
0
41
1
10
60.2215333370357
20
-4.03790175288799
30
0
41
1
10
59.9209344978609
20
-3.9961287663408
30
0
41
1
10
59.0204122606063
20
-3.8496200117234
30
0
41
1
10
58.4217633692082
20
-3.72373335984599
30
0
41
1
10
57.2231354329697
20
-3.42049309615214
30
2E-16
41
1
10
56.6231707366053
20
-3.24298422033914
30
2E-16
41
1
10
55.7184560445099
20
-2.94202614548001
30
2E-16
41
1
10
55.4160820772611
20
-2.83590606464682
30
2E-16
41
1
10
54.8091876766352
20
-2.61285204033271
30
2E-16
41
1
10
54.5060817017937
20
-2.49642985525333
30
2E-16
41
1
10
52.9968161679543
20
-1.89521026301949
30
1E-16
41
1
10
51.8032855172317
20
-1.35036748991979
30
1E-16
41
1
10
50.0676392317436
20
-0.526557484000762
30
0
41
1
10
49.5301483170847
20
-0.267090876972048
30
0
41
1
10
48.9898802401994
20
-0.0061192316609322
30
0
0
SPLINE
5
B9
100
AcDbEntity
8
1
62
256
6
ByLayer
370
18
48
1
60
0
100
AcDbSpline
70
4
71
3
72
8
73
4
40
0
40
0
40
0
40
0
40
1
40
1
40
1
40
1
41
1
10
8.57411738373636
20
-4.15262172256485
30
0
41
1
10
8.24367315514255
20
-4.15969461023303
30
0
41
1
10
7.91319673047846
20
-4.15771341565585
30
0
41
1
10
7.58229008391979
20
-4.14662830944954
30
0
0
SPLINE
5
BA
100
AcDbEntity
8
1
62
256
6
ByLayer
370
18
48
1
60
0
100
AcDbSpline
70
4
71
3
72
14
73
10
40
0
40
0
40
0
40
0
40
0.0702005487718182
40
0.0702005487718182
40
0.53510027438591
40
0.53510027438591
40
0.767550137192955
40
0.767550137192955
40
1
40
1
40
1
40
1
41
1
10
7.50481134632332
20
-4.14386675007924
30
0
41
1
10
7.41410955495525
20
-4.14043947595772
30
0
41
1
10
7.32337312134953
20
-4.13632820885246
30
0
41
1
10
6.63141256313904
20
-4.09976875470923
30
0
41
1
10
6.02841540162353
20
-4.03784008196735
30
0
41
1
10
5.11743343346797
20
-3.90072170940692
30
0
41
1
10
4.81315689230246
20
-3.84761048708273
30
0
41
1
10
4.20544649288394
20
-3.72742532123516
30
0
41
1
10
3.90161980323359
20
-3.66029447243653
30
0
41
1
10
3.59753960874872
20
-3.58631340818738
30
2E-16
0
SPLINE
5
BB
100
AcDbEntity
8
1
62
256
6
ByLayer
370
18
48
1
60
0
100
AcDbSpline
70
4
71
3
72
8
73
4
40
0
40
0
40
0
40
0
40
1
40
1
40
1
40
1
41
1
10
3.64724954618885
20
1.33872245927844
30
-1E-16
41
1
10
3.64667241132255
20
1.31762582754544
30
-1E-16
41
1
10
3.64608674683467
20
1.29651967295419
30
-1E-16
41
1
10
3.64549256104039
20
1.27540340222103
30
-1E-16
0
SPLINE
5
BC
100
AcDbEntity
8
1
62
256
6
ByLayer
370
18
48
1
60
0
100
AcDbSpline
70
4
71
3
72
30
73
26
40
0
40
0
40
0
40
0
40
0.125
40
0.125
40
0.1875
40
0.1875
40
0.25
40
0.25
40
0.3125
40
0.3125
40
0.375
40
0.375
40
0.4375
40
0.4375
40
0.5
40
0.5
40
0.5625
40
0.5625
40
0.625
40
0.625
40
0.75
40
0.75
40
0.875
40
0.875
40
1
40
1
40
1
40
1
41
1
10
62.9386417093622
20
0.0529686601644812
30
0
41
1
10
62.9173429032512
20
-0.0172564811430789
30
0
41
1
10
62.892855567704
20
-0.0858761202431424
30
0
41
1
10
62.8511617056162
20
-0.186224221518387
30
0
41
1
10
62.8362973121829
20
-0.219498911343749
30
0
41
1
10
62.8055792557748
20
-0.283390527775481
30
0
41
1
10
62.7897180646582
20
-0.314074813880581
30
0
41
1
10
62.7570145763778
20
-0.372841969308468
30
0
41
1
10
62.7401729527735
20
-0.400926546553848
30
0
41
1
10
62.7054582599479
20
-0.454263940149531
30
0
41
1
10
62.6876260502044
20
-0.479395816086822
30
0
41
1
10
62.652367053058
20
-0.524620203867045
30
0
41
1
10
62.6347618805038
20
-0.544998399730474
30
0
41
1
10
62.5995767570934
20
-0.581194103723647
30
0
41
1
10
62.5818364584073
20
-0.597110768090118
30
0
41
1
10
62.5474964971567
20
-0.623210098104863
30
0
41
1
10
62.5308142854816
20
-0.633522882256244
30
0
41
1
10
62.4982974462102
20
-0.648889026211066
30
0
41
1
10
62.4823444482136
20
-0.653943828456732
30
0
41
1
10
62.4367355285607
20
-0.661037143913831
30
0
41
1
10
62.4089562598734
20
-0.655235269237551
30
0
41
1
10
62.3584555635381
20
-0.62576632357127
30
0
41
1
10
62.336220075212
20
-0.60257369724232
30
0
41
1
10
62.2959666229227
20
-0.54227583561007
30
0
41
1
10
62.2780094565233
20
-0.505023898303762
30
0
41
1
10
62.2621309964636
20
-0.462638161357091
30
0
0
SPLINE
5
BD
100
AcDbEntity
8
1
62
256
6
ByLayer
370
18
48
1
60
0
100
AcDbSpline
70
4
71
3
72
8
73
4
40
0
40
0
40
0
40
0
40
1
40
1
40
1
40
1
41
1
10
62.9959424696313
20
0.242921161744931
30
0
41
1
10
62.9769368762868
20
0.179574047085936
30
0
41
1
10
62.9578365046206
20
0.116256583551177
30
0
41
1
10
62.9386417093622
20
0.0529686601644812
30
0
0
SPLINE
5
BE
100
AcDbEntity
8
1
62
256
6
ByLayer
370
18
48
1
60
0
100
AcDbSpline
70
4
71
3
72
8
73
4
40
0
40
0
40
0
40
0
40
1
40
1
40
1
40
1
41
1
10
62.6075139598217
20
1.37505683616087
30
0
41
1
10
62.7406038553437
20
0.998971421259228
30
0
41
1
10
62.8700982227234
20
0.621599374934334
30
0
41
1
10
62.9959424696221
20
0.24292116174783
30
0
0
SPLINE
5
BF
100
AcDbEntity
8
1
62
256
6
ByLayer
370
18
48
1
60
0
100
AcDbSpline
70
4
71
3
72
8
73
4
40
0
40
0
40
0
40
0
40
1
40
1
40
1
40
1
41
1
10
3.64118488238665
20
1.26379803791525
30
-1E-16
41
1
10
3.6290648364664
20
1.26937836928141
30
-1E-16
41
1
10
3.61591099661948
20
1.27227322159504
30
-1E-16
41
1
10
3.60243786389458
20
1.27233509094302
30
-1E-16
0
SPLINE
5
C0
100
AcDbEntity
8
1
62
256
6
ByLayer
370
18
48
1
60
0
100
AcDbSpline
70
4
71
3
72
8
73
4
40
0
40
0
40
0
40
0
40
1
40
1
40
1
40
1
41
1
10
62.995942469627
20
0.242921161742828
30
0
41
1
10
63.0013599613338
20
0.0807506714717476
30
0
41
1
10
63.0013450793783
20
-0.0811961569632444
30
0
41
1
10
62.9959424696277
20
-0.242921161722961
30
0
0
SPLINE
5
C1
100
AcDbEntity
8
1
62
256
6
ByLayer
370
18
48
1
60
0
100
AcDbSpline
70
4
71
3
72
10
73
6
40
0
40
0
40
0
40
0
40
0.5
40
0.5
40
1
40
1
40
1
40
1
41
1
10
3.5584005605939
20
-3.58445754439188
30
2E-16
41
1
10
3.53872763457511
20
-3.58696292255812
30
2E-16
41
1
10
3.52463772736658
20
-3.59075293159532
30
2E-16
41
1
10
3.50619694908116
20
-3.59889461310456
30
2E-16
41
1
10
3.50172232663448
20
-3.60334613250402
30
2E-16
41
1
10
3.50172232663445
20
-3.60766999056406
30
2E-16
0
SPLINE
5
C2
100
AcDbEntity
8
1
62
256
6
ByLayer
370
18
48
1
60
0
100
AcDbSpline
70
4
71
3
72
26
73
22
40
0
40
0
40
0
40
0
40
0.138100920747791
40
0.138100920747791
40
0.276201841495581
40
0.276201841495581
40
0.414302762243372
40
0.414302762243372
40
0.483353222617267
40
0.483353222617267
40
0.552403682991163
40
0.552403682991163
40
0.621454143365058
40
0.621454143365058
40
0.690504603738953
40
0.690504603738953
40
0.828605524486741
40
0.828605524486741
40
0.966706445234529
40
0.966706445234529
40
1
40
1
40
1
40
1
41
1
10
60.8099293695386
20
0.585262311194498
30
0
41
1
10
60.2361024605576
20
0.874095263909453
30
-1E-16
41
1
10
59.6659831744079
20
1.15868424420003
30
-1E-16
41
1
10
58.5261762610142
20
1.70594534804113
30
-1E-16
41
1
10
57.9569428426351
20
1.96958300777499
30
-1E-16
41
1
10
56.816603674998
20
2.47076171275526
30
-2E-16
41
1
10
56.2444090924803
20
2.70640572323595
30
-2E-16
41
1
10
55.3809030411127
20
3.03348589856247
30
-2E-16
41
1
10
55.0918624314078
20
3.13856380013289
30
-2E-16
41
1
10
54.5164799684281
20
3.33641930319305
30
-2E-16
41
1
10
54.2295454481319
20
3.42939257823298
30
-2E-16
41
1
10
53.6569000574915
20
3.60338252506895
30
-2E-16
41
1
10
53.3711812235509
20
3.684392248123
30
2E-16
41
1
10
52.8007993326623
20
3.83432454728109
30
2E-16
41
1
10
52.5161415794225
20
3.90321643303793
30
2E-16
41
1
10
51.6617680693438
20
4.0898582797644
30
0
41
1
10
51.091821757675
20
4.18798337330847
30
0
41
1
10
49.949673959116
20
4.32992907917199
30
0
41
1
10
49.3762369726157
20
4.37299252191562
30
0
41
1
10
48.6592477813503
20
4.39026248349191
30
0
41
1
10
48.5202381388657
20
4.39190062266437
30
0
41
1
10
48.3814523955961
20
4.39184119812364
30
0
0
SPLINE
5
C3
100
AcDbEntity
8
1
62
256
6
ByLayer
370
18
48
1
60
0
100
AcDbSpline
70
4
71
3
72
32
73
28
40
0
40
0
40
0
40
0
40
0.105345539531305
40
0.105345539531305
40
0.217177347089891
40
0.217177347089891
40
0.329009154648478
40
0.329009154648478
40
0.384925058427771
40
0.384925058427771
40
0.440840962207064
40
0.440840962207064
40
0.552672769765651
40
0.552672769765651
40
0.608588673544945
40
0.608588673544945
40
0.664504577324238
40
0.664504577324238
40
0.720420481103531
40
0.720420481103531
40
0.776336384882825
40
0.776336384882825
40
0.888168192441412
40
0.888168192441412
40
0.944084096220706
40
0.944084096220706
40
1
40
1
40
1
40
1
41
1
10
21.2152659106136
20
-4.37488263731882
30
0
41
1
10
20.6759317887367
20
-4.37490428662596
30
0
41
1
10
20.1382104836234
20
-4.34952381339826
30
0
41
1
10
19.0317365354759
20
-4.24558845283139
30
0
41
1
10
18.461848933827
20
-4.16417945531353
30
0
41
1
10
17.3181636858214
20
-3.94769320613122
30
0
41
1
10
16.7450139811991
20
-3.81188413905741
30
-2E-16
41
1
10
15.8779058936531
20
-3.57074352752312
30
2E-16
41
1
10
15.5893572952254
20
-3.48445129025183
30
2E-16
41
1
10
15.0145290885727
20
-3.30120718695102
30
2E-16
41
1
10
14.7281662769995
20
-3.20390898192869
30
2E-16
41
1
10
13.8704230186882
20
-2.89759688332944
30
2E-16
41
1
10
13.2999839047104
20
-2.67488897489616
30
2E-16
41
1
10
12.4448424218725
20
-2.31591274150401
30
1E-16
41
1
10
12.1600150134861
20
-2.19183910851649
30
1E-16
41
1
10
11.5893355189585
20
-1.93736356026281
30
1E-16
41
1
10
11.3034942295716
20
-1.80696775761098
30
1E-16
41
1
10
10.7306832444536
20
-1.54007295471484
30
1E-16
41
1
10
10.4436636735563
20
-1.40367140919972
30
1E-16
41
1
10
9.86832431969344
20
-1.1248978269432
30
1E-16
41
1
10
9.57927711397835
20
-0.982559358916404
30
1E-16
41
1
10
8.71276949678921
20
-0.553222140926664
30
0
41
1
10
8.13665709303876
20
-0.263668420740117
30
0
41
1
10
7.27384603733807
20
0.173696482429307
30
0
41
1
10
6.98631528195946
20
0.319684870617323
30
0
41
1
10
6.40979160576006
20
0.608847776844982
30
0
41
1
10
6.12092239390432
20
0.752269312577766
30
0
41
1
10
5.83120403341053
20
0.894046837109755
30
-1E-16
0
SPLINE
5
C4
100
AcDbEntity
8
1
62
256
6
ByLayer
370
18
48
1
60
0
100
AcDbSpline
70
4
71
3
72
28
73
24
40
0
40
0
40
0
40
0
40
0.02392593627177
40
0.02392593627177
40
0.152559841865304
40
0.152559841865304
40
0.281193747458839
40
0.281193747458839
40
0.345510700255607
40
0.345510700255607
40
0.409827653052376
40
0.409827653052376
40
0.53846155864591
40
0.53846155864591
40
0.667095464239444
40
0.667095464239444
40
0.795729369832979
40
0.795729369832979
40
0.924363275426513
40
0.924363275426513
40
0.98868022822328
40
0.98868022822328
40
1
40
1
40
1
40
1
41
1
10
21.3562996808666
20
0.212932332921724
30
0
41
1
10
21.4678978080794
20
0.15945265603105
30
0
41
1
10
21.5794586648309
20
0.105946021496294
30
0
41
1
10
22.2906861952117
20
-0.235156782060045
30
0
41
1
10
22.8894216179545
20
-0.52322348592773
30
0
41
1
10
24.0904666228936
20
-1.08871532814359
30
1E-16
41
1
10
24.6924585251307
20
-1.36674922405922
30
1E-16
41
1
10
25.6016557924325
20
-1.76831756430983
30
1E-16
41
1
10
25.9060219303099
20
-1.89981783882209
30
1E-16
41
1
10
26.5113536463757
20
-2.15386375213131
30
1E-16
41
1
10
26.8130920129421
20
-2.27676261024266
30
1E-16
41
1
10
27.716405749465
20
-2.63177625037409
30
2E-16
41
1
10
28.3158899498984
20
-2.84999775809592
30
2E-16
41
1
10
29.5146063689834
20
-3.24281038117004
30
2E-16
41
1
10
30.1136298143729
20
-3.41711387365194
30
2E-16
41
1
10
31.3161358737554
20
-3.71558586222287
30
0
41
1
10
31.919788175983
20
-3.83942996840184
30
0
41
1
10
33.1351629355684
20
-4.03071756116248
30
0
41
1
10
33.7412505760323
20
-4.09672260202515
30
0
41
1
10
34.6520688482007
20
-4.15055051063121
30
0
41
1
10
34.9560576023491
20
-4.16075737954176
30
0
41
1
10
35.3118509643265
20
-4.16375087147151
30
0
41
1
10
35.3650697264586
20
-4.16396382706338
30
0
41
1
10
35.4182610216441
20
-4.16394244032767
30
0
0
SPLINE
5
C5
100
AcDbEntity
8
1
62
256
6
ByLayer
370
18
48
1
60
0
100
AcDbSpline
70
4
71
3
72
10
73
6
40
0
40
0
40
0
40
0
40
0.5
40
0.5
40
1
40
1
40
1
40
1
41
1
10
3.55669253474349
20
-3.75710688965358
30
-2E-16
41
1
10
3.54012171419015
20
-3.75284701006652
30
-2E-16
41
1
10
3.52620707741181
20
-3.74627459587134
30
-2E-16
41
1
10
3.50698674659623
20
-3.73017788345933
30
-2E-16
41
1
10
3.50172232663439
20
-3.72063801515682
30
-2E-16
41
1
10
3.50172232663439
20
-3.7108727275961
30
-2E-16
0
SPLINE
5
C6
100
AcDbEntity
8
1
62
256
6
ByLayer
370
18
48
1
60
0
100
AcDbSpline
70
4
71
3
72
8
73
4
40
0
40
0
40
0
40
0
40
1
40
1
40
1
40
1
41
1
10
3.5584005605939
20
-3.58445754439188
30
2E-16
41
1
10
3.5578232419046
20
-3.64201219559658
30
-2E-16
41
1
10
3.55725389586124
20
-3.6995618818589
30
-2E-16
41
1
10
3.55669253474349
20
-3.75710688965356
30
-2E-16
0
SPLINE
5
C7
100
AcDbEntity
8
1
62
256
6
ByLayer
370
18
48
1
60
0
100
AcDbSpline
70
4
71
3
72
8
73
4
40
0
40
0
40
0
40
0
40
1
40
1
40
1
40
1
41
1
10
61.4650739018207
20
-4.22246367633531
30
0
41
1
10
61.4672217256664
20
-4.22101787908468
30
0
41
1
10
61.4693695807705
20
-4.21957194458381
30
0
41
1
10
61.4715174672978
20
-4.2181258729097
30
0
0
SPLINE
5
C8
100
AcDbEntity
8
1
62
256
6
ByLayer
370
18
48
1
60
0
100
AcDbSpline
70
4
71
3
72
42
73
38
40
0
40
0
40
0
40
0
40
0.109685203378185
40
0.109685203378185
40
0.164527805067277
40
0.164527805067277
40
0.21937040675637
40
0.21937040675637
40
0.274213008445462
40
0.274213008445462
40
0.329055610134555
40
0.329055610134555
40
0.383898211823647
40
0.383898211823647
40
0.43874081351274
40
0.43874081351274
40
0.493583415201832
40
0.493583415201832
40
0.548426016890925
40
0.548426016890925
40
0.603268618580017
40
0.603268618580017
40
0.65811122026911
40
0.65811122026911
40
0.712953821958202
40
0.712953821958202
40
0.767796423647295
40
0.767796423647295
40
0.822639025336387
40
0.822639025336387
40
0.87748162702548
40
0.87748162702548
40
0.932324228714572
40
0.932324228714572
40
0.987166830403665
40
0.987166830403665
40
1
40
1
40
1
40
1
41
1
10
3.64724954618882
20
1.33872245927844
30
-1E-16
41
1
10
4.24414446130271
20
1.04833757150638
30
-1E-16
41
1
10
4.84142138036222
20
0.752217674115457
30
0
41
1
10
5.73963758811976
20
0.30318088609701
30
0
41
1
10
6.03932203459203
20
0.152752990903821
30
0
41
1
10
6.63709789415827
20
-0.147999213629589
30
0
41
1
10
6.93533401721731
20
-0.298824724471672
30
0
41
1
10
7.53182950278736
20
-0.598714739693349
30
0
41
1
10
7.83030601371561
20
-0.74735372475422
30
0
41
1
10
8.42761819284306
20
-1.04221833453056
30
1E-16
41
1
10
8.72667451940717
20
-1.18858897683836
30
1E-16
41
1
10
9.32521519408843
20
-1.47616344497229
30
1E-16
41
1
10
9.62410300013335
20
-1.61702571039817
30
1E-16
41
1
10
10.2211747725156
20
-1.89284418542698
30
1E-16
41
1
10
10.5193220562435
20
-2.0278489913506
30
1E-16
41
1
10
11.1160566928434
20
-2.28986956739291
30
1E-16
41
1
10
11.4146849311649
20
-2.41683180573162
30
1E-16
41
1
10
12.0125890755875
20
-2.66242162109577
30
2E-16
41
1
10
12.3120486859818
20
-2.78117072894423
30
2E-16
41
1
10
12.9096907613559
20
-3.00741357293887
30
2E-16
41
1
10
13.2082555421096
20
-3.11501360936333
30
2E-16
41
1
10
13.805011296848
20
-3.31904462194785
30
2E-16
41
1
10
14.1031593927719
20
-3.41550717823427
30
2E-16
41
1
10
14.7001494844995
20
-3.59581632107964
30
2E-16
41
1
10
14.9990321007029
20
-3.67964027188216
30
-2E-16
41
1
10
15.5977337367467
20
-3.83436993408719
30
-2E-16
41
1
10
15.8959800008381
20
-3.90488235114535
30
0
41
1
10
16.4907778745135
20
-4.03128950027033
30
0
41
1
10
16.7874540527363
20
-4.08720860638726
30
0
41
1
10
17.3795730798615
20
-4.18453616687214
30
0
41
1
10
17.674976166891
20
-4.2259375695792
30
0
41
1
10
18.2656244652012
20
-4.29367533695759
30
0
41
1
10
18.560924726754
20
-4.32003125003499
30
0
41
1
10
19.1513215238698
20
-4.35778078977546
30
0
41
1
10
19.4463900511782
20
-4.36912202738236
30
0
41
1
10
19.8113229477025
20
-4.37363590301985
30
0
41
1
10
19.8805535051743
20
-4.3740745041307
30
0
41
1
10
19.9498134449136
20
-4.37409442171983
30
0
0
SPLINE
5
C9
100
AcDbEntity
8
1
62
256
6
ByLayer
370
18
48
1
60
0
100
AcDbSpline
70
4
71
3
72
34
73
30
40
0
40
0
40
0
40
0
40
0.0184336025895688
40
0.0184336025895688
40
0.0729650691123713
40
0.0729650691123713
40
0.127496535635173
40
0.127496535635173
40
0.182028002157976
40
0.182028002157976
40
0.236559468680778
40
0.236559468680778
40
0.345622401726381
40
0.345622401726381
40
0.400153868249183
40
0.400153868249183
40
0.454685334771985
40
0.454685334771985
40
0.509216801294788
40
0.509216801294788
40
0.56374826781759
40
0.56374826781759
40
0.672811200863192
40
0.672811200863192
40
0.781874133908795
40
0.781874133908795
40
0.890937066954398
40
0.890937066954398
40
1
40
1
40
1
40
1
41
1
10
44.4800190540429
20
4.18265460666527
30
0
41
1
10
44.57973134848
20
4.19804640724502
30
0
41
1
10
44.6794598230201
20
4.2126021311019
30
0
41
1
10
45.074342711951
20
4.26686036863748
30
0
41
1
10
45.3695237414572
20
4.30015567995463
30
0
41
1
10
45.9605327367331
20
4.3517420982831
30
0
41
1
10
46.2568027159024
20
4.36989265516996
30
0
41
1
10
46.8509855678275
20
4.39087715639215
30
0
41
1
10
47.1487227372994
20
4.39370710392774
30
0
41
1
10
47.7464807078356
20
4.38362439214518
30
0
41
1
10
48.0454765646165
20
4.37075462175687
30
0
41
1
10
48.9404300134645
20
4.30896656602906
30
0
41
1
10
49.5347839838535
20
4.23627092366203
30
0
41
1
10
50.4303450448046
20
4.08355861421524
30
0
41
1
10
50.7299273493717
20
4.02521644185222
30
0
41
1
10
51.3270852753228
20
3.89475835607104
30
2E-16
41
1
10
51.6245591094404
20
3.82269287988683
30
2E-16
41
1
10
52.2176786541754
20
3.66536470822655
30
2E-16
41
1
10
52.5132565839042
20
3.58000499777225
30
-2E-16
41
1
10
53.1037444916119
20
3.39745589803599
30
-2E-16
41
1
10
53.3987504569666
20
3.30040813078708
30
-2E-16
41
1
10
54.2836373917632
20
2.99295402737258
30
-2E-16
41
1
10
54.8732106276249
20
2.7659755812856
30
-2E-16
41
1
10
56.0562390717176
20
2.2746167489727
30
-1E-16
41
1
10
56.6496008137748
20
2.00974997362803
30
-1E-16
41
1
10
57.8455217207944
20
1.45173322953133
30
-1E-16
41
1
10
58.4402748043285
20
1.16157913951378
30
-1E-16
41
1
10
59.6292158858828
20
0.570409340528755
30
0
41
1
10
60.2229054149759
20
0.268425853667367
30
0
41
1
10
60.8184996763132
20
-0.034705948121541
30
0
0
SPLINE
5
CA
100
AcDbEntity
8
1
62
256
6
ByLayer
370
18
48
1
60
0
100
AcDbSpline
70
4
71
3
72
18
73
14
40
0
40
0
40
0
40
0
40
0.249999999999999
40
0.249999999999999
40
0.499999999999997
40
0.499999999999997
40
0.562499999999997
40
0.562499999999997
40
0.624999999999998
40
0.624999999999998
40
0.749999999999998
40
0.749999999999998
40
1
40
1
40
1
40
1
41
1
10
8.10063402579257
20
4.32038279360464
30
0
41
1
10
9.06835016658687
20
4.25007848038888
30
0
41
1
10
10.0240127836704
20
4.09937553855855
30
0
41
1
10
11.9334200144446
20
3.65701050439162
30
2E-16
41
1
10
12.8866480863397
20
3.36488445093369
30
-2E-16
41
1
10
14.0899597384048
20
2.92545942716467
30
-2E-16
41
1
10
14.331375414561
20
2.83376845427651
30
-2E-16
41
1
10
14.8149273604915
20
2.64365223810014
30
-2E-16
41
1
10
15.055948905078
20
2.545632750518
30
-2E-16
41
1
10
15.77726806704
20
2.24364835968771
30
-1E-16
41
1
10
16.2560864257246
20
2.03223185381444
30
-1E-16
41
1
10
17.689473708958
20
1.37371990406143
30
-1E-16
41
1
10
18.6413598951866
20
0.903000734813276
30
-1E-16
41
1
10
19.6000000000109
20
0.420781637261825
30
0
0
SPLINE
5
CB
100
AcDbEntity
8
1
62
256
6
ByLayer
370
18
48
1
60
0
100
AcDbSpline
70
4
71
3
72
46
73
42
40
0
40
0
40
0
40
0
40
0.0388837340963457
40
0.0388837340963457
40
0.0806713978312866
40
0.0806713978312866
40
0.122459061566228
40
0.122459061566228
40
0.164246725301168
40
0.164246725301168
40
0.206034389036109
40
0.206034389036109
40
0.24782205277105
40
0.24782205277105
40
0.331397380240933
40
0.331397380240933
40
0.414972707710816
40
0.414972707710816
40
0.498548035180699
40
0.498548035180699
40
0.540335698915641
40
0.540335698915641
40
0.582123362650582
40
0.582123362650582
40
0.623911026385524
40
0.623911026385524
40
0.665698690120465
40
0.665698690120465
40
0.707486353855406
40
0.707486353855406
40
0.749274017590348
40
0.749274017590348
40
0.832849345060232
40
0.832849345060232
40
0.874637008795174
40
0.874637008795174
40
0.916424672530116
40
0.916424672530116
40
0.958212336265058
40
0.958212336265058
40
1
40
1
40
1
40
1
41
1
10
30.1063433325788
20
3.90939459017321
30
1E-16
41
1
10
30.5101275199573
20
4.00176992632612
30
0
41
1
10
30.9149650179383
20
4.08160830325104
30
0
41
1
10
31.7528308088579
20
4.21869685392758
30
0
41
1
10
32.1860087419546
20
4.27394103060044
30
0
41
1
10
33.0527489992547
20
4.3520237398881
30
0
41
1
10
33.486311189249
20
4.37486990787824
30
0
41
1
10
34.3557247169494
20
4.38748251673937
30
0
41
1
10
34.7896564115868
20
4.37719602103434
30
0
41
1
10
35.6564310743294
20
4.32392898871817
30
0
41
1
10
36.0895238865976
20
4.28095359479741
30
0
41
1
10
36.957098925891
20
4.16297202188247
30
0
41
1
10
37.3922279176629
20
4.08779073454534
30
0
41
1
10
38.6937085981368
20
3.81764507871088
30
2E-16
41
1
10
39.5588435258058
20
3.57766911130074
30
-2E-16
41
1
10
41.2972008768053
20
2.99508682481977
30
-2E-16
41
1
10
42.1567516446106
20
2.65721424162496
30
-2E-16
41
1
10
43.8723046104129
20
1.91557658593533
30
-1E-16
41
1
10
44.7282573576496
20
1.51173547110034
30
-1E-16
41
1
10
46.0208818997046
20
0.877143096517045
30
-1E-16
41
1
10
46.4533378865655
20
0.660774266783932
30
0
41
1
10
47.3225892810569
20
0.222286812533525
30
0
41
1
10
47.755955576044
20
0.0018939340679367
30
0
41
1
10
48.6222470901514
20
-0.437071888333378
30
0
41
1
10
49.055178139872
20
-0.655633582722828
30
0
41
1
10
49.9226062721009
20
-1.08697582878696
30
1E-16
41
1
10
50.3576016409525
20
-1.30000839569448
30
1E-16
41
1
10
51.2247943490162
20
-1.71345572630622
30
1E-16
41
1
10
51.657694212495
20
-1.91422513610331
30
1E-16
41
1
10
52.524065986627
20
-2.30033028698776
30
1E-16
41
1
10
52.9579061227262
20
-2.48580459714336
30
2E-16
41
1
10
54.2610366143094
20
-3.0126822717383
30
2E-16
41
1
10
55.1252422830946
20
-3.32188830920183
30
2E-16
41
1
10
56.4265853255855
20
-3.7064958450417
30
-2E-16
41
1
10
56.8613681436388
20
-3.82146286313889
30
-2E-16
41
1
10
57.7287119219721
20
-4.02128408653374
30
0
41
1
10
58.1620007857995
20
-4.10637771909126
30
0
41
1
10
59.0298383636215
20
-4.24531232880901
30
0
41
1
10
59.4644851456479
20
-4.29909869820884
30
0
41
1
10
60.3316881362391
20
-4.37372766177975
30
0
41
1
10
60.7649158407944
20
-4.39469441140506
30
0
41
1
10
61.1987806443215
20
-4.3991000266052
30
0
0
SPLINE
5
CC
100
AcDbEntity
8
1
62
256
6
ByLayer
370
18
48
1
60
0
100
AcDbSpline
70
4
71
3
72
14
73
10
40
0
40
0
40
0
40
0
40
0.196888322685455
40
0.196888322685455
40
0.39377664537091
40
0.39377664537091
40
0.787553290741823
40
0.787553290741823
40
1
40
1
40
1
40
1
41
1
10
3.60187966173302
20
-3.57314204224016
30
2E-16
41
1
10
3.90593734192402
20
-3.64721684163945
30
0
41
1
10
4.20974249495299
20
-3.7144663490146
30
0
41
1
10
4.81741051976908
20
-3.83493575996371
30
0
41
1
10
5.12166476080583
20
-3.88821264360439
30
0
41
1
10
6.03258937112628
20
-4.02589525861117
30
0
41
1
10
6.63556562072046
20
-4.08829390979406
30
0
41
1
10
7.56107268228115
20
-4.13804355021776
30
0
41
1
10
7.88486497819855
20
-4.14675589743337
30
0
41
1
10
8.20848443638178
20
-4.14679130397383
30
0
0
SPLINE
5
CD
100
AcDbEntity
8
1
62
256
6
ByLayer
370
18
48
1
60
0
100
AcDbSpline
70
4
71
3
72
24
73
20
40
0
40
0
40
0
40
0
40
0.0210385299269913
40
0.0210385299269913
40
0.160890168508851
40
0.160890168508851
40
0.440593445672572
40
0.440593445672572
40
0.510519264963501
40
0.510519264963501
40
0.58044508425443
40
0.58044508425443
40
0.720296722836288
40
0.720296722836288
40
0.860148361418145
40
0.860148361418145
40
0.930074180709072
40
0.930074180709072
40
1
40
1
40
1
40
1
41
1
10
48.5281247139877
20
0.227403054341465
30
0
41
1
10
48.6193241025768
20
0.183511524512085
30
0
41
1
10
48.7104478538852
20
0.139619358962676
30
0
41
1
10
49.4061446712998
20
-0.195584435412911
30
0
41
1
10
50.007167813466
20
-0.485652301979286
30
0
41
1
10
51.8060509477538
20
-1.33782612313018
30
1E-16
41
1
10
52.9995859755669
20
-1.88188778751803
30
1E-16
41
1
10
54.508774003682
20
-2.48260609570465
30
2E-16
41
1
10
54.8118532000503
20
-2.59894802785587
30
2E-16
41
1
10
55.4187179423645
20
-2.82190630901525
30
2E-16
41
1
10
55.7210813601382
20
-2.92800745306999
30
2E-16
41
1
10
56.6257760183906
20
-3.2289864146197
30
2E-16
41
1
10
57.225740307011
20
-3.40661547907413
30
2E-16
41
1
10
58.424373299226
20
-3.71029309078801
30
0
41
1
10
59.0230262000583
20
-3.83649734452254
30
0
41
1
10
59.9235463246573
20
-3.98361994431815
30
0
41
1
10
60.2241434238146
20
-4.02562024403835
30
0
41
1
10
60.8267469292016
20
-4.09495895290911
30
0
41
1
10
61.1287912172423
20
-4.1218040595102
30
0
41
1
10
61.4317326441282
20
-4.14203813053237
30
0
0
SPLINE
5
CE
100
AcDbEntity
8
1
62
256
6
ByLayer
370
18
48
1
60
0
100
AcDbSpline
70
4
71
3
72
40
73
36
40
0
40
0
40
0
40
0
40
0.017674040872852
40
0.017674040872852
40
0.0814780106813991
40
0.0814780106813991
40
0.145281980489946
40
0.145281980489946
40
0.209085950298493
40
0.209085950298493
40
0.27288992010704
40
0.27288992010704
40
0.336693889915588
40
0.336693889915588
40
0.400497859724136
40
0.400497859724136
40
0.464301829532684
40
0.464301829532684
40
0.528105799341231
40
0.528105799341231
40
0.591909769149779
40
0.591909769149779
40
0.655713738958327
40
0.655713738958327
40
0.719517708766875
40
0.719517708766875
40
0.783321678575422
40
0.783321678575422
40
0.84712564838397
40
0.84712564838397
40
0.910929618192518
40
0.910929618192518
40
0.974733588001066
40
0.974733588001066
40
1
40
1
40
1
40
1
41
1
10
19.5185131609307
20
4.16094920158528
30
0
41
1
10
19.6014414977106
20
4.16301943116505
30
0
41
1
10
19.6843062822442
20
4.16448640719096
30
0
41
1
10
20.0660747563843
20
4.16832333386856
30
0
41
1
10
20.3643161905845
20
4.16351003429625
30
0
41
1
10
20.9595312263954
20
4.14016800423431
30
0
41
1
10
21.2564847997829
20
4.12169949657815
30
0
41
1
10
21.8503381959031
20
4.06896642259534
30
0
41
1
10
22.1471452063563
20
4.03516876459091
30
0
41
1
10
22.7405580100791
20
3.95426757084616
30
0
41
1
10
23.0371308191245
20
3.90722756777993
30
0
41
1
10
23.6315961999381
20
3.79807422272543
30
0
41
1
10
23.9293026578613
20
3.73646913533781
30
0
41
1
10
24.5255659317658
20
3.60055428231377
30
-2E-16
41
1
10
24.8240650441502
20
3.52630947746704
30
-2E-16
41
1
10
25.423778808277
20
3.36381767666683
30
-2E-16
41
1
10
25.7253500493304
20
3.27581328816646
30
-2E-16
41
1
10
26.325519931623
20
3.08940631398164
30
-2E-16
41
1
10
26.6244955721454
20
2.99092915738879
30
-2E-16
41
1
10
27.2213624153774
20
2.78375698847577
30
-2E-16
41
1
10
27.519137303349
20
2.67525467077073
30
-2E-16
41
1
10
28.1136596567816
20
2.44954715162839
30
-1E-16
41
1
10
28.4104590307524
20
2.33230477667718
30
-1E-16
41
1
10
29.0040703604081
20
2.09010506157657
30
-1E-16
41
1
10
29.3008364065671
20
1.96517002828512
30
-1E-16
41
1
10
29.8943791746993
20
1.70851887411644
30
-1E-16
41
1
10
30.191270076439
20
1.57683564469954
30
-1E-16
41
1
10
30.7863088033259
20
1.30810392052729
30
-1E-16
41
1
10
31.0843514827515
20
1.17101352824957
30
-1E-16
41
1
10
31.681544737162
20
0.892062472424328
30
-1E-16
41
1
10
31.980875450644
20
0.75035147023641
30
0
41
1
10
32.5820594358687
20
0.464076306118784
30
0
41
1
10
32.8833154701931
20
0.319543362799891
30
0
41
1
10
33.3028787034009
20
0.117327447628867
30
0
41
1
10
33.4218720836365
20
0.0599207154029386
30
0
41
1
10
33.5408700021219
20
0.0025273524938143
30
0
0
SPLINE
5
CF
100
AcDbEntity
8
1
62
256
6
ByLayer
370
18
48
1
60
0
100
AcDbSpline
70
4
71
3
72
42
73
38
40
0
40
0
40
0
40
0
40
0.0697471716143911
40
0.0697471716143911
40
0.139494343228782
40
0.139494343228782
40
0.174367929035978
40
0.174367929035978
40
0.209241514843173
40
0.209241514843173
40
0.278988686457565
40
0.278988686457565
40
0.418483029686346
40
0.418483029686346
40
0.453356615493541
40
0.453356615493541
40
0.488230201300736
40
0.488230201300736
40
0.557977372915127
40
0.557977372915127
40
0.592850958722323
40
0.592850958722323
40
0.627724544529519
40
0.627724544529519
40
0.662598130336715
40
0.662598130336715
40
0.69747171614391
40
0.69747171614391
40
0.83696605937269
40
0.83696605937269
40
0.906713230987079
40
0.906713230987079
40
0.941586816794275
40
0.941586816794275
40
0.97646040260147
40
0.97646040260147
40
1
40
1
40
1
40
1
41
1
10
61.1828898282115
20
-4.34291192779025
30
0
41
1
10
60.580549464241
20
-4.29336043358575
30
0
41
1
10
59.9789619923388
20
-4.21238568729481
30
0
41
1
10
58.7725834056642
20
-3.99021256664656
30
0
41
1
10
58.1717081780903
20
-3.8497199027336
30
-2E-16
41
1
10
57.2700206894811
20
-3.59890441277494
30
2E-16
41
1
10
56.9693901594435
20
-3.50861883126188
30
2E-16
41
1
10
56.3672927597066
20
-3.31544398788287
30
2E-16
41
1
10
56.0653092491251
20
-3.21235608924664
30
2E-16
41
1
10
55.1633970936034
20
-2.88771398305062
30
2E-16
41
1
10
54.5662134039785
20
-2.6503159918604
30
2E-16
41
1
10
52.7790324264117
20
-1.88909332262153
30
1E-16
41
1
10
51.5935874191832
20
-1.31576094129753
30
1E-16
41
1
10
50.093117653426
20
-0.564883556487445
30
0
41
1
10
49.7915596348327
20
-0.412724009375722
30
0
41
1
10
49.1887375601987
20
-0.107447661933747
30
0
41
1
10
48.8878714945249
20
0.0454468463758246
30
0
41
1
10
47.985785549133
20
0.502675355258532
30
0
41
1
10
47.3851028839306
20
0.805602710558901
30
0
41
1
10
46.4810788330929
20
1.24916255613795
30
-1E-16
41
1
10
46.1792328460938
20
1.39519809806893
30
-1E-16
41
1
10
45.5771152393795
20
1.68102577385358
30
-1E-16
41
1
10
45.2764305637281
20
1.82097905844142
30
-1E-16
41
1
10
44.6750991209075
20
2.09370052687589
30
-1E-16
41
1
10
44.3744600428682
20
2.22648351121799
30
-1E-16
41
1
10
43.7725982869017
20
2.48377401286453
30
-2E-16
41
1
10
43.4709921052466
20
2.60839949061355
30
-2E-16
41
1
10
41.9638607029641
20
3.20617188586371
30
-2E-16
41
1
10
40.7760799642236
20
3.59726243680555
30
-2E-16
41
1
10
38.9901465216792
20
4.01889273131735
30
0
41
1
10
38.3942023806473
20
4.13207174628101
30
0
41
1
10
37.4953875391919
20
4.25700607415837
30
0
41
1
10
37.1949848243965
20
4.29119345087875
30
0
41
1
10
36.5918887989667
20
4.3440417285143
30
0
41
1
10
36.290326759342
20
4.36258363765555
30
0
41
1
10
35.7861828312149
20
4.38030360594044
30
0
41
1
10
35.5831547706459
20
4.38382481728266
30
0
41
1
10
35.3801561059292
20
4.38373254888853
30
0
0
SPLINE
5
D0
100
AcDbEntity
8
1
62
256
6
ByLayer
370
18
48
1
60
0
100
AcDbSpline
70
4
71
3
72
16
73
12
40
0
40
0
40
0
40
0
40
0.0222509327198838
40
0.0222509327198838
40
0.266688199539913
40
0.266688199539913
40
0.388906832949928
40
0.388906832949928
40
0.511125466359943
40
0.511125466359943
40
1
40
1
40
1
40
1
41
1
10
10.9459672686378
20
-4.14696649236154
30
0
41
1
10
10.8910220361828
20
-4.15565017087826
30
0
41
1
10
10.8360741180429
20
-4.16408323121775
30
0
41
1
10
10.1775119168129
20
-4.26212082823815
30
0
41
1
10
9.57602714592295
20
-4.32121010427133
30
0
41
1
10
8.67295192899616
20
-4.36251482121668
30
0
41
1
10
8.37178110791959
20
-4.3684008577284
30
0
41
1
10
7.76851592356445
20
-4.36427251945628
30
0
41
1
10
7.46631219279908
20
-4.35422303469571
30
0
41
1
10
5.96037593060035
20
-4.2647383636936
30
0
41
1
10
4.7644151179324
20
-4.0675775004712
30
0
41
1
10
3.55669253474349
20
-3.75710688965358
30
-2E-16
0
SPLINE
5
D1
100
AcDbEntity
8
1
62
256
6
ByLayer
370
18
48
1
60
0
100
AcDbSpline
70
4
71
3
72
14
73
10
40
0
40
0
40
0
40
0
40
0.270023258925702
40
0.270023258925702
40
0.505670892829661
40
0.505670892829661
40
0.781339574546854
40
0.781339574546854
40
1
40
1
40
1
40
1
41
1
10
60.9244037063077
20
-0.0843540986940923
30
0
41
1
10
60.9251432757839
20
-0.0846824599346121
30
0
41
1
10
60.9258693192184
20
-0.0853808158559843
30
0
41
1
10
60.9270828781531
20
-0.0871226551109032
30
0
41
1
10
60.9276056923496
20
-0.0881343862177744
30
0
41
1
10
60.9285792453317
20
-0.0905967573765736
30
0
41
1
10
60.9290183189887
20
-0.0921309078593424
30
0
41
1
10
60.9295670109169
20
-0.095052747632451
30
0
41
1
10
60.9297313223689
20
-0.0964397112280437
30
0
41
1
10
60.9297852955334
20
-0.0978225825206209
30
0
0
SPLINE
5
D2
100
AcDbEntity
8
1
62
256
6
ByLayer
370
18
48
1
60
0
100
AcDbSpline
70
4
71
3
72
8
73
4
40
0
40
0
40
0
40
0
40
1
40
1
40
1
40
1
41
1
10
61.1828898282091
20
-4.34291192779099
30
0
41
1
10
61.188445049546
20
-4.37625067709956
30
0
41
1
10
61.19358932763
20
-4.3951994694543
30
0
41
1
10
61.1987806443085
20
-4.39910002660523
30
0
0
SPLINE
5
D3
100
AcDbEntity
8
1
62
256
6
ByLayer
370
18
48
1
60
0
100
AcDbSpline
70
4
71
3
72
12
73
8
40
0
40
0
40
0
40
0
40
0.250000000000003
40
0.250000000000003
40
0.500000000000005
40
0.500000000000005
40
1
40
1
40
1
40
1
41
1
10
3.60243786389458
20
1.28492133388579
30
-1E-16
41
1
10
3.58679743104841
20
1.28499693129359
30
-1E-16
41
1
10
3.57161293190421
20
1.28252381602988
30
-1E-16
41
1
10
3.54555380767152
20
1.27409943045868
30
-1E-16
41
1
10
3.53479262791347
20
1.26829271485641
30
-1E-16
41
1
10
3.50945393279773
20
1.24860079577621
30
-1E-16
41
1
10
3.50172232663442
20
1.23281783013294
30
-1E-16
41
1
10
3.50172232663445
20
1.21707760536737
30
-1E-16
0
SPLINE
5
D4
100
AcDbEntity
8
1
62
256
6
ByLayer
370
18
48
1
60
0
100
AcDbSpline
70
4
71
3
72
10
73
6
40
0
40
0
40
0
40
0
40
0.5
40
0.5
40
1
40
1
40
1
40
1
41
1
10
3.50172232663445
20
1.25367369229437
30
-1E-16
41
1
10
3.50172232663442
20
1.28661629995852
30
-1E-16
41
1
10
3.52026266330205
20
1.3181043616604
30
-1E-16
41
1
10
3.57884947968046
20
1.35222078469349
30
-1E-16
41
1
10
3.61662810076723
20
1.35361956221402
30
-1E-16
41
1
10
3.64724954618882
20
1.33872245927844
30
-1E-16
0
SPLINE
5
D5
100
AcDbEntity
8
1
62
256
6
ByLayer
370
18
48
1
60
0
100
AcDbSpline
70
4
71
3
72
72
73
68
40
0
40
0
40
0
40
0
40
0.0014188546709028
40
0.0014188546709028
40
0.0263111952626756
40
0.0263111952626756
40
0.0512035358544483
40
0.0512035358544483
40
0.076095876446221
40
0.076095876446221
40
0.100988217037994
40
0.100988217037994
40
0.15077289822154
40
0.15077289822154
40
0.200557579405086
40
0.200557579405086
40
0.250342260588633
40
0.250342260588633
40
0.275234601180405
40
0.275234601180405
40
0.300126941772178
40
0.300126941772178
40
0.349911622955725
40
0.349911622955725
40
0.374803963547498
40
0.374803963547498
40
0.399696304139271
40
0.399696304139271
40
0.424588644731044
40
0.424588644731044
40
0.449480985322817
40
0.449480985322817
40
0.499265666506364
40
0.499265666506364
40
0.54905034768991
40
0.54905034768991
40
0.573942688281683
40
0.573942688281683
40
0.598835028873457
40
0.598835028873457
40
0.62372736946523
40
0.62372736946523
40
0.648619710057003
40
0.648619710057003
40
0.698404391240549
40
0.698404391240549
40
0.723296731832323
40
0.723296731832323
40
0.748189072424096
40
0.748189072424096
40
0.773081413015869
40
0.773081413015869
40
0.797973753607642
40
0.797973753607642
40
0.847758434791189
40
0.847758434791189
40
0.897543115974735
40
0.897543115974735
40
0.922435456566508
40
0.922435456566508
40
0.947327797158281
40
0.947327797158281
40
0.972220137750055
40
0.972220137750055
40
0.997112478341828
40
0.997112478341828
40
1
40
1
40
1
40
1
41
1
10
55.7179494964755
20
-2.90577291630282
30
2E-16
41
1
10
55.7015485958879
20
-2.91201591562068
30
2E-16
41
1
10
55.6851449054494
20
-2.9182446884154
30
2E-16
41
1
10
55.3809030411127
20
-3.03348589856245
30
2E-16
41
1
10
55.0918624314078
20
-3.13856380013289
30
2E-16
41
1
10
54.5164799684281
20
-3.33641930319305
30
2E-16
41
1
10
54.2295454481319
20
-3.42939257823295
30
2E-16
41
1
10
53.6569000574916
20
-3.60338252506895
30
2E-16
41
1
10
53.3711812235509
20
-3.68439224812297
30
-2E-16
41
1
10
52.8007993326623
20
-3.83432454728109
30
-2E-16
41
1
10
52.5161415794226
20
-3.90321643303793
30
-2E-16
41
1
10
51.6617680693438
20
-4.0898582797644
30
0
41
1
10
51.091821757675
20
-4.18798337330847
30
0
41
1
10
49.949673959116
20
-4.32992907917196
30
0
41
1
10
49.3762369726157
20
-4.37299252191562
30
0
41
1
10
48.2208103792737
20
-4.40082302914544
30
0
41
1
10
47.647678141456
20
-4.3852034833786
30
0
41
1
10
46.7903173514704
20
-4.3195065236973
30
0
41
1
10
46.5050077599856
20
-4.29057375554009
30
0
41
1
10
45.9349445705074
20
-4.21889797532256
30
0
41
1
10
45.6503800854047
20
-4.17603553834402
30
0
41
1
10
44.7963033927054
20
-4.02733655520206
30
0
41
1
10
44.2260253170138
20
-3.90186232699818
30
-2E-16
41
1
10
43.3676195971286
20
-3.67522654568202
30
-2E-16
41
1
10
43.0811165573396
20
-3.59307423672721
30
2E-16
41
1
10
42.5059133074981
20
-3.41701247854843
30
2E-16
41
1
10
42.2165169567103
20
-3.32287610420209
30
2E-16
41
1
10
41.6400965175828
20
-3.124580826938
30
2E-16
41
1
10
41.3528334837545
20
-3.02046685955375
30
2E-16
41
1
10
40.7801267635558
20
-2.80247943527655
30
2E-16
41
1
10
40.4945196772956
20
-2.6888436213394
30
2E-16
41
1
10
39.6382954132128
20
-2.33682119816581
30
1E-16
41
1
10
39.0686490853213
20
-2.08679890021636
30
1E-16
41
1
10
37.929487151474
20
-1.55990514441498
30
1E-16
41
1
10
37.358722322672
20
-1.28530222463536
30
1E-16
41
1
10
36.4984124003869
20
-0.861087360389206
30
1E-16
41
1
10
36.2110979747416
20
-0.717312155164677
30
0
41
1
10
35.6344098630048
20
-0.426859457895887
30
0
41
1
10
35.3454287045405
20
-0.280707115326351
30
0
41
1
10
34.7703174706208
20
0.0101220781542963
30
0
41
1
10
34.4836035704027
20
0.155287565354314
30
0
41
1
10
33.911470668868
20
0.444357783562737
30
0
41
1
10
33.6262448607355
20
0.588650562267787
30
0
41
1
10
32.7709202531847
20
1.01642310101383
30
-1E-16
41
1
10
32.201091887894
20
1.29471494184568
30
-1E-16
41
1
10
31.3458628808113
20
1.69974260589095
30
-1E-16
41
1
10
31.0606496122269
20
1.83255861464699
30
-1E-16
41
1
10
30.4887038922087
20
2.09145451450053
30
-1E-16
41
1
10
30.2020164907595
20
2.21762792689489
30
-1E-16
41
1
10
29.6270970891023
20
2.46317595744532
30
-2E-16
41
1
10
29.3383018368151
20
2.5826852141995
30
-2E-16
41
1
10
28.7612376653211
20
2.81321557136982
30
-2E-16
41
1
10
28.4737220845573
20
2.92347901325431
30
-2E-16
41
1
10
27.6128838143327
20
3.23764294323053
30
-2E-16
41
1
10
27.0417952580201
20
3.42581767400611
30
-2E-16
41
1
10
25.9020681148112
20
3.75602121544253
30
2E-16
41
1
10
25.3323080113407
20
3.89676841634605
30
2E-16
41
1
10
24.4757479246741
20
4.06945417159895
30
0
41
1
10
24.1901155767105
20
4.12073597248951
30
0
41
1
10
23.6172772887563
20
4.20954509280389
30
0
41
1
10
23.330023110636
20
4.2470731423897
30
0
41
1
10
22.753559734772
20
4.30811752130879
30
0
41
1
10
22.4639237609275
20
4.33163062385887
30
0
41
1
10
21.8880884432056
20
4.36400476711808
30
0
41
1
10
21.6012844631363
20
4.37291707884012
30
0
41
1
10
21.2816870964649
20
4.37478367108713
30
0
41
1
10
21.2484734494138
20
4.37488130432985
30
0
41
1
10
21.2152659166022
20
4.37488263731859
30
0
0
SPLINE
5
D6
100
AcDbEntity
8
1
62
256
6
ByLayer
370
18
48
1
60
0
100
AcDbSpline
70
4
71
3
72
8
73
4
40
0
40
0
40
0
40
0
40
1
40
1
40
1
40
1
41
1
10
3.60187966173297
20
-3.57314204224016
30
2E-16
41
1
10
3.58684875757578
20
-3.56984428166791
30
2E-16
41
1
10
3.57215484807898
20
-3.56946133254056
30
2E-16
41
1
10
3.55840056059418
20
-3.57212416188418
30
2E-16
0
SPLINE
5
D7
100
AcDbEntity
8
1
62
256
6
ByLayer
370
18
48
1
60
0
100
AcDbSpline
70
4
71
3
72
16
73
12
40
0
40
0
40
0
40
0
40
0.228343698777668
40
0.228343698777668
40
0.459105201650784
40
0.459105201650784
40
0.656569616115571
40
0.656569616115571
40
0.829519011017026
40
0.829519011017026
40
1
40
1
40
1
40
1
41
1
10
61.4317326441272
20
-4.14203813053231
30
0
41
1
10
61.4318133515722
20
-4.14220509554727
30
0
41
1
10
61.4318376499426
20
-4.14255249634516
30
0
41
1
10
61.4317468790326
20
-4.14362273089367
30
0
41
1
10
61.4316275653744
20
-4.14437057900901
30
0
41
1
10
61.4312700718755
20
-4.1460552962989
30
0
41
1
10
61.4310453512653
20
-4.14697630307481
30
0
41
1
10
61.4305508268284
20
-4.14880226038454
30
0
41
1
10
61.4302837066658
20
-4.14971872773071
30
0
41
1
10
61.4297284694704
20
-4.15151106639658
30
0
41
1
10
61.429434279879
20
-4.15240858193008
30
0
41
1
10
61.4291423186527
20
-4.15325652884766
30
0
0
SPLINE
5
D8
100
AcDbEntity
8
1
62
256
6
ByLayer
370
18
48
1
60
0
100
AcDbSpline
70
4
71
3
72
10
73
6
40
0
40
0
40
0
40
0
40
0.5
40
0.5
40
1
40
1
40
1
40
1
41
1
10
3.5584005605939
20
-3.57212416188472
30
2E-16
41
1
10
3.53872870894108
20
-3.57593263134433
30
2E-16
41
1
10
3.52463502475942
20
-3.58170606646769
30
2E-16
41
1
10
3.50619429347341
20
-3.59416454002263
30
2E-16
41
1
10
3.50172232663445
20
-3.60100211645255
30
2E-16
41
1
10
3.50172232663445
20
-3.60766999056406
30
2E-16
0
SPLINE
5
D9
100
AcDbEntity
8
1
62
256
6
ByLayer
370
18
48
1
60
0
100
AcDbSpline
70
4
71
3
72
8
73
4
40
0
40
0
40
0
40
0
40
1
40
1
40
1
40
1
41
1
10
60.818499676313
20
-0.0347059481214558
30
0
41
1
10
60.8075539016611
20
0.174433150910744
30
0
41
1
10
60.8039876403792
20
0.381403295672783
30
0
41
1
10
60.8099293695386
20
0.585262311195436
30
0
0
SPLINE
5
DA
100
AcDbEntity
8
1
62
256
6
ByLayer
370
18
48
1
60
0
100
AcDbSpline
70
4
71
3
72
26
73
22
40
0
40
0
40
0
40
0
40
0.041004117420712
40
0.041004117420712
40
0.10537489436557
40
0.10537489436557
40
0.234116448255284
40
0.234116448255284
40
0.362858002144998
40
0.362858002144998
40
0.491599556034711
40
0.491599556034711
40
0.620341109924425
40
0.620341109924425
40
0.684711886869283
40
0.684711886869283
40
0.749082663814141
40
0.749082663814141
40
0.877824217703855
40
0.877824217703855
40
1
40
1
40
1
40
1
41
1
10
35.8324971476838
20
-4.16844871531154
30
0
41
1
10
35.6404536271137
20
-4.17317471486208
30
0
41
1
10
35.4481080916881
20
-4.17484836092717
30
0
41
1
10
34.9528214101637
20
-4.17121787605694
30
0
41
1
10
34.6488141254988
20
-4.16132120927733
30
0
41
1
10
33.7379341818213
20
-4.10835877270171
30
0
41
1
10
33.1318158783707
20
-4.04284050935121
30
0
41
1
10
31.9163604126422
20
-3.85234616170885
30
0
41
1
10
31.3126779512941
20
-3.72879427453381
30
0
41
1
10
30.1101364962267
20
-3.43072648397768
30
2E-16
41
1
10
29.5111089426922
20
-3.25652295789976
30
2E-16
41
1
10
28.3123769457035
20
-2.86372473878902
30
2E-16
41
1
10
27.7128889546423
20
-2.64540518374375
30
2E-16
41
1
10
26.8095501166784
20
-2.29010036749997
30
1E-16
41
1
10
26.5078032748581
20
-2.16707416406914
30
1E-16
41
1
10
25.9024450954335
20
-1.91272597138243
30
1E-16
41
1
10
25.5980572046705
20
-1.78104843314281
30
1E-16
41
1
10
24.6888007846985
20
-1.37888728811407
30
1E-16
41
1
10
24.086794712052
20
-1.10036019093104
30
1E-16
41
1
10
22.9163478700192
20
-0.548207728669809
30
0
41
1
10
22.348060114534
20
-0.274484803443329
30
0
41
1
10
21.7790356169852
20
-0.0008572983233819
30
0
0
SPLINE
5
DB
100
AcDbEntity
8
1
62
256
6
ByLayer
370
18
48
1
60
0
100
AcDbSpline
70
4
71
3
72
30
73
26
40
0
40
0
40
0
40
0
40
0.129600918553353
40
0.129600918553353
40
0.259201837106706
40
0.259201837106706
40
0.388802755660058
40
0.388802755660058
40
0.453603214936735
40
0.453603214936735
40
0.518403674213411
40
0.518403674213411
40
0.583204133490087
40
0.583204133490087
40
0.648004592766764
40
0.648004592766764
40
0.777605511320116
40
0.777605511320116
40
0.842405970596794
40
0.842405970596794
40
0.907206429873472
40
0.907206429873472
40
0.97200688915015
40
0.97200688915015
40
1
40
1
40
1
40
1
41
1
10
60.9297852955335
20
-0.0978225825205641
30
0
41
1
10
60.3310780747447
20
0.191554858540371
30
0
41
1
10
59.735447714348
20
0.479514936826462
30
0
41
1
10
58.5458363226716
20
1.0431438245368
30
-1E-16
41
1
10
57.952295150979
20
1.31923900815474
30
-1E-16
41
1
10
56.7625022374176
20
1.84993449320658
30
-1E-16
41
1
10
56.1664050029132
20
2.1045271672042
30
-1E-16
41
1
10
55.2665513812607
20
2.46330800821934
30
-2E-16
41
1
10
54.964968330093
20
2.57928136410794
30
-2E-16
41
1
10
54.364598987383
20
2.80044951570091
30
-2E-16
41
1
10
54.0654215067069
20
2.90583540922563
30
-2E-16
41
1
10
53.4684661679848
20
3.10542577771281
30
-2E-16
41
1
10
53.1707450670465
20
3.19954597072873
30
-2E-16
41
1
10
52.576480664301
20
3.3753179471201
30
-2E-16
41
1
10
52.2798366215275
20
3.45713617932177
30
-2E-16
41
1
10
51.3894808091199
20
3.68491818815309
30
0
41
1
10
50.7956418377929
20
3.81281374158647
30
0
41
1
10
49.9027163286715
20
3.96266684040449
30
0
41
1
10
49.6047261097241
20
4.00546472999213
30
0
41
1
10
49.0074632732477
20
4.07559984963402
30
0
41
1
10
48.7080052280654
20
4.10361430040882
30
0
41
1
10
48.106703462464
20
4.14622178227674
30
0
41
1
10
47.8056727739585
20
4.1603740238499
30
0
41
1
10
47.3769630187492
20
4.16922409124683
30
0
41
1
10
47.2478068868969
20
4.17048122108284
30
0
41
1
10
47.1187812630712
20
4.17037918380052
30
0
0
SPLINE
5
DC
100
AcDbEntity
8
1
62
256
6
ByLayer
370
18
48
1
60
0
100
AcDbSpline
70
4
71
3
72
14
73
10
40
0
40
0
40
0
40
0
40
0.144320776734805
40
0.144320776734805
40
0.42954718448987
40
0.42954718448987
40
0.714773592244935
40
0.714773592244935
40
1
40
1
40
1
40
1
41
1
10
6.79737826920038
20
-0.228643138326589
30
0
41
1
10
6.64655333884858
20
-0.156370438796586
30
0
41
1
10
6.49555487375531
20
-0.0839947602225095
30
0
41
1
10
6.04542396483328
20
0.131228499110762
30
0
41
1
10
5.74572147373891
20
0.27425976452929
30
0
41
1
10
5.14436126742049
20
0.560194092702801
30
0
41
1
10
4.84298133264801
20
0.702978801609703
30
0
41
1
10
4.24173938459569
20
0.98555448170606
30
-1E-16
41
1
10
3.94141349824409
20
1.12556628754828
30
-1E-16
41
1
10
3.64118488238665
20
1.26379803791525
30
-1E-16
0
SPLINE
5
DD
100
AcDbEntity
8
1
62
256
6
ByLayer
370
18
48
1
60
0
100
AcDbSpline
70
4
71
3
72
28
73
24
40
0
40
0
40
0
40
0
40
0.0893210917424366
40
0.0893210917424366
40
0.178642183484873
40
0.178642183484873
40
0.26796327522731
40
0.26796327522731
40
0.357284366969746
40
0.357284366969746
40
0.535926550454617
40
0.535926550454617
40
0.625247642197053
40
0.625247642197053
40
0.714568733939488
40
0.714568733939488
40
0.803889825681923
40
0.803889825681923
40
0.893210917424359
40
0.893210917424359
40
0.982532009166794
40
0.982532009166794
40
1
40
1
40
1
40
1
41
1
10
19.6
20
0.482587901805658
30
0
41
1
10
20.0346453626582
20
0.26444347760517
30
0
41
1
10
20.4687940713661
20
0.0446022061815086
30
0
41
1
10
21.3381642907807
20
-0.394380322502059
30
0
41
1
10
21.7728724141276
20
-0.613205902111559
30
0
41
1
10
22.640211943808
20
-1.04365202277825
30
1E-16
41
1
10
23.0734409081937
20
-1.25554502408482
30
1E-16
41
1
10
23.9409614875601
20
-1.66892989156202
30
1E-16
41
1
10
24.3760555205917
20
-1.87080154912331
30
1E-16
41
1
10
25.6787911815659
20
-2.45198690267961
30
2E-16
41
1
10
26.5436490149289
20
-2.80669182525781
30
2E-16
41
1
10
27.8474388178906
20
-3.27043333861843
30
2E-16
41
1
10
28.2819089660496
20
-3.41316560692115
30
2E-16
41
1
10
29.1489872420526
20
-3.67145593776485
30
-2E-16
41
1
10
29.5821366633628
20
-3.7872096641114
30
-2E-16
41
1
10
30.4496535742687
20
-3.98976813287655
30
0
41
1
10
30.8848043492422
20
-4.07667352443119
30
0
41
1
10
31.7528308088602
20
-4.2186968539279
30
0
41
1
10
32.186008741957
20
-4.27394103060072
30
0
41
1
10
33.0527489992572
20
-4.35202373988827
30
0
41
1
10
33.4863111892516
20
-4.37486990787835
30
0
41
1
10
34.006030950793
20
-4.38240949848833
30
0
41
1
10
34.0910143057437
20
-4.38300818835063
30
0
41
1
10
34.1759697434961
20
-4.38297412018051
30
0
0
SPLINE
5
DE
100
AcDbEntity
8
1
62
256
6
ByLayer
370
18
48
1
60
0
100
AcDbSpline
70
4
71
3
72
8
73
4
40
0
40
0
40
0
40
0
40
1
40
1
40
1
40
1
41
1
10
60.1159445606804
20
4.3537867271765
30
0
41
1
10
60.4768372114094
20
4.38028687619845
30
0
41
1
10
60.837588155108
20
4.39543235154224
30
0
41
1
10
61.1987806443293
20
4.39910002660528
30
0
0
SPLINE
5
DF
100
AcDbEntity
8
1
62
256
6
ByLayer
370
18
48
1
60
0
100
AcDbSpline
70
4
71
3
72
14
73
10
40
0
40
0
40
0
40
0
40
0.407830535168386
40
0.407830535168386
40
0.611745802752579
40
0.611745802752579
40
0.815661070336772
40
0.815661070336772
40
1
40
1
40
1
40
1
41
1
10
61.4650739018145
20
4.22246367632587
30
0
41
1
10
60.5923035738115
20
4.22912980970116
30
0
41
1
10
59.718132113424
20
4.1707176363868
30
0
41
1
10
58.4088770343216
20
3.98974664354734
30
0
41
1
10
57.9724306401629
20
3.91406778591886
30
0
41
1
10
57.0993078494109
20
3.73333342016809
30
0
41
1
10
56.6638375835236
20
3.6285985210765
30
2E-16
41
1
10
55.834937177243
20
3.403791019761
30
-2E-16
41
1
10
55.4416147349619
20
3.28624193248842
30
-2E-16
41
1
10
55.0476312984413
20
3.15874212833401
30
-2E-16
0
SPLINE
5
E0
100
AcDbEntity
8
1
62
256
6
ByLayer
370
18
48
1
60
0
100
AcDbSpline
70
4
71
3
72
10
73
6
40
0
40
0
40
0
40
0
40
0.245854422832064
40
0.245854422832064
40
1
40
1
40
1
40
1
41
1
10
21.3363813355824
20
-0.392325752074583
30
0
41
1
10
21.1940024218055
20
-0.323203628040801
30
0
41
1
10
21.0516512708948
20
-0.25394086092038
30
0
41
1
10
20.4728591057124
20
0.0279940385099735
30
0
41
1
10
20.0367613642357
20
0.241302394245423
30
0
41
1
10
19.6
20
0.453122199742296
30
0
0
SPLINE
5
E1
100
AcDbEntity
8
1
62
256
6
ByLayer
370
18
48
1
60
0
100
AcDbSpline
70
4
71
3
72
12
73
8
40
0
40
0
40
0
40
0
40
0.500000000000031
40
0.500000000000031
40
0.750000000000015
40
0.750000000000015
40
1
40
1
40
1
40
1
41
1
10
3.50172232663445
20
1.21707760536739
30
-1E-16
41
1
10
3.50172232663442
20
1.22995276131414
30
-1E-16
41
1
10
3.50945086292538
20
1.24282500352402
30
-1E-16
41
1
10
3.53479532781267
20
1.25884359977084
30
-1E-16
41
1
10
3.54555969170019
20
1.26355905486011
30
-1E-16
41
1
10
3.5716202031474
20
1.27039358180869
30
-1E-16
41
1
10
3.58680206295006
20
1.27239635337514
30
-1E-16
41
1
10
3.60243786389458
20
1.27233509094302
30
-1E-16
0
SPLINE
5
E2
100
AcDbEntity
8
1
62
256
6
ByLayer
370
18
48
1
60
0
100
AcDbSpline
70
4
71
3
72
66
73
62
40
0
40
0
40
0
40
0
40
0.0224587555631382
40
0.0224587555631382
40
0.0523639514427797
40
0.0523639514427797
40
0.0822691473224213
40
0.0822691473224213
40
0.112174343202063
40
0.112174343202063
40
0.142079539081704
40
0.142079539081704
40
0.171984734961346
40
0.171984734961346
40
0.201889930840988
40
0.201889930840988
40
0.23179512672063
40
0.23179512672063
40
0.261700322600272
40
0.261700322600272
40
0.291605518479914
40
0.291605518479914
40
0.321510714359556
40
0.321510714359556
40
0.351415910239198
40
0.351415910239198
40
0.381321106118841
40
0.381321106118841
40
0.411226301998483
40
0.411226301998483
40
0.441131497878125
40
0.441131497878125
40
0.471036693757767
40
0.471036693757767
40
0.500941889637409
40
0.500941889637409
40
0.560752281396694
40
0.560752281396694
40
0.590657477276336
40
0.590657477276336
40
0.620562673155978
40
0.620562673155978
40
0.680373064915262
40
0.680373064915262
40
0.710278260794904
40
0.710278260794904
40
0.740183456674545
40
0.740183456674545
40
0.770088652554187
40
0.770088652554187
40
0.799993848433828
40
0.799993848433828
40
0.859804240193112
40
0.859804240193112
40
0.919614631952395
40
0.919614631952395
40
0.949519827832036
40
0.949519827832036
40
0.979425023711678
40
0.979425023711678
40
1
40
1
40
1
40
1
41
1
10
17.3045582219828
20
4.17086944619737
30
0
41
1
10
17.5266798424056
20
4.20468716473928
30
0
41
1
10
17.7485123396536
20
4.2343709743291
30
0
41
1
10
18.2656244652011
20
4.29367533695756
30
0
41
1
10
18.560924726754
20
4.32003125003496
30
0
41
1
10
19.1513215238697
20
4.35778078977546
30
0
41
1
10
19.4463900511782
20
4.36912202738236
30
0
41
1
10
20.0378534096944
20
4.37643787111665
30
0
41
1
10
20.3341209243319
20
4.37247374960231
30
0
41
1
10
20.9277341898894
20
4.34909368205396
30
0
41
1
10
21.2250561522159
20
4.32961718421183
30
0
41
1
10
21.8222943198308
20
4.27527467208213
30
0
41
1
10
22.1220611164579
20
4.24036519876321
30
0
41
1
10
22.7193137864714
20
4.155554754816
30
0
41
1
10
23.017349011815
20
4.10554167126938
30
0
41
1
10
23.613970636029
20
3.99156167455203
30
0
41
1
10
23.9123349908767
20
3.92748100452079
30
0
41
1
10
24.5091856788014
20
3.78505089472759
30
2E-16
41
1
10
24.8077570718182
20
3.70658043903933
30
2E-16
41
1
10
25.4063321399184
20
3.53720080922653
30
-2E-16
41
1
10
25.7051425224159
20
3.44630025780919
30
-2E-16
41
1
10
26.301902997954
20
3.25223203694986
30
-2E-16
41
1
10
26.599819213657
20
3.14898139814144
30
-2E-16
41
1
10
27.1964202640075
20
2.93240085114277
30
-2E-16
41
1
10
27.4948667725569
20
2.81876656681047
30
-2E-16
41
1
10
28.0922417740839
20
2.58099250073783
30
-2E-16
41
1
10
28.3915759417494
20
2.4568389849907
30
-2E-16
41
1
10
28.9891772856387
20
2.20127135319123
30
-1E-16
41
1
10
29.287638090385
20
2.06965325917929
30
-1E-16
41
1
10
29.8839713223829
20
1.79891229944442
30
-1E-16
41
1
10
30.1819876094016
20
1.66003226413855
30
-1E-16
41
1
10
30.7787945158977
20
1.37723793795084
30
-1E-16
41
1
10
31.0774655760495
20
1.23311283912673
30
-1E-16
41
1
10
31.6755314264614
20
0.939679364461824
30
-1E-16
41
1
10
31.9743350499664
20
0.791092482184951
30
0
41
1
10
32.8698369097862
20
0.343514944818139
30
0
41
1
10
33.4652513243697
20
0.0401803734624195
30
0
41
1
10
34.3611564189698
20
-0.411998918174049
30
0
41
1
10
34.6605533892298
20
-0.562623646231629
30
0
41
1
10
35.2580062430266
20
-0.861596182413621
30
1E-16
41
1
10
35.5563678021063
20
-1.00937458687108
30
1E-16
41
1
10
36.4511883107069
20
-1.44605720044547
30
1E-16
41
1
10
37.0467474888476
20
-1.7294853319911
30
1E-16
41
1
10
37.9436797354865
20
-2.13356151743795
30
1E-16
41
1
10
38.2428654743786
20
-2.26483078407548
30
1E-16
41
1
10
38.8395380851494
20
-2.51881850135905
30
2E-16
41
1
10
39.1376948428635
20
-2.64115817169616
30
2E-16
41
1
10
39.7340783826133
20
-2.87594571186691
30
2E-16
41
1
10
40.0322274980285
20
-2.98851434436958
30
2E-16
41
1
10
40.6288269374776
20
-3.20331903157299
30
2E-16
41
1
10
40.9280884946131
20
-3.3052442487969
30
2E-16
41
1
10
41.8243513054454
20
-3.59222278089061
30
2E-16
41
1
10
42.4170228868927
20
-3.75845437235344
30
-2E-16
41
1
10
43.5998970433004
20
-4.0344176896389
30
0
41
1
10
44.1889789358269
20
-4.14520840696244
30
0
41
1
10
45.074342711951
20
-4.26686036863748
30
0
41
1
10
45.3695237414572
20
-4.30015567995463
30
0
41
1
10
45.9605327367331
20
-4.3517420982831
30
0
41
1
10
46.2568027159024
20
-4.36989265516996
30
0
41
1
10
46.7582950449469
20
-4.38760364490599
30
0
41
1
10
46.9630016128323
20
-4.3911954077949
30
0
41
1
10
47.1681754015025
20
-4.39109212925294
30
0
0
SPLINE
5
E3
100
AcDbEntity
8
1
62
256
6
ByLayer
370
18
48
1
60
0
100
AcDbSpline
70
4
71
3
72
8
73
4
40
0
40
0
40
0
40
0
40
1
40
1
40
1
40
1
41
1
10
61.4291423186526
20
-4.15325652884769
30
0
41
1
10
61.4225734965594
20
-4.17233444722908
30
0
41
1
10
61.4160321994791
20
-4.19141226901652
30
0
41
1
10
61.4095189699799
20
-4.21049014396075
30
0
0
SPLINE
5
E4
100
AcDbEntity
8
1
62
256
6
ByLayer
370
18
48
1
60
0
100
AcDbSpline
70
4
71
3
72
10
73
6
40
0
40
0
40
0
40
0
40
0.5
40
0.5
40
1
40
1
40
1
40
1
41
1
10
61.4715174672978
20
-4.21812587290972
30
0
41
1
10
61.4574586974571
20
-4.22738743988285
30
0
41
1
10
61.4455006936118
20
-4.23127410214008
30
0
41
1
10
61.4250994947714
20
-4.22849244055573
30
0
41
1
10
61.4166996955497
20
-4.22189132298831
30
0
41
1
10
61.40951896998
20
-4.21049014396067
30
0
0
SPLINE
5
E5
100
AcDbEntity
8
1
62
256
6
ByLayer
370
18
48
1
60
0
100
AcDbSpline
70
4
71
3
72
30
73
26
40
0
40
0
40
0
40
0
40
0.0456801254373836
40
0.0456801254373836
40
0.272144052372262
40
0.272144052372262
40
0.328760034105982
40
0.328760034105982
40
0.357068024972843
40
0.357068024972843
40
0.371222020406273
40
0.371222020406273
40
0.385376015839703
40
0.385376015839703
40
0.399530011273133
40
0.399530011273133
40
0.413684006706564
40
0.441991997573419
40
0.498607979307134
40
0.498607979307134
40
0.72507190624199
40
0.72507190624199
40
0.951535833176846
40
0.951535833176846
40
1
40
1
40
1
40
1
41
1
10
3.37821394196286
20
-4.36375915252807
30
0
41
1
10
3.42268568319003
20
-4.3637115411637
30
0
41
1
10
3.46758732737953
20
-4.36324330931791
30
0
41
1
10
3.73740410656822
20
-4.35823540868449
30
0
41
1
10
3.97221003387904
20
-4.344657300036
30
0
41
1
10
4.27262542202493
20
-4.31980856673107
30
0
41
1
10
4.33305603591791
20
-4.31443966139224
30
0
41
1
10
4.42415879543631
20
-4.30584235010775
30
0
41
1
10
4.45442760266084
20
-4.3028321592362
30
0
41
1
10
4.50048735041412
20
-4.2983515814222
30
0
41
1
10
4.51758509833743
20
-4.29740045563614
30
0
41
1
10
4.55230063250454
20
-4.29680171375082
30
0
41
1
10
4.57003413203159
20
-4.29701229286528
30
0
41
1
10
4.60438978208265
20
-4.29822034418081
30
0
41
1
10
4.62119368440563
20
-4.29916441760375
30
0
41
1
10
4.65499026898237
20
-4.30083984983378
30
0
41
1
10
4.70566183545756
20
-4.30334336207832
30
0
41
1
10
4.82372878037967
20
-4.30911143550986
30
0
41
1
10
4.92463630761586
20
-4.31390812479984
30
0
41
1
10
5.26029437800403
20
-4.32947170994802
30
0
41
1
10
5.52685585401184
20
-4.34057717702075
30
0
41
1
10
6.05432249393107
20
-4.35747975532661
30
0
41
1
10
6.31533571991037
20
-4.36327862533648
30
0
41
1
10
6.62930591466576
20
-4.36557554712005
30
0
41
1
10
6.68454198555892
20
-4.36579924032228
30
0
41
1
10
6.73967240726972
20
-4.36583112652173
30
0
0
SPLINE
5
E6
100
AcDbEntity
8
1
62
256
6
ByLayer
370
18
48
1
60
0
100
AcDbSpline
70
4
71
3
72
66
73
62
40
0
40
0
40
0
40
0
40
0.125000000000001
40
0.125000000000001
40
0.187500000000003
40
0.187500000000003
40
0.218750000000003
40
0.218750000000003
40
0.250000000000004
40
0.250000000000004
40
0.281250000000004
40
0.281250000000004
40
0.312500000000005
40
0.312500000000005
40
0.343750000000006
40
0.343750000000006
40
0.359375000000006
40
0.359375000000006
40
0.375000000000006
40
0.375000000000006
40
0.390625000000005
40
0.390625000000005
40
0.406250000000005
40
0.406250000000005
40
0.437500000000005
40
0.437500000000005
40
0.453125000000005
40
0.453125000000005
40
0.468750000000005
40
0.468750000000005
40
0.484375000000005
40
0.484375000000005
40
0.500000000000004
40
0.500000000000004
40
0.531250000000005
40
0.531250000000005
40
0.562500000000005
40
0.562500000000005
40
0.625000000000007
40
0.625000000000007
40
0.68750000000001
40
0.68750000000001
40
0.70312500000001
40
0.70312500000001
40
0.71093750000001
40
0.71093750000001
40
0.71484375000001
40
0.71484375000001
40
0.71875000000001
40
0.71875000000001
40
0.72265625000001
40
0.72265625000001
40
0.72656250000001
40
0.73437500000001
40
0.750000000000009
40
0.750000000000009
40
0.812500000000007
40
0.812500000000007
40
0.875000000000005
40
0.875000000000005
40
1
40
1
40
1
40
1
41
1
10
5.83132379168541
20
0.894000686724098
30
-1E-16
41
1
10
5.32731215216324
20
1.14243833903768
30
-1E-16
41
1
10
4.83544080191078
20
1.40309941646225
30
-1E-16
41
1
10
4.12460564915327
20
1.81918754607045
30
-1E-16
41
1
10
3.89220606886897
20
1.96210795766868
30
-1E-16
41
1
10
3.55291838571784
20
2.18484141773905
30
-1E-16
41
1
10
3.44152012601529
20
2.26042171234946
30
-1E-16
41
1
10
3.22476391902771
20
2.41333311231654
30
-1E-16
41
1
10
3.11914936207145
20
2.49082350432332
30
-2E-16
41
1
10
2.91467325426069
20
2.64825852967528
30
-2E-16
41
1
10
2.81537527450331
20
2.7285737918765
30
-2E-16
41
1
10
2.62777339798043
20
2.89020278968764
30
-2E-16
41
1
10
2.53956308391116
20
2.97137811830558
30
-2E-16
41
1
10
2.37711233757892
20
3.13454995935774
30
-2E-16
41
1
10
2.30282660556475
20
3.21654364969493
30
-2E-16
41
1
10
2.20532010814151
20
3.34030499686392
30
-2E-16
41
1
10
2.17512794703614
20
3.38178362541581
30
-2E-16
41
1
10
2.12145234497808
20
3.46316088564615
30
-2E-16
41
1
10
2.09778650090647
20
3.50327294204993
30
-2E-16
41
1
10
2.05740835878615
20
3.58223315188826
30
-2E-16
41
1
10
2.04069422945725
20
3.6210815820817
30
-2E-16
41
1
10
2.0149979113653
20
3.69737815351195
30
2E-16
41
1
10
2.00613489187856
20
3.73467186839539
30
2E-16
41
1
10
1.99244810797032
20
3.84111525587076
30
2E-16
41
1
10
2.00008119777235
20
3.90591956760747
30
0
41
1
10
2.03677962995286
20
3.99396986198124
30
0
41
1
10
2.05313595133484
20
4.0214619789223
30
0
41
1
10
2.09290971614342
20
4.07228904260307
30
0
41
1
10
2.11638376390573
20
4.095763715071
30
0
41
1
10
2.1698621276897
20
4.13921305040401
30
0
41
1
10
2.20002180871023
20
4.15926741131167
30
0
41
1
10
2.26558689840294
20
4.19576814796403
30
0
41
1
10
2.30084933519746
20
4.21217646135744
30
0
41
1
10
2.41302525239775
20
4.25670272527793
30
0
41
1
10
2.4962760448592
20
4.28016177081153
30
0
41
1
10
2.67596854067483
20
4.31760078332277
30
0
41
1
10
2.77284804834537
20
4.33156033913642
30
0
41
1
10
3.0733545430696
20
4.36158559013876
30
0
41
1
10
3.28834952069553
20
4.36657003024436
30
0
41
1
10
3.73740410656924
20
4.35823540868444
30
0
41
1
10
3.97221003388012
20
4.34465730003595
30
0
41
1
10
4.2726254220261
20
4.31980856673096
30
0
41
1
10
4.33305603591907
20
4.31443966139213
30
0
41
1
10
4.42415879543748
20
4.30584235010764
30
0
41
1
10
4.4544276026619
20
4.30283215923603
30
0
41
1
10
4.50048735041545
20
4.29835158142211
30
0
41
1
10
4.51758509833883
20
4.29740045563608
30
0
41
1
10
4.55230063250599
20
4.29680171375082
30
0
41
1
10
4.57003413203299
20
4.2970122928653
30
0
41
1
10
4.60438978208399
20
4.29822034418086
30
0
41
1
10
4.62119368440693
20
4.29916441760381
30
0
41
1
10
4.65499026898374
20
4.30083984983384
30
0
41
1
10
4.70566183545887
20
4.30334336207838
30
0
41
1
10
4.82372878038092
20
4.30911143550992
30
0
41
1
10
4.92463630761705
20
4.31390812479989
30
0
41
1
10
5.26029437800509
20
4.32947170994808
30
0
41
1
10
5.52685585401275
20
4.3405771770208
30
0
41
1
10
6.05432249393184
20
4.35747975532664
30
0
41
1
10
6.31533571991105
20
4.36327862533648
30
0
41
1
10
7.09120684613401
20
4.36895469051987
30
0
41
1
10
7.59881053211092
20
4.35691200459254
30
0
41
1
10
8.1006606988596
20
4.32039018478946
30
0
0
SPLINE
5
E7
100
AcDbEntity
8
1
62
256
6
ByLayer
370
18
48
1
60
0
100
AcDbSpline
70
4
71
3
72
30
73
26
40
0
40
0
40
0
40
0
40
0.0625
40
0.0625
40
0.125
40
0.125
40
0.25
40
0.25
40
0.3125
40
0.3125
40
0.375
40
0.375
40
0.4375
40
0.4375
40
0.5
40
0.5
40
0.625
40
0.625
40
0.6875
40
0.6875
40
0.75
40
0.75
40
0.875
40
0.875
40
1
40
1
40
1
40
1
41
1
10
3.60243786389458
20
1.27233509094302
30
-1E-16
41
1
10
3.60243070558974
20
1.16040765023203
30
-1E-16
41
1
10
3.60242283538352
20
1.04722965284631
30
-1E-16
41
1
10
3.60240587477031
20
0.818383408079541
30
-1E-16
41
1
10
3.60239676598238
20
0.702527481436618
30
0
41
1
10
3.60236823310495
20
0.355678770537679
30
0
41
1
10
3.6023475289403
20
0.12401281884911
30
0
41
1
10
3.60231476838214
20
-0.224124583595312
30
0
41
1
10
3.60230355824186
20
-0.34027735983625
30
0
41
1
10
3.60228062779788
20
-0.572801819643217
30
0
41
1
10
3.60226888380043
20
-0.689388237418058
30
0
41
1
10
3.60224527898441
20
-0.919277046053367
30
1E-16
41
1
10
3.60223337785587
20
-1.03299770498157
30
1E-16
41
1
10
3.60220938788189
20
-1.25799844225176
30
1E-16
41
1
10
3.60219726399757
20
-1.36959368843759
30
1E-16
41
1
10
3.60216080648462
20
-1.69844693976555
30
1E-16
41
1
10
3.60213664033631
20
-1.90773289575475
30
1E-16
41
1
10
3.60210010583802
20
-2.20726127203903
30
1E-16
41
1
10
3.60208787628716
20
-2.30469076028785
30
1E-16
41
1
10
3.60206318168395
20
-2.49465443069744
30
2E-16
41
1
10
3.60205067138321
20
-2.5875094177517
30
2E-16
41
1
10
3.60201284545357
20
-2.85622414484658
30
2E-16
41
1
10
3.6019875510251
20
-3.02022239540898
30
2E-16
41
1
10
3.60193530311125
20
-3.31899179027684
30
2E-16
41
1
10
3.60190829504322
20
-3.45402275595083
30
2E-16
41
1
10
3.60187966173294
20
-3.57314204224016
30
2E-16
0
SPLINE
5
E8
100
AcDbEntity
8
1
62
256
6
ByLayer
370
18
48
1
60
0
100
AcDbSpline
70
4
71
3
72
20
73
16
40
0
40
0
40
0
40
0
40
0.499999999999998
40
0.499999999999998
40
0.5625
40
0.5625
40
0.625000000000003
40
0.625000000000003
40
0.750000000000004
40
0.750000000000004
40
0.812500000000005
40
0.812500000000005
40
0.875000000000005
40
0.875000000000005
40
1
40
1
40
1
40
1
41
1
10
61.4715174672977
20
-4.21812587290972
30
0
41
1
10
61.6447832655182
20
-3.73010842340077
30
0
41
1
10
61.8149481490188
20
-3.23521567793665
30
0
41
1
10
62.0121636361067
20
-2.68054699909456
30
0
41
1
10
62.0341845217006
20
-2.61878694726235
30
0
41
1
10
62.0792069573086
20
-2.49647808166824
30
0
41
1
10
62.1021020790007
20
-2.43587664008189
30
0
41
1
10
62.1721793181623
20
-2.2557959083691
30
0
41
1
10
62.2207577820781
20
-2.13804384008006
30
0
41
1
10
62.297431161526
20
-1.96529734680161
30
0
41
1
10
62.3236224720639
20
-1.90836198033577
30
0
41
1
10
62.3774270586512
20
-1.79584903842545
30
0
41
1
10
62.405139074119
20
-1.74008907987627
30
0
41
1
10
62.489466555667
20
-1.57710595478412
30
0
41
1
10
62.547494188198
20
-1.4736986625704
30
0
41
1
10
62.6075139598216
20
-1.37505683616089
30
0
0
SPLINE
5
E9
100
AcDbEntity
8
1
62
256
6
ByLayer
370
18
48
1
60
0
100
AcDbSpline
70
4
71
3
72
66
73
62
40
0
40
0
40
0
40
0
40
0.0224674251191886
40
0.0224674251191886
40
0.0409665735321587
40
0.0409665735321587
40
0.0594657219451287
40
0.0594657219451287
40
0.0779648703580987
40
0.0779648703580987
40
0.0964640187710686
40
0.0964640187710686
40
0.101088805874311
40
0.103401199425932
40
0.103401199425932
40
0.103545724022909
40
0.103545724022909
40
0.103690248619885
40
0.103690248619885
40
0.103979297813838
40
0.103979297813838
40
0.104557396201743
40
0.104557396201743
40
0.105713592977553
40
0.105713592977553
40
0.114963167184037
40
0.114963167184037
40
0.133462315597005
40
0.133462315597005
40
0.17046061242294
40
0.17046061242294
40
0.244457206074811
40
0.244457206074811
40
0.392450393378553
40
0.392450393378553
40
0.466446987030424
40
0.466446987030424
40
0.503445283856359
40
0.503445283856359
40
0.521944432269327
40
0.521944432269327
40
0.531194006475811
40
0.531194006475811
40
0.532350203251621
40
0.532350203251621
40
0.533506400027432
40
0.533506400027432
40
0.533650924624408
40
0.533650924624408
40
0.533795449221385
40
0.533795449221385
40
0.534084498415337
40
0.534084498415337
40
0.534662596803243
40
0.535818793579054
40
0.540443580682298
40
0.688436767986111
40
0.688436767986111
40
0.836429955289924
40
0.836429955289924
40
1
40
1
40
1
40
1
41
1
10
8.10063211426399
20
4.32037721499392
30
0
41
1
10
8.06229142928538
20
4.20848376485711
30
0
41
1
10
8.02079186109765
20
4.09454421211331
30
0
41
1
10
7.94221314305588
20
3.88440371995239
30
0
41
1
10
7.90597011079706
20
3.78815601199867
30
0
41
1
10
7.82945191669029
20
3.59432631626225
30
0
41
1
10
7.78888431524243
20
3.49690468491386
30
0
41
1
10
7.70420625971008
20
3.30047849248817
30
0
41
1
10
7.66033625107877
20
3.20134387443406
30
0
41
1
10
7.56814683883758
20
3.00193441242217
30
0
41
1
10
7.51985050720992
20
2.90144615438339
30
0
41
1
10
7.45757267923841
20
2.775228527026
30
0
41
1
10
7.4387552369119
20
2.73733631932294
30
0
41
1
10
7.41975401827389
20
2.69940228094964
30
0
41
1
10
7.41300379846248
20
2.68596246615991
30
0
41
1
10
7.41250518381477
20
2.6852251629941
30
0
41
1
10
7.41197555644925
20
2.68350484796508
30
0
41
1
10
7.41254641160796
20
2.6825780446263
30
0
41
1
10
7.41425497339375
20
2.68044173075541
30
0
41
1
10
7.41566017180065
20
2.67927889911732
30
0
41
1
10
7.41983871838101
20
2.67585327172873
30
0
41
1
10
7.42276637138974
20
2.67375368662334
30
0
41
1
10
7.43158481024437
20
2.66756455495627
30
0
41
1
10
7.437577435756
20
2.66362683905879
30
0
41
1
10
7.49173291304683
20
2.62855744899102
30
0
41
1
10
7.5410434380571
20
2.59950190567909
30
0
41
1
10
7.68842022896888
20
2.51149642141141
30
0
41
1
10
7.78705544845053
20
2.4536720160018
30
0
41
1
10
8.08310970977323
20
2.28081449821346
30
0
41
1
10
8.280765408653
20
2.16658551804571
30
0
41
1
10
8.87363249286847
20
1.82537553604632
30
0
41
1
10
9.26895908138064
20
1.60017617808569
30
0
41
1
10
10.4545128824229
20
0.930232868378653
30
1E-16
41
1
10
11.2436537258573
20
0.491262685256402
30
0
41
1
10
12.4264970451622
20
-0.152634827569187
30
0
41
1
10
12.82067227101
20
-0.364928929622607
30
0
41
1
10
13.4113453416019
20
-0.680288769584081
30
0
41
1
10
13.6081804332039
20
-0.784859904654866
30
0
41
1
10
13.9029607357926
20
-0.941184496267596
30
1E-16
41
1
10
14.0011647270038
20
-0.993175755145444
30
1E-16
41
1
10
14.1478273685285
20
-1.07135965448461
30
1E-16
41
1
10
14.1968119058207
20
-1.09732267762692
30
1E-16
41
1
10
14.2508295081369
20
-1.12718770609345
30
1E-16
41
1
10
14.2568119900658
20
-1.13052030193256
30
1E-16
41
1
10
14.2686378877086
20
-1.13726240294707
30
1E-16
41
1
10
14.2747779104101
20
-1.14057079791092
30
1E-16
41
1
10
14.2805069654107
20
-1.14473681980723
30
1E-16
41
1
10
14.2811801115243
20
-1.14522113377396
30
1E-16
41
1
10
14.2818818444811
20
-1.14620937686254
30
1E-16
41
1
10
14.2808580961201
20
-1.14627671471865
30
1E-16
41
1
10
14.278205176665
20
-1.14585680525116
30
1E-16
41
1
10
14.2764214213008
20
-1.14551525646013
30
1E-16
41
1
10
14.2710910930381
20
-1.14457520512787
30
1E-16
41
1
10
14.2604306367456
20
-1.14269428792184
30
1E-16
41
1
10
14.2213445066432
20
-1.13578863273992
30
1E-16
41
1
10
13.2763475790495
20
-0.968075302525278
30
1E-16
41
1
10
12.3432000896678
20
-0.7827023410386
30
0
41
1
10
10.5437647109865
20
-0.387929295636695
30
0
41
1
10
9.6485951289977
20
-0.172752507189586
30
0
41
1
10
7.77606499262248
20
0.316898279101395
30
0
41
1
10
6.80022644723337
20
0.595102925357196
30
0
41
1
10
5.8312600649495
20
0.894029551325758
30
-1E-16
0
SPLINE
5
EA
100
AcDbEntity
8
1
62
256
6
ByLayer
370
18
48
1
60
0
100
AcDbSpline
70
4
71
3
72
8
73
4
40
0
40
0
40
0
40
0
40
1
40
1
40
1
40
1
41
1
10
62.2621309964637
20
-0.462638161356978
30
0
41
1
10
62.1194833514387
20
-0.0818565531050695
30
0
41
1
10
61.9409262543692
20
0.32253232289068
30
0
41
1
10
61.7271308569762
20
0.750087244125638
30
0
0
SPLINE
5
EB
100
AcDbEntity
8
1
62
256
6
ByLayer
370
18
48
1
60
0
100
AcDbSpline
70
4
71
3
72
8
73
4
40
0
40
0
40
0
40
0
40
1
40
1
40
1
40
1
41
1
10
62.6075139598217
20
-1.37505683616087
30
0
41
1
10
62.740603855347
20
-0.998971421249792
30
0
41
1
10
62.8700982227299
20
-0.621599374915377
30
0
41
1
10
62.9959424696316
20
-0.242921161719295
30
0
0
SPLINE
5
EC
100
AcDbEntity
8
1
62
256
6
ByLayer
370
18
48
1
60
0
100
AcDbSpline
70
4
71
3
72
16
73
12
40
0
40
0
40
0
40
0
40
0.0068890200723996
40
0.0068890200723996
40
0.2551667650543
40
0.2551667650543
40
0.5034445100362
40
0.5034445100362
40
0.7517222550181
40
0.7517222550181
40
1
40
1
40
1
40
1
41
1
10
61.2186159712951
20
0.90894924119587
30
0
41
1
10
61.2194831868756
20
0.909791020877321
30
0
41
1
10
61.2203553526016
20
0.910634192823238
30
0
41
1
10
61.2528413997974
20
0.941912860743713
30
1E-16
41
1
10
61.2907438720225
20
0.974145368187209
30
1E-16
41
1
10
61.3813331021887
20
1.03911316046623
30
0
41
1
10
61.4327731958846
20
1.07122558144889
30
0
41
1
10
61.5456094875545
20
1.13019238009005
30
0
41
1
10
61.6080183617271
20
1.15727637085843
30
0
41
1
10
61.7371884020666
20
1.2003775068803
30
0
41
1
10
61.8053553175805
20
1.2169203832772
30
0
41
1
10
61.8747578368573
20
1.22731185164912
30
0
0
SPLINE
5
ED
100
AcDbEntity
8
1
62
256
6
ByLayer
370
18
48
1
60
0
100
AcDbSpline
70
4
71
3
72
38
73
34
40
0
40
0
40
0
40
0
40
0.0566445735055013
40
0.0566445735055013
40
0.120290189502575
40
0.120290189502575
40
0.18393580549965
40
0.18393580549965
40
0.247581421496724
40
0.247581421496724
40
0.311227037493798
40
0.311227037493798
40
0.374872653490872
40
0.374872653490872
40
0.438518269487946
40
0.438518269487946
40
0.50216388548502
40
0.50216388548502
40
0.565809501482095
40
0.565809501482095
40
0.629455117479169
40
0.629455117479169
40
0.693100733476243
40
0.693100733476243
40
0.756746349473318
40
0.756746349473318
40
0.820391965470392
40
0.820391965470392
40
0.884037581467467
40
0.884037581467467
40
0.947683197464542
40
0.947683197464542
40
1
40
1
40
1
40
1
41
1
10
33.9871389522915
20
-0.223046719685044
30
0
41
1
10
33.7195334396886
20
-0.0946425613838642
30
0
41
1
10
33.4521270226488
20
0.0342106446574917
30
0
41
1
10
32.8840173881354
20
0.307397171553077
30
0
41
1
10
32.5827306415713
20
0.451633257230327
30
0
41
1
10
31.9814386661287
20
0.737387486174157
30
0
41
1
10
31.6820509882169
20
0.878866368998672
30
-1E-16
41
1
10
31.0847425782559
20
1.15739441227424
30
-1E-16
41
1
10
30.7866417370105
20
1.29429428084202
30
-1E-16
41
1
10
30.1914859423499
20
1.56270181928201
30
-1E-16
41
1
10
29.8945362429253
20
1.69425053844017
30
-1E-16
41
1
10
29.300876803952
20
1.95067024981242
30
-1E-16
41
1
10
29.0040534109033
20
2.07551021841161
30
-1E-16
41
1
10
28.410331748933
20
2.31757697020231
30
-1E-16
41
1
10
28.1134789361945
20
2.43477874709796
30
-1E-16
41
1
10
27.5188539495232
20
2.66044316681635
30
-2E-16
41
1
10
27.22103007352
20
2.76894346215727
30
-2E-16
41
1
10
26.6240760831382
20
2.97617253386721
30
-2E-16
41
1
10
26.3250606309967
20
3.0747057854808
30
-2E-16
41
1
10
25.7248175129797
20
3.26125344930168
30
-2E-16
41
1
10
25.4232040701825
20
3.34935500552578
30
-2E-16
41
1
10
24.8233844805482
20
3.51210512176274
30
-2E-16
41
1
10
24.5248294661966
20
3.58650932637636
30
-2E-16
41
1
10
23.9284526670968
20
3.7227629452062
30
0
41
1
10
23.6306889892655
20
3.78456028077781
30
0
41
1
10
23.0361087330336
20
3.89414877986738
30
0
41
1
10
22.7394780615433
20
3.94143246530322
30
0
41
1
10
22.1459493399808
20
4.02283863352437
30
0
41
1
10
21.8490863212647
20
4.05690961003259
30
0
41
1
10
21.2551244017738
20
4.11023183508166
30
0
41
1
10
20.9581183090898
20
4.12901671032137
30
0
41
1
10
20.4157836324172
20
4.15087449609891
30
0
41
1
10
20.1706823861671
20
4.1561149376931
30
0
41
1
10
19.9251105724036
20
4.15620110097572
30
0
0
SPLINE
5
EE
100
AcDbEntity
8
1
62
256
6
ByLayer
370
18
48
1
60
0
100
AcDbSpline
70
4
71
3
72
16
73
12
40
0
40
0
40
0
40
0
40
0.124999999999996
40
0.124999999999996
40
0.249999999999992
40
0.249999999999992
40
0.499999999999994
40
0.499999999999994
40
0.749999999999997
40
0.749999999999997
40
1
40
1
40
1
40
1
41
1
10
61.7271308569762
20
0.750087244125638
30
0
41
1
10
61.6894806949892
20
0.761555020350471
30
0
41
1
10
61.6512956201636
20
0.770514188864837
30
0
41
1
10
61.573913027634
20
0.782000926654121
30
0
41
1
10
61.5346219684245
20
0.784519963801898
30
0
41
1
10
61.4168387578553
20
0.785589354214295
30
0
41
1
10
61.3384104460237
20
0.779660881725704
30
0
41
1
10
61.1831398436763
20
0.751381227951072
30
0
41
1
10
61.1063368453032
20
0.72867937727608
30
0
41
1
10
60.9556816662544
20
0.667814210312997
30
0
41
1
10
60.8817421597567
20
0.63053721468728
30
0
41
1
10
60.8099293695394
20
0.585262311195123
30
0
0
SPLINE
5
EF
100
AcDbEntity
8
1
62
256
6
ByLayer
370
18
48
1
60
0
100
AcDbSpline
70
4
71
3
72
8
73
4
40
0
40
0
40
0
40
0
40
1
40
1
40
1
40
1
41
1
10
60.818499676313
20
-0.0347059481214558
30
0
41
1
10
60.8540119415606
20
-0.0522273056764107
30
0
41
1
10
60.8892996040943
20
-0.0687682383786239
30
0
41
1
10
60.9244037063077
20
-0.0843540986940923
30
0
0
SPLINE
5
F0
100
AcDbEntity
8
1
62
256
6
ByLayer
370
18
48
1
60
0
100
AcDbSpline
70
4
71
3
72
8
73
4
40
0
40
0
40
0
40
0
40
1
40
1
40
1
40
1
41
1
10
61.4650739018115
20
4.22246367634153
30
0
41
1
10
61.4672217256602
20
4.22101787908886
30
0
41
1
10
61.4693695807675
20
4.21957194458585
30
0
41
1
10
61.4715174672978
20
4.21812587290972
30
0
0
SPLINE
5
F1
100
AcDbEntity
8
1
62
256
6
ByLayer
370
18
48
1
60
0
100
AcDbSpline
70
4
71
3
72
20
73
16
40
0
40
0
40
0
40
0
40
0.499999999999985
40
0.499999999999985
40
0.562499999999986
40
0.562499999999986
40
0.624999999999986
40
0.624999999999986
40
0.749999999999992
40
0.749999999999992
40
0.812499999999993
40
0.812499999999993
40
0.874999999999993
40
0.874999999999993
40
1
40
1
40
1
40
1
41
1
10
61.4715174672978
20
4.21812587290972
30
0
41
1
10
61.6447832655182
20
3.73010842340085
30
0
41
1
10
61.8149481490189
20
3.23521567793679
30
0
41
1
10
62.0121636361066
20
2.68054699909476
30
0
41
1
10
62.0341845217005
20
2.61878694726255
30
0
41
1
10
62.0792069573086
20
2.49647808166833
30
0
41
1
10
62.1021020790007
20
2.43587664008189
30
0
41
1
10
62.1721793181623
20
2.25579590836898
30
0
41
1
10
62.2207577820781
20
2.13804384007989
30
0
41
1
10
62.2974311615259
20
1.96529734680155
30
0
41
1
10
62.3236224720639
20
1.9083619803358
30
0
41
1
10
62.3774270586511
20
1.79584903842561
30
0
41
1
10
62.4051390741189
20
1.74008907987641
30
0
41
1
10
62.4894665556669
20
1.57710595478415
30
0
41
1
10
62.547494188198
20
1.47369866257043
30
0
41
1
10
62.6075139598217
20
1.37505683616089
30
0
0
SPLINE
5
F2
100
AcDbEntity
8
1
62
256
6
ByLayer
370
18
48
1
60
0
100
AcDbSpline
70
4
71
3
72
14
73
10
40
0
40
0
40
0
40
0
40
0.33200529167379
40
0.33200529167379
40
0.664010583347581
40
0.664010583347581
40
0.996015875021371
40
0.996015875021371
40
1
40
1
40
1
40
1
41
1
10
3.64549256104041
20
1.27540340222103
30
-1E-16
41
1
10
3.94567506850868
20
1.13696152164238
30
-1E-16
41
1
10
4.24595677430202
20
0.996718914285623
30
-1E-16
41
1
10
4.84711463974867
20
0.71364117782278
30
0
41
1
10
5.14845639420474
20
0.570583977412042
30
0
41
1
10
5.74973706931968
20
0.284070748000204
30
0
41
1
10
6.04939577313229
20
0.140733744850365
30
0
41
1
10
6.35182705356942
20
-0.0042211811067716
30
0
41
1
10
6.35541311488637
20
-0.0059400797013893
30
0
41
1
10
6.35899904205601
20
-0.0076590152990832
30
0
0
SPLINE
5
F3
100
AcDbEntity
8
1
62
256
6
ByLayer
370
18
48
1
60
0
100
AcDbSpline
70
4
71
3
72
30
73
26
40
0
40
0
40
0
40
0
40
0.0487484633799311
40
0.0487484633799311
40
0.113061319998631
40
0.113061319998631
40
0.177374176617331
40
0.177374176617331
40
0.241687033236031
40
0.241687033236031
40
0.370312746473431
40
0.370312746473431
40
0.434625603092131
40
0.434625603092131
40
0.498938459710832
40
0.498938459710832
40
0.563251316329532
40
0.563251316329532
40
0.627564172948232
40
0.627564172948232
40
0.756189886185634
40
0.756189886185634
40
0.884815599423037
40
0.884815599423037
40
1
40
1
40
1
40
1
41
1
10
46.8238605204208
20
4.17738520684671
30
0
41
1
10
47.0499059544934
20
4.18144187183748
30
0
41
1
10
47.2762538202345
20
4.18142959607189
30
0
41
1
10
47.8024527386406
20
4.17131207292587
30
0
41
1
10
48.1034095255327
20
4.15757654912576
30
0
41
1
10
48.7046634768904
20
4.1157284418978
30
0
41
1
10
49.0040887894413
20
4.08806112562436
30
0
41
1
10
49.6012774193439
20
4.01862597367065
30
0
41
1
10
49.8992267212042
20
3.976169565166
30
0
41
1
10
50.7920164349777
20
3.82723047134806
30
0
41
1
10
51.3857520066685
20
3.69984253001704
30
0
41
1
10
52.2759356925651
20
3.47266754893755
30
-2E-16
41
1
10
52.5725181595156
20
3.39102750462351
30
-2E-16
41
1
10
53.1666547419298
20
3.21558665245914
30
-2E-16
41
1
10
53.4643112255425
20
3.12161285554117
30
-2E-16
41
1
10
54.0611395584129
20
2.92224376881268
30
-2E-16
41
1
10
54.3602537061827
20
2.81693861137427
30
-2E-16
41
1
10
54.9604968775101
20
2.59588068105902
30
-2E-16
41
1
10
55.2620493060605
20
2.47992217568057
30
-2E-16
41
1
10
56.1618249121348
20
2.1210849159628
30
-1E-16
41
1
10
56.757846159229
20
1.86635438396408
30
-1E-16
41
1
10
57.947462307126
20
1.33517141228245
30
-1E-16
41
1
10
58.5408989529567
20
1.0587291920107
30
-1E-16
41
1
10
59.6681490100027
20
0.523693082533185
30
0
41
1
10
60.2013569882105
20
0.265910176090216
30
0
41
1
10
60.7368439130137
20
0.0065156013962735
30
0
0
SPLINE
5
F4
100
AcDbEntity
8
1
62
256
6
ByLayer
370
18
48
1
60
0
100
AcDbSpline
70
4
71
3
72
34
73
30
40
0
40
0
40
0
40
0
40
0.497793129932292
40
0.497793129932292
40
0.665152562397244
40
0.665152562397244
40
0.776981506381307
40
0.776981506381307
40
0.851705819422102
40
0.851705819422102
40
0.901642282462943
40
0.901642282462943
40
0.935040396147596
40
0.935040396147596
40
0.95738459656098
40
0.95738459656098
40
0.972329464131878
40
0.972329464131878
40
0.982281839658076
40
0.982281839658076
40
0.988858086751745
40
0.988858086751745
40
0.993241035211057
40
0.993241035211057
40
0.996258186896327
40
0.996258186896327
40
0.999237059388034
40
0.999237059388034
40
1
40
1
40
1
40
1
41
1
10
61.1987806443236
20
4.39910002659499
30
0
41
1
10
61.2428451787557
20
4.37028980880893
30
0
41
1
10
61.2869768163261
20
4.34122100040381
30
0
41
1
10
61.3460309735962
20
4.30204788575841
30
0
41
1
10
61.3608973871117
20
4.29216313095324
30
0
41
1
10
61.3857096263368
20
4.27562714968278
30
0
41
1
10
61.3956501107106
20
4.26899218190499
30
0
41
1
10
61.4122504032465
20
4.25789477017835
30
0
41
1
10
61.4189069574653
20
4.253440155432
30
0
41
1
10
61.4300143148954
20
4.24599967954424
30
0
41
1
10
61.4344628485538
20
4.24301781737705
30
0
41
1
10
61.4418740043
20
4.2380470287699
30
0
41
1
10
61.444840814987
20
4.23605631069557
30
0
41
1
10
61.4497829261361
20
4.2327387854065
30
0
41
1
10
61.4517600293235
20
4.2314112449628
30
0
41
1
10
61.4550592751997
20
4.22919523899981
30
0
41
1
10
61.4563820092287
20
4.22830660101801
30
0
41
1
10
61.4586041284844
20
4.22681323735344
30
0
41
1
10
61.4594987776931
20
4.22621184825511
30
0
41
1
10
61.4609992972451
20
4.22520292223405
30
0
41
1
10
61.4616014488269
20
4.22479796382763
30
0
41
1
10
61.4625999767331
20
4.22412644412071
30
0
41
1
10
61.4629982322828
20
4.22385861551214
30
0
41
1
10
61.4636602928175
20
4.22341344511548
30
0
41
1
10
61.4639278012527
20
4.22323359063284
30
0
41
1
10
61.4644426485547
20
4.22288754103346
30
0
41
1
10
61.4646948761499
20
4.22271805047302
30
0
41
1
10
61.4649702228144
20
4.2225332245057
30
0
41
1
10
61.4650241690755
20
4.22249702578449
30
0
41
1
10
61.4650739018115
20
4.22246367634153
30
0
0
SPLINE
5
F5
100
AcDbEntity
8
1
62
256
6
ByLayer
370
18
48
1
60
0
100
AcDbSpline
70
4
71
3
72
8
73
4
40
0
40
0
40
0
40
0
40
1
40
1
40
1
40
1
41
1
10
3.64549256104039
20
1.27540340222106
30
-1E-16
41
1
10
3.63202876151743
20
1.28161958485364
30
-1E-16
41
1
10
3.61741175057483
20
1.28484895820228
30
-1E-16
41
1
10
3.60243786389458
20
1.28492133388579
30
-1E-16
0
SPLINE
5
F6
100
AcDbEntity
8
1
62
256
6
ByLayer
370
18
48
1
60
0
100
AcDbSpline
70
4
71
3
72
50
73
46
40
0
40
0
40
0
40
0
40
0.0084455263754906
40
0.0084455263754906
40
0.0386077965495338
40
0.0386077965495338
40
0.068770066723577
40
0.068770066723577
40
0.129094607071663
40
0.129094607071663
40
0.159256877245707
40
0.159256877245707
40
0.189419147419751
40
0.189419147419751
40
0.249743687767839
40
0.249743687767839
40
0.279905957941883
40
0.279905957941883
40
0.310068228115927
40
0.310068228115927
40
0.430717308812101
40
0.430717308812101
40
0.460879578986145
40
0.460879578986145
40
0.491041849160189
40
0.491041849160189
40
0.551366389508276
40
0.551366389508276
40
0.611690929856363
40
0.611690929856363
40
0.67201547020445
40
0.67201547020445
40
0.792664550900623
40
0.792664550900623
40
0.822826821074667
40
0.822826821074667
40
0.85298909124871
40
0.85298909124871
40
0.883151361422753
40
0.883151361422753
40
0.913313631596796
40
0.913313631596796
40
0.973638171944883
40
0.973638171944883
40
1
40
1
40
1
40
1
41
1
10
38.0464785396535
20
-4.1786287013598
30
0
41
1
10
37.9627090490059
20
-4.19145412706831
30
0
41
1
10
37.8788827727445
20
-4.20370063566509
30
0
41
1
10
37.4953875391919
20
-4.2570060741584
30
0
41
1
10
37.1949848243966
20
-4.29119345087875
30
0
41
1
10
36.5918887989667
20
-4.3440417285143
30
0
41
1
10
36.290326759342
20
-4.36258363765555
30
0
41
1
10
35.3873812817022
20
-4.39432093395934
30
0
41
1
10
34.7865944091787
20
-4.38370141401654
30
0
41
1
10
33.8830961141216
20
-4.32034663316909
30
0
41
1
10
33.5811728184068
20
-4.29126898990936
30
0
41
1
10
32.978315613086
20
-4.21768490279686
30
0
41
1
10
32.6773448653317
20
-4.17322182705482
30
0
41
1
10
31.774779106662
20
-4.01759334250153
30
0
41
1
10
31.1737378022224
20
-3.88401136694105
30
-2E-16
41
1
10
30.2689060300732
20
-3.64227894321039
30
-2E-16
41
1
10
29.9673288924261
20
-3.55488662786829
30
2E-16
41
1
10
29.3669847967229
20
-3.36845022222744
30
2E-16
41
1
10
29.0676853472809
20
-3.26931841624884
30
2E-16
41
1
10
27.5740547567765
20
-2.74651258678489
30
2E-16
41
1
10
26.3885742600243
20
-2.24074855373237
30
1E-16
41
1
10
24.8924643955394
20
-1.54235114339912
30
1E-16
41
1
10
24.5926069960521
20
-1.39922679085865
30
1E-16
41
1
10
23.9907958873822
20
-1.1075470536592
30
1E-16
41
1
10
23.6885142828173
20
-0.958875869933365
30
1E-16
41
1
10
22.7844461497621
20
-0.50992094565396
30
0
41
1
10
22.1835233157118
20
-0.205258262808485
30
0
41
1
10
20.9792428403437
20
0.402841744955566
30
0
41
1
10
20.3744124942587
20
0.707806763306991
30
0
41
1
10
19.1745827687225
20
1.29739346611237
30
-1E-16
41
1
10
18.578144759046
20
1.58348495696205
30
-1E-16
41
1
10
16.7909327864298
20
2.4004020248727
30
-1E-16
41
1
10
15.6026354614763
20
2.89047798957418
30
-2E-16
41
1
10
14.0956263913923
20
3.39045920690728
30
-2E-16
41
1
10
13.7934538866552
20
3.48467380664067
30
-2E-16
41
1
10
13.190924032203
20
3.6595678257134
30
2E-16
41
1
10
12.8900070309969
20
3.74042262503554
30
2E-16
41
1
10
12.2881610881076
20
3.88825243264722
30
0
41
1
10
11.987239485237
20
3.95523729698545
30
0
41
1
10
11.384781270619
20
4.07476091848227
30
0
41
1
10
11.082935243252
20
4.12733397432442
30
0
41
1
10
10.1775119168128
20
4.26212082823818
30
0
41
1
10
9.57602714592295
20
4.32121010427133
30
0
41
1
10
8.71088104895472
20
4.36078002489572
30
0
41
1
10
8.44767376258568
20
4.36679244047053
30
0
41
1
10
8.18414415686408
20
4.36673842813897
30
0
0
SPLINE
5
F7
100
AcDbEntity
8
1
62
256
6
ByLayer
370
18
48
1
60
0
100
AcDbSpline
70
4
71
3
72
34
73
30
40
0
40
0
40
0
40
0
40
0.497793129923731
40
0.497793129923731
40
0.66515256238378
40
0.66515256238378
40
0.776981506364343
40
0.776981506364343
40
0.851705819402372
40
0.851705819402372
40
0.901642282442087
40
0.901642282442087
40
0.93504039612536
40
0.93504039612536
40
0.957384596537775
40
0.957384596537775
40
0.972329464108031
40
0.972329464108031
40
0.982281839633804
40
0.982281839633804
40
0.988858086727228
40
0.988858086727228
40
0.993241035186313
40
0.993241035186313
40
0.996258186871578
40
0.996258186871578
40
0.999237059363288
40
0.999237059363288
40
1
40
1
40
1
40
1
41
1
10
61.1987806443216
20
-4.39910002659633
30
0
41
1
10
61.2428451787544
20
-4.37028980880984
30
0
41
1
10
61.2869768163254
20
-4.34122100040429
30
0
41
1
10
61.3460309735962
20
-4.30204788575841
30
0
41
1
10
61.3608973871117
20
-4.29216313095318
30
0
41
1
10
61.3857096263369
20
-4.27562714968266
30
0
41
1
10
61.3956501107107
20
-4.26899218190488
30
0
41
1
10
61.4122504032467
20
-4.25789477017827
30
0
41
1
10
61.4189069574654
20
-4.25344015543192
30
0
41
1
10
61.4300143148955
20
-4.24599967954415
30
0
41
1
10
61.434462848554
20
-4.24301781737694
30
0
41
1
10
61.4418740043002
20
-4.23804702876976
30
0
41
1
10
61.4448408149872
20
-4.23605631069546
30
0
41
1
10
61.4497829261362
20
-4.23273878540644
30
0
41
1
10
61.4517600293236
20
-4.23141124496274
30
0
41
1
10
61.4550592751998
20
-4.22919523899978
30
0
41
1
10
61.4563820092287
20
-4.22830660101798
30
0
41
1
10
61.4586041284844
20
-4.22681323735341
30
0
41
1
10
61.4594987776931
20
-4.22621184825508
30
0
41
1
10
61.460999297245
20
-4.22520292223405
30
0
41
1
10
61.4616014488269
20
-4.22479796382765
30
0
41
1
10
61.4625999767331
20
-4.22412644412071
30
0
41
1
10
61.4629982322828
20
-4.22385861551214
30
0
41
1
10
61.4636602928174
20
-4.22341344511548
30
0
41
1
10
61.4639278012527
20
-4.22323359063287
30
0
41
1
10
61.4644426485547
20
-4.22288754103346
30
0
41
1
10
61.4646948761499
20
-4.22271805047302
30
0
41
1
10
61.4649702228162
20
-4.22253322450447
30
0
41
1
10
61.465024169079
20
-4.22249702578216
30
0
41
1
10
61.4650739018163
20
-4.22246367633826
30
0
0
SPLINE
5
F8
100
AcDbEntity
8
1
62
256
6
ByLayer
370
18
48
1
60
0
100
AcDbSpline
70
4
71
3
72
8
73
4
40
0
40
0
40
0
40
0
40
1
40
1
40
1
40
1
41
1
10
3.59753960874872
20
-3.58631340818738
30
2E-16
41
1
10
3.58402464788358
20
-3.58302529141326
30
2E-16
41
1
10
3.57080163791596
20
-3.58235692561422
30
2E-16
41
1
10
3.5584005605939
20
-3.58445754439188
30
2E-16
0
SPLINE
5
F9
100
AcDbEntity
8
1
62
256
6
ByLayer
370
18
48
1
60
0
100
AcDbSpline
70
4
71
3
72
38
73
34
40
0
40
0
40
0
40
0
40
0.0003501881356685
40
0.0003501881356685
40
0.0640221848560316
40
0.0640221848560316
40
0.127694181576395
40
0.127694181576395
40
0.191366178296758
40
0.191366178296758
40
0.255038175017121
40
0.255038175017121
40
0.318710171737484
40
0.318710171737484
40
0.382382168457848
40
0.382382168457848
40
0.446054165178211
40
0.446054165178211
40
0.509726161898574
40
0.509726161898574
40
0.637070155339299
40
0.637070155339299
40
0.700742152059662
40
0.700742152059662
40
0.764414148780025
40
0.764414148780025
40
0.828086145500388
40
0.828086145500388
40
0.891758142220751
40
0.891758142220751
40
0.955430138941115
40
0.955430138941115
40
1
40
1
40
1
40
1
41
1
10
48.3869136387952
20
-0.319758837070253
30
0
41
1
10
48.3845134897867
20
-0.318590694328805
30
0
41
1
10
48.3821133303571
20
-0.317422503992816
30
0
41
1
10
47.9433088376167
20
-0.103842666417279
30
0
41
1
10
47.506597422985
20
0.109685137289148
30
0
41
1
10
46.6354256087517
20
0.533171424228897
30
0
41
1
10
46.200442791331
20
0.7436522744066
30
0
41
1
10
45.3294897219157
20
1.15755657073487
30
-1E-16
41
1
10
44.892893802478
20
1.36135584668378
30
-1E-16
41
1
10
44.0200720118189
20
1.75675789596227
30
-1E-16
41
1
10
43.5847900357412
20
1.94844794703451
30
-1E-16
41
1
10
42.7142084618565
20
2.31496123913101
30
-1E-16
41
1
10
42.2789599881585
20
2.49001075182622
30
-2E-16
41
1
10
41.406677261126
20
2.82062123903194
30
-2E-16
41
1
10
40.9696574837856
20
2.97648575825483
30
-2E-16
41
1
10
40.0961330573116
20
3.26342965451622
30
-2E-16
41
1
10
39.6596853280426
20
3.39460815240355
30
-2E-16
41
1
10
38.7870754315775
20
3.63104231307639
30
2E-16
41
1
10
38.3500447931846
20
3.73608167801026
30
0
41
1
10
37.0422263034537
20
4.00611773921221
30
0
41
1
10
36.17361907538
20
4.12707695564444
30
0
41
1
10
34.8637077434504
20
4.21272403448293
30
0
41
1
10
34.4276622564682
20
4.22536638162953
30
0
41
1
10
33.5568871751272
20
4.21895047635499
30
0
41
1
10
33.1217484808698
20
4.19960732925793
30
0
41
1
10
32.2502312568183
20
4.12897179884638
30
0
41
1
10
31.813489298736
20
4.07774244950846
30
0
41
1
10
30.9398933182501
20
3.94430332894942
30
0
41
1
10
30.5032201177236
20
3.8622161788322
30
0
41
1
10
29.6305745775499
20
3.6694520111262
30
2E-16
41
1
10
29.1940167863576
20
3.55872343973337
30
-2E-16
41
1
10
28.4520309515006
20
3.34836392205187
30
-2E-16
41
1
10
28.146988182405
20
3.25552301365857
30
-2E-16
41
1
10
27.8421422079244
20
3.15687392179737
30
-2E-16
0
SPLINE
5
FA
100
AcDbEntity
8
1
62
256
6
ByLayer
370
18
48
1
60
0
100
AcDbSpline
70
4
71
3
72
10
73
6
40
0
40
0
40
0
40
0
40
0.5
40
0.5
40
1
40
1
40
1
40
1
41
1
10
61.8747578368572
20
1.22731185164932
30
0
41
1
10
61.9980161185118
20
1.24576701075219
30
0
41
1
10
62.1209782208395
20
1.26635148744987
30
0
41
1
10
62.3656960659962
20
1.31516145967882
30
0
41
1
10
62.4870937483374
20
1.3432408993946
30
0
41
1
10
62.6075139598215
20
1.37505683616078
30
0
0
SPLINE
5
FB
100
AcDbEntity
8
1
62
256
6
ByLayer
370
18
48
1
60
0
100
AcDbSpline
70
4
71
3
72
28
73
24
40
0
40
0
40
0
40
0
40
0.125000000000001
40
0.125000000000001
40
0.187500000000001
40
0.187500000000001
40
0.250000000000001
40
0.250000000000001
40
0.375000000000001
40
0.375000000000001
40
0.437500000000001
40
0.437500000000001
40
0.500000000000001
40
0.500000000000001
40
0.625000000000001
40
0.625000000000001
40
0.6875
40
0.6875
40
0.75
40
0.75
40
0.875
40
0.875
40
1
40
1
40
1
40
1
41
1
10
60.9297852955334
20
-0.0978225825205925
30
0
41
1
10
60.9395070151147
20
-0.346907234849937
30
0
41
1
10
60.9593021208175
20
-0.590875248046331
30
0
41
1
10
60.9969012421073
20
-0.950177743330585
30
1E-16
41
1
10
61.0107798159197
20
-1.06882727272182
30
1E-16
41
1
10
61.0402830500636
20
-1.30395676102606
30
1E-16
41
1
10
61.05598339576
20
-1.42096398742655
30
1E-16
41
1
10
61.1038755760791
20
-1.76461016995853
30
1E-16
41
1
10
61.1365713524767
20
-1.98279928088814
30
1E-16
41
1
10
61.1828765640926
20
-2.29459411460672
30
1E-16
41
1
10
61.1978758487461
20
-2.39592472752509
30
1E-16
41
1
10
61.2265718885246
20
-2.59330212004653
30
2E-16
41
1
10
61.2403148241531
20
-2.68970496752371
30
2E-16
41
1
10
61.2784550201084
20
-2.96555102500506
30
2E-16
41
1
10
61.2999191819257
20
-3.13323239552429
30
2E-16
41
1
10
61.3266528628412
20
-3.36073407297559
30
2E-16
41
1
10
61.3346717147714
20
-3.43254044653241
30
2E-16
41
1
10
61.3492383870147
20
-3.56785430504272
30
2E-16
41
1
10
61.3557869746399
20
-3.63138651394704
30
-2E-16
41
1
10
61.3736419162743
20
-3.805585985449
30
0
41
1
10
61.383255617459
20
-3.90142157575934
30
0
41
1
10
61.4041682642052
20
-4.0528761326394
30
0
41
1
10
61.415553161677
20
-4.10856652790505
30
0
41
1
10
61.4317326441272
20
-4.14203813053237
30
0
0
SPLINE
5
FC
100
AcDbEntity
8
1
62
256
6
ByLayer
370
18
48
1
60
0
100
AcDbSpline
70
4
71
3
72
8
73
4
40
0
40
0
40
0
40
0
40
1
40
1
40
1
40
1
41
1
10
61.1828898282108
20
-4.34291192778906
30
0
41
1
10
61.2582500100448
20
-4.29957145568432
30
0
41
1
10
61.333783304955
20
-4.25542251370521
30
0
41
1
10
61.4095189699799
20
-4.2104901439607
30
0
0
SPLINE
5
FD
100
AcDbEntity
8
1
62
256
6
ByLayer
370
18
48
1
60
0
100
AcDbSpline
70
4
71
2
72
6
73
3
40
0
40
0
40
0
40
1
40
1
40
1
41
1
10
48.9783724727318
20
0.0005707857150696
30
0
41
1
10
48.9783945956234
20
0.000578716939998
30
0
41
1
10
48.9784167184506
20
0.0005860980574255
30
0
0
SPLINE
5
FE
100
AcDbEntity
8
1
62
256
6
ByLayer
370
18
48
1
60
0
100
AcDbSpline
70
4
71
3
72
12
73
8
40
0
40
0
40
0
40
0
40
0.0840505604506505
40
0.240220907962945
40
0.449093814447177
40
0.710549753082153
40
1
40
1
40
1
40
1
41
1
10
61.7213489997968
20
0.752189100024509
30
0
41
1
10
61.5660645273769
20
0.800583994886921
30
0
41
1
10
61.1226481347169
20
0.940461182308923
30
-1E-16
41
1
10
60.2953728256936
20
1.21080282338551
30
-1E-16
41
1
10
59.147127764082
20
1.60401794115847
30
-1E-16
41
1
10
57.7629631967611
20
2.1060039395509
30
-1E-16
41
1
10
56.7676585772732
20
2.4920230539046
30
-2E-16
41
1
10
56.2469090049122
20
2.70086102780581
30
-2E-16
0
SPLINE
5
FF
100
AcDbEntity
8
1
62
256
6
ByLayer
370
18
48
1
60
0
100
AcDbSpline
70
4
71
3
72
32
73
28
40
0
40
0
40
0
40
0
40
1.49783179197E-05
40
4.13251958863E-05
40
6.49058179953E-05
40
8.7028745485E-05
40
0.0001296344688104
40
0.0001708984522271
40
0.0008697201418904
40
0.0014213165759961
40
0.0024142105774605
40
0.0042124316557458
40
0.0075038971345063
40
0.0136378074174186
40
0.0254088660594115
40
0.0491420715662012
40
0.100720640294642
40
0.156768259549476
40
0.221071515576332
40
0.319891744925336
40
0.389390203470257
40
0.436673774017957
40
0.503857561821428
40
0.596049409874539
40
0.713218073494914
40
0.855328467350486
40
1
40
1
40
1
40
1
41
1
10
36.6073372704303
20
0.134407610892197
30
0
41
1
10
36.6073550648955
20
0.134404712352619
30
0
41
1
10
36.6073996519801
20
0.134398071568
30
0
41
1
10
36.6074425151357
20
0.134395659172981
30
0
41
1
10
36.6074431585617
20
0.134406130156378
30
0
41
1
10
36.6073851650777
20
0.134434528174836
30
0
41
1
10
36.6072280716774
20
0.134490734885247
30
0
41
1
10
36.6055272430744
20
0.135019514602902
30
0
41
1
10
36.6019726255277
20
0.135996746576978
30
0
41
1
10
36.596422605398
20
0.137605058454682
30
0
41
1
10
36.587933821313
20
0.140032607671003
30
0
41
1
10
36.5726213550782
20
0.144430405602464
30
0
41
1
10
36.5442758974914
20
0.152557222800283
30
0
41
1
10
36.4907833169794
20
0.167897738448062
30
0
41
1
10
36.3856484785715
20
0.198047436208697
30
0
41
1
10
36.1655186400972
20
0.261180250435274
30
0
41
1
10
35.8316767340183
20
0.357476346112321
30
0
41
1
10
35.3939618393824
20
0.486400029992183
30
0
41
1
10
34.8352376908923
20
0.655066201807472
30
0
41
1
10
34.2438693541762
20
0.839379928629455
30
-1E-16
41
1
10
33.6973178849988
20
1.0152395061985
30
-1E-16
41
1
10
33.2318920668311
20
1.1682529247652
30
-1E-16
41
1
10
32.7102600003559
20
1.34332116087998
30
-1E-16
41
1
10
32.0142982775689
20
1.58352575723913
30
-1E-16
41
1
10
31.1333513544553
20
1.89873548195626
30
-1E-16
41
1
10
30.1258165334543
20
2.27440297455865
30
-1E-16
41
1
10
29.4151887379421
20
2.55283554187329
30
-2E-16
41
1
10
29.0578231810563
20
2.69617789497778
30
-2E-16
0
SPLINE
5
100
100
AcDbEntity
8
1
62
256
6
ByLayer
370
18
48
1
60
0
100
AcDbSpline
70
4
71
3
72
20
73
16
40
0
40
0
40
0
40
0
40
0.0962336061086367
40
0.165156954482336
40
0.208450314061875
40
0.249458300428968
40
0.295682584233765
40
0.346062602538199
40
0.396310045346058
40
0.529805169180029
40
0.644287501780607
40
0.741321780772351
40
0.85846936096002
40
0.973547764090768
40
1
40
1
40
1
40
1
41
1
10
35.3761587416975
20
-4.16392475916774
30
0
41
1
10
35.6671367227412
20
-4.16413339360432
30
0
41
1
10
36.1665110752669
20
-4.16448446690575
30
0
41
1
10
36.7967495906848
20
-4.16486875649414
30
0
41
1
10
37.2600463305682
20
-4.16519594905174
30
0
41
1
10
37.6546987380877
20
-4.16541632597895
30
0
41
1
10
38.0707729637325
20
-4.16552217489513
30
0
41
1
10
38.514789336231
20
-4.16584637191386
30
0
41
1
10
39.2225807569405
20
-4.16662775678674
30
0
41
1
10
40.1240509535985
20
-4.16608755119074
30
0
41
1
10
41.1663776075905
20
-4.16754548826242
30
0
41
1
10
42.1602780527235
20
-4.16786177216315
30
0
41
1
10
43.1557846721092
20
-4.16814386675705
30
0
41
1
10
43.9379371108109
20
-4.16908441064788
30
0
41
1
10
44.3658706455391
20
-4.16926014023656
30
0
41
1
10
44.4458518524374
20
-4.16927615946304
30
0
0
SPLINE
5
101
100
AcDbEntity
8
1
62
256
6
ByLayer
370
18
48
1
60
0
100
AcDbSpline
70
4
71
3
72
20
73
16
40
0
40
0
40
0
40
0
40
0.0948937746446391
40
0.163217620868598
40
0.206699748225525
40
0.248434615543785
40
0.295828497987433
40
0.347581971242771
40
0.398591580161683
40
0.531338048732483
40
0.646150539888312
40
0.744554044203133
40
0.864693963149179
40
0.980029605112849
40
1
40
1
40
1
40
1
41
1
10
19.9418051000995
20
4.15620254341113
30
0
41
1
10
19.6567272855684
20
4.15579771558387
30
0
41
1
10
19.1663962821908
20
4.15530071299199
30
0
41
1
10
18.5454407292753
20
4.15490406770957
30
0
41
1
10
18.0841934575569
20
4.15507510218964
30
0
41
1
10
17.6858583843242
20
4.15459950305453
30
0
41
1
10
17.2626223762386
20
4.15400559640113
30
0
41
1
10
16.8115241441838
20
4.15383034233932
30
0
41
1
10
16.1040129522353
20
4.15355183623933
30
0
41
1
10
15.207067759024
20
4.15235005764967
30
0
41
1
10
14.1677203557398
20
4.15195823306109
30
0
41
1
10
13.1663122741618
20
4.15102745014269
30
0
41
1
10
12.1631459373209
20
4.15023319830615
30
0
41
1
10
11.3961022107221
20
4.1497469932273
30
0
41
1
10
10.9898532761555
20
4.14929064899619
30
0
41
1
10
10.9298881677559
20
4.14922192165045
30
0
0
SPLINE
5
102
100
AcDbEntity
8
1
62
256
6
ByLayer
370
18
48
1
60
0
100
AcDbSpline
70
4
71
3
72
20
73
16
40
0
40
0
40
0
40
0
40
0.101218122413397
40
0.173256073459387
40
0.217732858824761
40
0.257150147698399
40
0.29999294581954
40
0.346136856848712
40
0.39467810483925
40
0.489510744140275
40
0.578309281065182
40
0.653136574977262
40
0.801005748899928
40
0.974320575829968
40
1
40
1
40
1
40
1
41
1
10
8.17182927491518
20
-4.14688544193368
30
0
41
1
10
8.47911666230539
20
-4.14721456198234
30
0
41
1
10
9.00493785504494
20
-4.14770446006796
30
0
41
1
10
9.66611220860327
20
-4.14822255969696
30
0
41
1
10
10.1386083220104
20
-4.14844746340117
30
0
41
1
10
10.5232265920213
20
-4.14873018518196
30
0
41
1
10
10.9131163493962
20
-4.14922978003898
30
0
41
1
10
11.3301072854528
20
-4.14964316936735
30
0
41
1
10
11.9051961207647
20
-4.14990689490858
30
0
41
1
10
12.6100058564414
20
-4.15095418116076
30
0
41
1
10
13.3945921912206
20
-4.15101334212866
30
0
41
1
10
14.3401580367778
20
-4.15218856218962
30
0
41
1
10
15.5423170785704
20
-4.1524865159266
30
0
41
1
10
16.5952591373799
20
-4.15355358484126
30
0
41
1
10
17.1993387094214
20
-4.15405518640631
30
0
41
1
10
17.2772922121505
20
-4.15412592021943
30
0
0
SPLINE
5
103
100
AcDbEntity
8
1
62
256
6
ByLayer
370
18
48
1
60
0
100
AcDbSpline
70
4
71
3
72
20
73
16
40
0
40
0
40
0
40
0
40
0.101018177974961
40
0.172695604913863
40
0.216548963880056
40
0.256218344296246
40
0.299714502361127
40
0.346677881863737
40
0.395498364970382
40
0.534673826889616
40
0.6506549439986
40
0.746107073035132
40
0.856264315298291
40
0.97275237066827
40
1
40
1
40
1
40
1
41
1
10
47.1481286524618
20
4.17036913252761
30
0
41
1
10
46.8413067722267
20
4.17075392237169
30
0
41
1
10
46.3167744337275
20
4.1709615210921
30
0
41
1
10
45.6590245508316
20
4.16986133873741
30
0
41
1
10
45.1876228768098
20
4.1690668423949
30
0
41
1
10
44.8018144332978
20
4.16922412808441
30
0
41
1
10
44.4065598500526
20
4.16940974585438
30
0
41
1
10
43.9835114516002
20
4.16890029388176
30
0
41
1
10
43.2698359633092
20
4.16763791163064
30
0
41
1
10
42.3466339065904
20
4.1685416447927
30
0
41
1
10
41.2813583219404
20
4.16746570218098
30
0
41
1
10
40.3057063370738
20
4.16655111649777
30
0
41
1
10
39.3273153920604
20
4.16655681403961
30
0
41
1
10
38.5563689018797
20
4.16577931151767
30
0
41
1
10
38.1197994845993
20
4.16558495897891
30
0
41
1
10
38.0370386092764
20
4.16555112642851
30
0
0
SPLINE
5
104
100
AcDbEntity
8
1
62
256
6
ByLayer
370
18
48
1
60
0
100
AcDbSpline
70
4
71
2
72
6
73
3
40
0
40
0
40
0
40
1
40
1
40
1
41
1
10
48.9784167184506
20
-0.0005860980574823
30
0
41
1
10
48.9783945956235
20
-0.0005787169400548
30
0
41
1
10
48.978372472732
20
-0.0005707857151265
30
0
0
LINE
5
84
100
AcDbEntity
8
SK1
62
256
6
ByLayer
370
18
48
1
60
0
100
AcDbLine
10
0
20
5
30
0
11
0
21
-5
31
0
39
0
210
0
220
0
230
1
0
LINE
5
86
100
AcDbEntity
8
SK1
62
256
6
ByLayer
370
18
48
1
60
0
100
AcDbLine
10
-38.66
20
-5
30
0
11
-38.66
21
5
31
0
39
0
210
0
220
0
230
1
0
LINE
5
87
100
AcDbEntity
8
SK1
62
256
6
ByLayer
370
18
48
1
60
0
100
AcDbLine
10
-40
20
-3.66
30
0
11
-40
21
3.66
31
0
39
0
210
0
220
0
230
1
0
LINE
5
88
100
AcDbEntity
8
1
62
256
6
ByLayer
370
18
48
1
60
0
100
AcDbLine
10
1.278678
20
4.362424
30
0
11
1.278678
21
0
31
0
39
0
210
0
220
0
230
1
0
LINE
5
89
100
AcDbEntity
8
1
62
256
6
ByLayer
370
18
48
1
60
0
100
AcDbLine
10
1.278678
20
0
30
0
11
1.278678
21
-4.362424
31
0
39
0
210
0
220
0
230
1
0
LINE
5
8A
100
AcDbEntity
8
1
62
256
6
ByLayer
370
18
48
1
60
0
100
AcDbLine
10
62.938642
20
0.052969
30
0
11
61.874758
21
1.227312
31
0
39
0
210
0
220
0
230
1
0
LINE
5
8B
100
AcDbEntity
8
1
62
256
6
ByLayer
370
18
48
1
60
0
100
AcDbLine
10
0
20
5
30
0
11
0
21
0
31
0
39
0
210
0
220
0
230
1
0
LINE
5
8C
100
AcDbEntity
8
1
62
256
6
ByLayer
370
18
48
1
60
0
100
AcDbLine
10
0
20
0
30
0
11
0
21
-5
31
0
39
0
210
0
220
0
230
1
0
LINE
5
8D
100
AcDbEntity
8
1
62
256
6
ByLayer
370
18
48
1
60
0
100
AcDbLine
10
0.639089
20
4.681212
30
0
11
0.639089
21
0
31
0
39
0
210
0
220
0
230
1
0
LINE
5
8E
100
AcDbEntity
8
1
62
256
6
ByLayer
370
18
48
1
60
0
100
AcDbLine
10
0.639089
20
0
30
0
11
0.639089
21
-4.681212
31
0
39
0
210
0
220
0
230
1
0
LINE
5
8F
100
AcDbEntity
8
1
62
256
6
ByLayer
370
18
48
1
60
0
100
AcDbLine
10
3.501722
20
-3.710873
30
0
11
3.501722
21
1.253674
31
0
39
0
210
0
220
0
230
1
0
LINE
5
90
100
AcDbEntity
8
1
62
256
6
ByLayer
370
18
48
1
60
0
100
AcDbLine
10
19.6
20
0.482588
30
0
11
19.6
21
0.420782
31
0
39
0
210
0
220
0
230
1
0
LINE
5
91
100
AcDbEntity
8
SK1
62
256
6
ByLayer
370
18
48
1
60
0
100
AcDbLine
10
-40
20
-3.66
30
0
11
-38.66
21
-5
31
0
39
0
210
0
220
0
230
1
0
LINE
5
92
100
AcDbEntity
8
SK1
62
256
6
ByLayer
370
18
48
1
60
0
100
AcDbLine
10
-38.66
20
5
30
0
11
-40
21
3.66
31
0
39
0
210
0
220
0
230
1
0
LINE
5
93
100
AcDbEntity
8
SK1
62
256
6
ByLayer
370
18
48
1
60
0
100
AcDbLine
10
-38.66
20
-5
30
0
11
0
21
-5
31
0
39
0
210
0
220
0
230
1
0
LINE
5
94
100
AcDbEntity
8
SK1
62
256
6
ByLayer
370
18
48
1
60
0
100
AcDbLine
10
0
20
5
30
0
11
-38.66
21
5
31
0
39
0
210
0
220
0
230
1
0
LINE
5
95
100
AcDbEntity
8
1
62
256
6
ByLayer
370
18
48
1
60
0
100
AcDbLine
10
1.278678
20
-4.362424
30
0
11
3.374737
21
-4.363734
31
0
39
0
210
0
220
0
230
1
0
LINE
5
96
100
AcDbEntity
8
1
62
256
6
ByLayer
370
18
48
1
60
0
100
AcDbLine
10
6.73413
20
-4.365834
30
0
11
8.176428
21
-4.366735
31
0
39
0
210
0
220
0
230
1
0
LINE
5
97
100
AcDbEntity
8
1
62
256
6
ByLayer
370
18
48
1
60
0
100
AcDbLine
10
19.944516
20
-4.37409
30
0
11
21.203833
21
-4.374877
31
0
39
0
210
0
220
0
230
1
0
LINE
5
98
100
AcDbEntity
8
1
62
256
6
ByLayer
370
18
48
1
60
0
100
AcDbLine
10
34.158223
20
-4.382974
30
0
11
35.376734
21
-4.383735
31
0
39
0
210
0
220
0
230
1
0
LINE
5
99
100
AcDbEntity
8
1
62
256
6
ByLayer
370
18
48
1
60
0
100
AcDbLine
10
47.148894
20
-4.391093
30
0
11
48.377556
21
-4.391861
31
0
39
0
210
0
220
0
230
1
0
LINE
5
9A
100
AcDbEntity
8
1
62
256
6
ByLayer
370
18
48
1
60
0
100
AcDbLine
10
48.377556
20
4.391861
30
0
11
47.148894
21
4.391093
31
0
39
0
210
0
220
0
230
1
0
LINE
5
9B
100
AcDbEntity
8
1
62
256
6
ByLayer
370
18
48
1
60
0
100
AcDbLine
10
35.376734
20
4.383735
30
0
11
34.158223
21
4.382974
31
0
39
0
210
0
220
0
230
1
0
LINE
5
9C
100
AcDbEntity
8
1
62
256
6
ByLayer
370
18
48
1
60
0
100
AcDbLine
10
21.203833
20
4.374877
30
0
11
19.944516
21
4.37409
31
0
39
0
210
0
220
0
230
1
0
LINE
5
9D
100
AcDbEntity
8
1
62
256
6
ByLayer
370
18
48
1
60
0
100
AcDbLine
10
8.176428
20
4.366735
30
0
11
6.73413
21
4.365834
31
0
39
0
210
0
220
0
230
1
0
LINE
5
9E
100
AcDbEntity
8
1
62
256
6
ByLayer
370
18
48
1
60
0
100
AcDbLine
10
3.374737
20
4.363734
30
0
11
1.278678
21
4.362424
31
0
39
0
210
0
220
0
230
1
0
LINE
5
9F
100
AcDbEntity
8
SK4
62
256
6
ByLayer
370
18
48
0.05
60
0
100
AcDbLine
10
68
20
0
30
0
11
-45
21
0
31
0
39
0
210
0
220
0
230
1
0
LINE
5
A1
100
AcDbEntity
8
4
62
256
6
ByLayer
370
18
48
0.05
60
0
100
AcDbLine
10
-40
20
0
30
0
11
68
21
0
31
0
39
0
210
0
220
0
230
1
0
LINE
5
A3
100
AcDbEntity
8
80
62
256
6
ByLayer
370
18
48
1
60
0
100
AcDbLine
10
0
20
0
30
0
11
-6
21
0
31
0
39
0
210
0
220
0
230
1
0
LINE
5
A4
100
AcDbEntity
8
81
62
256
6
ByLayer
370
18
48
1
60
0
100
AcDbLine
10
63
20
0
30
0
11
69
21
0
31
0
39
0
210
0
220
0
230
1
0
LINE
5
A5
100
AcDbEntity
8
SK2
62
256
6
ByLayer
370
13
48
1
60
0
100
AcDbLine
10
63.542966
20
1.491759
30
0
11
70.926452
21
21.777327
31
0
39
0
210
0
220
0
230
1
0
LINE
5
A7
100
AcDbEntity
8
SK2
62
256
6
ByLayer
370
13
48
1
60
0
100
AcDbLine
10
63.542966
20
-1.491759
30
0
11
70.926452
21
-21.777327
31
0
39
0
210
0
220
0
230
1
0
LINE
5
A8
100
AcDbEntity
8
1
62
256
6
ByLayer
370
13
48
1
60
0
100
AcDbLine
10
69.84052
20
18.79381
30
0
11
72.937105
21
17.977419
31
0
39
0
210
0
220
0
230
1
0
LINE
5
A9
100
AcDbEntity
8
1
62
256
6
ByLayer
370
13
48
1
60
0
100
AcDbLine
10
69.84052
20
18.79381
30
0
11
72.620297
21
17.20378
31
0
39
0
210
0
220
0
230
1
0
LINE
5
AA
100
AcDbEntity
8
1
62
256
6
ByLayer
370
13
48
1
60
0
100
AcDbLine
10
72.937105
20
17.977419
30
0
11
72.620297
21
17.20378
31
0
39
0
210
0
220
0
230
1
0
LINE
5
AB
100
AcDbEntity
8
1
62
256
6
ByLayer
370
13
48
1
60
0
100
AcDbLine
10
69.84052
20
-18.79381
30
0
11
72.620294
21
-17.203781
31
0
39
0
210
0
220
0
230
1
0
LINE
5
AC
100
AcDbEntity
8
1
62
256
6
ByLayer
370
13
48
1
60
0
100
AcDbLine
10
69.84052
20
-18.79381
30
0
11
72.937108
21
-17.977418
31
0
39
0
210
0
220
0
230
1
0
LINE
5
AD
100
AcDbEntity
8
1
62
256
6
ByLayer
370
13
48
1
60
0
100
AcDbLine
10
72.620294
20
-17.203781
30
0
11
72.937108
21
-17.977418
31
0
39
0
210
0
220
0
230
1
0
MTEXT
5
105
100
AcDbEntity
8
SK2
62
256
6
ByLayer
370
18
48
1
60
0
100
AcDbMText
10
76.717388
20
-2.467451
30
0
210
0
220
0
230
1
1
\W0.7237;140.00
40
3.50012
41
0
44
1.084337
50
0
71
7
72
5
7
iso_b_vert
0
MTEXT
5
108
100
AcDbEntity
8
SK6
62
256
6
ByLayer
370
18
48
1
60
0
100
AcDbMText
10
-27.483936
20
-104.528616
30
0
210
0
220
0
230
1
1
\W0.7647;860.1-0880-044A0-GM X1BM
40
3.175
41
0
44
1.084337
50
0
71
7
72
5
7
iso_b_vert
0
DIMENSION
5
10B
100
AcDbEntity
8
SK2
62
256
6
ByLayer
370
18
48
1
60
0
100
AcDbDimension
2
_U0
10
63
20
-28.50012
30
0
11
31.5
21
-28.50012
31
0
70
32
71
2
72
1
41
1
210
0
220
0
230
1
3
Standard
100
AcDbAlignedDimension
13
0
23
-5
33
0
14
63
24
0
34
0
50
0
100
AcDbRotatedDimension
1001
ACAD
1000
DSTYLE
1002
{
1070
   371
1070
    13
1070
   372
1070
    13
1070
     3
1000

1070
   170
1070
     0
1070
   144
1040
1.0
1070
   277
1070
     2
1070
   284
1070
     8
1070
   278
1070
    46
1070
   146
1040
0.999966
1070
   345
1005
16
1070
   347
1005
16
1070
   346
1005
16
1070
   344
1005
10C
1070
   343
1005
10C
1070
   172
1070
     1
1070
    76
1070
     0
1070
    75
1070
     0
1070
   282
1070
     0
1070
   281
1070
     0
1070
    71
1070
     0
1070
    74
1070
     0
1070
   279
1070
     0
1070
   173
1070
     1
1070
   340
1005
106
1070
   271
1070
     1
1070
   272
1070
     2
1070
    77
1070
     1
1070
    73
1070
     1
1070
   171
1070
     3
1070
   274
1070
     4
1070
   177
1070
   150
1070
   176
1070
     9
1070
   178
1070
    43
1070
    78
1070
     8
1070
    48
1040
-0.1
1070
    41
1040
3.175
1070
   147
1040
1.75006
1070
    42
1040
1.5875
1070
    44
1040
3.175
1070
   140
1040
3.50012
1002
}
1001
ACAD_DSTYLE_DIM_LINETYPE
1070
   380
1005
16
1001
ACAD_DSTYLE_DIM_EXT1_LINETYPE
1070
   381
1005
16
1001
ACAD_DSTYLE_DIM_EXT2_LINETYPE
1070
   382
1005
16
0
DIMENSION
5
131
100
AcDbEntity
8
2
62
256
6
ByLayer
370
18
48
1
60
0
100
AcDbDimension
2
_U1
10
69.75006
20
4.4
30
0
11
69.75006
21
19.973233
31
0
70
32
71
1
72
1
41
1
210
0
220
0
230
1
3
Standard
100
AcDbAlignedDimension
13
61.3985
23
-4.4
33
0
14
61.3985
24
4.4
34
0
50
90
100
AcDbRotatedDimension
1001
ACAD
1000
DSTYLE
1002
{
1070
   371
1070
    13
1070
   372
1070
    13
1070
     3
1000

1070
   170
1070
     0
1070
   144
1040
1.0
1070
   277
1070
     2
1070
   284
1070
     8
1070
   278
1070
    46
1070
   146
1040
0.999966
1070
   345
1005
16
1070
   347
1005
16
1070
   346
1005
16
1070
   344
1005
10C
1070
   343
1005
10C
1070
   172
1070
     1
1070
    76
1070
     0
1070
    75
1070
     0
1070
   282
1070
     0
1070
   281
1070
     0
1070
    71
1070
     0
1070
    74
1070
     0
1070
   279
1070
     0
1070
   173
1070
     1
1070
   340
1005
106
1070
   271
1070
     1
1070
   272
1070
     2
1070
    77
1070
     1
1070
    73
1070
     0
1070
   171
1070
     3
1070
   274
1070
     4
1070
   177
1070
   150
1070
   176
1070
     9
1070
   178
1070
    43
1070
    78
1070
     8
1070
    48
1040
-0.1
1070
    41
1040
3.175
1070
   147
1040
1.75006
1070
    42
1040
1.5875
1070
    44
1040
3.175
1070
   140
1040
3.50012
1002
}
1001
ACAD_DSTYLE_DIM_LINETYPE
1070
   380
1005
16
1001
ACAD_DSTYLE_DIM_EXT1_LINETYPE
1070
   381
1005
16
1001
ACAD_DSTYLE_DIM_EXT2_LINETYPE
1070
   382
1005
16
0
DIMENSION
5
150
100
AcDbEntity
8
SK2
62
256
6
ByLayer
370
18
48
1
60
0
100
AcDbDimension
2
_U2
10
-43.24994
20
-5
30
0
11
-43.24994
21
19.97767
31
0
70
32
71
1
72
1
41
1
210
0
220
0
230
1
3
Standard
100
AcDbAlignedDimension
13
-40
23
5
33
0
14
-40
24
-5
34
0
50
90
100
AcDbRotatedDimension
1001
ACAD
1000
DSTYLE
1002
{
1070
   371
1070
    13
1070
   372
1070
    13
1070
     3
1000

1070
   170
1070
     0
1070
   144
1040
1.0
1070
   277
1070
     2
1070
   284
1070
     8
1070
   278
1070
    46
1070
   146
1040
0.999966
1070
   345
1005
16
1070
   347
1005
16
1070
   346
1005
16
1070
   344
1005
10C
1070
   343
1005
10C
1070
   172
1070
     1
1070
    76
1070
     0
1070
    75
1070
     0
1070
   282
1070
     0
1070
   281
1070
     0
1070
    71
1070
     0
1070
    74
1070
     0
1070
   279
1070
     0
1070
   173
1070
     1
1070
   340
1005
106
1070
   271
1070
     1
1070
   272
1070
     2
1070
    77
1070
     1
1070
    73
1070
     0
1070
   171
1070
     3
1070
   274
1070
     4
1070
   177
1070
   150
1070
   176
1070
     9
1070
   178
1070
    43
1070
    78
1070
     8
1070
    48
1040
-0.1
1070
    41
1040
3.175
1070
   147
1040
1.75006
1070
    42
1040
1.5875
1070
    44
1040
3.175
1070
   140
1040
3.50012
1002
}
1001
ACAD_DSTYLE_DIM_LINETYPE
1070
   380
1005
16
1001
ACAD_DSTYLE_DIM_EXT1_LINETYPE
1070
   381
1005
16
1001
ACAD_DSTYLE_DIM_EXT2_LINETYPE
1070
   382
1005
16
0
DIMENSION
5
16E
100
AcDbEntity
8
SK2
62
256
6
ByLayer
370
18
48
1
60
0
100
AcDbDimension
2
_U3
10
0
20
-28.50012
30
0
11
-20
21
-28.50012
31
0
70
32
71
1
72
1
41
1
210
0
220
0
230
1
3
Standard
100
AcDbAlignedDimension
13
-40
23
-5
33
0
14
0
24
-5
34
0
50
0
100
AcDbRotatedDimension
1001
ACAD
1000
DSTYLE
1002
{
1070
   371
1070
    13
1070
   372
1070
    13
1070
     3
1000

1070
   170
1070
     0
1070
   144
1040
1.0
1070
   277
1070
     2
1070
   284
1070
     8
1070
   278
1070
    46
1070
   146
1040
0.999966
1070
   345
1005
16
1070
   347
1005
16
1070
   346
1005
16
1070
   344
1005
10C
1070
   343
1005
10C
1070
   172
1070
     1
1070
    76
1070
     0
1070
    75
1070
     0
1070
   282
1070
     0
1070
   281
1070
     0
1070
    71
1070
     0
1070
    74
1070
     0
1070
   279
1070
     0
1070
   173
1070
     1
1070
   340
1005
106
1070
   271
1070
     1
1070
   272
1070
     2
1070
    77
1070
     1
1070
    73
1070
     1
1070
   171
1070
     3
1070
   274
1070
     4
1070
   177
1070
   150
1070
   176
1070
     9
1070
   178
1070
    43
1070
    78
1070
     8
1070
    48
1040
-0.1
1070
    41
1040
3.175
1070
   147
1040
1.75006
1070
    42
1040
1.5875
1070
    44
1040
3.175
1070
   140
1040
3.50012
1002
}
1001
ACAD_DSTYLE_DIM_LINETYPE
1070
   380
1005
16
1001
ACAD_DSTYLE_DIM_EXT1_LINETYPE
1070
   381
1005
16
1001
ACAD_DSTYLE_DIM_EXT2_LINETYPE
1070
   382
1005
16
0
DIMENSION
5
18A
100
AcDbEntity
8
SK2
62
256
6
ByLayer
370
18
48
1
60
0
100
AcDbDimension
2
_U4
10
63
20
-19.74982
30
0
11
32.5
21
-19.74982
31
0
70
32
71
1
72
1
41
1
210
0
220
0
230
1
3
Standard
100
AcDbAlignedDimension
13
2
23
4.9
33
0
14
63
24
0
34
0
50
0
100
AcDbRotatedDimension
1001
ACAD
1000
DSTYLE
1002
{
1070
   371
1070
    13
1070
   372
1070
    13
1070
     3
1000

1070
   170
1070
     0
1070
   144
1040
1.0
1070
   277
1070
     2
1070
   284
1070
     8
1070
   278
1070
    46
1070
   146
1040
0.999966
1070
   345
1005
16
1070
   347
1005
16
1070
   346
1005
16
1070
   344
1005
10C
1070
   343
1005
10C
1070
   172
1070
     1
1070
    76
1070
     0
1070
    75
1070
     0
1070
   282
1070
     0
1070
   281
1070
     0
1070
    71
1070
     0
1070
    74
1070
     0
1070
   279
1070
     0
1070
   173
1070
     1
1070
   340
1005
106
1070
   271
1070
     1
1070
   272
1070
     2
1070
    77
1070
     1
1070
    73
1070
     1
1070
   171
1070
     3
1070
   274
1070
     4
1070
   177
1070
   150
1070
   176
1070
     9
1070
   178
1070
    43
1070
    78
1070
     8
1070
    48
1040
-0.1
1070
    41
1040
3.175
1070
   147
1040
1.75006
1070
    42
1040
1.5875
1070
    44
1040
3.175
1070
   140
1040
3.50012
1002
}
1001
ACAD_DSTYLE_DIM_LINETYPE
1070
   380
1005
16
1001
ACAD_DSTYLE_DIM_EXT1_LINETYPE
1070
   381
1005
16
1001
ACAD_DSTYLE_DIM_EXT2_LINETYPE
1070
   382
1005
16
0
DIMENSION
5
1A6
100
AcDbEntity
8
SK2
62
256
6
ByLayer
370
18
48
1
60
0
100
AcDbDimension
2
_U5
10
63
20
-11.82
30
0
11
40.2
21
-11.82
31
0
70
32
71
1
72
1
41
1
210
0
220
0
230
1
3
Standard
100
AcDbAlignedDimension
13
17.4
23
-4.4
33
0
14
63
24
0
34
0
50
0
100
AcDbRotatedDimension
1001
ACAD
1000
DSTYLE
1002
{
1070
   371
1070
    13
1070
   372
1070
    13
1070
     3
1000

1070
   170
1070
     0
1070
   144
1040
1.0
1070
   277
1070
     2
1070
   284
1070
     8
1070
   278
1070
    46
1070
   146
1040
1.25
1070
   345
1005
16
1070
   347
1005
16
1070
   346
1005
16
1070
   344
1005
10C
1070
   343
1005
10C
1070
   172
1070
     1
1070
    76
1070
     0
1070
    75
1070
     0
1070
   282
1070
     0
1070
   281
1070
     0
1070
    71
1070
     0
1070
    74
1070
     0
1070
   279
1070
     0
1070
   173
1070
     1
1070
   340
1005
106
1070
   271
1070
     1
1070
   272
1070
     2
1070
    77
1070
     1
1070
    73
1070
     1
1070
   171
1070
     3
1070
   274
1070
     4
1070
   177
1070
   150
1070
   176
1070
     9
1070
   178
1070
    43
1070
    78
1070
     8
1070
    48
1040
-0.1
1070
    41
1040
3.175
1070
   147
1040
0.42
1070
    42
1040
1.5875
1070
    44
1040
0.5
1070
   140
1040
2.8
1002
}
1001
ACAD_DSTYLE_DIM_LINETYPE
1070
   380
1005
16
1001
ACAD_DSTYLE_DIM_EXT1_LINETYPE
1070
   381
1005
16
1001
ACAD_DSTYLE_DIM_EXT2_LINETYPE
1070
   382
1005
16
0
DIMENSION
5
1C2
100
AcDbEntity
8
SK2
62
256
6
ByLayer
370
18
48
1
60
0
100
AcDbDimension
2
_U6
10
63
20
-38.50012
30
0
11
11.5
21
-38.50012
31
0
70
32
71
1
72
1
41
1
210
0
220
0
230
1
3
Standard
100
AcDbAlignedDimension
13
-40
23
0
33
0
14
63
24
0
34
0
50
0
100
AcDbRotatedDimension
1001
ACAD
1000
DSTYLE
1002
{
1070
   371
1070
    13
1070
   372
1070
    13
1070
     3
1000

1070
   170
1070
     0
1070
   144
1040
1.0
1070
   277
1070
     2
1070
   284
1070
     8
1070
   278
1070
    46
1070
   146
1040
0.999966
1070
   345
1005
16
1070
   347
1005
16
1070
   346
1005
16
1070
   344
1005
10C
1070
   343
1005
10C
1070
   172
1070
     1
1070
    76
1070
     0
1070
    75
1070
     0
1070
   282
1070
     0
1070
   281
1070
     0
1070
    71
1070
     0
1070
    74
1070
     0
1070
   279
1070
     0
1070
   173
1070
     1
1070
   340
1005
106
1070
   271
1070
     1
1070
   272
1070
     2
1070
    77
1070
     1
1070
    73
1070
     1
1070
   171
1070
     3
1070
   274
1070
     4
1070
   177
1070
   150
1070
   176
1070
     9
1070
   178
1070
    43
1070
    78
1070
     8
1070
    48
1040
-0.1
1070
    41
1040
3.175
1070
   147
1040
1.75006
1070
    42
1040
1.5875
1070
    44
1040
3.175
1070
   140
1040
3.50012
1002
}
1001
ACAD_DSTYLE_DIM_LINETYPE
1070
   380
1005
16
1001
ACAD_DSTYLE_DIM_EXT1_LINETYPE
1070
   381
1005
16
1001
ACAD_DSTYLE_DIM_EXT2_LINETYPE
1070
   382
1005
16
0
ENDSEC
0
SECTION
2
OBJECTS
0
DICTIONARY
5
24e
330
0
100
AcDbDictionary
280
0
281
1
3
ACAD_GROUP
350
24f
3
ACAD_MLINESTYLE
350
250
0
DICTIONARY
5
24f
330
0
100
AcDbDictionary
280
0
281
1
0
DICTIONARY
5
250
330
0
100
AcDbDictionary
280
0
281
1
3
Standard
350
18
0
MLINESTYLE
5
18
330
250
100
AcDbMlineStyle
2
Standard
70
0
3

62
256
51
90
52
90
71
2
49
-0.5
62
256
6
ByLayer
49
0.5
62
256
6
ByLayer
0
RASTERVARIABLES
5
23c
330

100
AcDbRasterVariables
90
0
70
1
71
1
72
1
0
ENDSEC
0
EOF
