0
SECTION
2
HEADER
9
$ACADVER
1
AC1015
9
$DWGCODEPAGE
3
ANSI_1252
9
$HANDSEED
5
25a
9
$ANGBASE
50
0
9
$ANGDIR
70
0
9
$ATTMODE
70
1
9
$AUNITS
70
0
9
$AUPREC
70
0
9
$CECOLOR
62
256
9
$CELTSCALE
40
1
9
$CELTYPE
6
ByLayer
9
$CELWEIGHT
370
18
9
$CLAYER
8
0
9
$CMLJUST
70
0
9
$CMLSCALE
40
1
9
$CMLSTYLE
2
Standard
9
$DIMSTYLE
2
Standard
9
$TEXTSIZE
40
0.2
9
$TEXTSTYLE
7
Standard
9
$LUNITS
70
2
9
$LUPREC
70
4
9
$EXTNAMES
290
1
9
$INSUNITS
70
4
9
$LTSCALE
40
1
9
$LWDISPLAY
290
1
9
$PDMODE
70
0
9
$PDSIZE
40
0
9
$PLINEGEN
70
0
0
ENDSEC
0
SECTION
2
CLASSES
0
CLASS
1
RASTERVARIABLES
2
AcDbRasterVariables
3
ISM
90
0
280
0
281
0
0
ENDSEC
0
SECTION
2
TABLES
0
TABLE
2
VPORT
5
250
100
AcDbSymbolTable
0
VPORT
5
1
100
AcDbSymbolTableRecord
100
AcDbViewportTableRecord
2
*Active
70
0
10
0
20
0
11
1
21
1
12
-1
22
1
13
0
23
0
14
0.5
24
0.5
15
10
25
10
16
0
26
0
36
1
17
0
27
0
37
0
0
ENDTAB
0
TABLE
2
LTYPE
5
251
100
AcDbSymbolTable
0
LTYPE
5
14
100
AcDbSymbolTableRecord
100
AcDbLinetypeTableRecord
70
0
2
ByBlock
3

72
65
73
0
40
0
0
LTYPE
5
15
100
AcDbSymbolTableRecord
100
AcDbLinetypeTableRecord
70
0
2
ByLayer
3

72
65
73
0
40
0
0
LTYPE
5
16
100
AcDbSymbolTableRecord
100
AcDbLinetypeTableRecord
70
0
2
Continuous
3
Solid line
72
65
73
0
40
0
0
LTYPE
5
6E
100
AcDbSymbolTableRecord
100
AcDbLinetypeTableRecord
70
0
2
CENTER
3
____ _ ____ _ ____ _ ____
72
65
73
4
40
47.5
49
22
74
0
49
-8.5
74
0
49
8.5
74
0
49
-8.5
74
0
0
LTYPE
5
6F
100
AcDbSymbolTableRecord
100
AcDbLinetypeTableRecord
70
0
2
DASHED
3
__ __ __ __ __ __ __ __ __
72
65
73
2
40
25.72
49
12.86
74
0
49
-12.86
74
0
0
ENDTAB
0
TABLE
2
LAYER
5
252
100
AcDbSymbolTable
0
LAYER
5
10
100
AcDbSymbolTableRecord
100
AcDbLayerTableRecord
2
0
70
0
62
7
6
Continuous
290
1
370
-3
390
0
0
LAYER
5
71
100
AcDbSymbolTableRecord
100
AcDbLayerTableRecord
2
80
70
0
62
-6
6
Continuous
290
1
370
-3
390
0
0
LAYER
5
73
100
AcDbSymbolTableRecord
100
AcDbLayerTableRecord
2
81
70
0
62
-3
6
Continuous
290
1
370
-3
390
0
0
LAYER
5
75
100
AcDbSymbolTableRecord
100
AcDbLayerTableRecord
2
1
70
0
62
4
6
Continuous
290
1
370
-3
390
0
0
LAYER
5
A2
100
AcDbSymbolTableRecord
100
AcDbLayerTableRecord
2
4
70
0
62
-2
6
CENTER
290
1
370
-3
390
0
0
LAYER
5
114
100
AcDbSymbolTableRecord
100
AcDbLayerTableRecord
2
Defpoints
70
0
62
7
6
Continuous
290
0
370
-3
390
0
0
LAYER
5
141
100
AcDbSymbolTableRecord
100
AcDbLayerTableRecord
2
2
70
0
62
7
6
Continuous
290
1
370
-3
390
0
0
LAYER
5
23c
100
AcDbSymbolTableRecord
100
AcDbLayerTableRecord
2
SK1
70
0
62
4
6
Continuous
290
1
370
-3
390
0
0
LAYER
5
23d
100
AcDbSymbolTableRecord
100
AcDbLayerTableRecord
2
SK4
70
0
62
2
6
CENTER
290
1
370
-3
390
0
0
LAYER
5
23e
100
AcDbSymbolTableRecord
100
AcDbLayerTableRecord
2
SK2
70
0
62
7
6
Continuous
290
1
370
-3
390
0
0
LAYER
5
23f
100
AcDbSymbolTableRecord
100
AcDbLayerTableRecord
2
SK6
70
0
62
5
6
Continuous
290
1
370
-3
390
0
0
ENDTAB
0
TABLE
2
STYLE
5
253
100
AcDbSymbolTable
0
STYLE
5
11
100
AcDbSymbolTableRecord
100
AcDbTextStyleTableRecord
2
Standard
3
txt
70
0
71
0
40
0
41
1
42
0
50
0
0
STYLE
5
105
100
AcDbSymbolTableRecord
100
AcDbTextStyleTableRecord
2
iso_b_vert
3
simplex.shx
70
0
71
0
40
0
41
1
42
0
50
0
0
STYLE
5
106
100
AcDbSymbolTableRecord
100
AcDbTextStyleTableRecord
2
DWGDirectTextStyle
3
simplex
70
0
71
0
40
0
41
1
42
0
50
0
0
ENDTAB
0
TABLE
2
DIMSTYLE
5
254
100
AcDbSymbolTable
100
AcDbDimStyleTable
0
DIMSTYLE
105
27
100
AcDbSymbolTableRecord
100
AcDbDimStyleTableRecord
2
Standard
70
0
3
<>
41
0.18
42
0.0625
44
0.18
140
0.18
147
0.09
73
0
74
0
77
1
271
2
275
0
278
52
280
0
340
11
0
ENDTAB
0
TABLE
2
VIEW
5
255
100
AcDbSymbolTable
0
ENDTAB
0
TABLE
2
UCS
5
256
100
AcDbSymbolTable
0
ENDTAB
0
TABLE
2
APPID
5
257
100
AcDbSymbolTable
0
APPID
5
12
100
AcDbSymbolTableRecord
100
AcDbRegAppTableRecord
2
ACAD
70
0
0
APPID
5
109
100
AcDbSymbolTableRecord
100
AcDbRegAppTableRecord
2
ACAD_DSTYLE_DIMBREAK
70
0
0
APPID
5
1FB
100
AcDbSymbolTableRecord
100
AcDbRegAppTableRecord
2
ACAD_DSTYLE_DIM_LINETYPE
70
0
0
APPID
5
1FC
100
AcDbSymbolTableRecord
100
AcDbRegAppTableRecord
2
ACAD_DSTYLE_DIM_EXT1_LINETYPE
70
0
0
APPID
5
1FD
100
AcDbSymbolTableRecord
100
AcDbRegAppTableRecord
2
ACAD_DSTYLE_DIM_EXT2_LINETYPE
70
0
0
APPID
5
238
100
AcDbSymbolTableRecord
100
AcDbRegAppTableRecord
2
ACAD_MLEADERVER
70
0
0
ENDTAB
0
TABLE
2
BLOCK_RECORD
5
258
100
AcDbSymbolTable
0
BLOCK_RECORD
5
1F
100
AcDbSymbolTableRecord
100
AcDbBlockTableRecord
2
*Model_Space
340
0
70
0
0
BLOCK_RECORD
5
1B
100
AcDbSymbolTableRecord
100
AcDbBlockTableRecord
2
*Paper_Space
340
0
70
0
0
BLOCK_RECORD
5
23
100
AcDbSymbolTableRecord
100
AcDbBlockTableRecord
2
*Paper_Space0
340
0
70
0
0
BLOCK_RECORD
5
10B
100
AcDbSymbolTableRecord
100
AcDbBlockTableRecord
2
_Closed
340
0
70
0
0
BLOCK_RECORD
5
115
100
AcDbSymbolTableRecord
100
AcDbBlockTableRecord
2
*D2
340
0
70
0
0
BLOCK_RECORD
5
121
100
AcDbSymbolTableRecord
100
AcDbBlockTableRecord
2
_U0
340
0
70
0
0
BLOCK_RECORD
5
133
100
AcDbSymbolTableRecord
100
AcDbBlockTableRecord
2
*D4
340
0
70
0
0
BLOCK_RECORD
5
142
100
AcDbSymbolTableRecord
100
AcDbBlockTableRecord
2
_U1
340
0
70
0
0
BLOCK_RECORD
5
152
100
AcDbSymbolTableRecord
100
AcDbBlockTableRecord
2
*D6
340
0
70
0
0
BLOCK_RECORD
5
160
100
AcDbSymbolTableRecord
100
AcDbBlockTableRecord
2
_U2
340
0
70
0
0
BLOCK_RECORD
5
170
100
AcDbSymbolTableRecord
100
AcDbBlockTableRecord
2
*D8
340
0
70
0
0
BLOCK_RECORD
5
17C
100
AcDbSymbolTableRecord
100
AcDbBlockTableRecord
2
_U3
340
0
70
0
0
BLOCK_RECORD
5
18C
100
AcDbSymbolTableRecord
100
AcDbBlockTableRecord
2
*D10
340
0
70
0
0
BLOCK_RECORD
5
198
100
AcDbSymbolTableRecord
100
AcDbBlockTableRecord
2
_U4
340
0
70
0
0
BLOCK_RECORD
5
1A8
100
AcDbSymbolTableRecord
100
AcDbBlockTableRecord
2
*D12
340
0
70
0
0
BLOCK_RECORD
5
1B4
100
AcDbSymbolTableRecord
100
AcDbBlockTableRecord
2
_U5
340
0
70
0
0
BLOCK_RECORD
5
1C4
100
AcDbSymbolTableRecord
100
AcDbBlockTableRecord
2
*D14
340
0
70
0
0
BLOCK_RECORD
5
1D0
100
AcDbSymbolTableRecord
100
AcDbBlockTableRecord
2
_U6
340
0
70
0
0
ENDTAB
0
ENDSEC
0
SECTION
2
BLOCKS
0
BLOCK
5
20
100
AcDbEntity
8
0
100
AcDbBlockBegin
2
*Model_Space
70
0
10
0
20
0
30
0
3
*Model_Space
0
ENDBLK
5
21
100
AcDbEntity
8
0
100
AcDbBlockEnd
0
BLOCK
5
1C
100
AcDbEntity
8
0
100
AcDbBlockBegin
2
*Paper_Space
70
0
10
0
20
0
30
0
3
*Paper_Space
0
ENDBLK
5
1D
100
AcDbEntity
8
0
100
AcDbBlockEnd
0
BLOCK
5
24
100
AcDbEntity
8
0
100
AcDbBlockBegin
2
*Paper_Space0
70
0
10
0
20
0
30
0
3
*Paper_Space0
0
ENDBLK
5
25
100
AcDbEntity
8
0
100
AcDbBlockEnd
0
BLOCK
5
10C
100
AcDbEntity
8
0
100
AcDbBlockBegin
2
_Closed
70
0
10
0
20
0
30
0
3
_Closed
0
LINE
5
10E
100
AcDbEntity
8
0
62
256
6
ByLayer
370
-2
48
1
60
0
100
AcDbLine
10
-1
20
0.166667
30
0
11
0
21
0
31
0
39
0
210
0
220
0
230
1
0
LINE
5
10F
100
AcDbEntity
8
0
62
256
6
ByLayer
370
-2
48
1
60
0
100
AcDbLine
10
0
20
0
30
0
11
-1
21
-0.166667
31
0
39
0
210
0
220
0
230
1
0
LINE
5
110
100
AcDbEntity
8
0
62
256
6
ByLayer
370
-2
48
1
60
0
100
AcDbLine
10
-1
20
0.166667
30
0
11
-1
21
-0.166667
31
0
39
0
210
0
220
0
230
1
0
LINE
5
111
100
AcDbEntity
8
0
62
256
6
ByLayer
370
-2
48
1
60
0
100
AcDbLine
10
0
20
0
30
0
11
-1
21
0
31
0
39
0
210
0
220
0
230
1
0
ENDBLK
5
10D
100
AcDbEntity
8
0
100
AcDbBlockEnd
0
BLOCK
5
116
100
AcDbEntity
8
0
100
AcDbBlockBegin
2
*D2
70
1
10
0
20
0
30
0
3
*D2
0
LINE
5
118
100
AcDbEntity
8
0
62
256
6
ByLayer
370
-2
48
1
60
0
100
AcDbLine
10
0
20
-6.5875
30
0
11
0
21
-31.67512
31
0
39
0
210
0
220
0
230
1
0
LINE
5
119
100
AcDbEntity
8
0
62
256
6
ByLayer
370
-2
48
1
60
0
100
AcDbLine
10
63
20
-1.5875
30
0
11
63
21
-31.67512
31
0
39
0
210
0
220
0
230
1
0
LINE
5
11A
100
AcDbEntity
8
0
62
256
6
ByLayer
370
-2
48
1
60
0
100
AcDbLine
10
3.175
20
-28.50012
30
0
11
59.825
21
-28.50012
31
0
39
0
210
0
220
0
230
1
0
SOLID
5
11B
100
AcDbEntity
8
0
62
256
6
ByLayer
370
-1
48
1
60
0
100
AcDbTrace
10
3.175
20
-27.970953
30
0
11
3.175
21
-29.029287
31
0
12
0
22
-28.50012
32
0
13
0
23
-28.50012
33
0
39
0
210
0
220
0
230
1
0
SOLID
5
11C
100
AcDbEntity
8
0
62
256
6
ByLayer
370
-1
48
1
60
0
100
AcDbTrace
10
59.825
20
-29.029287
30
0
11
59.825
21
-27.970953
31
0
12
63
22
-28.50012
32
0
13
63
23
-28.50012
33
0
39
0
210
0
220
0
230
1
0
MTEXT
5
11D
100
AcDbEntity
8
0
62
256
6
ByLayer
370
18
48
1
60
0
100
AcDbMText
10
31.5
20
-21.193619
30
0
210
0
220
0
230
1
1
\A1;63
40
3.50012
41
0
44
1
50
0
71
5
72
5
7
iso_b_vert
0
POINT
5
11E
100
AcDbEntity
8
Defpoints
62
0
6
ByLayer
370
-1
48
1
60
0
100
AcDbPoint
10
0
20
-5
30
0
39
0
210
0
220
0
230
1
50
360
0
POINT
5
11F
100
AcDbEntity
8
Defpoints
62
0
6
ByLayer
370
-1
48
1
60
0
100
AcDbPoint
10
63
20
0
30
0
39
0
210
0
220
0
230
1
50
360
0
POINT
5
120
100
AcDbEntity
8
Defpoints
62
0
6
ByLayer
370
-1
48
1
60
0
100
AcDbPoint
10
63
20
-28.50012
30
0
39
0
210
0
220
0
230
1
50
360
0
ENDBLK
5
117
100
AcDbEntity
8
0
100
AcDbBlockEnd
0
BLOCK
5
12E
100
AcDbEntity
8
0
100
AcDbBlockBegin
2
_U0
70
0
10
0
20
0
30
0
3
_U0
0
MTEXT
5
122
100
AcDbEntity
8
SK2
62
256
6
ByLayer
370
18
48
1
60
0
100
AcDbMText
10
26.270389
20
-27.467451
30
0
210
0
220
0
230
1
1
\W0.7468;63.00
40
3.50012
41
0
44
1.084337
50
0
71
7
72
5
7
iso_b_vert
0
MTEXT
5
123
100
AcDbEntity
8
SK2
62
256
6
ByLayer
370
18
48
1
60
0
100
AcDbMText
10
22.744329
20
-27.400814
30
0
210
0
220
0
230
1
1
\W0.1790;(
40
3.175
41
0
44
1.084337
50
0
71
7
72
5
7
iso_b_vert
0
MTEXT
5
124
100
AcDbEntity
8
SK2
62
256
6
ByLayer
370
18
48
1
60
0
100
AcDbMText
10
40.258393
20
-27.400814
30
0
210
0
220
0
230
1
1
\W0.1969;)
40
3.175
41
0
44
1.084337
50
0
71
7
72
5
7
iso_b_vert
0
LINE
5
125
100
AcDbEntity
8
SK2
62
256
6
ByLayer
370
13
48
1
60
0
100
AcDbLine
10
0
20
-6.5875
30
0
11
0
21
-31.67512
31
0
39
0
210
0
220
0
230
1
0
LINE
5
126
100
AcDbEntity
8
SK2
62
256
6
ByLayer
370
13
48
1
60
0
100
AcDbLine
10
63
20
-1.5875
30
0
11
63
21
-31.67512
31
0
39
0
210
0
220
0
230
1
0
LINE
5
127
100
AcDbEntity
8
SK2
62
256
6
ByLayer
370
13
48
1
60
0
100
AcDbLine
10
0
20
-28.50012
30
0
11
63
21
-28.50012
31
0
39
0
210
0
220
0
230
1
0
LINE
5
128
100
AcDbEntity
8
SK2
62
256
6
ByLayer
370
13
48
1
60
0
100
AcDbLine
10
0
20
-28.50012
30
0
11
3.174998
21
-28.082123
31
0
39
0
210
0
220
0
230
1
0
LINE
5
129
100
AcDbEntity
8
SK2
62
256
6
ByLayer
370
13
48
1
60
0
100
AcDbLine
10
0
20
-28.50012
30
0
11
3.175002
21
-28.918117
31
0
39
0
210
0
220
0
230
1
0
LINE
5
12A
100
AcDbEntity
8
SK2
62
256
6
ByLayer
370
13
48
1
60
0
100
AcDbLine
10
3.174998
20
-28.082123
30
0
11
3.175002
21
-28.918117
31
0
39
0
210
0
220
0
230
1
0
LINE
5
12B
100
AcDbEntity
8
SK2
62
256
6
ByLayer
370
13
48
1
60
0
100
AcDbLine
10
63
20
-28.50012
30
0
11
59.825002
21
-28.918117
31
0
39
0
210
0
220
0
230
1
0
LINE
5
12C
100
AcDbEntity
8
SK2
62
256
6
ByLayer
370
13
48
1
60
0
100
AcDbLine
10
63
20
-28.50012
30
0
11
59.824998
21
-28.082123
31
0
39
0
210
0
220
0
230
1
0
LINE
5
12D
100
AcDbEntity
8
SK2
62
256
6
ByLayer
370
13
48
1
60
0
100
AcDbLine
10
59.825002
20
-28.918117
30
0
11
59.824998
21
-28.082123
31
0
39
0
210
0
220
0
230
1
0
ENDBLK
5
12F
100
AcDbEntity
8
0
100
AcDbBlockEnd
0
BLOCK
5
134
100
AcDbEntity
8
0
100
AcDbBlockBegin
2
*D4
70
1
10
0
20
0
30
0
3
*D4
0
LINE
5
136
100
AcDbEntity
8
0
62
256
6
ByLayer
370
-2
48
1
60
0
100
AcDbLine
10
63.0224
20
-4.3
30
0
11
72.92506
21
-4.3
31
0
39
0
210
0
220
0
230
1
0
LINE
5
137
100
AcDbEntity
8
0
62
256
6
ByLayer
370
-2
48
1
60
0
100
AcDbLine
10
63.0224
20
4.3
30
0
11
72.92506
21
4.3
31
0
39
0
210
0
220
0
230
1
0
LINE
5
138
100
AcDbEntity
8
0
62
256
6
ByLayer
370
-2
48
1
60
0
100
AcDbLine
10
69.75006
20
4.3
30
0
11
69.75006
21
29.096466
31
0
39
0
210
0
220
0
230
1
0
LINE
5
139
100
AcDbEntity
8
0
62
256
6
ByLayer
370
-2
48
1
60
0
100
AcDbLine
10
69.75006
20
-7.475
30
0
11
69.75006
21
-10.65
31
0
39
0
210
0
220
0
230
1
0
LINE
5
13A
100
AcDbEntity
8
0
62
256
6
ByLayer
370
-2
48
1
60
0
100
AcDbLine
10
69.75006
20
7.475
30
0
11
69.75006
21
10.65
31
0
39
0
210
0
220
0
230
1
0
SOLID
5
13B
100
AcDbEntity
8
0
62
256
6
ByLayer
370
-1
48
1
60
0
100
AcDbTrace
10
70.279227
20
-7.475
30
0
11
69.220893
21
-7.475
31
0
12
69.75006
22
-4.3
32
0
13
69.75006
23
-4.3
33
0
39
0
210
0
220
0
230
1
0
SOLID
5
13C
100
AcDbEntity
8
0
62
256
6
ByLayer
370
-1
48
1
60
0
100
AcDbTrace
10
69.220893
20
7.475
30
0
11
70.279227
21
7.475
31
0
12
69.75006
22
4.3
32
0
13
69.75006
23
4.3
33
0
39
0
210
0
220
0
230
1
0
MTEXT
5
13D
100
AcDbEntity
8
0
62
256
6
ByLayer
370
18
48
1
60
0
100
AcDbMText
10
62.44356
20
19.873233
30
0
210
0
220
0
230
1
1
\A1;8.6
40
3.50012
41
0
44
1
50
90
71
5
72
5
7
iso_b_vert
0
POINT
5
13E
100
AcDbEntity
8
Defpoints
62
0
6
ByLayer
370
-1
48
1
60
0
100
AcDbPoint
10
61.4349
20
-4.3
30
0
39
0
210
0
220
0
230
1
50
360
0
POINT
5
13F
100
AcDbEntity
8
Defpoints
62
0
6
ByLayer
370
-1
48
1
60
0
100
AcDbPoint
10
61.4349
20
4.3
30
0
39
0
210
0
220
0
230
1
50
360
0
POINT
5
140
100
AcDbEntity
8
Defpoints
62
0
6
ByLayer
370
-1
48
1
60
0
100
AcDbPoint
10
69.75006
20
4.3
30
0
39
0
210
0
220
0
230
1
50
360
0
ENDBLK
5
135
100
AcDbEntity
8
0
100
AcDbBlockEnd
0
BLOCK
5
14D
100
AcDbEntity
8
0
100
AcDbBlockBegin
2
_U1
70
0
10
0
20
0
30
0
3
_U1
0
MTEXT
5
143
100
AcDbEntity
8
2
62
256
6
ByLayer
370
18
48
1
60
0
100
AcDbMText
10
69.060403
20
8.457505
30
0
210
0
220
0
230
1
1
\W0.7346;8.60
40
3.50012
41
0
44
1.084337
50
90
71
7
72
5
7
iso_b_vert
0
LINE
5
144
100
AcDbEntity
8
2
62
256
6
ByLayer
370
13
48
1
60
0
100
AcDbLine
10
63.0224
20
-4.3
30
0
11
72.92506
21
-4.3
31
0
39
0
210
0
220
0
230
1
0
LINE
5
145
100
AcDbEntity
8
2
62
256
6
ByLayer
370
13
48
1
60
0
100
AcDbLine
10
63.0224
20
4.3
30
0
11
72.92506
21
4.3
31
0
39
0
210
0
220
0
230
1
0
LINE
5
146
100
AcDbEntity
8
2
62
256
6
ByLayer
370
13
48
1
60
0
100
AcDbLine
10
69.75006
20
-4.3
30
0
11
69.75006
21
16.51468
31
0
39
0
210
0
220
0
230
1
0
LINE
5
147
100
AcDbEntity
8
2
62
256
6
ByLayer
370
13
48
1
60
0
100
AcDbLine
10
69.75006
20
-4.3
30
0
11
69.332063
21
-1.125002
31
0
39
0
210
0
220
0
230
1
0
LINE
5
148
100
AcDbEntity
8
2
62
256
6
ByLayer
370
13
48
1
60
0
100
AcDbLine
10
69.75006
20
-4.3
30
0
11
70.168057
21
-1.124998
31
0
39
0
210
0
220
0
230
1
0
LINE
5
149
100
AcDbEntity
8
2
62
256
6
ByLayer
370
13
48
1
60
0
100
AcDbLine
10
69.332063
20
-1.125002
30
0
11
70.168057
21
-1.124998
31
0
39
0
210
0
220
0
230
1
0
LINE
5
14A
100
AcDbEntity
8
2
62
256
6
ByLayer
370
13
48
1
60
0
100
AcDbLine
10
69.75006
20
4.3
30
0
11
70.168057
21
1.125002
31
0
39
0
210
0
220
0
230
1
0
LINE
5
14B
100
AcDbEntity
8
2
62
256
6
ByLayer
370
13
48
1
60
0
100
AcDbLine
10
69.75006
20
4.3
30
0
11
69.332063
21
1.124998
31
0
39
0
210
0
220
0
230
1
0
LINE
5
14C
100
AcDbEntity
8
2
62
256
6
ByLayer
370
13
48
1
60
0
100
AcDbLine
10
70.168057
20
1.125002
30
0
11
69.332063
21
1.124998
31
0
39
0
210
0
220
0
230
1
0
ENDBLK
5
14E
100
AcDbEntity
8
0
100
AcDbBlockEnd
0
BLOCK
5
153
100
AcDbEntity
8
0
100
AcDbBlockBegin
2
*D6
70
1
10
0
20
0
30
0
3
*D6
0
LINE
5
155
100
AcDbEntity
8
0
62
256
6
ByLayer
370
-2
48
1
60
0
100
AcDbLine
10
-41.5875
20
5
30
0
11
-46.42494
21
5
31
0
39
0
210
0
220
0
230
1
0
LINE
5
156
100
AcDbEntity
8
0
62
256
6
ByLayer
370
-2
48
1
60
0
100
AcDbLine
10
-41.5875
20
-5
30
0
11
-46.42494
21
-5
31
0
39
0
210
0
220
0
230
1
0
LINE
5
157
100
AcDbEntity
8
0
62
256
6
ByLayer
370
-2
48
1
60
0
100
AcDbLine
10
-43.24994
20
5
30
0
11
-43.24994
21
28.117532
31
0
39
0
210
0
220
0
230
1
0
LINE
5
158
100
AcDbEntity
8
0
62
256
6
ByLayer
370
-2
48
1
60
0
100
AcDbLine
10
-43.24994
20
8.175
30
0
11
-43.24994
21
11.35
31
0
39
0
210
0
220
0
230
1
0
LINE
5
159
100
AcDbEntity
8
0
62
256
6
ByLayer
370
-2
48
1
60
0
100
AcDbLine
10
-43.24994
20
-8.175
30
0
11
-43.24994
21
-11.35
31
0
39
0
210
0
220
0
230
1
0
SOLID
5
15A
100
AcDbEntity
8
0
62
256
6
ByLayer
370
-1
48
1
60
0
100
AcDbTrace
10
-43.779107
20
8.175
30
0
11
-42.720773
21
8.175
31
0
12
-43.24994
22
5
32
0
13
-43.24994
23
5
33
0
39
0
210
0
220
0
230
1
0
SOLID
5
15B
100
AcDbEntity
8
0
62
256
6
ByLayer
370
-1
48
1
60
0
100
AcDbTrace
10
-42.720773
20
-8.175
30
0
11
-43.779107
21
-8.175
31
0
12
-43.24994
22
-5
32
0
13
-43.24994
23
-5
33
0
39
0
210
0
220
0
230
1
0
MTEXT
5
15C
100
AcDbEntity
8
0
62
256
6
ByLayer
370
18
48
1
60
0
100
AcDbMText
10
-50.556441
20
19.97767
30
0
210
0
220
0
230
1
1
\A1;10
40
3.50012
41
0
44
1
50
90
71
5
72
5
7
iso_b_vert
0
POINT
5
15D
100
AcDbEntity
8
Defpoints
62
0
6
ByLayer
370
-1
48
1
60
0
100
AcDbPoint
10
-40
20
5
30
0
39
0
210
0
220
0
230
1
50
360
0
POINT
5
15E
100
AcDbEntity
8
Defpoints
62
0
6
ByLayer
370
-1
48
1
60
0
100
AcDbPoint
10
-40
20
-5
30
0
39
0
210
0
220
0
230
1
50
360
0
POINT
5
15F
100
AcDbEntity
8
Defpoints
62
0
6
ByLayer
370
-1
48
1
60
0
100
AcDbPoint
10
-43.24994
20
-5
30
0
39
0
210
0
220
0
230
1
50
360
0
ENDBLK
5
154
100
AcDbEntity
8
0
100
AcDbBlockEnd
0
BLOCK
5
16B
100
AcDbEntity
8
0
100
AcDbBlockBegin
2
_U2
70
0
10
0
20
0
30
0
3
_U2
0
MTEXT
5
161
100
AcDbEntity
8
SK2
62
256
6
ByLayer
370
18
48
1
60
0
100
AcDbMText
10
-43.939597
20
15.157505
30
0
210
0
220
0
230
1
1
\W0.6864;10.00
40
3.50012
41
0
44
1.084337
50
90
71
7
72
5
7
iso_b_vert
0
LINE
5
162
100
AcDbEntity
8
SK2
62
256
6
ByLayer
370
13
48
1
60
0
100
AcDbLine
10
-41.5875
20
5
30
0
11
-46.42494
21
5
31
0
39
0
210
0
220
0
230
1
0
LINE
5
163
100
AcDbEntity
8
SK2
62
256
6
ByLayer
370
13
48
1
60
0
100
AcDbLine
10
-41.5875
20
-5
30
0
11
-46.42494
21
-5
31
0
39
0
210
0
220
0
230
1
0
LINE
5
164
100
AcDbEntity
8
SK2
62
256
6
ByLayer
370
13
48
1
60
0
100
AcDbLine
10
-43.24994
20
-5
30
0
11
-43.24994
21
24.955339
31
0
39
0
210
0
220
0
230
1
0
LINE
5
165
100
AcDbEntity
8
SK2
62
256
6
ByLayer
370
13
48
1
60
0
100
AcDbLine
10
-43.24994
20
5
30
0
11
-42.831943
21
1.825002
31
0
39
0
210
0
220
0
230
1
0
LINE
5
166
100
AcDbEntity
8
SK2
62
256
6
ByLayer
370
13
48
1
60
0
100
AcDbLine
10
-43.24994
20
5
30
0
11
-43.667937
21
1.824998
31
0
39
0
210
0
220
0
230
1
0
LINE
5
167
100
AcDbEntity
8
SK2
62
256
6
ByLayer
370
13
48
1
60
0
100
AcDbLine
10
-42.831943
20
1.825002
30
0
11
-43.667937
21
1.824998
31
0
39
0
210
0
220
0
230
1
0
LINE
5
168
100
AcDbEntity
8
SK2
62
256
6
ByLayer
370
13
48
1
60
0
100
AcDbLine
10
-43.24994
20
-5
30
0
11
-43.667937
21
-1.825002
31
0
39
0
210
0
220
0
230
1
0
LINE
5
169
100
AcDbEntity
8
SK2
62
256
6
ByLayer
370
13
48
1
60
0
100
AcDbLine
10
-43.24994
20
-5
30
0
11
-42.831943
21
-1.824998
31
0
39
0
210
0
220
0
230
1
0
LINE
5
16A
100
AcDbEntity
8
SK2
62
256
6
ByLayer
370
13
48
1
60
0
100
AcDbLine
10
-43.667937
20
-1.825002
30
0
11
-42.831943
21
-1.824998
31
0
39
0
210
0
220
0
230
1
0
ENDBLK
5
16C
100
AcDbEntity
8
0
100
AcDbBlockEnd
0
BLOCK
5
171
100
AcDbEntity
8
0
100
AcDbBlockBegin
2
*D8
70
1
10
0
20
0
30
0
3
*D8
0
LINE
5
173
100
AcDbEntity
8
0
62
256
6
ByLayer
370
-2
48
1
60
0
100
AcDbLine
10
-40
20
-6.5875
30
0
11
-40
21
-31.67512
31
0
39
0
210
0
220
0
230
1
0
LINE
5
174
100
AcDbEntity
8
0
62
256
6
ByLayer
370
-2
48
1
60
0
100
AcDbLine
10
0
20
-6.5875
30
0
11
0
21
-31.67512
31
0
39
0
210
0
220
0
230
1
0
LINE
5
175
100
AcDbEntity
8
0
62
256
6
ByLayer
370
-2
48
1
60
0
100
AcDbLine
10
-36.825
20
-28.50012
30
0
11
-3.175
21
-28.50012
31
0
39
0
210
0
220
0
230
1
0
SOLID
5
176
100
AcDbEntity
8
0
62
256
6
ByLayer
370
-1
48
1
60
0
100
AcDbTrace
10
-36.825
20
-27.970953
30
0
11
-36.825
21
-29.029287
31
0
12
-40
22
-28.50012
32
0
13
-40
23
-28.50012
33
0
39
0
210
0
220
0
230
1
0
SOLID
5
177
100
AcDbEntity
8
0
62
256
6
ByLayer
370
-1
48
1
60
0
100
AcDbTrace
10
-3.175
20
-29.029287
30
0
11
-3.175
21
-27.970953
31
0
12
0
22
-28.50012
32
0
13
0
23
-28.50012
33
0
39
0
210
0
220
0
230
1
0
MTEXT
5
178
100
AcDbEntity
8
0
62
256
6
ByLayer
370
18
48
1
60
0
100
AcDbMText
10
-20
20
-21.193619
30
0
210
0
220
0
230
1
1
\A1;40
40
3.50012
41
0
44
1
50
0
71
5
72
5
7
iso_b_vert
0
POINT
5
179
100
AcDbEntity
8
Defpoints
62
0
6
ByLayer
370
-1
48
1
60
0
100
AcDbPoint
10
-40
20
-5
30
0
39
0
210
0
220
0
230
1
50
360
0
POINT
5
17A
100
AcDbEntity
8
Defpoints
62
0
6
ByLayer
370
-1
48
1
60
0
100
AcDbPoint
10
0
20
-5
30
0
39
0
210
0
220
0
230
1
50
360
0
POINT
5
17B
100
AcDbEntity
8
Defpoints
62
0
6
ByLayer
370
-1
48
1
60
0
100
AcDbPoint
10
0
20
-28.50012
30
0
39
0
210
0
220
0
230
1
50
360
0
ENDBLK
5
172
100
AcDbEntity
8
0
100
AcDbBlockEnd
0
BLOCK
5
187
100
AcDbEntity
8
0
100
AcDbBlockBegin
2
_U3
70
0
10
0
20
0
30
0
3
_U3
0
MTEXT
5
17D
100
AcDbEntity
8
SK2
62
256
6
ByLayer
370
18
48
1
60
0
100
AcDbMText
10
-25.413884
20
-27.467451
30
0
210
0
220
0
230
1
1
\W0.7694;40.00
40
3.50012
41
0
44
1.084337
50
0
71
7
72
5
7
iso_b_vert
0
LINE
5
17E
100
AcDbEntity
8
SK2
62
256
6
ByLayer
370
13
48
1
60
0
100
AcDbLine
10
-40
20
-6.5875
30
0
11
-40
21
-31.67512
31
0
39
0
210
0
220
0
230
1
0
LINE
5
17F
100
AcDbEntity
8
SK2
62
256
6
ByLayer
370
13
48
1
60
0
100
AcDbLine
10
0
20
-6.5875
30
0
11
0
21
-31.67512
31
0
39
0
210
0
220
0
230
1
0
LINE
5
180
100
AcDbEntity
8
SK2
62
256
6
ByLayer
370
13
48
1
60
0
100
AcDbLine
10
-40
20
-28.50012
30
0
11
0
21
-28.50012
31
0
39
0
210
0
220
0
230
1
0
LINE
5
181
100
AcDbEntity
8
SK2
62
256
6
ByLayer
370
13
48
1
60
0
100
AcDbLine
10
-40
20
-28.50012
30
0
11
-36.825002
21
-28.082123
31
0
39
0
210
0
220
0
230
1
0
LINE
5
182
100
AcDbEntity
8
SK2
62
256
6
ByLayer
370
13
48
1
60
0
100
AcDbLine
10
-40
20
-28.50012
30
0
11
-36.824998
21
-28.918117
31
0
39
0
210
0
220
0
230
1
0
LINE
5
183
100
AcDbEntity
8
SK2
62
256
6
ByLayer
370
13
48
1
60
0
100
AcDbLine
10
-36.825002
20
-28.082123
30
0
11
-36.824998
21
-28.918117
31
0
39
0
210
0
220
0
230
1
0
LINE
5
184
100
AcDbEntity
8
SK2
62
256
6
ByLayer
370
13
48
1
60
0
100
AcDbLine
10
0
20
-28.50012
30
0
11
-3.174998
21
-28.918117
31
0
39
0
210
0
220
0
230
1
0
LINE
5
185
100
AcDbEntity
8
SK2
62
256
6
ByLayer
370
13
48
1
60
0
100
AcDbLine
10
0
20
-28.50012
30
0
11
-3.175002
21
-28.082123
31
0
39
0
210
0
220
0
230
1
0
LINE
5
186
100
AcDbEntity
8
SK2
62
256
6
ByLayer
370
13
48
1
60
0
100
AcDbLine
10
-3.174998
20
-28.918117
30
0
11
-3.175002
21
-28.082123
31
0
39
0
210
0
220
0
230
1
0
ENDBLK
5
188
100
AcDbEntity
8
0
100
AcDbBlockEnd
0
BLOCK
5
18D
100
AcDbEntity
8
0
100
AcDbBlockBegin
2
*D10
70
1
10
0
20
0
30
0
3
*D10
0
LINE
5
18F
100
AcDbEntity
8
0
62
256
6
ByLayer
370
-2
48
1
60
0
100
AcDbLine
10
2
20
3.2125
30
0
11
2
21
-22.92482
31
0
39
0
210
0
220
0
230
1
0
LINE
5
190
100
AcDbEntity
8
0
62
256
6
ByLayer
370
-2
48
1
60
0
100
AcDbLine
10
63
20
-1.5875
30
0
11
63
21
-22.92482
31
0
39
0
210
0
220
0
230
1
0
LINE
5
191
100
AcDbEntity
8
0
62
256
6
ByLayer
370
-2
48
1
60
0
100
AcDbLine
10
5.175
20
-19.74982
30
0
11
59.825
21
-19.74982
31
0
39
0
210
0
220
0
230
1
0
SOLID
5
192
100
AcDbEntity
8
0
62
256
6
ByLayer
370
-1
48
1
60
0
100
AcDbTrace
10
5.175
20
-19.220653
30
0
11
5.175
21
-20.278987
31
0
12
2
22
-19.74982
32
0
13
2
23
-19.74982
33
0
39
0
210
0
220
0
230
1
0
SOLID
5
193
100
AcDbEntity
8
0
62
256
6
ByLayer
370
-1
48
1
60
0
100
AcDbTrace
10
59.825
20
-20.278987
30
0
11
59.825
21
-19.220653
31
0
12
63
22
-19.74982
32
0
13
63
23
-19.74982
33
0
39
0
210
0
220
0
230
1
0
MTEXT
5
194
100
AcDbEntity
8
0
62
256
6
ByLayer
370
18
48
1
60
0
100
AcDbMText
10
32.5
20
-12.443319
30
0
210
0
220
0
230
1
1
\A1;61
40
3.50012
41
0
44
1
50
0
71
5
72
5
7
iso_b_vert
0
POINT
5
195
100
AcDbEntity
8
Defpoints
62
0
6
ByLayer
370
-1
48
1
60
0
100
AcDbPoint
10
2
20
4.8
30
0
39
0
210
0
220
0
230
1
50
360
0
POINT
5
196
100
AcDbEntity
8
Defpoints
62
0
6
ByLayer
370
-1
48
1
60
0
100
AcDbPoint
10
63
20
0
30
0
39
0
210
0
220
0
230
1
50
360
0
POINT
5
197
100
AcDbEntity
8
Defpoints
62
0
6
ByLayer
370
-1
48
1
60
0
100
AcDbPoint
10
63
20
-19.74982
30
0
39
0
210
0
220
0
230
1
50
360
0
ENDBLK
5
18E
100
AcDbEntity
8
0
100
AcDbBlockEnd
0
BLOCK
5
1A3
100
AcDbEntity
8
0
100
AcDbBlockBegin
2
_U4
70
0
10
0
20
0
30
0
3
_U4
0
MTEXT
5
199
100
AcDbEntity
8
SK2
62
256
6
ByLayer
370
18
48
1
60
0
100
AcDbMText
10
27.707837
20
-18.717151
30
0
210
0
220
0
230
1
1
\W0.6864;61.00
40
3.50012
41
0
44
1.084337
50
0
71
7
72
5
7
iso_b_vert
0
LINE
5
19A
100
AcDbEntity
8
SK2
62
256
6
ByLayer
370
13
48
1
60
0
100
AcDbLine
10
2
20
3.2125
30
0
11
2
21
-22.92482
31
0
39
0
210
0
220
0
230
1
0
LINE
5
19B
100
AcDbEntity
8
SK2
62
256
6
ByLayer
370
13
48
1
60
0
100
AcDbLine
10
63
20
-1.5875
30
0
11
63
21
-22.92482
31
0
39
0
210
0
220
0
230
1
0
LINE
5
19C
100
AcDbEntity
8
SK2
62
256
6
ByLayer
370
13
48
1
60
0
100
AcDbLine
10
2
20
-19.74982
30
0
11
63
21
-19.74982
31
0
39
0
210
0
220
0
230
1
0
LINE
5
19D
100
AcDbEntity
8
SK2
62
256
6
ByLayer
370
13
48
1
60
0
100
AcDbLine
10
2
20
-19.74982
30
0
11
5.174998
21
-19.331823
31
0
39
0
210
0
220
0
230
1
0
LINE
5
19E
100
AcDbEntity
8
SK2
62
256
6
ByLayer
370
13
48
1
60
0
100
AcDbLine
10
2
20
-19.74982
30
0
11
5.175002
21
-20.167817
31
0
39
0
210
0
220
0
230
1
0
LINE
5
19F
100
AcDbEntity
8
SK2
62
256
6
ByLayer
370
13
48
1
60
0
100
AcDbLine
10
5.174998
20
-19.331823
30
0
11
5.175002
21
-20.167817
31
0
39
0
210
0
220
0
230
1
0
LINE
5
1A0
100
AcDbEntity
8
SK2
62
256
6
ByLayer
370
13
48
1
60
0
100
AcDbLine
10
63
20
-19.74982
30
0
11
59.825002
21
-20.167817
31
0
39
0
210
0
220
0
230
1
0
LINE
5
1A1
100
AcDbEntity
8
SK2
62
256
6
ByLayer
370
13
48
1
60
0
100
AcDbLine
10
63
20
-19.74982
30
0
11
59.824998
21
-19.331823
31
0
39
0
210
0
220
0
230
1
0
LINE
5
1A2
100
AcDbEntity
8
SK2
62
256
6
ByLayer
370
13
48
1
60
0
100
AcDbLine
10
59.825002
20
-20.167817
30
0
11
59.824998
21
-19.331823
31
0
39
0
210
0
220
0
230
1
0
ENDBLK
5
1A4
100
AcDbEntity
8
0
100
AcDbBlockEnd
0
BLOCK
5
1A9
100
AcDbEntity
8
0
100
AcDbBlockBegin
2
*D12
70
1
10
0
20
0
30
0
3
*D12
0
LINE
5
1AB
100
AcDbEntity
8
0
62
256
6
ByLayer
370
-2
48
1
60
0
100
AcDbLine
10
18.5
20
-5.8875
30
0
11
18.5
21
-12.32
31
0
39
0
210
0
220
0
230
1
0
LINE
5
1AC
100
AcDbEntity
8
0
62
256
6
ByLayer
370
-2
48
1
60
0
100
AcDbLine
10
63
20
-1.5875
30
0
11
63
21
-12.32
31
0
39
0
210
0
220
0
230
1
0
LINE
5
1AD
100
AcDbEntity
8
0
62
256
6
ByLayer
370
-2
48
1
60
0
100
AcDbLine
10
21.675
20
-11.82
30
0
11
59.825
21
-11.82
31
0
39
0
210
0
220
0
230
1
0
SOLID
5
1AE
100
AcDbEntity
8
0
62
256
6
ByLayer
370
-1
48
1
60
0
100
AcDbTrace
10
21.675
20
-11.290833
30
0
11
21.675
21
-12.349167
31
0
12
18.5
22
-11.82
32
0
13
18.5
23
-11.82
33
0
39
0
210
0
220
0
230
1
0
SOLID
5
1AF
100
AcDbEntity
8
0
62
256
6
ByLayer
370
-1
48
1
60
0
100
AcDbTrace
10
59.825
20
-12.349167
30
0
11
59.825
21
-11.290833
31
0
12
63
22
-11.82
32
0
13
63
23
-11.82
33
0
39
0
210
0
220
0
230
1
0
MTEXT
5
1B0
100
AcDbEntity
8
0
62
256
6
ByLayer
370
18
48
1
60
0
100
AcDbMText
10
40.75
20
-5.975
30
0
210
0
220
0
230
1
1
\A1;44.5
40
2.8
41
0
44
1
50
0
71
5
72
5
7
iso_b_vert
0
POINT
5
1B1
100
AcDbEntity
8
Defpoints
62
0
6
ByLayer
370
-1
48
1
60
0
100
AcDbPoint
10
18.5
20
-4.3
30
0
39
0
210
0
220
0
230
1
50
360
0
POINT
5
1B2
100
AcDbEntity
8
Defpoints
62
0
6
ByLayer
370
-1
48
1
60
0
100
AcDbPoint
10
63
20
0
30
0
39
0
210
0
220
0
230
1
50
360
0
POINT
5
1B3
100
AcDbEntity
8
Defpoints
62
0
6
ByLayer
370
-1
48
1
60
0
100
AcDbPoint
10
63
20
-11.82
30
0
39
0
210
0
220
0
230
1
50
360
0
ENDBLK
5
1AA
100
AcDbEntity
8
0
100
AcDbBlockEnd
0
BLOCK
5
1BF
100
AcDbEntity
8
0
100
AcDbBlockBegin
2
_U5
70
0
10
0
20
0
30
0
3
_U5
0
MTEXT
5
1B5
100
AcDbEntity
8
SK2
62
256
6
ByLayer
370
18
48
1
60
0
100
AcDbMText
10
36.271628
20
-11.973893
30
0
210
0
220
0
230
1
1
\W0.7958;44.50
40
2.8
41
0
44
1.084337
50
0
71
7
72
5
7
iso_b_vert
0
LINE
5
1B6
100
AcDbEntity
8
SK2
62
256
6
ByLayer
370
13
48
1
60
0
100
AcDbLine
10
18.5
20
-5.8875
30
0
11
18.5
21
-12.32
31
0
39
0
210
0
220
0
230
1
0
LINE
5
1B7
100
AcDbEntity
8
SK2
62
256
6
ByLayer
370
13
48
1
60
0
100
AcDbLine
10
63
20
-1.5875
30
0
11
63
21
-12.32
31
0
39
0
210
0
220
0
230
1
0
LINE
5
1B8
100
AcDbEntity
8
SK2
62
256
6
ByLayer
370
13
48
1
60
0
100
AcDbLine
10
18.5
20
-11.82
30
0
11
63
21
-11.82
31
0
39
0
210
0
220
0
230
1
0
LINE
5
1B9
100
AcDbEntity
8
SK2
62
256
6
ByLayer
370
13
48
1
60
0
100
AcDbLine
10
18.5
20
-11.82
30
0
11
21.674998
21
-11.402003
31
0
39
0
210
0
220
0
230
1
0
LINE
5
1BA
100
AcDbEntity
8
SK2
62
256
6
ByLayer
370
13
48
1
60
0
100
AcDbLine
10
18.5
20
-11.82
30
0
11
21.675002
21
-12.237997
31
0
39
0
210
0
220
0
230
1
0
LINE
5
1BB
100
AcDbEntity
8
SK2
62
256
6
ByLayer
370
13
48
1
60
0
100
AcDbLine
10
21.674998
20
-11.402003
30
0
11
21.675002
21
-12.237997
31
0
39
0
210
0
220
0
230
1
0
LINE
5
1BC
100
AcDbEntity
8
SK2
62
256
6
ByLayer
370
13
48
1
60
0
100
AcDbLine
10
63
20
-11.82
30
0
11
59.825002
21
-12.237997
31
0
39
0
210
0
220
0
230
1
0
LINE
5
1BD
100
AcDbEntity
8
SK2
62
256
6
ByLayer
370
13
48
1
60
0
100
AcDbLine
10
63
20
-11.82
30
0
11
59.824998
21
-11.402003
31
0
39
0
210
0
220
0
230
1
0
LINE
5
1BE
100
AcDbEntity
8
SK2
62
256
6
ByLayer
370
13
48
1
60
0
100
AcDbLine
10
59.825002
20
-12.237997
30
0
11
59.824998
21
-11.402003
31
0
39
0
210
0
220
0
230
1
0
ENDBLK
5
1C0
100
AcDbEntity
8
0
100
AcDbBlockEnd
0
BLOCK
5
1C5
100
AcDbEntity
8
0
100
AcDbBlockBegin
2
*D14
70
1
10
0
20
0
30
0
3
*D14
0
LINE
5
1C7
100
AcDbEntity
8
0
62
256
6
ByLayer
370
-2
48
1
60
0
100
AcDbLine
10
-40
20
-1.5875
30
0
11
-40
21
-41.67512
31
0
39
0
210
0
220
0
230
1
0
LINE
5
1C8
100
AcDbEntity
8
0
62
256
6
ByLayer
370
-2
48
1
60
0
100
AcDbLine
10
63
20
-1.5875
30
0
11
63
21
-41.67512
31
0
39
0
210
0
220
0
230
1
0
LINE
5
1C9
100
AcDbEntity
8
0
62
256
6
ByLayer
370
-2
48
1
60
0
100
AcDbLine
10
-36.825
20
-38.50012
30
0
11
59.825
21
-38.50012
31
0
39
0
210
0
220
0
230
1
0
SOLID
5
1CA
100
AcDbEntity
8
0
62
256
6
ByLayer
370
-1
48
1
60
0
100
AcDbTrace
10
-36.825
20
-37.970953
30
0
11
-36.825
21
-39.029287
31
0
12
-40
22
-38.50012
32
0
13
-40
23
-38.50012
33
0
39
0
210
0
220
0
230
1
0
SOLID
5
1CB
100
AcDbEntity
8
0
62
256
6
ByLayer
370
-1
48
1
60
0
100
AcDbTrace
10
59.825
20
-39.029287
30
0
11
59.825
21
-37.970953
31
0
12
63
22
-38.50012
32
0
13
63
23
-38.50012
33
0
39
0
210
0
220
0
230
1
0
MTEXT
5
1CC
100
AcDbEntity
8
0
62
256
6
ByLayer
370
18
48
1
60
0
100
AcDbMText
10
11.5
20
-31.193619
30
0
210
0
220
0
230
1
1
\A1;103
40
3.50012
41
0
44
1
50
0
71
5
72
5
7
iso_b_vert
0
POINT
5
1CD
100
AcDbEntity
8
Defpoints
62
0
6
ByLayer
370
-1
48
1
60
0
100
AcDbPoint
10
-40
20
0
30
0
39
0
210
0
220
0
230
1
50
360
0
POINT
5
1CE
100
AcDbEntity
8
Defpoints
62
0
6
ByLayer
370
-1
48
1
60
0
100
AcDbPoint
10
63
20
0
30
0
39
0
210
0
220
0
230
1
50
360
0
POINT
5
1CF
100
AcDbEntity
8
Defpoints
62
0
6
ByLayer
370
-1
48
1
60
0
100
AcDbPoint
10
63
20
-38.50012
30
0
39
0
210
0
220
0
230
1
50
360
0
ENDBLK
5
1C6
100
AcDbEntity
8
0
100
AcDbBlockEnd
0
BLOCK
5
1DB
100
AcDbEntity
8
0
100
AcDbBlockBegin
2
_U6
70
0
10
0
20
0
30
0
3
_U6
0
MTEXT
5
1D1
100
AcDbEntity
8
SK2
62
256
6
ByLayer
370
18
48
1
60
0
100
AcDbMText
10
5.400059
20
-37.467451
30
0
210
0
220
0
230
1
1
\W0.7022;103.00
40
3.50012
41
0
44
1.084337
50
0
71
7
72
5
7
iso_b_vert
0
LINE
5
1D2
100
AcDbEntity
8
SK2
62
256
6
ByLayer
370
13
48
1
60
0
100
AcDbLine
10
-40
20
-1.5875
30
0
11
-40
21
-41.67512
31
0
39
0
210
0
220
0
230
1
0
LINE
5
1D3
100
AcDbEntity
8
SK2
62
256
6
ByLayer
370
13
48
1
60
0
100
AcDbLine
10
63
20
-1.5875
30
0
11
63
21
-41.67512
31
0
39
0
210
0
220
0
230
1
0
LINE
5
1D4
100
AcDbEntity
8
SK2
62
256
6
ByLayer
370
13
48
1
60
0
100
AcDbLine
10
-40
20
-38.50012
30
0
11
63
21
-38.50012
31
0
39
0
210
0
220
0
230
1
0
LINE
5
1D5
100
AcDbEntity
8
SK2
62
256
6
ByLayer
370
13
48
1
60
0
100
AcDbLine
10
-40
20
-38.50012
30
0
11
-36.825002
21
-38.082123
31
0
39
0
210
0
220
0
230
1
0
LINE
5
1D6
100
AcDbEntity
8
SK2
62
256
6
ByLayer
370
13
48
1
60
0
100
AcDbLine
10
-40
20
-38.50012
30
0
11
-36.824998
21
-38.918117
31
0
39
0
210
0
220
0
230
1
0
LINE
5
1D7
100
AcDbEntity
8
SK2
62
256
6
ByLayer
370
13
48
1
60
0
100
AcDbLine
10
-36.825002
20
-38.082123
30
0
11
-36.824998
21
-38.918117
31
0
39
0
210
0
220
0
230
1
0
LINE
5
1D8
100
AcDbEntity
8
SK2
62
256
6
ByLayer
370
13
48
1
60
0
100
AcDbLine
10
63
20
-38.50012
30
0
11
59.825002
21
-38.918117
31
0
39
0
210
0
220
0
230
1
0
LINE
5
1D9
100
AcDbEntity
8
SK2
62
256
6
ByLayer
370
13
48
1
60
0
100
AcDbLine
10
63
20
-38.50012
30
0
11
59.824998
21
-38.082123
31
0
39
0
210
0
220
0
230
1
0
LINE
5
1DA
100
AcDbEntity
8
SK2
62
256
6
ByLayer
370
13
48
1
60
0
100
AcDbLine
10
59.825002
20
-38.918117
30
0
11
59.824998
21
-38.082123
31
0
39
0
210
0
220
0
230
1
0
ENDBLK
5
1DC
100
AcDbEntity
8
0
100
AcDbBlockEnd
0
ENDSEC
0
SECTION
2
ENTITIES
0
ARC
5
AE
100
AcDbEntity
8
1
62
256
6
ByLayer
370
18
48
1
60
0
100
AcDbCircle
39
0
10
1.347661
20
5.062445
30
0
40
0.799999999999996
210
0
220
0
230
1
100
AcDbArc
50
212.617485
51
270.03581
0
ARC
5
AF
100
AcDbEntity
8
1
62
256
6
ByLayer
370
18
48
1
60
0
100
AcDbCircle
39
0
10
1.347661
20
-5.062445
30
0
40
0.799999999999996
210
0
220
0
230
1
100
AcDbArc
50
89.96419
51
147.382515
0
ARC
5
B0
100
AcDbEntity
8
1
62
256
6
ByLayer
370
18
48
1
60
0
100
AcDbCircle
39
0
10
0
20
4.2
30
0
40
0.800000000000002
210
0
220
0
230
1
100
AcDbArc
50
32.617485
51
90
0
ARC
5
B1
100
AcDbEntity
8
1
62
256
6
ByLayer
370
18
48
1
60
0
100
AcDbCircle
39
0
10
0
20
-4.2
30
0
40
0.800000000000002
210
0
220
0
230
1
100
AcDbArc
50
270
51
327.382515
0
ARC
5
B2
100
AcDbEntity
8
SK2
62
256
6
ByLayer
370
13
48
1
60
0
100
AcDbCircle
39
0
10
63
20
0
30
0
40
20
210
0
220
0
230
1
100
AcDbArc
50
9.606349
51
69.999671
0
ARC
5
B3
100
AcDbEntity
8
SK2
62
256
6
ByLayer
370
13
48
1
60
0
100
AcDbCircle
39
0
10
63
20
0
30
0
40
20
210
0
220
0
230
1
100
AcDbArc
50
290.000329
51
350.393651
0
ELLIPSE
5
B4
100
AcDbEntity
8
1
62
256
6
ByLayer
370
18
48
1
60
0
100
AcDbEllipse
10
3.601859
20
-3.491269
30
0
11
-0.00233656734897795
21
-0.00972319150401195
31
0
210
0
220
0
230
1
40
0.36431
41
-2.56213728572518
42
-0.992776929836848
0
ELLIPSE
5
B5
100
AcDbEntity
8
1
62
256
6
ByLayer
370
18
48
1
60
0
100
AcDbEllipse
10
3.640385
20
1.25724
30
0
11
-0.00410521819914993
21
-0.00911850774728893
31
0
210
0
220
0
230
1
40
0.138978
41
1.28758380953786
42
2.85333011169687
0
ELLIPSE
5
B6
100
AcDbEntity
8
1
62
256
6
ByLayer
370
18
48
1
60
0
100
AcDbEllipse
10
3.602366
20
1.265451
30
0
11
4.58521575987075E-05
21
0.00999989487842965
31
0
210
0
220
0
230
1
40
0.009062
41
-1.88769161314483
42
-0.317055013724187
0
ELLIPSE
5
B7
100
AcDbEntity
8
1
62
256
6
ByLayer
370
18
48
1
60
0
100
AcDbEllipse
10
3.56346
20
-3.489392
30
0
11
-0.0016009947022076
21
0.00987100886249745
31
0
210
0
220
0
230
1
40
0.536074
41
0.583382384115967
42
1.97061242131568
0
POINT
5
70
100
AcDbEntity
8
80
62
256
6
ByLayer
370
18
48
1
60
0
100
AcDbPoint
10
0
20
0
30
0
39
0
210
0
220
0
230
1
50
360
0
POINT
5
72
100
AcDbEntity
8
81
62
256
6
ByLayer
370
18
48
1
60
0
100
AcDbPoint
10
63
20
0
30
0
39
0
210
0
220
0
230
1
50
360
0
POINT
5
74
100
AcDbEntity
8
1
62
256
6
ByLayer
370
18
48
1
60
0
100
AcDbPoint
10
-40
20
0
30
0
39
0
210
0
220
0
230
1
50
360
0
POINT
5
76
100
AcDbEntity
8
1
62
256
6
ByLayer
370
18
48
1
60
1
100
AcDbPoint
10
0
20
-5
30
0
39
0
210
0
220
0
230
1
50
360
0
POINT
5
77
100
AcDbEntity
8
1
62
256
6
ByLayer
370
18
48
1
60
1
100
AcDbPoint
10
63
20
0
30
0
39
0
210
0
220
0
230
1
50
360
0
POINT
5
78
100
AcDbEntity
8
1
62
256
6
ByLayer
370
18
48
1
60
1
100
AcDbPoint
10
61.4349
20
-4.3
30
0
39
0
210
0
220
0
230
1
50
360
0
POINT
5
79
100
AcDbEntity
8
1
62
256
6
ByLayer
370
18
48
1
60
1
100
AcDbPoint
10
61.4349
20
4.3
30
0
39
0
210
0
220
0
230
1
50
360
0
POINT
5
7A
100
AcDbEntity
8
1
62
256
6
ByLayer
370
18
48
1
60
1
100
AcDbPoint
10
-40
20
5
30
0
39
0
210
0
220
0
230
1
50
360
0
POINT
5
7B
100
AcDbEntity
8
1
62
256
6
ByLayer
370
18
48
1
60
1
100
AcDbPoint
10
-40
20
-5
30
0
39
0
210
0
220
0
230
1
50
360
0
POINT
5
7C
100
AcDbEntity
8
1
62
256
6
ByLayer
370
18
48
1
60
1
100
AcDbPoint
10
-40
20
-5
30
0
39
0
210
0
220
0
230
1
50
360
0
POINT
5
7D
100
AcDbEntity
8
1
62
256
6
ByLayer
370
18
48
1
60
1
100
AcDbPoint
10
0
20
-5
30
0
39
0
210
0
220
0
230
1
50
360
0
POINT
5
7E
100
AcDbEntity
8
1
62
256
6
ByLayer
370
18
48
1
60
1
100
AcDbPoint
10
2
20
4.8
30
0
39
0
210
0
220
0
230
1
50
360
0
POINT
5
7F
100
AcDbEntity
8
1
62
256
6
ByLayer
370
18
48
1
60
1
100
AcDbPoint
10
63
20
0
30
0
39
0
210
0
220
0
230
1
50
360
0
POINT
5
80
100
AcDbEntity
8
1
62
256
6
ByLayer
370
18
48
1
60
1
100
AcDbPoint
10
18.5
20
-4.3
30
0
39
0
210
0
220
0
230
1
50
360
0
POINT
5
81
100
AcDbEntity
8
1
62
256
6
ByLayer
370
18
48
1
60
1
100
AcDbPoint
10
63
20
0
30
0
39
0
210
0
220
0
230
1
50
360
0
POINT
5
82
100
AcDbEntity
8
1
62
256
6
ByLayer
370
18
48
1
60
1
100
AcDbPoint
10
-40
20
0
30
0
39
0
210
0
220
0
230
1
50
360
0
POINT
5
83
100
AcDbEntity
8
1
62
256
6
ByLayer
370
18
48
1
60
1
100
AcDbPoint
10
63
20
0
30
0
39
0
210
0
220
0
230
1
50
360
0
SPLINE
5
B8
100
AcDbEntity
8
1
62
256
6
ByLayer
370
18
48
1
60
0
100
AcDbSpline
70
4
71
3
72
8
73
4
40
0
40
0
40
0
40
0
40
1
40
1
40
1
40
1
41
1
10
35.6919264880673
20
-4.07694576243605
30
0
41
1
10
35.4288135451138
20
-4.08073722317693
30
0
41
1
10
35.165632401959
20
-4.07889574378743
30
0
41
1
10
34.9021812353118
20
-4.07141025917858
30
0
0
SPLINE
5
B9
100
AcDbEntity
8
1
62
256
6
ByLayer
370
18
48
1
60
0
100
AcDbSpline
70
4
71
3
72
22
73
18
40
0
40
0
40
0
40
0
40
0.172911677964347
40
0.172911677964347
40
0.312245964394201
40
0.312245964394201
40
0.381913107609128
40
0.381913107609128
40
0.451580250824055
40
0.451580250824055
40
0.73024882368376
40
0.73024882368376
40
0.869583110113614
40
0.869583110113614
40
0.939250253328541
40
0.939250253328541
40
1
40
1
40
1
40
1
41
1
10
34.8022477284749
20
-4.06830056028812
30
0
41
1
10
34.0573287287258
20
-4.04310624801673
30
0
41
1
10
33.3100481806346
20
-3.97280148338427
30
0
41
1
10
31.9481033470491
20
-3.76393197529066
30
0
41
1
10
31.3411970205996
20
-3.64255342507184
30
0
41
1
10
30.4299603025953
20
-3.42126265982083
30
2E-16
41
1
10
30.1256354962358
20
-3.34090577503713
30
2E-16
41
1
10
29.5196879337483
20
-3.16902291734141
30
2E-16
41
1
10
29.2176694591399
20
-3.0773557548053
30
2E-16
41
1
10
27.7108226423675
20
-2.59297878570382
30
2E-16
41
1
10
26.5161783377505
20
-2.12237188570686
30
1E-16
41
1
10
24.71201605718
20
-1.34192249762302
30
1E-16
41
1
10
24.1089017129088
20
-1.06922505728144
30
1E-16
41
1
10
23.1973816905611
20
-0.648829003794305
30
0
41
1
10
22.8936345846219
20
-0.507222115283327
30
0
41
1
10
22.3275436963158
20
-0.241972734380028
30
0
41
1
10
22.0644851686562
20
-0.118285997880207
30
0
41
1
10
21.8018620918467
20
0.0051159711848925
30
0
0
SPLINE
5
BA
100
AcDbEntity
8
1
62
256
6
ByLayer
370
18
48
1
60
0
100
AcDbSpline
70
4
71
3
72
12
73
8
40
0
40
0
40
0
40
0
40
0.500000000000003
40
0.500000000000003
40
0.750000000000002
40
0.750000000000002
40
1
40
1
40
1
40
1
41
1
10
3.50171977548737
20
1.20768584472532
30
-1E-16
41
1
10
3.50171977548735
20
1.22042593070438
30
-1E-16
41
1
10
3.5094508585251
20
1.23315865871214
30
-1E-16
41
1
10
3.5347981203231
20
1.24899847607966
30
-1E-16
41
1
10
3.54556293293518
20
1.25366020031996
30
-1E-16
41
1
10
3.57162278824103
20
1.26041607620257
30
-1E-16
41
1
10
3.58680360389269
20
1.26239534773313
30
-1E-16
41
1
10
3.60243796854397
20
1.26233456494796
30
-1E-16
0
SPLINE
5
BB
100
AcDbEntity
8
1
62
256
6
ByLayer
370
18
48
1
60
0
100
AcDbSpline
70
4
71
3
72
36
73
32
40
0
40
0
40
0
40
0
40
0.497598429576273
40
0.497598429576273
40
0.668556909019216
40
0.668556909019216
40
0.781481461214549
40
0.781481461214549
40
0.856129064869534
40
0.856129064869534
40
0.905425395786738
40
0.905425395786738
40
0.937983886862957
40
0.937983886862957
40
0.959566370811125
40
0.959566370811125
40
0.973905620773326
40
0.973905620773326
40
0.983429664871454
40
0.983429664871454
40
0.989645221065083
40
0.989645221065083
40
0.993664261320296
40
0.993664261320296
40
0.996331678492935
40
0.996331678492935
40
0.998649145884696
40
0.998649145884696
40
0.999794988167426
40
0.999794988167426
40
1
40
1
40
1
40
1
41
1
10
61.239867407437
20
-4.29917277341235
30
0
41
1
10
61.2827546724479
20
-4.27108862538043
30
0
41
1
10
61.3257102754984
20
-4.24275818505276
30
0
41
1
10
61.3835184957026
20
-4.20437385804948
30
0
41
1
10
61.39830857886
20
-4.19453080382863
30
0
41
1
10
61.4228652056366
20
-4.17815157810148
30
0
41
1
10
61.4326316550575
20
-4.17162783994948
30
0
41
1
10
61.4488523408709
20
-4.16077688566511
30
0
41
1
10
61.4553092663407
20
-4.15645319660396
30
0
41
1
10
61.4660487132126
20
-4.14925454366167
30
0
41
1
10
61.4703251615527
20
-4.14638612850541
30
0
41
1
10
61.4774375264847
20
-4.14161242956368
30
0
41
1
10
61.4802687261926
20
-4.13971138756335
30
0
41
1
10
61.4849653811696
20
-4.13655664642752
30
0
41
1
10
61.4868346885759
20
-4.13530073545397
30
0
41
1
10
61.4899356174916
20
-4.1332168699513
30
0
41
1
10
61.4911705382623
20
-4.13238686089028
30
0
41
1
10
61.4932196889689
20
-4.13100937379795
30
0
41
1
10
61.4940375102122
20
-4.13045954063415
30
0
41
1
10
61.4954043247707
20
-4.12954036760092
30
0
41
1
10
61.4959480165851
20
-4.12917467827143
30
0
41
1
10
61.4968506622294
20
-4.12856745279743
30
0
41
1
10
61.4972079179833
20
-4.12832708798186
30
0
41
1
10
61.4977981167264
20
-4.12793001556031
30
0
41
1
10
61.4980327002921
20
-4.12777219761409
30
0
41
1
10
61.4984613734772
20
-4.12748385850762
30
0
41
1
10
61.4986590627694
20
-4.12735090431912
30
0
41
1
10
61.4989285885549
20
-4.12716975498751
30
0
41
1
10
61.4990141259343
20
-4.12711228863324
30
0
41
1
10
61.4990981538001
20
-4.12705590158626
30
0
41
1
10
61.4991105228774
20
-4.12704760455716
30
0
41
1
10
61.499122363551
20
-4.12703966321411
30
0
0
SPLINE
5
BC
100
AcDbEntity
8
1
62
256
6
ByLayer
370
18
48
1
60
0
100
AcDbSpline
70
4
71
3
72
18
73
14
40
0
40
0
40
0
40
0
40
0.125
40
0.125
40
0.25
40
0.25
40
0.375
40
0.375
40
0.499999999999999
40
0.499999999999999
40
0.75
40
0.75
40
1
40
1
40
1
40
1
41
1
10
61.7752288513497
20
0.694574118831696
30
0
41
1
10
61.7380378490577
20
0.708765515523368
30
0
41
1
10
61.7001257593352
20
0.720276330931227
30
0
41
1
10
61.623846235907
20
0.737008298667178
30
0
41
1
10
61.5853586133609
20
0.741871563570612
30
0
41
1
10
61.5080662830025
20
0.74640622426449
30
0
41
1
10
61.4692727298123
20
0.746286094192754
30
0
41
1
10
61.3916476862502
20
0.743441110595938
30
0
41
1
10
61.3527854431285
20
0.739990324045294
30
0
41
1
10
61.2363209108671
20
0.723571445594303
30
0
41
1
10
61.1585721174803
20
0.703709295490484
30
0
41
1
10
61.0062256345476
20
0.647266741727577
30
0
41
1
10
60.9317206845855
20
0.611935730157569
30
0
41
1
10
60.8596137790974
20
0.56884907800216
30
0
0
SPLINE
5
BD
100
AcDbEntity
8
1
62
256
6
ByLayer
370
18
48
1
60
0
100
AcDbSpline
70
4
71
3
72
10
73
6
40
0
40
0
40
0
40
0
40
0.5
40
0.5
40
1
40
1
40
1
40
1
41
1
10
3.50171977548737
20
1.24329858220747
30
-1E-16
41
1
10
3.50171977548737
20
1.27604393791719
30
-1E-16
41
1
10
3.52005171615491
20
1.30733152861572
30
-1E-16
41
1
10
3.57824101314327
20
1.34152716742491
30
-1E-16
41
1
10
3.61579659758848
20
1.34315347022539
30
-1E-16
41
1
10
3.64641935052197
20
1.32861920878554
30
-1E-16
0
SPLINE
5
BE
100
AcDbEntity
8
1
62
256
6
ByLayer
370
18
48
1
60
0
100
AcDbSpline
70
4
71
3
72
30
73
26
40
0
40
0
40
0
40
0
40
0.0625000000000002
40
0.0625000000000002
40
0.125
40
0.125
40
0.25
40
0.25
40
0.3125
40
0.3125
40
0.375
40
0.375
40
0.4375
40
0.4375
40
0.5
40
0.5
40
0.625
40
0.625
40
0.6875
40
0.6875
40
0.75
40
0.75
40
0.875
40
0.875
40
1
40
1
40
1
40
1
41
1
10
3.60243796854394
20
1.26233456494796
30
-1E-16
41
1
10
3.60243105521218
20
1.15308376685783
30
-1E-16
41
1
10
3.602423424731
20
1.04258799255018
30
-1E-16
41
1
10
3.60240692199622
20
0.81911756564304
30
-1E-16
41
1
10
3.60239803050558
20
0.705945423206657
30
0
41
1
10
3.6023700929849
20
0.367054911379483
30
0
41
1
10
3.60234971478997
20
0.140623109146105
30
0
41
1
10
3.60231729277956
20
-0.199767861196136
30
0
41
1
10
3.60230617051118
20
-0.313356052339941
30
0
41
1
10
3.60228335932629
20
-0.540787239802199
30
0
41
1
10
3.60227164531346
20
-0.654852064692676
30
0
41
1
10
3.60224803755173
20
-0.879819587683585
30
1E-16
41
1
10
3.60223610433474
20
-0.991126623767912
30
1E-16
41
1
10
3.60221198765396
20
-1.21139406383824
30
1E-16
41
1
10
3.60219976882712
20
-1.32066264563522
30
1E-16
41
1
10
3.60216293395666
20
-1.64272945698153
30
1E-16
41
1
10
3.60213839649168
20
-1.84778459919949
30
1E-16
41
1
10
3.60210115272108
20
-2.14139164250315
30
1E-16
41
1
10
3.60208866143253
20
-2.23691854239124
30
1E-16
41
1
10
3.60206339832493
20
-2.42322127477951
30
1E-16
41
1
10
3.60205057964467
20
-2.51431470861434
30
2E-16
41
1
10
3.6020117828115
20
-2.77798558539269
30
2E-16
41
1
10
3.60198578415734
20
-2.93901018559586
30
2E-16
41
1
10
3.60193209602483
20
-3.23258006305528
30
2E-16
41
1
10
3.60190434839021
20
-3.36538752021446
30
2E-16
41
1
10
3.60187501311737
20
-3.4826670744481
30
2E-16
0
SPLINE
5
BF
100
AcDbEntity
8
1
62
256
6
ByLayer
370
18
48
1
60
0
100
AcDbSpline
70
4
71
3
72
48
73
44
40
0
40
0
40
0
40
0
40
0.0110530626888097
40
0.0110530626888097
40
0.0411699158210661
40
0.0411699158210661
40
0.0712867689533224
40
0.0712867689533224
40
0.131520475217834
40
0.131520475217834
40
0.16163732835009
40
0.16163732835009
40
0.191754181482345
40
0.191754181482345
40
0.251987887746856
40
0.251987887746856
40
0.282104740879111
40
0.282104740879111
40
0.312221594011365
40
0.312221594011365
40
0.372455300275875
40
0.372455300275875
40
0.402572153408131
40
0.402572153408131
40
0.432689006540386
40
0.432689006540386
40
0.492922712804897
40
0.492922712804897
40
0.553156419069408
40
0.553156419069408
40
0.673623831598433
40
0.673623831598433
40
0.703740684730689
40
0.703740684730689
40
0.733857537862945
40
0.733857537862945
40
0.794091244127457
40
0.794091244127457
40
0.854324950391969
40
0.854324950391969
40
0.914558656656482
40
0.914558656656482
40
1
40
1
40
1
40
1
41
1
10
38.1558677040731
20
-4.0721370815323
30
0
41
1
10
38.0454377768272
20
-4.08910245399451
30
0
41
1
10
37.9350123507196
20
-4.10507196033819
30
0
41
1
10
37.5236608910732
20
-4.16080568978717
30
0
41
1
10
37.2226816087656
20
-4.19412309053135
30
0
41
1
10
36.6199203041121
20
-4.24547106413632
30
0
41
1
10
36.3177588778959
20
-4.26350104001594
30
0
41
1
10
35.4131129932924
20
-4.29411518779091
30
0
41
1
10
34.8118069036767
20
-4.28332949357434
30
0
41
1
10
33.9085763845259
20
-4.2209108121171
30
0
41
1
10
33.6073127041614
20
-4.19239852653891
30
0
41
1
10
33.003779668831
20
-4.12008002223428
30
0
41
1
10
32.7018841386794
20
-4.07632167537491
30
0
41
1
10
31.7980017205229
20
-3.92346059520497
30
0
41
1
10
31.1967708813643
20
-3.79244736246923
30
-2E-16
41
1
10
30.2928341334332
20
-3.55593859781143
30
2E-16
41
1
10
29.9908872963025
20
-3.47029373418363
30
2E-16
41
1
10
29.3873270842263
20
-3.28676133183296
30
2E-16
41
1
10
29.0860250798646
20
-3.18904020251355
30
2E-16
41
1
10
28.1826703918627
20
-2.87933195497155
30
2E-16
41
1
10
27.5812577040231
20
-2.65064139969908
30
2E-16
41
1
10
26.6762912059192
20
-2.28049048261855
30
1E-16
41
1
10
26.3740855937303
20
-2.1524315824914
30
1E-16
41
1
10
25.7711770251099
20
-1.88962203068581
30
1E-16
41
1
10
25.4700878597985
20
-1.75474873102598
30
1E-16
41
1
10
24.566910564954
20
-1.34163457313753
30
1E-16
41
1
10
23.9651771571448
20
-1.05435627366433
30
1E-16
41
1
10
22.7567624466972
20
-0.467207896814216
30
0
41
1
10
22.1572799003627
20
-0.170055391720012
30
0
41
1
10
20.3644553309591
20
0.714378728277154
30
0
41
1
10
19.1776326750971
20
1.2964837241712
30
-1E-16
41
1
10
17.6796557677991
20
1.96411281067401
30
-1E-16
41
1
10
17.3793483184148
20
2.09466419203497
30
-1E-16
41
1
10
16.7766468047803
20
2.3484994960414
30
-1E-16
41
1
10
16.4741707358997
20
2.47179861344642
30
-2E-16
41
1
10
15.5695728222836
20
2.82631067699546
30
-2E-16
41
1
10
14.968051686836
20
3.04321672236909
30
-2E-16
41
1
10
13.7628141035991
20
3.43042572725011
30
-2E-16
41
1
10
13.1574092725746
20
3.60107270622157
30
-2E-16
41
1
10
11.9565925903456
20
3.88521012552545
30
0
41
1
10
11.3594974452887
20
3.99944692814071
30
0
41
1
10
9.91735972916564
20
4.20500254091752
30
0
41
1
10
9.07319701465269
20
4.26662921373401
30
0
41
1
10
8.223708992328
20
4.26669238409212
30
0
0
SPLINE
5
C0
100
AcDbEntity
8
1
62
256
6
ByLayer
370
18
48
1
60
0
100
AcDbSpline
70
4
71
3
72
46
73
42
40
0
40
0
40
0
40
0
40
0.0120669286528017
40
0.0120669286528017
40
0.059111360621716
40
0.059111360621716
40
0.106155792590631
40
0.106155792590631
40
0.153200224559545
40
0.153200224559545
40
0.247289088497374
40
0.247289088497374
40
0.294333520466288
40
0.294333520466288
40
0.341377952435201
40
0.341377952435201
40
0.435466816373029
40
0.435466816373029
40
0.482511248341943
40
0.482511248341943
40
0.529555680310857
40
0.529555680310857
40
0.576600112279771
40
0.576600112279771
40
0.623644544248686
40
0.623644544248686
40
0.6706889762176
40
0.6706889762176
40
0.717733408186514
40
0.717733408186514
40
0.764777840155429
40
0.764777840155429
40
0.811822272124343
40
0.811822272124343
40
0.858866704093257
40
0.858866704093257
40
0.905911136062172
40
0.905911136062172
40
0.952955568031086
40
0.952955568031086
40
1
40
1
40
1
40
1
41
1
10
33.8473890619506
20
4.27933090527009
30
0
41
1
10
33.9575194302942
20
4.28157777784324
30
0
41
1
10
34.0676862844834
20
4.28278736526752
30
0
41
1
10
34.6076066246753
20
4.28361401010378
30
0
41
1
10
35.0384072408407
20
4.26836718402609
30
0
41
1
10
35.8972421156657
20
4.2066129834684
30
0
41
1
10
36.3260243628693
20
4.1601374589072
30
0
41
1
10
37.1841611962358
20
4.03685846439669
30
0
41
1
10
37.6137824322856
20
3.95999229536912
30
0
41
1
10
38.9046605440041
20
3.68586087837679
30
2E-16
41
1
10
39.7608229084507
20
3.44667430281399
30
-2E-16
41
1
10
41.0494236328832
20
3.01611971227752
30
-2E-16
41
1
10
41.4800592268564
20
2.86048689012378
30
-2E-16
41
1
10
42.3401289734979
20
2.52955482768087
30
-2E-16
41
1
10
42.7706401755133
20
2.35386141570095
30
-1E-16
41
1
10
44.0600492711212
20
1.80348462841175
30
-1E-16
41
1
10
44.9159472368705
20
1.40586636543873
30
-1E-16
41
1
10
46.2054191836924
20
0.784414363345832
30
0
41
1
10
46.6357346470073
20
0.57334688062835
30
0
41
1
10
47.4939537282793
20
0.149680681415163
30
0
41
1
10
47.9225764714918
20
-0.063297417748629
30
0
41
1
10
48.7806998382844
20
-0.487786054545154
30
0
41
1
10
49.2109075770944
20
-0.69964195433451
30
0
41
1
10
50.0705070171814
20
-1.11634290542108
30
1E-16
41
1
10
50.4993333501484
20
-1.32090247880828
30
1E-16
41
1
10
51.3569593669981
20
-1.71877433915887
30
1E-16
41
1
10
51.7857623440786
20
-1.91208271439567
30
1E-16
41
1
10
52.6451356141255
20
-2.28408301626135
30
1E-16
41
1
10
53.0755155300733
20
-2.46266424471472
30
2E-16
41
1
10
53.933620256981
20
-2.79947004294905
30
2E-16
41
1
10
54.3621159406443
20
-2.95804546260544
30
2E-16
41
1
10
55.2199152458282
20
-3.25263780554826
30
2E-16
41
1
10
55.6496928006521
20
-3.3887741999506
30
2E-16
41
1
10
56.5098022618197
20
-3.63507255999804
30
-2E-16
41
1
10
56.9394784891444
20
-3.74507346070843
30
-2E-16
41
1
10
57.7998177299101
20
-3.93696339498942
30
0
41
1
10
58.2301371808946
20
-4.01874759714971
30
0
41
1
10
59.0899057271465
20
-4.15194769568882
30
0
41
1
10
59.5194111931949
20
-4.20339799930716
30
0
41
1
10
60.379640969416
20
-4.27498018912848
30
0
41
1
10
60.8097724791841
20
-4.29504026940171
30
0
41
1
10
61.2398674074374
20
-4.29917277342321
30
0
0
SPLINE
5
C1
100
AcDbEntity
8
1
62
256
6
ByLayer
370
18
48
1
60
0
100
AcDbSpline
70
4
71
3
72
69
73
65
40
0
40
0
40
0
40
0
40
0.0189664385320358
40
0.0189664385320358
40
0.0378741682754036
40
0.0378741682754036
40
0.0567818980187715
40
0.0567818980187715
40
0.0756896277621394
40
0.0756896277621394
40
0.0945973575055073
40
0.0945973575055073
40
0.0957790906144679
40
0.0957790906144679
40
0.0959268072530878
40
0.0959268072530878
40
0.0960745238917079
40
0.0960745238917079
40
0.0963699571689481
40
0.0963699571689481
40
0.0969608237234283
40
0.0969608237234283
40
0.0993242899413491
40
0.0993242899413491
40
0.104051222377191
40
0.104051222377191
40
0.113505087248874
40
0.113505087248874
40
0.13241281699224
40
0.13241281699224
40
0.170228276478973
40
0.170228276478973
40
0.245859195452439
40
0.245859195452439
40
0.397121033399371
40
0.397121033399371
40
0.472751952372837
40
0.472751952372837
40
0.51056741185957
40
0.51056741185957
40
0.529475141602936
40
0.529475141602936
40
0.534202074038778
40
0.534202074038778
40
0.534792940593258
40
0.534792940593258
40
0.535088373870498
40
0.535088373870498
40
0.535236090509119
40
0.535236090509119
40
0.535383807147739
40
0.535383807147739
40
0.535531523786359
40
0.535531523786359
40
0.535679240424979
40
0.535974673702219
40
0.5365655402567
40
0.538929006474622
40
0.548382871346309
40
0.699644709293309
40
0.699644709293309
40
0.850906547240309
40
0.850906547240309
40
1
40
1
40
1
40
1
41
1
10
7.84641699722937
20
4.23975143626822
30
0
41
1
10
7.81441462271312
20
4.14273698838372
30
0
41
1
10
7.78031439089685
20
4.044539843948
30
0
41
1
10
7.70943761980163
20
3.84539570711578
30
0
41
1
10
7.67307661782436
20
3.74424527528467
30
0
41
1
10
7.5945357769202
20
3.54032376530984
30
0
41
1
10
7.55258359698303
20
3.43723669546799
30
0
41
1
10
7.4648743940663
20
3.22928000373017
30
0
41
1
10
7.4192361858162
20
3.12465455110791
30
0
41
1
10
7.32337240247304
20
2.91523209279336
30
0
41
1
10
7.2734398952648
20
2.81028029435828
30
0
41
1
10
7.21891190799832
20
2.69851676928553
30
0
41
1
10
7.21569891716564
20
2.69194150141925
30
0
41
1
10
7.21207831854869
20
2.68454328013752
30
0
41
1
10
7.21157084094494
20
2.68376172853081
30
0
41
1
10
7.21103655835429
20
2.68201143295414
30
0
41
1
10
7.21161281869769
20
2.68108498619196
30
0
41
1
10
7.21332997243144
20
2.67894487665987
30
0
41
1
10
7.21474815197038
20
2.67777614464222
30
0
41
1
10
7.2189543681173
20
2.67434441736674
30
0
41
1
10
7.22189898493923
20
2.67224374181461
30
0
41
1
10
7.23669604502319
20
2.66191352905614
30
0
41
1
10
7.24890377106115
20
2.65427776421765
30
0
41
1
10
7.28553315278521
20
2.63139627203984
30
0
41
1
10
7.31016160329375
20
2.61653681902115
30
0
41
1
10
7.38413200046128
20
2.57213653631936
30
0
41
1
10
7.43363681765754
20
2.54291691376929
30
0
41
1
10
7.5822777340457
20
2.45560383312377
30
0
41
1
10
7.68159436626297
20
2.39794030330521
30
0
41
1
10
7.97967078479462
20
2.22555201939309
30
0
41
1
10
8.17859136959981
20
2.11149432994935
30
0
41
1
10
8.77525066987158
20
1.7709219825592
30
0
41
1
10
9.17305407539419
20
1.54620160983052
30
0
41
1
10
10.3659228456966
20
0.877960051569147
30
-1E-16
41
1
10
11.1603245423404
20
0.440331830638627
30
0
41
1
10
12.3510465463839
20
-0.200957147184738
30
0
41
1
10
12.7478850715472
20
-0.412346932761807
30
0
41
1
10
13.3423152616593
20
-0.726153759281402
30
0
41
1
10
13.5403843250283
20
-0.830154999242438
30
1E-16
41
1
10
13.8367572402848
20
-0.985707897837102
30
1E-16
41
1
10
13.9355985890349
20
-1.03739117313796
30
1E-16
41
1
10
14.0578703098577
20
-1.10259654354809
30
1E-16
41
1
10
14.0824402767994
20
-1.11557645566992
30
1E-16
41
1
10
14.109057997768
20
-1.1307197970645
30
1E-16
41
1
10
14.1119951419901
20
-1.13241181482113
30
1E-16
41
1
10
14.1162897834407
20
-1.13500181619506
30
1E-16
41
1
10
14.117705619556
20
-1.13587280061535
30
1E-16
41
1
10
14.1197274703783
20
-1.13721281426621
30
1E-16
41
1
10
14.120388847993
20
-1.13766528622864
30
1E-16
41
1
10
14.1215942529398
20
-1.13860419945792
30
1E-16
41
1
10
14.1224972714155
20
-1.13927791828121
30
1E-16
41
1
10
14.1214499873436
20
-1.13974803253185
30
1E-16
41
1
10
14.1203483650278
20
-1.13944240855869
30
1E-16
41
1
10
14.1185792963709
20
-1.13912505392412
30
1E-16
41
1
10
14.1159257055593
20
-1.13864897126317
30
1E-16
41
1
10
14.1097340805415
20
-1.13753775705069
30
1E-16
41
1
10
14.0902752332205
20
-1.13404314005396
30
1E-16
41
1
10
14.0159847468479
20
-1.12067167948456
30
1E-16
41
1
10
13.0399546183769
20
-0.943440172963278
30
1E-16
41
1
10
12.0831567115299
20
-0.748807667632889
30
0
41
1
10
10.2921215650146
20
-0.34733284778838
30
0
41
1
10
9.40105258666017
20
-0.128877609903668
30
0
41
1
10
7.64378514724021
20
0.338984520278274
30
0
41
1
10
6.7771493082372
20
0.587921337399735
30
0
41
1
10
5.91591634800102
20
0.853255626114162
30
-1E-16
0
SPLINE
5
C2
100
AcDbEntity
8
1
62
256
6
ByLayer
370
18
48
1
60
0
100
AcDbSpline
70
4
71
3
72
12
73
8
40
0
40
0
40
0
40
0
40
0.653808399262295
40
0.653808399262295
40
0.980712598893441
40
0.980712598893441
40
1
40
1
40
1
40
1
41
1
10
3.64468081257687
20
1.26582029972698
30
-1E-16
41
1
10
4.24547542605291
20
0.99553681946233
30
-1E-16
41
1
10
4.84346224631091
20
0.719480063619443
30
0
41
1
10
5.73902257025799
20
0.302747339597658
30
0
41
1
10
6.03730013958958
20
0.163382503769242
30
0
41
1
10
6.35302146055724
20
0.015530319769482
30
0
41
1
10
6.37061022013827
20
0.0072909633846905
30
0
41
1
10
6.38819804420561
20
-0.0009502020296281
30
0
0
SPLINE
5
C3
100
AcDbEntity
8
1
62
256
6
ByLayer
370
18
48
1
60
0
100
AcDbSpline
70
4
71
3
72
28
73
24
40
0
40
0
40
0
40
0
40
0.0557469245685741
40
0.0557469245685741
40
0.119603762354087
40
0.119603762354087
40
0.183460600139601
40
0.183460600139601
40
0.247317437925114
40
0.247317437925114
40
0.375031113496141
40
0.375031113496141
40
0.438887951281655
40
0.438887951281655
40
0.502744789067168
40
0.502744789067168
40
0.630458464638192
40
0.630458464638192
40
0.758172140209217
40
0.758172140209217
40
0.885885815780241
40
0.885885815780241
40
1
40
1
40
1
40
1
41
1
10
46.7597508515935
20
4.08019384155372
30
0
41
1
10
47.0219394716312
20
4.08625169547116
30
0
41
1
10
47.2833485045704
20
4.08698231928361
30
0
41
1
10
47.8430967816317
20
4.07651528038909
30
0
41
1
10
48.1413371974209
20
4.06323459855454
30
0
41
1
10
48.736760707081
20
4.02303684610413
30
0
41
1
10
49.0338515311377
20
3.99645819037724
30
0
41
1
10
49.627615153746
20
3.92949978378886
30
0
41
1
10
49.9245391838002
20
3.88845539515631
30
0
41
1
10
50.8162112438183
20
3.74391477217452
30
0
41
1
10
51.4117426932944
20
3.61969490604292
30
0
41
1
10
52.3079545506102
20
3.39674277281546
30
-2E-16
41
1
10
52.6070828893036
20
3.3164347578753
30
-2E-16
41
1
10
53.207540339239
20
3.14332300435004
30
-2E-16
41
1
10
53.5090949589077
20
3.05026573125724
30
-2E-16
41
1
10
54.4087212215494
20
2.75647518280266
30
-2E-16
41
1
10
55.0049049964435
20
2.54061166865918
30
-2E-16
41
1
10
56.1943453756886
20
2.07725937136061
30
-1E-16
41
1
10
56.7874623570845
20
1.82979902746206
30
-1E-16
41
1
10
57.9757538064135
20
1.3116306117642
30
-1E-16
41
1
10
58.5706714474834
20
1.04094543493036
30
-1E-16
41
1
10
59.7036840422908
20
0.515564444973421
30
0
41
1
10
60.2417987810428
20
0.261368446893783
30
0
41
1
10
60.7793998484243
20
0.0067847608787588
30
0
0
SPLINE
5
C4
100
AcDbEntity
8
1
62
256
6
ByLayer
370
18
48
1
60
0
100
AcDbSpline
70
4
71
3
72
10
73
6
40
0
40
0
40
0
40
0
40
0.781861326900051
40
0.781861326900051
40
1
40
1
40
1
40
1
41
1
10
3.60187501311734
20
-3.4826670744481
30
2E-16
41
1
10
4.81828688628258
20
-3.77425896381644
30
0
41
1
10
6.0193129705379
20
-3.95715887288458
30
0
41
1
10
7.56034704474257
20
-4.0421109288358
30
0
41
1
10
7.89679805166537
20
-4.05160052541152
30
0
41
1
10
8.23393794299466
20
-4.05187894097588
30
0
0
SPLINE
5
C5
100
AcDbEntity
8
1
62
256
6
ByLayer
370
18
48
1
60
0
100
AcDbSpline
70
4
71
3
72
22
73
18
40
0
40
0
40
0
40
0
40
0.160310465109583
40
0.160310465109583
40
0.300258720924653
40
0.300258720924653
40
0.370232848832186
40
0.370232848832186
40
0.44020697673972
40
0.44020697673972
40
0.72010348836986
40
0.72010348836986
40
0.86005174418493
40
0.86005174418493
40
0.930025872092465
40
0.930025872092465
40
1
40
1
40
1
40
1
41
1
10
48.5574418180376
20
0.225518755484558
30
0
41
1
10
49.2452674317466
20
-0.0978748092438479
30
0
41
1
10
49.9308906156912
20
-0.42249702734648
30
0
41
1
10
51.2175216317058
20
-1.01844269707587
30
1E-16
41
1
10
51.8181032663323
20
-1.29155006551556
30
1E-16
41
1
10
52.7238832475987
20
-1.68649635878484
30
1E-16
41
1
10
53.0268238118136
20
-1.81576210000824
30
1E-16
41
1
10
53.6341946327309
20
-2.06769739605082
30
1E-16
41
1
10
53.9367836039298
20
-2.18961896119419
30
1E-16
41
1
10
55.4456205997837
20
-2.77673660442352
30
2E-16
41
1
10
56.6400566621004
20
-3.17406744235115
30
2E-16
41
1
10
58.4401167534163
20
-3.62150434294028
30
0
41
1
10
59.0415634946346
20
-3.74609666354689
30
0
41
1
10
59.9493615026312
20
-3.89163580133345
30
0
41
1
10
60.2533179135132
20
-3.93327880420898
30
0
41
1
10
60.8604431133033
20
-4.00170676334525
30
0
41
1
10
61.1638320089523
20
-4.02807481820656
30
0
41
1
10
61.4673667176418
20
-4.0478819653913
30
0
0
SPLINE
5
C6
100
AcDbEntity
8
1
62
256
6
ByLayer
370
18
48
1
60
0
100
AcDbSpline
70
4
71
3
72
8
73
4
40
0
40
0
40
0
40
0
40
1
40
1
40
1
40
1
41
1
10
3.60187501311737
20
-3.4826670744481
30
2E-16
41
1
10
3.5871378266252
20
-3.479485589473
30
2E-16
41
1
10
3.57273708011888
20
-3.47910036242985
30
2E-16
41
1
10
3.55920909563946
20
-3.4816266939761
30
2E-16
0
SPLINE
5
C7
100
AcDbEntity
8
1
62
256
6
ByLayer
370
18
48
1
60
0
100
AcDbSpline
70
4
71
3
72
40
73
36
40
0
40
0
40
0
40
0
40
0.0072120442282961
40
0.0072120442282961
40
0.0716035156827192
40
0.0716035156827192
40
0.135994987137143
40
0.135994987137143
40
0.200386458591566
40
0.200386458591566
40
0.264777930045989
40
0.264777930045989
40
0.329169401500412
40
0.329169401500412
40
0.393560872954836
40
0.393560872954836
40
0.457952344409259
40
0.457952344409259
40
0.522343815863682
40
0.522343815863682
40
0.586735287318106
40
0.586735287318106
40
0.651126758772529
40
0.651126758772529
40
0.715518230226952
40
0.715518230226952
40
0.779909701681376
40
0.779909701681376
40
0.844301173135799
40
0.844301173135799
40
0.908692644590222
40
0.908692644590222
40
0.973084116044646
40
0.973084116044646
40
1
40
1
40
1
40
1
41
1
10
19.6702697438296
20
4.06836557379461
30
0
41
1
10
19.7035348227767
20
4.06896357449071
30
0
41
1
10
19.7368009359234
20
4.06946384107763
30
0
41
1
10
20.0670970751886
20
4.07343903270507
30
0
41
1
10
20.3642095416451
20
4.06946682427102
30
0
41
1
10
20.9585677976077
20
4.04808244062281
30
0
41
1
10
21.2557760764349
20
4.03076340587407
30
0
41
1
10
21.8517466072832
20
3.98043169516396
30
0
41
1
10
22.1503758832093
20
3.94786518782721
30
0
41
1
10
22.7488123898588
20
3.8693055541666
30
0
41
1
10
23.0485756834293
20
3.82338472114105
30
0
41
1
10
23.6510268610689
20
3.71613233245924
30
0
41
1
10
23.9513481158385
20
3.65569560344113
30
0
41
1
10
24.550007067455
20
3.52293771147694
30
-2E-16
41
1
10
24.8483943487136
20
3.45062928372184
30
-2E-16
41
1
10
25.4445086521385
20
3.29334877811488
30
-2E-16
41
1
10
25.7421052900357
20
3.20879263519672
30
-2E-16
41
1
10
26.3365305742991
20
3.02911084704988
30
-2E-16
41
1
10
26.6333234527789
20
2.93399973201585
30
-2E-16
41
1
10
27.2274477397685
20
2.73328691751868
30
-2E-16
41
1
10
27.5245984260203
20
2.62789424584736
30
-2E-16
41
1
10
28.1192264890935
20
2.40805114949293
30
-1E-16
41
1
10
28.4167731453346
20
2.29355597750825
30
-1E-16
41
1
10
29.0133664436997
20
2.05630142935863
30
-1E-16
41
1
10
29.3123544335928
20
1.93357179241656
30
-1E-16
41
1
10
29.9116719936776
20
1.68075204048688
30
-1E-16
41
1
10
30.2126235666462
20
1.55046836601002
30
-1E-16
41
1
10
30.8147398369808
20
1.28495038896762
30
-1E-16
41
1
10
31.1155502225466
20
1.14978935866173
30
-1E-16
41
1
10
31.7168765189916
20
0.87538583412902
30
-1E-16
41
1
10
32.0175371177155
20
0.736320724925122
30
0
41
1
10
32.6197650234412
20
0.456120394338171
30
0
41
1
10
32.9207037168006
20
0.31501744520483
30
0
41
1
10
33.3455494713034
20
0.114921392522803
30
0
41
1
10
33.4706365830374
20
0.055949685562922
30
0
41
1
10
33.5956003153799
20
-0.0029429691490463
30
0
0
SPLINE
5
C8
100
AcDbEntity
8
1
62
256
6
ByLayer
370
18
48
1
60
0
100
AcDbSpline
70
4
71
3
72
18
73
14
40
0
40
0
40
0
40
0
40
0.249999999999999
40
0.249999999999999
40
0.499999999999999
40
0.499999999999999
40
0.562499999999998
40
0.562499999999998
40
0.624999999999998
40
0.624999999999998
40
0.749999999999999
40
0.749999999999999
40
1
40
1
40
1
40
1
41
1
10
7.84641699722394
20
4.23975143625199
30
0
41
1
10
8.86862521257675
20
4.18406292989178
30
0
41
1
10
9.87788284696191
20
4.04004037603383
30
0
41
1
10
11.895835168628
20
3.59658783649559
30
-2E-16
41
1
10
12.9039169275987
20
3.29664721017321
30
-2E-16
41
1
10
14.1783535219348
20
2.84000131528808
30
-2E-16
41
1
10
14.4341639122695
20
2.74451298262176
30
-2E-16
41
1
10
14.943338304729
20
2.54739255910158
30
-2E-16
41
1
10
15.1971898089025
20
2.44555205960088
30
-1E-16
41
1
10
15.9575652343006
20
2.1320772151671
30
-1E-16
41
1
10
16.4625278096195
20
1.91182197831688
30
-1E-16
41
1
10
17.9758720537913
20
1.22548671884948
30
-1E-16
41
1
10
18.98291827107
20
0.734176955584019
30
0
41
1
10
20.0000000000103
20
0.232484212087428
30
0
0
SPLINE
5
C9
100
AcDbEntity
8
1
62
256
6
ByLayer
370
18
48
1
60
0
100
AcDbSpline
70
4
71
3
72
38
73
34
40
0
40
0
40
0
40
0
40
0.0028793334028014
40
0.0028793334028014
40
0.0654732229461473
40
0.0654732229461473
40
0.128067112489493
40
0.128067112489493
40
0.253254891576183
40
0.253254891576183
40
0.315848781119529
40
0.315848781119529
40
0.378442670662875
40
0.378442670662875
40
0.441036560206221
40
0.441036560206221
40
0.503630449749567
40
0.503630449749567
40
0.566224339292912
40
0.566224339292912
40
0.628818228836258
40
0.628818228836258
40
0.691412118379604
40
0.691412118379604
40
0.75400600792295
40
0.75400600792295
40
0.879193787009641
40
0.879193787009641
40
0.910490731781313
40
0.910490731781313
40
0.941787676552985
40
0.941787676552985
40
1
40
1
40
1
40
1
41
1
10
48.5829377437357
20
-0.388886838931711
30
0
41
1
10
48.5630115879969
20
-0.379428194813386
30
0
41
1
10
48.5430848616686
20
-0.369965484969129
30
0
41
1
10
48.0899562395807
20
-0.154703226333737
30
0
41
1
10
47.6566518653523
20
0.0525119768612399
30
0
41
1
10
46.7904008234951
20
0.464575381721602
30
0
41
1
10
46.356761308183
20
0.669652556001068
30
0
41
1
10
45.0602501933113
20
1.27437581856788
30
-1E-16
41
1
10
44.2004065611256
20
1.66122253087832
30
-1E-16
41
1
10
42.9077610083983
20
2.19913616645769
30
-1E-16
41
1
10
42.4762231215685
20
2.37085432844137
30
-1E-16
41
1
10
41.6102410601039
20
2.69644533357132
30
-2E-16
41
1
10
41.1772958233847
20
2.85006070186253
30
-2E-16
41
1
10
40.31206825225
20
3.1342156619578
30
-2E-16
41
1
10
39.8789145049156
20
3.26517261916595
30
-2E-16
41
1
10
39.0129830176576
20
3.50147333045851
30
-2E-16
41
1
10
38.5811723501611
20
3.60702008758378
30
-2E-16
41
1
10
37.7176018990168
20
3.78963665130831
30
0
41
1
10
37.2859070353726
20
3.86702818943766
30
0
41
1
10
36.4209193552389
20
3.99276632492496
30
0
41
1
10
35.9874913196424
20
4.04131737784385
30
0
41
1
10
35.1209788743786
20
4.10714132824566
30
0
41
1
10
34.687472996679
20
4.12460101447073
30
0
41
1
10
33.8220350087544
20
4.12907983593166
30
0
41
1
10
33.3906589591509
20
4.1159205729094
30
0
41
1
10
32.0977096153454
20
4.03010242253245
30
0
41
1
10
31.2375386616252
20
3.91234005032535
30
0
41
1
10
30.1554852854183
20
3.69326985260633
30
0
41
1
10
29.9387206202034
20
3.64588026321999
30
0
41
1
10
29.5060606173863
20
3.54462707528708
30
-2E-16
41
1
10
29.2900024832919
20
3.49069929310349
30
-2E-16
41
1
10
28.6723244602035
20
3.32753297632786
30
-2E-16
41
1
10
28.270909675951
20
3.21028253917763
30
-2E-16
41
1
10
27.8691364800503
20
3.08292768732935
30
-2E-16
0
SPLINE
5
CA
100
AcDbEntity
8
1
62
256
6
ByLayer
370
18
48
1
60
0
100
AcDbSpline
70
4
71
3
72
8
73
4
40
0
40
0
40
0
40
0
40
1
40
1
40
1
40
1
41
1
10
61.2239337492379
20
-4.24465206691272
30
0
41
1
10
61.229632515336
20
-4.27711016405576
30
0
41
1
10
61.2349000001017
20
-4.29549451950379
30
0
41
1
10
61.2398674074209
20
-4.29917277342324
30
0
0
SPLINE
5
CB
100
AcDbEntity
8
1
62
256
6
ByLayer
370
18
48
1
60
0
100
AcDbSpline
70
4
71
3
72
8
73
4
40
0
40
0
40
0
40
0
40
1
40
1
40
1
40
1
41
1
10
61.4647751957282
20
-4.05909709727095
30
0
41
1
10
61.4584033004394
20
-4.07762657579747
30
0
41
1
10
61.4520575880025
20
-4.09615610043264
30
0
41
1
10
61.4457385702145
20
-4.11468580825243
30
0
0
SPLINE
5
CC
100
AcDbEntity
8
1
62
256
6
ByLayer
370
18
48
1
60
0
100
AcDbSpline
70
4
71
3
72
8
73
4
40
0
40
0
40
0
40
0
40
1
40
1
40
1
40
1
41
1
10
3.64045433083817
20
1.25414432581425
30
-1E-16
41
1
10
3.62852658203116
20
1.2595012434461
30
-1E-16
41
1
10
3.61564023501296
20
1.26227432120984
30
-1E-16
41
1
10
3.60243796854397
20
1.26233456494796
30
-1E-16
0
SPLINE
5
CD
100
AcDbEntity
8
1
62
256
6
ByLayer
370
18
48
1
60
0
100
AcDbSpline
70
4
71
3
72
8
73
4
40
0
40
0
40
0
40
0
40
1
40
1
40
1
40
1
41
1
10
62.614120053708
20
-1.35034338809461
30
0
41
1
10
62.7449983318938
20
-0.980641009912688
30
0
41
1
10
62.8723213096042
20
-0.609666432780557
30
0
41
1
10
62.996034686235
20
-0.237400226224707
30
0
0
SPLINE
5
CE
100
AcDbEntity
8
1
62
256
6
ByLayer
370
18
48
1
60
0
100
AcDbSpline
70
4
71
3
72
74
73
70
40
0
40
0
40
0
40
0
40
0.0001245160934333
40
0.0001245160934333
40
0.0250267739053527
40
0.0250267739053527
40
0.0499290317172721
40
0.0499290317172721
40
0.0748312895291914
40
0.0748312895291914
40
0.0997335473411108
40
0.0997335473411108
40
0.149538062964949
40
0.149538062964949
40
0.199342578588787
40
0.199342578588787
40
0.224244836400706
40
0.224244836400706
40
0.249147094212625
40
0.249147094212625
40
0.274049352024545
40
0.274049352024545
40
0.298951609836464
40
0.298951609836464
40
0.348756125460303
40
0.348756125460303
40
0.373658383272222
40
0.373658383272222
40
0.398560641084141
40
0.398560641084141
40
0.42346289889606
40
0.42346289889606
40
0.448365156707979
40
0.448365156707979
40
0.498169672331816
40
0.498169672331816
40
0.547974187955654
40
0.547974187955654
40
0.572876445767573
40
0.572876445767573
40
0.597778703579492
40
0.597778703579492
40
0.622680961391411
40
0.622680961391411
40
0.64758321920333
40
0.64758321920333
40
0.697387734827169
40
0.697387734827169
40
0.722289992639088
40
0.722289992639088
40
0.747192250451007
40
0.747192250451007
40
0.772094508262927
40
0.772094508262927
40
0.796996766074846
40
0.796996766074846
40
0.846801281698686
40
0.846801281698686
40
0.896605797322526
40
0.896605797322526
40
0.921508055134446
40
0.921508055134446
40
0.946410312946367
40
0.946410312946367
40
0.971312570758287
40
0.971312570758287
40
0.996214828570207
40
0.996214828570207
40
1
40
1
40
1
40
1
41
1
10
55.725788875272
20
-2.85283690080618
30
2E-16
41
1
10
55.7243515245086
20
-2.85336972688523
30
2E-16
41
1
10
55.7229141539355
20
-2.85390244649983
30
2E-16
41
1
10
55.4340097754377
20
-2.96095357263059
30
2E-16
41
1
10
55.1452709082183
20
-3.06373592921952
30
2E-16
41
1
10
54.569761599852
20
-3.25738160193683
30
2E-16
41
1
10
54.2827513877861
20
-3.34833802458107
30
2E-16
41
1
10
53.7100200616072
20
-3.51859693418558
30
2E-16
41
1
10
53.4242764771666
20
-3.59787424088469
30
2E-16
41
1
10
52.8539930637634
20
-3.74471464473567
30
-2E-16
41
1
10
52.5694026615142
20
-3.81218215145395
30
0
41
1
10
51.7152924365014
20
-3.99491524180633
30
0
41
1
10
51.1456743325473
20
-4.09100813434677
30
0
41
1
10
50.0048515365672
20
-4.23031680049542
30
0
41
1
10
49.4322403068105
20
-4.27267348536105
30
0
41
1
10
48.5675196319468
20
-4.29370590748872
30
0
41
1
10
48.2788613438535
20
-4.29357836214487
30
0
41
1
10
47.7047025550231
20
-4.27905733770478
30
0
41
1
10
47.4183716919399
20
-4.2647068141047
30
0
41
1
10
46.8465652825058
20
-4.22231553608663
30
0
41
1
10
46.5612032465228
20
-4.1942472414008
30
0
41
1
10
45.9911936532241
20
-4.12462045222091
30
0
41
1
10
45.7067660628774
20
-4.08291929329744
30
0
41
1
10
44.853242895137
20
-3.93827230693597
30
0
41
1
10
44.2835609242648
20
-3.81628423747742
30
0
41
1
10
43.4268508012825
20
-3.59582410227765
30
2E-16
41
1
10
43.1410251840984
20
-3.51590013242571
30
2E-16
41
1
10
42.5673601785681
20
-3.34475969030558
30
2E-16
41
1
10
42.2794963472552
20
-3.25355083434855
30
2E-16
41
1
10
41.7019010695599
20
-3.05988800103751
30
2E-16
41
1
10
41.4141452478565
20
-2.95819279309325
30
2E-16
41
1
10
40.840685741079
20
-2.7451795030311
30
2E-16
41
1
10
40.554785094629
20
-2.63416211935632
30
2E-16
41
1
10
39.6979469858288
20
-2.29046339131807
30
1E-16
41
1
10
39.1283190207324
20
-2.04647044126773
30
1E-16
41
1
10
37.9902743105303
20
-1.5323785476177
30
1E-16
41
1
10
37.4204943964992
20
-1.26481922781667
30
1E-16
41
1
10
36.5626190520508
20
-0.851736787142784
30
1E-16
41
1
10
36.2763034566079
20
-0.711703727950948
30
0
41
1
10
35.7019046899303
20
-0.429029814116092
30
0
41
1
10
35.4130393839506
20
-0.286332757280093
30
0
41
1
10
34.8362962097778
20
-0.0014432392152344
30
0
41
1
10
34.5488983805644
20
0.140707486479386
30
0
41
1
10
33.9757236148092
20
0.423777243195303
30
0
41
1
10
33.6901396186468
20
0.565095019333512
30
0
41
1
10
32.8341135516393
20
0.983645103941001
30
-1E-16
41
1
10
32.2643428109368
20
1.25547748563534
30
-1E-16
41
1
10
31.4103993993624
20
1.65119862403128
30
-1E-16
41
1
10
31.1257796689526
20
1.78089992601409
30
-1E-16
41
1
10
30.5553488135674
20
2.03351373577343
30
-1E-16
41
1
10
30.2695897292642
20
2.15653720533013
30
-1E-16
41
1
10
29.6969494305816
20
2.39592627002412
30
-1E-16
41
1
10
29.4100275767935
20
2.51221697280332
30
-2E-16
41
1
10
28.8347545120055
20
2.73746318411142
30
-2E-16
41
1
10
28.5455915203919
20
2.84618352397564
30
-2E-16
41
1
10
27.6817741346954
20
3.15510242730181
30
-2E-16
41
1
10
27.1094373669057
20
3.33995578668692
30
-2E-16
41
1
10
25.9688304981246
20
3.6642365526165
30
2E-16
41
1
10
25.3993379623987
20
3.80223158027454
30
0
41
1
10
24.5445688541271
20
3.97173457253942
30
0
41
1
10
24.2597837225992
20
4.02212305563037
30
0
41
1
10
23.6890559535433
20
4.10944853381378
30
0
41
1
10
23.4030678862807
20
4.14639373151908
30
0
41
1
10
22.8296373196995
20
4.20671147083709
30
0
41
1
10
22.542193693761
20
4.23008797479065
30
0
41
1
10
21.9657283459211
20
4.2629039478901
30
0
41
1
10
21.6769135190645
20
4.27224307758866
30
0
41
1
10
21.3457310836572
20
4.27472251868602
30
0
41
1
10
21.3020487974158
20
4.27488675857091
30
0
41
1
10
21.258381953671
20
4.27488836782643
30
0
0
SPLINE
5
CF
100
AcDbEntity
8
1
62
256
6
ByLayer
370
18
48
1
60
0
100
AcDbSpline
70
4
71
3
72
16
73
12
40
0
40
0
40
0
40
0
40
0.20222967027073
40
0.20222967027073
40
0.404459340541461
40
0.404459340541461
40
0.606689010812191
40
0.606689010812191
40
0.808918681082922
40
0.808918681082922
40
1
40
1
40
1
40
1
41
1
10
61.4991223629756
20
4.12703966357807
30
0
41
1
10
61.0663781719746
20
4.13026367636971
30
0
41
1
10
60.6341042278878
20
4.11741512416865
30
0
41
1
10
59.7689682950522
20
4.06237535214797
30
0
41
1
10
59.3355116576062
20
4.01897711826535
30
0
41
1
10
58.4702057126057
20
3.90272597563001
30
0
41
1
10
58.0378730073124
20
3.83031369576702
30
0
41
1
10
57.1723668724667
20
3.65741285239136
30
0
41
1
10
56.7388726978351
20
3.55661474598693
30
-2E-16
41
1
10
55.8983672615846
20
3.33548316969373
30
-2E-16
41
1
10
55.4905551512638
20
3.21654675844468
30
-2E-16
41
1
10
55.0825486544121
20
3.08729302289629
30
-2E-16
0
SPLINE
5
D0
100
AcDbEntity
8
1
62
256
6
ByLayer
370
18
48
1
60
0
100
AcDbSpline
70
4
71
3
72
8
73
4
40
0
40
0
40
0
40
0
40
1
40
1
40
1
40
1
41
1
10
35.6744658431811
20
-4.06469600477976
30
0
41
1
10
35.6530189320824
20
-4.0664677701146
30
0
41
1
10
35.6315721912906
20
-4.06820151654836
30
0
41
1
10
35.6101257549435
20
-4.06989708386118
30
0
0
SPLINE
5
D1
100
AcDbEntity
8
1
62
256
6
ByLayer
370
18
48
1
60
0
100
AcDbSpline
70
4
71
3
72
8
73
4
40
0
40
0
40
0
40
0
40
1
40
1
40
1
40
1
41
1
10
3.55920909563923
20
-3.49402515502368
30
2E-16
41
1
10
3.55863774497931
20
-3.55011520856237
30
2E-16
41
1
10
3.55807399133076
20
-3.60620035742815
30
2E-16
41
1
10
3.55751785951512
20
-3.66228087355265
30
-2E-16
0
SPLINE
5
D2
100
AcDbEntity
8
1
62
256
6
ByLayer
370
18
48
1
60
0
100
AcDbSpline
70
4
71
3
72
8
73
4
40
0
40
0
40
0
40
0
40
1
40
1
40
1
40
1
41
1
10
62.9960346862303
20
0.237400226251509
30
0
41
1
10
63.0013293228849
20
0.0789073538028902
30
0
41
1
10
63.0013142411445
20
-0.0793588197742565
30
0
41
1
10
62.996034686231
20
-0.237400226228459
30
0
0
SPLINE
5
D3
100
AcDbEntity
8
1
62
256
6
ByLayer
370
18
48
1
60
0
100
AcDbSpline
70
4
71
3
72
42
73
38
40
0
40
0
40
0
40
0
40
0.0697836747721183
40
0.0697836747721183
40
0.139567349544237
40
0.139567349544237
40
0.174459186930296
40
0.174459186930296
40
0.209351024316355
40
0.209351024316355
40
0.279134699088474
40
0.279134699088474
40
0.418702048632714
40
0.418702048632714
40
0.453593886018773
40
0.453593886018773
40
0.488485723404833
40
0.488485723404833
40
0.55826939817695
40
0.55826939817695
40
0.593161235563009
40
0.593161235563009
40
0.628053072949068
40
0.628053072949068
40
0.697836747721185
40
0.697836747721185
40
0.767620422493303
40
0.767620422493303
40
0.837404097265421
40
0.837404097265421
40
0.907187772037539
40
0.907187772037539
40
0.942079609423597
40
0.942079609423597
40
0.976971446809656
40
0.976971446809656
40
1
40
1
40
1
40
1
41
1
10
61.2239337492396
20
-4.24465206691215
30
0
41
1
10
60.6211851713583
20
-4.19637543397161
30
0
41
1
10
60.0191635457972
20
-4.11733900044311
30
0
41
1
10
58.8120265618139
20
-3.90034155554139
30
0
41
1
10
58.2107301893775
20
-3.76305497819828
30
-2E-16
41
1
10
57.3084863590173
20
-3.5179183926731
30
2E-16
41
1
10
57.0076835233706
20
-3.4296707202104
30
2E-16
41
1
10
56.4052897487134
20
-3.24086037996773
30
2E-16
41
1
10
56.103135463707
20
-3.14009081906215
30
2E-16
41
1
10
55.2002151631469
20
-2.82254315580806
30
2E-16
41
1
10
54.6023772321748
20
-2.59030081930888
30
2E-16
41
1
10
52.8135500484562
20
-1.84570954530594
30
1E-16
41
1
10
51.6274193249783
20
-1.2850207485852
30
1E-16
41
1
10
50.1275637358811
20
-0.551516079620114
30
0
41
1
10
49.8266081436833
20
-0.403115595205293
30
0
41
1
10
49.2229796628187
20
-0.10438726275089
30
0
41
1
10
48.9217651354626
20
0.0452010568211847
30
0
41
1
10
48.0188334595672
20
0.492434387815052
30
0
41
1
10
47.4178510557806
20
0.788592607109138
30
0
41
1
10
46.5139197564436
20
1.2219672276963
30
-1E-16
41
1
10
46.2116467309036
20
1.36486180743546
30
-1E-16
41
1
10
45.6096379198306
20
1.64409004923496
30
-1E-16
41
1
10
45.3096580403828
20
1.7805050490978
30
-1E-16
41
1
10
44.4117769692881
20
2.17841611915259
30
-1E-16
41
1
10
43.8159904341858
20
2.42867373915794
30
-1E-16
41
1
10
42.6249849057365
20
2.890938205569
30
-2E-16
41
1
10
42.0298120500505
20
3.10302349938451
30
-2E-16
41
1
10
40.8351927622684
20
3.48142700283626
30
-2E-16
41
1
10
40.2354217867529
20
3.64784955417218
30
2E-16
41
1
10
39.0278798057516
20
3.92706422269566
30
0
41
1
10
38.4264034336923
20
4.038493716771
30
0
41
1
10
37.5236608910733
20
4.16080568978717
30
0
41
1
10
37.2226816087656
20
4.19412309053135
30
0
41
1
10
36.6199203041121
20
4.2454710641363
30
0
41
1
10
36.3177588778959
20
4.26350104001594
30
0
41
1
10
35.8171886691694
20
4.28044085105421
30
0
41
1
10
35.6183621456995
20
4.28377881448893
30
0
41
1
10
35.4196358510237
20
4.28373288411066
30
0
0
SPLINE
5
D4
100
AcDbEntity
8
1
62
256
6
ByLayer
370
18
48
1
60
0
100
AcDbSpline
70
4
71
3
72
16
73
12
40
0
40
0
40
0
40
0
40
0.0111248366829217
40
0.0111248366829217
40
0.505562418341461
40
0.505562418341461
40
0.629171813756097
40
0.629171813756097
40
0.752781209170732
40
0.752781209170732
40
1
40
1
40
1
40
1
41
1
10
10.8437073203646
20
-4.072788456269
30
0
41
1
10
10.8168705984194
20
-4.07673145152398
30
0
41
1
10
10.7900357258212
20
-4.08061535705662
30
0
41
1
10
9.57061253013691
20
-4.25442627637503
30
0
41
1
10
8.38136238345618
20
-4.30725169245403
30
0
41
1
10
6.87443054266845
20
-4.21762610697266
30
0
41
1
10
6.57186284366671
20
-4.19189280216889
30
0
41
1
10
5.96866805079176
20
-4.12540034151337
30
0
41
1
10
5.6674680502116
20
-4.08461787489216
30
0
41
1
10
4.7639808117828
20
-3.94038704876766
30
0
41
1
10
4.16179673366992
20
-3.81509755550303
30
0
41
1
10
3.55751785951514
20
-3.66228087355265
30
-2E-16
0
SPLINE
5
D5
100
AcDbEntity
8
1
62
256
6
ByLayer
370
18
48
1
60
0
100
AcDbSpline
70
4
71
3
72
8
73
4
40
0
40
0
40
0
40
0
40
1
40
1
40
1
40
1
41
1
10
62.9960346862357
20
0.237400226254266
30
0
41
1
10
62.9774610262928
20
0.175492779077388
30
0
41
1
10
62.9587947538785
20
0.113614348889087
30
0
41
1
10
62.9400362159706
20
0.0517648269755568
30
0
0
SPLINE
5
D6
100
AcDbEntity
8
1
62
256
6
ByLayer
370
18
48
1
60
0
100
AcDbSpline
70
4
71
3
72
16
73
12
40
0
40
0
40
0
40
0
40
0.500000000000005
40
0.500000000000005
40
0.625000000000003
40
0.625000000000003
40
0.750000000000002
40
0.750000000000002
40
0.875000000000001
40
0.875000000000001
40
1
40
1
40
1
40
1
41
1
10
61.5061924157395
20
4.12227908594164
30
0
41
1
10
61.6751372496654
20
3.64641312235574
30
0
41
1
10
61.8408000303288
20
3.16401526773842
30
0
41
1
10
62.0534321893047
20
2.5628880991479
30
0
41
1
10
62.0975748800468
20
2.4429407858124
30
0
41
1
10
62.1891500630022
20
2.20896629389165
30
0
41
1
10
62.2367078039416
20
2.09430688179736
30
0
41
1
10
62.3365700190687
20
1.87009763614742
30
0
41
1
10
62.3891383448235
20
1.76006774151165
30
0
41
1
10
62.4989864052994
20
1.54779577640178
30
0
41
1
10
62.5556092602824
20
1.4467256172972
30
0
41
1
10
62.6141200537081
20
1.35034338809464
30
0
0
SPLINE
5
D7
100
AcDbEntity
8
1
62
256
6
ByLayer
370
18
48
1
60
0
100
AcDbSpline
70
4
71
3
72
8
73
4
40
0
40
0
40
0
40
0
40
1
40
1
40
1
40
1
41
1
10
61.2239337492391
20
-4.24465206691127
30
0
41
1
10
61.297696007481
20
-4.20208407933961
30
0
41
1
10
61.3716224647031
20
-4.15875535975664
30
0
41
1
10
61.4457385702144
20
-4.1146858082524
30
0
0
SPLINE
5
D8
100
AcDbEntity
8
1
62
256
6
ByLayer
370
18
48
1
60
0
100
AcDbSpline
70
4
71
3
72
8
73
4
40
0
40
0
40
0
40
0
40
1
40
1
40
1
40
1
41
1
10
61.4991223626816
20
4.12703966246804
30
0
41
1
10
61.5014790094116
20
4.12545296307044
30
0
41
1
10
61.5038356936698
20
4.12386610420333
30
0
41
1
10
61.5061924157396
20
4.12227908594167
30
0
0
SPLINE
5
D9
100
AcDbEntity
8
1
62
256
6
ByLayer
370
18
48
1
60
0
100
AcDbSpline
70
4
71
3
72
28
73
24
40
0
40
0
40
0
40
0
40
0.0908265193180196
40
0.0908265193180196
40
0.181653038636039
40
0.181653038636039
40
0.27247955795406
40
0.27247955795406
40
0.363306077272081
40
0.363306077272081
40
0.54495911590812
40
0.54495911590812
40
0.635785635226139
40
0.635785635226139
40
0.726612154544159
40
0.726612154544159
40
0.817438673862178
40
0.817438673862178
40
0.908265193180198
40
0.908265193180198
40
0.999091712498217
40
0.999091712498217
40
1
40
1
40
1
40
1
41
1
10
20.0000000000001
20
0.292293667195707
30
0
41
1
10
20.4303018760893
20
0.0804077828853167
30
0
41
1
10
20.860107769664
20
-0.132431181163895
30
0
41
1
10
21.720685179381
20
-0.556040887511273
30
0
41
1
10
22.1512515535651
20
-0.766735346003429
30
0
41
1
10
23.0101306056347
20
-1.17979643237959
30
1E-16
41
1
10
23.4390790338797
20
-1.38246417288531
30
1E-16
41
1
10
24.2977385273019
20
-1.77668712655617
30
1E-16
41
1
10
24.7280657227469
20
-1.96849907091897
30
1E-16
41
1
10
26.0186695531715
20
-2.51995258289108
30
2E-16
41
1
10
26.875018284929
20
-2.85399223519707
30
2E-16
41
1
10
28.1646073756379
20
-3.28706922341465
30
2E-16
41
1
10
28.5954105072827
20
-3.42006148351408
30
2E-16
41
1
10
29.4542930920423
20
-3.65908960981267
30
-2E-16
41
1
10
29.8831462502175
20
-3.76541421706625
30
-2E-16
41
1
10
30.7415349037773
20
-3.94981420660761
30
0
41
1
10
31.1715355510455
20
-4.02795144580909
30
0
41
1
10
32.0320453717632
20
-4.15394817875594
30
0
41
1
10
32.4612163284097
20
-4.20164562256534
30
0
41
1
10
33.3192906159672
20
-4.26582035469326
30
0
41
1
10
33.7482034424213
20
-4.28229822118084
30
0
41
1
10
34.1822021550012
20
-4.28296269474853
30
0
41
1
10
34.1864993863627
20
-4.28296768330455
30
0
41
1
10
34.1907967251497
20
-4.28297108158486
30
0
0
SPLINE
5
DA
100
AcDbEntity
8
1
62
256
6
ByLayer
370
18
48
1
60
0
100
AcDbSpline
70
4
71
3
72
14
73
10
40
0
40
0
40
0
40
0
40
0.132321307299257
40
0.132321307299257
40
0.421547538199504
40
0.421547538199504
40
0.710773769099751
40
0.710773769099751
40
1
40
1
40
1
40
1
41
1
10
56.7794652581411
20
3.70059454551964
30
2E-16
41
1
10
56.9761452653974
20
3.75028657107404
30
2E-16
41
1
10
57.1728450520957
20
3.79712350365222
30
2E-16
41
1
10
57.7998177299064
20
3.93696339498865
30
0
41
1
10
58.2301371808908
20
4.01874759714903
30
0
41
1
10
59.0899057271427
20
4.15194769568831
30
0
41
1
10
59.5194111931908
20
4.2033979993067
30
0
41
1
10
60.379640969412
20
4.27498018912826
30
0
41
1
10
60.80977247918
20
4.29504026940157
30
0
41
1
10
61.2398674074333
20
4.29917277342318
30
0
0
SPLINE
5
DB
100
AcDbEntity
8
1
62
256
6
ByLayer
370
18
48
1
60
0
100
AcDbSpline
70
4
71
3
72
10
73
6
40
0
40
0
40
0
40
0
40
0.5
40
0.5
40
1
40
1
40
1
40
1
41
1
10
3.5592090956392
20
-3.48162669397658
30
2E-16
41
1
10
3.53926557820168
20
-3.4853511170289
30
2E-16
41
1
10
3.52495995179407
20
-3.49107122066059
30
2E-16
41
1
10
3.5062448358951
20
-3.50343811321622
30
2E-16
41
1
10
3.50171977548737
20
-3.51021945745518
30
2E-16
41
1
10
3.50171977548737
20
-3.5168388534064
30
2E-16
0
SPLINE
5
DC
100
AcDbEntity
8
1
62
256
6
ByLayer
370
18
48
1
60
0
100
AcDbSpline
70
4
71
3
72
30
73
26
40
0
40
0
40
0
40
0
40
0.125000000000004
40
0.125000000000004
40
0.187500000000006
40
0.187500000000006
40
0.250000000000007
40
0.250000000000007
40
0.312500000000009
40
0.312500000000009
40
0.375000000000011
40
0.375000000000011
40
0.437500000000013
40
0.437500000000013
40
0.500000000000015
40
0.500000000000015
40
0.562500000000017
40
0.562500000000017
40
0.625000000000019
40
0.625000000000019
40
0.750000000000012
40
0.750000000000012
40
0.875000000000006
40
0.875000000000006
40
1
40
1
40
1
40
1
41
1
10
62.9400362159706
20
0.0517648269755568
30
0
41
1
10
62.9192214736347
20
-0.0168642883931795
30
0
41
1
10
62.895290668441
20
-0.0839243902409521
30
0
41
1
10
62.8545443941279
20
-0.181991852850871
30
0
41
1
10
62.840017827818
20
-0.214510299725646
30
0
41
1
10
62.8099979090555
20
-0.276949833965716
30
0
41
1
10
62.7944971995552
20
-0.306936749932078
30
0
41
1
10
62.7625369723721
20
-0.364368288191144
30
0
41
1
10
62.7460781129406
20
-0.391814579590004
30
0
41
1
10
62.7121523904065
20
-0.443939759694871
30
0
41
1
10
62.6947254581571
20
-0.46850045663362
30
0
41
1
10
62.660267801855
20
-0.512697017418816
30
0
41
1
10
62.6430627468588
20
-0.532612072467174
30
0
41
1
10
62.6086772853441
20
-0.567985146824128
30
0
41
1
10
62.5913401752646
20
-0.583540068818621
30
0
41
1
10
62.5577806676787
20
-0.60904623224215
30
0
41
1
10
62.541477597178
20
-0.619124634935531
30
0
41
1
10
62.509699776981
20
-0.634141548345951
30
0
41
1
10
62.4941093471208
20
-0.639081468722338
30
0
41
1
10
62.4495369938237
20
-0.64601357246454
30
0
41
1
10
62.4223890721519
20
-0.640343558576376
30
0
41
1
10
62.3730361189152
20
-0.6115443616753
30
0
41
1
10
62.3513059825965
20
-0.588878840490224
30
0
41
1
10
62.3119673814956
20
-0.529951384804207
30
0
41
1
10
62.2944183325144
20
-0.493546082436694
30
0
41
1
10
62.278900746547
20
-0.452123657693363
30
0
0
SPLINE
5
DD
100
AcDbEntity
8
1
62
256
6
ByLayer
370
18
48
1
60
0
100
AcDbSpline
70
4
71
3
72
8
73
4
40
0
40
0
40
0
40
0
40
1
40
1
40
1
40
1
41
1
10
61.4991223608278
20
-4.12703966371612
30
0
41
1
10
61.5014790081758
20
-4.1254529639026
30
0
41
1
10
61.5038356930518
20
-4.12386610461942
30
0
41
1
10
61.5061924157395
20
-4.12227908594167
30
0
0
SPLINE
5
DE
100
AcDbEntity
8
1
62
256
6
ByLayer
370
18
48
1
60
0
100
AcDbSpline
70
4
71
3
72
10
73
6
40
0
40
0
40
0
40
0
40
0.5
40
0.5
40
1
40
1
40
1
40
1
41
1
10
3.55751785951514
20
-3.66228087355268
30
-2E-16
41
1
10
3.54073176714408
20
-3.65803582205612
30
-2E-16
41
1
10
3.52660622301619
20
-3.65141253633206
30
-2E-16
41
1
10
3.50707483814523
20
-3.63511226958136
30
-2E-16
41
1
10
3.50171977548737
20
-3.62542305837306
30
2E-16
41
1
10
3.50171977548737
20
-3.615503651213
30
2E-16
0
SPLINE
5
DF
100
AcDbEntity
8
1
62
256
6
ByLayer
370
18
48
1
60
0
100
AcDbSpline
70
4
71
3
72
24
73
20
40
0
40
0
40
0
40
0
40
0.0245888864596845
40
0.0245888864596845
40
0.0887902842070072
40
0.0887902842070072
40
0.152991681954331
40
0.152991681954331
40
0.281394477448979
40
0.281394477448979
40
0.538200068438274
40
0.538200068438274
40
0.602401466185599
40
0.602401466185599
40
0.666602863932924
40
0.666602863932924
40
0.795005659427576
40
0.795005659427576
40
1
40
1
40
1
40
1
41
1
10
21.344312520359
20
0.230486745170339
30
0
41
1
10
21.4594481353669
20
0.176591245655118
30
0
41
1
10
21.5746522927981
20
0.122610993466395
30
0
41
1
10
21.9909671054964
20
-0.0724693122122062
30
0
41
1
10
22.2925230976897
20
-0.213995334601549
30
0
41
1
10
22.8972961168498
20
-0.496731557048918
30
0
41
1
10
23.2010249955439
20
-0.638022758301133
30
0
41
1
10
24.1124929487056
20
-1.05756116560119
30
1E-16
41
1
10
24.715595764139
20
-1.32976720978431
30
1E-16
41
1
10
26.519724766205
20
-2.10907339176964
30
1E-16
41
1
10
27.7143866217547
20
-2.57927331080833
30
2E-16
41
1
10
29.2211846305053
20
-3.0636480029105
30
2E-16
41
1
10
29.5231901095124
20
-3.1553394161981
30
2E-16
41
1
10
30.1291064245662
20
-3.32731482643806
30
2E-16
41
1
10
30.433411063153
20
-3.40774282425926
30
2E-16
41
1
10
31.3445935512399
20
-3.62933212360764
30
0
41
1
10
31.9514633581875
20
-3.75100558565765
30
0
41
1
10
33.5293788992459
20
-3.99404491150477
30
0
41
1
10
34.4881797229425
20
-4.06864362628505
30
0
41
1
10
35.4452348286035
20
-4.06888494906005
30
0
0
SPLINE
5
E0
100
AcDbEntity
8
1
62
256
6
ByLayer
370
18
48
1
60
0
100
AcDbSpline
70
4
71
3
72
64
73
60
40
0
40
0
40
0
40
0
40
0.0227462848907905
40
0.0227462848907905
40
0.0526363516069445
40
0.0526363516069445
40
0.0825264183230986
40
0.0825264183230986
40
0.112416485039253
40
0.112416485039253
40
0.142306551755407
40
0.142306551755407
40
0.172196618471561
40
0.172196618471561
40
0.202086685187715
40
0.202086685187715
40
0.231976751903869
40
0.231976751903869
40
0.261866818620023
40
0.261866818620023
40
0.291756885336177
40
0.291756885336177
40
0.321646952052331
40
0.321646952052331
40
0.351537018768485
40
0.351537018768485
40
0.381427085484639
40
0.381427085484639
40
0.411317152200793
40
0.411317152200793
40
0.441207218916947
40
0.441207218916947
40
0.471097285633101
40
0.471097285633101
40
0.500987352349255
40
0.500987352349255
40
0.560767485781563
40
0.560767485781563
40
0.590657552497717
40
0.590657552497717
40
0.62054761921387
40
0.62054761921387
40
0.680327752646176
40
0.680327752646176
40
0.740107886078482
40
0.740107886078482
40
0.799888019510788
40
0.799888019510788
40
0.829778086226941
40
0.829778086226941
40
0.859668152943093
40
0.859668152943093
40
0.919448286375397
40
0.919448286375397
40
0.949338353091549
40
0.949338353091549
40
0.979228419807702
40
0.979228419807702
40
1
40
1
40
1
40
1
41
1
10
17.2967818859667
20
4.06783821155634
30
0
41
1
10
17.5220493569669
20
4.10197575645574
30
0
41
1
10
17.7469789805231
20
4.13196261500826
30
0
41
1
10
18.2672702511836
20
4.19147714020073
30
0
41
1
10
18.5626215087166
20
4.21792089987807
30
0
41
1
10
19.1529716352964
20
4.25619475368873
30
0
41
1
10
19.4479371242686
20
4.26797490438472
30
0
41
1
10
20.0389794126642
20
4.27653502271292
30
0
41
1
10
20.3349397365585
20
4.27337640953246
30
0
41
1
10
20.9277359750624
20
4.25201373694983
30
0
41
1
10
21.2245399429522
20
4.23374864615744
30
0
41
1
10
21.820475790109
20
4.18225124791735
30
0
41
1
10
22.1200329721211
20
4.14893334774732
30
0
41
1
10
22.7178856677616
20
4.06746614401672
30
0
41
1
10
23.0161149517608
20
4.0192808719749
30
0
41
1
10
23.6128731298904
20
3.90927748471603
30
0
41
1
10
23.9111952032377
20
3.84735480780748
30
0
41
1
10
24.507729764881
20
3.70961359938903
30
2E-16
41
1
10
24.8058968884947
20
3.63369386829564
30
2E-16
41
1
10
25.4038455054348
20
3.46963365020227
30
-2E-16
41
1
10
25.7034175900613
20
3.38121818537201
30
-2E-16
41
1
10
26.3007022338809
20
3.19261077536262
30
-2E-16
41
1
10
26.5987488825749
20
3.09222303981105
30
-2E-16
41
1
10
27.1953100877949
20
2.88164922212141
30
-2E-16
41
1
10
27.4936039870114
20
2.7711775710473
30
-2E-16
41
1
10
28.0903724655986
20
2.54003711484918
30
-2E-16
41
1
10
28.3889385284138
20
2.41948049015565
30
-1E-16
41
1
10
28.9874853642758
20
2.17017232023358
30
-1E-16
41
1
10
29.2862806809264
20
2.04180430601954
30
-1E-16
41
1
10
29.8829802630512
20
1.77777975381107
30
-1E-16
41
1
10
30.1810143874247
20
1.6423474690304
30
-1E-16
41
1
10
30.7775175430439
20
1.3666677660556
30
-1E-16
41
1
10
31.0758809780529
20
1.2262312228201
30
-1E-16
41
1
10
31.6729679461372
20
0.940374578707889
30
-1E-16
41
1
10
31.9722343858408
20
0.795090255650052
30
0
41
1
10
32.8689607139193
20
0.357461681068941
30
0
41
1
10
33.4645403650093
20
0.0610664145185922
30
0
41
1
10
34.3594835316425
20
-0.380462305545905
30
0
41
1
10
34.6579949378122
20
-0.527260482298914
30
0
41
1
10
35.2555944806223
20
-0.819729581828852
30
1E-16
41
1
10
35.5548190839315
20
-0.964745478253519
30
1E-16
41
1
10
36.4505595539197
20
-1.39250340858462
30
1E-16
41
1
10
37.0459687910805
20
-1.66990782336938
30
1E-16
41
1
10
38.2397776364577
20
-2.19686278657372
30
1E-16
41
1
10
38.8382904888117
20
-2.44810909256381
30
1E-16
41
1
10
40.0317154501479
20
-2.90912409820154
30
2E-16
41
1
10
40.6270703500056
20
-3.12090822360375
30
2E-16
41
1
10
41.5230971437397
20
-3.40308316211099
30
2E-16
41
1
10
41.8224533959809
20
-3.49152738584138
30
2E-16
41
1
10
42.4195203705728
20
-3.6556144619847
30
-2E-16
41
1
10
42.7178240902746
20
-3.73093157401854
30
-2E-16
41
1
10
43.612515419482
20
-3.93653001502119
30
0
41
1
10
44.2079721620481
20
-4.04694355546192
30
0
41
1
10
45.1049186891669
20
-4.16821222938557
30
0
41
1
10
45.4036558809623
20
-4.20129850235358
30
0
41
1
10
45.9982084217915
20
-4.25226887092055
30
0
41
1
10
46.2948840854023
20
-4.2700782559011
30
0
41
1
10
46.7968140704144
20
-4.28758597674042
30
0
41
1
10
47.0023018036783
20
-4.2911410144998
30
0
41
1
10
47.2075983336753
20
-4.29108868115088
30
0
0
SPLINE
5
E1
100
AcDbEntity
8
1
62
256
6
ByLayer
370
18
48
1
60
0
100
AcDbSpline
70
4
71
3
72
28
73
24
40
0
40
0
40
0
40
0
40
0.124999999999999
40
0.124999999999999
40
0.187499999999998
40
0.187499999999998
40
0.249999999999997
40
0.249999999999997
40
0.374999999999997
40
0.374999999999997
40
0.437499999999997
40
0.437499999999997
40
0.499999999999998
40
0.499999999999998
40
0.624999999999998
40
0.624999999999998
40
0.687499999999998
40
0.687499999999998
40
0.749999999999999
40
0.749999999999999
40
0.874999999999999
40
0.874999999999999
40
1
40
1
40
1
40
1
41
1
10
60.976953844794
20
-0.0975981657242073
30
0
41
1
10
60.9865024439286
20
-0.340923399659005
30
0
41
1
10
61.0058739477948
20
-0.579243508519284
30
0
41
1
10
61.0426371540421
20
-0.930217768799054
30
1E-16
41
1
10
61.0562029851924
20
-1.04611537629549
30
1E-16
41
1
10
61.0850354660565
20
-1.27578773579904
30
1E-16
41
1
10
61.1003758957633
20
-1.39007645476661
30
1E-16
41
1
10
61.1471662591156
20
-1.72574762831056
30
1E-16
41
1
10
61.179102398469
20
-1.93886746080898
30
1E-16
41
1
10
61.2243264682427
20
-2.2434092454962
30
1E-16
41
1
10
61.2389745947549
20
-2.34238111363982
30
1E-16
41
1
10
61.2669975583086
20
-2.53516090533964
30
2E-16
41
1
10
61.280418020281
20
-2.62932020243142
30
2E-16
41
1
10
61.3176638440567
20
-2.89875506695211
30
2E-16
41
1
10
61.3386230955577
20
-3.06253319683114
30
2E-16
41
1
10
61.3647282712871
20
-3.28473324984304
30
2E-16
41
1
10
61.3725586615277
20
-3.35486519108619
30
2E-16
41
1
10
61.3867834422206
20
-3.48702227741779
30
2E-16
41
1
10
61.3931792829274
20
-3.54907828602737
30
2E-16
41
1
10
61.4106188530022
20
-3.71923128011358
30
0
41
1
10
61.4200103378305
20
-3.81283858751911
30
0
41
1
10
61.4404400497694
20
-3.96077522780968
30
0
41
1
10
61.4515620976852
20
-4.01517681395083
30
0
41
1
10
61.4673667176408
20
-4.0478819653913
30
0
0
SPLINE
5
E2
100
AcDbEntity
8
1
62
256
6
ByLayer
370
18
48
1
60
0
100
AcDbSpline
70
4
71
3
72
38
73
34
40
0
40
0
40
0
40
0
40
0.0611947264809483
40
0.0611947264809483
40
0.124674692818867
40
0.124674692818867
40
0.188154659156786
40
0.188154659156786
40
0.251634625494706
40
0.251634625494706
40
0.315114591832624
40
0.315114591832624
40
0.378594558170544
40
0.378594558170544
40
0.442074524508463
40
0.442074524508463
40
0.505554490846382
40
0.505554490846382
40
0.569034457184301
40
0.569034457184301
40
0.63251442352222
40
0.63251442352222
40
0.695994389860139
40
0.695994389860139
40
0.759474356198058
40
0.759474356198058
40
0.822954322535977
40
0.822954322535977
40
0.886434288873896
40
0.886434288873896
40
0.949914255211815
40
0.949914255211815
40
1
40
1
40
1
40
1
41
1
10
34.0855187100011
20
-0.243981044352068
30
0
41
1
10
33.7979225715593
20
-0.109231596689966
30
0
41
1
10
33.5098614615914
20
0.0264120965235577
30
0
41
1
10
32.9213600884303
20
0.302941709645182
30
0
41
1
10
32.6203978151359
20
0.443744539457924
30
0
41
1
10
32.0180846779833
20
0.723410864750377
30
0
41
1
10
31.7173818599398
20
0.862235050621223
30
-1E-16
41
1
10
31.1159733787822
20
1.13619659879438
30
-1E-16
41
1
10
30.8151234629764
20
1.27115648818503
30
-1E-16
41
1
10
30.2129344656387
20
1.53632644110618
30
-1E-16
41
1
10
29.9119296196511
20
1.66647167340341
30
-1E-16
41
1
10
29.3125052562641
20
1.91905535049375
30
-1E-16
41
1
10
29.0134625320704
20
2.04168966477107
30
-1E-16
41
1
10
28.4167572796715
20
2.27881413950041
30
-1E-16
41
1
10
28.1191535106809
20
2.39327164660423
30
-1E-16
41
1
10
27.5244114719449
20
2.61307939069675
30
-2E-16
41
1
10
27.227203933608
20
2.71847493907848
30
-2E-16
41
1
10
26.6329696460558
20
2.91925523245982
30
-2E-16
41
1
10
26.336122381497
20
3.0144279269914
30
-2E-16
41
1
10
25.741591197539
20
3.19426091712836
30
-2E-16
41
1
10
25.4439441049377
20
3.2789154798229
30
-2E-16
41
1
10
24.8477364284056
20
3.43644861712966
30
-2E-16
41
1
10
24.5493060236077
20
3.50891312553225
30
-2E-16
41
1
10
23.9505653101876
20
3.64200485417192
30
0
41
1
10
23.6502250750968
20
3.70262870295335
30
0
41
1
10
23.047679357019
20
3.81032128469832
30
0
41
1
10
22.7478648855342
20
3.8564894672993
30
0
41
1
10
22.149322824795
20
3.93556213827606
30
0
41
1
10
21.8506397331474
20
3.96840642049523
30
0
41
1
10
21.254558896254
20
4.0193354915711
30
0
41
1
10
20.9572940341897
20
4.0369741385496
30
0
41
1
10
20.4255385530101
20
4.05668950806071
30
0
41
1
10
20.1910615299731
20
4.06121249833564
30
0
41
1
10
19.9566351877549
20
4.06115659379685
30
0
0
SPLINE
5
E3
100
AcDbEntity
8
1
62
256
6
ByLayer
370
18
48
1
60
0
100
AcDbSpline
70
4
71
3
72
10
73
6
40
0
40
0
40
0
40
0
40
0.5
40
0.5
40
1
40
1
40
1
40
1
41
1
10
61.5061924157395
20
-4.12227908594167
30
0
41
1
10
61.4924529421098
20
-4.13137735805034
30
0
41
1
10
61.4807724975055
20
-4.13520603989201
30
0
41
1
10
61.4608771770657
20
-4.13245254581605
30
0
41
1
10
61.4527098276603
20
-4.12592513744866
30
0
41
1
10
61.4457385702144
20
-4.1146858082524
30
0
0
SPLINE
5
E4
100
AcDbEntity
8
1
62
256
6
ByLayer
370
18
48
1
60
0
100
AcDbSpline
70
4
71
3
72
8
73
4
40
0
40
0
40
0
40
0
40
1
40
1
40
1
40
1
41
1
10
60.868244628859
20
-0.0370665010936762
30
0
41
1
10
60.90289105972
20
-0.0537163017762623
30
0
41
1
10
60.9373217968894
20
-0.069433306658965
30
0
41
1
10
60.97157610613
20
-0.0842413742793724
30
0
0
SPLINE
5
E5
100
AcDbEntity
8
1
62
256
6
ByLayer
370
18
48
1
60
0
100
AcDbSpline
70
4
71
3
72
26
73
22
40
0
40
0
40
0
40
0
40
0.0274737106359789
40
0.0274737106359789
40
0.240489101199218
40
0.240489101199218
40
0.346996796480839
40
0.346996796480839
40
0.360310258391039
40
0.360310258391039
40
0.373623720301239
40
0.373623720301239
40
0.386937182211439
40
0.386937182211439
40
0.40025064412164
40
0.40025064412164
40
0.453504491762435
40
0.453504491762435
40
0.879535272888825
40
0.879535272888825
40
1
40
1
40
1
40
1
41
1
10
3.27567495544091
20
-4.2636642895599
30
0
41
1
10
3.30330501595219
20
-4.26364798523937
30
0
41
1
10
3.33111402058549
20
-4.26345882716629
30
0
41
1
10
3.5759918910453
20
-4.26041644110819
30
0
41
1
10
3.80354952496799
20
-4.24790228106662
30
0
41
1
10
4.15452188119076
20
-4.21932538892696
30
0
41
1
10
4.27300016030853
20
-4.20815148568965
30
0
41
1
10
4.4075991500431
20
-4.19405255964188
30
0
41
1
10
4.42257301253139
20
-4.19246468696375
30
0
41
1
10
4.45255626890406
20
-4.18924730219933
30
0
41
1
10
4.46768601581226
20
-4.18753431550221
30
0
41
1
10
4.50098959130173
20
-4.18590844392921
30
0
41
1
10
4.51848962116873
20
-4.18577662632444
30
0
41
1
10
4.55256612126891
20
-4.18633424759867
30
0
41
1
10
4.56919682239149
20
-4.18717500723719
30
0
41
1
10
4.6519745639005
20
-4.19169401776438
30
0
41
1
10
4.71808281419828
20
-4.19526003819587
30
0
41
1
10
5.31189246880302
20
-4.22680142590855
30
0
41
1
10
5.8316321380172
20
-4.25082894666357
30
0
41
1
10
6.48607877417197
20
-4.26368947977997
30
0
41
1
10
6.62954975798607
20
-4.26539043731512
30
0
41
1
10
6.7723140355686
20
-4.26576229339119
30
0
0
SPLINE
5
E6
100
AcDbEntity
8
1
62
256
6
ByLayer
370
18
48
1
60
0
100
AcDbSpline
70
4
71
3
72
16
73
12
40
0
40
0
40
0
40
0
40
0.500000000000001
40
0.500000000000001
40
0.625000000000001
40
0.625000000000001
40
0.750000000000001
40
0.750000000000001
40
0.875
40
0.875
40
1
40
1
40
1
40
1
41
1
10
61.5061924157395
20
-4.12227908594167
30
0
41
1
10
61.6751372496654
20
-3.64641312235571
30
0
41
1
10
61.8408000303288
20
-3.16401526773834
30
0
41
1
10
62.0534321893048
20
-2.56288809914776
30
0
41
1
10
62.0975748800469
20
-2.44294078581228
30
0
41
1
10
62.1891500630022
20
-2.20896629389162
30
0
41
1
10
62.2367078039416
20
-2.09430688179736
30
0
41
1
10
62.3365700190687
20
-1.87009763614739
30
0
41
1
10
62.3891383448236
20
-1.76006774151151
30
0
41
1
10
62.4989864052993
20
-1.54779577640176
30
0
41
1
10
62.5556092602823
20
-1.4467256172972
30
0
41
1
10
62.614120053708
20
-1.35034338809464
30
0
0
SPLINE
5
E7
100
AcDbEntity
8
1
62
256
6
ByLayer
370
18
48
1
60
0
100
AcDbSpline
70
4
71
3
72
8
73
4
40
0
40
0
40
0
40
0
40
1
40
1
40
1
40
1
41
1
10
60.868244628859
20
-0.0370665010936762
30
0
41
1
10
60.8574643412994
20
0.167519315174275
30
0
41
1
10
60.8539006429188
20
0.369486658554109
30
0
41
1
10
60.8596137790881
20
0.568849078005229
30
0
0
SPLINE
5
E8
100
AcDbEntity
8
1
62
256
6
ByLayer
370
18
48
1
60
0
100
AcDbSpline
70
4
71
3
72
8
73
4
40
0
40
0
40
0
40
0
40
1
40
1
40
1
40
1
41
1
10
62.6141200537081
20
1.35034338809461
30
0
41
1
10
62.74499833189
20
0.980641009923687
30
0
41
1
10
62.8723213095965
20
0.609666432802612
30
0
41
1
10
62.9960346862239
20
0.237400226257932
30
0
0
SPLINE
5
E9
100
AcDbEntity
8
1
62
256
6
ByLayer
370
18
48
1
60
0
100
AcDbSpline
70
4
71
3
72
10
73
6
40
0
40
0
40
0
40
0
40
0.5
40
0.5
40
1
40
1
40
1
40
1
41
1
10
3.5592090956392
20
-3.49402515502368
30
2E-16
41
1
10
3.53926430618716
20
-3.49645716483147
30
2E-16
41
1
10
3.52496266749162
20
-3.50018413024344
30
2E-16
41
1
10
3.50624759606259
20
-3.50820294487869
30
2E-16
41
1
10
3.50171977548737
20
-3.51258228487208
30
2E-16
41
1
10
3.50171977548737
20
-3.5168388534064
30
2E-16
0
SPLINE
5
EA
100
AcDbEntity
8
1
62
256
6
ByLayer
370
18
48
1
60
0
100
AcDbSpline
70
4
71
3
72
36
73
32
40
0
40
0
40
0
40
0
40
0.497598426066214
40
0.497598426066214
40
0.668556904293892
40
0.668556904293892
40
0.781481455686265
40
0.781481455686265
40
0.856129058810457
40
0.856129058810457
40
0.905425389377066
40
0.905425389377066
40
0.937983880221861
40
0.937983880221861
40
0.959566364016515
40
0.959566364016515
40
0.973905613876743
40
0.973905613876743
40
0.983429657907139
40
0.983429657907139
40
0.989645214056615
40
0.989645214056615
40
0.993664254283157
40
0.993664254283157
40
0.996331671436855
40
0.996331671436855
40
0.998649138811841
40
0.998649138811841
40
0.999794981086591
40
0.999794981086591
40
1
40
1
40
1
40
1
41
1
10
61.2398674074299
20
4.29917277341704
30
0
41
1
10
61.2827546724432
20
4.27108862538356
30
0
41
1
10
61.3257102754961
20
4.24275818505436
30
0
41
1
10
61.3835184957027
20
4.20437385804948
30
0
41
1
10
61.3983085788601
20
4.1945308038286
30
0
41
1
10
61.4228652056366
20
4.17815157810145
30
0
41
1
10
61.4326316550575
20
4.17162783994942
30
0
41
1
10
61.4488523408709
20
4.16077688566506
30
0
41
1
10
61.4553092663408
20
4.15645319660396
30
0
41
1
10
61.4660487132126
20
4.14925454366167
30
0
41
1
10
61.4703251615527
20
4.14638612850538
30
0
41
1
10
61.4774375264847
20
4.14161242956365
30
0
41
1
10
61.4802687261926
20
4.13971138756332
30
0
41
1
10
61.4849653811696
20
4.13655664642752
30
0
41
1
10
61.4868346885759
20
4.13530073545397
30
0
41
1
10
61.4899356174916
20
4.1332168699513
30
0
41
1
10
61.4911705382623
20
4.13238686089025
30
0
41
1
10
61.4932196889689
20
4.13100937379795
30
0
41
1
10
61.4940375102122
20
4.13045954063418
30
0
41
1
10
61.4954043247707
20
4.12954036760092
30
0
41
1
10
61.4959480165851
20
4.12917467827143
30
0
41
1
10
61.4968506622294
20
4.12856745279743
30
0
41
1
10
61.4972079179833
20
4.12832708798189
30
0
41
1
10
61.4977981167264
20
4.12793001556034
30
0
41
1
10
61.4980327002921
20
4.12777219761412
30
0
41
1
10
61.4984613734772
20
4.12748385850765
30
0
41
1
10
61.4986590627693
20
4.12735090431917
30
0
41
1
10
61.4989285885548
20
4.12716975498756
30
0
41
1
10
61.4990141259343
20
4.1271122886333
30
0
41
1
10
61.4990981542409
20
4.1270559012905
30
0
41
1
10
61.4991105237288
20
4.12704760398614
30
0
41
1
10
61.4991223647739
20
4.12703966239405
30
0
0
SPLINE
5
EB
100
AcDbEntity
8
1
62
256
6
ByLayer
370
18
48
1
60
0
100
AcDbSpline
70
4
71
3
72
28
73
24
40
0
40
0
40
0
40
0
40
0.129668081047507
40
0.129668081047507
40
0.259336162095013
40
0.259336162095013
40
0.38900424314252
40
0.38900424314252
40
0.518672324190027
40
0.518672324190027
40
0.58350636471378
40
0.58350636471378
40
0.648340405237534
40
0.648340405237534
40
0.77800848628504
40
0.77800848628504
40
0.842842526808794
40
0.842842526808794
40
0.907676567332547
40
0.907676567332547
40
0.9725106078563
40
0.9725106078563
40
1
40
1
40
1
40
1
41
1
10
60.9769538447921
20
-0.0975981657244347
30
0
41
1
10
60.3754038680725
20
0.186660331519931
30
0
41
1
10
59.7725997158138
20
0.471413383935982
30
0
41
1
10
58.5756205072959
20
1.02544357030143
30
-1E-16
41
1
10
57.9805740622638
20
1.29579075854858
30
-1E-16
41
1
10
56.7920475265323
20
1.81349358818409
30
-1E-16
41
1
10
56.198818584324
20
2.0608288321186
30
-1E-16
41
1
10
55.0091908818825
20
2.52412724065857
30
-2E-16
41
1
10
54.4129292538289
20
2.74007216666908
30
-2E-16
41
1
10
53.5132240732758
20
3.03414794895767
30
-2E-16
41
1
10
53.2116494293924
20
3.12733673769483
30
-2E-16
41
1
10
52.6110667432409
20
3.30077727286349
30
-2E-16
41
1
10
52.3118771651119
20
3.38126279386796
30
-2E-16
41
1
10
51.415487298967
20
3.60482187712444
30
0
41
1
10
50.8198384312282
20
3.72955114849651
30
0
41
1
10
49.9279936374234
20
3.8750036948058
30
0
41
1
10
49.6310126754251
20
3.91638776186716
30
0
41
1
10
49.037140302738
20
3.98403939650538
30
0
41
1
10
48.7399991488204
20
4.01096149655444
30
0
41
1
10
48.1444854608883
20
4.05190523017086
30
0
41
1
10
47.846205293846
20
4.06559083614701
30
0
41
1
10
47.4205898939414
20
4.07414626041762
30
0
41
1
10
47.2937423223687
20
4.07537149116584
30
0
41
1
10
47.1667442807305
20
4.07530822921447
30
0
0
SPLINE
5
EC
100
AcDbEntity
8
1
62
256
6
ByLayer
370
18
48
1
60
0
100
AcDbSpline
70
4
71
3
72
12
73
8
40
0
40
0
40
0
40
0
40
0.147484737443218
40
0.147484737443218
40
0.431656491628811
40
0.431656491628811
40
1
40
1
40
1
40
1
41
1
10
6.79580142176621
20
-0.202734257632642
30
0
41
1
10
6.64112682649903
20
-0.130299174135189
30
0
41
1
10
6.48644745939754
20
-0.0578517995370191
30
0
41
1
10
6.03349992582349
20
0.153739766078672
30
0
41
1
10
5.73516777126633
20
0.292807255761545
30
0
41
1
10
4.8394455472135
20
0.708703142305893
30
0
41
1
10
4.24135199319585
20
0.984272840884557
30
-1E-16
41
1
10
3.6404543308382
20
1.25414432581425
30
-1E-16
0
SPLINE
5
ED
100
AcDbEntity
8
1
62
256
6
ByLayer
370
18
48
1
60
0
100
AcDbSpline
70
4
71
3
72
14
73
10
40
0
40
0
40
0
40
0
40
0.271178262457402
40
0.271178262457402
40
0.507366618670217
40
0.507366618670217
40
0.782147410310215
40
0.782147410310215
40
1
40
1
40
1
40
1
41
1
10
60.9715761061352
20
-0.0842413742819019
30
0
41
1
10
60.972316031926
20
-0.0845612426834919
30
0
41
1
10
60.9730434138091
20
-0.0852512595414225
30
0
41
1
10
60.9742585716246
20
-0.0869801180607794
30
0
41
1
10
60.9747819172576
20
-0.0879858563569371
30
0
41
1
10
60.9757531785307
20
-0.0904307372642563
30
0
41
1
10
60.9761904104245
20
-0.0919518457346555
30
0
41
1
10
60.9767365313388
20
-0.0948500330663933
30
0
41
1
10
60.9769000027359
20
-0.0962261182446582
30
0
41
1
10
60.976953844794
20
-0.097598165725401
30
0
0
SPLINE
5
EE
100
AcDbEntity
8
1
62
256
6
ByLayer
370
18
48
1
60
0
100
AcDbSpline
70
4
71
3
72
58
73
54
40
0
40
0
40
0
40
0
40
0.124999999999999
40
0.124999999999999
40
0.187499999999998
40
0.187499999999998
40
0.218749999999997
40
0.218749999999997
40
0.249999999999997
40
0.249999999999997
40
0.312499999999995
40
0.312499999999995
40
0.343749999999994
40
0.343749999999994
40
0.359374999999994
40
0.359374999999994
40
0.374999999999994
40
0.374999999999994
40
0.406249999999994
40
0.406249999999994
40
0.437499999999994
40
0.437499999999994
40
0.453124999999994
40
0.453124999999994
40
0.468749999999994
40
0.468749999999994
40
0.484374999999993
40
0.484374999999993
40
0.499999999999993
40
0.499999999999993
40
0.531249999999993
40
0.531249999999993
40
0.562499999999993
40
0.562499999999993
40
0.624999999999992
40
0.624999999999992
40
0.687499999999992
40
0.687499999999992
40
0.718749999999992
40
0.718749999999992
40
0.722656249999992
40
0.722656249999992
40
0.726562499999991
40
0.726562499999991
40
0.730468749999991
40
0.730468749999991
40
0.734374999999991
40
0.734374999999991
40
0.749999999999992
40
0.749999999999992
40
0.874999999999996
40
0.874999999999996
40
1
40
1
40
1
40
1
41
1
10
5.91598194306101
20
0.853225837790347
30
-1E-16
41
1
10
5.41939410946975
20
1.09264626945256
30
-1E-16
41
1
10
4.93389832488219
20
1.34363462504882
30
-1E-16
41
1
10
4.22986945776819
20
1.74345756265012
30
-1E-16
41
1
10
3.99927308376851
20
1.88065956851335
30
-1E-16
41
1
10
3.661593664392
20
2.09409071664607
30
-1E-16
41
1
10
3.55044573503198
20
2.16651159246061
30
-1E-16
41
1
10
3.33351142477966
20
2.31298381260328
30
-1E-16
41
1
10
3.22748210320043
20
2.38718091509603
30
-1E-16
41
1
10
2.91822731475722
20
2.61314807845804
30
-2E-16
41
1
10
2.72231085143784
20
2.76941270268677
30
-2E-16
41
1
10
2.46686575123849
20
3.00461785199732
30
-2E-16
41
1
10
2.38782553136684
20
3.08338677546388
30
-2E-16
41
1
10
2.28121644931033
20
3.20220520368113
30
-2E-16
41
1
10
2.24768525255607
20
3.24192295052592
30
-2E-16
41
1
10
2.18534521440324
20
3.32161527529686
30
-2E-16
41
1
10
2.15668542565672
20
3.36144598621627
30
-2E-16
41
1
10
2.08077036790462
20
3.47852574694988
30
-2E-16
41
1
10
2.04281282727067
20
3.55421100329573
30
-2E-16
41
1
10
1.99801161259367
20
3.69978739043364
30
2E-16
41
1
10
1.99220990681909
20
3.76681408876971
30
2E-16
41
1
10
2.00846282380527
20
3.85798334618835
30
0
41
1
10
2.01807810202513
20
3.8869426368669
30
0
41
1
10
2.04550228763321
20
3.94146412052854
30
0
41
1
10
2.06307817593998
20
3.96664237867825
30
0
41
1
10
2.10517916950911
20
4.01328105877309
30
0
41
1
10
2.12970612637429
20
4.03474047608339
30
0
41
1
10
2.18510505611462
20
4.07429410843037
30
0
41
1
10
2.216129518152
20
4.09244148326886
30
0
41
1
10
2.31604997866066
20
4.14143072867242
30
0
41
1
10
2.39204278661757
20
4.1672355336525
30
0
41
1
10
2.55822662887653
20
4.20868982857934
30
0
41
1
10
2.64885785210782
20
4.22435174680945
30
0
41
1
10
2.93526774420633
20
4.2589781633281
30
0
41
1
10
3.14218632600256
20
4.26580608289382
30
0
41
1
10
3.57599189104644
20
4.26041644110813
30
0
41
1
10
3.80354952496918
20
4.24790228106653
30
0
41
1
10
4.15452188119201
20
4.21932538892685
30
0
41
1
10
4.27300016030983
20
4.20815148568954
30
0
41
1
10
4.40759915004438
20
4.19405255964173
30
0
41
1
10
4.42257301253267
20
4.19246468696363
30
0
41
1
10
4.45255626890534
20
4.18924730219919
30
0
41
1
10
4.46768601581368
20
4.18753431550206
30
0
41
1
10
4.50098959130327
20
4.18590844392918
30
0
41
1
10
4.51848962117023
20
4.18577662632444
30
0
41
1
10
4.55256612127039
20
4.18633424759872
30
0
41
1
10
4.56919682239294
20
4.18717500723724
30
0
41
1
10
4.65197456390189
20
4.19169401776443
30
0
41
1
10
4.71808281419968
20
4.19526003819593
30
0
41
1
10
5.3118924688041
20
4.2268014259086
30
0
41
1
10
5.83163213801799
20
4.2508289466636
30
0
41
1
10
6.85200433652199
20
4.27088028427454
30
0
41
1
10
7.35231529054636
20
4.26672388698705
30
0
41
1
10
7.8464156376709
20
4.23975144007187
30
0
0
SPLINE
5
EF
100
AcDbEntity
8
1
62
256
6
ByLayer
370
18
48
1
60
0
100
AcDbSpline
70
4
71
3
72
26
73
22
40
0
40
0
40
0
40
0
40
0.137937873805644
40
0.137937873805644
40
0.275875747611287
40
0.275875747611287
40
0.41381362141693
40
0.41381362141693
40
0.482782558319751
40
0.482782558319751
40
0.551751495222571
40
0.551751495222571
40
0.620720432125392
40
0.620720432125392
40
0.689689369028212
40
0.689689369028212
40
0.827627242833856
40
0.827627242833856
40
0.965565116639499
40
0.965565116639499
40
1
40
1
40
1
40
1
41
1
10
60.8596137790878
20
0.568849077996418
30
0
41
1
10
60.2859962227118
20
0.851001638530107
30
-1E-16
41
1
10
59.7161137129689
20
1.1292583226849
30
-1E-16
41
1
10
58.5766727820658
20
1.66387444760389
30
-1E-16
41
1
10
58.007715629062
20
1.92151840628341
30
-1E-16
41
1
10
56.8681724529503
20
2.41132248024388
30
-1E-16
41
1
10
56.2964107397277
20
2.64139803358506
30
-2E-16
41
1
10
55.4340097754383
20
2.96095357263042
30
-2E-16
41
1
10
55.1452709082188
20
3.06373592921935
30
-2E-16
41
1
10
54.5697615998524
20
3.25738160193669
30
-2E-16
41
1
10
54.2827513877865
20
3.34833802458093
30
-2E-16
41
1
10
53.7100200616075
20
3.5185969341855
30
-2E-16
41
1
10
53.4242764771669
20
3.59787424088461
30
-2E-16
41
1
10
52.8539930637637
20
3.74471464473561
30
2E-16
41
1
10
52.5694026615145
20
3.81218215145387
30
0
41
1
10
51.7152924365017
20
3.99491524180627
30
0
41
1
10
51.1456743325477
20
4.09100813434671
30
0
41
1
10
50.0048515365678
20
4.23031680049536
30
0
41
1
10
49.4322403068113
20
4.272673485361
30
0
41
1
10
48.711846974207
20
4.29019546339362
30
0
41
1
10
48.5678298760767
20
4.29191636691041
30
0
41
1
10
48.4239571068797
20
4.29185848099368
30
0
0
SPLINE
5
F0
100
AcDbEntity
8
1
62
256
6
ByLayer
370
18
48
1
60
0
100
AcDbSpline
70
4
71
3
72
50
73
46
40
0
40
0
40
0
40
0
40
0.0144033345718751
40
0.0144033345718751
40
0.090218462681731
40
0.090218462681731
40
0.166033590791587
40
0.166033590791587
40
0.203941154846515
40
0.203941154846515
40
0.241848718901443
40
0.241848718901443
40
0.279756282956371
40
0.279756282956371
40
0.317663847011299
40
0.317663847011299
40
0.393478975121156
40
0.393478975121156
40
0.431386539176084
40
0.431386539176084
40
0.469294103231012
40
0.469294103231012
40
0.545109231340868
40
0.545109231340868
40
0.583016795395796
40
0.583016795395796
40
0.620924359450724
40
0.620924359450724
40
0.696739487560579
40
0.696739487560579
40
0.734647051615507
40
0.734647051615507
40
0.772554615670434
40
0.772554615670434
40
0.810462179725362
40
0.810462179725362
40
0.84836974378029
40
0.84836974378029
40
0.886277307835217
40
0.886277307835217
40
0.924184871890145
40
0.924184871890145
40
0.962092435945072
40
0.962092435945072
40
1
40
1
40
1
40
1
41
1
10
28.5862471077969
20
-2.82939181191455
30
2E-16
41
1
10
28.4766394259577
20
-2.87007565845346
30
2E-16
41
1
10
28.3670575648698
20
-2.91003094665965
30
2E-16
41
1
10
27.6817741346957
20
-3.15510242730173
30
2E-16
41
1
10
27.1094373669059
20
-3.33995578668689
30
2E-16
41
1
10
25.9688304981246
20
-3.6642365526165
30
-2E-16
41
1
10
25.3993379623986
20
-3.80223158027454
30
0
41
1
10
24.5445688541271
20
-3.97173457253945
30
0
41
1
10
24.2597837225992
20
-4.02212305563037
30
0
41
1
10
23.6890559535434
20
-4.10944853381375
30
0
41
1
10
23.4030678862808
20
-4.14639373151908
30
0
41
1
10
22.8296373196998
20
-4.20671147083706
30
0
41
1
10
22.5421936937614
20
-4.23008797479062
30
0
41
1
10
21.9657283459217
20
-4.26290394789007
30
0
41
1
10
21.676913519065
20
-4.27224307758866
30
0
41
1
10
20.8144601092659
20
-4.27869994908971
30
0
41
1
10
20.2422056775386
20
-4.25480018779814
30
0
41
1
10
19.3870868715221
20
-4.17760106584649
30
0
41
1
10
19.1023688253906
20
-4.14499504025196
30
0
41
1
10
18.5326028759232
20
-4.06667097033628
30
0
41
1
10
18.2476352219816
20
-4.02093536099417
30
0
41
1
10
17.3923416907402
20
-3.86409679208279
30
0
41
1
10
16.8219679408377
20
-3.7328277572644
30
-2E-16
41
1
10
15.9606767202938
20
-3.50038149412143
30
2E-16
41
1
10
15.6727781339548
20
-3.41685623090169
30
2E-16
41
1
10
15.0950126932052
20
-3.23790739645563
30
2E-16
41
1
10
14.8070341627594
20
-3.14269281051159
30
2E-16
41
1
10
13.9458393646353
20
-2.84331594838807
30
2E-16
41
1
10
13.3740926014864
20
-2.6259803701158
30
2E-16
41
1
10
12.5187953481428
20
-2.27594658354425
30
1E-16
41
1
10
12.2342159359323
20
-2.15499761429447
30
1E-16
41
1
10
11.6645756462555
20
-1.90726397508322
30
1E-16
41
1
10
11.3795277859081
20
-1.7804797036026
30
1E-16
41
1
10
10.8089292740559
20
-1.52119720557974
30
1E-16
41
1
10
10.5233249953386
20
-1.38880363262382
30
1E-16
41
1
10
9.95151727889953
20
-1.11836046892316
30
1E-16
41
1
10
9.66512974474796
20
-0.980663936869604
30
1E-16
41
1
10
9.09024984376958
20
-0.702632679560679
30
0
41
1
10
8.8014382043574
20
-0.561980683178263
30
0
41
1
10
8.22359864739002
20
-0.27872050657723
30
0
41
1
10
7.93508888027026
20
-0.136565651407835
30
0
41
1
10
7.35897343711127
20
0.148959306641388
30
0
41
1
10
7.07116314755882
20
0.291909559370623
30
0
41
1
10
6.49433178935561
20
0.574723620022809
30
0
41
1
10
6.20544555964131
20
0.714862968951621
30
0
41
1
10
5.91585831256498
20
0.853273506078608
30
-1E-16
0
SPLINE
5
F1
100
AcDbEntity
8
1
62
256
6
ByLayer
370
18
48
1
60
0
100
AcDbSpline
70
4
71
3
72
8
73
4
40
0
40
0
40
0
40
0
40
1
40
1
40
1
40
1
41
1
10
62.2789007465472
20
-0.452123657693193
30
0
41
1
10
62.143784277099
20
-0.0914456631226699
30
0
41
1
10
61.9757036531069
20
0.290911881344556
30
0
41
1
10
61.7752288513497
20
0.694574118831724
30
0
0
SPLINE
5
F2
100
AcDbEntity
8
1
62
256
6
ByLayer
370
18
48
1
60
0
100
AcDbSpline
70
4
71
3
72
8
73
4
40
0
40
0
40
0
40
0
40
1
40
1
40
1
40
1
41
1
10
3.64468081257672
20
1.26582029972707
30
-1E-16
41
1
10
3.63143054703778
20
1.27178809300111
30
-1E-16
41
1
10
3.6171108157782
20
1.27488189032815
30
-1E-16
41
1
10
3.60243796854397
20
1.27495245398663
30
-1E-16
0
SPLINE
5
F3
100
AcDbEntity
8
1
62
256
6
ByLayer
370
18
48
1
60
0
100
AcDbSpline
70
4
71
3
72
8
73
4
40
0
40
0
40
0
40
0
40
1
40
1
40
1
40
1
41
1
10
3.64641935052197
20
1.32861920878554
30
-1E-16
41
1
10
3.6458479650006
20
1.30769574612538
30
-1E-16
41
1
10
3.64526844501873
20
1.28676296230154
30
-1E-16
41
1
10
3.64468081257672
20
1.26582029972707
30
-1E-16
0
SPLINE
5
F4
100
AcDbEntity
8
1
62
256
6
ByLayer
370
18
48
1
60
0
100
AcDbSpline
70
4
71
3
72
22
73
18
40
0
40
0
40
0
40
0
40
0.072568973178955
40
0.072568973178955
40
0.14513794635791
40
0.14513794635791
40
0.290275892715824
40
0.290275892715824
40
0.58055178543165
40
0.58055178543165
40
0.653120758610605
40
0.653120758610605
40
0.725689731789561
40
0.725689731789561
40
0.870827678147469
40
0.870827678147469
40
1
40
1
40
1
40
1
41
1
10
61.4647751957283
20
-4.05909709727098
30
0
41
1
10
61.1612559415246
20
-4.03954792445825
30
0
41
1
10
60.8578246016576
20
-4.01348522040942
30
0
41
1
10
60.2506668585601
20
-3.94555545445874
30
0
41
1
10
59.94668854861
20
-3.90413775858047
30
0
41
1
10
59.0388379726684
20
-3.75920186821691
30
0
41
1
10
58.4373732786573
20
-3.63491601092218
30
0
41
1
10
56.6372866050542
20
-3.18810507167544
30
2E-16
41
1
10
55.4428627277068
20
-2.79080586712686
30
2E-16
41
1
10
53.9339865106553
20
-2.20319606836966
30
1E-16
41
1
10
53.6313863691711
20
-2.08115084105549
30
1E-16
41
1
10
53.0239864433808
20
-1.82891202705801
30
1E-16
41
1
10
52.7210226566319
20
-1.69946399473943
30
1E-16
41
1
10
51.8152044157328
20
-1.30391716300062
30
1E-16
41
1
10
51.2146097215686
20
-1.03032924327729
30
1E-16
41
1
10
50.0811847496464
20
-0.504299621183662
30
0
41
1
10
49.5482589084678
20
-0.252639045996745
30
0
41
1
10
49.0144759949557
20
-0.0006297278083309
30
0
0
SPLINE
5
F5
100
AcDbEntity
8
1
62
256
6
ByLayer
370
18
48
1
60
0
100
AcDbSpline
70
4
71
3
72
10
73
6
40
0
40
0
40
0
40
0
40
0.237949729587332
40
0.237949729587332
40
1
40
1
40
1
40
1
41
1
10
8.35047408052259
20
-4.06142989076082
30
0
41
1
10
7.97294829233192
20
-4.06398404275231
30
0
41
1
10
7.59634763528999
20
-4.05494548486857
30
0
41
1
10
6.01520056687608
20
-3.96922986600245
30
0
41
1
10
4.81413167282255
20
-3.78709170569567
30
0
41
1
10
3.59761606783866
20
-3.49586864550105
30
2E-16
0
SPLINE
5
F6
100
AcDbEntity
8
1
62
256
6
ByLayer
370
18
48
1
60
0
100
AcDbSpline
70
4
71
3
72
42
73
38
40
0
40
0
40
0
40
0
40
0.109481062366935
40
0.109481062366935
40
0.164221593550403
40
0.164221593550403
40
0.21896212473387
40
0.21896212473387
40
0.273702655917338
40
0.273702655917338
40
0.328443187100806
40
0.328443187100806
40
0.383183718284274
40
0.383183718284274
40
0.437924249467742
40
0.437924249467742
40
0.49266478065121
40
0.49266478065121
40
0.547405311834678
40
0.547405311834678
40
0.602145843018145
40
0.602145843018145
40
0.656886374201613
40
0.656886374201613
40
0.711626905385081
40
0.711626905385081
40
0.766367436568549
40
0.766367436568549
40
0.821107967752017
40
0.821107967752017
40
0.875848498935485
40
0.875848498935485
40
0.930589030118953
40
0.930589030118953
40
0.98532956130242
40
0.98532956130242
40
1
40
1
40
1
40
1
41
1
10
3.64641935052194
20
1.32861920878554
30
-1E-16
41
1
10
4.24336681205199
20
1.04529424154379
30
-1E-16
41
1
10
4.84070010573254
20
0.756251083286486
30
0
41
1
10
5.73891471123488
20
0.317754875646472
30
0
41
1
10
6.03859156872409
20
0.170823895844848
30
0
41
1
10
6.63638147135461
20
-0.123026632981009
30
0
41
1
10
6.93463410979251
20
-0.270443146620181
30
0
41
1
10
7.53114213902839
20
-0.563615837022724
30
0
41
1
10
7.82960566199105
20
-0.708954286799354
30
0
41
1
10
8.42685442241788
20
-0.997337017902396
30
1E-16
41
1
10
8.72574361211343
20
-1.14046483795812
30
1E-16
41
1
10
9.32443886335858
20
-1.42197428549261
30
1E-16
41
1
10
9.62338508370112
20
-1.55989833645532
30
1E-16
41
1
10
10.2205328749171
20
-1.83003329901223
30
1E-16
41
1
10
10.5186999368047
20
-1.96229044916342
30
1E-16
41
1
10
11.1153976373652
20
-2.2190245358463
30
1E-16
41
1
10
11.4139672100673
20
-2.34344968818368
30
1E-16
41
1
10
12.0116609454168
20
-2.58420028198478
30
2E-16
41
1
10
12.3111040406413
20
-2.70070052335379
30
2E-16
41
1
10
12.9089918520985
20
-2.92284736517857
30
2E-16
41
1
10
13.2076380250028
20
-3.0285290980172
30
2E-16
41
1
10
13.8044610167755
20
-3.22900545259267
30
2E-16
41
1
10
14.102595490524
20
-3.32383223496606
30
2E-16
41
1
10
14.6994298260099
20
-3.50116689299514
30
2E-16
41
1
10
14.9981703083522
20
-3.58365104430214
30
2E-16
41
1
10
15.5964426234159
20
-3.73602761251584
30
-2E-16
41
1
10
15.895541862305
20
-3.80580328164672
30
0
41
1
10
16.4910991792961
20
-3.93081269519092
30
0
41
1
10
16.7881025969321
20
-3.98617989836697
30
0
41
1
10
17.3807559488725
20
-4.0827191885524
30
0
41
1
10
17.6763652846691
20
-4.12388533057583
30
0
41
1
10
18.2672702511836
20
-4.19147714020073
30
0
41
1
10
18.5626215087166
20
-4.21792089987807
30
0
41
1
10
19.1529716352964
20
-4.25619475368873
30
0
41
1
10
19.4479371242685
20
-4.26797490438472
30
0
41
1
10
19.8226578073831
20
-4.2734020175549
30
0
41
1
10
19.9018888898407
20
-4.27401479808179
30
0
41
1
10
19.9811514891923
20
-4.27409168725822
30
0
0
SPLINE
5
F7
100
AcDbEntity
8
1
62
256
6
ByLayer
370
18
48
1
60
0
100
AcDbSpline
70
4
71
3
72
32
73
28
40
0
40
0
40
0
40
0
40
0.0155341444180408
40
0.0155341444180408
40
0.0702266919503726
40
0.0702266919503726
40
0.124919239482705
40
0.124919239482705
40
0.234304334547366
40
0.234304334547366
40
0.343689429612028
40
0.343689429612028
40
0.398381977144359
40
0.398381977144359
40
0.45307452467669
40
0.45307452467669
40
0.562459619741354
40
0.562459619741354
40
0.617152167273684
40
0.617152167273684
40
0.671844714806015
40
0.671844714806015
40
0.781229809870677
40
0.781229809870677
40
0.890614904935338
40
0.890614904935338
40
1
40
1
40
1
40
1
41
1
10
44.5513214018042
20
4.09156519690276
30
0
41
1
10
44.6361492380837
20
4.10423065987891
30
0
41
1
10
44.7210175893038
20
4.11630815719101
30
0
41
1
10
45.1049186891669
20
4.16821222938557
30
0
41
1
10
45.4036558809622
20
4.20129850235358
30
0
41
1
10
45.9982084217915
20
4.25226887092055
30
0
41
1
10
46.2948840854023
20
4.2700782559011
30
0
41
1
10
47.1832910947102
20
4.3010666056214
30
0
41
1
10
47.7730230915807
20
4.29171516162833
30
0
41
1
10
48.9529090968572
20
4.21374781227948
30
0
41
1
10
49.5419037525806
20
4.1445406762642
30
0
41
1
10
50.4309683724429
20
3.99832690306718
30
0
41
1
10
50.7280840803995
20
3.94250228219332
30
0
41
1
10
51.3240876064462
20
3.81669485034425
30
0
41
1
10
51.6235233754081
20
3.74655137561893
30
2E-16
41
1
10
52.5193292279252
20
3.51626437438009
30
-2E-16
41
1
10
53.1140135337924
20
3.33603176159434
30
-2E-16
41
1
10
54.008352245372
20
3.03338173937132
30
-2E-16
41
1
10
54.3066481795724
20
2.9268795876707
30
-2E-16
41
1
10
54.9042100974844
20
2.70344871161905
30
-2E-16
41
1
10
55.2033685288535
20
2.58662023799977
30
-2E-16
41
1
10
56.098480955871
20
2.22351294066044
30
-1E-16
41
1
10
56.6934642033314
20
1.9638275012874
30
-1E-16
41
1
10
57.8860430784816
20
1.42006745297476
30
-1E-16
41
1
10
58.4844724123084
20
1.13480093670776
30
-1E-16
41
1
10
59.6771528060834
20
0.555291646082168
30
0
41
1
10
60.2721141634379
20
0.259551805992771
30
0
41
1
10
60.868244628859
20
-0.0370665010937046
30
0
0
SPLINE
5
F8
100
AcDbEntity
8
1
62
256
6
ByLayer
370
18
48
1
60
0
100
AcDbSpline
70
4
71
3
72
12
73
8
40
0
40
0
40
0
40
0
40
0.250000000000014
40
0.250000000000014
40
0.500000000000027
40
0.500000000000027
40
1
40
1
40
1
40
1
41
1
10
3.60243796854397
20
1.27495245398663
30
-1E-16
41
1
10
3.58679886700648
20
1.27502766448956
30
-1E-16
41
1
10
3.57161535191565
20
1.27257683524039
30
-1E-16
41
1
10
3.54555691584298
20
1.26422698520733
30
-1E-16
41
1
10
3.53479535977607
20
1.25847118146481
30
-1E-16
41
1
10
3.50945400004267
20
1.23894859206896
30
-1E-16
41
1
10
3.50171977548735
20
1.22329784828307
30
-1E-16
41
1
10
3.50171977548737
20
1.20768584472532
30
-1E-16
0
SPLINE
5
F9
100
AcDbEntity
8
1
62
256
6
ByLayer
370
18
48
1
60
0
100
AcDbSpline
70
4
71
3
72
8
73
4
40
0
40
0
40
0
40
0
40
1
40
1
40
1
40
1
41
1
10
3.59761606783866
20
-3.49586864550102
30
2E-16
41
1
10
3.58436424251315
20
-3.49269627589976
30
2E-16
41
1
10
3.57140453310473
20
-3.49203803272252
30
2E-16
41
1
10
3.5592090956392
20
-3.49402515502368
30
2E-16
0
SPLINE
5
FA
100
AcDbEntity
8
1
62
256
6
ByLayer
370
18
48
1
60
0
100
AcDbSpline
70
4
71
3
72
16
73
12
40
0
40
0
40
0
40
0
40
0.226921731621303
40
0.226921731621303
40
0.456156758413278
40
0.456156758413278
40
0.653554137616621
40
0.653554137616621
40
0.827469530342472
40
0.827469530342472
40
1
40
1
40
1
40
1
41
1
10
61.4673667176407
20
-4.04788196539121
30
0
41
1
10
61.4674467779771
20
-4.0480476375449
30
0
41
1
10
61.4674707288064
20
-4.0483927487245
30
0
41
1
10
61.4673806688666
20
-4.04945444845322
30
0
41
1
10
61.4672625649761
20
-4.05019538660667
30
0
41
1
10
61.4669085732573
20
-4.05186749663832
30
0
41
1
10
61.4666852775428
20
-4.05278451107955
30
0
41
1
10
61.4661923084555
20
-4.05460870918873
30
0
41
1
10
61.4659249608795
20
-4.05552776528765
30
0
41
1
10
61.4653669769218
20
-4.05733237929502
30
0
41
1
10
61.4650700210853
20
-4.0582397448072
30
0
41
1
10
61.4647751957282
20
-4.05909709727098
30
0
0
SPLINE
5
FB
100
AcDbEntity
8
1
62
256
6
ByLayer
370
18
48
1
60
0
100
AcDbSpline
70
4
71
3
72
18
73
14
40
0
40
0
40
0
40
0
40
0.0646269789417321
40
0.0646269789417321
40
0.298470234206257
40
0.298470234206257
40
0.415391861838535
40
0.415391861838535
40
0.532313489470812
40
0.532313489470812
40
0.766156744735406
40
0.766156744735406
40
1
40
1
40
1
40
1
41
1
10
61.2378376127521
20
0.863403994243185
30
0
41
1
10
61.2449174294431
20
0.871709031855204
30
0
41
1
10
61.2525669590063
20
0.880209555207784
30
0
41
1
10
61.2903412942405
20
0.919966399499572
30
1E-16
41
1
10
61.3266695618176
20
0.95220769770998
30
1E-16
41
1
10
61.3917758358795
20
1.0012507534434
30
0
41
1
10
61.4152995421948
20
1.01770993797402
30
0
41
1
10
61.4646464681487
20
1.04947510323672
30
0
41
1
10
61.4906371090066
20
1.06491384092877
30
0
41
1
10
61.5727405273987
20
1.10932406052126
30
0
41
1
10
61.6335726177057
20
1.13646928610112
30
0
41
1
10
61.759741292896
20
1.17944570260016
30
0
41
1
10
61.8264411102342
20
1.19580209895534
30
0
41
1
10
61.8943781540794
20
1.2059898860619
30
0
0
SPLINE
5
FC
100
AcDbEntity
8
1
62
256
6
ByLayer
370
18
48
1
60
0
100
AcDbSpline
70
4
71
3
72
8
73
4
40
0
40
0
40
0
40
0
40
1
40
1
40
1
40
1
41
1
10
61.8943781540793
20
1.20598988606204
30
0
41
1
10
62.1369722229503
20
1.24236910698605
30
0
41
1
10
62.3773630885041
20
1.28902262425743
30
0
41
1
10
62.6141200537079
20
1.35034338809456
30
0
0
SPLINE
5
FD
100
AcDbEntity
8
1
62
256
6
ByLayer
370
18
48
1
60
0
100
AcDbSpline
70
4
71
3
72
13
73
9
40
0
40
0
40
0
40
0
40
0.0747618528312518
40
0.219415836020889
40
0.353435122562461
40
0.524783683132492
40
0.748029758851607
40
1
40
1
40
1
40
1
41
1
10
61.7293521874618
20
0.71196813796999
30
0
41
1
10
61.5954032338654
20
0.753051244889235
30
0
41
1
10
61.2027361056783
20
0.875065840484808
30
-1E-16
41
1
10
60.5728232196966
20
1.08003084022556
30
-1E-16
41
1
10
59.7731516192658
20
1.34807760100483
30
-1E-16
41
1
10
58.8376114103833
20
1.67420896639078
30
-1E-16
41
1
10
57.6989798061815
20
2.08949824310164
30
-1E-16
41
1
10
56.8679037195292
20
2.41023973793645
30
-1E-16
41
1
10
56.4288086524361
20
2.58457405799459
30
-2E-16
0
SPLINE
5
FE
100
AcDbEntity
8
1
62
256
6
ByLayer
370
18
48
1
60
0
100
AcDbSpline
70
4
71
3
72
20
73
16
40
0
40
0
40
0
40
0
40
0.0947658997973451
40
0.162838023466694
40
0.205858043362502
40
0.246830525895145
40
0.293184001111927
40
0.343776175945107
40
0.393966238792505
40
0.526037714669772
40
0.639852871471391
40
0.736655950711776
40
0.854099834956717
40
0.968416415404461
40
1
40
1
40
1
40
1
41
1
10
35.4117055525308
20
-4.06892173615853
30
0
41
1
10
35.6997633852316
20
-4.06912935998488
30
0
41
1
10
36.1947353272858
20
-4.06947755096814
30
0
41
1
10
36.8204352290181
20
-4.06985201899235
30
0
41
1
10
37.2826655407997
20
-4.07017601461212
30
0
41
1
10
37.6788555768713
20
-4.07039763605289
30
0
41
1
10
38.098065550957
20
-4.07050536802677
30
0
41
1
10
38.5453021476008
20
-4.07083480368931
30
0
41
1
10
39.2530022158152
20
-4.07159257212925
30
0
41
1
10
40.1527182906825
20
-4.07107080563412
30
0
41
1
10
41.1935318039452
20
-4.07250605575857
30
0
41
1
10
42.1908685730238
20
-4.0728288532695
30
0
41
1
10
43.1895358426507
20
-4.07308339319383
30
0
41
1
10
43.9900173287924
20
-4.07405691996917
30
0
41
1
10
44.4335010655971
20
-4.07421181850367
30
0
41
1
10
44.529503701515
20
-4.07422065225725
30
0
0
SPLINE
5
FF
100
AcDbEntity
8
1
62
256
6
ByLayer
370
18
48
1
60
0
100
AcDbSpline
70
4
71
3
72
20
73
16
40
0
40
0
40
0
40
0
40
0.0961189384174502
40
0.16491075623637
40
0.208095590210655
40
0.248869849197284
40
0.294716441633744
40
0.344617598408281
40
0.394555762078782
40
0.528063343328037
40
0.642172462157821
40
0.738974361022054
40
0.855182498051995
40
0.969944894468606
40
1
40
1
40
1
40
1
41
1
10
19.984975606319
20
4.06115725558109
30
0
41
1
10
19.6923374514006
20
4.06077555881055
30
0
41
1
10
19.1902613846247
20
4.06030471289353
30
0
41
1
10
18.5567180398637
20
4.05987630741546
30
0
41
1
10
18.0916643876468
20
4.06003843814634
30
0
41
1
10
17.6964904570825
20
4.05956834662848
30
0
41
1
10
17.2808459491097
20
4.05898933052438
30
0
41
1
10
16.8373009060903
20
4.05880158673679
30
0
41
1
10
16.1268705374052
20
4.05856147223815
30
0
41
1
10
15.2209650447541
20
4.05731724171955
30
0
41
1
10
14.1723549480903
20
4.0569422593276
30
0
41
1
10
13.1764991340539
20
4.05599659114236
30
0
41
1
10
12.1784657793546
20
4.05523742964451
30
0
41
1
10
11.3841146794239
20
4.05470318234825
30
0
41
1
10
10.9434496873512
20
4.05421344486209
30
0
41
1
10
10.851978667792
20
4.05411041200011
30
0
0
SPLINE
5
100
100
AcDbEntity
8
1
62
256
6
ByLayer
370
18
48
1
60
0
100
AcDbSpline
70
4
71
3
72
20
73
16
40
0
40
0
40
0
40
0
40
0.0990618937363976
40
0.170003822055405
40
0.214378445757591
40
0.254369911912055
40
0.298338306697938
40
0.345942699905715
40
0.395221414670571
40
0.534812824907813
40
0.651769947495318
40
0.74792256667681
40
0.859419670650663
40
0.976574958617367
40
1
40
1
40
1
40
1
41
1
10
8.20711791127886
20
-4.0518775409636
30
0
41
1
10
8.50676085530381
20
-4.05220129309993
30
0
41
1
10
9.02085262657576
20
-4.05268277338263
30
0
41
1
10
9.66934558518398
20
-4.05318009732451
30
0
41
1
10
10.138407305049
20
-4.05340200275708
30
0
41
1
10
10.5265108323982
20
-4.05371578000231
30
0
41
1
10
10.9244803946351
20
-4.05422720937841
30
0
41
1
10
11.3500584184766
20
-4.05461266656903
30
0
41
1
10
12.06501037258
20
-4.05501960532862
30
0
41
1
10
12.9900717601265
20
-4.05602849413745
30
0
41
1
10
14.0567454850745
20
-4.05677391374095
30
0
41
1
10
15.0385203593773
20
-4.05743100113887
30
0
41
1
10
16.0208784965737
20
-4.05828039259322
30
0
41
1
10
16.7832779092396
20
-4.05866416271104
30
0
41
1
10
17.2084605847822
20
-4.05901541855891
30
0
41
1
10
17.2793089615416
20
-4.05908061763373
30
0
0
SPLINE
5
101
100
AcDbEntity
8
1
62
256
6
ByLayer
370
18
48
1
60
0
100
AcDbSpline
70
4
71
3
72
20
73
16
40
0
40
0
40
0
40
0
40
0.102519435120264
40
0.175150389812568
40
0.219418379642886
40
0.259238892951089
40
0.302746169199466
40
0.349653957548739
40
0.398678825624587
40
0.53968123242531
40
0.656831660799504
40
0.752927354794639
40
0.86306345503384
40
0.980678385350909
40
1
40
1
40
1
40
1
41
1
10
47.1916251360158
20
4.07529747288257
30
0
41
1
10
46.882269842223
20
4.07567667579988
30
0
41
1
10
46.3537421921822
20
4.07587909942205
30
0
41
1
10
45.6916035401886
20
4.07481211012538
30
0
41
1
10
45.218682986385
20
4.07401772362613
30
0
41
1
10
44.8336410331804
20
4.07416082524506
30
0
41
1
10
44.4406326443476
20
4.07433826973102
30
0
41
1
10
44.0198501511005
20
4.07386668576012
30
0
41
1
10
43.3048493952757
20
4.07259611169007
30
0
41
1
10
42.3779864971124
20
4.07349666085051
30
0
41
1
10
41.3086497441884
20
4.07242993783481
30
0
41
1
10
40.3339183216534
20
4.07152497070217
30
0
41
1
10
39.3566191094321
20
4.07152168676365
30
0
41
1
10
38.6112370178514
20
4.07079137416781
30
0
41
1
10
38.1980239218694
20
4.07059313978846
30
0
41
1
10
38.1397189915871
20
4.07056740563672
30
0
0
SPLINE
5
102
100
AcDbEntity
8
1
62
256
6
ByLayer
370
18
48
1
60
0
100
AcDbSpline
70
4
71
3
72
28
73
24
40
0
40
0
40
0
40
0
40
3.08075112232E-05
40
6.54242621415E-05
40
9.36463166367E-05
40
0.0001179272975456
40
0.0001410712757824
40
0.0009990898395116
40
0.001671778686746
40
0.0028841444554226
40
0.0050846026073168
40
0.0091272981995139
40
0.0167078715612594
40
0.0313983240970261
40
0.0608545094789654
40
0.11471939723891
40
0.206343556018167
40
0.279871776856055
40
0.348087357196351
40
0.469965514568085
40
0.623744699572103
40
0.809317843673031
40
1
40
1
40
1
40
1
41
1
10
36.5084270795525
20
0.124390538892726
30
0
41
1
10
36.5084565961499
20
0.124387037799124
30
0
41
1
10
36.5085021378137
20
0.124384705854624
30
0
41
1
10
36.5084761880228
20
0.124406712792478
30
0
41
1
10
36.5084024368681
20
0.124439843771938
30
0
41
1
10
36.5082835457098
20
0.124481902135017
30
0
41
1
10
36.5063375863463
20
0.125086987036468
30
0
41
1
10
36.5022974371549
20
0.126201473049207
30
0
41
1
10
36.4958003486148
20
0.128100418637445
30
0
41
1
10
36.485901921907
20
0.130952005686709
30
0
41
1
10
36.4679759624299
20
0.136139408629361
30
0
41
1
10
36.4346477102899
20
0.145762472925554
30
0
41
1
10
36.3712636071588
20
0.164056889779772
30
0
41
1
10
36.2465968166959
20
0.199991958321135
30
0
41
1
10
36.0109482758043
20
0.267738882961226
30
0
41
1
10
35.5841705587123
20
0.391159181121765
30
0
41
1
10
35.047563017853
20
0.551424964137198
30
0
41
1
10
34.4785685001665
20
0.726549112713229
30
0
41
1
10
33.8370256320518
20
0.929279122582756
30
-1E-16
41
1
10
33.0030829003752
20
1.20189681805411
30
-1E-16
41
1
10
31.8900263437357
20
1.58353767808416
30
-1E-16
41
1
10
30.6186904971481
20
2.04359012142606
30
-1E-16
41
1
10
29.7235338521924
20
2.38864916108105
30
-1E-16
41
1
10
29.2716562973142
20
2.56813453192217
30
-2E-16
0
SPLINE
5
103
100
AcDbEntity
8
1
62
256
6
ByLayer
370
18
48
1
60
0
100
AcDbSpline
70
4
71
2
72
6
73
3
40
0
40
0
40
0
40
1
40
1
40
1
41
1
10
49.0141062615264
20
-0.000675324695294
30
0
41
1
10
49.0140845008697
20
-0.0006684729082167
30
0
41
1
10
49.014062740158
20
-0.000661090477081
30
0
0
LINE
5
84
100
AcDbEntity
8
SK1
62
256
6
ByLayer
370
18
48
1
60
0
100
AcDbLine
10
-38.66
20
-5
30
0
11
-38.66
21
5
31
0
39
0
210
0
220
0
230
1
0
LINE
5
86
100
AcDbEntity
8
SK1
62
256
6
ByLayer
370
18
48
1
60
0
100
AcDbLine
10
0
20
5
30
0
11
0
21
-5
31
0
39
0
210
0
220
0
230
1
0
LINE
5
87
100
AcDbEntity
8
SK1
62
256
6
ByLayer
370
18
48
1
60
0
100
AcDbLine
10
-40
20
-3.66
30
0
11
-40
21
3.66
31
0
39
0
210
0
220
0
230
1
0
LINE
5
88
100
AcDbEntity
8
1
62
256
6
ByLayer
370
18
48
1
60
0
100
AcDbLine
10
3.50172
20
-3.615504
30
0
11
3.50172
21
1.243299
31
0
39
0
210
0
220
0
230
1
0
LINE
5
89
100
AcDbEntity
8
1
62
256
6
ByLayer
370
18
48
1
60
0
100
AcDbLine
10
1.348161
20
4.262445
30
0
11
1.348161
21
0
31
0
39
0
210
0
220
0
230
1
0
LINE
5
8A
100
AcDbEntity
8
1
62
256
6
ByLayer
370
18
48
1
60
0
100
AcDbLine
10
1.348161
20
0
30
0
11
1.348161
21
-4.262445
31
0
39
0
210
0
220
0
230
1
0
LINE
5
8B
100
AcDbEntity
8
1
62
256
6
ByLayer
370
18
48
1
60
0
100
AcDbLine
10
0.67383
20
4.631222
30
0
11
0.67383
21
0
31
0
39
0
210
0
220
0
230
1
0
LINE
5
8C
100
AcDbEntity
8
1
62
256
6
ByLayer
370
18
48
1
60
0
100
AcDbLine
10
0.67383
20
0
30
0
11
0.67383
21
-4.631222
31
0
39
0
210
0
220
0
230
1
0
LINE
5
8D
100
AcDbEntity
8
1
62
256
6
ByLayer
370
18
48
1
60
0
100
AcDbLine
10
62.940036
20
0.051765
30
0
11
61.894378
21
1.20599
31
0
39
0
210
0
220
0
230
1
0
LINE
5
8E
100
AcDbEntity
8
1
62
256
6
ByLayer
370
18
48
1
60
0
100
AcDbLine
10
0
20
5
30
0
11
0
21
0
31
0
39
0
210
0
220
0
230
1
0
LINE
5
8F
100
AcDbEntity
8
1
62
256
6
ByLayer
370
18
48
1
60
0
100
AcDbLine
10
0
20
0
30
0
11
0
21
-5
31
0
39
0
210
0
220
0
230
1
0
LINE
5
90
100
AcDbEntity
8
1
62
256
6
ByLayer
370
18
48
1
60
0
100
AcDbLine
10
20
20
0.292294
30
0
11
20
21
0.232484
31
0
39
0
210
0
220
0
230
1
0
LINE
5
91
100
AcDbEntity
8
SK4
62
256
6
ByLayer
370
18
48
0.05
60
0
100
AcDbLine
10
68
20
0
30
0
11
-45
21
0
31
0
39
0
210
0
220
0
230
1
0
LINE
5
93
100
AcDbEntity
8
SK1
62
256
6
ByLayer
370
18
48
1
60
0
100
AcDbLine
10
-40
20
-3.66
30
0
11
-38.66
21
-5
31
0
39
0
210
0
220
0
230
1
0
LINE
5
94
100
AcDbEntity
8
SK1
62
256
6
ByLayer
370
18
48
1
60
0
100
AcDbLine
10
-38.66
20
5
30
0
11
-40
21
3.66
31
0
39
0
210
0
220
0
230
1
0
LINE
5
95
100
AcDbEntity
8
SK1
62
256
6
ByLayer
370
18
48
1
60
0
100
AcDbLine
10
-38.66
20
-5
30
0
11
0
21
-5
31
0
39
0
210
0
220
0
230
1
0
LINE
5
96
100
AcDbEntity
8
SK1
62
256
6
ByLayer
370
18
48
1
60
0
100
AcDbLine
10
0
20
5
30
0
11
-38.66
21
5
31
0
39
0
210
0
220
0
230
1
0
LINE
5
97
100
AcDbEntity
8
1
62
256
6
ByLayer
370
18
48
1
60
0
100
AcDbLine
10
1.348161
20
-4.262445
30
0
11
3.270326
21
-4.263646
31
0
39
0
210
0
220
0
230
1
0
LINE
5
98
100
AcDbEntity
8
1
62
256
6
ByLayer
370
18
48
1
60
0
100
AcDbLine
10
6.758804
20
-4.265826
30
0
11
8.212884
21
-4.266735
31
0
39
0
210
0
220
0
230
1
0
LINE
5
99
100
AcDbEntity
8
1
62
256
6
ByLayer
370
18
48
1
60
0
100
AcDbLine
10
19.988039
20
-4.274095
30
0
11
21.246131
21
-4.274881
31
0
39
0
210
0
220
0
230
1
0
LINE
5
9A
100
AcDbEntity
8
1
62
256
6
ByLayer
370
18
48
1
60
0
100
AcDbLine
10
34.194085
20
-4.282973
30
0
11
35.412275
21
-4.283735
31
0
39
0
210
0
220
0
230
1
0
LINE
5
9B
100
AcDbEntity
8
1
62
256
6
ByLayer
370
18
48
1
60
0
100
AcDbLine
10
47.191719
20
-4.291097
30
0
11
48.420428
21
-4.291865
31
0
39
0
210
0
220
0
230
1
0
LINE
5
9C
100
AcDbEntity
8
1
62
256
6
ByLayer
370
18
48
1
60
0
100
AcDbLine
10
48.420428
20
4.291865
30
0
11
47.191719
21
4.291097
31
0
39
0
210
0
220
0
230
1
0
LINE
5
9D
100
AcDbEntity
8
1
62
256
6
ByLayer
370
18
48
1
60
0
100
AcDbLine
10
35.412275
20
4.283735
30
0
11
34.194085
21
4.282973
31
0
39
0
210
0
220
0
230
1
0
LINE
5
9E
100
AcDbEntity
8
1
62
256
6
ByLayer
370
18
48
1
60
0
100
AcDbLine
10
21.246131
20
4.274881
30
0
11
19.988039
21
4.274095
31
0
39
0
210
0
220
0
230
1
0
LINE
5
9F
100
AcDbEntity
8
1
62
256
6
ByLayer
370
18
48
1
60
0
100
AcDbLine
10
8.212884
20
4.266735
30
0
11
6.758804
21
4.265826
31
0
39
0
210
0
220
0
230
1
0
LINE
5
A0
100
AcDbEntity
8
1
62
256
6
ByLayer
370
18
48
1
60
0
100
AcDbLine
10
3.270326
20
4.263646
30
0
11
1.348161
21
4.262445
31
0
39
0
210
0
220
0
230
1
0
LINE
5
A1
100
AcDbEntity
8
4
62
256
6
ByLayer
370
18
48
0.05
60
0
100
AcDbLine
10
-40
20
0
30
0
11
68
21
0
31
0
39
0
210
0
220
0
230
1
0
LINE
5
A3
100
AcDbEntity
8
80
62
256
6
ByLayer
370
18
48
1
60
0
100
AcDbLine
10
0
20
0
30
0
11
-6
21
0
31
0
39
0
210
0
220
0
230
1
0
LINE
5
A4
100
AcDbEntity
8
81
62
256
6
ByLayer
370
18
48
1
60
0
100
AcDbLine
10
63
20
0
30
0
11
69
21
0
31
0
39
0
210
0
220
0
230
1
0
LINE
5
A5
100
AcDbEntity
8
SK2
62
256
6
ByLayer
370
13
48
1
60
0
100
AcDbLine
10
63.542966
20
1.491759
30
0
11
70.926442
21
21.777331
31
0
39
0
210
0
220
0
230
1
0
LINE
5
A7
100
AcDbEntity
8
SK2
62
256
6
ByLayer
370
13
48
1
60
0
100
AcDbLine
10
63.542966
20
-1.491759
30
0
11
70.926442
21
-21.777331
31
0
39
0
210
0
220
0
230
1
0
LINE
5
A8
100
AcDbEntity
8
1
62
256
6
ByLayer
370
13
48
1
60
0
100
AcDbLine
10
69.840511
20
18.793813
30
0
11
72.937097
21
17.977423
31
0
39
0
210
0
220
0
230
1
0
LINE
5
A9
100
AcDbEntity
8
1
62
256
6
ByLayer
370
13
48
1
60
0
100
AcDbLine
10
69.840511
20
18.793813
30
0
11
72.620289
21
17.203784
31
0
39
0
210
0
220
0
230
1
0
LINE
5
AA
100
AcDbEntity
8
1
62
256
6
ByLayer
370
13
48
1
60
0
100
AcDbLine
10
72.937097
20
17.977423
30
0
11
72.620289
21
17.203784
31
0
39
0
210
0
220
0
230
1
0
LINE
5
AB
100
AcDbEntity
8
1
62
256
6
ByLayer
370
13
48
1
60
0
100
AcDbLine
10
69.840511
20
-18.793813
30
0
11
72.620286
21
-17.203785
31
0
39
0
210
0
220
0
230
1
0
LINE
5
AC
100
AcDbEntity
8
1
62
256
6
ByLayer
370
13
48
1
60
0
100
AcDbLine
10
69.840511
20
-18.793813
30
0
11
72.9371
21
-17.977422
31
0
39
0
210
0
220
0
230
1
0
LINE
5
AD
100
AcDbEntity
8
1
62
256
6
ByLayer
370
13
48
1
60
0
100
AcDbLine
10
72.620286
20
-17.203785
30
0
11
72.9371
21
-17.977422
31
0
39
0
210
0
220
0
230
1
0
MTEXT
5
104
100
AcDbEntity
8
SK2
62
256
6
ByLayer
370
18
48
1
60
0
100
AcDbMText
10
76.717388
20
-2.467451
30
0
210
0
220
0
230
1
1
\W0.7237;140.00
40
3.50012
41
0
44
1.084337
50
0
71
7
72
5
7
iso_b_vert
0
MTEXT
5
107
100
AcDbEntity
8
SK6
62
256
6
ByLayer
370
18
48
1
60
0
100
AcDbMText
10
-27.580285
20
-104.899996
30
0
210
0
220
0
230
1
1
\W0.7647;860.1-0860-044A0-GM X1BM
40
3.175
41
0
44
1.084337
50
0
71
7
72
5
7
iso_b_vert
0
DIMENSION
5
10A
100
AcDbEntity
8
SK2
62
256
6
ByLayer
370
18
48
1
60
0
100
AcDbDimension
2
_U0
10
63
20
-28.50012
30
0
11
31.5
21
-28.50012
31
0
70
32
71
2
72
1
41
1
210
0
220
0
230
1
3
Standard
100
AcDbAlignedDimension
13
0
23
-5
33
0
14
63
24
0
34
0
50
0
100
AcDbRotatedDimension
1001
ACAD
1000
DSTYLE
1002
{
1070
   371
1070
    13
1070
   372
1070
    13
1070
     3
1000

1070
   170
1070
     0
1070
   144
1040
1.0
1070
   277
1070
     2
1070
   284
1070
     8
1070
   278
1070
    46
1070
   146
1040
0.999966
1070
   345
1005
16
1070
   347
1005
16
1070
   346
1005
16
1070
   344
1005
10B
1070
   343
1005
10B
1070
   172
1070
     1
1070
    76
1070
     0
1070
    75
1070
     0
1070
   282
1070
     0
1070
   281
1070
     0
1070
    71
1070
     0
1070
    74
1070
     0
1070
   279
1070
     0
1070
   173
1070
     1
1070
   340
1005
105
1070
   271
1070
     1
1070
   272
1070
     2
1070
    77
1070
     1
1070
    73
1070
     1
1070
   171
1070
     3
1070
   274
1070
     4
1070
   177
1070
   150
1070
   176
1070
     9
1070
   178
1070
    43
1070
    78
1070
     8
1070
    48
1040
-0.1
1070
    41
1040
3.175
1070
   147
1040
1.75006
1070
    42
1040
1.5875
1070
    44
1040
3.175
1070
   140
1040
3.50012
1002
}
1001
ACAD_DSTYLE_DIM_LINETYPE
1070
   380
1005
16
1001
ACAD_DSTYLE_DIM_EXT1_LINETYPE
1070
   381
1005
16
1001
ACAD_DSTYLE_DIM_EXT2_LINETYPE
1070
   382
1005
16
0
DIMENSION
5
130
100
AcDbEntity
8
2
62
256
6
ByLayer
370
18
48
1
60
0
100
AcDbDimension
2
_U1
10
69.75006
20
4.3
30
0
11
69.75006
21
19.873233
31
0
70
32
71
1
72
1
41
1
210
0
220
0
230
1
3
Standard
100
AcDbAlignedDimension
13
61.4349
23
-4.3
33
0
14
61.4349
24
4.3
34
0
50
90
100
AcDbRotatedDimension
1001
ACAD
1000
DSTYLE
1002
{
1070
   371
1070
    13
1070
   372
1070
    13
1070
     3
1000

1070
   170
1070
     0
1070
   144
1040
1.0
1070
   277
1070
     2
1070
   284
1070
     8
1070
   278
1070
    46
1070
   146
1040
0.999966
1070
   345
1005
16
1070
   347
1005
16
1070
   346
1005
16
1070
   344
1005
10B
1070
   343
1005
10B
1070
   172
1070
     1
1070
    76
1070
     0
1070
    75
1070
     0
1070
   282
1070
     0
1070
   281
1070
     0
1070
    71
1070
     0
1070
    74
1070
     0
1070
   279
1070
     0
1070
   173
1070
     1
1070
   340
1005
105
1070
   271
1070
     1
1070
   272
1070
     2
1070
    77
1070
     1
1070
    73
1070
     0
1070
   171
1070
     3
1070
   274
1070
     4
1070
   177
1070
   150
1070
   176
1070
     9
1070
   178
1070
    43
1070
    78
1070
     8
1070
    48
1040
-0.1
1070
    41
1040
3.175
1070
   147
1040
1.75006
1070
    42
1040
1.5875
1070
    44
1040
3.175
1070
   140
1040
3.50012
1002
}
1001
ACAD_DSTYLE_DIM_LINETYPE
1070
   380
1005
16
1001
ACAD_DSTYLE_DIM_EXT1_LINETYPE
1070
   381
1005
16
1001
ACAD_DSTYLE_DIM_EXT2_LINETYPE
1070
   382
1005
16
0
DIMENSION
5
14F
100
AcDbEntity
8
SK2
62
256
6
ByLayer
370
18
48
1
60
0
100
AcDbDimension
2
_U2
10
-43.24994
20
-5
30
0
11
-43.24994
21
19.97767
31
0
70
32
71
1
72
1
41
1
210
0
220
0
230
1
3
Standard
100
AcDbAlignedDimension
13
-40
23
5
33
0
14
-40
24
-5
34
0
50
90
100
AcDbRotatedDimension
1001
ACAD
1000
DSTYLE
1002
{
1070
   371
1070
    13
1070
   372
1070
    13
1070
     3
1000

1070
   170
1070
     0
1070
   144
1040
1.0
1070
   277
1070
     2
1070
   284
1070
     8
1070
   278
1070
    46
1070
   146
1040
0.999966
1070
   345
1005
16
1070
   347
1005
16
1070
   346
1005
16
1070
   344
1005
10B
1070
   343
1005
10B
1070
   172
1070
     1
1070
    76
1070
     0
1070
    75
1070
     0
1070
   282
1070
     0
1070
   281
1070
     0
1070
    71
1070
     0
1070
    74
1070
     0
1070
   279
1070
     0
1070
   173
1070
     1
1070
   340
1005
105
1070
   271
1070
     1
1070
   272
1070
     2
1070
    77
1070
     1
1070
    73
1070
     0
1070
   171
1070
     3
1070
   274
1070
     4
1070
   177
1070
   150
1070
   176
1070
     9
1070
   178
1070
    43
1070
    78
1070
     8
1070
    48
1040
-0.1
1070
    41
1040
3.175
1070
   147
1040
1.75006
1070
    42
1040
1.5875
1070
    44
1040
3.175
1070
   140
1040
3.50012
1002
}
1001
ACAD_DSTYLE_DIM_LINETYPE
1070
   380
1005
16
1001
ACAD_DSTYLE_DIM_EXT1_LINETYPE
1070
   381
1005
16
1001
ACAD_DSTYLE_DIM_EXT2_LINETYPE
1070
   382
1005
16
0
DIMENSION
5
16D
100
AcDbEntity
8
SK2
62
256
6
ByLayer
370
18
48
1
60
0
100
AcDbDimension
2
_U3
10
0
20
-28.50012
30
0
11
-20
21
-28.50012
31
0
70
32
71
1
72
1
41
1
210
0
220
0
230
1
3
Standard
100
AcDbAlignedDimension
13
-40
23
-5
33
0
14
0
24
-5
34
0
50
0
100
AcDbRotatedDimension
1001
ACAD
1000
DSTYLE
1002
{
1070
   371
1070
    13
1070
   372
1070
    13
1070
     3
1000

1070
   170
1070
     0
1070
   144
1040
1.0
1070
   277
1070
     2
1070
   284
1070
     8
1070
   278
1070
    46
1070
   146
1040
0.999966
1070
   345
1005
16
1070
   347
1005
16
1070
   346
1005
16
1070
   344
1005
10B
1070
   343
1005
10B
1070
   172
1070
     1
1070
    76
1070
     0
1070
    75
1070
     0
1070
   282
1070
     0
1070
   281
1070
     0
1070
    71
1070
     0
1070
    74
1070
     0
1070
   279
1070
     0
1070
   173
1070
     1
1070
   340
1005
105
1070
   271
1070
     1
1070
   272
1070
     2
1070
    77
1070
     1
1070
    73
1070
     1
1070
   171
1070
     3
1070
   274
1070
     4
1070
   177
1070
   150
1070
   176
1070
     9
1070
   178
1070
    43
1070
    78
1070
     8
1070
    48
1040
-0.1
1070
    41
1040
3.175
1070
   147
1040
1.75006
1070
    42
1040
1.5875
1070
    44
1040
3.175
1070
   140
1040
3.50012
1002
}
1001
ACAD_DSTYLE_DIM_LINETYPE
1070
   380
1005
16
1001
ACAD_DSTYLE_DIM_EXT1_LINETYPE
1070
   381
1005
16
1001
ACAD_DSTYLE_DIM_EXT2_LINETYPE
1070
   382
1005
16
0
DIMENSION
5
189
100
AcDbEntity
8
SK2
62
256
6
ByLayer
370
18
48
1
60
0
100
AcDbDimension
2
_U4
10
63
20
-19.74982
30
0
11
32.5
21
-19.74982
31
0
70
32
71
1
72
1
41
1
210
0
220
0
230
1
3
Standard
100
AcDbAlignedDimension
13
2
23
4.8
33
0
14
63
24
0
34
0
50
0
100
AcDbRotatedDimension
1001
ACAD
1000
DSTYLE
1002
{
1070
   371
1070
    13
1070
   372
1070
    13
1070
     3
1000

1070
   170
1070
     0
1070
   144
1040
1.0
1070
   277
1070
     2
1070
   284
1070
     8
1070
   278
1070
    46
1070
   146
1040
0.999966
1070
   345
1005
16
1070
   347
1005
16
1070
   346
1005
16
1070
   344
1005
10B
1070
   343
1005
10B
1070
   172
1070
     1
1070
    76
1070
     0
1070
    75
1070
     0
1070
   282
1070
     0
1070
   281
1070
     0
1070
    71
1070
     0
1070
    74
1070
     0
1070
   279
1070
     0
1070
   173
1070
     1
1070
   340
1005
105
1070
   271
1070
     1
1070
   272
1070
     2
1070
    77
1070
     1
1070
    73
1070
     1
1070
   171
1070
     3
1070
   274
1070
     4
1070
   177
1070
   150
1070
   176
1070
     9
1070
   178
1070
    43
1070
    78
1070
     8
1070
    48
1040
-0.1
1070
    41
1040
3.175
1070
   147
1040
1.75006
1070
    42
1040
1.5875
1070
    44
1040
3.175
1070
   140
1040
3.50012
1002
}
1001
ACAD_DSTYLE_DIM_LINETYPE
1070
   380
1005
16
1001
ACAD_DSTYLE_DIM_EXT1_LINETYPE
1070
   381
1005
16
1001
ACAD_DSTYLE_DIM_EXT2_LINETYPE
1070
   382
1005
16
0
DIMENSION
5
1A5
100
AcDbEntity
8
SK2
62
256
6
ByLayer
370
18
48
1
60
0
100
AcDbDimension
2
_U5
10
63
20
-11.82
30
0
11
40.75
21
-11.82
31
0
70
32
71
1
72
1
41
1
210
0
220
0
230
1
3
Standard
100
AcDbAlignedDimension
13
18.5
23
-4.3
33
0
14
63
24
0
34
0
50
0
100
AcDbRotatedDimension
1001
ACAD
1000
DSTYLE
1002
{
1070
   371
1070
    13
1070
   372
1070
    13
1070
     3
1000

1070
   170
1070
     0
1070
   144
1040
1.0
1070
   277
1070
     2
1070
   284
1070
     8
1070
   278
1070
    46
1070
   146
1040
1.25
1070
   345
1005
16
1070
   347
1005
16
1070
   346
1005
16
1070
   344
1005
10B
1070
   343
1005
10B
1070
   172
1070
     1
1070
    76
1070
     0
1070
    75
1070
     0
1070
   282
1070
     0
1070
   281
1070
     0
1070
    71
1070
     0
1070
    74
1070
     0
1070
   279
1070
     0
1070
   173
1070
     1
1070
   340
1005
105
1070
   271
1070
     1
1070
   272
1070
     2
1070
    77
1070
     1
1070
    73
1070
     1
1070
   171
1070
     3
1070
   274
1070
     4
1070
   177
1070
   150
1070
   176
1070
     9
1070
   178
1070
    43
1070
    78
1070
     8
1070
    48
1040
-0.1
1070
    41
1040
3.175
1070
   147
1040
0.42
1070
    42
1040
1.5875
1070
    44
1040
0.5
1070
   140
1040
2.8
1002
}
1001
ACAD_DSTYLE_DIM_LINETYPE
1070
   380
1005
16
1001
ACAD_DSTYLE_DIM_EXT1_LINETYPE
1070
   381
1005
16
1001
ACAD_DSTYLE_DIM_EXT2_LINETYPE
1070
   382
1005
16
0
DIMENSION
5
1C1
100
AcDbEntity
8
SK2
62
256
6
ByLayer
370
18
48
1
60
0
100
AcDbDimension
2
_U6
10
63
20
-38.50012
30
0
11
11.5
21
-38.50012
31
0
70
32
71
1
72
1
41
1
210
0
220
0
230
1
3
Standard
100
AcDbAlignedDimension
13
-40
23
0
33
0
14
63
24
0
34
0
50
0
100
AcDbRotatedDimension
1001
ACAD
1000
DSTYLE
1002
{
1070
   371
1070
    13
1070
   372
1070
    13
1070
     3
1000

1070
   170
1070
     0
1070
   144
1040
1.0
1070
   277
1070
     2
1070
   284
1070
     8
1070
   278
1070
    46
1070
   146
1040
0.999966
1070
   345
1005
16
1070
   347
1005
16
1070
   346
1005
16
1070
   344
1005
10B
1070
   343
1005
10B
1070
   172
1070
     1
1070
    76
1070
     0
1070
    75
1070
     0
1070
   282
1070
     0
1070
   281
1070
     0
1070
    71
1070
     0
1070
    74
1070
     0
1070
   279
1070
     0
1070
   173
1070
     1
1070
   340
1005
105
1070
   271
1070
     1
1070
   272
1070
     2
1070
    77
1070
     1
1070
    73
1070
     1
1070
   171
1070
     3
1070
   274
1070
     4
1070
   177
1070
   150
1070
   176
1070
     9
1070
   178
1070
    43
1070
    78
1070
     8
1070
    48
1040
-0.1
1070
    41
1040
3.175
1070
   147
1040
1.75006
1070
    42
1040
1.5875
1070
    44
1040
3.175
1070
   140
1040
3.50012
1002
}
1001
ACAD_DSTYLE_DIM_LINETYPE
1070
   380
1005
16
1001
ACAD_DSTYLE_DIM_EXT1_LINETYPE
1070
   381
1005
16
1001
ACAD_DSTYLE_DIM_EXT2_LINETYPE
1070
   382
1005
16
0
ENDSEC
0
SECTION
2
OBJECTS
0
DICTIONARY
5
24d
330
0
100
AcDbDictionary
280
0
281
1
3
ACAD_GROUP
350
24e
3
ACAD_MLINESTYLE
350
24f
0
DICTIONARY
5
24e
330
0
100
AcDbDictionary
280
0
281
1
0
DICTIONARY
5
24f
330
0
100
AcDbDictionary
280
0
281
1
3
Standard
350
18
0
MLINESTYLE
5
18
330
24f
100
AcDbMlineStyle
2
Standard
70
0
3

62
256
51
90
52
90
71
2
49
-0.5
62
256
6
ByLayer
49
0.5
62
256
6
ByLayer
0
RASTERVARIABLES
5
23b
330

100
AcDbRasterVariables
90
0
70
1
71
1
72
1
0
ENDSEC
0
EOF
