0
SECTION
2
HEADER
9
$ACADVER
1
AC1015
9
$DWGCODEPAGE
3
ANSI_1252
9
$HANDSEED
5
25a
9
$ANGBASE
50
0
9
$ANGDIR
70
0
9
$ATTMODE
70
1
9
$AUNITS
70
0
9
$AUPREC
70
0
9
$CECOLOR
62
256
9
$CELTSCALE
40
1
9
$CELTYPE
6
ByLayer
9
$CELWEIGHT
370
18
9
$CLAYER
8
0
9
$CMLJUST
70
0
9
$CMLSCALE
40
1
9
$CMLSTYLE
2
Standard
9
$DIMSTYLE
2
Standard
9
$TEXTSIZE
40
0.2
9
$TEXTSTYLE
7
Standard
9
$LUNITS
70
2
9
$LUPREC
70
4
9
$EXTNAMES
290
1
9
$INSUNITS
70
4
9
$LTSCALE
40
1
9
$LWDISPLAY
290
1
9
$PDMODE
70
0
9
$PDSIZE
40
0
9
$PLINEGEN
70
0
0
ENDSEC
0
SECTION
2
CLASSES
0
CLASS
1
RASTERVARIABLES
2
AcDbRasterVariables
3
ISM
90
0
280
0
281
0
0
ENDSEC
0
SECTION
2
TABLES
0
TABLE
2
VPORT
5
250
100
AcDbSymbolTable
0
VPORT
5
1
100
AcDbSymbolTableRecord
100
AcDbViewportTableRecord
2
*Active
70
0
10
0
20
0
11
1
21
1
12
-1
22
1
13
0
23
0
14
0.5
24
0.5
15
10
25
10
16
0
26
0
36
1
17
0
27
0
37
0
0
ENDTAB
0
TABLE
2
LTYPE
5
251
100
AcDbSymbolTable
0
LTYPE
5
14
100
AcDbSymbolTableRecord
100
AcDbLinetypeTableRecord
70
0
2
ByBlock
3

72
65
73
0
40
0
0
LTYPE
5
15
100
AcDbSymbolTableRecord
100
AcDbLinetypeTableRecord
70
0
2
ByLayer
3

72
65
73
0
40
0
0
LTYPE
5
16
100
AcDbSymbolTableRecord
100
AcDbLinetypeTableRecord
70
0
2
Continuous
3
Solid line
72
65
73
0
40
0
0
LTYPE
5
6E
100
AcDbSymbolTableRecord
100
AcDbLinetypeTableRecord
70
0
2
CENTER
3
____ _ ____ _ ____ _ ____
72
65
73
4
40
47.5
49
22
74
0
49
-8.5
74
0
49
8.5
74
0
49
-8.5
74
0
0
LTYPE
5
6F
100
AcDbSymbolTableRecord
100
AcDbLinetypeTableRecord
70
0
2
DASHED
3
__ __ __ __ __ __ __ __ __
72
65
73
2
40
25.72
49
12.86
74
0
49
-12.86
74
0
0
ENDTAB
0
TABLE
2
LAYER
5
252
100
AcDbSymbolTable
0
LAYER
5
10
100
AcDbSymbolTableRecord
100
AcDbLayerTableRecord
2
0
70
0
62
7
6
Continuous
290
1
370
-3
390
0
0
LAYER
5
71
100
AcDbSymbolTableRecord
100
AcDbLayerTableRecord
2
80
70
0
62
-6
6
Continuous
290
1
370
-3
390
0
0
LAYER
5
73
100
AcDbSymbolTableRecord
100
AcDbLayerTableRecord
2
81
70
0
62
-3
6
Continuous
290
1
370
-3
390
0
0
LAYER
5
75
100
AcDbSymbolTableRecord
100
AcDbLayerTableRecord
2
1
70
0
62
4
6
Continuous
290
1
370
-3
390
0
0
LAYER
5
A2
100
AcDbSymbolTableRecord
100
AcDbLayerTableRecord
2
4
70
0
62
-2
6
CENTER
290
1
370
-3
390
0
0
LAYER
5
114
100
AcDbSymbolTableRecord
100
AcDbLayerTableRecord
2
Defpoints
70
0
62
7
6
Continuous
290
0
370
-3
390
0
0
LAYER
5
141
100
AcDbSymbolTableRecord
100
AcDbLayerTableRecord
2
2
70
0
62
7
6
Continuous
290
1
370
-3
390
0
0
LAYER
5
23c
100
AcDbSymbolTableRecord
100
AcDbLayerTableRecord
2
SK1
70
0
62
4
6
Continuous
290
1
370
-3
390
0
0
LAYER
5
23d
100
AcDbSymbolTableRecord
100
AcDbLayerTableRecord
2
SK4
70
0
62
2
6
CENTER
290
1
370
-3
390
0
0
LAYER
5
23e
100
AcDbSymbolTableRecord
100
AcDbLayerTableRecord
2
SK2
70
0
62
7
6
Continuous
290
1
370
-3
390
0
0
LAYER
5
23f
100
AcDbSymbolTableRecord
100
AcDbLayerTableRecord
2
SK6
70
0
62
5
6
Continuous
290
1
370
-3
390
0
0
ENDTAB
0
TABLE
2
STYLE
5
253
100
AcDbSymbolTable
0
STYLE
5
11
100
AcDbSymbolTableRecord
100
AcDbTextStyleTableRecord
2
Standard
3
txt
70
0
71
0
40
0
41
1
42
0
50
0
0
STYLE
5
105
100
AcDbSymbolTableRecord
100
AcDbTextStyleTableRecord
2
iso_b_vert
3
simplex.shx
70
0
71
0
40
0
41
1
42
0
50
0
0
STYLE
5
106
100
AcDbSymbolTableRecord
100
AcDbTextStyleTableRecord
2
DWGDirectTextStyle
3
simplex
70
0
71
0
40
0
41
1
42
0
50
0
0
ENDTAB
0
TABLE
2
DIMSTYLE
5
254
100
AcDbSymbolTable
100
AcDbDimStyleTable
0
DIMSTYLE
105
27
100
AcDbSymbolTableRecord
100
AcDbDimStyleTableRecord
2
Standard
70
0
3
<>
41
0.18
42
0.0625
44
0.18
140
0.18
147
0.09
73
0
74
0
77
1
271
2
275
0
278
52
280
0
340
11
0
ENDTAB
0
TABLE
2
VIEW
5
255
100
AcDbSymbolTable
0
ENDTAB
0
TABLE
2
UCS
5
256
100
AcDbSymbolTable
0
ENDTAB
0
TABLE
2
APPID
5
257
100
AcDbSymbolTable
0
APPID
5
12
100
AcDbSymbolTableRecord
100
AcDbRegAppTableRecord
2
ACAD
70
0
0
APPID
5
109
100
AcDbSymbolTableRecord
100
AcDbRegAppTableRecord
2
ACAD_DSTYLE_DIMBREAK
70
0
0
APPID
5
1FB
100
AcDbSymbolTableRecord
100
AcDbRegAppTableRecord
2
ACAD_DSTYLE_DIM_LINETYPE
70
0
0
APPID
5
1FC
100
AcDbSymbolTableRecord
100
AcDbRegAppTableRecord
2
ACAD_DSTYLE_DIM_EXT1_LINETYPE
70
0
0
APPID
5
1FD
100
AcDbSymbolTableRecord
100
AcDbRegAppTableRecord
2
ACAD_DSTYLE_DIM_EXT2_LINETYPE
70
0
0
APPID
5
238
100
AcDbSymbolTableRecord
100
AcDbRegAppTableRecord
2
ACAD_MLEADERVER
70
0
0
ENDTAB
0
TABLE
2
BLOCK_RECORD
5
258
100
AcDbSymbolTable
0
BLOCK_RECORD
5
1F
100
AcDbSymbolTableRecord
100
AcDbBlockTableRecord
2
*Model_Space
340
0
70
0
0
BLOCK_RECORD
5
1B
100
AcDbSymbolTableRecord
100
AcDbBlockTableRecord
2
*Paper_Space
340
0
70
0
0
BLOCK_RECORD
5
23
100
AcDbSymbolTableRecord
100
AcDbBlockTableRecord
2
*Paper_Space0
340
0
70
0
0
BLOCK_RECORD
5
10B
100
AcDbSymbolTableRecord
100
AcDbBlockTableRecord
2
_Closed
340
0
70
0
0
BLOCK_RECORD
5
115
100
AcDbSymbolTableRecord
100
AcDbBlockTableRecord
2
*D2
340
0
70
0
0
BLOCK_RECORD
5
121
100
AcDbSymbolTableRecord
100
AcDbBlockTableRecord
2
_U0
340
0
70
0
0
BLOCK_RECORD
5
133
100
AcDbSymbolTableRecord
100
AcDbBlockTableRecord
2
*D4
340
0
70
0
0
BLOCK_RECORD
5
142
100
AcDbSymbolTableRecord
100
AcDbBlockTableRecord
2
_U1
340
0
70
0
0
BLOCK_RECORD
5
152
100
AcDbSymbolTableRecord
100
AcDbBlockTableRecord
2
*D6
340
0
70
0
0
BLOCK_RECORD
5
160
100
AcDbSymbolTableRecord
100
AcDbBlockTableRecord
2
_U2
340
0
70
0
0
BLOCK_RECORD
5
170
100
AcDbSymbolTableRecord
100
AcDbBlockTableRecord
2
*D8
340
0
70
0
0
BLOCK_RECORD
5
17C
100
AcDbSymbolTableRecord
100
AcDbBlockTableRecord
2
_U3
340
0
70
0
0
BLOCK_RECORD
5
18C
100
AcDbSymbolTableRecord
100
AcDbBlockTableRecord
2
*D10
340
0
70
0
0
BLOCK_RECORD
5
198
100
AcDbSymbolTableRecord
100
AcDbBlockTableRecord
2
_U4
340
0
70
0
0
BLOCK_RECORD
5
1A8
100
AcDbSymbolTableRecord
100
AcDbBlockTableRecord
2
*D12
340
0
70
0
0
BLOCK_RECORD
5
1B4
100
AcDbSymbolTableRecord
100
AcDbBlockTableRecord
2
_U5
340
0
70
0
0
BLOCK_RECORD
5
1C4
100
AcDbSymbolTableRecord
100
AcDbBlockTableRecord
2
*D14
340
0
70
0
0
BLOCK_RECORD
5
1D0
100
AcDbSymbolTableRecord
100
AcDbBlockTableRecord
2
_U6
340
0
70
0
0
ENDTAB
0
ENDSEC
0
SECTION
2
BLOCKS
0
BLOCK
5
20
100
AcDbEntity
8
0
100
AcDbBlockBegin
2
*Model_Space
70
0
10
0
20
0
30
0
3
*Model_Space
0
ENDBLK
5
21
100
AcDbEntity
8
0
100
AcDbBlockEnd
0
BLOCK
5
1C
100
AcDbEntity
8
0
100
AcDbBlockBegin
2
*Paper_Space
70
0
10
0
20
0
30
0
3
*Paper_Space
0
ENDBLK
5
1D
100
AcDbEntity
8
0
100
AcDbBlockEnd
0
BLOCK
5
24
100
AcDbEntity
8
0
100
AcDbBlockBegin
2
*Paper_Space0
70
0
10
0
20
0
30
0
3
*Paper_Space0
0
ENDBLK
5
25
100
AcDbEntity
8
0
100
AcDbBlockEnd
0
BLOCK
5
10C
100
AcDbEntity
8
0
100
AcDbBlockBegin
2
_Closed
70
0
10
0
20
0
30
0
3
_Closed
0
LINE
5
10E
100
AcDbEntity
8
0
62
256
6
ByLayer
370
-2
48
1
60
0
100
AcDbLine
10
-1
20
0.166667
30
0
11
0
21
0
31
0
39
0
210
0
220
0
230
1
0
LINE
5
10F
100
AcDbEntity
8
0
62
256
6
ByLayer
370
-2
48
1
60
0
100
AcDbLine
10
0
20
0
30
0
11
-1
21
-0.166667
31
0
39
0
210
0
220
0
230
1
0
LINE
5
110
100
AcDbEntity
8
0
62
256
6
ByLayer
370
-2
48
1
60
0
100
AcDbLine
10
-1
20
0.166667
30
0
11
-1
21
-0.166667
31
0
39
0
210
0
220
0
230
1
0
LINE
5
111
100
AcDbEntity
8
0
62
256
6
ByLayer
370
-2
48
1
60
0
100
AcDbLine
10
0
20
0
30
0
11
-1
21
0
31
0
39
0
210
0
220
0
230
1
0
ENDBLK
5
10D
100
AcDbEntity
8
0
100
AcDbBlockEnd
0
BLOCK
5
116
100
AcDbEntity
8
0
100
AcDbBlockBegin
2
*D2
70
1
10
0
20
0
30
0
3
*D2
0
LINE
5
118
100
AcDbEntity
8
0
62
256
6
ByLayer
370
-2
48
1
60
0
100
AcDbLine
10
0
20
-6.5875
30
0
11
0
21
-31.67512
31
0
39
0
210
0
220
0
230
1
0
LINE
5
119
100
AcDbEntity
8
0
62
256
6
ByLayer
370
-2
48
1
60
0
100
AcDbLine
10
63
20
-1.5875
30
0
11
63
21
-31.67512
31
0
39
0
210
0
220
0
230
1
0
LINE
5
11A
100
AcDbEntity
8
0
62
256
6
ByLayer
370
-2
48
1
60
0
100
AcDbLine
10
3.175
20
-28.50012
30
0
11
59.825
21
-28.50012
31
0
39
0
210
0
220
0
230
1
0
SOLID
5
11B
100
AcDbEntity
8
0
62
256
6
ByLayer
370
-1
48
1
60
0
100
AcDbTrace
10
3.175
20
-27.970953
30
0
11
3.175
21
-29.029287
31
0
12
0
22
-28.50012
32
0
13
0
23
-28.50012
33
0
39
0
210
0
220
0
230
1
0
SOLID
5
11C
100
AcDbEntity
8
0
62
256
6
ByLayer
370
-1
48
1
60
0
100
AcDbTrace
10
59.825
20
-29.029287
30
0
11
59.825
21
-27.970953
31
0
12
63
22
-28.50012
32
0
13
63
23
-28.50012
33
0
39
0
210
0
220
0
230
1
0
MTEXT
5
11D
100
AcDbEntity
8
0
62
256
6
ByLayer
370
18
48
1
60
0
100
AcDbMText
10
31.5
20
-21.193619
30
0
210
0
220
0
230
1
1
\A1;63
40
3.50012
41
0
44
1
50
0
71
5
72
5
7
iso_b_vert
0
POINT
5
11E
100
AcDbEntity
8
Defpoints
62
0
6
ByLayer
370
-1
48
1
60
0
100
AcDbPoint
10
0
20
-5
30
0
39
0
210
0
220
0
230
1
50
360
0
POINT
5
11F
100
AcDbEntity
8
Defpoints
62
0
6
ByLayer
370
-1
48
1
60
0
100
AcDbPoint
10
63
20
0
30
0
39
0
210
0
220
0
230
1
50
360
0
POINT
5
120
100
AcDbEntity
8
Defpoints
62
0
6
ByLayer
370
-1
48
1
60
0
100
AcDbPoint
10
63
20
-28.50012
30
0
39
0
210
0
220
0
230
1
50
360
0
ENDBLK
5
117
100
AcDbEntity
8
0
100
AcDbBlockEnd
0
BLOCK
5
12E
100
AcDbEntity
8
0
100
AcDbBlockBegin
2
_U0
70
0
10
0
20
0
30
0
3
_U0
0
MTEXT
5
122
100
AcDbEntity
8
SK2
62
256
6
ByLayer
370
18
48
1
60
0
100
AcDbMText
10
26.270389
20
-27.467451
30
0
210
0
220
0
230
1
1
\W0.7468;63.00
40
3.50012
41
0
44
1.084337
50
0
71
7
72
5
7
iso_b_vert
0
MTEXT
5
123
100
AcDbEntity
8
SK2
62
256
6
ByLayer
370
18
48
1
60
0
100
AcDbMText
10
22.744329
20
-27.400814
30
0
210
0
220
0
230
1
1
\W0.1790;(
40
3.175
41
0
44
1.084337
50
0
71
7
72
5
7
iso_b_vert
0
MTEXT
5
124
100
AcDbEntity
8
SK2
62
256
6
ByLayer
370
18
48
1
60
0
100
AcDbMText
10
40.258393
20
-27.400814
30
0
210
0
220
0
230
1
1
\W0.1969;)
40
3.175
41
0
44
1.084337
50
0
71
7
72
5
7
iso_b_vert
0
LINE
5
125
100
AcDbEntity
8
SK2
62
256
6
ByLayer
370
13
48
1
60
0
100
AcDbLine
10
0
20
-6.5875
30
0
11
0
21
-31.67512
31
0
39
0
210
0
220
0
230
1
0
LINE
5
126
100
AcDbEntity
8
SK2
62
256
6
ByLayer
370
13
48
1
60
0
100
AcDbLine
10
63
20
-1.5875
30
0
11
63
21
-31.67512
31
0
39
0
210
0
220
0
230
1
0
LINE
5
127
100
AcDbEntity
8
SK2
62
256
6
ByLayer
370
13
48
1
60
0
100
AcDbLine
10
0
20
-28.50012
30
0
11
63
21
-28.50012
31
0
39
0
210
0
220
0
230
1
0
LINE
5
128
100
AcDbEntity
8
SK2
62
256
6
ByLayer
370
13
48
1
60
0
100
AcDbLine
10
0
20
-28.50012
30
0
11
3.174998
21
-28.082123
31
0
39
0
210
0
220
0
230
1
0
LINE
5
129
100
AcDbEntity
8
SK2
62
256
6
ByLayer
370
13
48
1
60
0
100
AcDbLine
10
0
20
-28.50012
30
0
11
3.175002
21
-28.918117
31
0
39
0
210
0
220
0
230
1
0
LINE
5
12A
100
AcDbEntity
8
SK2
62
256
6
ByLayer
370
13
48
1
60
0
100
AcDbLine
10
3.174998
20
-28.082123
30
0
11
3.175002
21
-28.918117
31
0
39
0
210
0
220
0
230
1
0
LINE
5
12B
100
AcDbEntity
8
SK2
62
256
6
ByLayer
370
13
48
1
60
0
100
AcDbLine
10
63
20
-28.50012
30
0
11
59.825002
21
-28.918117
31
0
39
0
210
0
220
0
230
1
0
LINE
5
12C
100
AcDbEntity
8
SK2
62
256
6
ByLayer
370
13
48
1
60
0
100
AcDbLine
10
63
20
-28.50012
30
0
11
59.824998
21
-28.082123
31
0
39
0
210
0
220
0
230
1
0
LINE
5
12D
100
AcDbEntity
8
SK2
62
256
6
ByLayer
370
13
48
1
60
0
100
AcDbLine
10
59.825002
20
-28.918117
30
0
11
59.824998
21
-28.082123
31
0
39
0
210
0
220
0
230
1
0
ENDBLK
5
12F
100
AcDbEntity
8
0
100
AcDbBlockEnd
0
BLOCK
5
134
100
AcDbEntity
8
0
100
AcDbBlockBegin
2
*D4
70
1
10
0
20
0
30
0
3
*D4
0
LINE
5
136
100
AcDbEntity
8
0
62
256
6
ByLayer
370
-2
48
1
60
0
100
AcDbLine
10
63.077
20
-4.15
30
0
11
72.92506
21
-4.15
31
0
39
0
210
0
220
0
230
1
0
LINE
5
137
100
AcDbEntity
8
0
62
256
6
ByLayer
370
-2
48
1
60
0
100
AcDbLine
10
63.077
20
4.15
30
0
11
72.92506
21
4.15
31
0
39
0
210
0
220
0
230
1
0
LINE
5
138
100
AcDbEntity
8
0
62
256
6
ByLayer
370
-2
48
1
60
0
100
AcDbLine
10
69.75006
20
4.15
30
0
11
69.75006
21
28.946466
31
0
39
0
210
0
220
0
230
1
0
LINE
5
139
100
AcDbEntity
8
0
62
256
6
ByLayer
370
-2
48
1
60
0
100
AcDbLine
10
69.75006
20
-7.325
30
0
11
69.75006
21
-10.5
31
0
39
0
210
0
220
0
230
1
0
LINE
5
13A
100
AcDbEntity
8
0
62
256
6
ByLayer
370
-2
48
1
60
0
100
AcDbLine
10
69.75006
20
7.325
30
0
11
69.75006
21
10.5
31
0
39
0
210
0
220
0
230
1
0
SOLID
5
13B
100
AcDbEntity
8
0
62
256
6
ByLayer
370
-1
48
1
60
0
100
AcDbTrace
10
70.279227
20
-7.325
30
0
11
69.220893
21
-7.325
31
0
12
69.75006
22
-4.15
32
0
13
69.75006
23
-4.15
33
0
39
0
210
0
220
0
230
1
0
SOLID
5
13C
100
AcDbEntity
8
0
62
256
6
ByLayer
370
-1
48
1
60
0
100
AcDbTrace
10
69.220893
20
7.325
30
0
11
70.279227
21
7.325
31
0
12
69.75006
22
4.15
32
0
13
69.75006
23
4.15
33
0
39
0
210
0
220
0
230
1
0
MTEXT
5
13D
100
AcDbEntity
8
0
62
256
6
ByLayer
370
18
48
1
60
0
100
AcDbMText
10
62.44356
20
19.723233
30
0
210
0
220
0
230
1
1
\A1;8.3
40
3.50012
41
0
44
1
50
90
71
5
72
5
7
iso_b_vert
0
POINT
5
13E
100
AcDbEntity
8
Defpoints
62
0
6
ByLayer
370
-1
48
1
60
0
100
AcDbPoint
10
61.4895
20
-4.15
30
0
39
0
210
0
220
0
230
1
50
360
0
POINT
5
13F
100
AcDbEntity
8
Defpoints
62
0
6
ByLayer
370
-1
48
1
60
0
100
AcDbPoint
10
61.4895
20
4.15
30
0
39
0
210
0
220
0
230
1
50
360
0
POINT
5
140
100
AcDbEntity
8
Defpoints
62
0
6
ByLayer
370
-1
48
1
60
0
100
AcDbPoint
10
69.75006
20
4.15
30
0
39
0
210
0
220
0
230
1
50
360
0
ENDBLK
5
135
100
AcDbEntity
8
0
100
AcDbBlockEnd
0
BLOCK
5
14D
100
AcDbEntity
8
0
100
AcDbBlockBegin
2
_U1
70
0
10
0
20
0
30
0
3
_U1
0
MTEXT
5
143
100
AcDbEntity
8
2
62
256
6
ByLayer
370
18
48
1
60
0
100
AcDbMText
10
69.060403
20
8.307505
30
0
210
0
220
0
230
1
1
\W0.7346;8.30
40
3.50012
41
0
44
1.084337
50
90
71
7
72
5
7
iso_b_vert
0
LINE
5
144
100
AcDbEntity
8
2
62
256
6
ByLayer
370
13
48
1
60
0
100
AcDbLine
10
63.077
20
-4.15
30
0
11
72.92506
21
-4.15
31
0
39
0
210
0
220
0
230
1
0
LINE
5
145
100
AcDbEntity
8
2
62
256
6
ByLayer
370
13
48
1
60
0
100
AcDbLine
10
63.077
20
4.15
30
0
11
72.92506
21
4.15
31
0
39
0
210
0
220
0
230
1
0
LINE
5
146
100
AcDbEntity
8
2
62
256
6
ByLayer
370
13
48
1
60
0
100
AcDbLine
10
69.75006
20
-4.15
30
0
11
69.75006
21
16.36468
31
0
39
0
210
0
220
0
230
1
0
LINE
5
147
100
AcDbEntity
8
2
62
256
6
ByLayer
370
13
48
1
60
0
100
AcDbLine
10
69.75006
20
-4.15
30
0
11
69.332063
21
-0.975002
31
0
39
0
210
0
220
0
230
1
0
LINE
5
148
100
AcDbEntity
8
2
62
256
6
ByLayer
370
13
48
1
60
0
100
AcDbLine
10
69.75006
20
-4.15
30
0
11
70.168057
21
-0.974998
31
0
39
0
210
0
220
0
230
1
0
LINE
5
149
100
AcDbEntity
8
2
62
256
6
ByLayer
370
13
48
1
60
0
100
AcDbLine
10
69.332063
20
-0.975002
30
0
11
70.168057
21
-0.974998
31
0
39
0
210
0
220
0
230
1
0
LINE
5
14A
100
AcDbEntity
8
2
62
256
6
ByLayer
370
13
48
1
60
0
100
AcDbLine
10
69.75006
20
4.15
30
0
11
70.168057
21
0.975002
31
0
39
0
210
0
220
0
230
1
0
LINE
5
14B
100
AcDbEntity
8
2
62
256
6
ByLayer
370
13
48
1
60
0
100
AcDbLine
10
69.75006
20
4.15
30
0
11
69.332063
21
0.974998
31
0
39
0
210
0
220
0
230
1
0
LINE
5
14C
100
AcDbEntity
8
2
62
256
6
ByLayer
370
13
48
1
60
0
100
AcDbLine
10
70.168057
20
0.975002
30
0
11
69.332063
21
0.974998
31
0
39
0
210
0
220
0
230
1
0
ENDBLK
5
14E
100
AcDbEntity
8
0
100
AcDbBlockEnd
0
BLOCK
5
153
100
AcDbEntity
8
0
100
AcDbBlockBegin
2
*D6
70
1
10
0
20
0
30
0
3
*D6
0
LINE
5
155
100
AcDbEntity
8
0
62
256
6
ByLayer
370
-2
48
1
60
0
100
AcDbLine
10
-41.5875
20
5
30
0
11
-46.42494
21
5
31
0
39
0
210
0
220
0
230
1
0
LINE
5
156
100
AcDbEntity
8
0
62
256
6
ByLayer
370
-2
48
1
60
0
100
AcDbLine
10
-41.5875
20
-5
30
0
11
-46.42494
21
-5
31
0
39
0
210
0
220
0
230
1
0
LINE
5
157
100
AcDbEntity
8
0
62
256
6
ByLayer
370
-2
48
1
60
0
100
AcDbLine
10
-43.24994
20
5
30
0
11
-43.24994
21
28.117532
31
0
39
0
210
0
220
0
230
1
0
LINE
5
158
100
AcDbEntity
8
0
62
256
6
ByLayer
370
-2
48
1
60
0
100
AcDbLine
10
-43.24994
20
8.175
30
0
11
-43.24994
21
11.35
31
0
39
0
210
0
220
0
230
1
0
LINE
5
159
100
AcDbEntity
8
0
62
256
6
ByLayer
370
-2
48
1
60
0
100
AcDbLine
10
-43.24994
20
-8.175
30
0
11
-43.24994
21
-11.35
31
0
39
0
210
0
220
0
230
1
0
SOLID
5
15A
100
AcDbEntity
8
0
62
256
6
ByLayer
370
-1
48
1
60
0
100
AcDbTrace
10
-43.779107
20
8.175
30
0
11
-42.720773
21
8.175
31
0
12
-43.24994
22
5
32
0
13
-43.24994
23
5
33
0
39
0
210
0
220
0
230
1
0
SOLID
5
15B
100
AcDbEntity
8
0
62
256
6
ByLayer
370
-1
48
1
60
0
100
AcDbTrace
10
-42.720773
20
-8.175
30
0
11
-43.779107
21
-8.175
31
0
12
-43.24994
22
-5
32
0
13
-43.24994
23
-5
33
0
39
0
210
0
220
0
230
1
0
MTEXT
5
15C
100
AcDbEntity
8
0
62
256
6
ByLayer
370
18
48
1
60
0
100
AcDbMText
10
-50.556441
20
19.97767
30
0
210
0
220
0
230
1
1
\A1;10
40
3.50012
41
0
44
1
50
90
71
5
72
5
7
iso_b_vert
0
POINT
5
15D
100
AcDbEntity
8
Defpoints
62
0
6
ByLayer
370
-1
48
1
60
0
100
AcDbPoint
10
-40
20
5
30
0
39
0
210
0
220
0
230
1
50
360
0
POINT
5
15E
100
AcDbEntity
8
Defpoints
62
0
6
ByLayer
370
-1
48
1
60
0
100
AcDbPoint
10
-40
20
-5
30
0
39
0
210
0
220
0
230
1
50
360
0
POINT
5
15F
100
AcDbEntity
8
Defpoints
62
0
6
ByLayer
370
-1
48
1
60
0
100
AcDbPoint
10
-43.24994
20
-5
30
0
39
0
210
0
220
0
230
1
50
360
0
ENDBLK
5
154
100
AcDbEntity
8
0
100
AcDbBlockEnd
0
BLOCK
5
16B
100
AcDbEntity
8
0
100
AcDbBlockBegin
2
_U2
70
0
10
0
20
0
30
0
3
_U2
0
MTEXT
5
161
100
AcDbEntity
8
SK2
62
256
6
ByLayer
370
18
48
1
60
0
100
AcDbMText
10
-43.939597
20
15.157505
30
0
210
0
220
0
230
1
1
\W0.6864;10.00
40
3.50012
41
0
44
1.084337
50
90
71
7
72
5
7
iso_b_vert
0
LINE
5
162
100
AcDbEntity
8
SK2
62
256
6
ByLayer
370
13
48
1
60
0
100
AcDbLine
10
-41.5875
20
5
30
0
11
-46.42494
21
5
31
0
39
0
210
0
220
0
230
1
0
LINE
5
163
100
AcDbEntity
8
SK2
62
256
6
ByLayer
370
13
48
1
60
0
100
AcDbLine
10
-41.5875
20
-5
30
0
11
-46.42494
21
-5
31
0
39
0
210
0
220
0
230
1
0
LINE
5
164
100
AcDbEntity
8
SK2
62
256
6
ByLayer
370
13
48
1
60
0
100
AcDbLine
10
-43.24994
20
-5
30
0
11
-43.24994
21
24.955339
31
0
39
0
210
0
220
0
230
1
0
LINE
5
165
100
AcDbEntity
8
SK2
62
256
6
ByLayer
370
13
48
1
60
0
100
AcDbLine
10
-43.24994
20
5
30
0
11
-42.831943
21
1.825002
31
0
39
0
210
0
220
0
230
1
0
LINE
5
166
100
AcDbEntity
8
SK2
62
256
6
ByLayer
370
13
48
1
60
0
100
AcDbLine
10
-43.24994
20
5
30
0
11
-43.667937
21
1.824998
31
0
39
0
210
0
220
0
230
1
0
LINE
5
167
100
AcDbEntity
8
SK2
62
256
6
ByLayer
370
13
48
1
60
0
100
AcDbLine
10
-42.831943
20
1.825002
30
0
11
-43.667937
21
1.824998
31
0
39
0
210
0
220
0
230
1
0
LINE
5
168
100
AcDbEntity
8
SK2
62
256
6
ByLayer
370
13
48
1
60
0
100
AcDbLine
10
-43.24994
20
-5
30
0
11
-43.667937
21
-1.825002
31
0
39
0
210
0
220
0
230
1
0
LINE
5
169
100
AcDbEntity
8
SK2
62
256
6
ByLayer
370
13
48
1
60
0
100
AcDbLine
10
-43.24994
20
-5
30
0
11
-42.831943
21
-1.824998
31
0
39
0
210
0
220
0
230
1
0
LINE
5
16A
100
AcDbEntity
8
SK2
62
256
6
ByLayer
370
13
48
1
60
0
100
AcDbLine
10
-43.667937
20
-1.825002
30
0
11
-42.831943
21
-1.824998
31
0
39
0
210
0
220
0
230
1
0
ENDBLK
5
16C
100
AcDbEntity
8
0
100
AcDbBlockEnd
0
BLOCK
5
171
100
AcDbEntity
8
0
100
AcDbBlockBegin
2
*D8
70
1
10
0
20
0
30
0
3
*D8
0
LINE
5
173
100
AcDbEntity
8
0
62
256
6
ByLayer
370
-2
48
1
60
0
100
AcDbLine
10
-40
20
-6.5875
30
0
11
-40
21
-31.67512
31
0
39
0
210
0
220
0
230
1
0
LINE
5
174
100
AcDbEntity
8
0
62
256
6
ByLayer
370
-2
48
1
60
0
100
AcDbLine
10
0
20
-6.5875
30
0
11
0
21
-31.67512
31
0
39
0
210
0
220
0
230
1
0
LINE
5
175
100
AcDbEntity
8
0
62
256
6
ByLayer
370
-2
48
1
60
0
100
AcDbLine
10
-36.825
20
-28.50012
30
0
11
-3.175
21
-28.50012
31
0
39
0
210
0
220
0
230
1
0
SOLID
5
176
100
AcDbEntity
8
0
62
256
6
ByLayer
370
-1
48
1
60
0
100
AcDbTrace
10
-36.825
20
-27.970953
30
0
11
-36.825
21
-29.029287
31
0
12
-40
22
-28.50012
32
0
13
-40
23
-28.50012
33
0
39
0
210
0
220
0
230
1
0
SOLID
5
177
100
AcDbEntity
8
0
62
256
6
ByLayer
370
-1
48
1
60
0
100
AcDbTrace
10
-3.175
20
-29.029287
30
0
11
-3.175
21
-27.970953
31
0
12
0
22
-28.50012
32
0
13
0
23
-28.50012
33
0
39
0
210
0
220
0
230
1
0
MTEXT
5
178
100
AcDbEntity
8
0
62
256
6
ByLayer
370
18
48
1
60
0
100
AcDbMText
10
-20
20
-21.193619
30
0
210
0
220
0
230
1
1
\A1;40
40
3.50012
41
0
44
1
50
0
71
5
72
5
7
iso_b_vert
0
POINT
5
179
100
AcDbEntity
8
Defpoints
62
0
6
ByLayer
370
-1
48
1
60
0
100
AcDbPoint
10
-40
20
-5
30
0
39
0
210
0
220
0
230
1
50
360
0
POINT
5
17A
100
AcDbEntity
8
Defpoints
62
0
6
ByLayer
370
-1
48
1
60
0
100
AcDbPoint
10
0
20
-5
30
0
39
0
210
0
220
0
230
1
50
360
0
POINT
5
17B
100
AcDbEntity
8
Defpoints
62
0
6
ByLayer
370
-1
48
1
60
0
100
AcDbPoint
10
0
20
-28.50012
30
0
39
0
210
0
220
0
230
1
50
360
0
ENDBLK
5
172
100
AcDbEntity
8
0
100
AcDbBlockEnd
0
BLOCK
5
187
100
AcDbEntity
8
0
100
AcDbBlockBegin
2
_U3
70
0
10
0
20
0
30
0
3
_U3
0
MTEXT
5
17D
100
AcDbEntity
8
SK2
62
256
6
ByLayer
370
18
48
1
60
0
100
AcDbMText
10
-25.413884
20
-27.467451
30
0
210
0
220
0
230
1
1
\W0.7694;40.00
40
3.50012
41
0
44
1.084337
50
0
71
7
72
5
7
iso_b_vert
0
LINE
5
17E
100
AcDbEntity
8
SK2
62
256
6
ByLayer
370
13
48
1
60
0
100
AcDbLine
10
-40
20
-6.5875
30
0
11
-40
21
-31.67512
31
0
39
0
210
0
220
0
230
1
0
LINE
5
17F
100
AcDbEntity
8
SK2
62
256
6
ByLayer
370
13
48
1
60
0
100
AcDbLine
10
0
20
-6.5875
30
0
11
0
21
-31.67512
31
0
39
0
210
0
220
0
230
1
0
LINE
5
180
100
AcDbEntity
8
SK2
62
256
6
ByLayer
370
13
48
1
60
0
100
AcDbLine
10
-40
20
-28.50012
30
0
11
0
21
-28.50012
31
0
39
0
210
0
220
0
230
1
0
LINE
5
181
100
AcDbEntity
8
SK2
62
256
6
ByLayer
370
13
48
1
60
0
100
AcDbLine
10
-40
20
-28.50012
30
0
11
-36.825002
21
-28.082123
31
0
39
0
210
0
220
0
230
1
0
LINE
5
182
100
AcDbEntity
8
SK2
62
256
6
ByLayer
370
13
48
1
60
0
100
AcDbLine
10
-40
20
-28.50012
30
0
11
-36.824998
21
-28.918117
31
0
39
0
210
0
220
0
230
1
0
LINE
5
183
100
AcDbEntity
8
SK2
62
256
6
ByLayer
370
13
48
1
60
0
100
AcDbLine
10
-36.825002
20
-28.082123
30
0
11
-36.824998
21
-28.918117
31
0
39
0
210
0
220
0
230
1
0
LINE
5
184
100
AcDbEntity
8
SK2
62
256
6
ByLayer
370
13
48
1
60
0
100
AcDbLine
10
0
20
-28.50012
30
0
11
-3.174998
21
-28.918117
31
0
39
0
210
0
220
0
230
1
0
LINE
5
185
100
AcDbEntity
8
SK2
62
256
6
ByLayer
370
13
48
1
60
0
100
AcDbLine
10
0
20
-28.50012
30
0
11
-3.175002
21
-28.082123
31
0
39
0
210
0
220
0
230
1
0
LINE
5
186
100
AcDbEntity
8
SK2
62
256
6
ByLayer
370
13
48
1
60
0
100
AcDbLine
10
-3.174998
20
-28.918117
30
0
11
-3.175002
21
-28.082123
31
0
39
0
210
0
220
0
230
1
0
ENDBLK
5
188
100
AcDbEntity
8
0
100
AcDbBlockEnd
0
BLOCK
5
18D
100
AcDbEntity
8
0
100
AcDbBlockBegin
2
*D10
70
1
10
0
20
0
30
0
3
*D10
0
LINE
5
18F
100
AcDbEntity
8
0
62
256
6
ByLayer
370
-2
48
1
60
0
100
AcDbLine
10
2
20
3.0625
30
0
11
2
21
-22.92482
31
0
39
0
210
0
220
0
230
1
0
LINE
5
190
100
AcDbEntity
8
0
62
256
6
ByLayer
370
-2
48
1
60
0
100
AcDbLine
10
63
20
-1.5875
30
0
11
63
21
-22.92482
31
0
39
0
210
0
220
0
230
1
0
LINE
5
191
100
AcDbEntity
8
0
62
256
6
ByLayer
370
-2
48
1
60
0
100
AcDbLine
10
5.175
20
-19.74982
30
0
11
59.825
21
-19.74982
31
0
39
0
210
0
220
0
230
1
0
SOLID
5
192
100
AcDbEntity
8
0
62
256
6
ByLayer
370
-1
48
1
60
0
100
AcDbTrace
10
5.175
20
-19.220653
30
0
11
5.175
21
-20.278987
31
0
12
2
22
-19.74982
32
0
13
2
23
-19.74982
33
0
39
0
210
0
220
0
230
1
0
SOLID
5
193
100
AcDbEntity
8
0
62
256
6
ByLayer
370
-1
48
1
60
0
100
AcDbTrace
10
59.825
20
-20.278987
30
0
11
59.825
21
-19.220653
31
0
12
63
22
-19.74982
32
0
13
63
23
-19.74982
33
0
39
0
210
0
220
0
230
1
0
MTEXT
5
194
100
AcDbEntity
8
0
62
256
6
ByLayer
370
18
48
1
60
0
100
AcDbMText
10
32.5
20
-12.443319
30
0
210
0
220
0
230
1
1
\A1;61
40
3.50012
41
0
44
1
50
0
71
5
72
5
7
iso_b_vert
0
POINT
5
195
100
AcDbEntity
8
Defpoints
62
0
6
ByLayer
370
-1
48
1
60
0
100
AcDbPoint
10
2
20
4.65
30
0
39
0
210
0
220
0
230
1
50
360
0
POINT
5
196
100
AcDbEntity
8
Defpoints
62
0
6
ByLayer
370
-1
48
1
60
0
100
AcDbPoint
10
63
20
0
30
0
39
0
210
0
220
0
230
1
50
360
0
POINT
5
197
100
AcDbEntity
8
Defpoints
62
0
6
ByLayer
370
-1
48
1
60
0
100
AcDbPoint
10
63
20
-19.74982
30
0
39
0
210
0
220
0
230
1
50
360
0
ENDBLK
5
18E
100
AcDbEntity
8
0
100
AcDbBlockEnd
0
BLOCK
5
1A3
100
AcDbEntity
8
0
100
AcDbBlockBegin
2
_U4
70
0
10
0
20
0
30
0
3
_U4
0
MTEXT
5
199
100
AcDbEntity
8
SK2
62
256
6
ByLayer
370
18
48
1
60
0
100
AcDbMText
10
27.707837
20
-18.717151
30
0
210
0
220
0
230
1
1
\W0.6864;61.00
40
3.50012
41
0
44
1.084337
50
0
71
7
72
5
7
iso_b_vert
0
LINE
5
19A
100
AcDbEntity
8
SK2
62
256
6
ByLayer
370
13
48
1
60
0
100
AcDbLine
10
2
20
3.0625
30
0
11
2
21
-22.92482
31
0
39
0
210
0
220
0
230
1
0
LINE
5
19B
100
AcDbEntity
8
SK2
62
256
6
ByLayer
370
13
48
1
60
0
100
AcDbLine
10
63
20
-1.5875
30
0
11
63
21
-22.92482
31
0
39
0
210
0
220
0
230
1
0
LINE
5
19C
100
AcDbEntity
8
SK2
62
256
6
ByLayer
370
13
48
1
60
0
100
AcDbLine
10
2
20
-19.74982
30
0
11
63
21
-19.74982
31
0
39
0
210
0
220
0
230
1
0
LINE
5
19D
100
AcDbEntity
8
SK2
62
256
6
ByLayer
370
13
48
1
60
0
100
AcDbLine
10
2
20
-19.74982
30
0
11
5.174998
21
-19.331823
31
0
39
0
210
0
220
0
230
1
0
LINE
5
19E
100
AcDbEntity
8
SK2
62
256
6
ByLayer
370
13
48
1
60
0
100
AcDbLine
10
2
20
-19.74982
30
0
11
5.175002
21
-20.167817
31
0
39
0
210
0
220
0
230
1
0
LINE
5
19F
100
AcDbEntity
8
SK2
62
256
6
ByLayer
370
13
48
1
60
0
100
AcDbLine
10
5.174998
20
-19.331823
30
0
11
5.175002
21
-20.167817
31
0
39
0
210
0
220
0
230
1
0
LINE
5
1A0
100
AcDbEntity
8
SK2
62
256
6
ByLayer
370
13
48
1
60
0
100
AcDbLine
10
63
20
-19.74982
30
0
11
59.825002
21
-20.167817
31
0
39
0
210
0
220
0
230
1
0
LINE
5
1A1
100
AcDbEntity
8
SK2
62
256
6
ByLayer
370
13
48
1
60
0
100
AcDbLine
10
63
20
-19.74982
30
0
11
59.824998
21
-19.331823
31
0
39
0
210
0
220
0
230
1
0
LINE
5
1A2
100
AcDbEntity
8
SK2
62
256
6
ByLayer
370
13
48
1
60
0
100
AcDbLine
10
59.825002
20
-20.167817
30
0
11
59.824998
21
-19.331823
31
0
39
0
210
0
220
0
230
1
0
ENDBLK
5
1A4
100
AcDbEntity
8
0
100
AcDbBlockEnd
0
BLOCK
5
1A9
100
AcDbEntity
8
0
100
AcDbBlockBegin
2
*D12
70
1
10
0
20
0
30
0
3
*D12
0
LINE
5
1AB
100
AcDbEntity
8
0
62
256
6
ByLayer
370
-2
48
1
60
0
100
AcDbLine
10
20
20
-5.7375
30
0
11
20
21
-12.32
31
0
39
0
210
0
220
0
230
1
0
LINE
5
1AC
100
AcDbEntity
8
0
62
256
6
ByLayer
370
-2
48
1
60
0
100
AcDbLine
10
63
20
-1.5875
30
0
11
63
21
-12.32
31
0
39
0
210
0
220
0
230
1
0
LINE
5
1AD
100
AcDbEntity
8
0
62
256
6
ByLayer
370
-2
48
1
60
0
100
AcDbLine
10
23.175
20
-11.82
30
0
11
59.825
21
-11.82
31
0
39
0
210
0
220
0
230
1
0
SOLID
5
1AE
100
AcDbEntity
8
0
62
256
6
ByLayer
370
-1
48
1
60
0
100
AcDbTrace
10
23.175
20
-11.290833
30
0
11
23.175
21
-12.349167
31
0
12
20
22
-11.82
32
0
13
20
23
-11.82
33
0
39
0
210
0
220
0
230
1
0
SOLID
5
1AF
100
AcDbEntity
8
0
62
256
6
ByLayer
370
-1
48
1
60
0
100
AcDbTrace
10
59.825
20
-12.349167
30
0
11
59.825
21
-11.290833
31
0
12
63
22
-11.82
32
0
13
63
23
-11.82
33
0
39
0
210
0
220
0
230
1
0
MTEXT
5
1B0
100
AcDbEntity
8
0
62
256
6
ByLayer
370
18
48
1
60
0
100
AcDbMText
10
41.5
20
-5.975
30
0
210
0
220
0
230
1
1
\A1;43
40
2.8
41
0
44
1
50
0
71
5
72
5
7
iso_b_vert
0
POINT
5
1B1
100
AcDbEntity
8
Defpoints
62
0
6
ByLayer
370
-1
48
1
60
0
100
AcDbPoint
10
20
20
-4.15
30
0
39
0
210
0
220
0
230
1
50
360
0
POINT
5
1B2
100
AcDbEntity
8
Defpoints
62
0
6
ByLayer
370
-1
48
1
60
0
100
AcDbPoint
10
63
20
0
30
0
39
0
210
0
220
0
230
1
50
360
0
POINT
5
1B3
100
AcDbEntity
8
Defpoints
62
0
6
ByLayer
370
-1
48
1
60
0
100
AcDbPoint
10
63
20
-11.82
30
0
39
0
210
0
220
0
230
1
50
360
0
ENDBLK
5
1AA
100
AcDbEntity
8
0
100
AcDbBlockEnd
0
BLOCK
5
1BF
100
AcDbEntity
8
0
100
AcDbBlockBegin
2
_U5
70
0
10
0
20
0
30
0
3
_U5
0
MTEXT
5
1B5
100
AcDbEntity
8
SK2
62
256
6
ByLayer
370
18
48
1
60
0
100
AcDbMText
10
37.169041
20
-11.973893
30
0
210
0
220
0
230
1
1
\W0.7694;43.00
40
2.8
41
0
44
1.084337
50
0
71
7
72
5
7
iso_b_vert
0
LINE
5
1B6
100
AcDbEntity
8
SK2
62
256
6
ByLayer
370
13
48
1
60
0
100
AcDbLine
10
20
20
-5.7375
30
0
11
20
21
-12.32
31
0
39
0
210
0
220
0
230
1
0
LINE
5
1B7
100
AcDbEntity
8
SK2
62
256
6
ByLayer
370
13
48
1
60
0
100
AcDbLine
10
63
20
-1.5875
30
0
11
63
21
-12.32
31
0
39
0
210
0
220
0
230
1
0
LINE
5
1B8
100
AcDbEntity
8
SK2
62
256
6
ByLayer
370
13
48
1
60
0
100
AcDbLine
10
20
20
-11.82
30
0
11
63
21
-11.82
31
0
39
0
210
0
220
0
230
1
0
LINE
5
1B9
100
AcDbEntity
8
SK2
62
256
6
ByLayer
370
13
48
1
60
0
100
AcDbLine
10
20
20
-11.82
30
0
11
23.174998
21
-11.402003
31
0
39
0
210
0
220
0
230
1
0
LINE
5
1BA
100
AcDbEntity
8
SK2
62
256
6
ByLayer
370
13
48
1
60
0
100
AcDbLine
10
20
20
-11.82
30
0
11
23.175002
21
-12.237997
31
0
39
0
210
0
220
0
230
1
0
LINE
5
1BB
100
AcDbEntity
8
SK2
62
256
6
ByLayer
370
13
48
1
60
0
100
AcDbLine
10
23.174998
20
-11.402003
30
0
11
23.175002
21
-12.237997
31
0
39
0
210
0
220
0
230
1
0
LINE
5
1BC
100
AcDbEntity
8
SK2
62
256
6
ByLayer
370
13
48
1
60
0
100
AcDbLine
10
63
20
-11.82
30
0
11
59.825002
21
-12.237997
31
0
39
0
210
0
220
0
230
1
0
LINE
5
1BD
100
AcDbEntity
8
SK2
62
256
6
ByLayer
370
13
48
1
60
0
100
AcDbLine
10
63
20
-11.82
30
0
11
59.824998
21
-11.402003
31
0
39
0
210
0
220
0
230
1
0
LINE
5
1BE
100
AcDbEntity
8
SK2
62
256
6
ByLayer
370
13
48
1
60
0
100
AcDbLine
10
59.825002
20
-12.237997
30
0
11
59.824998
21
-11.402003
31
0
39
0
210
0
220
0
230
1
0
ENDBLK
5
1C0
100
AcDbEntity
8
0
100
AcDbBlockEnd
0
BLOCK
5
1C5
100
AcDbEntity
8
0
100
AcDbBlockBegin
2
*D14
70
1
10
0
20
0
30
0
3
*D14
0
LINE
5
1C7
100
AcDbEntity
8
0
62
256
6
ByLayer
370
-2
48
1
60
0
100
AcDbLine
10
-40
20
-1.5875
30
0
11
-40
21
-41.67512
31
0
39
0
210
0
220
0
230
1
0
LINE
5
1C8
100
AcDbEntity
8
0
62
256
6
ByLayer
370
-2
48
1
60
0
100
AcDbLine
10
63
20
-1.5875
30
0
11
63
21
-41.67512
31
0
39
0
210
0
220
0
230
1
0
LINE
5
1C9
100
AcDbEntity
8
0
62
256
6
ByLayer
370
-2
48
1
60
0
100
AcDbLine
10
-36.825
20
-38.50012
30
0
11
59.825
21
-38.50012
31
0
39
0
210
0
220
0
230
1
0
SOLID
5
1CA
100
AcDbEntity
8
0
62
256
6
ByLayer
370
-1
48
1
60
0
100
AcDbTrace
10
-36.825
20
-37.970953
30
0
11
-36.825
21
-39.029287
31
0
12
-40
22
-38.50012
32
0
13
-40
23
-38.50012
33
0
39
0
210
0
220
0
230
1
0
SOLID
5
1CB
100
AcDbEntity
8
0
62
256
6
ByLayer
370
-1
48
1
60
0
100
AcDbTrace
10
59.825
20
-39.029287
30
0
11
59.825
21
-37.970953
31
0
12
63
22
-38.50012
32
0
13
63
23
-38.50012
33
0
39
0
210
0
220
0
230
1
0
MTEXT
5
1CC
100
AcDbEntity
8
0
62
256
6
ByLayer
370
18
48
1
60
0
100
AcDbMText
10
11.5
20
-31.193619
30
0
210
0
220
0
230
1
1
\A1;103
40
3.50012
41
0
44
1
50
0
71
5
72
5
7
iso_b_vert
0
POINT
5
1CD
100
AcDbEntity
8
Defpoints
62
0
6
ByLayer
370
-1
48
1
60
0
100
AcDbPoint
10
-40
20
0
30
0
39
0
210
0
220
0
230
1
50
360
0
POINT
5
1CE
100
AcDbEntity
8
Defpoints
62
0
6
ByLayer
370
-1
48
1
60
0
100
AcDbPoint
10
63
20
0
30
0
39
0
210
0
220
0
230
1
50
360
0
POINT
5
1CF
100
AcDbEntity
8
Defpoints
62
0
6
ByLayer
370
-1
48
1
60
0
100
AcDbPoint
10
63
20
-38.50012
30
0
39
0
210
0
220
0
230
1
50
360
0
ENDBLK
5
1C6
100
AcDbEntity
8
0
100
AcDbBlockEnd
0
BLOCK
5
1DB
100
AcDbEntity
8
0
100
AcDbBlockBegin
2
_U6
70
0
10
0
20
0
30
0
3
_U6
0
MTEXT
5
1D1
100
AcDbEntity
8
SK2
62
256
6
ByLayer
370
18
48
1
60
0
100
AcDbMText
10
5.400059
20
-37.467451
30
0
210
0
220
0
230
1
1
\W0.7022;103.00
40
3.50012
41
0
44
1.084337
50
0
71
7
72
5
7
iso_b_vert
0
LINE
5
1D2
100
AcDbEntity
8
SK2
62
256
6
ByLayer
370
13
48
1
60
0
100
AcDbLine
10
-40
20
-1.5875
30
0
11
-40
21
-41.67512
31
0
39
0
210
0
220
0
230
1
0
LINE
5
1D3
100
AcDbEntity
8
SK2
62
256
6
ByLayer
370
13
48
1
60
0
100
AcDbLine
10
63
20
-1.5875
30
0
11
63
21
-41.67512
31
0
39
0
210
0
220
0
230
1
0
LINE
5
1D4
100
AcDbEntity
8
SK2
62
256
6
ByLayer
370
13
48
1
60
0
100
AcDbLine
10
-40
20
-38.50012
30
0
11
63
21
-38.50012
31
0
39
0
210
0
220
0
230
1
0
LINE
5
1D5
100
AcDbEntity
8
SK2
62
256
6
ByLayer
370
13
48
1
60
0
100
AcDbLine
10
-40
20
-38.50012
30
0
11
-36.825002
21
-38.082123
31
0
39
0
210
0
220
0
230
1
0
LINE
5
1D6
100
AcDbEntity
8
SK2
62
256
6
ByLayer
370
13
48
1
60
0
100
AcDbLine
10
-40
20
-38.50012
30
0
11
-36.824998
21
-38.918117
31
0
39
0
210
0
220
0
230
1
0
LINE
5
1D7
100
AcDbEntity
8
SK2
62
256
6
ByLayer
370
13
48
1
60
0
100
AcDbLine
10
-36.825002
20
-38.082123
30
0
11
-36.824998
21
-38.918117
31
0
39
0
210
0
220
0
230
1
0
LINE
5
1D8
100
AcDbEntity
8
SK2
62
256
6
ByLayer
370
13
48
1
60
0
100
AcDbLine
10
63
20
-38.50012
30
0
11
59.825002
21
-38.918117
31
0
39
0
210
0
220
0
230
1
0
LINE
5
1D9
100
AcDbEntity
8
SK2
62
256
6
ByLayer
370
13
48
1
60
0
100
AcDbLine
10
63
20
-38.50012
30
0
11
59.824998
21
-38.082123
31
0
39
0
210
0
220
0
230
1
0
LINE
5
1DA
100
AcDbEntity
8
SK2
62
256
6
ByLayer
370
13
48
1
60
0
100
AcDbLine
10
59.825002
20
-38.918117
30
0
11
59.824998
21
-38.082123
31
0
39
0
210
0
220
0
230
1
0
ENDBLK
5
1DC
100
AcDbEntity
8
0
100
AcDbBlockEnd
0
ENDSEC
0
SECTION
2
ENTITIES
0
ARC
5
AE
100
AcDbEntity
8
1
62
256
6
ByLayer
370
18
48
1
60
0
100
AcDbCircle
39
0
10
1.432618
20
4.912464
30
0
40
0.800000000000002
210
0
220
0
230
1
100
AcDbArc
50
206.441876
51
270.03581
0
ARC
5
AF
100
AcDbEntity
8
1
62
256
6
ByLayer
370
18
48
1
60
0
100
AcDbCircle
39
0
10
1.432618
20
-4.912464
30
0
40
0.800000000000002
210
0
220
0
230
1
100
AcDbArc
50
89.96419
51
153.558124
0
ARC
5
B0
100
AcDbEntity
8
1
62
256
6
ByLayer
370
18
48
1
60
0
100
AcDbCircle
39
0
10
0
20
4.2
30
0
40
0.799999999999996
210
0
220
0
230
1
100
AcDbArc
50
26.441876
51
90
0
ARC
5
B1
100
AcDbEntity
8
1
62
256
6
ByLayer
370
18
48
1
60
0
100
AcDbCircle
39
0
10
0
20
-4.2
30
0
40
0.799999999999996
210
0
220
0
230
1
100
AcDbArc
50
270
51
333.558124
0
ARC
5
B2
100
AcDbEntity
8
SK2
62
256
6
ByLayer
370
13
48
1
60
0
100
AcDbCircle
39
0
10
63
20
0
30
0
40
20
210
0
220
0
230
1
100
AcDbArc
50
9.606349
51
69.999713
0
ARC
5
B3
100
AcDbEntity
8
SK2
62
256
6
ByLayer
370
13
48
1
60
0
100
AcDbCircle
39
0
10
63
20
0
30
0
40
20
210
0
220
0
230
1
100
AcDbArc
50
290.000287
51
350.393651
0
ELLIPSE
5
B4
100
AcDbEntity
8
1
62
256
6
ByLayer
370
18
48
1
60
0
100
AcDbEllipse
10
3.564569
20
-3.354327
30
0
11
-0.00150982466489944
21
0.00988536440811674
31
0
210
0
220
0
230
1
40
0.523545
41
0.588118365827742
42
1.98577085618733
0
ELLIPSE
5
B5
100
AcDbEntity
8
1
62
256
6
ByLayer
370
18
48
1
60
0
100
AcDbEllipse
10
3.602364
20
1.244911
30
0
11
4.53756238047361E-05
21
0.0099998970521083
31
0
210
0
220
0
230
1
40
0.009115
41
-1.89411840585457
42
-0.323631344928878
0
ELLIPSE
5
B6
100
AcDbEntity
8
1
62
256
6
ByLayer
370
18
48
1
60
0
100
AcDbEllipse
10
3.601853
20
-3.356177
30
0
11
-0.00228121493052506
21
-0.0097363267427069
31
0
210
0
220
0
230
1
40
0.352397
41
-2.55852067950516
42
-0.98928854890985
0
ELLIPSE
5
B7
100
AcDbEntity
8
1
62
256
6
ByLayer
370
18
48
1
60
0
100
AcDbEllipse
10
3.63927
20
1.23721
30
0
11
-0.00397688228816852
21
-0.00917520611572577
31
0
210
0
220
0
230
1
40
0.137769
41
1.27977904916126
42
2.84550380969086
0
POINT
5
70
100
AcDbEntity
8
80
62
256
6
ByLayer
370
18
48
1
60
0
100
AcDbPoint
10
0
20
0
30
0
39
0
210
0
220
0
230
1
50
360
0
POINT
5
72
100
AcDbEntity
8
81
62
256
6
ByLayer
370
18
48
1
60
0
100
AcDbPoint
10
63
20
0
30
0
39
0
210
0
220
0
230
1
50
360
0
POINT
5
74
100
AcDbEntity
8
1
62
256
6
ByLayer
370
18
48
1
60
0
100
AcDbPoint
10
-40
20
0
30
0
39
0
210
0
220
0
230
1
50
360
0
POINT
5
76
100
AcDbEntity
8
1
62
256
6
ByLayer
370
18
48
1
60
1
100
AcDbPoint
10
0
20
-5
30
0
39
0
210
0
220
0
230
1
50
360
0
POINT
5
77
100
AcDbEntity
8
1
62
256
6
ByLayer
370
18
48
1
60
1
100
AcDbPoint
10
63
20
0
30
0
39
0
210
0
220
0
230
1
50
360
0
POINT
5
78
100
AcDbEntity
8
1
62
256
6
ByLayer
370
18
48
1
60
1
100
AcDbPoint
10
61.4895
20
-4.15
30
0
39
0
210
0
220
0
230
1
50
360
0
POINT
5
79
100
AcDbEntity
8
1
62
256
6
ByLayer
370
18
48
1
60
1
100
AcDbPoint
10
61.4895
20
4.15
30
0
39
0
210
0
220
0
230
1
50
360
0
POINT
5
7A
100
AcDbEntity
8
1
62
256
6
ByLayer
370
18
48
1
60
1
100
AcDbPoint
10
-40
20
5
30
0
39
0
210
0
220
0
230
1
50
360
0
POINT
5
7B
100
AcDbEntity
8
1
62
256
6
ByLayer
370
18
48
1
60
1
100
AcDbPoint
10
-40
20
-5
30
0
39
0
210
0
220
0
230
1
50
360
0
POINT
5
7C
100
AcDbEntity
8
1
62
256
6
ByLayer
370
18
48
1
60
1
100
AcDbPoint
10
-40
20
-5
30
0
39
0
210
0
220
0
230
1
50
360
0
POINT
5
7D
100
AcDbEntity
8
1
62
256
6
ByLayer
370
18
48
1
60
1
100
AcDbPoint
10
0
20
-5
30
0
39
0
210
0
220
0
230
1
50
360
0
POINT
5
7E
100
AcDbEntity
8
1
62
256
6
ByLayer
370
18
48
1
60
1
100
AcDbPoint
10
2
20
4.65
30
0
39
0
210
0
220
0
230
1
50
360
0
POINT
5
7F
100
AcDbEntity
8
1
62
256
6
ByLayer
370
18
48
1
60
1
100
AcDbPoint
10
63
20
0
30
0
39
0
210
0
220
0
230
1
50
360
0
POINT
5
80
100
AcDbEntity
8
1
62
256
6
ByLayer
370
18
48
1
60
1
100
AcDbPoint
10
20
20
-4.15
30
0
39
0
210
0
220
0
230
1
50
360
0
POINT
5
81
100
AcDbEntity
8
1
62
256
6
ByLayer
370
18
48
1
60
1
100
AcDbPoint
10
63
20
0
30
0
39
0
210
0
220
0
230
1
50
360
0
POINT
5
82
100
AcDbEntity
8
1
62
256
6
ByLayer
370
18
48
1
60
1
100
AcDbPoint
10
-40
20
0
30
0
39
0
210
0
220
0
230
1
50
360
0
POINT
5
83
100
AcDbEntity
8
1
62
256
6
ByLayer
370
18
48
1
60
1
100
AcDbPoint
10
63
20
0
30
0
39
0
210
0
220
0
230
1
50
360
0
SPLINE
5
B8
100
AcDbEntity
8
1
62
256
6
ByLayer
370
18
48
1
60
0
100
AcDbSpline
70
4
71
3
72
8
73
4
40
0
40
0
40
0
40
0
40
1
40
1
40
1
40
1
41
1
10
61.2860510440746
20
-4.09726940114229
30
0
41
1
10
61.3572034502949
20
-4.05594440231584
30
0
41
1
10
61.4285053470499
20
-4.01392890776808
30
0
41
1
10
61.4999795915534
20
-3.97124128385752
30
0
0
SPLINE
5
B9
100
AcDbEntity
8
1
62
256
6
ByLayer
370
18
48
1
60
0
100
AcDbSpline
70
4
71
3
72
56
73
52
40
0
40
0
40
0
40
0
40
0.0088876041696929
40
0.0088876041696929
40
0.069347091654121
40
0.069347091654121
40
0.099576835396335
40
0.099576835396335
40
0.129806579138549
40
0.129806579138549
40
0.190266066622977
40
0.190266066622977
40
0.250725554107405
40
0.250725554107405
40
0.280955297849619
40
0.280955297849619
40
0.311185041591832
40
0.311185041591832
40
0.371644529076259
40
0.371644529076259
40
0.401874272818472
40
0.401874272818472
40
0.432104016560685
40
0.432104016560685
40
0.49256350404511
40
0.49256350404511
40
0.553022991529534
40
0.553022991529534
40
0.613482479013959
40
0.613482479013959
40
0.643712222756171
40
0.643712222756171
40
0.673941966498383
40
0.673941966498383
40
0.734401453982809
40
0.734401453982809
40
0.764631197725021
40
0.764631197725021
40
0.794860941467234
40
0.794860941467234
40
0.855320428951659
40
0.855320428951659
40
0.885550172693872
40
0.885550172693872
40
0.915779916436085
40
0.915779916436085
40
0.946009660178298
40
0.946009660178298
40
0.976239403920511
40
0.976239403920511
40
1
40
1
40
1
40
1
41
1
10
38.1284287130867
20
-3.94137975811617
30
0
41
1
10
38.0400099323733
20
-3.95410925729737
30
0
41
1
10
37.9516065468778
20
-3.96621948558425
30
0
41
1
10
37.2618883690843
20
-4.05585029178567
30
0
41
1
10
36.6609713732884
20
-4.10513374555018
30
0
41
1
10
35.7564391884378
20
-4.13408489031173
30
0
41
1
10
35.4548747784482
20
-4.13622176437013
30
0
41
1
10
34.8529767986704
20
-4.12549993273956
30
0
41
1
10
34.5523276901313
20
-4.11265130021147
30
0
41
1
10
33.6503007267284
20
-4.05193698512136
30
0
41
1
10
33.0485819843843
20
-3.98171379056754
30
0
41
1
10
31.8422048802705
20
-3.78427458125981
30
0
41
1
10
31.24119696054
20
-3.65754590302834
30
0
41
1
10
30.3390146173836
20
-3.42946740407558
30
2E-16
41
1
10
30.0382237252432
20
-3.34706745061087
30
2E-16
41
1
10
29.4358997711312
20
-3.17019046141695
30
2E-16
41
1
10
29.1339772297107
20
-3.07563579190168
30
2E-16
41
1
10
28.2299569251111
20
-2.77631787045664
30
2E-16
41
1
10
27.6290873300272
20
-2.5556228229066
30
2E-16
41
1
10
26.7265630799761
20
-2.19940390011362
30
1E-16
41
1
10
26.4256076520967
20
-2.07631755117595
30
1E-16
41
1
10
25.8227498152647
20
-1.82267943022336
30
1E-16
41
1
10
25.5209028695523
20
-1.69219233122314
30
1E-16
41
1
10
24.6174205178958
20
-1.29338946903985
30
1E-16
41
1
10
24.0166324746053
20
-1.01656506782385
30
1E-16
41
1
10
22.8126636535047
20
-0.452115620773014
30
0
41
1
10
22.2086752686148
20
-0.163237508218543
30
0
41
1
10
21.0046139863137
20
0.409879428454275
30
0
41
1
10
20.403760152961
20
0.695288126015356
30
0
41
1
10
19.5001909983692
20
1.11318402054894
30
-1E-16
41
1
10
19.1983508254774
20
1.25113900722434
30
-1E-16
41
1
10
18.5953141534237
20
1.52156535460998
30
-1E-16
41
1
10
18.2942424497621
20
1.65397527475236
30
-1E-16
41
1
10
17.391570918336
20
2.0413124029289
30
-1E-16
41
1
10
16.7904706871507
20
2.28624463849656
30
-1E-16
41
1
10
15.8861786707281
20
2.627021005377
30
-2E-16
41
1
10
15.5841285952704
20
2.73624395522128
30
-2E-16
41
1
10
14.9815103551042
20
2.943854891097
30
-2E-16
41
1
10
14.6805931947587
20
3.04236429084673
30
-2E-16
41
1
10
13.7780360962978
20
3.32066638622223
30
-2E-16
41
1
10
13.1766779112789
20
3.48333752991317
30
-2E-16
41
1
10
12.2714907655042
20
3.68836745300254
30
0
41
1
10
11.9697910507111
20
3.75007985810134
30
0
41
1
10
11.3675039709621
20
3.85947812250197
30
0
41
1
10
11.0666610303522
20
3.90721231629467
30
0
41
1
10
10.4649401808351
20
3.9883514196475
30
0
41
1
10
10.1640687694374
20
4.02176282155784
30
0
41
1
10
9.56174097547895
20
4.07394627755167
30
0
41
1
10
9.25993369648705
20
4.09272401742433
30
0
41
1
10
8.72120233364257
20
4.11286030392972
30
0
41
1
10
8.48464400576472
20
4.11708210117149
30
0
41
1
10
8.24847824148617
20
4.11671260833859
30
0
0
SPLINE
5
BA
100
AcDbEntity
8
1
62
256
6
ByLayer
370
18
48
1
60
0
100
AcDbSpline
70
4
71
3
72
10
73
6
40
0
40
0
40
0
40
0
40
0.5
40
0.5
40
1
40
1
40
1
40
1
41
1
10
61.9235172110605
20
1.17432861352728
30
0
41
1
10
62.0411856671821
20
1.19239417206691
30
0
41
1
10
62.1584490391055
20
1.21302608069982
30
0
41
1
10
62.3922323319631
20
1.25899992003647
30
0
41
1
10
62.508699282025
20
1.28408792624839
30
0
41
1
10
62.6239439594458
20
1.31350915957393
30
0
0
SPLINE
5
BB
100
AcDbEntity
8
1
62
256
6
ByLayer
370
18
48
1
60
0
100
AcDbSpline
70
4
71
3
72
14
73
10
40
0
40
0
40
0
40
0
40
0.272877682387993
40
0.272877682387993
40
0.509768799496839
40
0.509768799496839
40
0.783186594385368
40
0.783186594385368
40
1
40
1
40
1
40
1
41
1
10
61.0424590367308
20
-0.0881264573764327
30
0
41
1
10
61.0431990710716
20
-0.088431702663371
30
0
41
1
10
61.0439282257074
20
-0.0891075227340252
30
0
41
1
10
61.0451454621588
20
-0.0908139860289339
30
0
41
1
10
61.0456695095329
20
-0.0918092721980486
30
0
41
1
10
61.0466377092287
20
-0.094225612287687
30
0
41
1
10
61.0470726336349
20
-0.0957263689642218
30
0
41
1
10
61.0476163458973
20
-0.0985893502151498
30
0
41
1
10
61.0477793382432
20
-0.0999502006903299
30
0
41
1
10
61.0478337198199
20
-0.1013073790389
30
0
0
SPLINE
5
BC
100
AcDbEntity
8
1
62
256
6
ByLayer
370
18
48
1
60
0
100
AcDbSpline
70
4
71
3
72
8
73
4
40
0
40
0
40
0
40
0
40
1
40
1
40
1
40
1
41
1
10
62.6239439594458
20
1.31350915957395
30
0
41
1
10
62.7515352391855
20
0.953303404355182
30
0
41
1
10
62.875629563148
20
0.591846389952565
30
0
41
1
10
62.9961730111376
20
0.229118822973732
30
0
0
SPLINE
5
BD
100
AcDbEntity
8
1
62
256
6
ByLayer
370
18
48
1
60
0
100
AcDbSpline
70
4
71
3
72
38
73
34
40
0
40
0
40
0
40
0
40
0.0419658501689275
40
0.0419658501689275
40
0.102396301039211
40
0.102396301039211
40
0.223257202779777
40
0.223257202779777
40
0.283687653650059
40
0.283687653650059
40
0.344118104520342
40
0.344118104520342
40
0.404548555390624
40
0.404548555390624
40
0.464979006260907
40
0.464979006260907
40
0.525409457131189
40
0.525409457131189
40
0.585839908001471
40
0.585839908001471
40
0.646270358871753
40
0.646270358871753
40
0.706700809742036
40
0.706700809742036
40
0.767131260612318
40
0.767131260612318
40
0.8275617114826
40
0.8275617114826
40
0.887992162352883
40
0.887992162352883
40
0.948422613223165
40
0.948422613223165
40
1
40
1
40
1
40
1
41
1
10
48.6463662213226
20
-0.38008970596573
30
0
41
1
10
48.3560715982287
20
-0.247152595150339
30
0
41
1
10
48.0658956945773
20
-0.11361586987195
30
0
41
1
10
47.3583938734596
20
0.212233465411145
30
0
41
1
10
46.9407522740148
20
0.40424267949939
30
0
41
1
10
45.6862764328089
20
0.974708004457995
30
-1E-16
41
1
10
44.854279329883
20
1.34532236342574
30
-1E-16
41
1
10
43.6030732198798
20
1.86611836627645
30
-1E-16
41
1
10
43.1852483456326
20
2.0344996500753
30
-1E-16
41
1
10
42.3489601870574
20
2.35566343792783
30
-1E-16
41
1
10
41.9307405420754
20
2.50850738260542
30
-2E-16
41
1
10
41.0952913344373
20
2.79526575699785
30
-2E-16
41
1
10
40.6780404901484
20
2.9296926145237
30
-2E-16
41
1
10
39.8424115656295
20
3.17656304255061
30
-2E-16
41
1
10
39.424057954544
20
3.28936185836312
30
-2E-16
41
1
10
38.5877311013208
20
3.49079316279366
30
0
41
1
10
38.1696301180236
20
3.5802815316431
30
0
41
1
10
37.3333085903004
20
3.73286953309409
30
0
41
1
10
36.9151100176113
20
3.79642920320134
30
0
41
1
10
36.079834861427
20
3.89672061605396
30
0
41
1
10
35.6626687647957
20
3.93385481977489
30
0
41
1
10
34.8272063300362
20
3.97925929202199
30
0
41
1
10
34.4088768008886
20
3.98772033826694
30
0
41
1
10
33.5737809959327
20
3.97717831662234
30
0
41
1
10
33.1565959138689
20
3.95826595697145
30
0
41
1
10
32.3209909010979
20
3.8927426337973
30
0
41
1
10
31.9026137040914
20
3.8461846550658
30
0
41
1
10
31.0675690118373
20
3.72713077018156
30
0
41
1
10
30.6502884109191
20
3.65458092929887
30
0
41
1
10
29.8145613757649
20
3.48394043699588
30
0
41
1
10
29.3962602319031
20
3.38572383884298
30
-2E-16
41
1
10
28.6225158735089
20
3.18299810507878
30
-2E-16
41
1
10
28.2663254687434
20
3.08131631714536
30
-2E-16
41
1
10
27.9097766195082
20
2.97201105535564
30
-2E-16
0
SPLINE
5
BE
100
AcDbEntity
8
1
62
256
6
ByLayer
370
18
48
1
60
0
100
AcDbSpline
70
4
71
3
72
26
73
22
40
0
40
0
40
0
40
0
40
0.0198323375217314
40
0.0198323375217314
40
0.0842239388863603
40
0.0842239388863603
40
0.148615540250989
40
0.148615540250989
40
0.277398742980246
40
0.277398742980246
40
0.406181945709503
40
0.406181945709503
40
0.534965148438759
40
0.534965148438759
40
0.599356749803387
40
0.599356749803387
40
0.663748351168014
40
0.663748351168014
40
0.792531553897266
40
0.792531553897266
40
1
40
1
40
1
40
1
41
1
10
21.4474799790173
20
0.200121756184132
30
0
41
1
10
21.5403356413703
20
0.158171733515133
30
0
41
1
10
21.6332444021525
20
0.116168944456376
30
0
41
1
10
22.0280724926282
20
-0.062344216634699
30
0
41
1
10
22.3305309097216
20
-0.199325330851281
30
0
41
1
10
22.9372198108617
20
-0.473053649571739
30
0
41
1
10
23.2421949614333
20
-0.609953354919298
30
0
41
1
10
24.1536780903648
20
-1.01489946202182
30
1E-16
41
1
10
24.757210703187
20
-1.27786347158943
30
1E-16
41
1
10
25.9612906264068
20
-1.78002011186217
30
1E-16
41
1
10
26.5614517921554
20
-2.01942712422098
30
1E-16
41
1
10
27.7630946606575
20
-2.46620714425455
30
2E-16
41
1
10
28.3642608993548
20
-2.67358852133378
30
2E-16
41
1
10
29.2701028211933
20
-2.95475803580615
30
2E-16
41
1
10
29.5727014763951
20
-3.04345719070241
30
2E-16
41
1
10
30.1797847497445
20
-3.20983392974395
30
2E-16
41
1
10
30.4846084133938
20
-3.28763560245855
30
2E-16
41
1
10
31.397308602518
20
-3.50195548613016
30
0
41
1
10
32.0052676867387
20
-3.61958620602866
30
0
41
1
10
33.5945173775204
20
-3.85566205882702
30
0
41
1
10
34.5671032327397
20
-3.92815618676877
30
0
41
1
10
35.541224931005
20
-3.92630660483118
30
0
0
SPLINE
5
BF
100
AcDbEntity
8
1
62
256
6
ByLayer
370
18
48
1
60
0
100
AcDbSpline
70
4
71
3
72
10
73
6
40
0
40
0
40
0
40
0
40
0.5
40
0.5
40
1
40
1
40
1
40
1
41
1
10
61.5582013082089
20
-3.97857488012608
30
0
41
1
10
61.5449750594638
20
-3.98731730378665
30
0
41
1
10
61.5337262309886
20
-3.9909926568094
30
0
41
1
10
61.5145666984856
20
-3.98833366765956
30
0
41
1
10
61.5066978676939
20
-3.98205290051672
30
0
41
1
10
61.4999795915534
20
-3.97124128385744
30
0
0
SPLINE
5
C0
100
AcDbEntity
8
1
62
256
6
ByLayer
370
18
48
1
60
0
100
AcDbSpline
70
4
71
3
72
20
73
16
40
0
40
0
40
0
40
0
40
0.0624999999999999
40
0.0624999999999999
40
0.125
40
0.125
40
0.25
40
0.25
40
0.375
40
0.375
40
0.499999999999999
40
0.499999999999999
40
0.75
40
0.75
40
1
40
1
40
1
40
1
41
1
10
61.8525453877307
20
0.600233495834516
30
0
41
1
10
61.8344230600137
20
0.60934756998023
30
0
41
1
10
61.8159652255257
20
0.617215884180496
30
0
41
1
10
61.7789947952259
20
0.632983667747084
30
0
41
1
10
61.7603679237666
20
0.640283916301826
30
0
41
1
10
61.7040228247883
20
0.659754328098444
30
0
41
1
10
61.6658674224546
20
0.669724824259021
30
0
41
1
10
61.5884971136986
20
0.681977408955817
30
0
41
1
10
61.5493302758514
20
0.684568082690362
30
0
41
1
10
61.4706523400787
20
0.68623157278563
30
0
41
1
10
61.431203573596
20
0.685564009834053
30
0
41
1
10
61.313434215131
20
0.676349080830164
30
0
41
1
10
61.2354786021376
20
0.661206796812905
30
0
41
1
10
61.0824093710678
20
0.612383458705693
30
0
41
1
10
61.00719071141
20
0.580171541884084
30
0
41
1
10
60.9340275686959
20
0.540022604103626
30
0
0
SPLINE
5
C1
100
AcDbEntity
8
1
62
256
6
ByLayer
370
18
48
1
60
0
100
AcDbSpline
70
4
71
3
72
10
73
6
40
0
40
0
40
0
40
0
40
0.5
40
0.5
40
1
40
1
40
1
40
1
41
1
10
3.56044133327725
20
-3.35903585057622
30
2E-16
41
1
10
3.54010572556641
20
-3.36135486047686
30
2E-16
41
1
10
3.525489000759
20
-3.36498080835654
30
2E-16
41
1
10
3.50635276823732
20
-3.37280231176527
30
2E-16
41
1
10
3.50171598350278
20
-3.37709192082664
30
2E-16
41
1
10
3.50171598350269
20
-3.38124057809011
30
2E-16
0
SPLINE
5
C2
100
AcDbEntity
8
1
62
256
6
ByLayer
370
18
48
1
60
0
100
AcDbSpline
70
4
71
3
72
8
73
4
40
0
40
0
40
0
40
0
40
1
40
1
40
1
40
1
41
1
10
3.63933974581514
20
1.23405276467969
30
-1E-16
41
1
10
3.62770879321099
20
1.23908136266931
30
-1E-16
41
1
10
3.61522817780218
20
1.24167615681029
30
-1E-16
41
1
10
3.6024360329522
20
1.24173391303856
30
-1E-16
0
SPLINE
5
C3
100
AcDbEntity
8
1
62
256
6
ByLayer
370
18
48
1
60
0
100
AcDbSpline
70
4
71
3
72
8
73
4
40
0
40
0
40
0
40
0
40
1
40
1
40
1
40
1
41
1
10
62.6239439594459
20
-1.31350915957395
30
0
41
1
10
62.751535239183
20
-0.953303404362515
30
0
41
1
10
62.8756295631429
20
-0.591846389967287
30
0
41
1
10
62.9961730111302
20
-0.229118822995901
30
0
0
SPLINE
5
C4
100
AcDbEntity
8
1
62
256
6
ByLayer
370
18
48
1
60
0
100
AcDbSpline
70
4
71
3
72
42
73
38
40
0
40
0
40
0
40
0
40
0.10924783495303
40
0.10924783495303
40
0.163871752429546
40
0.163871752429546
40
0.218495669906061
40
0.218495669906061
40
0.273119587382577
40
0.273119587382577
40
0.327743504859092
40
0.327743504859092
40
0.382367422335608
40
0.382367422335608
40
0.436991339812124
40
0.436991339812124
40
0.491615257288639
40
0.491615257288639
40
0.546239174765155
40
0.546239174765155
40
0.60086309224167
40
0.60086309224167
40
0.655487009718186
40
0.655487009718186
40
0.710110927194702
40
0.710110927194702
40
0.764734844671217
40
0.764734844671217
40
0.819358762147733
40
0.819358762147733
40
0.873982679624249
40
0.873982679624249
40
0.928606597100764
40
0.928606597100764
40
0.98323051457728
40
0.98323051457728
40
1
40
1
40
1
40
1
41
1
10
3.64515130727259
20
1.30755965437197
30
-1E-16
41
1
10
4.24315908069835
20
1.03426295928932
30
-1E-16
41
1
10
4.84155568776561
20
0.75529278668759
30
0
41
1
10
5.7412465997362
20
0.331843550201398
30
0
41
1
10
6.04139700961187
20
0.18991556336789
30
0
41
1
10
6.64017778519693
20
-0.0940432402025806
30
0
41
1
10
6.93893677861271
20
-0.23657131692724
30
0
41
1
10
7.53644822855193
20
-0.520049899508479
30
0
41
1
10
7.83538578360307
20
-0.660615435707143
30
0
41
1
10
8.43352843600459
20
-0.939605699412539
30
1E-16
41
1
10
8.73272478042773
20
-1.07804407735759
30
1E-16
41
1
10
9.33243856559741
20
-1.35057412526365
30
1E-16
41
1
10
9.63205211912648
20
-1.48421487135056
30
1E-16
41
1
10
10.2302954970344
20
-1.74595469613325
30
1E-16
41
1
10
10.5289881855772
20
-1.87412743602491
30
1E-16
41
1
10
11.1266414518783
20
-2.12293854069068
30
1E-16
41
1
10
11.425632711897
20
-2.24353814606056
30
1E-16
41
1
10
12.0240363904483
20
-2.47694633307222
30
2E-16
41
1
10
12.3238929513442
20
-2.58996062829991
30
2E-16
41
1
10
12.9227038166343
20
-2.80554362524316
30
2E-16
41
1
10
13.2212042051036
20
-2.90792203497551
30
2E-16
41
1
10
13.8165200474813
20
-3.10190657525058
30
2E-16
41
1
10
14.1133000875443
20
-3.19353427721271
30
2E-16
41
1
10
14.7061391389814
20
-3.3647186835677
30
2E-16
41
1
10
15.0022343382803
20
-3.44425825000997
30
2E-16
41
1
10
15.5938927503921
20
-3.5911927338247
30
2E-16
41
1
10
15.8894198738736
20
-3.65860015994213
30
0
41
1
10
16.4808421621199
20
-3.78027414389553
30
0
41
1
10
16.7767740785704
20
-3.83453324563123
30
0
41
1
10
17.3692339115464
20
-3.92971593767391
30
0
41
1
10
17.6657182747737
20
-3.97064122897154
30
0
41
1
10
18.260263341869
20
-4.03833243136819
30
0
41
1
10
18.5583809618761
20
-4.06510931260144
30
0
41
1
10
19.1562039710153
20
-4.10434766740431
30
0
41
1
10
19.4561691936071
20
-4.11674154338291
30
0
41
1
10
19.8473622165558
20
-4.12315686397542
30
0
41
1
10
19.9392241552093
20
-4.12396879208382
30
0
41
1
10
20.0310610885473
20
-4.12408638435008
30
0
0
SPLINE
5
C5
100
AcDbEntity
8
1
62
256
6
ByLayer
370
18
48
1
60
0
100
AcDbSpline
70
4
71
3
72
34
73
30
40
0
40
0
40
0
40
0
40
0.0208363915050544
40
0.0208363915050544
40
0.0752343697547744
40
0.0752343697547744
40
0.129632348004494
40
0.129632348004494
40
0.238428304503931
40
0.238428304503931
40
0.29282628275365
40
0.29282628275365
40
0.347224261003369
40
0.347224261003369
40
0.456020217502806
40
0.456020217502806
40
0.510418195752524
40
0.510418195752524
40
0.564816174002243
40
0.564816174002243
40
0.673612130501682
40
0.673612130501682
40
0.728010108751402
40
0.728010108751402
40
0.782408087001122
40
0.782408087001122
40
0.891204043500561
40
0.891204043500561
40
1
40
1
40
1
40
1
41
1
10
44.4874817481498
20
3.93084996717002
30
0
41
1
10
44.6010330032391
20
3.94793188097935
30
0
41
1
10
44.7146710812064
20
3.96400556187609
30
0
41
1
10
45.1253813695954
20
4.01832645030399
30
0
41
1
10
45.4228917357752
20
4.05074784766788
30
0
41
1
10
46.0194764317621
20
4.10128052037496
30
0
41
1
10
46.3194320991096
20
4.11925048676304
30
0
41
1
10
47.2172842381836
20
4.150884412853
30
0
41
1
10
47.8138762269868
20
4.14241824784801
30
0
41
1
10
48.709802890035
20
4.08568659693762
30
0
41
1
10
49.0083788672808
20
4.05937691990846
30
0
41
1
10
49.6062534239185
20
3.99198620007954
30
0
41
1
10
49.9058711849296
20
3.95103903916279
30
0
41
1
10
50.803111927473
20
3.80801246719781
30
0
41
1
10
51.4003077259302
20
3.68552537798845
30
0
41
1
10
52.2963045377732
20
3.46239092865076
30
-2E-16
41
1
10
52.594950049361
20
3.38132789304444
30
-2E-16
41
1
10
53.1934717480498
20
3.20714969035672
30
-2E-16
41
1
10
53.4926388159776
20
3.11442577788745
30
-2E-16
41
1
10
54.3890679380891
20
2.8207832833171
30
-2E-16
41
1
10
54.9856550978654
20
2.60395471697959
30
-2E-16
41
1
10
55.8822461057734
20
2.25225101612565
30
-1E-16
41
1
10
56.1817097777442
20
2.1302774007419
30
-1E-16
41
1
10
56.7799179874854
20
1.87939290515567
30
-1E-16
41
1
10
57.0782524072726
20
1.75079163411223
30
-1E-16
41
1
10
57.9716941875828
20
1.35705492868794
30
-1E-16
41
1
10
58.5651427229948
20
1.08377579378828
30
-1E-16
41
1
10
59.7529665092718
20
0.526546594949451
30
0
41
1
10
60.3468661497336
20
0.241617573425884
30
0
41
1
10
60.9430893666026
20
-0.0448142516524115
30
0
0
SPLINE
5
C6
100
AcDbEntity
8
1
62
256
6
ByLayer
370
18
48
1
60
0
100
AcDbSpline
70
4
71
3
72
10
73
6
40
0
40
0
40
0
40
0
40
0.5
40
0.5
40
1
40
1
40
1
40
1
41
1
10
3.50171598350269
20
1.22181442821042
30
-1E-16
41
1
10
3.50171598350269
20
1.25427205862226
30
-1E-16
41
1
10
3.51975227450566
20
1.2852765651659
30
-1E-16
41
1
10
3.5773021510054
20
1.31957587115193
30
-1E-16
41
1
10
3.61453367344856
20
1.32155227872772
30
-1E-16
41
1
10
3.64515130727259
20
1.30755965437197
30
-1E-16
0
SPLINE
5
C7
100
AcDbEntity
8
1
62
256
6
ByLayer
370
18
48
1
60
0
100
AcDbSpline
70
4
71
3
72
8
73
4
40
0
40
0
40
0
40
0
40
1
40
1
40
1
40
1
41
1
10
61.550982509261
20
3.98343548652341
30
0
41
1
10
61.5533887327867
20
3.98181544375421
30
0
41
1
10
61.5557949989839
20
3.98019524159548
30
0
41
1
10
61.5582013082089
20
3.97857488012608
30
0
0
SPLINE
5
C8
100
AcDbEntity
8
1
62
256
6
ByLayer
370
18
48
1
60
0
100
AcDbSpline
70
4
71
3
72
30
73
26
40
0
40
0
40
0
40
0
40
0.0625000000000001
40
0.0625000000000001
40
0.125
40
0.125
40
0.25
40
0.25
40
0.3125
40
0.3125
40
0.375000000000001
40
0.375000000000001
40
0.437500000000001
40
0.437500000000001
40
0.500000000000001
40
0.500000000000001
40
0.625
40
0.625
40
0.6875
40
0.6875
40
0.75
40
0.75
40
0.875
40
0.875
40
1
40
1
40
1
40
1
41
1
10
3.6024360329522
20
1.24173391303856
30
-1E-16
41
1
10
3.60242947035036
20
1.13653670079427
30
-1E-16
41
1
10
3.60242218677993
20
1.03010935210446
30
-1E-16
41
1
10
3.60240635349732
20
0.814805423157452
30
0
41
1
10
3.60239778461599
20
0.705733990183404
30
0
41
1
10
3.60237074330965
20
0.379029930327164
30
0
41
1
10
3.60235087141004
20
0.160624994240266
30
0
41
1
10
3.6023190049583
20
-0.167869043184936
30
0
41
1
10
3.60230803406131
20
-0.277515611444414
30
0
41
1
10
3.60228544832981
20
-0.49711268836819
30
0
41
1
10
3.60227380774578
20
-0.607281593967969
30
0
41
1
10
3.60225026044481
20
-0.824627517684917
30
1E-16
41
1
10
3.60223831502313
20
-0.932193138055254
30
1E-16
41
1
10
3.6022140871186
20
-1.14511617725503
30
1E-16
41
1
10
3.60220176890593
20
-1.25077112018863
30
1E-16
41
1
10
3.60216450700276
20
-1.56228417061155
30
1E-16
41
1
10
3.60213951723452
20
-1.76074388148612
30
1E-16
41
1
10
3.60210138419041
20
-2.04509544796795
30
1E-16
41
1
10
3.60208856146002
20
-2.1376440487704
30
1E-16
41
1
10
3.60206257396427
20
-2.31820694825728
30
1E-16
41
1
10
3.60204936074754
20
-2.40652960464308
30
1E-16
41
1
10
3.60200931428642
20
-2.66228934636794
30
2E-16
41
1
10
3.60198240495268
20
-2.81863345233509
30
2E-16
41
1
10
3.60192686291248
20
-3.10398777274759
30
2E-16
41
1
10
3.60189816913751
20
-3.23325474534997
30
2E-16
41
1
10
3.60186794656508
20
-3.34760666849883
30
2E-16
0
SPLINE
5
C9
100
AcDbEntity
8
1
62
256
6
ByLayer
370
18
48
1
60
0
100
AcDbSpline
70
4
71
3
72
12
73
8
40
0
40
0
40
0
40
0
40
0.499999999999997
40
0.499999999999997
40
0.749999999999998
40
0.749999999999998
40
1
40
1
40
1
40
1
41
1
10
3.50171598350269
20
1.18787285498726
30
-1E-16
41
1
10
3.50171598350266
20
1.20043934797135
30
-1E-16
41
1
10
3.50945087413959
20
1.21299186460666
30
-1E-16
41
1
10
3.53480198095409
20
1.22859986932363
30
-1E-16
41
1
10
3.54556718488325
20
1.23319168815695
30
-1E-16
41
1
10
3.57162532009195
20
1.2398452254096
30
-1E-16
41
1
10
3.5868041380464
20
1.24179392938868
30
-1E-16
41
1
10
3.6024360329522
20
1.24173391303856
30
-1E-16
0
SPLINE
5
CA
100
AcDbEntity
8
1
62
256
6
ByLayer
370
18
48
1
60
0
100
AcDbSpline
70
4
71
3
72
32
73
28
40
0
40
0
40
0
40
0
40
0.189872258886354
40
0.189872258886354
40
0.286499340355492
40
0.286499340355492
40
0.334812881090058
40
0.334812881090058
40
0.358969651457344
40
0.365008844049166
40
0.365008844049166
40
0.371048036640989
40
0.371048036640989
40
0.383126421824634
40
0.383126421824634
40
0.395204807008278
40
0.395204807008278
40
0.407283192191923
40
0.407283192191923
40
0.431439962559213
40
0.479753503293797
40
0.479753503293797
40
0.576380584762961
40
0.576380584762961
40
0.769634747701283
40
0.769634747701283
40
1
40
1
40
1
40
1
41
1
10
3.1366726902807
20
-4.11352750160512
30
0
41
1
10
3.33813112493519
20
-4.11353610002237
30
0
41
1
10
3.55040751431164
20
-4.10329898358046
30
0
41
1
10
3.88222071667215
20
-4.0776942739349
30
0
41
1
10
3.99596648695069
20
-4.06728474387128
30
0
41
1
10
4.16843803788115
20
-4.04952148652703
30
0
41
1
10
4.22625298859529
20
-4.04323997081494
30
0
41
1
10
4.3134133041288
20
-4.03332638531586
30
0
41
1
10
4.3498205815892
20
-4.02909337673242
30
0
41
1
10
4.38633537012677
20
-4.02473827266093
30
0
41
1
10
4.4009497404933
20
-4.02298657688252
30
0
41
1
10
4.40816349245446
20
-4.02206552575009
30
0
41
1
10
4.43099228464521
20
-4.01976376418128
30
0
41
1
10
4.44757521775935
20
-4.01900898862644
30
0
41
1
10
4.48088032307214
20
-4.01867940831423
30
0
41
1
10
4.49747899346318
20
-4.01904262852472
30
0
41
1
10
4.53022840543346
20
-4.02063164156431
30
0
41
1
10
4.54622220343762
20
-4.02173318615093
30
0
41
1
10
4.59456163845076
20
-4.02471558454081
30
0
41
1
10
4.6911552952329
20
-4.0306481693205
30
0
41
1
10
4.78748171259974
20
-4.03646530478306
30
0
41
1
10
4.97978393754011
20
-4.04789226537821
30
0
41
1
10
5.1074596058362
20
-4.05523066789578
30
0
41
1
10
5.48897624455094
20
-4.07597074660904
30
0
41
1
10
5.74147643190074
20
-4.08810499734932
30
0
41
1
10
6.28982325055347
20
-4.10829157880005
30
0
41
1
10
6.58469006156216
20
-4.11507281739665
30
0
41
1
10
6.87690680492781
20
-4.11580275099038
30
0
0
SPLINE
5
CB
100
AcDbEntity
8
1
62
256
6
ByLayer
370
18
48
1
60
0
100
AcDbSpline
70
4
71
3
72
8
73
4
40
0
40
0
40
0
40
0
40
1
40
1
40
1
40
1
41
1
10
61.550982508903
20
-3.98343548676445
30
0
41
1
10
61.5533887325481
20
-3.98181544391491
30
0
41
1
10
61.5557949988646
20
-3.98019524167583
30
0
41
1
10
61.558201308209
20
-3.97857488012605
30
0
0
SPLINE
5
CC
100
AcDbEntity
8
1
62
256
6
ByLayer
370
18
48
1
60
0
100
AcDbSpline
70
4
71
3
72
10
73
6
40
0
40
0
40
0
40
0
40
0.5
40
0.5
40
1
40
1
40
1
40
1
41
1
10
3.55877742151588
20
-3.5207276619287
30
2E-16
41
1
10
3.54166490111396
20
-3.51651012808182
30
2E-16
41
1
10
3.52721754172418
20
-3.50981298908957
30
2E-16
41
1
10
3.50720936396547
20
-3.49320512663658
30
2E-16
41
1
10
3.50171598350269
20
-3.48328928249046
30
2E-16
41
1
10
3.50171598350269
20
-3.47313470246462
30
2E-16
0
SPLINE
5
CD
100
AcDbEntity
8
1
62
256
6
ByLayer
370
18
48
1
60
0
100
AcDbSpline
70
4
71
3
72
8
73
4
40
0
40
0
40
0
40
0
40
1
40
1
40
1
40
1
41
1
10
62.3040553716667
20
-0.436351902191177
30
0
41
1
10
62.1815053658651
20
-0.109218648135055
30
0
41
1
10
62.0308631181962
20
0.236401236601154
30
0
41
1
10
61.8525453877307
20
0.600233495834573
30
0
0
SPLINE
5
CE
100
AcDbEntity
8
1
62
256
6
ByLayer
370
18
48
1
60
0
100
AcDbSpline
70
4
71
3
72
16
73
12
40
0
40
0
40
0
40
0
40
0.224867147476612
40
0.224867147476612
40
0.451898577728299
40
0.451898577728299
40
0.649187876215171
40
0.649187876215171
40
0.824527802584216
40
0.824527802584216
40
1
40
1
40
1
40
1
41
1
10
61.5208197005988
20
-3.90665223848114
30
0
41
1
10
61.5208988285086
20
-3.90681604518627
30
0
41
1
10
61.5209222681523
20
-3.90715788700157
30
0
41
1
10
61.5208331960326
20
-3.90820737989355
30
0
41
1
10
61.5207168050678
20
-3.90893844248637
30
0
41
1
10
61.52036780153
20
-3.91059246899422
30
0
41
1
10
61.5201465548046
20
-3.91150369122875
30
0
41
1
10
61.5196558252582
20
-3.91332533767104
30
0
41
1
10
61.5193881345288
20
-3.91424819291277
30
0
41
1
10
61.518826250014
20
-3.91607040230772
30
0
41
1
10
61.5185253807656
20
-3.91699182861006
30
0
41
1
10
61.5182264806884
20
-3.91786267766977
30
0
0
SPLINE
5
CF
100
AcDbEntity
8
1
62
256
6
ByLayer
370
18
48
1
60
0
100
AcDbSpline
70
4
71
3
72
8
73
4
40
0
40
0
40
0
40
0
40
1
40
1
40
1
40
1
41
1
10
62.9961730111307
20
0.229118822980269
30
0
41
1
10
63.0012728504392
20
0.076457132697584
30
0
41
1
10
63.0012784785846
20
-0.076288656381081
30
0
41
1
10
62.9961730111302
20
-0.229118822995901
30
0
0
SPLINE
5
D0
100
AcDbEntity
8
1
62
256
6
ByLayer
370
18
48
1
60
0
100
AcDbSpline
70
4
71
3
72
12
73
8
40
0
40
0
40
0
40
0
40
0.655522673778744
40
0.655522673778744
40
0.983284010668115
40
0.983284010668115
40
1
40
1
40
1
40
1
41
1
10
3.64344256669992
20
1.24582631517239
30
-1E-16
41
1
10
4.24525495910589
20
0.985182267335631
30
-1E-16
41
1
10
4.844816278889
20
0.718474927519964
30
0
41
1
10
5.7433747239937
20
0.315296205946311
30
0
41
1
10
6.0427576029596
20
0.180369876061405
30
0
41
1
10
6.35735455901352
20
0.038219569790499
30
0
41
1
10
6.37262002427164
20
0.0313198639244092
30
0
41
1
10
6.38788500468811
20
0.0244185534818655
30
0
0
SPLINE
5
D1
100
AcDbEntity
8
1
62
256
6
ByLayer
370
18
48
1
60
0
100
AcDbSpline
70
4
71
3
72
30
73
26
40
0
40
0
40
0
40
0
40
0.0369398725879763
40
0.0369398725879763
40
0.102090741767366
40
0.102090741767366
40
0.167241610946756
40
0.167241610946756
40
0.232392480126146
40
0.232392480126146
40
0.362694218484929
40
0.362694218484929
40
0.42784508766432
40
0.42784508766432
40
0.492995956843711
40
0.492995956843711
40
0.623297695202491
40
0.623297695202491
40
0.688448564381882
40
0.688448564381882
40
0.753599433561271
40
0.753599433561271
40
0.883901171920051
40
0.883901171920051
40
1
40
1
40
1
40
1
41
1
10
47.0857913162407
20
3.94203477701004
30
0
41
1
10
47.2549537518421
20
3.94351189440474
30
0
41
1
10
47.4242870440923
20
3.94280092009558
30
0
41
1
10
47.8929852874051
20
3.93448535169412
30
0
41
1
10
48.1930198365799
20
3.921701170116
30
0
41
1
10
48.7947707619613
20
3.88256227948102
30
0
41
1
10
49.0961261225593
20
3.8565468428157
30
0
41
1
10
49.6956605290283
20
3.79103338670817
30
0
41
1
10
49.9946285831969
20
3.75088690403473
30
0
41
1
10
50.8899456335213
20
3.61009479572047
30
0
41
1
10
51.4846950720157
20
3.48970828857986
30
0
41
1
10
52.3752851618317
20
3.27539568797511
30
-2E-16
41
1
10
52.6718269620406
20
3.19842825609874
30
-2E-16
41
1
10
53.2654040147477
20
3.03315453170353
30
-2E-16
41
1
10
53.5625275914801
20
2.94468696613288
30
-2E-16
41
1
10
54.4553500374322
20
2.66345596925177
30
-2E-16
41
1
10
55.0524063315245
20
2.45521468485037
30
-2E-16
41
1
10
55.9535649158413
20
2.11648602826574
30
-1E-16
41
1
10
56.2551989724848
20
1.9990156127779
30
-1E-16
41
1
10
56.8560066257838
20
1.75822699995854
30
-1E-16
41
1
10
57.1557265256685
20
1.63472580153024
30
-1E-16
41
1
10
58.0535421967171
20
1.25655232309384
30
-1E-16
41
1
10
58.6502803681412
20
0.994249137304308
30
-1E-16
41
1
10
59.7799219500882
20
0.488486843288797
30
0
41
1
10
60.3123779488562
20
0.245715736639653
30
0
41
1
10
60.846398583369
20
0.0015431589178263
30
0
0
SPLINE
5
D2
100
AcDbEntity
8
1
62
256
6
ByLayer
370
18
48
1
60
0
100
AcDbSpline
70
4
71
3
72
22
73
18
40
0
40
0
40
0
40
0
40
0.249999999999997
40
0.249999999999997
40
0.374999999999998
40
0.374999999999998
40
0.437499999999998
40
0.437499999999998
40
0.499999999999999
40
0.499999999999999
40
0.624999999999999
40
0.624999999999999
40
0.749999999999999
40
0.749999999999999
40
0.875
40
0.875
40
1
40
1
40
1
40
1
41
1
10
61.5582013082089
20
-3.97857488012608
30
0
41
1
10
61.6392538127355
20
-3.7501882301884
30
0
41
1
10
61.7193099434272
20
-3.52031014514142
30
0
41
1
10
61.8395921476615
20
-3.17440615148507
30
0
41
1
10
61.8796993851174
20
-3.05896748568361
30
0
41
1
10
61.939984557144
20
-2.88584811325509
30
0
41
1
10
61.9601020754036
20
-2.82814015150672
30
0
41
1
10
62.0004003093646
20
-2.71272958967617
30
0
41
1
10
62.0205079121464
20
-2.65500865990674
30
0
41
1
10
62.0821624228407
20
-2.48216170956988
30
0
41
1
10
62.1250422957598
20
-2.36665106799202
30
0
41
1
10
62.2141603240306
20
-2.14051170815213
30
0
41
1
10
62.260311908827
20
-2.03006119209533
30
0
41
1
10
62.3567503440396
20
-1.8145309048756
30
0
41
1
10
62.4070451689778
20
-1.70947113898248
30
0
41
1
10
62.5127090232859
20
-1.50511289216468
30
0
41
1
10
62.5676118302706
20
-1.40679422812644
30
0
41
1
10
62.6239439594458
20
-1.31350915957395
30
0
0
SPLINE
5
D3
100
AcDbEntity
8
1
62
256
6
ByLayer
370
18
48
1
60
0
100
AcDbSpline
70
4
71
3
72
24
73
20
40
0
40
0
40
0
40
0
40
0.0976127598929634
40
0.0976127598929634
40
0.195225519785925
40
0.195225519785925
40
0.292838279678887
40
0.292838279678887
40
0.39045103957185
40
0.39045103957185
40
0.585676559357776
40
0.585676559357776
40
0.68328931925074
40
0.68328931925074
40
0.780902079143703
40
0.780902079143703
40
0.976127598929632
40
0.976127598929632
40
1
40
1
40
1
40
1
41
1
10
21.5
20
-0.406511865257897
30
0
41
1
10
21.915741541091
20
-0.603531498058516
30
0
41
1
10
22.3317030888333
20
-0.799351649864889
30
0
41
1
10
23.1611322772663
20
-1.18318943733087
30
1E-16
41
1
10
23.5750273079698
20
-1.37140621913349
30
1E-16
41
1
10
24.4028150795767
20
-1.73718693772059
30
1E-16
41
1
10
24.8167119606953
20
-1.91474340999332
30
1E-16
41
1
10
25.6461134598657
20
-2.25609311341182
30
1E-16
41
1
10
26.0622628346198
20
-2.42014459837185
30
1E-16
41
1
10
27.3071762826064
20
-2.88441283043642
30
2E-16
41
1
10
28.1341614607437
20
-3.15759337634978
30
2E-16
41
1
10
29.3798314630968
20
-3.49867229410475
30
2E-16
41
1
10
29.7956283462582
20
-3.60077992002977
30
2E-16
41
1
10
30.6264235240821
20
-3.77922852964346
30
0
41
1
10
31.0424023179956
20
-3.85579603206662
30
0
41
1
10
32.2873769927886
20
-4.04451287989883
30
0
41
1
10
33.1142444632641
20
-4.11592587999408
30
0
41
1
10
34.0459241581504
20
-4.13202368462001
30
0
41
1
10
34.1474750627566
20
-4.13292165522668
30
0
41
1
10
34.2490371619772
20
-4.13296635264911
30
0
0
SPLINE
5
D4
100
AcDbEntity
8
1
62
256
6
ByLayer
370
18
48
1
60
0
100
AcDbSpline
70
4
71
3
72
10
73
6
40
0
40
0
40
0
40
0
40
0.298614529584784
40
0.298614529584784
40
1
40
1
40
1
40
1
41
1
10
57.7586091451492
20
3.7765719865462
30
0
41
1
10
58.1119032885851
20
3.84671924785994
30
0
41
1
10
58.4656834627087
20
3.90751446699565
30
0
41
1
10
59.6468019035091
20
4.07748619303101
30
0
41
1
10
60.4723639373974
20
4.14195052237378
30
0
41
1
10
61.3014095137003
20
4.14927298913793
30
0
0
SPLINE
5
D5
100
AcDbEntity
8
1
62
256
6
ByLayer
370
18
48
1
60
0
100
AcDbSpline
70
4
71
3
72
18
73
14
40
0
40
0
40
0
40
0
40
0.153882276490933
40
0.153882276490933
40
0.3654117073682
40
0.3654117073682
40
0.471176422806833
40
0.471176422806833
40
0.576941138245466
40
0.576941138245466
40
0.788470569122733
40
0.788470569122733
40
1
40
1
40
1
40
1
41
1
10
61.273556923746
20
0.787941655097569
30
0
41
1
10
61.2848756824249
20
0.808724146073928
30
0
41
1
10
61.300219669056
20
0.830759753547824
30
-1E-16
41
1
10
61.346635580088
20
0.885900886658476
30
-1E-16
41
1
10
61.3801041703122
20
0.918829072691551
30
0
41
1
10
61.4407594245082
20
0.968586462861651
30
0
41
1
10
61.4629272347156
20
0.985330655133623
30
0
41
1
10
61.5097183387677
20
1.01760230678403
30
0
41
1
10
61.534438061601
20
1.03322901180198
30
0
41
1
10
61.6127266932723
20
1.07802951099285
30
0
41
1
10
61.6712699100119
20
1.10531289021319
30
0
41
1
10
61.7931962655516
20
1.14811579120052
30
0
41
1
10
61.8577082060317
20
1.16422500146351
30
0
41
1
10
61.9235172110606
20
1.17432861352717
30
0
0
SPLINE
5
D6
100
AcDbEntity
8
1
62
256
6
ByLayer
370
18
48
1
60
0
100
AcDbSpline
70
4
71
3
72
28
73
24
40
0
40
0
40
0
40
0
40
0.137579420586908
40
0.137579420586908
40
0.206369130880363
40
0.206369130880363
40
0.275158841173819
40
0.275158841173819
40
0.412738261760727
40
0.412738261760727
40
0.481527972054181
40
0.481527972054181
40
0.550317682347635
40
0.550317682347635
40
0.619107392641089
40
0.619107392641089
40
0.687897102934543
40
0.687897102934543
40
0.825476523521451
40
0.825476523521451
40
0.963055944108359
40
0.963055944108359
40
1
40
1
40
1
40
1
41
1
10
60.9340275686872
20
0.540022604098795
30
0
41
1
10
60.3607457278655
20
0.812206299391079
30
0
41
1
10
59.7910819002787
20
1.08110125318132
30
-1E-16
41
1
10
58.9364747344062
20
1.4681437555133
30
-1E-16
41
1
10
58.6517363038692
20
1.59477216366571
30
-1E-16
41
1
10
58.0822916951992
20
1.84280589533844
30
-1E-16
41
1
10
57.7977718431698
20
1.96456066121206
30
-1E-16
41
1
10
56.9430924230927
20
2.31964332282411
30
-1E-16
41
1
10
56.3711954190367
20
2.54174531007348
30
-2E-16
41
1
10
55.5090944087192
20
2.85077408683389
30
-2E-16
41
1
10
55.2207088304078
20
2.95018425226186
30
-2E-16
41
1
10
54.6461303744855
20
3.13721447477036
30
-2E-16
41
1
10
54.3594507127546
20
3.22506036171168
30
-2E-16
41
1
10
53.7872700659007
20
3.38968068795344
30
-2E-16
41
1
10
53.5017245399182
20
3.4663991603677
30
-2E-16
41
1
10
52.9318218378196
20
3.60874527184336
30
-2E-16
41
1
10
52.6473121227203
20
3.6741575280272
30
0
41
1
10
51.7932067566255
20
3.85135536738539
30
0
41
1
10
51.2234311906131
20
3.9447555642877
30
0
41
1
10
50.0822373079734
20
4.08065048934924
30
0
41
1
10
49.5092071026821
20
4.12216500532131
30
0
41
1
10
48.7775583954143
20
4.14018469896652
30
0
41
1
10
48.6230267569126
20
4.14199573171874
30
0
41
1
10
48.4687717881758
20
4.14182878890736
30
0
0
SPLINE
5
D7
100
AcDbEntity
8
1
62
256
6
ByLayer
370
18
48
1
60
0
100
AcDbSpline
70
4
71
3
72
34
73
30
40
0
40
0
40
0
40
0
40
0.099855744102155
40
0.099855744102155
40
0.156114760095771
40
0.156114760095771
40
0.212373776089386
40
0.212373776089386
40
0.324891808076618
40
0.324891808076618
40
0.381150824070233
40
0.381150824070233
40
0.437409840063848
40
0.437409840063848
40
0.549927872051079
40
0.549927872051079
40
0.606186888044694
40
0.606186888044694
40
0.662445904038309
40
0.662445904038309
40
0.718704920031924
40
0.718704920031924
40
0.774963936025539
40
0.774963936025539
40
0.88748196801277
40
0.88748196801277
40
0.943740984006385
40
0.943740984006385
40
1
40
1
40
1
40
1
41
1
10
21.3108138312221
20
-4.12489192486879
30
0
41
1
10
20.7994214135281
20
-4.12483319028061
30
0
41
1
10
20.2903492293164
20
-4.10325547491587
30
0
41
1
10
19.4985413344218
20
-4.03667158955989
30
0
41
1
10
19.2137045471942
20
-4.00603610627795
30
0
41
1
10
18.6440922527754
20
-3.93219598768312
30
0
41
1
10
18.3594102169341
20
-3.88896717370105
30
0
41
1
10
17.5057137619178
20
-3.74044986367983
30
0
41
1
10
16.9374308679961
20
-3.61572600855422
30
0
41
1
10
16.0807183560865
20
-3.3952300246923
30
2E-16
41
1
10
15.7946166450564
20
-3.31601407228737
30
2E-16
41
1
10
15.2210601249478
20
-3.14633469530901
30
2E-16
41
1
10
14.9338353882569
20
-3.0555117267252
30
2E-16
41
1
10
14.0687596625831
20
-2.76763696125232
30
2E-16
41
1
10
13.49447466911
20
-2.55858062736238
30
2E-16
41
1
10
12.6377578696337
20
-2.22188869903215
30
1E-16
41
1
10
12.3529890916734
20
-2.10551917752827
30
1E-16
41
1
10
11.7834751609041
20
-1.86748023813183
30
1E-16
41
1
10
11.4987473635978
20
-1.74580073485382
30
1E-16
41
1
10
10.9294075072411
20
-1.49707350453806
30
1E-16
41
1
10
10.6447378469999
20
-1.37014057645735
30
1E-16
41
1
10
10.0755003857603
20
-1.1108519388562
30
1E-16
41
1
10
9.79071319139038
20
-0.978931868015081
30
1E-16
41
1
10
8.93413227921823
20
-0.579964562312455
30
0
41
1
10
8.3604696419446
20
-0.309101144459788
30
0
41
1
10
7.49581886040517
20
0.104732913348727
30
0
41
1
10
7.20768035470783
20
0.243069779036972
30
0
41
1
10
6.63075726211673
20
0.51620580850215
30
0
41
1
10
6.34195720904503
20
0.651401117816135
30
0
41
1
10
6.05260389541218
20
0.784793170267903
30
0
0
SPLINE
5
D8
100
AcDbEntity
8
1
62
256
6
ByLayer
370
18
48
1
60
0
100
AcDbSpline
70
4
71
3
72
24
73
20
40
0
40
0
40
0
40
0
40
0.236644852400706
40
0.236644852400706
40
0.365677169015737
40
0.365677169015737
40
0.430193327323254
40
0.430193327323254
40
0.494709485630771
40
0.494709485630771
40
0.623741802245805
40
0.623741802245805
40
0.752774118860839
40
0.752774118860839
40
0.881806435475873
40
0.881806435475873
40
0.946322593783389
40
0.946322593783389
40
1
40
1
40
1
40
1
41
1
10
35.9429318046924
20
-3.93071719892939
30
0
41
1
10
34.8332226072916
20
-3.95758409973331
30
0
41
1
10
33.727238784004
20
-3.8876406323935
30
0
41
1
10
32.0021427014999
20
-3.63254776214293
30
0
41
1
10
31.3941445240679
20
-3.51521771449507
30
0
41
1
10
30.4813848245953
20
-3.30120515149341
30
2E-16
41
1
10
30.1765390000978
20
-3.22347765255915
30
2E-16
41
1
10
29.5694206175883
20
-3.05719754646677
30
2E-16
41
1
10
29.2668075588294
20
-2.96852394451332
30
2E-16
41
1
10
28.3609320483053
20
-2.68735695732235
30
2E-16
41
1
10
27.7597594787252
20
-2.47987301538447
30
2E-16
41
1
10
26.5581005687569
20
-2.03271257020737
30
1E-16
41
1
10
25.9579407355405
20
-1.79300608171951
30
1E-16
41
1
10
24.7538379608498
20
-1.29008824983092
30
1E-16
41
1
10
24.1502938127215
20
-1.0266337948091
30
1E-16
41
1
10
23.2387605730689
20
-0.620831438286217
30
0
41
1
10
22.9337638325589
20
-0.48361468588908
30
0
41
1
10
22.3780079161313
20
-0.232278580229973
30
0
41
1
10
22.1262275329639
20
-0.118044687463851
30
0
41
1
10
21.8748982983441
20
-0.0040764428884472
30
0
0
SPLINE
5
D9
100
AcDbEntity
8
1
62
256
6
ByLayer
370
18
48
1
60
0
100
AcDbSpline
70
4
71
3
72
42
73
38
40
0
40
0
40
0
40
0
40
0.069832216848165
40
0.069832216848165
40
0.13966443369633
40
0.13966443369633
40
0.174580542120412
40
0.174580542120412
40
0.209496650544494
40
0.209496650544494
40
0.279328867392657
40
0.279328867392657
40
0.418993301088985
40
0.418993301088985
40
0.453909409513066
40
0.453909409513066
40
0.488825517937148
40
0.488825517937148
40
0.558657734785312
40
0.558657734785312
40
0.628489951633476
40
0.628489951633476
40
0.698322168481641
40
0.698322168481641
40
0.733238276905724
40
0.733238276905724
40
0.768154385329806
40
0.768154385329806
40
0.837986602177972
40
0.837986602177972
40
0.872902710602054
40
0.872902710602054
40
0.907818819026136
40
0.907818819026136
40
0.9776510358743
40
0.9776510358743
40
1
40
1
40
1
40
1
41
1
10
61.2860510440758
20
-4.09726940114439
30
0
41
1
10
60.6838316288745
20
-4.05100119802808
30
0
41
1
10
60.0823000772452
20
-3.97508450809187
30
0
41
1
10
58.8763257200916
20
-3.76649229692771
30
0
41
1
10
58.2755142630258
20
-3.63443435323725
30
-2E-16
41
1
10
57.3741466987462
20
-3.39857620368789
30
2E-16
41
1
10
57.0736575849526
20
-3.31366024834586
30
2E-16
41
1
10
56.4719714144584
20
-3.13198316477516
30
2E-16
41
1
10
56.1702324997213
20
-3.03503505760105
30
2E-16
41
1
10
55.2674111677555
20
-2.72908880869863
30
2E-16
41
1
10
54.6696560969843
20
-2.50527134311693
30
2E-16
41
1
10
52.8815796571075
20
-1.78773480408327
30
1E-16
41
1
10
51.6965865621058
20
-1.24749736768061
30
1E-16
41
1
10
50.2005086178667
20
-0.541645341080027
30
0
41
1
10
49.9005585897295
20
-0.398946090055773
30
0
41
1
10
49.2986692503116
20
-0.11153632025227
30
0
41
1
10
48.9968650577597
20
0.0331040093532806
30
0
41
1
10
48.0941397207095
20
0.464662320674762
30
0
41
1
10
47.4937080874019
20
0.750305245287421
30
0
41
1
10
46.2907146721831
20
1.30730230570023
30
-1E-16
41
1
10
45.6869967144024
20
1.57926960372228
30
-1E-16
41
1
10
44.4837687782524
20
2.09449044670444
30
-1E-16
41
1
10
43.8832428251024
20
2.338290431301
30
-1E-16
41
1
10
42.9803858539824
20
2.67668226472645
30
-2E-16
41
1
10
42.6787463576646
20
2.78506369162653
30
-2E-16
41
1
10
42.0760209472748
20
2.99111440060085
30
-2E-16
41
1
10
41.7751333327256
20
3.08869945369168
30
-2E-16
41
1
10
40.8730204427648
20
3.3640038021135
30
-2E-16
41
1
10
40.2723524478465
20
3.52425455275218
30
-2E-16
41
1
10
39.3687405125684
20
3.72520509622356
30
0
41
1
10
39.0668961778112
20
3.78567600654264
30
0
41
1
10
38.4646305659983
20
3.89235505022006
30
0
41
1
10
38.1638730062932
20
3.93863486551845
30
0
41
1
10
37.2618883690843
20
4.05585029178567
30
0
41
1
10
36.6609713732885
20
4.10513374555018
30
0
41
1
10
35.8649601262189
20
4.13061148667612
30
0
41
1
10
35.6719483424651
20
4.1337102006807
30
0
41
1
10
35.479090029004
20
4.13373477249593
30
0
0
SPLINE
5
DA
100
AcDbEntity
8
1
62
256
6
ByLayer
370
18
48
1
60
0
100
AcDbSpline
70
4
71
3
72
16
73
12
40
0
40
0
40
0
40
0
40
0.0254598781308515
40
0.0254598781308515
40
0.147277393364495
40
0.147277393364495
40
0.269094908598138
40
0.269094908598138
40
0.512729939065425
40
0.512729939065425
40
1
40
1
40
1
40
1
41
1
10
10.9544408339029
20
-3.92140768731951
30
0
41
1
10
10.8915595855965
20
-3.93051082458817
30
0
41
1
10
10.8286804774581
20
-3.93930282586024
30
0
41
1
10
10.4649401808351
20
-3.98835141964747
30
0
41
1
10
10.1640687694374
20
-4.02176282155784
30
0
41
1
10
9.56174097547895
20
-4.07394627755167
30
0
41
1
10
9.25993369648705
20
-4.09272401742433
30
0
41
1
10
8.35501008801572
20
-4.1265475560233
30
0
41
1
10
7.75517109320003
20
-4.11905449949458
30
0
41
1
10
5.95910105741709
20
-4.00885538226748
30
0
41
1
10
4.76598881261404
20
-3.81825571640036
30
0
41
1
10
3.55877742151586
20
-3.5207276619287
30
2E-16
0
SPLINE
5
DB
100
AcDbEntity
8
1
62
256
6
ByLayer
370
18
48
1
60
0
100
AcDbSpline
70
4
71
3
72
30
73
26
40
0
40
0
40
0
40
0
40
0.12971016705382
40
0.12971016705382
40
0.25942033410764
40
0.25942033410764
40
0.324275417634551
40
0.324275417634551
40
0.389130501161463
40
0.389130501161463
40
0.518840668215285
40
0.518840668215285
40
0.583695751742196
40
0.583695751742196
40
0.648550835269108
40
0.648550835269108
40
0.778261002322928
40
0.778261002322928
40
0.843116085849839
40
0.843116085849839
40
0.90797116937675
40
0.90797116937675
40
0.972826252903662
40
0.972826252903662
40
1
40
1
40
1
40
1
41
1
10
61.0478337198199
20
-0.101307379037564
30
0
41
1
10
60.4479280221208
20
0.172404719494296
30
0
41
1
10
59.8502048129259
20
0.444918136404624
30
0
41
1
10
58.6552588106781
20
0.978898622388982
30
-1E-16
41
1
10
58.0584301264956
20
1.24083709922923
30
-1E-16
41
1
10
57.1605051468525
20
1.61862038145884
30
-1E-16
41
1
10
56.860752929093
20
1.74201956391792
30
-1E-16
41
1
10
56.2598891567785
20
1.98265335823191
30
-1E-16
41
1
10
55.9582193673408
20
2.10007487177467
30
-1E-16
41
1
10
55.0568798416583
20
2.43877349458947
30
-1E-16
41
1
10
54.4596957528534
20
2.64711346075018
30
-2E-16
41
1
10
53.5666872422332
20
2.92865360085378
30
-2E-16
41
1
10
53.2695012476763
20
3.01725902459435
30
-2E-16
41
1
10
52.6758011644789
20
3.18284790638629
30
-2E-16
41
1
10
52.3792001966343
20
3.25998630989275
30
-2E-16
41
1
10
51.4884467475147
20
3.47488367853367
30
0
41
1
10
50.8936020818189
20
3.59576254859229
30
0
41
1
10
49.9981650159753
20
3.73744767168358
30
0
41
1
10
49.6991620351511
20
3.77792810431589
30
0
41
1
10
49.0995660323159
20
3.84413216632331
30
0
41
1
10
48.7981939804958
20
3.87049242554806
30
0
41
1
10
48.1963311384552
20
3.91038279915603
30
0
41
1
10
47.8962374126645
20
3.92357350279505
30
0
41
1
10
47.4717198249715
20
3.93169732769266
30
0
41
1
10
47.3465114029767
20
3.93284182440365
30
0
41
1
10
47.2214087373792
20
3.93277747780439
30
0
0
SPLINE
5
DC
100
AcDbEntity
8
1
62
256
6
ByLayer
370
18
48
1
60
0
100
AcDbSpline
70
4
71
3
72
12
73
8
40
0
40
0
40
0
40
0
40
0.142367210091481
40
0.142367210091481
40
0.428244806727655
40
0.428244806727655
40
1
40
1
40
1
40
1
41
1
10
6.78563177113523
20
-0.166224513894548
30
0
41
1
10
6.63657525958303
20
-0.0988532990650413
30
0
41
1
10
6.48753440907547
20
-0.0314945523754488
30
0
41
1
10
6.03905762709789
20
0.170633554989735
30
0
41
1
10
5.73962385055205
20
0.305260746785194
30
0
41
1
10
4.84091355671222
20
0.707598723482221
30
0
41
1
10
4.2412510521207
20
0.973818707519314
30
-1E-16
41
1
10
3.63933974581514
20
1.23405276467972
30
-1E-16
0
SPLINE
5
DD
100
AcDbEntity
8
1
62
256
6
ByLayer
370
18
48
1
60
0
100
AcDbSpline
70
4
71
3
72
46
73
42
40
0
40
0
40
0
40
0
40
0.0402437599094178
40
0.0402437599094178
40
0.0838690435498993
40
0.0838690435498993
40
0.127494327190381
40
0.127494327190381
40
0.171119610830862
40
0.171119610830862
40
0.214744894471344
40
0.214744894471344
40
0.258370178111825
40
0.258370178111825
40
0.301995461752307
40
0.301995461752307
40
0.389246029033268
40
0.389246029033268
40
0.43287131267375
40
0.43287131267375
40
0.476496596314231
40
0.476496596314231
40
0.520121879954713
40
0.520121879954713
40
0.563747163595194
40
0.563747163595194
40
0.607372447235676
40
0.607372447235676
40
0.650997730876157
40
0.650997730876157
40
0.738248298157119
40
0.738248298157119
40
0.781873581797599
40
0.781873581797599
40
0.825498865438079
40
0.825498865438079
40
0.86912414907856
40
0.86912414907856
40
0.91274943271904
40
0.91274943271904
40
1
40
1
40
1
40
1
41
1
10
32.7971602082977
20
4.07426016140141
30
0
41
1
10
33.179294824041
20
4.1048964962975
30
0
41
1
10
33.5615017844653
20
4.12365370857478
30
0
41
1
10
34.3594935190102
20
4.13744161777396
30
0
41
1
10
34.7751992835649
20
4.13030156667821
30
0
41
1
10
35.6042941970326
20
4.08777158029727
30
0
41
1
10
36.0183823311723
20
4.05241596711002
30
0
41
1
10
36.8470807224686
20
3.95412125265122
30
0
41
1
10
37.2617720985915
20
3.89115843109727
30
0
41
1
10
38.0929255075066
20
3.73844518768678
30
0
41
1
10
38.5074290206743
20
3.64906484936608
30
0
41
1
10
39.3359375422446
20
3.44604882772282
30
-2E-16
41
1
10
39.749946003634
20
3.33241997590622
30
-2E-16
41
1
10
40.5790388046202
20
3.08278603271427
30
-2E-16
41
1
10
40.9948227861675
20
2.94650664438174
30
-2E-16
41
1
10
42.2397275519919
20
2.50915905701021
30
-2E-16
41
1
10
43.0662912005354
20
2.17976613280337
30
-1E-16
41
1
10
44.3109434705411
20
1.6460752770125
30
-1E-16
41
1
10
44.7267555492837
20
1.46149193807912
30
-1E-16
41
1
10
45.5558422506528
20
1.08464047532198
30
-1E-16
41
1
10
45.9698177927712
20
0.89207141993387
30
-1E-16
41
1
10
46.798133935866
20
0.501720954138506
30
0
41
1
10
47.2124807786901
20
0.303950975293077
30
0
41
1
10
48.0432066216698
20
-0.0933512856593097
30
0
41
1
10
48.4579469429108
20
-0.292075868659879
30
0
41
1
10
49.286330121502
20
-0.685653773391778
30
0
41
1
10
49.7002058165859
20
-0.880620317304334
30
1E-16
41
1
10
50.5288939384968
20
-1.2636638150187
30
1E-16
41
1
10
50.9443643501352
20
-1.45204733938948
30
1E-16
41
1
10
52.1893169411489
20
-1.99983097988047
30
1E-16
41
1
10
53.0157762899413
20
-2.34102604891089
30
1E-16
41
1
10
54.259813760144
20
-2.79969561922937
30
2E-16
41
1
10
54.6756062095509
20
-2.94387520334522
30
2E-16
41
1
10
55.504375384657
20
-3.21020666300359
30
2E-16
41
1
10
55.9180074756145
20
-3.33262949661562
30
2E-16
41
1
10
56.7454002594213
20
-3.55394597683747
30
2E-16
41
1
10
57.1591655320459
20
-3.6528341422908
30
0
41
1
10
57.9884722825137
20
-3.8252086003005
30
0
41
1
10
58.4041729336838
20
-3.89866264449708
30
0
41
1
10
59.6468019035091
20
-4.07748619303101
30
0
41
1
10
60.4723639373973
20
-4.14195052237378
30
0
41
1
10
61.3014095137003
20
-4.14927298913793
30
0
0
SPLINE
5
DE
100
AcDbEntity
8
1
62
256
6
ByLayer
370
18
48
1
60
0
100
AcDbSpline
70
4
71
3
72
8
73
4
40
0
40
0
40
0
40
0
40
1
40
1
40
1
40
1
41
1
10
3.64344256669995
20
1.24582631517239
30
-1E-16
41
1
10
3.63052188022428
20
1.25142905219414
30
-1E-16
41
1
10
3.61665307179845
20
1.25432432879182
30
-1E-16
41
1
10
3.6024360329522
20
1.25439209451599
30
-1E-16
0
SPLINE
5
DF
100
AcDbEntity
8
1
62
256
6
ByLayer
370
18
48
1
60
0
100
AcDbSpline
70
4
71
3
72
30
73
26
40
0
40
0
40
0
40
0
40
0.124999999999999
40
0.124999999999999
40
0.187499999999999
40
0.187499999999999
40
0.25
40
0.25
40
0.375
40
0.375
40
0.4375
40
0.4375
40
0.5
40
0.5
40
0.625000000000001
40
0.625000000000001
40
0.687500000000001
40
0.687500000000001
40
0.75
40
0.75
40
0.875
40
0.875
40
0.9375
40
0.9375
40
1
40
1
40
1
40
1
41
1
10
61.0478337198198
20
-0.101307379037507
30
0
41
1
10
61.0572303835709
20
-0.335816000182234
30
0
41
1
10
61.0760327874564
20
-0.565471412959397
30
0
41
1
10
61.11159828614
20
-0.903642716735305
30
1E-16
41
1
10
61.1247064458455
20
-1.01530532576578
30
1E-16
41
1
10
61.1525437316731
20
-1.236570629498
30
1E-16
41
1
10
61.1673432845691
20
-1.34666371256333
30
1E-16
41
1
10
61.2124700456657
20
-1.67005512226817
30
1E-16
41
1
10
61.2432420309955
20
-1.87535448368936
30
1E-16
41
1
10
61.2867963159381
20
-2.16868525611432
30
1E-16
41
1
10
61.3008997987773
20
-2.26400744385543
30
1E-16
41
1
10
61.3278756771269
20
-2.44966598795631
30
1E-16
41
1
10
61.3407939440143
20
-2.54035404384541
30
2E-16
41
1
10
61.3766480433842
20
-2.79989049369985
30
2E-16
41
1
10
61.3968172873313
20
-2.95762803193264
30
2E-16
41
1
10
61.4219389077527
20
-3.17160811247183
30
2E-16
41
1
10
61.4294743154863
20
-3.23914110319174
30
2E-16
41
1
10
61.4431647029158
20
-3.36639417051799
30
2E-16
41
1
10
61.4493236550295
20
-3.42616865445592
30
0
41
1
10
61.4661215462296
20
-3.59006989390116
30
0
41
1
10
61.4751726696892
20
-3.68022608302505
30
0
41
1
10
61.4899424584799
20
-3.78709054306137
30
0
41
1
10
61.4950782380941
20
-3.81795702203053
30
0
41
1
10
61.506715002347
20
-3.8699122990802
30
0
41
1
10
61.5132038027768
20
-3.8908861815963
30
0
41
1
10
61.5208197005988
20
-3.9066522384812
30
0
0
SPLINE
5
E0
100
AcDbEntity
8
1
62
256
6
ByLayer
370
18
48
1
60
0
100
AcDbSpline
70
4
71
3
72
22
73
18
40
0
40
0
40
0
40
0
40
0.0726375078863094
40
0.0726375078863094
40
0.145275015772619
40
0.145275015772619
40
0.29055003154524
40
0.29055003154524
40
0.581100063090481
40
0.581100063090481
40
0.653737570976789
40
0.653737570976789
40
0.726375078863096
40
0.726375078863096
40
0.871650094635713
40
0.871650094635713
40
1
40
1
40
1
40
1
41
1
10
61.518226480688
20
-3.91786267766975
30
0
41
1
10
61.2146378671753
20
-3.89900926671368
30
0
41
1
10
60.9119629639106
20
-3.87387197989614
30
0
41
1
10
60.3083624460623
20
-3.8087601066091
30
0
41
1
10
60.0073681148255
20
-3.76925511315235
30
0
41
1
10
59.106029780409
20
-3.63078437883288
30
0
41
1
10
58.5073257236802
20
-3.51190024742857
30
0
41
1
10
56.7113690034905
20
-3.08307535356775
30
2E-16
41
1
10
55.5141569019982
20
-2.70002145854497
30
2E-16
41
1
10
53.9961732276994
20
-2.12994776491019
30
1E-16
41
1
10
53.6915309223617
20
-2.01140147030469
30
1E-16
41
1
10
53.0859757407137
20
-1.76880604626982
30
1E-16
41
1
10
52.7842602097745
20
-1.64444748902881
30
1E-16
41
1
10
51.8814225523751
20
-1.26413775700976
30
1E-16
41
1
10
51.2825874362017
20
-1.00098906821438
30
1E-16
41
1
10
50.156286706748
20
-0.496648639151118
30
0
41
1
10
49.6287122623668
20
-0.256286003341842
30
0
41
1
10
49.1003806238538
20
-0.0155482866331056
30
0
0
SPLINE
5
E1
100
AcDbEntity
8
1
62
256
6
ByLayer
370
18
48
1
60
0
100
AcDbSpline
70
4
71
3
72
12
73
8
40
0
40
0
40
0
40
0
40
0.0903831596489581
40
0.0903831596489581
40
0.272306527719166
40
0.272306527719166
40
1
40
1
40
1
40
1
41
1
10
8.59448450550184
20
-3.9167436984639
30
0
41
1
10
8.4433007848065
20
-3.91924468764498
30
0
41
1
10
8.29221533533283
20
-3.9199524484462
30
0
41
1
10
7.83784209289411
20
-3.9166805053211
30
0
41
1
10
7.53488068907652
20
-3.90725718125094
30
0
41
1
10
6.02167707943883
20
-3.82486411150424
30
0
41
1
10
4.81628645111712
20
-3.64523819145651
30
0
41
1
10
3.59773260695496
20
-3.36085318079353
30
2E-16
0
SPLINE
5
E2
100
AcDbEntity
8
1
62
256
6
ByLayer
370
18
48
1
60
0
100
AcDbSpline
70
4
71
3
72
8
73
4
40
0
40
0
40
0
40
0
40
1
40
1
40
1
40
1
41
1
10
60.9430893666026
20
-0.0448142516524115
30
0
41
1
10
60.9324863586002
20
0.15245809268032
30
0
41
1
10
60.9287885743605
20
0.347401216430228
30
0
41
1
10
60.9340275686874
20
0.540022604106213
30
0
0
SPLINE
5
E3
100
AcDbEntity
8
1
62
256
6
ByLayer
370
18
48
1
60
0
100
AcDbSpline
70
4
71
3
72
10
73
6
40
0
40
0
40
0
40
0
40
0.5
40
0.5
40
1
40
1
40
1
40
1
41
1
10
3.56044133327725
20
-3.3465410891684
30
2E-16
41
1
10
3.54010744321494
20
-3.35013378686264
30
2E-16
41
1
10
3.52548644968354
20
-3.35576435872051
30
2E-16
41
1
10
3.50635000573635
20
-3.36797570969585
30
2E-16
41
1
10
3.50171598350275
20
-3.37470323530547
30
2E-16
41
1
10
3.50171598350269
20
-3.3812405780902
30
2E-16
0
SPLINE
5
E4
100
AcDbEntity
8
1
62
256
6
ByLayer
370
18
48
1
60
0
100
AcDbSpline
70
4
71
3
72
8
73
4
40
0
40
0
40
0
40
0
40
1
40
1
40
1
40
1
41
1
10
62.9961730111247
20
0.229118822977739
30
0
41
1
10
62.9782472513705
20
0.169370877312133
30
0
41
1
10
62.9602321278393
20
0.109650997158241
30
0
41
1
10
62.942127975879
20
0.0499590771969451
30
0
0
SPLINE
5
E5
100
AcDbEntity
8
1
62
256
6
ByLayer
370
18
48
1
60
0
100
AcDbSpline
70
4
71
3
72
68
73
64
40
0
40
0
40
0
40
0
40
0.0106676337530025
40
0.0106676337530025
40
0.0302327879303293
40
0.0302327879303293
40
0.0497979421076563
40
0.0497979421076563
40
0.0693630962849831
40
0.0693630962849831
40
0.08892825046231
40
0.08892825046231
40
0.0892339559963308
40
0.0892339559963308
40
0.0893868087633412
40
0.0893868087633412
40
0.0895396615303516
40
0.0895396615303516
40
0.090151072598393
40
0.090151072598393
40
0.0913738947344759
40
0.0913738947344759
40
0.0938195390066416
40
0.0938195390066416
40
0.0987108275509731
40
0.0987108275509731
40
0.108493404639636
40
0.108493404639636
40
0.128058558816962
40
0.128058558816962
40
0.167188867171613
40
0.167188867171613
40
0.245449483880916
40
0.245449483880916
40
0.401970717299522
40
0.401970717299522
40
0.480231334008825
40
0.480231334008825
40
0.519361642363476
40
0.519361642363476
40
0.538926796540802
40
0.538926796540802
40
0.543818085085134
40
0.543818085085134
40
0.545040907221217
40
0.545040907221217
40
0.546263729357299
40
0.546263729357299
40
0.54641658212431
40
0.54641658212431
40
0.54656943489132
40
0.54656943489132
40
0.546722287658331
40
0.546722287658331
40
0.546875140425341
40
0.547486551493382
40
0.548709373629465
40
0.558491950718126
40
0.715013184136703
40
0.715013184136703
40
0.87153441755528
40
0.87153441755528
40
1
40
1
40
1
40
1
41
1
10
7.46767217569109
20
4.10836892099124
30
0
41
1
10
7.45048419286113
20
4.05358242809132
30
0
41
1
10
7.43274246155414
20
3.99850087029572
30
0
41
1
10
7.38125675494101
20
3.84139519485112
30
0
41
1
10
7.34682859709457
20
3.73837465920025
30
0
41
1
10
7.27192391070253
20
3.53144011327959
30
0
41
1
10
7.23187396789902
20
3.42732476823369
30
0
41
1
10
7.14774887743863
20
3.21717790140406
30
0
41
1
10
7.10348054645678
20
3.1109176565962
30
0
41
1
10
7.01030187065294
20
2.89857235029709
30
0
41
1
10
6.96168174932561
20
2.79230945244817
30
0
41
1
10
6.91080814942768
20
2.6841489237022
30
0
41
1
10
6.91002512892081
20
2.68248488355721
30
0
41
1
10
6.90885007660941
20
2.67998877480801
30
0
41
1
10
6.90834605380431
20
2.67920757875197
30
0
41
1
10
6.90785513799611
20
2.67740897370461
30
0
41
1
10
6.90844924105537
20
2.67650558840549
30
0
41
1
10
6.91134501728311
20
2.67294224430341
30
0
41
1
10
6.91440730255434
20
2.67090529417189
30
0
41
1
10
6.92317182345585
20
2.66451376242657
30
0
41
1
10
6.92921672107397
20
2.66055744297489
30
0
41
1
10
6.94739083310864
20
2.6488064489937
30
0
41
1
10
6.95965592134885
20
2.64123876132015
30
0
41
1
10
6.99653871322505
20
2.61869608813552
30
0
41
1
10
7.0212745250798
20
2.60394312875235
30
0
41
1
10
7.09557118282618
20
2.55988972031565
30
0
41
1
10
7.14526444592604
20
2.53085725960423
30
0
41
1
10
7.29447985269456
20
2.4441034460686
30
0
41
1
10
7.39416533533091
20
2.38679295212003
30
0
41
1
10
7.69333658056351
20
2.21548492362635
30
0
41
1
10
7.89297079149384
20
2.10216522465396
30
0
41
1
10
8.49187399885764
20
1.76383310160944
30
0
41
1
10
8.89113041467502
20
1.54072324040834
30
0
41
1
10
10.0880577715699
20
0.87780116722152
30
-1E-16
41
1
10
10.8848209908533
20
0.44433055968085
30
0
41
1
10
12.0799471946165
20
-0.190630215820505
30
0
41
1
10
12.4782570423599
20
-0.399814332269045
30
0
41
1
10
13.0748015183324
20
-0.710089306588486
30
0
41
1
10
13.2735718478235
20
-0.812893764297968
30
0
41
1
10
13.5710557782429
20
-0.966559719293542
30
1E-16
41
1
10
13.6702026639533
20
-1.01763545304166
30
1E-16
41
1
10
13.7931875285124
20
-1.0818697940401
30
1E-16
41
1
10
13.8177606905577
20
-1.09472168768187
30
1E-16
41
1
10
13.8481107207778
20
-1.11099759379473
30
1E-16
41
1
10
13.8541606315447
20
-1.11426440604089
30
1E-16
41
1
10
13.8661471798998
20
-1.12086573989339
30
1E-16
41
1
10
13.8722429440814
20
-1.1241617814122
30
1E-16
41
1
10
13.878417565624
20
-1.12813231697254
30
1E-16
41
1
10
13.8790910253353
20
-1.12857861898559
30
1E-16
41
1
10
13.8803367924315
20
-1.12949992706893
30
1E-16
41
1
10
13.8812194395977
20
-1.13007690161118
30
1E-16
41
1
10
13.8807530134624
20
-1.13079343510074
30
1E-16
41
1
10
13.8794803331993
20
-1.13046962907529
30
1E-16
41
1
10
13.8776926550649
20
-1.13014115716786
30
1E-16
41
1
10
13.8732232596501
20
-1.12931906186264
30
1E-16
41
1
10
13.8616031987799
20
-1.12718083674091
30
1E-16
41
1
10
13.7936743806689
20
-1.11466462536833
30
1E-16
41
1
10
12.8143966943097
20
-0.932798579189637
30
1E-16
41
1
10
11.8474277042851
20
-0.731748616679113
30
0
41
1
10
10.0375368747144
20
-0.317315422471466
30
0
41
1
10
9.13711456288226
20
-0.0919234408094667
30
0
41
1
10
7.50879012563038
20
0.350518474496908
30
0
41
1
10
6.77879372095578
20
0.561813674008164
30
0
41
1
10
6.05266190196522
20
0.784775359095988
30
0
0
SPLINE
5
E6
100
AcDbEntity
8
1
62
256
6
ByLayer
370
18
48
1
60
0
100
AcDbSpline
70
4
71
3
72
60
73
56
40
0
40
0
40
0
40
0
40
0.0212255969254811
40
0.0212255969254811
40
0.0511630857634245
40
0.0511630857634245
40
0.0811005746013678
40
0.0811005746013678
40
0.111038063439311
40
0.111038063439311
40
0.140975552277255
40
0.140975552277255
40
0.170913041115198
40
0.170913041115198
40
0.200850529953141
40
0.200850529953141
40
0.230788018791085
40
0.230788018791085
40
0.260725507629028
40
0.260725507629028
40
0.290662996466971
40
0.290662996466971
40
0.320600485304915
40
0.320600485304915
40
0.3804754629808
40
0.3804754629808
40
0.410412951818743
40
0.410412951818743
40
0.440350440656686
40
0.440350440656686
40
0.500225418332573
40
0.500225418332573
40
0.530162907170516
40
0.530162907170516
40
0.560100396008459
40
0.560100396008459
40
0.619975373684343
40
0.619975373684343
40
0.649912862522286
40
0.649912862522286
40
0.679850351360229
40
0.679850351360229
40
0.739725329036115
40
0.739725329036115
40
0.799600306712
40
0.799600306712
40
0.859475284387886
40
0.859475284387886
40
0.919350262063772
40
0.919350262063772
40
0.949287750901715
40
0.949287750901715
40
0.979225239739657
40
0.979225239739657
40
1
40
1
40
1
40
1
41
1
10
17.331692960042
20
3.92196854110318
30
0
41
1
10
17.5418561925125
20
3.95293515659321
30
0
41
1
10
17.7522254028375
20
3.98049039237162
30
0
41
1
10
18.260263341869
20
4.03833243136819
30
0
41
1
10
18.5583809618761
20
4.06510931260144
30
0
41
1
10
19.1562039710153
20
4.10434766740431
30
0
41
1
10
19.4561691936071
20
4.11674154338291
30
0
41
1
10
20.0547817974382
20
4.12655841520581
30
0
41
1
10
20.353825151749
20
4.12409317800513
30
0
41
1
10
20.9513705552785
20
4.10445826381539
30
0
41
1
10
21.2498471612587
20
4.08723064454728
30
0
41
1
10
21.8476839881676
20
4.03835195788591
30
0
41
1
10
22.1469029379308
20
4.00670217742243
30
0
41
1
10
22.7459640184469
20
3.92883944296142
30
0
41
1
10
23.0455010254767
20
3.88257787575481
30
0
41
1
10
23.6438431429964
20
3.77695053308977
30
0
41
1
10
23.9427853199484
20
3.7174413103065
30
0
41
1
10
24.5402181628296
20
3.58502215270556
30
-2E-16
41
1
10
24.8386817004894
20
3.51203169895655
30
-2E-16
41
1
10
25.4367856401635
20
3.35433257942196
30
-2E-16
41
1
10
25.7362557025055
20
3.26936521746748
30
-2E-16
41
1
10
26.3356621303166
20
3.0872712327438
30
-2E-16
41
1
10
26.6346148103014
20
2.99036110247445
30
-2E-16
41
1
10
27.5315696746869
20
2.68558868375089
30
-2E-16
41
1
10
28.1282523897176
20
2.46156896712463
30
-2E-16
41
1
10
29.0256829286552
20
2.1013497805487
30
-1E-16
41
1
10
29.3256129403154
20
1.97715122861155
30
-1E-16
41
1
10
29.9243705495977
20
1.72173363804239
30
-1E-16
41
1
10
30.22323391739
20
1.59079634271356
30
-1E-16
41
1
10
31.1197535620183
20
1.19123988720003
30
-1E-16
41
1
10
31.7163818594139
20
0.913960910119698
30
-1E-16
41
1
10
32.6144203346658
20
0.49116128328987
30
0
41
1
10
32.9143982309691
20
0.34879487531316
30
0
41
1
10
33.5126255094486
20
0.0633532355175817
30
0
41
1
10
33.8113559578353
20
-0.0795447625897907
30
0
41
1
10
34.7075889632986
20
-0.506268962841318
30
0
41
1
10
35.3043299165709
20
-0.789808621931144
30
0
41
1
10
36.202989002871
20
-1.20392551571271
30
1E-16
41
1
10
36.5026376450076
20
-1.34013060314271
30
1E-16
41
1
10
37.1003707244656
20
-1.60739845532058
30
1E-16
41
1
10
37.3990384549036
20
-1.73803253207905
30
1E-16
41
1
10
38.2951240256119
20
-2.11972956934179
30
1E-16
41
1
10
38.8924787014489
20
-2.36180278763345
30
1E-16
41
1
10
40.0907466850047
20
-2.80846043785925
30
2E-16
41
1
10
40.6851681792621
20
-3.01231222990171
30
2E-16
41
1
10
41.8708239890387
20
-3.37276179512688
30
2E-16
41
1
10
42.461200253725
20
-3.53053058385555
30
2E-16
41
1
10
43.6435501717039
20
-3.79388028472812
30
0
41
1
10
44.2344929601806
20
-3.90049679943411
30
0
41
1
10
45.1253813695954
20
-4.01832645030399
30
0
41
1
10
45.4228917357752
20
-4.05074784766788
30
0
41
1
10
46.0194764317622
20
-4.10128052037496
30
0
41
1
10
46.3194320991096
20
-4.11925048676304
30
0
41
1
10
46.826400709343
20
-4.13711245628801
30
0
41
1
10
47.0338473750543
20
-4.14087167784166
30
0
41
1
10
47.2411676101565
20
-4.14108116904589
30
0
0
SPLINE
5
E7
100
AcDbEntity
8
1
62
256
6
ByLayer
370
18
48
1
60
0
100
AcDbSpline
70
4
71
3
72
22
73
18
40
0
40
0
40
0
40
0
40
0.250000000000001
40
0.250000000000001
40
0.375000000000004
40
0.375000000000004
40
0.437500000000006
40
0.437500000000006
40
0.500000000000007
40
0.500000000000007
40
0.625000000000005
40
0.625000000000005
40
0.750000000000004
40
0.750000000000004
40
0.875000000000002
40
0.875000000000002
40
1
40
1
40
1
40
1
41
1
10
61.5582013082089
20
3.97857488012608
30
0
41
1
10
61.6392538127354
20
3.75018823018837
30
0
41
1
10
61.7193099434272
20
3.52031014514137
30
0
41
1
10
61.8395921476615
20
3.17440615148499
30
0
41
1
10
61.8796993851174
20
3.0589674856835
30
0
41
1
10
61.939984557144
20
2.88584811325498
30
0
41
1
10
61.9601020754036
20
2.82814015150657
30
0
41
1
10
62.0004003093646
20
2.71272958967603
30
0
41
1
10
62.0205079121464
20
2.6550086599066
30
0
41
1
10
62.0821624228408
20
2.48216170956968
30
0
41
1
10
62.1250422957599
20
2.36665106799177
30
0
41
1
10
62.2141603240306
20
2.1405117081521
30
0
41
1
10
62.2603119088271
20
2.03006119209533
30
0
41
1
10
62.3567503440396
20
1.81453090487557
30
0
41
1
10
62.4070451689779
20
1.70947113898234
30
0
41
1
10
62.5127090232861
20
1.50511289216433
30
0
41
1
10
62.5676118302706
20
1.40679422812639
30
0
41
1
10
62.6239439594459
20
1.31350915957395
30
0
0
SPLINE
5
E8
100
AcDbEntity
8
1
62
256
6
ByLayer
370
18
48
1
60
0
100
AcDbSpline
70
2053
71
3
72
60
73
56
40
0
40
0
40
0
40
0
40
0.0156250000000012
40
0.0156250000000012
40
0.0312500000000023
40
0.0312500000000023
40
0.0468750000000035
40
0.0468750000000035
40
0.0625000000000046
40
0.0625000000000046
40
0.0937500000000029
40
0.0937500000000029
40
0.125000000000001
40
0.125000000000001
40
0.187499999999996
40
0.187499999999996
40
0.24999999999999
40
0.24999999999999
40
0.312499999999985
40
0.312499999999985
40
0.374999999999979
40
0.374999999999979
40
0.437499999999974
40
0.437499999999974
40
0.468749999999972
40
0.468749999999972
40
0.499999999999971
40
0.499999999999971
40
0.515624999999971
40
0.515624999999971
40
0.531249999999972
40
0.531249999999972
40
0.546874999999973
40
0.546874999999973
40
0.562499999999974
40
0.562499999999974
40
0.593749999999976
40
0.593749999999976
40
0.624999999999978
40
0.624999999999978
40
0.65624999999998
40
0.65624999999998
40
0.687499999999982
40
0.687499999999982
40
0.749999999999986
40
0.749999999999986
40
0.81249999999999
40
0.81249999999999
40
0.874999999999993
40
0.874999999999993
40
0.937499999999997
40
0.937499999999997
40
0.968749999999999
40
0.968749999999999
40
1
40
1
40
1
40
1
41
1
10
0.430241256872667
20
3.98699710724838
30
2E-16
41
1
10
0.417949671124376
20
3.98626331451797
30
2E-16
41
1
10
0.404375311634937
20
3.98681195897055
30
2E-16
41
1
10
0.373643189639694
20
3.99189273024484
30
2E-16
41
1
10
0.356768928503953
20
3.99649514126699
30
2E-16
41
1
10
0.322389590272849
20
4.00980504798369
30
2E-16
41
1
10
0.304930458121362
20
4.01850510688473
30
2E-16
41
1
10
0.272519766406589
20
4.03773626066933
30
2E-16
41
1
10
0.25738507597859
20
4.04830070620997
30
2E-16
41
1
10
0.216281031750185
20
4.08026110597879
30
2E-16
41
1
10
0.193588647006806
20
4.10247645431187
30
2E-16
41
1
10
0.154861594246597
20
4.14560535317275
30
2E-16
41
1
10
0.138425109477367
20
4.16708954594429
30
2E-16
41
1
10
0.095986009031634
20
4.22952900633049
30
2E-16
41
1
10
0.0760806602111472
20
4.26916534475279
30
2E-16
41
1
10
0.0461888864452078
20
4.34622666146078
30
2E-16
41
1
10
0.0367145187694575
20
4.38288649540641
30
2E-16
41
1
10
0.026366328955902
20
4.45291775520661
30
2E-16
41
1
10
0.0255076143729127
20
4.4863633999914
30
2E-16
41
1
10
0.0323969546778642
20
4.55014860801589
30
2E-16
41
1
10
0.0402074012623359
20
4.58064802649173
30
2E-16
41
1
10
0.0660954928636102
20
4.63647109226562
30
-1E-16
41
1
10
0.0841993724499446
20
4.66220033976114
30
-1E-16
41
1
10
0.122490921089707
20
4.69381651566056
30
-1E-16
41
1
10
0.137097958316502
20
4.70319185587846
30
-1E-16
41
1
10
0.171973501606175
20
4.71831859193966
30
-1E-16
41
1
10
0.192513353517569
20
4.72421572961221
30
-1E-16
41
1
10
0.229604150444373
20
4.7271587807096
30
-1E-16
41
1
10
0.24324278621836
20
4.72714242458866
30
-1E-16
41
1
10
0.27298195284132
20
4.72398137267709
30
-1E-16
41
1
10
0.289328176532479
20
4.72076487064763
30
-1E-16
41
1
10
0.323288304423869
20
4.71018318440241
30
-1E-16
41
1
10
0.34112039754055
20
4.70266184845326
30
-1E-16
41
1
10
0.374569117290861
20
4.68465881717015
30
-1E-16
41
1
10
0.390294417726977
20
4.67420211580054
30
-1E-16
41
1
10
0.432334599524864
20
4.64173585589739
30
-1E-16
41
1
10
0.453917338478505
20
4.61888009335632
30
-1E-16
41
1
10
0.48947880894778
20
4.57466235511018
30
-1E-16
41
1
10
0.50337963167496
20
4.55328280606227
30
-1E-16
41
1
10
0.527114446741678
20
4.5113220765767
30
-1E-16
41
1
10
0.536840860970614
20
4.49073514478607
30
-1E-16
41
1
10
0.553153125713806
20
4.45092781188927
30
-1E-16
41
1
10
0.559791951589119
20
4.43158069356201
30
0
41
1
10
0.576419485527907
20
4.37477801528283
30
0
41
1
10
0.58318942041538
20
4.33853693512867
30
0
41
1
10
0.590585389596356
20
4.26847388749985
30
2E-16
41
1
10
0.591146276258883
20
4.23452575206548
30
2E-16
41
1
10
0.58609496398816
20
4.16999216501392
30
2E-16
41
1
10
0.580545213449938
20
4.13936201957142
30
2E-16
41
1
10
0.561511394876703
20
4.08230225615105
30
2E-16
41
1
10
0.548302037820349
20
4.05573755443473
30
2E-16
41
1
10
0.517076464014366
20
4.02172386778571
30
2E-16
41
1
10
0.504529933979796
20
4.01126249428248
30
2E-16
41
1
10
0.473393156229776
20
3.99478206582302
30
2E-16
41
1
10
0.45482442836925
20
3.98846469270919
30
2E-16
41
1
10
0.430241256872667
20
3.98699710724838
30
2E-16
0
SPLINE
5
E9
100
AcDbEntity
8
1
62
256
6
ByLayer
370
18
48
1
60
0
100
AcDbSpline
70
4
71
3
72
24
73
20
40
0
40
0
40
0
40
0
40
0.249999999999999
40
0.249999999999999
40
0.374999999999999
40
0.374999999999999
40
0.437499999999999
40
0.437499999999999
40
0.5
40
0.5
40
0.625
40
0.625
40
0.75
40
0.75
40
0.875
40
0.875
40
0.9375
40
0.9375
40
1
40
1
40
1
40
1
41
1
10
7.46767217569271
20
4.10836892099641
30
0
41
1
10
8.64672431017141
20
4.07447700897234
30
0
41
1
10
9.80947343254596
20
3.92624976730474
30
0
41
1
10
11.5561575624003
20
3.55318331255296
30
-2E-16
41
1
10
12.1385214161572
20
3.40348222066567
30
-2E-16
41
1
10
13.0161919572395
20
3.14492556941164
30
-2E-16
41
1
10
13.3093777322145
20
3.05301383190897
30
-2E-16
41
1
10
13.8975061355918
20
2.85824381253593
30
-2E-16
41
1
10
14.1924561068481
20
2.75543613942102
30
-2E-16
41
1
10
15.0726310192978
20
2.43440558652853
30
-1E-16
41
1
10
15.6563909797017
20
2.20365593342291
30
-1E-16
41
1
10
16.8215213554987
20
1.71586466458081
30
-1E-16
41
1
10
17.4029246595284
20
1.45885300208727
30
-1E-16
41
1
10
18.5681417227283
20
0.927993497579877
30
-1E-16
41
1
10
19.1516324913204
20
0.653469525638485
30
0
41
1
10
20.0319989809354
20
0.235847708242488
30
0
41
1
10
20.3270043798387
20
0.095362947370802
30
0
41
1
10
20.9148420919564
20
-0.184702370017703
30
0
41
1
10
21.2077988161736
20
-0.324186588628862
30
0
41
1
10
21.4999999999895
20
-0.462695153062498
30
0
0
SPLINE
5
EA
100
AcDbEntity
8
1
62
256
6
ByLayer
370
18
48
1
60
0
100
AcDbSpline
70
4
71
3
72
12
73
8
40
0
40
0
40
0
40
0
40
0.250000000000014
40
0.250000000000014
40
0.500000000000029
40
0.500000000000029
40
1
40
1
40
1
40
1
41
1
10
3.6024360329522
20
1.25439209451599
30
-1E-16
41
1
10
3.5867992344192
20
1.2544666275455
30
-1E-16
41
1
10
3.57161762197686
20
1.25204476488736
30
-1E-16
41
1
10
3.54556095717518
20
1.24379192634905
30
-1E-16
41
1
10
3.53479912457189
20
1.23810241182301
30
-1E-16
41
1
10
3.50945412976387
20
1.2187995437624
30
-1E-16
41
1
10
3.50171598350263
20
1.20331979616651
30
-1E-16
41
1
10
3.50171598350269
20
1.18787285498726
30
-1E-16
0
SPLINE
5
EB
100
AcDbEntity
8
1
62
256
6
ByLayer
370
18
48
1
60
0
100
AcDbSpline
70
4
71
3
72
30
73
26
40
0
40
0
40
0
40
0
40
0.125000000000004
40
0.125000000000004
40
0.187500000000006
40
0.187500000000006
40
0.250000000000007
40
0.250000000000007
40
0.312500000000009
40
0.312500000000009
40
0.375000000000011
40
0.375000000000011
40
0.437500000000013
40
0.437500000000013
40
0.500000000000015
40
0.500000000000015
40
0.562500000000017
40
0.562500000000017
40
0.625000000000019
40
0.625000000000019
40
0.750000000000013
40
0.750000000000013
40
0.875000000000006
40
0.875000000000006
40
1
40
1
40
1
40
1
41
1
10
62.942127975879
20
0.0499590771969167
30
0
41
1
10
62.9220393292059
20
-0.0162759992635699
30
0
41
1
10
62.898943319542
20
-0.0809967952328634
30
0
41
1
10
62.8596184268908
20
-0.175643299844637
30
0
41
1
10
62.8455986012662
20
-0.207027382293518
30
0
41
1
10
62.816625888972
20
-0.267288793246053
30
0
41
1
10
62.8016659018961
20
-0.296229654004264
30
0
41
1
10
62.7708205663587
20
-0.351657766509987
30
0
41
1
10
62.7549358531864
20
-0.37814662913911
30
0
41
1
10
62.7221935860895
20
-0.428453489007637
30
0
41
1
10
62.7053745700813
20
-0.452157417448404
30
0
41
1
10
62.6721189250455
20
-0.494812237741002
30
0
41
1
10
62.6555140463864
20
-0.514032581566681
30
0
41
1
10
62.6223280777151
20
-0.548171711469195
30
0
41
1
10
62.6055957505453
20
-0.563184019905691
30
0
41
1
10
62.5732069234566
20
-0.587800433442254
30
0
41
1
10
62.5574725647175
20
-0.597527263948592
30
0
41
1
10
62.526803273132
20
-0.612020331542254
30
0
41
1
10
62.5117566954762
20
-0.616787929114821
30
0
41
1
10
62.4687391917126
20
-0.623478215284479
30
0
41
1
10
62.4425382905643
20
-0.618005992578446
30
0
41
1
10
62.3949069519754
20
-0.590211418825049
30
0
41
1
10
62.3739348436678
20
-0.568336555355671
30
0
41
1
10
62.3359685193495
20
-0.511464708588932
30
0
41
1
10
62.3190316464956
20
-0.476329358629613
30
0
41
1
10
62.3040553716666
20
-0.436351902191319
30
0
0
SPLINE
5
EC
100
AcDbEntity
8
1
62
256
6
ByLayer
370
18
48
1
60
0
100
AcDbSpline
70
4
71
3
72
8
73
4
40
0
40
0
40
0
40
0
40
1
40
1
40
1
40
1
41
1
10
3.64515130727259
20
1.30755965437197
30
-1E-16
41
1
10
3.64458926056688
20
1.28699104534184
30
-1E-16
41
1
10
3.64401966711799
20
1.26641343410694
30
-1E-16
41
1
10
3.64344256669995
20
1.24582631517239
30
-1E-16
0
SPLINE
5
ED
100
AcDbEntity
8
1
62
256
6
ByLayer
370
18
48
1
60
0
100
AcDbSpline
70
4
71
3
72
72
73
68
40
0
40
0
40
0
40
0
40
0.124999999999989
40
0.124999999999989
40
0.187499999999983
40
0.187499999999983
40
0.21874999999998
40
0.21874999999998
40
0.249999999999978
40
0.249999999999978
40
0.281249999999975
40
0.281249999999975
40
0.312499999999972
40
0.312499999999972
40
0.343749999999969
40
0.343749999999969
40
0.374999999999967
40
0.374999999999967
40
0.390624999999966
40
0.390624999999966
40
0.406249999999965
40
0.406249999999965
40
0.421874999999964
40
0.421874999999964
40
0.437499999999963
40
0.437499999999963
40
0.46874999999996
40
0.46874999999996
40
0.484374999999959
40
0.484374999999959
40
0.499999999999958
40
0.499999999999958
40
0.515624999999957
40
0.515624999999957
40
0.531249999999956
40
0.531249999999956
40
0.562499999999953
40
0.562499999999953
40
0.593749999999949
40
0.593749999999949
40
0.624999999999946
40
0.624999999999946
40
0.68749999999994
40
0.68749999999994
40
0.718749999999936
40
0.718749999999936
40
0.734374999999934
40
0.734374999999934
40
0.742187499999934
40
0.744140624999934
40
0.744140624999934
40
0.746093749999935
40
0.746093749999935
40
0.749999999999937
40
0.749999999999937
40
0.753906249999939
40
0.753906249999939
40
0.757812499999941
40
0.757812499999941
40
0.765624999999943
40
0.781249999999946
40
0.781249999999946
40
0.812499999999953
40
0.812499999999953
40
0.874999999999968
40
0.874999999999968
40
1
40
1
40
1
40
1
41
1
10
6.05272716273217
20
0.784746991771641
30
0
41
1
10
5.56745628273782
20
1.01092699849579
30
-1E-16
41
1
10
5.09185028784736
20
1.24772234833057
30
-1E-16
41
1
10
4.39897301872403
20
1.62376569127707
30
-1E-16
41
1
10
4.17147157476839
20
1.75262018683804
30
-1E-16
41
1
10
3.83700266171113
20
1.95253125012334
30
-1E-16
41
1
10
3.72650700731606
20
2.02037953818874
30
-1E-16
41
1
10
3.50990531989058
20
2.15758468474391
30
-1E-16
41
1
10
3.40362358376589
20
2.22703875576542
30
-1E-16
41
1
10
3.19585232285454
20
2.36790272901487
30
-1E-16
41
1
10
3.09435614718367
20
2.43931016524499
30
-1E-16
41
1
10
2.89725987999267
20
2.58446210563616
30
-2E-16
41
1
10
2.80161703599924
20
2.65827783851873
30
-2E-16
41
1
10
2.62128908521186
20
2.80594474699586
30
-2E-16
41
1
10
2.5361632813223
20
2.8800949978301
30
-2E-16
41
1
10
2.37861057422796
20
3.02911618343293
30
-2E-16
41
1
10
2.3061386865399
20
3.10398448993576
30
-2E-16
41
1
10
2.21023037389713
20
3.21696521089976
30
-2E-16
41
1
10
2.18027055537553
20
3.25496043149943
30
-2E-16
41
1
10
2.12665852891342
20
3.32957422028952
30
-2E-16
41
1
10
2.10289227835204
20
3.3662938110395
30
-2E-16
41
1
10
2.06203054422789
20
3.4384433450652
30
-2E-16
41
1
10
2.0449332528799
20
3.47387358481655
30
-2E-16
41
1
10
2.01816555195435
20
3.54330221419218
30
-2E-16
41
1
10
2.00856214303602
20
3.57732479935581
30
-2E-16
41
1
10
1.99241338957105
20
3.67409426224833
30
0
41
1
10
1.99800413763785
20
3.73260716213744
30
0
41
1
10
2.03108663240496
20
3.81143245659507
30
0
41
1
10
2.04618518294251
20
3.8359623154289
30
0
41
1
10
2.08331404378629
20
3.88099999697994
30
0
41
1
10
2.10540295264744
20
3.90165612667815
30
0
41
1
10
2.15598712872836
20
3.93961064476051
30
0
41
1
10
2.18464133193859
20
3.95698122787121
30
0
41
1
10
2.24702977726358
20
3.98827142178564
30
0
41
1
10
2.28065152975097
20
4.00217598179972
30
0
41
1
10
2.38775353411918
20
4.0394620445885
30
0
41
1
10
2.46741928702457
20
4.05845425862205
30
0
41
1
10
2.63957609166283
20
4.08754351712594
30
0
41
1
10
2.73235982951138
20
4.09759127847994
30
0
41
1
10
2.92410958669129
20
4.11043555223458
30
0
41
1
10
3.02359146972731
20
4.1133265862251
30
0
41
1
10
3.33057163542719
20
4.11389864050983
30
0
41
1
10
3.54649071501896
20
4.10360122745718
30
0
41
1
10
3.88222071667172
20
4.07769427393495
30
0
41
1
10
3.99596648695027
20
4.06728474387134
30
0
41
1
10
4.16843803788069
20
4.04952148652705
30
0
41
1
10
4.22625298859484
20
4.04323997081499
30
0
41
1
10
4.31341330412837
20
4.03332638531592
30
0
41
1
10
4.34982058158875
20
4.02909337673245
30
0
41
1
10
4.38633537012632
20
4.02473827266095
30
0
41
1
10
4.40094974049288
20
4.02298657688257
30
0
41
1
10
4.40816349245398
20
4.02206552575015
30
0
41
1
10
4.4309922846447
20
4.01976376418131
30
0
41
1
10
4.44757521775881
20
4.01900898862644
30
0
41
1
10
4.48088032307166
20
4.0186794083142
30
0
41
1
10
4.49747899346269
20
4.01904262852472
30
0
41
1
10
4.53022840543298
20
4.02063164156428
30
0
41
1
10
4.54622220343714
20
4.0217331861509
30
0
41
1
10
4.59456163845027
20
4.02471558454081
30
0
41
1
10
4.69115529523245
20
4.03064816932047
30
0
41
1
10
4.78748171259932
20
4.03646530478304
30
0
41
1
10
4.97978393753968
20
4.04789226537821
30
0
41
1
10
5.10745960583583
20
4.05523066789578
30
0
41
1
10
5.48897624455063
20
4.07597074660902
30
0
41
1
10
5.74147643190048
20
4.08810499734932
30
0
41
1
10
6.4919399491074
20
4.11573220772161
30
0
41
1
10
6.98288755707597
20
4.12233769432692
30
0
41
1
10
7.46766389413582
20
4.10836905453129
30
0
0
SPLINE
5
EE
100
AcDbEntity
8
1
62
256
6
ByLayer
370
18
48
1
60
0
100
AcDbSpline
70
4
71
3
72
12
73
8
40
0
40
0
40
0
40
0
40
0.7732516475336
40
0.7732516475336
40
0.966564559416999
40
0.966564559416999
40
1
40
1
40
1
40
1
41
1
10
3.60186794656505
20
-3.34760666849885
30
2E-16
41
1
10
4.8203181725975
20
-3.63235679568993
30
0
41
1
10
6.0256580501152
20
-3.81274270753801
30
0
41
1
10
7.53879442902002
20
-3.89651924186037
30
0
41
1
10
7.84174042310633
20
-3.90624046855655
30
0
41
1
10
8.19778288702179
20
-3.90917728327881
30
0
41
1
10
8.25031629260886
20
-3.90939355404669
30
0
41
1
10
8.30287518822826
20
-3.90939304858375
30
0
0
SPLINE
5
EF
100
AcDbEntity
8
1
62
256
6
ByLayer
370
18
48
1
60
0
100
AcDbSpline
70
4
71
3
72
22
73
18
40
0
40
0
40
0
40
0
40
0.16387930858751
40
0.16387930858751
40
0.303232757156258
40
0.303232757156258
40
0.372909481440634
40
0.372909481440634
40
0.442586205725009
40
0.442586205725009
40
0.721293102862504
40
0.721293102862504
40
0.860646551431252
40
0.860646551431252
40
0.930323275715626
40
0.930323275715626
40
1
40
1
40
1
40
1
41
1
10
48.5780048480785
20
0.232718074668327
30
0
41
1
10
49.2821442956106
20
-0.0866976780819471
30
0
41
1
10
49.9840695272474
20
-0.407548818980416
30
0
41
1
10
51.2852851653842
20
-0.989017364800503
30
1E-16
41
1
10
51.8841169782802
20
-1.25169413261682
30
1E-16
41
1
10
52.786931504826
20
-1.63141646055641
30
1E-16
41
1
10
53.0886358356485
20
-1.75560013572041
30
1E-16
41
1
10
53.6941566808921
20
-1.99789413217593
30
1E-16
41
1
10
53.9987722390854
20
-2.11631150463342
30
1E-16
41
1
10
55.5166903639823
20
-2.6858903144871
30
2E-16
41
1
10
56.7139257837951
20
-3.06899684496938
30
2E-16
41
1
10
58.5099201622008
20
-3.49847693266165
30
0
41
1
10
59.1086356824085
20
-3.61767678480311
30
0
41
1
10
60.0099792718992
20
-3.75675801547777
30
0
41
1
10
60.3109736507451
20
-3.79648915374739
30
0
41
1
10
60.9145685897105
20
-3.86209871650729
30
0
41
1
10
61.2172122641283
20
-3.88753765599731
30
0
41
1
10
61.5208197005997
20
-3.9066522384812
30
0
0
SPLINE
5
F0
100
AcDbEntity
8
1
62
256
6
ByLayer
370
18
48
1
60
0
100
AcDbSpline
70
4
71
3
72
32
73
28
40
0
40
0
40
0
40
0
40
0.335004531097699
40
0.335004531097699
40
0.561519258847995
40
0.561519258847995
40
0.711365826740544
40
0.711365826740544
40
0.810380685032519
40
0.810380685032519
40
0.875875248949891
40
0.875875248949891
40
0.919327864025184
40
0.919327864025184
40
0.948231311812601
40
0.948231311812601
40
0.967413161435896
40
0.967413161435896
40
0.979884774023719
40
0.979884774023719
40
0.98799480129414
40
0.98799480129414
40
0.993442082202502
40
0.993442082202502
40
0.998227786887374
40
0.998227786887374
40
1
40
1
40
1
40
1
41
1
10
61.3014095137003
20
-4.14927298913793
30
0
41
1
10
61.3292077636122
20
-4.13103841885689
30
0
41
1
10
61.3570334777162
20
-4.11270379736033
30
0
41
1
10
61.4037004612671
20
-4.08182220199302
30
0
41
1
10
61.4225276108803
20
-4.06932768565864
30
0
41
1
10
61.4538359863966
20
-4.0484900594644
30
0
41
1
10
61.4663109484321
20
-4.04017127849158
30
0
41
1
10
61.4870621733034
20
-4.02630732694661
30
0
41
1
10
61.4953297619972
20
-4.02077678329442
30
0
41
1
10
61.5090747541943
20
-4.01157133739906
30
0
41
1
10
61.5145480923812
20
-4.00790287288604
30
0
41
1
10
61.5236335625764
20
-4.00180909956788
30
0
41
1
10
61.5272511856552
20
-3.99938158457309
30
0
41
1
10
61.5332471561416
20
-3.99535636205204
30
0
41
1
10
61.5356285047852
20
-3.99375731295424
30
0
41
1
10
61.5395967210411
20
-3.99109155520895
30
0
41
1
10
61.5411889120374
20
-3.9900215715478
30
0
41
1
10
61.5438528396191
20
-3.98823057131799
30
0
41
1
10
61.544911907504
20
-3.98751834996466
30
0
41
1
10
61.5466733764075
20
-3.98633349110591
30
0
41
1
10
61.5473705060241
20
-3.98586450425719
30
0
41
1
10
61.5485260737076
20
-3.98508715319818
30
0
41
1
10
61.5489883375247
20
-3.98477619803384
30
0
41
1
10
61.5498387226125
20
-3.98420426398778
30
0
41
1
10
61.5502329612968
20
-3.98393915062365
30
0
41
1
10
61.5507315722701
20
-3.98360404644222
30
0
41
1
10
61.5508622636389
20
-3.98351623477657
30
0
41
1
10
61.5509825089018
20
-3.98343548676525
30
0
0
SPLINE
5
F1
100
AcDbEntity
8
1
62
256
6
ByLayer
370
18
48
1
60
0
100
AcDbSpline
70
4
71
3
72
40
73
36
40
0
40
0
40
0
40
0
40
0.0610400560401815
40
0.0610400560401815
40
0.124689722899968
40
0.124689722899968
40
0.188339389759755
40
0.188339389759755
40
0.251989056619542
40
0.251989056619542
40
0.315638723479329
40
0.315638723479329
40
0.379288390339115
40
0.379288390339115
40
0.442938057198903
40
0.442938057198903
40
0.50658772405869
40
0.50658772405869
40
0.570237390918476
40
0.570237390918476
40
0.633887057778263
40
0.633887057778263
40
0.69753672463805
40
0.69753672463805
40
0.761186391497837
40
0.761186391497837
40
0.793011224927731
40
0.793011224927731
40
0.824836058357624
40
0.824836058357624
40
0.888485725217413
40
0.888485725217413
40
0.952135392077204
40
0.952135392077204
40
1
40
1
40
1
40
1
41
1
10
34.1298166353016
20
-0.230497978019514
30
0
41
1
10
33.8406983880346
20
-0.099753498993465
30
0
41
1
10
33.5518791949927
20
0.0314378766180141
30
0
41
1
10
32.961867688439
20
0.298948305078198
30
0
41
1
10
32.6603869152241
20
0.435038526272081
30
0
41
1
10
32.057526708855
20
0.705063083574714
30
0
41
1
10
31.7565262831184
20
0.839091897068698
30
-1E-16
41
1
10
31.1545480865337
20
1.10357797876566
30
-1E-16
41
1
10
30.8534286978474
20
1.23385436301308
30
-1E-16
41
1
10
30.2507225753445
20
1.48975715122643
30
-1E-16
41
1
10
29.9494148591785
20
1.61534977622478
30
-1E-16
41
1
10
29.3493454441069
20
1.85908413247881
30
-1E-16
41
1
10
29.0499758815275
20
1.97740742650245
30
-1E-16
41
1
10
28.4525960849539
20
2.20615359480229
30
-1E-16
41
1
10
28.1546467266126
20
2.31654717844285
30
-1E-16
41
1
10
27.5592583593421
20
2.52848564473166
30
-2E-16
41
1
10
27.2617550211333
20
2.63006954044028
30
-2E-16
41
1
10
26.666959415017
20
2.82353853331776
30
-2E-16
41
1
10
26.3698513329522
20
2.9152095411408
30
-2E-16
41
1
10
25.7749250173967
20
3.08832118550092
30
-2E-16
41
1
10
25.4771291067314
20
3.16976687013437
30
-2E-16
41
1
10
24.8807366367307
20
3.32125133436219
30
-2E-16
41
1
10
24.5822655314675
20
3.39089101195737
30
0
41
1
10
23.9836295024278
20
3.51865516408535
30
0
41
1
10
23.6834751379789
20
3.57679405017831
30
0
41
1
10
23.2318252512514
20
3.65421170536826
30
0
41
1
10
23.0809333817942
20
3.67836055946353
30
0
41
1
10
22.7801053000914
20
3.72290696915374
30
0
41
1
10
22.6299646355168
20
3.74341435938953
30
0
41
1
10
22.1799367087022
20
3.80021978897381
30
0
41
1
10
21.8805525208305
20
3.83160369383373
30
0
41
1
10
21.2831834336622
20
3.88006255855305
30
0
41
1
10
20.9853293732724
20
3.89670650958732
30
0
41
1
10
20.4637015168752
20
3.91458516841996
30
0
41
1
10
20.2398872864453
20
3.91859705150233
30
0
41
1
10
20.0161670157011
20
3.91860630343061
30
0
0
SPLINE
5
F2
100
AcDbEntity
8
1
62
256
6
ByLayer
370
18
48
1
60
0
100
AcDbSpline
70
4
71
3
72
8
73
4
40
0
40
0
40
0
40
0
40
1
40
1
40
1
40
1
41
1
10
60.9430893666026
20
-0.0448142516524115
30
0
41
1
10
60.9764019601711
20
-0.0601068857832558
30
0
41
1
10
61.0095129672992
20
-0.0745370442091655
30
0
41
1
10
61.0424590367361
20
-0.0881264573789906
30
0
0
SPLINE
5
F3
100
AcDbEntity
8
1
62
256
6
ByLayer
370
18
48
1
60
0
100
AcDbSpline
70
4
71
3
72
8
73
4
40
0
40
0
40
0
40
0
40
1
40
1
40
1
40
1
41
1
10
3.56044133327728
20
-3.35903585057625
30
2E-16
41
1
10
3.55987964302002
20
-3.41293783756274
30
2E-16
41
1
10
3.55932499205451
20
-3.46683502464435
30
2E-16
41
1
10
3.55877742151588
20
-3.52072766192867
30
2E-16
0
SPLINE
5
F4
100
AcDbEntity
8
1
62
256
6
ByLayer
370
18
48
1
60
0
100
AcDbSpline
70
4
71
3
72
8
73
4
40
0
40
0
40
0
40
0
40
1
40
1
40
1
40
1
41
1
10
3.60186794656502
20
-3.34760666849883
30
2E-16
41
1
10
3.58757690777739
20
-3.3445989168099
30
2E-16
41
1
10
3.5736215562801
20
-3.34421233866104
30
2E-16
41
1
10
3.56044133327748
20
-3.34654108916797
30
2E-16
0
SPLINE
5
F5
100
AcDbEntity
8
1
62
256
6
ByLayer
370
18
48
1
60
0
100
AcDbSpline
70
4
71
3
72
16
73
12
40
0
40
0
40
0
40
0
40
0.195350803635732
40
0.195350803635732
40
0.390701607271464
40
0.390701607271464
40
0.781403214542928
40
0.781403214542928
40
0.97675401817866
40
0.97675401817866
40
1
40
1
40
1
40
1
41
1
10
61.5509825091324
20
3.98343548614639
30
0
41
1
10
61.1341664972728
20
3.9862788682008
30
0
41
1
10
60.7175959375992
20
3.97523948983226
30
0
41
1
10
59.8834833706758
20
3.9257196565236
30
0
41
1
10
59.465478921427
20
3.88733822581344
30
0
41
1
10
58.2123898768824
20
3.73169932657612
30
0
41
1
10
57.3805258204534
20
3.57447233046159
30
0
41
1
10
56.1287024352349
20
3.266507635105
30
-2E-16
41
1
10
55.7101204894844
20
3.151842179775
30
-2E-16
41
1
10
55.2431712771302
20
3.01217944244249
30
-2E-16
41
1
10
55.1935243934143
20
2.99718186536248
30
-2E-16
41
1
10
55.143885504189
20
2.9820406595677
30
-2E-16
0
SPLINE
5
F6
100
AcDbEntity
8
1
62
256
6
ByLayer
370
18
48
1
60
0
100
AcDbSpline
70
4
71
3
72
74
73
70
40
0
40
0
40
0
40
0
40
0.0005962965344252
40
0.0005962965344252
40
0.0254415907971429
40
0.0254415907971429
40
0.0502868850598605
40
0.0502868850598605
40
0.0751321793225781
40
0.0751321793225781
40
0.0999774735852958
40
0.0999774735852958
40
0.14966806211073
40
0.14966806211073
40
0.199358650636164
40
0.199358650636164
40
0.249049239161598
40
0.249049239161598
40
0.273894533424315
40
0.273894533424315
40
0.298739827687032
40
0.298739827687032
40
0.348430416212465
40
0.348430416212465
40
0.373275710475182
40
0.373275710475182
40
0.398121004737899
40
0.398121004737899
40
0.422966299000615
40
0.422966299000615
40
0.447811593263332
40
0.447811593263332
40
0.497502181788766
40
0.497502181788766
40
0.5471927703142
40
0.5471927703142
40
0.572038064576918
40
0.572038064576918
40
0.596883358839635
40
0.596883358839635
40
0.621728653102352
40
0.621728653102352
40
0.646573947365069
40
0.646573947365069
40
0.696264535890503
40
0.696264535890503
40
0.72110983015322
40
0.72110983015322
40
0.745955124415937
40
0.745955124415937
40
0.770800418678654
40
0.770800418678654
40
0.795645712941372
40
0.795645712941372
40
0.820491007204089
40
0.820491007204089
40
0.845336301466806
40
0.845336301466806
40
0.89502688999224
40
0.89502688999224
40
0.919872184254957
40
0.919872184254957
40
0.944717478517673
40
0.944717478517673
40
0.96956277278039
40
0.96956277278039
40
0.994408067043106
40
0.994408067043106
40
1
40
1
40
1
40
1
41
1
10
55.817150940708
20
-2.74034074065938
30
2E-16
41
1
10
55.8102548388962
20
-2.74281763961139
30
2E-16
41
1
10
55.8033583297981
20
-2.74529222509443
30
2E-16
41
1
10
55.5090944087194
20
-2.85077408683375
30
2E-16
41
1
10
55.2207088304081
20
-2.95018425226175
30
2E-16
41
1
10
54.6461303744858
20
-3.13721447477027
30
2E-16
41
1
10
54.3594507127548
20
-3.22506036171163
30
2E-16
41
1
10
53.7872700659009
20
-3.38968068795336
30
2E-16
41
1
10
53.5017245399183
20
-3.46639916036764
30
2E-16
41
1
10
52.9318218378197
20
-3.60874527184336
30
2E-16
41
1
10
52.6473121227204
20
-3.67415752802714
30
0
41
1
10
51.7932067566257
20
-3.85135536738534
30
0
41
1
10
51.2234311906133
20
-3.94475556428768
30
0
41
1
10
50.0822373079737
20
-4.08065048934918
30
0
41
1
10
49.5092071026827
20
-4.12216500532128
30
0
41
1
10
48.355668252207
20
-4.1505753838089
30
0
41
1
10
47.7837199915318
20
-4.13699617398305
30
0
41
1
10
46.9275312072561
20
-4.07692587150297
30
0
41
1
10
46.6426176013527
20
-4.05029182500849
30
0
41
1
10
46.0734526567202
20
-3.98399372258751
30
0
41
1
10
45.7894525826998
20
-3.94415797148406
30
0
41
1
10
44.9369239342872
20
-3.80591361801493
30
0
41
1
10
44.3676277042477
20
-3.6892902236074
30
0
41
1
10
43.5118420223673
20
-3.47776534306385
30
2E-16
41
1
10
43.226298171176
20
-3.40104165177513
30
2E-16
41
1
10
42.6531627447405
20
-3.23682910038974
30
2E-16
41
1
10
42.3655320132188
20
-3.14932403212492
30
2E-16
41
1
10
41.7886434890388
20
-2.96344601612444
30
2E-16
41
1
10
41.5012273063114
20
-2.86576431227252
30
2E-16
41
1
10
40.9284444748319
20
-2.66095841212149
30
2E-16
41
1
10
40.6428282430876
20
-2.55423533953538
30
2E-16
41
1
10
39.7867866567002
20
-2.22392871699552
30
1E-16
41
1
10
39.2177439363693
20
-1.98928100241051
30
1E-16
41
1
10
38.081148244669
20
-1.49448508324673
30
1E-16
41
1
10
37.5121041417816
20
-1.23723094867688
30
1E-16
41
1
10
36.6558231967463
20
-0.839837623612112
30
1E-16
41
1
10
36.3701696544229
20
-0.7049499302762
30
0
41
1
10
35.7971568058407
20
-0.432916389258594
30
0
41
1
10
35.5096525797539
20
-0.29600031413986
30
0
41
1
10
34.9325933705798
20
-0.0211208395062386
30
0
41
1
10
34.6450669768153
20
0.116043648258085
30
0
41
1
10
34.0718219440249
20
0.389431782814995
30
0
41
1
10
33.7862668252894
20
0.526003407153979
30
0
41
1
10
32.9303976049362
20
0.930123687505954
30
-1E-16
41
1
10
32.3609058735664
20
1.1922857388283
30
-1E-16
41
1
10
31.5082126098243
20
1.57458571900048
30
-1E-16
41
1
10
31.2240801887473
20
1.6998439151869
30
-1E-16
41
1
10
30.6548016919075
20
1.94363908100729
30
-1E-16
41
1
10
30.3697209225417
20
2.06231869435118
30
-1E-16
41
1
10
29.7987436933141
20
2.2933535359146
30
-1E-16
41
1
10
29.5128149639845
20
2.40564512620617
30
-1E-16
41
1
10
28.9398275626341
20
2.62319284091782
30
-2E-16
41
1
10
28.652512492739
20
2.72798355192705
30
-2E-16
41
1
10
28.075425209036
20
2.92815089100031
30
-2E-16
41
1
10
27.7877575768464
20
3.02304359633251
30
-2E-16
41
1
10
27.214195527001
20
3.20237320872181
30
-2E-16
41
1
10
26.9283977828586
20
3.28698022396389
30
-2E-16
41
1
10
26.0725440114515
20
3.52374189152488
30
-2E-16
41
1
10
25.503200305685
20
3.65799162921815
30
0
41
1
10
24.649795378664
20
3.82343417436425
30
0
41
1
10
24.365670402735
20
3.87273568298218
30
0
41
1
10
23.7965395277597
20
3.95830610811072
30
0
41
1
10
23.5114991696102
20
3.99459963549762
30
0
41
1
10
22.9403862265275
20
4.05420395518047
30
0
41
1
10
22.6543002995283
20
4.07751314549805
30
0
41
1
10
22.0810875114353
20
4.1108578269517
30
0
41
1
10
21.7939166452811
20
4.12082891832583
30
0
41
1
10
21.4405465278775
20
4.12456079809496
30
0
41
1
10
21.3756620271847
20
4.12489936926229
30
0
41
1
10
21.3108148347898
20
4.12489192498398
30
0
0
SPLINE
5
F7
100
AcDbEntity
8
1
62
256
6
ByLayer
370
18
48
1
60
0
100
AcDbSpline
70
4
71
3
72
32
73
28
40
0
40
0
40
0
40
0
40
0.335004530722793
40
0.335004530722793
40
0.561519258220523
40
0.561519258220523
40
0.711365825945906
40
0.711365825945906
40
0.810380684127563
40
0.810380684127563
40
0.875875247971864
40
0.875875247971864
40
0.91932786299872
40
0.91932786299872
40
0.948231310754057
40
0.948231310754057
40
0.967413160356056
40
0.967413160356056
40
0.979884772929838
40
0.979884772929838
40
0.987994800191233
40
0.987994800191233
40
0.993442081093754
40
0.993442081093754
40
0.998227785773748
40
0.998227785773748
40
1
40
1
40
1
40
1
41
1
10
61.3014095137003
20
4.14927298913793
30
0
41
1
10
61.3292077636122
20
4.13103841885697
30
0
41
1
10
61.357033477716
20
4.11270379736044
30
0
41
1
10
61.4037004612669
20
4.08182220199316
30
0
41
1
10
61.4225276108801
20
4.06932768565875
30
0
41
1
10
61.4538359863964
20
4.04849005946454
30
0
41
1
10
61.4663109484319
20
4.0401712784917
30
0
41
1
10
61.4870621733033
20
4.02630732694669
30
0
41
1
10
61.4953297619971
20
4.02077678329451
30
0
41
1
10
61.5090747541942
20
4.01157133739912
30
0
41
1
10
61.5145480923811
20
4.00790287288612
30
0
41
1
10
61.5236335625762
20
4.00180909956794
30
0
41
1
10
61.5272511856551
20
3.99938158457314
30
0
41
1
10
61.5332471561416
20
3.99535636205206
30
0
41
1
10
61.5356285047851
20
3.99375731295427
30
0
41
1
10
61.5395967210411
20
3.99109155520898
30
0
41
1
10
61.5411889120374
20
3.99002157154783
30
0
41
1
10
61.5438528396191
20
3.98823057131801
30
0
41
1
10
61.544911907504
20
3.98751834996469
30
0
41
1
10
61.5466733764075
20
3.98633349110594
30
0
41
1
10
61.5473705060241
20
3.98586450425722
30
0
41
1
10
61.5485260737076
20
3.98508715319818
30
0
41
1
10
61.5489883375248
20
3.98477619803387
30
0
41
1
10
61.5498387226126
20
3.98420426398775
30
0
41
1
10
61.5502329612969
20
3.9839391506236
30
0
41
1
10
61.5507315723547
20
3.98360404638538
30
0
41
1
10
61.5508622638035
20
3.98351623466601
30
0
41
1
10
61.5509825091289
20
3.98343548661273
30
0
0
SPLINE
5
F8
100
AcDbEntity
8
1
62
256
6
ByLayer
370
18
48
1
60
0
100
AcDbSpline
70
4
71
3
72
42
73
38
40
0
40
0
40
0
40
0
40
0.0016811148850746
40
0.0016811148850746
40
0.0663390746028655
40
0.0663390746028655
40
0.130997034320656
40
0.130997034320656
40
0.195654994038447
40
0.195654994038447
40
0.227983973897345
40
0.227983973897345
40
0.260312953756242
40
0.260312953756242
40
0.32497091347404
40
0.32497091347404
40
0.389628873191837
40
0.389628873191837
40
0.454286832909635
40
0.454286832909635
40
0.518944792627432
40
0.518944792627432
40
0.583602752345229
40
0.583602752345229
40
0.648260712063027
40
0.648260712063027
40
0.712918671780824
40
0.712918671780824
40
0.777576631498621
40
0.777576631498621
40
0.842234591216419
40
0.842234591216419
40
0.906892550934216
40
0.906892550934216
40
0.971550510652013
40
0.971550510652013
40
1
40
1
40
1
40
1
41
1
10
19.7730819398106
20
3.92668333747707
30
0
41
1
10
19.7808130090163
20
3.92679541078661
30
0
41
1
10
19.788544232486
20
3.92690231300571
30
0
41
1
10
20.0936353208685
20
3.93091575890836
30
0
41
1
10
20.391168707996
20
3.92753428979455
30
0
41
1
10
20.9865197594289
20
3.90778384207701
30
0
41
1
10
21.2843172957936
20
3.89146096904889
30
0
41
1
10
21.8815770453478
20
3.84360128618698
30
0
41
1
10
22.1809084765276
20
3.81249622840352
30
0
41
1
10
22.6308594342713
20
3.75607694752102
30
0
41
1
10
22.7809746568817
20
3.73569335815904
30
0
41
1
10
23.0817539208767
20
3.691391372217
30
0
41
1
10
23.2326259819827
20
3.66736078923461
30
0
41
1
10
23.6842267573778
20
3.59026875301484
30
0
41
1
10
23.9843429365524
20
3.5323207354561
30
0
41
1
10
24.5828927687608
20
3.40489200017797
30
0
41
1
10
24.8813186546048
20
3.33540923332726
30
-2E-16
41
1
10
25.4776138220252
20
3.18417770248854
30
-2E-16
41
1
10
25.7753577709301
20
3.10283120486633
30
-2E-16
41
1
10
26.3701756624668
20
2.92987248528229
30
-2E-16
41
1
10
26.6672283443409
20
2.83826438470808
30
-2E-16
41
1
10
27.2619115146772
20
2.64486140999551
30
-2E-16
41
1
10
27.5593572446994
20
2.54328046835903
30
-2E-16
41
1
10
28.1546306203957
20
2.33130713392094
30
-1E-16
41
1
10
28.4525225352878
20
2.22087602174841
30
-1E-16
41
1
10
29.0497901353684
20
1.9919996244434
30
-1E-16
41
1
10
29.3491051015783
20
1.8735809751752
30
-1E-16
41
1
10
29.9490682259301
20
1.62960989511282
30
-1E-16
41
1
10
30.2503237630727
20
1.50387729018118
30
-1E-16
41
1
10
30.8529565565764
20
1.24762538973755
30
-1E-16
41
1
10
31.1540364012729
20
1.11714765495165
30
-1E-16
41
1
10
31.7559326807714
20
0.852219341216085
30
-1E-16
41
1
10
32.0568911365473
20
0.717949304937747
30
0
41
1
10
32.6596668768942
20
0.447390036182213
30
0
41
1
10
32.961113362906
20
0.311004725169283
30
0
41
1
10
33.3947552113311
20
0.113917075138858
30
0
41
1
10
33.5272539413661
20
0.0536423976361107
30
0
41
1
10
33.6597799347955
20
-0.0066199113661867
30
0
0
SPLINE
5
F9
100
AcDbEntity
8
1
62
256
6
ByLayer
370
18
48
1
60
0
100
AcDbSpline
70
4
71
3
72
8
73
4
40
0
40
0
40
0
40
0
40
1
40
1
40
1
40
1
41
1
10
61.2860510440718
20
-4.09726940114575
30
0
41
1
10
61.2915454863792
20
-4.12838253647155
30
0
41
1
10
61.2966194479558
20
-4.1459159377539
30
0
41
1
10
61.3014095137003
20
-4.14927298913793
30
0
0
SPLINE
5
FA
100
AcDbEntity
8
1
62
256
6
ByLayer
370
18
48
1
60
0
100
AcDbSpline
70
4
71
3
72
8
73
4
40
0
40
0
40
0
40
0
40
1
40
1
40
1
40
1
41
1
10
61.5182264806884
20
-3.91786267766975
30
0
41
1
10
61.5121195620918
20
-3.93565526028388
30
0
41
1
10
61.5060371078763
20
-3.95344808856825
30
0
41
1
10
61.4999795915534
20
-3.97124128385755
30
0
0
SPLINE
5
FB
100
AcDbEntity
8
1
62
256
6
ByLayer
370
18
48
1
60
0
100
AcDbSpline
70
4
71
3
72
8
73
4
40
0
40
0
40
0
40
0
40
1
40
1
40
1
40
1
41
1
10
3.59773260695496
20
-3.36085318079353
30
2E-16
41
1
10
3.58488063525769
20
-3.35785379908714
30
2E-16
41
1
10
3.57232103394128
20
-3.35721239433664
30
2E-16
41
1
10
3.56044133327725
20
-3.35903585057622
30
2E-16
0
SPLINE
5
FC
100
AcDbEntity
8
1
62
256
6
ByLayer
370
18
48
1
60
0
100
AcDbSpline
70
4
71
2
72
6
73
3
40
0
40
0
40
0
40
1
40
1
40
1
41
1
10
49.0674661851767
20
-0.0007594109338243
30
0
41
1
10
49.0674444703233
20
-0.0007530828472113
30
0
41
1
10
49.0674227554245
20
-0.0007462422719868
30
0
0
SPLINE
5
FD
100
AcDbEntity
8
1
62
256
6
ByLayer
370
18
48
1
60
0
100
AcDbSpline
70
4
71
3
72
13
73
9
40
0
40
0
40
0
40
0
40
0.063641946557211
40
0.191979387002101
40
0.358135963458452
40
0.530632868267608
40
0.739407632314503
40
1
40
1
40
1
40
1
41
1
10
61.7271994158049
20
0.652442482900909
30
0
41
1
10
61.6194603150222
20
0.685498943189174
30
0
41
1
10
61.2947071492907
20
0.786158715235217
30
0
41
1
10
60.6903445957355
20
0.9803498237778
30
-1E-16
41
1
10
59.9048712553304
20
1.24087923545994
30
-1E-16
41
1
10
58.9878395058317
20
1.55781207364996
30
-1E-16
41
1
10
57.9176105554877
20
1.94351802568519
30
-1E-16
41
1
10
57.140102424494
20
2.23907221943816
30
-1E-16
41
1
10
56.7099461706873
20
2.40724937546739
30
-1E-16
0
SPLINE
5
FE
100
AcDbEntity
8
1
62
256
6
ByLayer
370
18
48
1
60
0
100
AcDbSpline
70
4
71
3
72
20
73
16
40
0
40
0
40
0
40
0
40
0.0951781473335061
40
0.16400442768796
40
0.207929808329935
40
0.248494432281969
40
0.293799310954838
40
0.343192186767815
40
0.393211657472927
40
0.529432346715628
40
0.645414234420561
40
0.74216411804351
40
0.856909579679634
40
0.973154206554854
40
1
40
1
40
1
40
1
41
1
10
8.25996938521627
20
-3.90936155569744
30
0
41
1
10
8.54817504137952
20
-3.90967382998718
30
0
41
1
10
9.04470723629876
20
-3.91014262798373
30
0
41
1
10
9.67424452233163
20
-3.91060233880066
30
0
41
1
10
10.1380945501477
20
-3.91084435868726
30
0
41
1
10
10.531104770439
20
-3.91121387591903
30
0
41
1
10
10.9406453680412
20
-3.91172869556925
30
0
41
1
10
11.3785241401942
20
-3.91207561122496
30
0
41
1
10
12.0917592107196
20
-3.91250704193294
30
0
41
1
10
13.0068674938523
20
-3.91347817962517
30
0
41
1
10
14.0633409806322
20
-3.9142487274265
30
0
41
1
10
15.0548718130049
20
-3.91488421894084
30
0
41
1
10
16.0471816984784
20
-3.91581511079158
30
0
41
1
10
16.8278454127368
20
-3.91613621857437
30
0
41
1
10
17.2610880509342
20
-3.91650684143605
30
0
41
1
10
17.3423704215439
20
-3.91658616243626
30
0
0
SPLINE
5
FF
100
AcDbEntity
8
1
62
256
6
ByLayer
370
18
48
1
60
0
100
AcDbSpline
70
4
71
3
72
20
73
16
40
0
40
0
40
0
40
0
40
0.0943018180292679
40
0.162332309960489
40
0.205706962396872
40
0.247323358489542
40
0.294626266839378
40
0.346349799883072
40
0.397313806108365
40
0.52975894653591
40
0.644643258107983
40
0.742756658138592
40
0.862324610633535
40
0.977653529487728
40
1
40
1
40
1
40
1
41
1
10
35.4641600218585
20
-3.92632252213912
30
0
41
1
10
35.7480205846595
20
-3.92656634947221
30
0
41
1
10
36.2366600541617
20
-3.92696126085156
30
0
41
1
10
36.8558346874561
20
-3.92733655247486
30
0
41
1
10
37.3164547448057
20
-3.92767458632406
30
0
41
1
10
37.7146469628302
20
-3.92789755827175
30
0
41
1
10
38.1379898437861
20
-3.92800982697773
30
0
41
1
10
38.5894803264774
20
-3.92834759092639
30
0
41
1
10
39.2971863433338
20
-3.92907407214028
30
0
41
1
10
40.1948379099578
20
-3.92858524294113
30
0
41
1
10
41.2338626154343
20
-3.92998979004466
30
0
41
1
10
42.2350680705183
20
-3.9303191384511
30
0
41
1
10
43.2374257968396
20
-3.93055181779474
30
0
41
1
10
44.0117707538774
20
-3.93150412321532
30
0
41
1
10
44.4261914281441
20
-3.93165885931856
30
0
41
1
10
44.4934571266298
20
-3.93167311439444
30
0
0
SPLINE
5
100
100
AcDbEntity
8
1
62
256
6
ByLayer
370
18
48
1
60
0
100
AcDbSpline
70
4
71
3
72
20
73
16
40
0
40
0
40
0
40
0
40
0.0999308802808247
40
0.17094814478554
40
0.214799103453645
40
0.255319881455574
40
0.300262438137065
40
0.348952178038594
40
0.398707310231846
40
0.536528181610703
40
0.65256851288621
40
0.74963025705226
40
0.863283357428608
40
0.980212101411293
40
1
40
1
40
1
40
1
41
1
10
20.0407108099452
20
3.91860597737536
30
0
41
1
10
19.7385739118049
20
3.91825230842258
30
0
41
1
10
19.2217163805158
20
3.91781224045531
30
0
41
1
10
18.5722712521509
20
3.91734233336348
30
0
41
1
10
18.1024485927626
20
3.91749240646786
30
0
41
1
10
17.7114680671785
20
3.91702840187392
30
0
41
1
10
17.3058550664494
20
3.91646816858091
30
0
41
1
10
16.8723206156942
20
3.91626515267802
30
0
41
1
10
16.1579673125407
20
3.9160752659933
30
0
41
1
10
15.2399876005918
20
3.91477223147481
30
0
41
1
10
14.178944559736
20
3.91441638294594
30
0
41
1
10
13.1910786333377
20
3.91344968216006
30
0
41
1
10
12.2003552235038
20
3.9127381151356
30
0
41
1
10
11.4436123136983
20
3.91218667155945
30
0
41
1
10
11.0304134995598
20
3.91177562380565
30
0
41
1
10
10.9706057383758
20
3.91171426188472
30
0
0
SPLINE
5
101
100
AcDbEntity
8
1
62
256
6
ByLayer
370
18
48
1
60
0
100
AcDbSpline
70
4
71
3
72
20
73
16
40
0
40
0
40
0
40
0
40
0.102232034591923
40
0.17458854295393
40
0.218575176243611
40
0.257939108152522
40
0.300796575699946
40
0.346937475093182
40
0.395418765008697
40
0.536086201056021
40
0.652655431337458
40
0.747924300958824
40
0.856113491225455
40
0.973139095976626
40
1
40
1
40
1
40
1
41
1
10
47.2477184527621
20
3.93276885142663
30
0
41
1
10
46.9363710151675
20
3.93312345550285
30
0
41
1
10
46.404654740386
20
3.93330238567287
30
0
41
1
10
45.7389395799833
20
3.93227643806424
30
0
41
1
10
45.2647179829816
20
3.93149943765258
30
0
41
1
10
44.8803320451806
20
3.93162524871266
30
0
41
1
10
44.4893834262081
20
3.93179418143529
30
0
41
1
10
44.0706678312637
20
3.9313629787685
30
0
41
1
10
43.3540464414125
20
3.93009401006978
30
0
41
1
10
42.4230269431738
20
3.93096712173923
30
0
41
1
10
41.3490948218288
20
3.9299185896997
30
0
41
1
10
40.3754794147689
20
3.92902737193614
30
0
41
1
10
39.3993760017405
20
3.92900307504001
30
0
41
1
10
38.6318158399483
20
3.92828193262699
30
0
41
1
10
38.1935937170446
20
3.92807880148902
30
0
41
1
10
38.1117851694893
20
3.92804371432331
30
0
0
SPLINE
5
102
100
AcDbEntity
8
1
62
256
6
ByLayer
370
18
48
1
60
0
100
AcDbSpline
70
4
71
3
72
28
73
24
40
0
40
0
40
0
40
0
40
3.52546614786E-05
40
6.3121904812E-05
40
8.70676119277E-05
40
0.0001102358612715
40
0.0001596937665667
40
0.0006529369936357
40
0.0010392228894557
40
0.0017450506007019
40
0.0030565960245926
40
0.0055618213872464
40
0.0105562670189724
40
0.021137624086018
40
0.0453411638006699
40
0.104403710345467
40
0.210296346480477
40
0.292439305486509
40
0.363729950498348
40
0.475402257800969
40
0.623212885647101
40
0.807062644087681
40
1
40
1
40
1
40
1
41
1
10
36.7365819253106
20
0.0055664790294543
30
0
41
1
10
36.7366023252322
20
0.005563163901769
30
0
41
1
10
36.7366225433588
20
0.0055617638992658
30
0
41
1
10
36.7365938949915
20
0.0055751547396596
30
0
41
1
10
36.7365039001364
20
0.0056038227970703
30
0
41
1
10
36.7363223008819
20
0.0056571088530859
30
0
41
1
10
36.7349745528733
20
0.0060325331961053
30
0
41
1
10
36.732733789466
20
0.0066462148373034
30
0
41
1
10
36.7289383403546
20
0.0076948550234022
30
0
41
1
10
36.7231697494259
20
0.0092853843516423
30
0
41
1
10
36.7123123622101
20
0.012281282170477
30
0
41
1
10
36.6911227674202
20
0.0181281206968436
30
0
41
1
10
36.6475510108183
20
0.0301616744143871
30
0
41
1
10
36.5514378895813
20
0.0567709624895372
30
0
41
1
10
36.3241389147826
20
0.120129994857422
30
0
41
1
10
35.8652304146002
20
0.250293155781293
30
0
41
1
10
35.2673644192003
20
0.425473420710006
30
0
41
1
10
34.6417503354345
20
0.615460072470057
30
0
41
1
10
34.0037976079188
20
0.814759855397597
30
0
41
1
10
33.210293236324
20
1.07090763174492
30
-1E-16
41
1
10
32.1516327519604
20
1.42840537244632
30
-1E-16
41
1
10
30.9061652851769
20
1.87186899108335
30
-1E-16
41
1
10
30.0187500563327
20
2.2086125211095
30
-1E-16
41
1
10
29.5661058656408
20
2.38569142900226
30
-1E-16
0
SPLINE
5
103
100
AcDbEntity
8
1
62
256
6
ByLayer
370
18
48
1
60
0
100
AcDbSpline
70
4
71
2
72
6
73
3
40
0
40
0
40
0
40
1
40
1
40
1
41
1
10
49.0674227554247
20
0.0007462422721005
30
0
41
1
10
49.0674444703234
20
0.0007530828472397
30
0
41
1
10
49.0674661851766
20
0.0007594109337958
30
0
0
LINE
5
84
100
AcDbEntity
8
SK1
62
256
6
ByLayer
370
18
48
1
60
0
100
AcDbLine
10
-40
20
-3.66
30
0
11
-40
21
3.66
31
0
39
0
210
0
220
0
230
1
0
LINE
5
86
100
AcDbEntity
8
SK1
62
256
6
ByLayer
370
18
48
1
60
0
100
AcDbLine
10
-38.66
20
-5
30
0
11
-38.66
21
5
31
0
39
0
210
0
220
0
230
1
0
LINE
5
87
100
AcDbEntity
8
SK1
62
256
6
ByLayer
370
18
48
1
60
0
100
AcDbLine
10
0
20
5
30
0
11
0
21
-5
31
0
39
0
210
0
220
0
230
1
0
LINE
5
88
100
AcDbEntity
8
1
62
256
6
ByLayer
370
18
48
1
60
0
100
AcDbLine
10
3.501716
20
-3.473135
30
0
11
3.501716
21
1.221814
31
0
39
0
210
0
220
0
230
1
0
LINE
5
89
100
AcDbEntity
8
1
62
256
6
ByLayer
370
18
48
1
60
0
100
AcDbLine
10
0
20
5
30
0
11
0
21
0
31
0
39
0
210
0
220
0
230
1
0
LINE
5
8A
100
AcDbEntity
8
1
62
256
6
ByLayer
370
18
48
1
60
0
100
AcDbLine
10
0
20
0
30
0
11
0
21
-5
31
0
39
0
210
0
220
0
230
1
0
LINE
5
8B
100
AcDbEntity
8
1
62
256
6
ByLayer
370
18
48
1
60
0
100
AcDbLine
10
62.942128
20
0.049959
30
0
11
61.923517
21
1.174329
31
0
39
0
210
0
220
0
230
1
0
LINE
5
8C
100
AcDbEntity
8
1
62
256
6
ByLayer
370
18
48
1
60
0
100
AcDbLine
10
21.5
20
-0.406512
30
0
11
21.5
21
-0.462695
31
0
39
0
210
0
220
0
230
1
0
LINE
5
8D
100
AcDbEntity
8
1
62
256
6
ByLayer
370
18
48
1
60
0
100
AcDbLine
10
1.433118
20
4.112464
30
0
11
1.433118
21
0
31
0
39
0
210
0
220
0
230
1
0
LINE
5
8E
100
AcDbEntity
8
1
62
256
6
ByLayer
370
18
48
1
60
0
100
AcDbLine
10
1.433118
20
0
30
0
11
1.433118
21
-4.112464
31
0
39
0
210
0
220
0
230
1
0
LINE
5
8F
100
AcDbEntity
8
1
62
256
6
ByLayer
370
18
48
1
60
0
100
AcDbLine
10
0.716309
20
4.556232
30
0
11
0.716309
21
0
31
0
39
0
210
0
220
0
230
1
0
LINE
5
90
100
AcDbEntity
8
1
62
256
6
ByLayer
370
18
48
1
60
0
100
AcDbLine
10
0.716309
20
0
30
0
11
0.716309
21
-4.556232
31
0
39
0
210
0
220
0
230
1
0
LINE
5
91
100
AcDbEntity
8
SK1
62
256
6
ByLayer
370
18
48
1
60
0
100
AcDbLine
10
-40
20
-3.66
30
0
11
-38.66
21
-5
31
0
39
0
210
0
220
0
230
1
0
LINE
5
92
100
AcDbEntity
8
SK1
62
256
6
ByLayer
370
18
48
1
60
0
100
AcDbLine
10
-38.66
20
5
30
0
11
-40
21
3.66
31
0
39
0
210
0
220
0
230
1
0
LINE
5
93
100
AcDbEntity
8
SK1
62
256
6
ByLayer
370
18
48
1
60
0
100
AcDbLine
10
-38.66
20
-5
30
0
11
0
21
-5
31
0
39
0
210
0
220
0
230
1
0
LINE
5
94
100
AcDbEntity
8
SK1
62
256
6
ByLayer
370
18
48
1
60
0
100
AcDbLine
10
0
20
5
30
0
11
-38.66
21
5
31
0
39
0
210
0
220
0
230
1
0
LINE
5
95
100
AcDbEntity
8
1
62
256
6
ByLayer
370
18
48
1
60
0
100
AcDbLine
10
1.433118
20
-4.112464
30
0
11
3.142105
21
-4.113532
31
0
39
0
210
0
220
0
230
1
0
LINE
5
96
100
AcDbEntity
8
1
62
256
6
ByLayer
370
18
48
1
60
0
100
AcDbLine
10
6.868878
20
-4.115861
30
0
11
8.26727
21
-4.116735
31
0
39
0
210
0
220
0
230
1
0
LINE
5
97
100
AcDbEntity
8
1
62
256
6
ByLayer
370
18
48
1
60
0
100
AcDbLine
10
20.04283
20
-4.124095
30
0
11
21.302846
21
-4.124882
31
0
39
0
210
0
220
0
230
1
0
LINE
5
98
100
AcDbEntity
8
1
62
256
6
ByLayer
370
18
48
1
60
0
100
AcDbLine
10
34.24639
20
-4.132972
30
0
11
35.46601
21
-4.133734
31
0
39
0
210
0
220
0
230
1
0
LINE
5
99
100
AcDbEntity
8
1
62
256
6
ByLayer
370
18
48
1
60
0
100
AcDbLine
10
47.247953
20
-4.141098
30
0
11
48.47619
21
-4.141866
31
0
39
0
210
0
220
0
230
1
0
LINE
5
9A
100
AcDbEntity
8
1
62
256
6
ByLayer
370
18
48
1
60
0
100
AcDbLine
10
48.47619
20
4.141866
30
0
11
47.247953
21
4.141098
31
0
39
0
210
0
220
0
230
1
0
LINE
5
9B
100
AcDbEntity
8
1
62
256
6
ByLayer
370
18
48
1
60
0
100
AcDbLine
10
35.46601
20
4.133734
30
0
11
34.24639
21
4.132972
31
0
39
0
210
0
220
0
230
1
0
LINE
5
9C
100
AcDbEntity
8
1
62
256
6
ByLayer
370
18
48
1
60
0
100
AcDbLine
10
21.302846
20
4.124882
30
0
11
20.04283
21
4.124095
31
0
39
0
210
0
220
0
230
1
0
LINE
5
9D
100
AcDbEntity
8
1
62
256
6
ByLayer
370
18
48
1
60
0
100
AcDbLine
10
8.26727
20
4.116735
30
0
11
6.868878
21
4.115861
31
0
39
0
210
0
220
0
230
1
0
LINE
5
9E
100
AcDbEntity
8
1
62
256
6
ByLayer
370
18
48
1
60
0
100
AcDbLine
10
3.142105
20
4.113532
30
0
11
1.433118
21
4.112464
31
0
39
0
210
0
220
0
230
1
0
LINE
5
9F
100
AcDbEntity
8
SK4
62
256
6
ByLayer
370
18
48
0.05
60
0
100
AcDbLine
10
68
20
0
30
0
11
-45
21
0
31
0
39
0
210
0
220
0
230
1
0
LINE
5
A1
100
AcDbEntity
8
4
62
256
6
ByLayer
370
18
48
0.05
60
0
100
AcDbLine
10
-40
20
0
30
0
11
68
21
0
31
0
39
0
210
0
220
0
230
1
0
LINE
5
A3
100
AcDbEntity
8
80
62
256
6
ByLayer
370
18
48
1
60
0
100
AcDbLine
10
0
20
0
30
0
11
-6
21
0
31
0
39
0
210
0
220
0
230
1
0
LINE
5
A4
100
AcDbEntity
8
81
62
256
6
ByLayer
370
18
48
1
60
0
100
AcDbLine
10
63
20
0
30
0
11
69
21
0
31
0
39
0
210
0
220
0
230
1
0
LINE
5
A5
100
AcDbEntity
8
SK2
62
256
6
ByLayer
370
13
48
1
60
0
100
AcDbLine
10
63.542964
20
1.491759
30
0
11
70.926426
21
21.777337
31
0
39
0
210
0
220
0
230
1
0
LINE
5
A7
100
AcDbEntity
8
SK2
62
256
6
ByLayer
370
13
48
1
60
0
100
AcDbLine
10
63.542964
20
-1.491759
30
0
11
70.926426
21
-21.777337
31
0
39
0
210
0
220
0
230
1
0
LINE
5
A8
100
AcDbEntity
8
1
62
256
6
ByLayer
370
13
48
1
60
0
100
AcDbLine
10
69.840497
20
18.793818
30
0
11
72.937083
21
17.977431
31
0
39
0
210
0
220
0
230
1
0
LINE
5
A9
100
AcDbEntity
8
1
62
256
6
ByLayer
370
13
48
1
60
0
100
AcDbLine
10
69.840497
20
18.793818
30
0
11
72.620276
21
17.203791
31
0
39
0
210
0
220
0
230
1
0
LINE
5
AA
100
AcDbEntity
8
1
62
256
6
ByLayer
370
13
48
1
60
0
100
AcDbLine
10
72.937083
20
17.977431
30
0
11
72.620276
21
17.203791
31
0
39
0
210
0
220
0
230
1
0
LINE
5
AB
100
AcDbEntity
8
1
62
256
6
ByLayer
370
13
48
1
60
0
100
AcDbLine
10
69.840497
20
-18.793818
30
0
11
72.620273
21
-17.203793
31
0
39
0
210
0
220
0
230
1
0
LINE
5
AC
100
AcDbEntity
8
1
62
256
6
ByLayer
370
13
48
1
60
0
100
AcDbLine
10
69.840497
20
-18.793818
30
0
11
72.937086
21
-17.97743
31
0
39
0
210
0
220
0
230
1
0
LINE
5
AD
100
AcDbEntity
8
1
62
256
6
ByLayer
370
13
48
1
60
0
100
AcDbLine
10
72.620273
20
-17.203793
30
0
11
72.937086
21
-17.97743
31
0
39
0
210
0
220
0
230
1
0
MTEXT
5
104
100
AcDbEntity
8
SK2
62
256
6
ByLayer
370
18
48
1
60
0
100
AcDbMText
10
76.717388
20
-2.467451
30
0
210
0
220
0
230
1
1
\W0.7237;140.00
40
3.50012
41
0
44
1.084337
50
0
71
7
72
5
7
iso_b_vert
0
MTEXT
5
107
100
AcDbEntity
8
SK6
62
256
6
ByLayer
370
18
48
1
60
0
100
AcDbMText
10
-27.649197
20
-105.441825
30
0
210
0
220
0
230
1
1
\W0.7601;860.1-0830-043A0-GM X1BM
40
3.175
41
0
44
1.084337
50
0
71
7
72
5
7
iso_b_vert
0
DIMENSION
5
10A
100
AcDbEntity
8
SK2
62
256
6
ByLayer
370
18
48
1
60
0
100
AcDbDimension
2
_U0
10
63
20
-28.50012
30
0
11
31.5
21
-28.50012
31
0
70
32
71
2
72
1
41
1
210
0
220
0
230
1
3
Standard
100
AcDbAlignedDimension
13
0
23
-5
33
0
14
63
24
0
34
0
50
0
100
AcDbRotatedDimension
1001
ACAD
1000
DSTYLE
1002
{
1070
   371
1070
    13
1070
   372
1070
    13
1070
     3
1000

1070
   170
1070
     0
1070
   144
1040
1.0
1070
   277
1070
     2
1070
   284
1070
     8
1070
   278
1070
    46
1070
   146
1040
0.999966
1070
   345
1005
16
1070
   347
1005
16
1070
   346
1005
16
1070
   344
1005
10B
1070
   343
1005
10B
1070
   172
1070
     1
1070
    76
1070
     0
1070
    75
1070
     0
1070
   282
1070
     0
1070
   281
1070
     0
1070
    71
1070
     0
1070
    74
1070
     0
1070
   279
1070
     0
1070
   173
1070
     1
1070
   340
1005
105
1070
   271
1070
     1
1070
   272
1070
     2
1070
    77
1070
     1
1070
    73
1070
     1
1070
   171
1070
     3
1070
   274
1070
     4
1070
   177
1070
   150
1070
   176
1070
     9
1070
   178
1070
    43
1070
    78
1070
     8
1070
    48
1040
-0.1
1070
    41
1040
3.175
1070
   147
1040
1.75006
1070
    42
1040
1.5875
1070
    44
1040
3.175
1070
   140
1040
3.50012
1002
}
1001
ACAD_DSTYLE_DIM_LINETYPE
1070
   380
1005
16
1001
ACAD_DSTYLE_DIM_EXT1_LINETYPE
1070
   381
1005
16
1001
ACAD_DSTYLE_DIM_EXT2_LINETYPE
1070
   382
1005
16
0
DIMENSION
5
130
100
AcDbEntity
8
2
62
256
6
ByLayer
370
18
48
1
60
0
100
AcDbDimension
2
_U1
10
69.75006
20
4.15
30
0
11
69.75006
21
19.723233
31
0
70
32
71
1
72
1
41
1
210
0
220
0
230
1
3
Standard
100
AcDbAlignedDimension
13
61.4895
23
-4.15
33
0
14
61.4895
24
4.15
34
0
50
90
100
AcDbRotatedDimension
1001
ACAD
1000
DSTYLE
1002
{
1070
   371
1070
    13
1070
   372
1070
    13
1070
     3
1000

1070
   170
1070
     0
1070
   144
1040
1.0
1070
   277
1070
     2
1070
   284
1070
     8
1070
   278
1070
    46
1070
   146
1040
0.999966
1070
   345
1005
16
1070
   347
1005
16
1070
   346
1005
16
1070
   344
1005
10B
1070
   343
1005
10B
1070
   172
1070
     1
1070
    76
1070
     0
1070
    75
1070
     0
1070
   282
1070
     0
1070
   281
1070
     0
1070
    71
1070
     0
1070
    74
1070
     0
1070
   279
1070
     0
1070
   173
1070
     1
1070
   340
1005
105
1070
   271
1070
     1
1070
   272
1070
     2
1070
    77
1070
     1
1070
    73
1070
     0
1070
   171
1070
     3
1070
   274
1070
     4
1070
   177
1070
   150
1070
   176
1070
     9
1070
   178
1070
    43
1070
    78
1070
     8
1070
    48
1040
-0.1
1070
    41
1040
3.175
1070
   147
1040
1.75006
1070
    42
1040
1.5875
1070
    44
1040
3.175
1070
   140
1040
3.50012
1002
}
1001
ACAD_DSTYLE_DIM_LINETYPE
1070
   380
1005
16
1001
ACAD_DSTYLE_DIM_EXT1_LINETYPE
1070
   381
1005
16
1001
ACAD_DSTYLE_DIM_EXT2_LINETYPE
1070
   382
1005
16
0
DIMENSION
5
14F
100
AcDbEntity
8
SK2
62
256
6
ByLayer
370
18
48
1
60
0
100
AcDbDimension
2
_U2
10
-43.24994
20
-5
30
0
11
-43.24994
21
19.97767
31
0
70
32
71
1
72
1
41
1
210
0
220
0
230
1
3
Standard
100
AcDbAlignedDimension
13
-40
23
5
33
0
14
-40
24
-5
34
0
50
90
100
AcDbRotatedDimension
1001
ACAD
1000
DSTYLE
1002
{
1070
   371
1070
    13
1070
   372
1070
    13
1070
     3
1000

1070
   170
1070
     0
1070
   144
1040
1.0
1070
   277
1070
     2
1070
   284
1070
     8
1070
   278
1070
    46
1070
   146
1040
0.999966
1070
   345
1005
16
1070
   347
1005
16
1070
   346
1005
16
1070
   344
1005
10B
1070
   343
1005
10B
1070
   172
1070
     1
1070
    76
1070
     0
1070
    75
1070
     0
1070
   282
1070
     0
1070
   281
1070
     0
1070
    71
1070
     0
1070
    74
1070
     0
1070
   279
1070
     0
1070
   173
1070
     1
1070
   340
1005
105
1070
   271
1070
     1
1070
   272
1070
     2
1070
    77
1070
     1
1070
    73
1070
     0
1070
   171
1070
     3
1070
   274
1070
     4
1070
   177
1070
   150
1070
   176
1070
     9
1070
   178
1070
    43
1070
    78
1070
     8
1070
    48
1040
-0.1
1070
    41
1040
3.175
1070
   147
1040
1.75006
1070
    42
1040
1.5875
1070
    44
1040
3.175
1070
   140
1040
3.50012
1002
}
1001
ACAD_DSTYLE_DIM_LINETYPE
1070
   380
1005
16
1001
ACAD_DSTYLE_DIM_EXT1_LINETYPE
1070
   381
1005
16
1001
ACAD_DSTYLE_DIM_EXT2_LINETYPE
1070
   382
1005
16
0
DIMENSION
5
16D
100
AcDbEntity
8
SK2
62
256
6
ByLayer
370
18
48
1
60
0
100
AcDbDimension
2
_U3
10
0
20
-28.50012
30
0
11
-20
21
-28.50012
31
0
70
32
71
1
72
1
41
1
210
0
220
0
230
1
3
Standard
100
AcDbAlignedDimension
13
-40
23
-5
33
0
14
0
24
-5
34
0
50
0
100
AcDbRotatedDimension
1001
ACAD
1000
DSTYLE
1002
{
1070
   371
1070
    13
1070
   372
1070
    13
1070
     3
1000

1070
   170
1070
     0
1070
   144
1040
1.0
1070
   277
1070
     2
1070
   284
1070
     8
1070
   278
1070
    46
1070
   146
1040
0.999966
1070
   345
1005
16
1070
   347
1005
16
1070
   346
1005
16
1070
   344
1005
10B
1070
   343
1005
10B
1070
   172
1070
     1
1070
    76
1070
     0
1070
    75
1070
     0
1070
   282
1070
     0
1070
   281
1070
     0
1070
    71
1070
     0
1070
    74
1070
     0
1070
   279
1070
     0
1070
   173
1070
     1
1070
   340
1005
105
1070
   271
1070
     1
1070
   272
1070
     2
1070
    77
1070
     1
1070
    73
1070
     1
1070
   171
1070
     3
1070
   274
1070
     4
1070
   177
1070
   150
1070
   176
1070
     9
1070
   178
1070
    43
1070
    78
1070
     8
1070
    48
1040
-0.1
1070
    41
1040
3.175
1070
   147
1040
1.75006
1070
    42
1040
1.5875
1070
    44
1040
3.175
1070
   140
1040
3.50012
1002
}
1001
ACAD_DSTYLE_DIM_LINETYPE
1070
   380
1005
16
1001
ACAD_DSTYLE_DIM_EXT1_LINETYPE
1070
   381
1005
16
1001
ACAD_DSTYLE_DIM_EXT2_LINETYPE
1070
   382
1005
16
0
DIMENSION
5
189
100
AcDbEntity
8
SK2
62
256
6
ByLayer
370
18
48
1
60
0
100
AcDbDimension
2
_U4
10
63
20
-19.74982
30
0
11
32.5
21
-19.74982
31
0
70
32
71
1
72
1
41
1
210
0
220
0
230
1
3
Standard
100
AcDbAlignedDimension
13
2
23
4.65
33
0
14
63
24
0
34
0
50
0
100
AcDbRotatedDimension
1001
ACAD
1000
DSTYLE
1002
{
1070
   371
1070
    13
1070
   372
1070
    13
1070
     3
1000

1070
   170
1070
     0
1070
   144
1040
1.0
1070
   277
1070
     2
1070
   284
1070
     8
1070
   278
1070
    46
1070
   146
1040
0.999966
1070
   345
1005
16
1070
   347
1005
16
1070
   346
1005
16
1070
   344
1005
10B
1070
   343
1005
10B
1070
   172
1070
     1
1070
    76
1070
     0
1070
    75
1070
     0
1070
   282
1070
     0
1070
   281
1070
     0
1070
    71
1070
     0
1070
    74
1070
     0
1070
   279
1070
     0
1070
   173
1070
     1
1070
   340
1005
105
1070
   271
1070
     1
1070
   272
1070
     2
1070
    77
1070
     1
1070
    73
1070
     1
1070
   171
1070
     3
1070
   274
1070
     4
1070
   177
1070
   150
1070
   176
1070
     9
1070
   178
1070
    43
1070
    78
1070
     8
1070
    48
1040
-0.1
1070
    41
1040
3.175
1070
   147
1040
1.75006
1070
    42
1040
1.5875
1070
    44
1040
3.175
1070
   140
1040
3.50012
1002
}
1001
ACAD_DSTYLE_DIM_LINETYPE
1070
   380
1005
16
1001
ACAD_DSTYLE_DIM_EXT1_LINETYPE
1070
   381
1005
16
1001
ACAD_DSTYLE_DIM_EXT2_LINETYPE
1070
   382
1005
16
0
DIMENSION
5
1A5
100
AcDbEntity
8
SK2
62
256
6
ByLayer
370
18
48
1
60
0
100
AcDbDimension
2
_U5
10
63
20
-11.82
30
0
11
41.5
21
-11.82
31
0
70
32
71
1
72
1
41
1
210
0
220
0
230
1
3
Standard
100
AcDbAlignedDimension
13
20
23
-4.15
33
0
14
63
24
0
34
0
50
0
100
AcDbRotatedDimension
1001
ACAD
1000
DSTYLE
1002
{
1070
   371
1070
    13
1070
   372
1070
    13
1070
     3
1000

1070
   170
1070
     0
1070
   144
1040
1.0
1070
   277
1070
     2
1070
   284
1070
     8
1070
   278
1070
    46
1070
   146
1040
1.25
1070
   345
1005
16
1070
   347
1005
16
1070
   346
1005
16
1070
   344
1005
10B
1070
   343
1005
10B
1070
   172
1070
     1
1070
    76
1070
     0
1070
    75
1070
     0
1070
   282
1070
     0
1070
   281
1070
     0
1070
    71
1070
     0
1070
    74
1070
     0
1070
   279
1070
     0
1070
   173
1070
     1
1070
   340
1005
105
1070
   271
1070
     1
1070
   272
1070
     2
1070
    77
1070
     1
1070
    73
1070
     1
1070
   171
1070
     3
1070
   274
1070
     4
1070
   177
1070
   150
1070
   176
1070
     9
1070
   178
1070
    43
1070
    78
1070
     8
1070
    48
1040
-0.1
1070
    41
1040
3.175
1070
   147
1040
0.42
1070
    42
1040
1.5875
1070
    44
1040
0.5
1070
   140
1040
2.8
1002
}
1001
ACAD_DSTYLE_DIM_LINETYPE
1070
   380
1005
16
1001
ACAD_DSTYLE_DIM_EXT1_LINETYPE
1070
   381
1005
16
1001
ACAD_DSTYLE_DIM_EXT2_LINETYPE
1070
   382
1005
16
0
DIMENSION
5
1C1
100
AcDbEntity
8
SK2
62
256
6
ByLayer
370
18
48
1
60
0
100
AcDbDimension
2
_U6
10
63
20
-38.50012
30
0
11
11.5
21
-38.50012
31
0
70
32
71
1
72
1
41
1
210
0
220
0
230
1
3
Standard
100
AcDbAlignedDimension
13
-40
23
0
33
0
14
63
24
0
34
0
50
0
100
AcDbRotatedDimension
1001
ACAD
1000
DSTYLE
1002
{
1070
   371
1070
    13
1070
   372
1070
    13
1070
     3
1000

1070
   170
1070
     0
1070
   144
1040
1.0
1070
   277
1070
     2
1070
   284
1070
     8
1070
   278
1070
    46
1070
   146
1040
0.999966
1070
   345
1005
16
1070
   347
1005
16
1070
   346
1005
16
1070
   344
1005
10B
1070
   343
1005
10B
1070
   172
1070
     1
1070
    76
1070
     0
1070
    75
1070
     0
1070
   282
1070
     0
1070
   281
1070
     0
1070
    71
1070
     0
1070
    74
1070
     0
1070
   279
1070
     0
1070
   173
1070
     1
1070
   340
1005
105
1070
   271
1070
     1
1070
   272
1070
     2
1070
    77
1070
     1
1070
    73
1070
     1
1070
   171
1070
     3
1070
   274
1070
     4
1070
   177
1070
   150
1070
   176
1070
     9
1070
   178
1070
    43
1070
    78
1070
     8
1070
    48
1040
-0.1
1070
    41
1040
3.175
1070
   147
1040
1.75006
1070
    42
1040
1.5875
1070
    44
1040
3.175
1070
   140
1040
3.50012
1002
}
1001
ACAD_DSTYLE_DIM_LINETYPE
1070
   380
1005
16
1001
ACAD_DSTYLE_DIM_EXT1_LINETYPE
1070
   381
1005
16
1001
ACAD_DSTYLE_DIM_EXT2_LINETYPE
1070
   382
1005
16
0
ENDSEC
0
SECTION
2
OBJECTS
0
DICTIONARY
5
24d
330
0
100
AcDbDictionary
280
0
281
1
3
ACAD_GROUP
350
24e
3
ACAD_MLINESTYLE
350
24f
0
DICTIONARY
5
24e
330
0
100
AcDbDictionary
280
0
281
1
0
DICTIONARY
5
24f
330
0
100
AcDbDictionary
280
0
281
1
3
Standard
350
18
0
MLINESTYLE
5
18
330
24f
100
AcDbMlineStyle
2
Standard
70
0
3

62
256
51
90
52
90
71
2
49
-0.5
62
256
6
ByLayer
49
0.5
62
256
6
ByLayer
0
RASTERVARIABLES
5
23b
330

100
AcDbRasterVariables
90
0
70
1
71
1
72
1
0
ENDSEC
0
EOF
