0
SECTION
2
HEADER
9
$ACADVER
1
AC1015
9
$DWGCODEPAGE
3
ANSI_1252
9
$HANDSEED
5
261
9
$ANGBASE
50
0
9
$ANGDIR
70
0
9
$ATTMODE
70
1
9
$AUNITS
70
0
9
$AUPREC
70
0
9
$CECOLOR
62
256
9
$CELTSCALE
40
1
9
$CELTYPE
6
ByLayer
9
$CELWEIGHT
370
18
9
$CLAYER
8
0
9
$CMLJUST
70
0
9
$CMLSCALE
40
1
9
$CMLSTYLE
2
Standard
9
$DIMSTYLE
2
Standard
9
$TEXTSIZE
40
0.2
9
$TEXTSTYLE
7
Standard
9
$LUNITS
70
2
9
$LUPREC
70
4
9
$EXTNAMES
290
1
9
$INSUNITS
70
4
9
$LTSCALE
40
1
9
$LWDISPLAY
290
1
9
$PDMODE
70
0
9
$PDSIZE
40
0
9
$PLINEGEN
70
0
0
ENDSEC
0
SECTION
2
CLASSES
0
CLASS
1
RASTERVARIABLES
2
AcDbRasterVariables
3
ISM
90
0
280
0
281
0
0
ENDSEC
0
SECTION
2
TABLES
0
TABLE
2
VPORT
5
257
100
AcDbSymbolTable
0
VPORT
5
1
100
AcDbSymbolTableRecord
100
AcDbViewportTableRecord
2
*Active
70
0
10
0
20
0
11
1
21
1
12
-1
22
1
13
0
23
0
14
0.5
24
0.5
15
10
25
10
16
0
26
0
36
1
17
0
27
0
37
0
0
ENDTAB
0
TABLE
2
LTYPE
5
258
100
AcDbSymbolTable
0
LTYPE
5
14
100
AcDbSymbolTableRecord
100
AcDbLinetypeTableRecord
70
0
2
ByBlock
3

72
65
73
0
40
0
0
LTYPE
5
15
100
AcDbSymbolTableRecord
100
AcDbLinetypeTableRecord
70
0
2
ByLayer
3

72
65
73
0
40
0
0
LTYPE
5
16
100
AcDbSymbolTableRecord
100
AcDbLinetypeTableRecord
70
0
2
Continuous
3
Solid line
72
65
73
0
40
0
0
LTYPE
5
6E
100
AcDbSymbolTableRecord
100
AcDbLinetypeTableRecord
70
0
2
CENTER
3
____ _ ____ _ ____ _ ____
72
65
73
4
40
47.5
49
22
74
0
49
-8.5
74
0
49
8.5
74
0
49
-8.5
74
0
0
LTYPE
5
6F
100
AcDbSymbolTableRecord
100
AcDbLinetypeTableRecord
70
0
2
DASHED
3
__ __ __ __ __ __ __ __ __
72
65
73
2
40
25.72
49
12.86
74
0
49
-12.86
74
0
0
ENDTAB
0
TABLE
2
LAYER
5
259
100
AcDbSymbolTable
0
LAYER
5
10
100
AcDbSymbolTableRecord
100
AcDbLayerTableRecord
2
0
70
0
62
7
6
Continuous
290
1
370
-3
390
0
0
LAYER
5
71
100
AcDbSymbolTableRecord
100
AcDbLayerTableRecord
2
80
70
0
62
-6
6
Continuous
290
1
370
-3
390
0
0
LAYER
5
73
100
AcDbSymbolTableRecord
100
AcDbLayerTableRecord
2
81
70
0
62
-3
6
Continuous
290
1
370
-3
390
0
0
LAYER
5
75
100
AcDbSymbolTableRecord
100
AcDbLayerTableRecord
2
1
70
0
62
4
6
Continuous
290
1
370
-3
390
0
0
LAYER
5
A2
100
AcDbSymbolTableRecord
100
AcDbLayerTableRecord
2
4
70
0
62
-2
6
CENTER
290
1
370
-3
390
0
0
LAYER
5
11B
100
AcDbSymbolTableRecord
100
AcDbLayerTableRecord
2
Defpoints
70
0
62
7
6
Continuous
290
0
370
-3
390
0
0
LAYER
5
148
100
AcDbSymbolTableRecord
100
AcDbLayerTableRecord
2
2
70
0
62
7
6
Continuous
290
1
370
-3
390
0
0
LAYER
5
243
100
AcDbSymbolTableRecord
100
AcDbLayerTableRecord
2
SK1
70
0
62
4
6
Continuous
290
1
370
-3
390
0
0
LAYER
5
244
100
AcDbSymbolTableRecord
100
AcDbLayerTableRecord
2
SK4
70
0
62
2
6
CENTER
290
1
370
-3
390
0
0
LAYER
5
245
100
AcDbSymbolTableRecord
100
AcDbLayerTableRecord
2
SK2
70
0
62
7
6
Continuous
290
1
370
-3
390
0
0
LAYER
5
246
100
AcDbSymbolTableRecord
100
AcDbLayerTableRecord
2
SK6
70
0
62
5
6
Continuous
290
1
370
-3
390
0
0
ENDTAB
0
TABLE
2
STYLE
5
25a
100
AcDbSymbolTable
0
STYLE
5
11
100
AcDbSymbolTableRecord
100
AcDbTextStyleTableRecord
2
Standard
3
txt
70
0
71
0
40
0
41
1
42
0
50
0
0
STYLE
5
10C
100
AcDbSymbolTableRecord
100
AcDbTextStyleTableRecord
2
iso_b_vert
3
simplex.shx
70
0
71
0
40
0
41
1
42
0
50
0
0
STYLE
5
10D
100
AcDbSymbolTableRecord
100
AcDbTextStyleTableRecord
2
DWGDirectTextStyle
3
simplex
70
0
71
0
40
0
41
1
42
0
50
0
0
ENDTAB
0
TABLE
2
DIMSTYLE
5
25b
100
AcDbSymbolTable
100
AcDbDimStyleTable
0
DIMSTYLE
105
27
100
AcDbSymbolTableRecord
100
AcDbDimStyleTableRecord
2
Standard
70
0
3
<>
41
0.18
42
0.0625
44
0.18
140
0.18
147
0.09
73
0
74
0
77
1
271
2
275
0
278
52
280
0
340
11
0
ENDTAB
0
TABLE
2
VIEW
5
25c
100
AcDbSymbolTable
0
ENDTAB
0
TABLE
2
UCS
5
25d
100
AcDbSymbolTable
0
ENDTAB
0
TABLE
2
APPID
5
25e
100
AcDbSymbolTable
0
APPID
5
12
100
AcDbSymbolTableRecord
100
AcDbRegAppTableRecord
2
ACAD
70
0
0
APPID
5
110
100
AcDbSymbolTableRecord
100
AcDbRegAppTableRecord
2
ACAD_DSTYLE_DIMBREAK
70
0
0
APPID
5
202
100
AcDbSymbolTableRecord
100
AcDbRegAppTableRecord
2
ACAD_DSTYLE_DIM_LINETYPE
70
0
0
APPID
5
203
100
AcDbSymbolTableRecord
100
AcDbRegAppTableRecord
2
ACAD_DSTYLE_DIM_EXT1_LINETYPE
70
0
0
APPID
5
204
100
AcDbSymbolTableRecord
100
AcDbRegAppTableRecord
2
ACAD_DSTYLE_DIM_EXT2_LINETYPE
70
0
0
APPID
5
23F
100
AcDbSymbolTableRecord
100
AcDbRegAppTableRecord
2
ACAD_MLEADERVER
70
0
0
ENDTAB
0
TABLE
2
BLOCK_RECORD
5
25f
100
AcDbSymbolTable
0
BLOCK_RECORD
5
1F
100
AcDbSymbolTableRecord
100
AcDbBlockTableRecord
2
*Model_Space
340
0
70
0
0
BLOCK_RECORD
5
1B
100
AcDbSymbolTableRecord
100
AcDbBlockTableRecord
2
*Paper_Space
340
0
70
0
0
BLOCK_RECORD
5
23
100
AcDbSymbolTableRecord
100
AcDbBlockTableRecord
2
*Paper_Space0
340
0
70
0
0
BLOCK_RECORD
5
112
100
AcDbSymbolTableRecord
100
AcDbBlockTableRecord
2
_Closed
340
0
70
0
0
BLOCK_RECORD
5
11C
100
AcDbSymbolTableRecord
100
AcDbBlockTableRecord
2
*D2
340
0
70
0
0
BLOCK_RECORD
5
128
100
AcDbSymbolTableRecord
100
AcDbBlockTableRecord
2
_U0
340
0
70
0
0
BLOCK_RECORD
5
13A
100
AcDbSymbolTableRecord
100
AcDbBlockTableRecord
2
*D4
340
0
70
0
0
BLOCK_RECORD
5
149
100
AcDbSymbolTableRecord
100
AcDbBlockTableRecord
2
_U1
340
0
70
0
0
BLOCK_RECORD
5
159
100
AcDbSymbolTableRecord
100
AcDbBlockTableRecord
2
*D6
340
0
70
0
0
BLOCK_RECORD
5
167
100
AcDbSymbolTableRecord
100
AcDbBlockTableRecord
2
_U2
340
0
70
0
0
BLOCK_RECORD
5
177
100
AcDbSymbolTableRecord
100
AcDbBlockTableRecord
2
*D8
340
0
70
0
0
BLOCK_RECORD
5
183
100
AcDbSymbolTableRecord
100
AcDbBlockTableRecord
2
_U3
340
0
70
0
0
BLOCK_RECORD
5
193
100
AcDbSymbolTableRecord
100
AcDbBlockTableRecord
2
*D10
340
0
70
0
0
BLOCK_RECORD
5
19F
100
AcDbSymbolTableRecord
100
AcDbBlockTableRecord
2
_U4
340
0
70
0
0
BLOCK_RECORD
5
1AF
100
AcDbSymbolTableRecord
100
AcDbBlockTableRecord
2
*D12
340
0
70
0
0
BLOCK_RECORD
5
1BB
100
AcDbSymbolTableRecord
100
AcDbBlockTableRecord
2
_U5
340
0
70
0
0
BLOCK_RECORD
5
1CB
100
AcDbSymbolTableRecord
100
AcDbBlockTableRecord
2
*D14
340
0
70
0
0
BLOCK_RECORD
5
1D7
100
AcDbSymbolTableRecord
100
AcDbBlockTableRecord
2
_U6
340
0
70
0
0
ENDTAB
0
ENDSEC
0
SECTION
2
BLOCKS
0
BLOCK
5
20
100
AcDbEntity
8
0
100
AcDbBlockBegin
2
*Model_Space
70
0
10
0
20
0
30
0
3
*Model_Space
0
ENDBLK
5
21
100
AcDbEntity
8
0
100
AcDbBlockEnd
0
BLOCK
5
1C
100
AcDbEntity
8
0
100
AcDbBlockBegin
2
*Paper_Space
70
0
10
0
20
0
30
0
3
*Paper_Space
0
ENDBLK
5
1D
100
AcDbEntity
8
0
100
AcDbBlockEnd
0
BLOCK
5
24
100
AcDbEntity
8
0
100
AcDbBlockBegin
2
*Paper_Space0
70
0
10
0
20
0
30
0
3
*Paper_Space0
0
ENDBLK
5
25
100
AcDbEntity
8
0
100
AcDbBlockEnd
0
BLOCK
5
113
100
AcDbEntity
8
0
100
AcDbBlockBegin
2
_Closed
70
0
10
0
20
0
30
0
3
_Closed
0
LINE
5
115
100
AcDbEntity
8
0
62
256
6
ByLayer
370
-2
48
1
60
0
100
AcDbLine
10
-1
20
0.166667
30
0
11
0
21
0
31
0
39
0
210
0
220
0
230
1
0
LINE
5
116
100
AcDbEntity
8
0
62
256
6
ByLayer
370
-2
48
1
60
0
100
AcDbLine
10
0
20
0
30
0
11
-1
21
-0.166667
31
0
39
0
210
0
220
0
230
1
0
LINE
5
117
100
AcDbEntity
8
0
62
256
6
ByLayer
370
-2
48
1
60
0
100
AcDbLine
10
-1
20
0.166667
30
0
11
-1
21
-0.166667
31
0
39
0
210
0
220
0
230
1
0
LINE
5
118
100
AcDbEntity
8
0
62
256
6
ByLayer
370
-2
48
1
60
0
100
AcDbLine
10
0
20
0
30
0
11
-1
21
0
31
0
39
0
210
0
220
0
230
1
0
ENDBLK
5
114
100
AcDbEntity
8
0
100
AcDbBlockEnd
0
BLOCK
5
11D
100
AcDbEntity
8
0
100
AcDbBlockBegin
2
*D2
70
1
10
0
20
0
30
0
3
*D2
0
LINE
5
11F
100
AcDbEntity
8
0
62
256
6
ByLayer
370
-2
48
1
60
0
100
AcDbLine
10
0
20
-5.5875
30
0
11
0
21
-30.67512
31
0
39
0
210
0
220
0
230
1
0
LINE
5
120
100
AcDbEntity
8
0
62
256
6
ByLayer
370
-2
48
1
60
0
100
AcDbLine
10
55
20
-1.5875
30
0
11
55
21
-30.67512
31
0
39
0
210
0
220
0
230
1
0
LINE
5
121
100
AcDbEntity
8
0
62
256
6
ByLayer
370
-2
48
1
60
0
100
AcDbLine
10
3.175
20
-27.50012
30
0
11
51.825
21
-27.50012
31
0
39
0
210
0
220
0
230
1
0
SOLID
5
122
100
AcDbEntity
8
0
62
256
6
ByLayer
370
-1
48
1
60
0
100
AcDbTrace
10
3.175
20
-26.970953
30
0
11
3.175
21
-28.029287
31
0
12
0
22
-27.50012
32
0
13
0
23
-27.50012
33
0
39
0
210
0
220
0
230
1
0
SOLID
5
123
100
AcDbEntity
8
0
62
256
6
ByLayer
370
-1
48
1
60
0
100
AcDbTrace
10
51.825
20
-28.029287
30
0
11
51.825
21
-26.970953
31
0
12
55
22
-27.50012
32
0
13
55
23
-27.50012
33
0
39
0
210
0
220
0
230
1
0
MTEXT
5
124
100
AcDbEntity
8
0
62
256
6
ByLayer
370
18
48
1
60
0
100
AcDbMText
10
27.5
20
-20.193619
30
0
210
0
220
0
230
1
1
\A1;55
40
3.50012
41
0
44
1
50
0
71
5
72
5
7
iso_b_vert
0
POINT
5
125
100
AcDbEntity
8
Defpoints
62
0
6
ByLayer
370
-1
48
1
60
0
100
AcDbPoint
10
0
20
-4
30
0
39
0
210
0
220
0
230
1
50
360
0
POINT
5
126
100
AcDbEntity
8
Defpoints
62
0
6
ByLayer
370
-1
48
1
60
0
100
AcDbPoint
10
55
20
0
30
0
39
0
210
0
220
0
230
1
50
360
0
POINT
5
127
100
AcDbEntity
8
Defpoints
62
0
6
ByLayer
370
-1
48
1
60
0
100
AcDbPoint
10
55
20
-27.50012
30
0
39
0
210
0
220
0
230
1
50
360
0
ENDBLK
5
11E
100
AcDbEntity
8
0
100
AcDbBlockEnd
0
BLOCK
5
135
100
AcDbEntity
8
0
100
AcDbBlockBegin
2
_U0
70
0
10
0
20
0
30
0
3
_U0
0
MTEXT
5
129
100
AcDbEntity
8
SK2
62
256
6
ByLayer
370
18
48
1
60
0
100
AcDbMText
10
22.270389
20
-26.467451
30
0
210
0
220
0
230
1
1
\W0.7468;55.00
40
3.50012
41
0
44
1.084337
50
0
71
7
72
5
7
iso_b_vert
0
MTEXT
5
12A
100
AcDbEntity
8
SK2
62
256
6
ByLayer
370
18
48
1
60
0
100
AcDbMText
10
18.744329
20
-26.400814
30
0
210
0
220
0
230
1
1
\W0.1790;(
40
3.175
41
0
44
1.084337
50
0
71
7
72
5
7
iso_b_vert
0
MTEXT
5
12B
100
AcDbEntity
8
SK2
62
256
6
ByLayer
370
18
48
1
60
0
100
AcDbMText
10
36.258393
20
-26.400814
30
0
210
0
220
0
230
1
1
\W0.1969;)
40
3.175
41
0
44
1.084337
50
0
71
7
72
5
7
iso_b_vert
0
LINE
5
12C
100
AcDbEntity
8
SK2
62
256
6
ByLayer
370
13
48
1
60
0
100
AcDbLine
10
0
20
-5.5875
30
0
11
0
21
-30.67512
31
0
39
0
210
0
220
0
230
1
0
LINE
5
12D
100
AcDbEntity
8
SK2
62
256
6
ByLayer
370
13
48
1
60
0
100
AcDbLine
10
55
20
-1.5875
30
0
11
55
21
-30.67512
31
0
39
0
210
0
220
0
230
1
0
LINE
5
12E
100
AcDbEntity
8
SK2
62
256
6
ByLayer
370
13
48
1
60
0
100
AcDbLine
10
0
20
-27.50012
30
0
11
55
21
-27.50012
31
0
39
0
210
0
220
0
230
1
0
LINE
5
12F
100
AcDbEntity
8
SK2
62
256
6
ByLayer
370
13
48
1
60
0
100
AcDbLine
10
0
20
-27.50012
30
0
11
3.174998
21
-27.082123
31
0
39
0
210
0
220
0
230
1
0
LINE
5
130
100
AcDbEntity
8
SK2
62
256
6
ByLayer
370
13
48
1
60
0
100
AcDbLine
10
0
20
-27.50012
30
0
11
3.175002
21
-27.918117
31
0
39
0
210
0
220
0
230
1
0
LINE
5
131
100
AcDbEntity
8
SK2
62
256
6
ByLayer
370
13
48
1
60
0
100
AcDbLine
10
3.174998
20
-27.082123
30
0
11
3.175002
21
-27.918117
31
0
39
0
210
0
220
0
230
1
0
LINE
5
132
100
AcDbEntity
8
SK2
62
256
6
ByLayer
370
13
48
1
60
0
100
AcDbLine
10
55
20
-27.50012
30
0
11
51.825002
21
-27.918117
31
0
39
0
210
0
220
0
230
1
0
LINE
5
133
100
AcDbEntity
8
SK2
62
256
6
ByLayer
370
13
48
1
60
0
100
AcDbLine
10
55
20
-27.50012
30
0
11
51.824998
21
-27.082123
31
0
39
0
210
0
220
0
230
1
0
LINE
5
134
100
AcDbEntity
8
SK2
62
256
6
ByLayer
370
13
48
1
60
0
100
AcDbLine
10
51.825002
20
-27.918117
30
0
11
51.824998
21
-27.082123
31
0
39
0
210
0
220
0
230
1
0
ENDBLK
5
136
100
AcDbEntity
8
0
100
AcDbBlockEnd
0
BLOCK
5
13B
100
AcDbEntity
8
0
100
AcDbBlockBegin
2
*D4
70
1
10
0
20
0
30
0
3
*D4
0
LINE
5
13D
100
AcDbEntity
8
0
62
256
6
ByLayer
370
-2
48
1
60
0
100
AcDbLine
10
55.3136
20
-3.5
30
0
11
64.92506
21
-3.5
31
0
39
0
210
0
220
0
230
1
0
LINE
5
13E
100
AcDbEntity
8
0
62
256
6
ByLayer
370
-2
48
1
60
0
100
AcDbLine
10
55.3136
20
3.5
30
0
11
64.92506
21
3.5
31
0
39
0
210
0
220
0
230
1
0
LINE
5
13F
100
AcDbEntity
8
0
62
256
6
ByLayer
370
-2
48
1
60
0
100
AcDbLine
10
61.75006
20
3.5
30
0
11
61.75006
21
23.296294
31
0
39
0
210
0
220
0
230
1
0
LINE
5
140
100
AcDbEntity
8
0
62
256
6
ByLayer
370
-2
48
1
60
0
100
AcDbLine
10
61.75006
20
-6.675
30
0
11
61.75006
21
-9.85
31
0
39
0
210
0
220
0
230
1
0
LINE
5
141
100
AcDbEntity
8
0
62
256
6
ByLayer
370
-2
48
1
60
0
100
AcDbLine
10
61.75006
20
6.675
30
0
11
61.75006
21
9.85
31
0
39
0
210
0
220
0
230
1
0
SOLID
5
142
100
AcDbEntity
8
0
62
256
6
ByLayer
370
-1
48
1
60
0
100
AcDbTrace
10
62.279227
20
-6.675
30
0
11
61.220893
21
-6.675
31
0
12
61.75006
22
-3.5
32
0
13
61.75006
23
-3.5
33
0
39
0
210
0
220
0
230
1
0
SOLID
5
143
100
AcDbEntity
8
0
62
256
6
ByLayer
370
-1
48
1
60
0
100
AcDbTrace
10
61.220893
20
6.675
30
0
11
62.279227
21
6.675
31
0
12
61.75006
22
3.5
32
0
13
61.75006
23
3.5
33
0
39
0
210
0
220
0
230
1
0
MTEXT
5
144
100
AcDbEntity
8
0
62
256
6
ByLayer
370
18
48
1
60
0
100
AcDbMText
10
54.443559
20
16.573147
30
0
210
0
220
0
230
1
1
\A1;7
40
3.50012
41
0
44
1
50
90
71
5
72
5
7
iso_b_vert
0
POINT
5
145
100
AcDbEntity
8
Defpoints
62
0
6
ByLayer
370
-1
48
1
60
0
100
AcDbPoint
10
53.7261
20
-3.5
30
0
39
0
210
0
220
0
230
1
50
360
0
POINT
5
146
100
AcDbEntity
8
Defpoints
62
0
6
ByLayer
370
-1
48
1
60
0
100
AcDbPoint
10
53.7261
20
3.5
30
0
39
0
210
0
220
0
230
1
50
360
0
POINT
5
147
100
AcDbEntity
8
Defpoints
62
0
6
ByLayer
370
-1
48
1
60
0
100
AcDbPoint
10
61.75006
20
3.5
30
0
39
0
210
0
220
0
230
1
50
360
0
ENDBLK
5
13C
100
AcDbEntity
8
0
100
AcDbBlockEnd
0
BLOCK
5
154
100
AcDbEntity
8
0
100
AcDbBlockBegin
2
_U1
70
0
10
0
20
0
30
0
3
_U1
0
MTEXT
5
14A
100
AcDbEntity
8
2
62
256
6
ByLayer
370
18
48
1
60
0
100
AcDbMText
10
61.060403
20
7.657505
30
0
210
0
220
0
230
1
1
\W0.7346;7.00
40
3.50012
41
0
44
1.084337
50
90
71
7
72
5
7
iso_b_vert
0
LINE
5
14B
100
AcDbEntity
8
2
62
256
6
ByLayer
370
13
48
1
60
0
100
AcDbLine
10
55.3136
20
-3.5
30
0
11
64.92506
21
-3.5
31
0
39
0
210
0
220
0
230
1
0
LINE
5
14C
100
AcDbEntity
8
2
62
256
6
ByLayer
370
13
48
1
60
0
100
AcDbLine
10
55.3136
20
3.5
30
0
11
64.92506
21
3.5
31
0
39
0
210
0
220
0
230
1
0
LINE
5
14D
100
AcDbEntity
8
2
62
256
6
ByLayer
370
13
48
1
60
0
100
AcDbLine
10
61.75006
20
-3.5
30
0
11
61.75006
21
15.71468
31
0
39
0
210
0
220
0
230
1
0
LINE
5
14E
100
AcDbEntity
8
2
62
256
6
ByLayer
370
13
48
1
60
0
100
AcDbLine
10
61.75006
20
-3.5
30
0
11
61.332063
21
-0.325002
31
0
39
0
210
0
220
0
230
1
0
LINE
5
14F
100
AcDbEntity
8
2
62
256
6
ByLayer
370
13
48
1
60
0
100
AcDbLine
10
61.75006
20
-3.5
30
0
11
62.168057
21
-0.324998
31
0
39
0
210
0
220
0
230
1
0
LINE
5
150
100
AcDbEntity
8
2
62
256
6
ByLayer
370
13
48
1
60
0
100
AcDbLine
10
61.332063
20
-0.325002
30
0
11
62.168057
21
-0.324998
31
0
39
0
210
0
220
0
230
1
0
LINE
5
151
100
AcDbEntity
8
2
62
256
6
ByLayer
370
13
48
1
60
0
100
AcDbLine
10
61.75006
20
3.5
30
0
11
62.168057
21
0.325002
31
0
39
0
210
0
220
0
230
1
0
LINE
5
152
100
AcDbEntity
8
2
62
256
6
ByLayer
370
13
48
1
60
0
100
AcDbLine
10
61.75006
20
3.5
30
0
11
61.332063
21
0.324998
31
0
39
0
210
0
220
0
230
1
0
LINE
5
153
100
AcDbEntity
8
2
62
256
6
ByLayer
370
13
48
1
60
0
100
AcDbLine
10
62.168057
20
0.325002
30
0
11
61.332063
21
0.324998
31
0
39
0
210
0
220
0
230
1
0
ENDBLK
5
155
100
AcDbEntity
8
0
100
AcDbBlockEnd
0
BLOCK
5
15A
100
AcDbEntity
8
0
100
AcDbBlockBegin
2
*D6
70
1
10
0
20
0
30
0
3
*D6
0
LINE
5
15C
100
AcDbEntity
8
0
62
256
6
ByLayer
370
-2
48
1
60
0
100
AcDbLine
10
-37.5875
20
4
30
0
11
-42.42494
21
4
31
0
39
0
210
0
220
0
230
1
0
LINE
5
15D
100
AcDbEntity
8
0
62
256
6
ByLayer
370
-2
48
1
60
0
100
AcDbLine
10
-37.5875
20
-4
30
0
11
-42.42494
21
-4
31
0
39
0
210
0
220
0
230
1
0
LINE
5
15E
100
AcDbEntity
8
0
62
256
6
ByLayer
370
-2
48
1
60
0
100
AcDbLine
10
-39.24994
20
4
30
0
11
-39.24994
21
24.830487
31
0
39
0
210
0
220
0
230
1
0
LINE
5
15F
100
AcDbEntity
8
0
62
256
6
ByLayer
370
-2
48
1
60
0
100
AcDbLine
10
-39.24994
20
7.175
30
0
11
-39.24994
21
10.35
31
0
39
0
210
0
220
0
230
1
0
LINE
5
160
100
AcDbEntity
8
0
62
256
6
ByLayer
370
-2
48
1
60
0
100
AcDbLine
10
-39.24994
20
-7.175
30
0
11
-39.24994
21
-10.35
31
0
39
0
210
0
220
0
230
1
0
SOLID
5
161
100
AcDbEntity
8
0
62
256
6
ByLayer
370
-1
48
1
60
0
100
AcDbTrace
10
-39.779107
20
7.175
30
0
11
-38.720773
21
7.175
31
0
12
-39.24994
22
4
32
0
13
-39.24994
23
4
33
0
39
0
210
0
220
0
230
1
0
SOLID
5
162
100
AcDbEntity
8
0
62
256
6
ByLayer
370
-1
48
1
60
0
100
AcDbTrace
10
-38.720773
20
-7.175
30
0
11
-39.779107
21
-7.175
31
0
12
-39.24994
22
-4
32
0
13
-39.24994
23
-4
33
0
39
0
210
0
220
0
230
1
0
MTEXT
5
163
100
AcDbEntity
8
0
62
256
6
ByLayer
370
18
48
1
60
0
100
AcDbMText
10
-46.556441
20
18.10734
30
0
210
0
220
0
230
1
1
\A1;8
40
3.50012
41
0
44
1
50
90
71
5
72
5
7
iso_b_vert
0
POINT
5
164
100
AcDbEntity
8
Defpoints
62
0
6
ByLayer
370
-1
48
1
60
0
100
AcDbPoint
10
-36
20
4
30
0
39
0
210
0
220
0
230
1
50
360
0
POINT
5
165
100
AcDbEntity
8
Defpoints
62
0
6
ByLayer
370
-1
48
1
60
0
100
AcDbPoint
10
-36
20
-4
30
0
39
0
210
0
220
0
230
1
50
360
0
POINT
5
166
100
AcDbEntity
8
Defpoints
62
0
6
ByLayer
370
-1
48
1
60
0
100
AcDbPoint
10
-39.24994
20
-4
30
0
39
0
210
0
220
0
230
1
50
360
0
ENDBLK
5
15B
100
AcDbEntity
8
0
100
AcDbBlockEnd
0
BLOCK
5
172
100
AcDbEntity
8
0
100
AcDbBlockBegin
2
_U2
70
0
10
0
20
0
30
0
3
_U2
0
MTEXT
5
168
100
AcDbEntity
8
SK2
62
256
6
ByLayer
370
18
48
1
60
0
100
AcDbMText
10
-39.939597
20
14.157505
30
0
210
0
220
0
230
1
1
\W0.7346;8.00
40
3.50012
41
0
44
1.084337
50
90
71
7
72
5
7
iso_b_vert
0
LINE
5
169
100
AcDbEntity
8
SK2
62
256
6
ByLayer
370
13
48
1
60
0
100
AcDbLine
10
-37.5875
20
4
30
0
11
-42.42494
21
4
31
0
39
0
210
0
220
0
230
1
0
LINE
5
16A
100
AcDbEntity
8
SK2
62
256
6
ByLayer
370
13
48
1
60
0
100
AcDbLine
10
-37.5875
20
-4
30
0
11
-42.42494
21
-4
31
0
39
0
210
0
220
0
230
1
0
LINE
5
16B
100
AcDbEntity
8
SK2
62
256
6
ByLayer
370
13
48
1
60
0
100
AcDbLine
10
-39.24994
20
-4
30
0
11
-39.24994
21
22.21468
31
0
39
0
210
0
220
0
230
1
0
LINE
5
16C
100
AcDbEntity
8
SK2
62
256
6
ByLayer
370
13
48
1
60
0
100
AcDbLine
10
-39.24994
20
4
30
0
11
-38.831943
21
0.825002
31
0
39
0
210
0
220
0
230
1
0
LINE
5
16D
100
AcDbEntity
8
SK2
62
256
6
ByLayer
370
13
48
1
60
0
100
AcDbLine
10
-39.24994
20
4
30
0
11
-39.667937
21
0.824998
31
0
39
0
210
0
220
0
230
1
0
LINE
5
16E
100
AcDbEntity
8
SK2
62
256
6
ByLayer
370
13
48
1
60
0
100
AcDbLine
10
-38.831943
20
0.825002
30
0
11
-39.667937
21
0.824998
31
0
39
0
210
0
220
0
230
1
0
LINE
5
16F
100
AcDbEntity
8
SK2
62
256
6
ByLayer
370
13
48
1
60
0
100
AcDbLine
10
-39.24994
20
-4
30
0
11
-39.667937
21
-0.825002
31
0
39
0
210
0
220
0
230
1
0
LINE
5
170
100
AcDbEntity
8
SK2
62
256
6
ByLayer
370
13
48
1
60
0
100
AcDbLine
10
-39.24994
20
-4
30
0
11
-38.831943
21
-0.824998
31
0
39
0
210
0
220
0
230
1
0
LINE
5
171
100
AcDbEntity
8
SK2
62
256
6
ByLayer
370
13
48
1
60
0
100
AcDbLine
10
-39.667937
20
-0.825002
30
0
11
-38.831943
21
-0.824998
31
0
39
0
210
0
220
0
230
1
0
ENDBLK
5
173
100
AcDbEntity
8
0
100
AcDbBlockEnd
0
BLOCK
5
178
100
AcDbEntity
8
0
100
AcDbBlockBegin
2
*D8
70
1
10
0
20
0
30
0
3
*D8
0
LINE
5
17A
100
AcDbEntity
8
0
62
256
6
ByLayer
370
-2
48
1
60
0
100
AcDbLine
10
-36
20
-5.5875
30
0
11
-36
21
-30.67512
31
0
39
0
210
0
220
0
230
1
0
LINE
5
17B
100
AcDbEntity
8
0
62
256
6
ByLayer
370
-2
48
1
60
0
100
AcDbLine
10
0
20
-5.5875
30
0
11
0
21
-30.67512
31
0
39
0
210
0
220
0
230
1
0
LINE
5
17C
100
AcDbEntity
8
0
62
256
6
ByLayer
370
-2
48
1
60
0
100
AcDbLine
10
-32.825
20
-27.50012
30
0
11
-3.175
21
-27.50012
31
0
39
0
210
0
220
0
230
1
0
SOLID
5
17D
100
AcDbEntity
8
0
62
256
6
ByLayer
370
-1
48
1
60
0
100
AcDbTrace
10
-32.825
20
-26.970953
30
0
11
-32.825
21
-28.029287
31
0
12
-36
22
-27.50012
32
0
13
-36
23
-27.50012
33
0
39
0
210
0
220
0
230
1
0
SOLID
5
17E
100
AcDbEntity
8
0
62
256
6
ByLayer
370
-1
48
1
60
0
100
AcDbTrace
10
-3.175
20
-28.029287
30
0
11
-3.175
21
-26.970953
31
0
12
0
22
-27.50012
32
0
13
0
23
-27.50012
33
0
39
0
210
0
220
0
230
1
0
MTEXT
5
17F
100
AcDbEntity
8
0
62
256
6
ByLayer
370
18
48
1
60
0
100
AcDbMText
10
-18
20
-20.193619
30
0
210
0
220
0
230
1
1
\A1;36
40
3.50012
41
0
44
1
50
0
71
5
72
5
7
iso_b_vert
0
POINT
5
180
100
AcDbEntity
8
Defpoints
62
0
6
ByLayer
370
-1
48
1
60
0
100
AcDbPoint
10
-36
20
-4
30
0
39
0
210
0
220
0
230
1
50
360
0
POINT
5
181
100
AcDbEntity
8
Defpoints
62
0
6
ByLayer
370
-1
48
1
60
0
100
AcDbPoint
10
0
20
-4
30
0
39
0
210
0
220
0
230
1
50
360
0
POINT
5
182
100
AcDbEntity
8
Defpoints
62
0
6
ByLayer
370
-1
48
1
60
0
100
AcDbPoint
10
0
20
-27.50012
30
0
39
0
210
0
220
0
230
1
50
360
0
ENDBLK
5
179
100
AcDbEntity
8
0
100
AcDbBlockEnd
0
BLOCK
5
18E
100
AcDbEntity
8
0
100
AcDbBlockBegin
2
_U3
70
0
10
0
20
0
30
0
3
_U3
0
MTEXT
5
184
100
AcDbEntity
8
SK2
62
256
6
ByLayer
370
18
48
1
60
0
100
AcDbMText
10
-23.229611
20
-26.467451
30
0
210
0
220
0
230
1
1
\W0.7468;36.00
40
3.50012
41
0
44
1.084337
50
0
71
7
72
5
7
iso_b_vert
0
LINE
5
185
100
AcDbEntity
8
SK2
62
256
6
ByLayer
370
13
48
1
60
0
100
AcDbLine
10
-36
20
-5.5875
30
0
11
-36
21
-30.67512
31
0
39
0
210
0
220
0
230
1
0
LINE
5
186
100
AcDbEntity
8
SK2
62
256
6
ByLayer
370
13
48
1
60
0
100
AcDbLine
10
0
20
-5.5875
30
0
11
0
21
-30.67512
31
0
39
0
210
0
220
0
230
1
0
LINE
5
187
100
AcDbEntity
8
SK2
62
256
6
ByLayer
370
13
48
1
60
0
100
AcDbLine
10
-36
20
-27.50012
30
0
11
0
21
-27.50012
31
0
39
0
210
0
220
0
230
1
0
LINE
5
188
100
AcDbEntity
8
SK2
62
256
6
ByLayer
370
13
48
1
60
0
100
AcDbLine
10
-36
20
-27.50012
30
0
11
-32.825002
21
-27.082123
31
0
39
0
210
0
220
0
230
1
0
LINE
5
189
100
AcDbEntity
8
SK2
62
256
6
ByLayer
370
13
48
1
60
0
100
AcDbLine
10
-36
20
-27.50012
30
0
11
-32.824998
21
-27.918117
31
0
39
0
210
0
220
0
230
1
0
LINE
5
18A
100
AcDbEntity
8
SK2
62
256
6
ByLayer
370
13
48
1
60
0
100
AcDbLine
10
-32.825002
20
-27.082123
30
0
11
-32.824998
21
-27.918117
31
0
39
0
210
0
220
0
230
1
0
LINE
5
18B
100
AcDbEntity
8
SK2
62
256
6
ByLayer
370
13
48
1
60
0
100
AcDbLine
10
0
20
-27.50012
30
0
11
-3.174998
21
-27.918117
31
0
39
0
210
0
220
0
230
1
0
LINE
5
18C
100
AcDbEntity
8
SK2
62
256
6
ByLayer
370
13
48
1
60
0
100
AcDbLine
10
0
20
-27.50012
30
0
11
-3.175002
21
-27.082123
31
0
39
0
210
0
220
0
230
1
0
LINE
5
18D
100
AcDbEntity
8
SK2
62
256
6
ByLayer
370
13
48
1
60
0
100
AcDbLine
10
-3.174998
20
-27.918117
30
0
11
-3.175002
21
-27.082123
31
0
39
0
210
0
220
0
230
1
0
ENDBLK
5
18F
100
AcDbEntity
8
0
100
AcDbBlockEnd
0
BLOCK
5
194
100
AcDbEntity
8
0
100
AcDbBlockBegin
2
*D10
70
1
10
0
20
0
30
0
3
*D10
0
LINE
5
196
100
AcDbEntity
8
0
62
256
6
ByLayer
370
-2
48
1
60
0
100
AcDbLine
10
2
20
2.4125
30
0
11
2
21
-21.92482
31
0
39
0
210
0
220
0
230
1
0
LINE
5
197
100
AcDbEntity
8
0
62
256
6
ByLayer
370
-2
48
1
60
0
100
AcDbLine
10
55
20
-1.5875
30
0
11
55
21
-21.92482
31
0
39
0
210
0
220
0
230
1
0
LINE
5
198
100
AcDbEntity
8
0
62
256
6
ByLayer
370
-2
48
1
60
0
100
AcDbLine
10
5.175
20
-18.74982
30
0
11
51.825
21
-18.74982
31
0
39
0
210
0
220
0
230
1
0
SOLID
5
199
100
AcDbEntity
8
0
62
256
6
ByLayer
370
-1
48
1
60
0
100
AcDbTrace
10
5.175
20
-18.220653
30
0
11
5.175
21
-19.278987
31
0
12
2
22
-18.74982
32
0
13
2
23
-18.74982
33
0
39
0
210
0
220
0
230
1
0
SOLID
5
19A
100
AcDbEntity
8
0
62
256
6
ByLayer
370
-1
48
1
60
0
100
AcDbTrace
10
51.825
20
-19.278987
30
0
11
51.825
21
-18.220653
31
0
12
55
22
-18.74982
32
0
13
55
23
-18.74982
33
0
39
0
210
0
220
0
230
1
0
MTEXT
5
19B
100
AcDbEntity
8
0
62
256
6
ByLayer
370
18
48
1
60
0
100
AcDbMText
10
28.5
20
-11.443319
30
0
210
0
220
0
230
1
1
\A1;53
40
3.50012
41
0
44
1
50
0
71
5
72
5
7
iso_b_vert
0
POINT
5
19C
100
AcDbEntity
8
Defpoints
62
0
6
ByLayer
370
-1
48
1
60
0
100
AcDbPoint
10
2
20
4
30
0
39
0
210
0
220
0
230
1
50
360
0
POINT
5
19D
100
AcDbEntity
8
Defpoints
62
0
6
ByLayer
370
-1
48
1
60
0
100
AcDbPoint
10
55
20
0
30
0
39
0
210
0
220
0
230
1
50
360
0
POINT
5
19E
100
AcDbEntity
8
Defpoints
62
0
6
ByLayer
370
-1
48
1
60
0
100
AcDbPoint
10
55
20
-18.74982
30
0
39
0
210
0
220
0
230
1
50
360
0
ENDBLK
5
195
100
AcDbEntity
8
0
100
AcDbBlockEnd
0
BLOCK
5
1AA
100
AcDbEntity
8
0
100
AcDbBlockBegin
2
_U4
70
0
10
0
20
0
30
0
3
_U4
0
MTEXT
5
1A0
100
AcDbEntity
8
SK2
62
256
6
ByLayer
370
18
48
1
60
0
100
AcDbMText
10
23.270389
20
-17.717151
30
0
210
0
220
0
230
1
1
\W0.7468;53.00
40
3.50012
41
0
44
1.084337
50
0
71
7
72
5
7
iso_b_vert
0
LINE
5
1A1
100
AcDbEntity
8
SK2
62
256
6
ByLayer
370
13
48
1
60
0
100
AcDbLine
10
2
20
2.4125
30
0
11
2
21
-21.92482
31
0
39
0
210
0
220
0
230
1
0
LINE
5
1A2
100
AcDbEntity
8
SK2
62
256
6
ByLayer
370
13
48
1
60
0
100
AcDbLine
10
55
20
-1.5875
30
0
11
55
21
-21.92482
31
0
39
0
210
0
220
0
230
1
0
LINE
5
1A3
100
AcDbEntity
8
SK2
62
256
6
ByLayer
370
13
48
1
60
0
100
AcDbLine
10
2
20
-18.74982
30
0
11
55
21
-18.74982
31
0
39
0
210
0
220
0
230
1
0
LINE
5
1A4
100
AcDbEntity
8
SK2
62
256
6
ByLayer
370
13
48
1
60
0
100
AcDbLine
10
2
20
-18.74982
30
0
11
5.174998
21
-18.331823
31
0
39
0
210
0
220
0
230
1
0
LINE
5
1A5
100
AcDbEntity
8
SK2
62
256
6
ByLayer
370
13
48
1
60
0
100
AcDbLine
10
2
20
-18.74982
30
0
11
5.175002
21
-19.167817
31
0
39
0
210
0
220
0
230
1
0
LINE
5
1A6
100
AcDbEntity
8
SK2
62
256
6
ByLayer
370
13
48
1
60
0
100
AcDbLine
10
5.174998
20
-18.331823
30
0
11
5.175002
21
-19.167817
31
0
39
0
210
0
220
0
230
1
0
LINE
5
1A7
100
AcDbEntity
8
SK2
62
256
6
ByLayer
370
13
48
1
60
0
100
AcDbLine
10
55
20
-18.74982
30
0
11
51.825002
21
-19.167817
31
0
39
0
210
0
220
0
230
1
0
LINE
5
1A8
100
AcDbEntity
8
SK2
62
256
6
ByLayer
370
13
48
1
60
0
100
AcDbLine
10
55
20
-18.74982
30
0
11
51.824998
21
-18.331823
31
0
39
0
210
0
220
0
230
1
0
LINE
5
1A9
100
AcDbEntity
8
SK2
62
256
6
ByLayer
370
13
48
1
60
0
100
AcDbLine
10
51.825002
20
-19.167817
30
0
11
51.824998
21
-18.331823
31
0
39
0
210
0
220
0
230
1
0
ENDBLK
5
1AB
100
AcDbEntity
8
0
100
AcDbBlockEnd
0
BLOCK
5
1B0
100
AcDbEntity
8
0
100
AcDbBlockBegin
2
*D12
70
1
10
0
20
0
30
0
3
*D12
0
LINE
5
1B2
100
AcDbEntity
8
0
62
256
6
ByLayer
370
-2
48
1
60
0
100
AcDbLine
10
18.8
20
-5.0875
30
0
11
18.8
21
-11.32
31
0
39
0
210
0
220
0
230
1
0
LINE
5
1B3
100
AcDbEntity
8
0
62
256
6
ByLayer
370
-2
48
1
60
0
100
AcDbLine
10
55
20
-1.5875
30
0
11
55
21
-11.32
31
0
39
0
210
0
220
0
230
1
0
LINE
5
1B4
100
AcDbEntity
8
0
62
256
6
ByLayer
370
-2
48
1
60
0
100
AcDbLine
10
21.975
20
-10.82
30
0
11
51.825
21
-10.82
31
0
39
0
210
0
220
0
230
1
0
SOLID
5
1B5
100
AcDbEntity
8
0
62
256
6
ByLayer
370
-1
48
1
60
0
100
AcDbTrace
10
21.975
20
-10.290833
30
0
11
21.975
21
-11.349167
31
0
12
18.8
22
-10.82
32
0
13
18.8
23
-10.82
33
0
39
0
210
0
220
0
230
1
0
SOLID
5
1B6
100
AcDbEntity
8
0
62
256
6
ByLayer
370
-1
48
1
60
0
100
AcDbTrace
10
51.825
20
-11.349167
30
0
11
51.825
21
-10.290833
31
0
12
55
22
-10.82
32
0
13
55
23
-10.82
33
0
39
0
210
0
220
0
230
1
0
MTEXT
5
1B7
100
AcDbEntity
8
0
62
256
6
ByLayer
370
18
48
1
60
0
100
AcDbMText
10
36.9
20
-4.975
30
0
210
0
220
0
230
1
1
\A1;36.2
40
2.8
41
0
44
1
50
0
71
5
72
5
7
iso_b_vert
0
POINT
5
1B8
100
AcDbEntity
8
Defpoints
62
0
6
ByLayer
370
-1
48
1
60
0
100
AcDbPoint
10
18.8
20
-3.5
30
0
39
0
210
0
220
0
230
1
50
360
0
POINT
5
1B9
100
AcDbEntity
8
Defpoints
62
0
6
ByLayer
370
-1
48
1
60
0
100
AcDbPoint
10
55
20
0
30
0
39
0
210
0
220
0
230
1
50
360
0
POINT
5
1BA
100
AcDbEntity
8
Defpoints
62
0
6
ByLayer
370
-1
48
1
60
0
100
AcDbPoint
10
55
20
-10.82
30
0
39
0
210
0
220
0
230
1
50
360
0
ENDBLK
5
1B1
100
AcDbEntity
8
0
100
AcDbBlockEnd
0
BLOCK
5
1C6
100
AcDbEntity
8
0
100
AcDbBlockBegin
2
_U5
70
0
10
0
20
0
30
0
3
_U5
0
MTEXT
5
1BC
100
AcDbEntity
8
SK2
62
256
6
ByLayer
370
18
48
1
60
0
100
AcDbMText
10
32.716454
20
-10.973893
30
0
210
0
220
0
230
1
1
\W0.7468;36.20
40
2.8
41
0
44
1.084337
50
0
71
7
72
5
7
iso_b_vert
0
LINE
5
1BD
100
AcDbEntity
8
SK2
62
256
6
ByLayer
370
13
48
1
60
0
100
AcDbLine
10
18.8
20
-5.0875
30
0
11
18.8
21
-11.32
31
0
39
0
210
0
220
0
230
1
0
LINE
5
1BE
100
AcDbEntity
8
SK2
62
256
6
ByLayer
370
13
48
1
60
0
100
AcDbLine
10
55
20
-1.5875
30
0
11
55
21
-11.32
31
0
39
0
210
0
220
0
230
1
0
LINE
5
1BF
100
AcDbEntity
8
SK2
62
256
6
ByLayer
370
13
48
1
60
0
100
AcDbLine
10
18.8
20
-10.82
30
0
11
55
21
-10.82
31
0
39
0
210
0
220
0
230
1
0
LINE
5
1C0
100
AcDbEntity
8
SK2
62
256
6
ByLayer
370
13
48
1
60
0
100
AcDbLine
10
18.8
20
-10.82
30
0
11
21.974998
21
-10.402003
31
0
39
0
210
0
220
0
230
1
0
LINE
5
1C1
100
AcDbEntity
8
SK2
62
256
6
ByLayer
370
13
48
1
60
0
100
AcDbLine
10
18.8
20
-10.82
30
0
11
21.975002
21
-11.237997
31
0
39
0
210
0
220
0
230
1
0
LINE
5
1C2
100
AcDbEntity
8
SK2
62
256
6
ByLayer
370
13
48
1
60
0
100
AcDbLine
10
21.974998
20
-10.402003
30
0
11
21.975002
21
-11.237997
31
0
39
0
210
0
220
0
230
1
0
LINE
5
1C3
100
AcDbEntity
8
SK2
62
256
6
ByLayer
370
13
48
1
60
0
100
AcDbLine
10
55
20
-10.82
30
0
11
51.825002
21
-11.237997
31
0
39
0
210
0
220
0
230
1
0
LINE
5
1C4
100
AcDbEntity
8
SK2
62
256
6
ByLayer
370
13
48
1
60
0
100
AcDbLine
10
55
20
-10.82
30
0
11
51.824998
21
-10.402003
31
0
39
0
210
0
220
0
230
1
0
LINE
5
1C5
100
AcDbEntity
8
SK2
62
256
6
ByLayer
370
13
48
1
60
0
100
AcDbLine
10
51.825002
20
-11.237997
30
0
11
51.824998
21
-10.402003
31
0
39
0
210
0
220
0
230
1
0
ENDBLK
5
1C7
100
AcDbEntity
8
0
100
AcDbBlockEnd
0
BLOCK
5
1CC
100
AcDbEntity
8
0
100
AcDbBlockBegin
2
*D14
70
1
10
0
20
0
30
0
3
*D14
0
LINE
5
1CE
100
AcDbEntity
8
0
62
256
6
ByLayer
370
-2
48
1
60
0
100
AcDbLine
10
-36
20
-1.5875
30
0
11
-36
21
-40.67512
31
0
39
0
210
0
220
0
230
1
0
LINE
5
1CF
100
AcDbEntity
8
0
62
256
6
ByLayer
370
-2
48
1
60
0
100
AcDbLine
10
55
20
-1.5875
30
0
11
55
21
-40.67512
31
0
39
0
210
0
220
0
230
1
0
LINE
5
1D0
100
AcDbEntity
8
0
62
256
6
ByLayer
370
-2
48
1
60
0
100
AcDbLine
10
-32.825
20
-37.50012
30
0
11
51.825
21
-37.50012
31
0
39
0
210
0
220
0
230
1
0
SOLID
5
1D1
100
AcDbEntity
8
0
62
256
6
ByLayer
370
-1
48
1
60
0
100
AcDbTrace
10
-32.825
20
-36.970953
30
0
11
-32.825
21
-38.029287
31
0
12
-36
22
-37.50012
32
0
13
-36
23
-37.50012
33
0
39
0
210
0
220
0
230
1
0
SOLID
5
1D2
100
AcDbEntity
8
0
62
256
6
ByLayer
370
-1
48
1
60
0
100
AcDbTrace
10
51.825
20
-38.029287
30
0
11
51.825
21
-36.970953
31
0
12
55
22
-37.50012
32
0
13
55
23
-37.50012
33
0
39
0
210
0
220
0
230
1
0
MTEXT
5
1D3
100
AcDbEntity
8
0
62
256
6
ByLayer
370
18
48
1
60
0
100
AcDbMText
10
9.5
20
-30.19362
30
0
210
0
220
0
230
1
1
\A1;91
40
3.50012
41
0
44
1
50
0
71
5
72
5
7
iso_b_vert
0
POINT
5
1D4
100
AcDbEntity
8
Defpoints
62
0
6
ByLayer
370
-1
48
1
60
0
100
AcDbPoint
10
-36
20
0
30
0
39
0
210
0
220
0
230
1
50
360
0
POINT
5
1D5
100
AcDbEntity
8
Defpoints
62
0
6
ByLayer
370
-1
48
1
60
0
100
AcDbPoint
10
55
20
0
30
0
39
0
210
0
220
0
230
1
50
360
0
POINT
5
1D6
100
AcDbEntity
8
Defpoints
62
0
6
ByLayer
370
-1
48
1
60
0
100
AcDbPoint
10
55
20
-37.50012
30
0
39
0
210
0
220
0
230
1
50
360
0
ENDBLK
5
1CD
100
AcDbEntity
8
0
100
AcDbBlockEnd
0
BLOCK
5
1E2
100
AcDbEntity
8
0
100
AcDbBlockBegin
2
_U6
70
0
10
0
20
0
30
0
3
_U6
0
MTEXT
5
1D8
100
AcDbEntity
8
SK2
62
256
6
ByLayer
370
18
48
1
60
0
100
AcDbMText
10
4.707837
20
-36.467451
30
0
210
0
220
0
230
1
1
\W0.6864;91.00
40
3.50012
41
0
44
1.084337
50
0
71
7
72
5
7
iso_b_vert
0
LINE
5
1D9
100
AcDbEntity
8
SK2
62
256
6
ByLayer
370
13
48
1
60
0
100
AcDbLine
10
-36
20
-1.5875
30
0
11
-36
21
-40.67512
31
0
39
0
210
0
220
0
230
1
0
LINE
5
1DA
100
AcDbEntity
8
SK2
62
256
6
ByLayer
370
13
48
1
60
0
100
AcDbLine
10
55
20
-1.5875
30
0
11
55
21
-40.67512
31
0
39
0
210
0
220
0
230
1
0
LINE
5
1DB
100
AcDbEntity
8
SK2
62
256
6
ByLayer
370
13
48
1
60
0
100
AcDbLine
10
-36
20
-37.50012
30
0
11
55
21
-37.50012
31
0
39
0
210
0
220
0
230
1
0
LINE
5
1DC
100
AcDbEntity
8
SK2
62
256
6
ByLayer
370
13
48
1
60
0
100
AcDbLine
10
-36
20
-37.50012
30
0
11
-32.825002
21
-37.082123
31
0
39
0
210
0
220
0
230
1
0
LINE
5
1DD
100
AcDbEntity
8
SK2
62
256
6
ByLayer
370
13
48
1
60
0
100
AcDbLine
10
-36
20
-37.50012
30
0
11
-32.824998
21
-37.918117
31
0
39
0
210
0
220
0
230
1
0
LINE
5
1DE
100
AcDbEntity
8
SK2
62
256
6
ByLayer
370
13
48
1
60
0
100
AcDbLine
10
-32.825002
20
-37.082123
30
0
11
-32.824998
21
-37.918117
31
0
39
0
210
0
220
0
230
1
0
LINE
5
1DF
100
AcDbEntity
8
SK2
62
256
6
ByLayer
370
13
48
1
60
0
100
AcDbLine
10
55
20
-37.50012
30
0
11
51.825002
21
-37.918117
31
0
39
0
210
0
220
0
230
1
0
LINE
5
1E0
100
AcDbEntity
8
SK2
62
256
6
ByLayer
370
13
48
1
60
0
100
AcDbLine
10
55
20
-37.50012
30
0
11
51.824998
21
-37.082123
31
0
39
0
210
0
220
0
230
1
0
LINE
5
1E1
100
AcDbEntity
8
SK2
62
256
6
ByLayer
370
13
48
1
60
0
100
AcDbLine
10
51.825002
20
-37.918117
30
0
11
51.824998
21
-37.082123
31
0
39
0
210
0
220
0
230
1
0
ENDBLK
5
1E3
100
AcDbEntity
8
0
100
AcDbBlockEnd
0
ENDSEC
0
SECTION
2
ENTITIES
0
ARC
5
AE
100
AcDbEntity
8
1
62
256
6
ByLayer
370
18
48
1
60
0
100
AcDbCircle
39
0
10
1.192123
20
4.267165
30
0
40
0.799999999999999
210
0
220
0
230
1
100
AcDbArc
50
221.834278
51
270.03581
0
ARC
5
AF
100
AcDbEntity
8
1
62
256
6
ByLayer
370
18
48
1
60
0
100
AcDbCircle
39
0
10
1.192123
20
-4.267165
30
0
40
0.799999999999999
210
0
220
0
230
1
100
AcDbArc
50
89.96419
51
138.165722
0
ARC
5
B0
100
AcDbEntity
8
1
62
256
6
ByLayer
370
18
48
1
60
0
100
AcDbCircle
39
0
10
0
20
3.2
30
0
40
0.799999999999998
210
0
220
0
230
1
100
AcDbArc
50
41.834279
51
90
0
ARC
5
B1
100
AcDbEntity
8
1
62
256
6
ByLayer
370
18
48
1
60
0
100
AcDbCircle
39
0
10
0
20
-3.2
30
0
40
0.799999999999998
210
0
220
0
230
1
100
AcDbArc
50
270
51
318.165721
0
ARC
5
B2
100
AcDbEntity
8
SK2
62
256
6
ByLayer
370
13
48
1
60
0
100
AcDbCircle
39
0
10
55
20
0
30
0
40
20
210
0
220
0
230
1
100
AcDbArc
50
9.606349
51
69.99994
0
ARC
5
B3
100
AcDbEntity
8
SK2
62
256
6
ByLayer
370
13
48
1
60
0
100
AcDbCircle
39
0
10
55
20
0
30
0
40
20
210
0
220
0
230
1
100
AcDbArc
50
290.00006
51
350.393651
0
ELLIPSE
5
B4
100
AcDbEntity
8
1
62
256
6
ByLayer
370
18
48
1
60
0
100
AcDbEllipse
10
3.562869
20
-1.500261
30
0
11
0.00204129544928533
21
0.00978943884442448
31
0
210
0
220
0
230
1
40
0.532382
41
1.25345717702985
42
2.63475133636114
0
ELLIPSE
5
B5
100
AcDbEntity
8
1
62
256
6
ByLayer
370
18
48
1
60
0
100
AcDbEllipse
10
3.64099
20
2.565801
30
0
11
-0.00287300009944631
21
-0.00957840646603502
31
0
210
0
220
0
230
1
40
0.343193
41
0.735646905472525
42
2.30061221819848
0
ELLIPSE
5
B6
100
AcDbEntity
8
1
62
256
6
ByLayer
370
18
48
1
60
0
100
AcDbEllipse
10
3.601863
20
-1.512805
30
0
11
-0.00390969210570224
21
-0.00920403757264222
31
0
210
0
220
0
230
1
40
0.19573
41
-2.00678805636758
42
-0.437787208399665
0
ELLIPSE
5
B7
100
AcDbEntity
8
1
62
256
6
ByLayer
370
18
48
1
60
0
100
AcDbEllipse
10
3.602408
20
2.571249
30
0
11
-1.17941514568456E-05
21
0.00999999304489715
31
0
210
0
220
0
230
1
40
0.011063
41
-2.46235467456631
42
-0.891656025718888
0
POINT
5
70
100
AcDbEntity
8
80
62
256
6
ByLayer
370
18
48
1
60
0
100
AcDbPoint
10
0
20
0
30
0
39
0
210
0
220
0
230
1
50
360
0
POINT
5
72
100
AcDbEntity
8
81
62
256
6
ByLayer
370
18
48
1
60
0
100
AcDbPoint
10
55
20
0
30
0
39
0
210
0
220
0
230
1
50
360
0
POINT
5
74
100
AcDbEntity
8
1
62
256
6
ByLayer
370
18
48
1
60
0
100
AcDbPoint
10
-36
20
0
30
0
39
0
210
0
220
0
230
1
50
360
0
POINT
5
76
100
AcDbEntity
8
1
62
256
6
ByLayer
370
18
48
1
60
1
100
AcDbPoint
10
0
20
-4
30
0
39
0
210
0
220
0
230
1
50
360
0
POINT
5
77
100
AcDbEntity
8
1
62
256
6
ByLayer
370
18
48
1
60
1
100
AcDbPoint
10
55
20
0
30
0
39
0
210
0
220
0
230
1
50
360
0
POINT
5
78
100
AcDbEntity
8
1
62
256
6
ByLayer
370
18
48
1
60
1
100
AcDbPoint
10
53.7261
20
-3.5
30
0
39
0
210
0
220
0
230
1
50
360
0
POINT
5
79
100
AcDbEntity
8
1
62
256
6
ByLayer
370
18
48
1
60
1
100
AcDbPoint
10
53.7261
20
3.5
30
0
39
0
210
0
220
0
230
1
50
360
0
POINT
5
7A
100
AcDbEntity
8
1
62
256
6
ByLayer
370
18
48
1
60
1
100
AcDbPoint
10
-36
20
4
30
0
39
0
210
0
220
0
230
1
50
360
0
POINT
5
7B
100
AcDbEntity
8
1
62
256
6
ByLayer
370
18
48
1
60
1
100
AcDbPoint
10
-36
20
-4
30
0
39
0
210
0
220
0
230
1
50
360
0
POINT
5
7C
100
AcDbEntity
8
1
62
256
6
ByLayer
370
18
48
1
60
1
100
AcDbPoint
10
-36
20
-4
30
0
39
0
210
0
220
0
230
1
50
360
0
POINT
5
7D
100
AcDbEntity
8
1
62
256
6
ByLayer
370
18
48
1
60
1
100
AcDbPoint
10
0
20
-4
30
0
39
0
210
0
220
0
230
1
50
360
0
POINT
5
7E
100
AcDbEntity
8
1
62
256
6
ByLayer
370
18
48
1
60
1
100
AcDbPoint
10
2
20
4
30
0
39
0
210
0
220
0
230
1
50
360
0
POINT
5
7F
100
AcDbEntity
8
1
62
256
6
ByLayer
370
18
48
1
60
1
100
AcDbPoint
10
55
20
0
30
0
39
0
210
0
220
0
230
1
50
360
0
POINT
5
80
100
AcDbEntity
8
1
62
256
6
ByLayer
370
18
48
1
60
1
100
AcDbPoint
10
18.8
20
-3.5
30
0
39
0
210
0
220
0
230
1
50
360
0
POINT
5
81
100
AcDbEntity
8
1
62
256
6
ByLayer
370
18
48
1
60
1
100
AcDbPoint
10
55
20
0
30
0
39
0
210
0
220
0
230
1
50
360
0
POINT
5
82
100
AcDbEntity
8
1
62
256
6
ByLayer
370
18
48
1
60
1
100
AcDbPoint
10
-36
20
0
30
0
39
0
210
0
220
0
230
1
50
360
0
POINT
5
83
100
AcDbEntity
8
1
62
256
6
ByLayer
370
18
48
1
60
1
100
AcDbPoint
10
55
20
0
30
0
39
0
210
0
220
0
230
1
50
360
0
SPLINE
5
B8
100
AcDbEntity
8
1
62
256
6
ByLayer
370
18
48
1
60
0
100
AcDbSpline
70
4
71
3
72
26
73
22
40
0
40
0
40
0
40
0
40
0.0879211282649371
40
0.0879211282649371
40
0.175842256529874
40
0.175842256529874
40
0.351684513059747
40
0.351684513059747
40
0.439605641324683
40
0.439605641324683
40
0.52752676958962
40
0.52752676958962
40
0.615447897854556
40
0.615447897854556
40
0.703369026119493
40
0.703369026119493
40
0.879211282649368
40
0.879211282649368
40
0.967132410914307
40
0.967132410914307
40
1
40
1
40
1
40
1
41
1
10
20
20
0.530776572003077
30
0
41
1
10
20.3518813772265
20
0.356053008604334
30
0
41
1
10
20.7041788777914
20
0.17895754263165
30
0
41
1
10
21.4060461328091
20
-0.173931294141028
30
0
41
1
10
21.7558687130951
20
-0.349836499007097
30
0
41
1
10
22.8044790385296
20
-0.871025034248902
30
1E-16
41
1
10
23.5023370035576
20
-1.20991575102465
30
1E-16
41
1
10
24.5568912974983
20
-1.68659176034987
30
1E-16
41
1
10
24.9087253612493
20
-1.83974129876125
30
1E-16
41
1
10
25.6104594501062
20
-2.12998310954183
30
1E-16
41
1
10
25.960990787504
20
-2.26735464440037
30
1E-16
41
1
10
26.6630224389095
20
-2.52401913599479
30
2E-16
41
1
10
27.0154918521916
20
-2.64359882568604
30
2E-16
41
1
10
27.7165825501796
20
-2.86024203608636
30
0
41
1
10
28.0654678505762
20
-2.95745514843307
30
0
41
1
10
29.109563649214
20
-3.21384399176139
30
0
41
1
10
29.8021175948691
20
-3.33781937822144
30
0
41
1
10
30.8449739667115
20
-3.44679777016702
30
0
41
1
10
31.1932618688654
20
-3.47030469381795
30
0
41
1
10
31.6737840926955
20
-3.48433687067268
30
0
41
1
10
31.8048801918567
20
-3.48628578707877
30
0
41
1
10
31.9361380496064
20
-3.48636103958796
30
0
0
SPLINE
5
B9
100
AcDbEntity
8
1
62
256
6
ByLayer
370
18
48
1
60
0
100
AcDbSpline
70
4
71
3
72
8
73
4
40
0
40
0
40
0
40
0
40
1
40
1
40
1
40
1
41
1
10
52.7601615211703
20
3.46797736445444
30
0
41
1
10
53.0293459579125
20
3.48633141638558
30
0
41
1
10
53.2987906547973
20
3.49684950368049
30
0
41
1
10
53.5688617817253
20
3.49937787522046
30
0
0
SPLINE
5
BA
100
AcDbEntity
8
1
62
256
6
ByLayer
370
18
48
1
60
0
100
AcDbSpline
70
4
71
3
72
14
73
10
40
0
40
0
40
0
40
0
40
0.273571980863088
40
0.273571980863088
40
0.531161878141476
40
0.531161878141476
40
0.788751775419864
40
0.788751775419864
40
1
40
1
40
1
40
1
41
1
10
6.83056866685766
20
3.09217022519789
30
0
41
1
10
6.80202092314079
20
2.99523504523828
30
0
41
1
10
6.77157704515685
20
2.89889745645456
30
0
41
1
10
6.71004683552496
20
2.71267120058045
30
1E-16
41
1
10
6.67947579287221
20
2.62263405269303
30
1E-16
41
1
10
6.61425437251864
20
2.4438184607084
30
1E-16
41
1
10
6.57947228040507
20
2.35518281837164
30
1E-16
41
1
10
6.51378377618238
20
2.19669975337894
30
1E-16
41
1
10
6.48339259509348
20
2.12612197059477
30
1E-16
41
1
10
6.451587981926
20
2.05656196026902
30
1E-16
0
SPLINE
5
BB
100
AcDbEntity
8
1
62
256
6
ByLayer
370
18
48
1
60
0
100
AcDbSpline
70
4
71
3
72
12
73
8
40
0
40
0
40
0
40
0
40
0.500000000000034
40
0.500000000000034
40
0.750000000000017
40
0.750000000000017
40
1
40
1
40
1
40
1
41
1
10
3.50170015746463
20
2.58380755398349
30
-2E-16
41
1
10
3.5017001574646
20
2.57934698619738
30
-2E-16
41
1
10
3.50945770200545
20
2.57468207552935
30
-2E-16
41
1
10
3.53483708015642
20
2.56867207556735
30
-2E-16
41
1
10
3.54561085704711
20
2.56686615098371
30
-2E-16
41
1
10
3.57167888076236
20
2.5642268827088
30
-2E-16
41
1
10
3.58685888467147
20
2.56344217573886
30
-2E-16
41
1
10
3.60248689216095
20
2.563468541568
30
-2E-16
0
SPLINE
5
BC
100
AcDbEntity
8
1
62
256
6
ByLayer
370
18
48
1
60
0
100
AcDbSpline
70
4
71
3
72
24
73
20
40
0
40
0
40
0
40
0
40
0.0504689540286472
40
0.0504689540286472
40
0.120877570099092
40
0.120877570099092
40
0.261694802239982
40
0.261694802239982
40
0.402512034380872
40
0.402512034380872
40
0.543329266521763
40
0.543329266521763
40
0.613737882592206
40
0.613737882592206
40
0.684146498662649
40
0.684146498662649
40
0.965780962944423
40
0.965780962944423
40
1
40
1
40
1
40
1
41
1
10
33.1823733582929
20
-3.31978101263533
30
0
41
1
10
32.9937657412081
20
-3.3231741591581
30
0
41
1
10
32.8052428989232
20
-3.32289862278199
30
0
41
1
10
32.3551429699097
20
-3.31352431029058
30
0
41
1
10
32.0936168138034
20
-3.30095366544052
30
0
41
1
10
31.3100543208891
20
-3.2419605722765
30
0
41
1
10
30.7890679397579
20
-3.17500941839842
30
0
41
1
10
29.7448118027785
20
-2.98753733033286
30
0
41
1
10
29.221722174118
20
-2.86757198361417
30
0
41
1
10
28.1680492767399
20
-2.5778938663297
30
2E-16
41
1
10
27.6423660014567
20
-2.40985982814556
30
1E-16
41
1
10
26.8531209255515
20
-2.1285586089289
30
1E-16
41
1
10
26.589418115212
20
-2.02975954938819
30
1E-16
41
1
10
26.0632839564522
20
-1.82430452253959
30
1E-16
41
1
10
25.8012066146357
20
-1.71779527495443
30
1E-16
41
1
10
24.4942504531275
20
-1.16947960106907
30
1E-16
41
1
10
23.4594426747864
20
-0.680816997059566
30
0
41
1
10
22.2893255154531
20
-0.121401865075512
30
0
41
1
10
22.1624359997965
20
-0.0606414593447369
30
0
41
1
10
22.0353926535971
20
0.000202633510952
30
0
0
SPLINE
5
BD
100
AcDbEntity
8
1
62
256
6
ByLayer
370
18
48
1
60
0
100
AcDbSpline
70
4
71
3
72
18
73
14
40
0
40
0
40
0
40
0
40
0.103476822971871
40
0.103476822971871
40
0.206953645943742
40
0.206953645943742
40
0.413907291887484
40
0.413907291887484
40
0.827814583774972
40
0.827814583774972
40
0.931291406746842
40
0.931291406746842
40
1
40
1
40
1
40
1
41
1
10
3.60188141333671
20
-1.50822459412504
30
1E-16
41
1
10
3.86557358010282
20
-1.61989437617564
30
1E-16
41
1
10
4.12910421083609
20
-1.72810131727144
30
1E-16
41
1
10
4.65640384137305
20
-1.93665519677072
30
1E-16
41
1
10
4.91995784757532
20
-2.03690015291195
30
1E-16
41
1
10
5.70674393165729
20
-2.32257686009754
30
1E-16
41
1
10
6.22789917999083
20
-2.49377465829184
30
2E-16
41
1
10
7.7889287249443
20
-2.93864144898782
30
0
41
1
10
8.82585813579661
20
-3.1445672725242
30
0
41
1
10
10.1414532093967
20
-3.26288675950082
30
0
41
1
10
10.4052255808761
20
-3.27954182974742
30
0
41
1
10
10.8416076155735
20
-3.29531206662907
30
0
41
1
10
11.015369855104
20
-3.29846907795013
30
0
41
1
10
11.1888506951896
20
-3.29852039930671
30
0
0
SPLINE
5
BE
100
AcDbEntity
8
1
62
256
6
ByLayer
370
18
48
1
60
0
100
AcDbSpline
70
4
71
3
72
26
73
22
40
0
40
0
40
0
40
0
40
0.0946131587900787
40
0.0946131587900787
40
0.17006206222424
40
0.17006206222424
40
0.2455109656584
40
0.2455109656584
40
0.396408772526722
40
0.396408772526722
40
0.547306579395043
40
0.547306579395043
40
0.698204386263364
40
0.698204386263364
40
0.773653289697523
40
0.773653289697523
40
0.849102193131682
40
0.849102193131682
40
0.924551096565841
40
0.924551096565841
40
1
40
1
40
1
40
1
41
1
10
43.3702095974706
20
0.210359271602357
30
0
41
1
10
43.6966101214757
20
0.0542808743153671
30
0
41
1
10
44.0239939596842
20
-0.102969635308369
30
0
41
1
10
44.6152852757079
20
-0.385482904613525
30
0
41
1
10
44.8791429409428
20
-0.511053648752494
30
0
41
1
10
45.4035790656873
20
-0.758003722796133
30
0
41
1
10
45.6647763031605
20
-0.879684028552447
30
1E-16
41
1
10
46.4462488633162
20
-1.23745517100298
30
1E-16
41
1
10
46.9645197930871
20
-1.46614188201249
30
1E-16
41
1
10
48.0002532362447
20
-1.89506759920073
30
1E-16
41
1
10
48.5178180223739
20
-2.09533608305512
30
1E-16
41
1
10
49.5569355519406
20
-2.45884062107268
30
2E-16
41
1
10
50.0784517649204
20
-2.62215195536405
30
2E-16
41
1
10
50.8674869621377
20
-2.83302900016315
30
0
41
1
10
51.1306207594737
20
-2.89735269401416
30
0
41
1
10
51.6553771359065
20
-3.01293860581112
30
0
41
1
10
51.9173773214995
20
-3.06430352568182
30
0
41
1
10
52.4412923194654
20
-3.1537072911228
30
0
41
1
10
52.7031998920741
20
-3.19173369026004
30
0
41
1
10
53.2274385926831
20
-3.25385238679726
30
0
41
1
10
53.4897740264605
20
-3.27754333092599
30
0
41
1
10
53.7526070659581
20
-3.29500198334929
30
0
0
SPLINE
5
BF
100
AcDbEntity
8
1
62
256
6
ByLayer
370
18
48
1
60
0
100
AcDbSpline
70
4
71
3
72
24
73
20
40
0
40
0
40
0
40
0
40
0.124688266460322
40
0.124688266460322
40
0.249376532920644
40
0.249376532920644
40
0.374064799380966
40
0.374064799380966
40
0.498753065841288
40
0.498753065841288
40
0.623441332301609
40
0.623441332301609
40
0.748129598761932
40
0.748129598761932
40
0.872817865222254
40
0.872817865222254
40
0.997506131682575
40
0.997506131682575
40
1
40
1
40
1
40
1
41
1
10
3.64535508295987
20
2.57145274602436
30
-2E-16
41
1
10
3.90588249113566
20
2.49357706540985
30
-2E-16
41
1
10
4.16661925117936
20
2.40995267109898
30
-1E-16
41
1
10
4.68891870639135
20
2.23241742342719
30
-1E-16
41
1
10
4.94981938984279
20
2.13872221985037
30
-1E-16
41
1
10
5.46951949889234
20
1.94362815686972
30
-1E-16
41
1
10
5.72864054491464
20
1.8421040837674
30
-1E-16
41
1
10
6.24570779619603
20
1.63213753256679
30
-1E-16
41
1
10
6.50351456246634
20
1.5235651276594
30
-1E-16
41
1
10
7.01878442579721
20
1.30077201127199
30
-1E-16
41
1
10
7.27641736496915
20
1.18669259056767
30
-1E-16
41
1
10
7.79165986230308
20
0.953760196983211
30
-1E-16
41
1
10
8.04923442731089
20
0.834872997600314
30
-1E-16
41
1
10
8.56538486349416
20
0.594065038411514
30
0
41
1
10
8.82401336192288
20
0.472206206587146
30
0
41
1
10
9.34234176794013
20
0.225958337983684
30
0
41
1
10
9.60197088910994
20
0.101474313851071
30
0
41
1
10
9.86791600357563
20
-0.0257462749535193
30
0
41
1
10
9.87313110992937
20
-0.0282408537916865
30
0
41
1
10
9.87834648320919
20
-0.0307353795485881
30
0
0
SPLINE
5
C0
100
AcDbEntity
8
1
62
256
6
ByLayer
370
18
48
1
60
0
100
AcDbSpline
70
4
71
3
72
30
73
26
40
0
40
0
40
0
40
0
40
0.0350159064200105
40
0.0350159064200105
40
0.103943341675724
40
0.103943341675724
40
0.172870776931438
40
0.172870776931438
40
0.241798212187152
40
0.241798212187152
40
0.310725647442865
40
0.310725647442865
40
0.379653082698579
40
0.379653082698579
40
0.448580517954293
40
0.448580517954293
40
0.58643538846572
40
0.58643538846572
40
0.724290258977148
40
0.724290258977148
40
0.793217694232862
40
0.793217694232862
40
0.862145129488576
40
0.862145129488576
40
1
40
1
40
1
40
1
41
1
10
42.0878446652352
20
3.32254180009829
30
0
41
1
10
42.2183031299389
20
3.32571611634196
30
0
41
1
10
42.3488165814315
20
3.32708506251962
30
0
41
1
10
42.7363803999915
20
3.3261539913795
30
0
41
1
10
42.9934070045772
20
3.31945061068731
30
0
41
1
10
43.5085397037662
20
3.29243210229328
30
0
41
1
10
43.7670086760021
20
3.27129999908851
30
0
41
1
10
44.2861699093381
20
3.21449688993457
30
0
41
1
10
44.5475332819474
20
3.17884526677946
30
0
41
1
10
45.0689401110082
20
3.09452652546253
30
0
41
1
10
45.3285468937608
20
3.04596837615085
30
0
41
1
10
45.8459918454583
20
2.93728052311636
30
0
41
1
10
46.1037946333676
20
2.87725175204716
30
0
41
1
10
46.6186011683393
20
2.74536476188894
30
1E-16
41
1
10
46.8756461744077
20
2.67335825057646
30
1E-16
41
1
10
47.6463105820001
20
2.44125981705045
30
-1E-16
41
1
10
48.1594843927955
20
2.26532258980166
30
-1E-16
41
1
10
49.1887290440473
20
1.87791982006573
30
-1E-16
41
1
10
49.7046394215182
20
1.66657862634935
30
-1E-16
41
1
10
50.4848278210003
20
1.32823703023655
30
-1E-16
41
1
10
50.7462699747753
20
1.21172653813323
30
-1E-16
41
1
10
51.2672795624281
20
0.9749672335995
30
-1E-16
41
1
10
51.5273363048789
20
0.854544652550004
30
-1E-16
41
1
10
52.3069218175603
20
0.488875600297916
30
0
41
1
10
52.82571947633
20
0.239060640828683
30
0
41
1
10
53.3460025538188
20
-0.011794815259492
30
0
0
SPLINE
5
C1
100
AcDbEntity
8
1
62
256
6
ByLayer
370
18
48
1
60
0
100
AcDbSpline
70
4
71
3
72
20
73
16
40
0
40
0
40
0
40
0
40
0.250000000000002
40
0.250000000000002
40
0.500000000000005
40
0.500000000000005
40
0.562500000000004
40
0.562500000000004
40
0.625000000000004
40
0.625000000000004
40
0.750000000000002
40
0.750000000000002
40
0.875000000000001
40
0.875000000000001
40
1
40
1
40
1
40
1
41
1
10
53.7841935439846
20
-3.35626370568639
30
0
41
1
10
53.8527920567147
20
-3.1636063452753
30
0
41
1
10
53.920716325264
20
-2.96965244012264
30
0
41
1
10
54.0572362765449
20
-2.58082542120047
30
0
41
1
10
54.1258464028857
20
-2.3860829067724
30
0
41
1
10
54.2125903494573
20
-2.14299816370567
30
0
41
1
10
54.230079211784
20
-2.0943305036063
30
0
41
1
10
54.2658632729489
20
-1.99759798638766
30
0
41
1
10
54.2840272113577
20
-1.94966361518982
30
0
41
1
10
54.3395532479577
20
-1.80726825211517
30
0
41
1
10
54.3779601562428
20
-1.71422673794936
30
0
41
1
10
54.4585503130617
20
-1.53231931688413
30
0
41
1
10
54.5007427860996
20
-1.44332165458633
30
0
41
1
10
54.5895220980335
20
-1.27008945055081
30
0
41
1
10
54.6352409529416
20
-1.18757017322835
30
0
41
1
10
54.682453861315
20
-1.10888103304748
30
0
0
SPLINE
5
C2
100
AcDbEntity
8
1
62
256
6
ByLayer
370
18
48
1
60
0
100
AcDbSpline
70
4
71
3
72
16
73
12
40
0
40
0
40
0
40
0
40
0.0135849727047673
40
0.0135849727047673
40
0.260188729528576
40
0.260188729528576
40
0.506792486352384
40
0.506792486352384
40
0.753396243176192
40
0.753396243176192
40
1
40
1
40
1
40
1
41
1
10
53.5802373487417
20
0.717432096102129
30
0
41
1
10
53.5815187000326
20
0.718820630098236
30
0
41
1
10
53.5828183227751
20
0.720215194622767
30
0
41
1
10
53.6080586520915
20
0.747039242601403
30
0
41
1
10
53.6372280471404
20
0.773615457473142
30
0
41
1
10
53.7067526476078
20
0.827795395704982
30
0
41
1
10
53.7467914575499
20
0.854985649499753
30
0
41
1
10
53.8348790623139
20
0.904466391960852
30
0
41
1
10
53.8840807317987
20
0.927192314909831
30
0
41
1
10
53.9862148720283
20
0.963720729168216
30
0
41
1
10
54.0401973035983
20
0.977859481470404
30
0
41
1
10
54.0953875138663
20
0.986794112813271
30
0
0
SPLINE
5
C3
100
AcDbEntity
8
1
62
256
6
ByLayer
370
18
48
1
60
0
100
AcDbSpline
70
4
71
3
72
30
73
26
40
0
40
0
40
0
40
0
40
0.141995022264142
40
0.141995022264142
40
0.212992533396213
40
0.212992533396213
40
0.283990044528285
40
0.283990044528285
40
0.425985066792424
40
0.425985066792424
40
0.567980089056564
40
0.567980089056564
40
0.638977600188633
40
0.638977600188633
40
0.709975111320703
40
0.709975111320703
40
0.780972622452773
40
0.780972622452773
40
0.851970133584843
40
0.851970133584843
40
0.922967644716913
40
0.922967644716913
40
0.993965155848983
40
0.993965155848983
40
1
40
1
40
1
40
1
41
1
10
53.3513458915137
20
-0.0253815524310141
30
0
41
1
10
52.8309629380366
20
0.224764319492749
30
0
41
1
10
52.3120715419756
20
0.473981371487127
30
0
41
1
10
51.5323718785015
20
0.83893835083822
30
-1E-16
41
1
10
51.2722816888549
20
0.959156508587199
30
-1E-16
41
1
10
50.7512137222613
20
1.19556498274929
30
-1E-16
41
1
10
50.4897301385975
20
1.31193620076883
30
-1E-16
41
1
10
49.7093400384459
20
1.65000105664683
30
-1E-16
41
1
10
49.1932871052072
20
1.8612987161543
30
-1E-16
41
1
10
48.1637797080001
20
2.2488427802505
30
-1E-16
41
1
10
47.6504793139581
20
2.42498405693394
30
-1E-16
41
1
10
46.8796494195875
20
2.65756630442283
30
1E-16
41
1
10
46.6225534333812
20
2.72977327167359
30
1E-16
41
1
10
46.107651981364
20
2.86211239709516
30
0
41
1
10
45.8498053600932
20
2.92238214641156
30
0
41
1
10
45.3322904891356
20
3.03160382639029
30
0
41
1
10
45.0726570015756
20
3.08046033777393
30
0
41
1
10
44.551213263882
20
3.16543731773098
30
0
41
1
10
44.2897787998846
20
3.20145620586507
30
0
41
1
10
43.7704847887815
20
3.25904311698398
30
0
41
1
10
43.5119450622138
20
3.28060612514165
30
0
41
1
10
42.996672745384
20
3.30849778341792
30
0
41
1
10
42.7395815483586
20
3.31562491867175
30
0
41
1
10
42.4606638909894
20
3.31678908842858
30
0
41
1
10
42.4388143387717
20
3.31683345288278
30
0
41
1
10
42.4169661492052
20
3.31683038583182
30
0
0
SPLINE
5
C4
100
AcDbEntity
8
1
62
256
6
ByLayer
370
18
48
1
60
0
100
AcDbSpline
70
4
71
3
72
24
73
20
40
0
40
0
40
0
40
0
40
0.0608409903732032
40
0.0608409903732032
40
0.178235866576553
40
0.178235866576553
40
0.295630742779902
40
0.295630742779902
40
0.413025618983252
40
0.413025618983252
40
0.530420495186601
40
0.530420495186601
40
0.647815371389951
40
0.647815371389951
40
0.765210247593301
40
0.765210247593301
40
0.88260512379665
40
0.88260512379665
40
1
40
1
40
1
40
1
41
1
10
10.2652989796502
20
-0.225840113517165
30
0
41
1
10
10.1300875832683
20
-0.161621403022508
30
0
41
1
10
9.99475092767798
20
-0.0972015079830442
30
0
41
1
10
9.59882842114507
20
0.0916240840908813
30
0
41
1
10
9.33914878128286
20
0.215770093672006
30
0
41
1
10
8.8207172509733
20
0.461391930757884
30
0
41
1
10
8.56203736782439
20
0.582966757663172
30
0
41
1
10
8.04577902675658
20
0.82325449585943
30
-1E-16
41
1
10
7.78814636744511
20
0.941901067860954
30
-1E-16
41
1
10
7.27278907248603
20
1.17440013343722
30
-1E-16
41
1
10
7.01510169658766
20
1.28829231812523
30
-1E-16
41
1
10
6.49972361597077
20
1.51076367397067
30
-1E-16
41
1
10
6.24185619693191
20
1.61918429387555
30
-1E-16
41
1
10
5.7246837940381
20
1.82891101934038
30
-1E-16
41
1
10
5.46551590479581
20
1.93034477179589
30
-1E-16
41
1
10
4.9457298411603
20
2.12531038436501
30
-1E-16
41
1
10
4.68479154036794
20
2.21896588419457
30
-1E-16
41
1
10
4.16241549972221
20
2.39647689063801
30
-1E-16
41
1
10
3.90163724760691
20
2.48011764883776
30
-2E-16
41
1
10
3.64106551494012
20
2.55803830246865
30
-2E-16
0
SPLINE
5
C5
100
AcDbEntity
8
1
62
256
6
ByLayer
370
18
48
1
60
0
100
AcDbSpline
70
4
71
3
72
8
73
4
40
0
40
0
40
0
40
0
40
1
40
1
40
1
40
1
41
1
10
3.64708542225668
20
2.69848750968873
30
-2E-16
41
1
10
3.64651686504931
20
2.65614882343107
30
-2E-16
41
1
10
3.64594008153597
20
2.61380402479395
30
-2E-16
41
1
10
3.64535508295992
20
2.57145274602436
30
-2E-16
0
SPLINE
5
C6
100
AcDbEntity
8
1
62
256
6
ByLayer
370
18
48
1
60
0
100
AcDbSpline
70
4
71
3
72
8
73
4
40
0
40
0
40
0
40
0
40
1
40
1
40
1
40
1
41
1
10
53.7797846559153
20
-3.35923446705968
30
0
41
1
10
53.781254267387
20
-3.35824429541444
30
0
41
1
10
53.7827238967004
20
-3.35725404161832
30
0
41
1
10
53.7841935439847
20
-3.35626370568639
30
0
0
SPLINE
5
C7
100
AcDbEntity
8
1
62
256
6
ByLayer
370
18
48
1
60
0
100
AcDbSpline
70
4
71
3
72
10
73
6
40
0
40
0
40
0
40
0
40
0.5
40
0.5
40
1
40
1
40
1
40
1
41
1
10
3.5585548173074
20
-1.50829233161466
30
1E-16
41
1
10
3.53884200634485
20
-1.50375361526986
30
1E-16
41
1
10
3.5247084094575
20
-1.49680170723084
30
1E-16
41
1
10
3.50619834500546
20
-1.48147852059714
30
1E-16
41
1
10
3.50170015746465
20
-1.47292028241435
30
1E-16
41
1
10
3.50170015746465
20
-1.46441670535484
30
1E-16
0
SPLINE
5
C8
100
AcDbEntity
8
1
62
256
6
ByLayer
370
18
48
1
60
0
100
AcDbSpline
70
4
71
3
72
30
73
26
40
0
40
0
40
0
40
0
40
0.0762951156589842
40
0.0762951156589842
40
0.152590231317968
40
0.152590231317968
40
0.228885346976953
40
0.228885346976953
40
0.305180462635937
40
0.305180462635937
40
0.381475578294921
40
0.381475578294921
40
0.457770693953905
40
0.457770693953905
40
0.610360925271874
40
0.610360925271874
40
0.686656040930858
40
0.686656040930858
40
0.762951156589842
40
0.762951156589842
40
0.915541387907814
40
0.915541387907814
40
0.991836503566801
40
0.991836503566801
40
1
40
1
40
1
40
1
41
1
10
53.2598017446649
20
0.520660067503428
30
0
41
1
10
53.0098399571815
20
0.645438422681991
30
0
41
1
10
52.7600507736373
20
0.769036892321139
30
0
41
1
10
52.2605771624113
20
1.01339288829823
30
-1E-16
41
1
10
52.0109916400717
20
1.13433034674202
30
-1E-16
41
1
10
51.510591793484
20
1.37079404352264
30
-1E-16
41
1
10
51.2597088766099
20
1.48641457384471
30
-1E-16
41
1
10
50.7593288128202
20
1.71093284460068
30
-1E-16
41
1
10
50.5094389063765
20
1.81988426968459
30
-1E-16
41
1
10
50.0102158827103
20
2.03104579547127
30
-1E-16
41
1
10
49.7606611174227
20
2.13286714580411
30
-1E-16
41
1
10
49.2606003501564
20
2.32732665023133
30
-1E-16
41
1
10
49.0098757495134
20
2.42019568552234
30
-1E-16
41
1
10
48.2583811366508
20
2.68420158946674
30
-2E-16
41
1
10
47.7598320352353
20
2.84063545564644
30
-2E-16
41
1
10
47.0100316724626
20
3.03927826621725
30
0
41
1
10
46.7599098879734
20
3.09968843386415
30
0
41
1
10
46.2588645871911
20
3.20840718957336
30
0
41
1
10
46.0084826925075
20
3.25678295339381
30
0
41
1
10
45.2587408427804
20
3.38187139277662
30
0
41
1
10
44.7592282516186
20
3.43877785084305
30
0
41
1
10
44.0087725943751
20
3.48382916589188
30
0
41
1
10
43.7582252771638
20
3.49207747460434
30
0
41
1
10
43.4811878664968
20
3.49351970773313
30
0
41
1
10
43.4544125169482
20
3.49358050388977
30
0
41
1
10
43.4276392767785
20
3.49356281404937
30
0
0
SPLINE
5
C9
100
AcDbEntity
8
1
62
256
6
ByLayer
370
18
48
1
60
0
100
AcDbSpline
70
4
71
3
72
46
73
42
40
0
40
0
40
0
40
0
40
0.0429312530399095
40
0.0429312530399095
40
0.0885059552761043
40
0.0885059552761043
40
0.134080657512299
40
0.134080657512299
40
0.179655359748495
40
0.179655359748495
40
0.225230061984689
40
0.225230061984689
40
0.270804764220884
40
0.270804764220884
40
0.316379466457079
40
0.316379466457079
40
0.361954168693274
40
0.361954168693274
40
0.453103573165664
40
0.453103573165664
40
0.498678275401858
40
0.498678275401858
40
0.544252977638053
40
0.544252977638053
40
0.635402382110442
40
0.635402382110442
40
0.680977084346637
40
0.680977084346637
40
0.726551786582832
40
0.726551786582832
40
0.772126488819027
40
0.772126488819027
40
0.817701191055221
40
0.817701191055221
40
0.863275893291416
40
0.863275893291416
40
0.908850595527611
40
0.908850595527611
40
0.954425297763805
40
0.954425297763805
40
1
40
1
40
1
40
1
41
1
10
21.6979739889869
20
-3.4799810843638
30
0
41
1
10
21.4623558459293
20
-3.47985601079225
30
0
41
1
10
21.2268032276002
20
-3.47367103821699
30
0
41
1
10
20.7403081858947
20
-3.4483402283791
30
0
41
1
10
20.4893789130275
20
-3.42845701046119
30
0
41
1
10
19.9885735099703
20
-3.37553647479533
30
0
41
1
10
19.7384321378607
20
-3.3424660645359
30
0
41
1
10
19.2383521219979
20
-3.26325870833156
30
0
41
1
10
18.9885854256726
20
-3.21697033497767
30
0
41
1
10
18.4880060246251
20
-3.11209424804511
30
0
41
1
10
18.2368700899402
20
-3.05345427584044
30
0
41
1
10
17.7354695159192
20
-2.92459755652001
30
0
41
1
10
17.4851364567376
20
-2.85446523806894
30
0
41
1
10
16.9852074126694
20
-2.70274110085447
30
2E-16
41
1
10
16.7354191768151
20
-2.6213481418672
30
2E-16
41
1
10
16.2350328082666
20
-2.44906302203276
30
1E-16
41
1
10
15.984501234341
20
-2.35810864097169
30
1E-16
41
1
10
15.2317005452579
20
-2.07101376731771
30
1E-16
41
1
10
14.732074612407
20
-1.86123921305881
30
1E-16
41
1
10
13.9815599724957
20
-1.52906363650706
30
1E-16
41
1
10
13.7312665041987
20
-1.41520750144954
30
1E-16
41
1
10
13.2300645666079
20
-1.18187360921576
30
1E-16
41
1
10
12.9791102205257
20
-1.06192969203582
30
1E-16
41
1
10
12.2279777212549
20
-0.697701475794361
30
0
41
1
10
11.7278717632919
20
-0.44964124358313
30
0
41
1
10
10.9769237562769
20
-0.0732261185433174
30
0
41
1
10
10.7264513583057
20
0.0534323952516615
30
0
41
1
10
10.2248860201435
20
0.305256206098761
30
0
41
1
10
9.97438445304147
20
0.430150670454822
30
0
41
1
10
9.47379974240349
20
0.677668239239551
30
0
41
1
10
9.22365695719651
20
0.800174164902046
30
0
41
1
10
8.72367919802758
20
1.04266690328055
30
-1E-16
41
1
10
8.47365395747818
20
1.16227593937367
30
-1E-16
41
1
10
7.97235800939615
20
1.39598353642015
30
-1E-16
41
1
10
7.72104856890289
20
1.51025447906937
30
-1E-16
41
1
10
7.21997463933226
20
1.73208684044084
30
-1E-16
41
1
10
6.9697916811443
20
1.83967813587753
30
-1E-16
41
1
10
6.47020353281735
20
2.04824316256145
30
-1E-16
41
1
10
6.22060004559296
20
2.14884978461649
30
-1E-16
41
1
10
5.72007189128706
20
2.34007869783252
30
-1E-16
41
1
10
5.46927063530913
20
2.43091514116512
30
-1E-16
41
1
10
5.21767269058597
20
2.51666438763709
30
-2E-16
0
SPLINE
5
CA
100
AcDbEntity
8
1
62
256
6
ByLayer
370
18
48
1
60
0
100
AcDbSpline
70
4
71
3
72
8
73
4
40
0
40
0
40
0
40
0
40
1
40
1
40
1
40
1
41
1
10
3.55855481730742
20
-1.50829233161468
30
1E-16
41
1
10
3.55799140677007
20
-1.53174603849567
30
1E-16
41
1
10
3.55743553837846
20
-1.55519143443087
30
1E-16
41
1
10
3.55688722722027
20
-1.57862898651101
30
1E-16
0
SPLINE
5
CB
100
AcDbEntity
8
1
62
256
6
ByLayer
370
18
48
1
60
0
100
AcDbSpline
70
4
71
3
72
8
73
4
40
0
40
0
40
0
40
0
40
1
40
1
40
1
40
1
41
1
10
54.6824538613151
20
1.10888103304745
30
0
41
1
10
54.7901982352239
20
0.804728235358994
30
0
41
1
10
54.8949863016754
20
0.499517582421561
30
0
41
1
10
54.9967724190198
20
0.193232742287364
30
0
0
SPLINE
5
CC
100
AcDbEntity
8
1
62
256
6
ByLayer
370
18
48
1
60
0
100
AcDbSpline
70
4
71
3
72
8
73
4
40
0
40
0
40
0
40
0
40
1
40
1
40
1
40
1
41
1
10
53.5546779155858
20
-3.45529536338592
30
0
41
1
10
53.6146343550209
20
-3.42085666257469
30
0
41
1
10
53.6747248522758
20
-3.38577686867964
30
0
41
1
10
53.7349707052169
20
-3.3500713244245
30
0
0
SPLINE
5
CD
100
AcDbEntity
8
1
62
256
6
ByLayer
370
18
48
1
60
0
100
AcDbSpline
70
4
71
3
72
8
73
4
40
0
40
0
40
0
40
0
40
1
40
1
40
1
40
1
41
1
10
54.4130587471842
20
-0.368007628348806
30
0
41
1
10
54.3024121330733
20
-0.0726491198981307
30
0
41
1
10
54.1645655809996
20
0.240678879311673
30
0
41
1
10
53.999938128142
20
0.571699534652964
30
0
0
SPLINE
5
CE
100
AcDbEntity
8
1
62
256
6
ByLayer
370
18
48
1
60
0
100
AcDbSpline
70
4
71
3
72
10
73
6
40
0
40
0
40
0
40
0
40
0.644616900785913
40
0.644616900785913
40
1
40
1
40
1
40
1
41
1
10
6.83055968612973
20
3.09216956343568
30
0
41
1
10
6.42765626345772
20
3.00011856693379
30
0
41
1
10
6.01989916835709
20
2.89791762355162
30
0
41
1
10
5.37495226334514
20
2.73862289276371
30
-1E-16
41
1
10
5.14336797508412
20
2.68193967286692
30
-1E-16
41
1
10
4.909611086034
20
2.62675552066355
30
-2E-16
0
SPLINE
5
CF
100
AcDbEntity
8
1
62
256
6
ByLayer
370
18
48
1
60
0
100
AcDbSpline
70
4
71
3
72
14
73
10
40
0
40
0
40
0
40
0
40
0.0455412669428818
40
0.0455412669428818
40
0.411514437895847
40
0.411514437895847
40
0.777487608848813
40
0.777487608848813
40
1
40
1
40
1
40
1
41
1
10
4.0140473657371
20
2.43946725059465
30
-1E-16
41
1
10
4.01231523602951
20
2.43965359993513
30
-1E-16
41
1
10
4.01058451176857
20
2.4398631977422
30
-1E-16
41
1
10
3.99496177122376
20
2.4419745043424
30
-1E-16
41
1
10
3.98171359828251
20
2.44596650036399
30
-1E-16
41
1
10
3.95691660119036
20
2.45593529015278
30
-2E-16
41
1
10
3.94453784903647
20
2.46092901756128
30
-2E-16
41
1
10
3.92465310685907
20
2.46895850892526
30
-2E-16
41
1
10
3.91714005990167
20
2.4719956190954
30
-2E-16
41
1
10
3.90963273300355
20
2.47503376852478
30
-2E-16
0
SPLINE
5
D0
100
AcDbEntity
8
1
62
256
6
ByLayer
370
18
48
1
60
0
100
AcDbSpline
70
4
71
3
72
20
73
16
40
0
40
0
40
0
40
0
40
0.0268601283272398
40
0.0268601283272398
40
0.107955117633303
40
0.107955117633303
40
0.189050106939366
40
0.189050106939366
40
0.351240085551492
40
0.351240085551492
40
0.513430064163618
40
0.513430064163618
40
0.675620042775744
40
0.675620042775744
40
1
40
1
40
1
40
1
41
1
10
2.07189920278631
20
3.4677129554824
30
0
41
1
10
2.08364640449489
20
3.46771038359373
30
0
41
1
10
2.09668473067637
20
3.46714682099403
30
0
41
1
10
2.15356637889542
20
3.46276630360197
30
0
41
1
10
2.20582946472413
20
3.45481823201334
30
0
41
1
10
2.32457902687395
20
3.43193211239731
30
0
41
1
10
2.39159263516299
20
3.41685009876775
30
0
41
1
10
2.60602811022824
20
3.36411844587835
30
0
41
1
10
2.76545562555259
20
3.31955199461834
30
0
41
1
10
3.10440834675472
20
3.21918956482585
30
0
41
1
10
3.28487220708502
20
3.16301137600379
30
0
41
1
10
3.65252773771789
20
3.04536621729542
30
0
41
1
10
3.84080528786049
20
2.98356600561362
30
0
41
1
10
4.41564213324645
20
2.79208222706947
30
-2E-16
41
1
10
4.81206080793581
20
2.65642648808577
30
-2E-16
41
1
10
5.21767258722829
20
2.51666441252394
30
-2E-16
0
SPLINE
5
D1
100
AcDbEntity
8
1
62
256
6
ByLayer
370
18
48
1
60
0
100
AcDbSpline
70
4
71
3
72
24
73
20
40
0
40
0
40
0
40
0
40
0.0062022489664632
40
0.0062022489664632
40
0.0751306825558651
40
0.0751306825558651
40
0.350844416913471
40
0.350844416913471
40
0.419772850502873
40
0.419772850502873
40
0.488701284092275
40
0.488701284092275
40
0.626558151271077
40
0.626558151271077
40
0.902271885628678
40
0.902271885628678
40
0.971200319218077
40
0.971200319218077
40
1
40
1
40
1
40
1
41
1
10
21.5646185911647
20
0.235901354301916
30
0
41
1
10
21.5882298785106
20
0.224653017505034
30
0
41
1
10
21.6118299631989
20
0.213404858997251
30
0
41
1
10
21.8975529457014
20
0.0771696023375625
30
0
41
1
10
22.1588965697355
20
-0.0477976414605337
30
0
41
1
10
23.4630455304129
20
-0.669524497957411
30
0
41
1
10
24.4978704240438
20
-1.15710684765307
30
1E-16
41
1
10
25.8047701388458
20
-1.70460372534183
30
1E-16
41
1
10
26.066831340906
20
-1.81097772738252
30
1E-16
41
1
10
26.5929265039994
20
-2.01620905552008
30
1E-16
41
1
10
26.8566103981412
20
-2.1149260391613
30
1E-16
41
1
10
27.6457990892079
20
-2.39608399758618
30
1E-16
41
1
10
28.1714449594457
20
-2.56413352934712
30
2E-16
41
1
10
29.7518401032573
20
-2.99909711900889
30
0
41
1
10
30.7909606761855
20
-3.19009519845707
30
0
41
1
10
32.0968433613351
20
-3.289894810774
30
0
41
1
10
32.3583571701141
20
-3.30278607510701
30
0
41
1
10
32.7300502610385
20
-3.31101534155744
30
0
41
1
10
32.8397861755834
20
-3.31220857878986
30
0
41
1
10
32.9496230677641
20
-3.31216369501445
30
0
0
SPLINE
5
D2
100
AcDbEntity
8
1
62
256
6
ByLayer
370
18
48
1
60
0
100
AcDbSpline
70
4
71
3
72
28
73
24
40
0
40
0
40
0
40
0
40
0.249999999999997
40
0.249999999999997
40
0.374999999999996
40
0.374999999999996
40
0.437499999999996
40
0.437499999999996
40
0.499999999999996
40
0.499999999999996
40
0.562499999999996
40
0.562499999999996
40
0.624999999999996
40
0.624999999999996
40
0.749999999999997
40
0.749999999999997
40
0.812499999999998
40
0.812499999999998
40
0.874999999999999
40
0.874999999999999
40
0.937499999999999
40
0.937499999999999
40
1
40
1
40
1
40
1
41
1
10
6.83056866671024
20
3.0921702246973
30
0
41
1
10
7.93353736704299
20
3.34392377781001
30
0
41
1
10
9.01771979670809
20
3.4731796489763
30
0
41
1
10
10.652277868255
20
3.47250493299217
30
0
41
1
10
11.1983785639918
20
3.43991697354696
30
0
41
1
10
12.0243978537427
20
3.34220332745105
30
0
41
1
10
12.3000516509363
20
3.30152909796558
30
0
41
1
10
12.8499590973382
20
3.20494769132321
30
0
41
1
10
13.1245335307264
20
3.14889424107088
30
0
41
1
10
13.6742207617416
20
3.02235666630699
30
0
41
1
10
13.9492095730157
20
2.95178200830236
30
0
41
1
10
14.5001177443246
20
2.7965516706326
30
-2E-16
41
1
10
14.7756562051806
20
2.71205532827199
30
-2E-16
41
1
10
15.6003074467244
20
2.4401758242316
30
-1E-16
41
1
10
16.1492598787703
20
2.23478068803885
30
-1E-16
41
1
10
16.9754638141045
20
1.89629674407317
30
-1E-16
41
1
10
17.2509041906744
20
1.77841331396701
30
-1E-16
41
1
10
17.8008197181228
20
1.53577461098996
30
-1E-16
41
1
10
18.075522284386
20
1.41069692361762
30
-1E-16
41
1
10
18.6250343095999
20
1.15414712867786
30
-1E-16
41
1
10
18.8998966913011
20
1.02277293763024
30
-1E-16
41
1
10
19.4504938804216
20
0.755020085329136
30
0
41
1
10
19.7259549739202
20
0.619170465511672
30
0
41
1
10
19.9999999999893
20
0.48285392272976
30
0
0
SPLINE
5
D3
100
AcDbEntity
8
1
62
256
6
ByLayer
370
18
48
1
60
0
100
AcDbSpline
70
4
71
3
72
34
73
30
40
0
40
0
40
0
40
0
40
0.498483706931089
40
0.498483706931089
40
0.665832093963132
40
0.665832093963132
40
0.777817989872889
40
0.777817989872889
40
0.852728168821871
40
0.852728168821871
40
0.902823460888734
40
0.902823460888734
40
0.936317125569757
40
0.936317125569757
40
0.958707673205259
40
0.958707673205259
40
0.973674251189698
40
0.973674251189698
40
0.983677708548127
40
0.983677708548127
40
0.990362804846354
40
0.990362804846354
40
0.994826913608809
40
0.994826913608809
40
0.99780511935561
40
0.99780511935561
40
0.999845133392061
40
0.999845133392061
40
1
40
1
40
1
40
1
41
1
10
53.5688617817254
20
3.49937787522046
30
0
41
1
10
53.6038283939428
20
3.47647636629435
30
0
41
1
10
53.6388468251065
20
3.45337039186057
30
0
41
1
10
53.6856675512655
20
3.42225981007598
30
0
41
1
10
53.6974396008123
20
3.41441940458881
30
0
41
1
10
53.7170948428032
20
3.40129842940419
30
0
41
1
10
53.7249762146588
20
3.39602906756605
30
0
41
1
10
53.7381318389768
20
3.38721999443621
30
0
41
1
10
53.7434053698464
20
3.38368521132693
30
0
41
1
10
53.7522064070413
20
3.37778000240428
30
0
41
1
10
53.7557336192155
20
3.37541175518624
30
0
41
1
10
53.761619494776
20
3.37145718237673
30
0
41
1
10
53.763978035354
20
3.36987182325669
30
0
41
1
10
53.7679134208693
20
3.36722535329108
30
0
41
1
10
53.7694902135507
20
3.36616467216857
30
0
41
1
10
53.7721210545015
20
3.36439441967803
30
0
41
1
10
53.7731750802134
20
3.36368503966367
30
0
41
1
10
53.7749336320283
20
3.36250126250164
30
0
41
1
10
53.7756380276364
20
3.36202703219249
30
0
41
1
10
53.7768141844094
20
3.36123508222576
30
0
41
1
10
53.7772856239169
20
3.36091761525958
30
0
41
1
10
53.7780727657008
20
3.36038750607381
30
0
41
1
10
53.7783881743943
20
3.36017507771157
30
0
41
1
10
53.7789144966179
20
3.35982057728074
30
0
41
1
10
53.7791253675055
20
3.3596785412457
30
0
41
1
10
53.7794755350631
20
3.35944267898273
30
0
41
1
10
53.779616684433
20
3.35934760483801
30
0
41
1
10
53.7797639443646
20
3.35924841735661
30
0
41
1
10
53.7797743145572
20
3.35924143250381
30
0
41
1
10
53.7797846559354
20
3.35923446706207
30
0
0
SPLINE
5
D4
100
AcDbEntity
8
1
62
256
6
ByLayer
370
18
48
1
60
0
100
AcDbSpline
70
4
71
3
72
10
73
6
40
0
40
0
40
0
40
0
40
0.5
40
0.5
40
1
40
1
40
1
40
1
41
1
10
3.5568872272203
20
-1.57862898651106
30
1E-16
41
1
10
3.54025939552815
20
-1.57120230735038
30
1E-16
41
1
10
3.5262891667229
20
-1.55972485431468
30
1E-16
41
1
10
3.50698760907721
20
-1.5317636302199
30
1E-16
41
1
10
3.50170015746448
20
-1.51526151245378
30
1E-16
41
1
10
3.50170015746448
20
-1.49848678596226
30
1E-16
0
SPLINE
5
D5
100
AcDbEntity
8
1
62
256
6
ByLayer
370
18
48
1
60
0
100
AcDbSpline
70
4
71
3
72
8
73
4
40
0
40
0
40
0
40
0
40
1
40
1
40
1
40
1
41
1
10
3.59755858863392
20
-1.5208168111952
30
1E-16
41
1
10
3.5840923216916
20
-1.51510486023136
30
1E-16
41
1
10
3.57091796946938
20
-1.51086421634486
30
1E-16
41
1
10
3.5585548173074
20
-1.50829233161466
30
1E-16
0
SPLINE
5
D6
100
AcDbEntity
8
1
62
256
6
ByLayer
370
18
48
1
60
0
100
AcDbSpline
70
4
71
3
72
26
73
22
40
0
40
0
40
0
40
0
40
0.12499999999999
40
0.12499999999999
40
0.24999999999998
40
0.24999999999998
40
0.312499999999982
40
0.312499999999982
40
0.374999999999983
40
0.374999999999983
40
0.437499999999985
40
0.437499999999985
40
0.499999999999987
40
0.499999999999987
40
0.62499999999999
40
0.62499999999999
40
0.749999999999993
40
0.749999999999993
40
0.874999999999997
40
0.874999999999997
40
1
40
1
40
1
40
1
41
1
10
54.9511922688092
20
0.0421341614962216
30
0
41
1
10
54.9342500366754
20
-0.0137267463620958
30
0
41
1
10
54.9147714743084
20
-0.0683105501917396
30
0
41
1
10
54.8705507114878
20
-0.174740354574624
30
0
41
1
10
54.845737347906
20
-0.22645893785824
30
0
41
1
10
54.8067161402986
20
-0.296578839221041
30
0
41
1
10
54.7933193942497
20
-0.318918843848053
30
0
41
1
10
54.7657054340474
20
-0.361346316026385
30
0
41
1
10
54.7515207217514
20
-0.38133758097652
30
0
41
1
10
54.7234737922031
20
-0.417311525801637
30
0
41
1
10
54.7094696776713
20
-0.433521454329337
30
0
41
1
10
54.6814815113221
20
-0.462313491596547
30
0
41
1
10
54.6673699100945
20
-0.474974474615294
30
0
41
1
10
54.6263960926931
20
-0.506115720655487
30
0
41
1
10
54.6003218124998
20
-0.518301787474826
30
0
41
1
10
54.5519487158981
20
-0.525825000838182
30
0
41
1
10
54.5298515703513
20
-0.521209873254691
30
0
41
1
10
54.4896805619026
20
-0.497768666474514
30
0
41
1
10
54.4719932416431
20
-0.479319986439975
30
0
41
1
10
54.4399734500493
20
-0.431355778323251
30
0
41
1
10
54.4256893404133
20
-0.401723555465878
30
0
41
1
10
54.4130587471839
20
-0.368007628349147
30
0
0
SPLINE
5
D7
100
AcDbEntity
8
1
62
256
6
ByLayer
370
18
48
1
60
0
100
AcDbSpline
70
4
71
3
72
54
73
50
40
0
40
0
40
0
40
0
40
0.0267951344584213
40
0.0267951344584213
40
0.0591964139280311
40
0.0591964139280311
40
0.091597693397641
40
0.091597693397641
40
0.123998972867251
40
0.123998972867251
40
0.156400252336861
40
0.156400252336861
40
0.188801531806471
40
0.188801531806471
40
0.221202811276081
40
0.221202811276081
40
0.2860053702153
40
0.2860053702153
40
0.318406649684909
40
0.318406649684909
40
0.350807929154519
40
0.350807929154519
40
0.415610488093737
40
0.415610488093737
40
0.448011767563345
40
0.448011767563345
40
0.480413047032954
40
0.480413047032954
40
0.545215605972173
40
0.545215605972173
40
0.610018164911392
40
0.610018164911392
40
0.674820723850612
40
0.674820723850612
40
0.739623282789831
40
0.739623282789831
40
0.77202456225944
40
0.77202456225944
40
0.80442584172905
40
0.80442584172905
40
0.869228400668271
40
0.869228400668271
40
0.934030959607491
40
0.934030959607491
40
0.966432239077102
40
0.966432239077102
40
0.998833518546713
40
0.998833518546713
40
1
40
1
40
1
40
1
41
1
10
18.5378157114293
20
3.31111206880792
30
0
41
1
10
18.7526477225864
20
3.3443055648255
30
0
41
1
10
18.9674997679456
20
3.37275777718096
30
0
41
1
10
19.4415777037623
20
3.42446490118837
30
0
41
1
10
19.7008524865907
20
3.44558220374839
30
0
41
1
10
20.2190321971478
20
3.47339274529713
30
0
41
1
10
20.4779757223757
20
3.4800192676785
30
0
41
1
10
20.997197744692
20
3.47858410915993
30
0
41
1
10
21.2577275821579
20
3.47053249582615
30
0
41
1
10
21.7759372773009
20
3.43986329412468
30
0
41
1
10
22.0339140085293
20
3.41722174035482
30
0
41
1
10
22.5493057049731
20
3.35829123899944
30
0
41
1
10
22.8064454630961
20
3.32192596730386
30
0
41
1
10
23.3197333347848
20
3.23551497596816
30
0
41
1
10
23.5759087301138
20
3.18544022298326
30
0
41
1
10
24.345302388307
20
3.01656278211232
30
0
41
1
10
24.8580210024481
20
2.87793242027124
30
0
41
1
10
25.631195489255
20
2.63504069049125
30
-2E-16
41
1
10
25.8896800358109
20
2.54839463651777
30
-2E-16
41
1
10
26.4081977869235
20
2.3634637905742
30
-1E-16
41
1
10
26.6683594424982
20
2.26539096814076
30
-1E-16
41
1
10
27.4467213868478
20
1.95920330139995
30
-1E-16
41
1
10
27.9638879600494
20
1.73659835635169
30
-1E-16
41
1
10
28.7423082013343
20
1.3839362636021
30
-1E-16
41
1
10
29.0024610547536
20
1.26286700225828
30
-1E-16
41
1
10
29.521556891439
20
1.01572724696311
30
-1E-16
41
1
10
29.7806838695968
20
0.889965060079561
30
-1E-16
41
1
10
30.5581636621702
20
0.508781572927944
30
0
41
1
10
31.0759139608259
20
0.247439406205388
30
0
41
1
10
32.1155966746034
20
-0.275280239454361
30
0
41
1
10
32.6307675513741
20
-0.53524294236604
30
0
41
1
10
33.6585576019138
20
-1.03893330275994
30
1E-16
41
1
10
34.1703300281504
20
-1.28435301260728
30
1E-16
41
1
10
35.1964533644867
20
-1.74934947344482
30
1E-16
41
1
10
35.7098785075448
20
-1.97062475665194
30
1E-16
41
1
10
36.4857359314738
20
-2.27622771631047
30
1E-16
41
1
10
36.7458511108654
20
-2.3742733959588
30
1E-16
41
1
10
37.2641173176218
20
-2.55972136708778
30
2E-16
41
1
10
37.5224783001891
20
-2.64655715710478
30
2E-16
41
1
10
38.2956139491621
20
-2.88951287073508
30
0
41
1
10
38.8077952657231
20
-3.02868964476733
30
0
41
1
10
39.8329073234052
20
-3.25430269921381
30
0
41
1
10
40.3446001818102
20
-3.3417719545711
30
0
41
1
10
41.1169642674224
20
-3.43038279580151
30
0
41
1
10
41.374941286828
20
-3.45301634704524
30
0
41
1
10
41.8924931192332
20
-3.48390471618759
30
0
41
1
10
42.1528002392914
20
-3.49207834715636
30
0
41
1
10
42.4215746091492
20
-3.49291433303213
30
0
41
1
10
42.4309136513529
20
-3.49293374808357
30
0
41
1
10
42.4402518419971
20
-3.49294353488329
30
0
0
SPLINE
5
D8
100
AcDbEntity
8
1
62
256
6
ByLayer
370
18
48
1
60
0
100
AcDbSpline
70
4
71
3
72
10
73
6
40
0
40
0
40
0
40
0
40
0.5
40
0.5
40
1
40
1
40
1
40
1
41
1
10
53.7841935439847
20
-3.35626370568639
30
0
41
1
10
53.7729443437939
20
-3.3638321129234
30
0
41
1
10
53.7633993416735
20
-3.36704522505582
30
0
41
1
10
53.7472005685768
20
-3.36481088461378
30
0
41
1
10
53.740585868581
20
-3.35940565854645
30
0
41
1
10
53.7349707052166
20
-3.35007132442479
30
0
0
SPLINE
5
D9
100
AcDbEntity
8
1
62
256
6
ByLayer
370
18
48
1
60
0
100
AcDbSpline
70
4
71
3
72
40
73
36
40
0
40
0
40
0
40
0
40
0.009338058537398
40
0.009338058537398
40
0.0735167341257415
40
0.0735167341257415
40
0.137695409714085
40
0.137695409714085
40
0.201874085302429
40
0.201874085302429
40
0.266052760890772
40
0.266052760890772
40
0.330231436479116
40
0.330231436479116
40
0.394410112067459
40
0.394410112067459
40
0.458588787655803
40
0.458588787655803
40
0.522767463244147
40
0.522767463244147
40
0.58694613883249
40
0.58694613883249
40
0.651124814420834
40
0.651124814420834
40
0.715303490009177
40
0.715303490009177
40
0.779482165597521
40
0.779482165597521
40
0.843660841185864
40
0.843660841185864
40
0.907839516774208
40
0.907839516774208
40
0.972018192362552
40
0.972018192362552
40
1
40
1
40
1
40
1
41
1
10
43.3787639681156
20
-0.285963908500037
30
0
41
1
10
43.3276179876766
20
-0.26122398863518
30
0
41
1
10
43.276460945582
20
-0.236457112827821
30
0
41
1
10
42.8736024774681
20
-0.0413027752689459
30
0
41
1
10
42.520739243219
20
0.130199651592932
30
0
41
1
10
41.8173277298934
20
0.470326317438236
30
0
41
1
10
41.4662285318873
20
0.639017934289711
30
0
41
1
10
40.7635750730295
20
0.97007767614474
30
-1E-16
41
1
10
40.4119420611076
20
1.13228988413084
30
-1E-16
41
1
10
39.707079300913
20
1.44836591346314
30
-1E-16
41
1
10
39.3545956857185
20
1.60145044967391
30
-1E-16
41
1
10
38.6496180316767
20
1.89362042181088
30
-1E-16
41
1
10
38.2975587789073
20
2.03234204446034
30
-1E-16
41
1
10
37.5936158400061
20
2.29405445351785
30
-1E-16
41
1
10
37.2409614247115
20
2.41670306834823
30
-1E-16
41
1
10
36.5371864755285
20
2.64137469112404
30
-2E-16
41
1
10
36.1858788452693
20
2.74336402989769
30
1E-16
41
1
10
35.4834085408675
20
2.9267044798064
30
0
41
1
10
35.1320553140399
20
3.00737865034944
30
0
41
1
10
34.4275926880169
20
3.14473272069759
30
0
41
1
10
34.0753000723132
20
3.20101171125774
30
0
41
1
10
33.372478791268
20
3.28988677183162
30
0
41
1
10
33.0213429960859
20
3.32163385887358
30
0
41
1
10
32.3181588451523
20
3.3587588779738
30
0
41
1
10
31.9653973196474
20
3.36391115721042
30
0
41
1
10
31.2615559763897
20
3.34929807555076
30
0
41
1
10
30.9102982628063
20
3.32873680652031
30
0
41
1
10
30.2075944425222
20
3.26206722297715
30
0
41
1
10
29.856084629872
20
3.2159279238914
30
0
41
1
10
29.1517074215116
20
3.09981041809016
30
0
41
1
10
28.7988035636302
20
3.02930335024286
30
0
41
1
10
28.0941071344182
20
2.86526291647505
30
0
41
1
10
27.7420475954742
20
2.77162208559065
30
1E-16
41
1
10
27.2359971862704
20
2.62248003920507
30
-1E-16
41
1
10
27.0822936099551
20
2.57515895759229
30
-1E-16
41
1
10
26.9285938331016
20
2.52595198732041
30
-1E-16
0
SPLINE
5
DA
100
AcDbEntity
8
1
62
256
6
ByLayer
370
18
48
1
60
0
100
AcDbSpline
70
4
71
3
72
30
73
26
40
0
40
0
40
0
40
0
40
0.0625000000000001
40
0.0625000000000001
40
0.125
40
0.125
40
0.25
40
0.25
40
0.3125
40
0.3125
40
0.375
40
0.375
40
0.4375
40
0.4375
40
0.5
40
0.5
40
0.625
40
0.625
40
0.6875
40
0.6875
40
0.75
40
0.75
40
0.875
40
0.875
40
1
40
1
40
1
40
1
41
1
10
3.60248689216095
20
2.563468541568
30
-2E-16
41
1
10
3.60247938389386
20
2.50407874198271
30
-2E-16
41
1
10
3.60247108329639
20
2.4416910594247
30
-1E-16
41
1
10
3.60245313240421
20
2.31095244154403
30
-1E-16
41
1
10
3.6024434514398
20
2.24239415586933
30
-1E-16
41
1
10
3.60241305116549
20
2.03036253382524
30
-1E-16
41
1
10
3.60239093013971
20
1.880021465693
30
-1E-16
41
1
10
3.60235589359542
20
1.64132061056344
30
-1E-16
41
1
10
3.60234389860003
20
1.55954347844136
30
-1E-16
41
1
10
3.602319351885
20
1.39147126397023
30
-1E-16
41
1
10
3.60230676549793
20
1.30493285385626
30
-1E-16
41
1
10
3.60228144328551
20
1.12980016607062
30
-1E-16
41
1
10
3.60226866945965
20
1.04094818133135
30
-1E-16
41
1
10
3.60224289922141
20
0.860680740746602
30
-1E-16
41
1
10
3.60222986009296
20
0.768962920228887
30
0
41
1
10
3.60219064947788
20
0.492094447722678
30
0
41
1
10
3.60216459659085
20
0.306616432547344
30
0
41
1
10
3.60212502700352
20
0.0270958948092641
30
0
41
1
10
3.60211175090706
20
-0.0662960867094853
30
0
41
1
10
3.6020848624934
20
-0.253523921929087
30
0
41
1
10
3.60207118724813
20
-0.347785615000134
30
0
41
1
10
3.60202982832936
20
-0.627960118423829
30
0
41
1
10
3.60200198391607
20
-0.810224010922013
30
0
41
1
10
3.60194397090822
20
-1.16599778728556
30
1E-16
41
1
10
3.60191369497636
20
-1.34011078597081
30
1E-16
41
1
10
3.60188141333686
20
-1.50822459412512
30
1E-16
0
SPLINE
5
DB
100
AcDbEntity
8
1
62
256
6
ByLayer
370
18
48
1
60
0
100
AcDbSpline
70
4
71
3
72
16
73
12
40
0
40
0
40
0
40
0
40
0.125000000000005
40
0.125000000000005
40
0.25000000000001
40
0.25000000000001
40
0.500000000000007
40
0.500000000000007
40
0.750000000000003
40
0.750000000000003
40
1
40
1
40
1
40
1
41
1
10
53.999938128142
20
0.571699534652964
30
0
41
1
10
53.9704818932862
20
0.585819048376464
30
0
41
1
10
53.9402484166708
20
0.597252416070688
30
0
41
1
10
53.8792152349536
20
0.613686740196812
30
0
41
1
10
53.8483514983527
20
0.619010513703557
30
0
41
1
10
53.7553693052359
20
0.63145868677509
30
0
41
1
10
53.6927513105268
20
0.634280067422225
30
0
41
1
10
53.5671846721041
20
0.624252969441386
30
0
41
1
10
53.5040877895014
20
0.611318937889138
30
0
41
1
10
53.3800258167279
20
0.574627505664978
30
0
41
1
10
53.3190508431142
20
0.550971623920304
30
0
41
1
10
53.2598017446765
20
0.520660067509453
30
0
0
SPLINE
5
DC
100
AcDbEntity
8
1
62
256
6
ByLayer
370
18
48
1
60
0
100
AcDbSpline
70
4
71
3
72
68
73
64
40
0
40
0
40
0
40
0
40
0.0174954888799339
40
0.0174954888799339
40
0.0719912701924866
40
0.0719912701924866
40
0.099239160848763
40
0.099239160848763
40
0.126487051505039
40
0.126487051505039
40
0.180982832817593
40
0.180982832817593
40
0.20823072347387
40
0.20823072347387
40
0.235478614130146
40
0.235478614130146
40
0.262726504786422
40
0.262726504786422
40
0.289974395442699
40
0.289974395442699
40
0.344470176755252
40
0.344470176755252
40
0.371718067411528
40
0.371718067411528
40
0.398965958067804
40
0.398965958067804
40
0.453461739380357
40
0.453461739380357
40
0.480709630036633
40
0.480709630036633
40
0.50795752069291
40
0.50795752069291
40
0.562453302005463
40
0.562453302005463
40
0.58970119266174
40
0.58970119266174
40
0.616949083318016
40
0.616949083318016
40
0.644196973974294
40
0.644196973974294
40
0.67144486463057
40
0.67144486463057
40
0.698692755286847
40
0.698692755286847
40
0.725940645943124
40
0.725940645943124
40
0.780436427255678
40
0.780436427255678
40
0.807684317911955
40
0.807684317911955
40
0.834932208568232
40
0.834932208568232
40
0.862180099224509
40
0.862180099224509
40
0.889427989880786
40
0.889427989880786
40
0.916675880537063
40
0.916675880537063
40
0.94392377119334
40
0.94392377119334
40
0.998419552505894
40
0.998419552505894
40
1
40
1
40
1
40
1
41
1
10
49.2419380201332
20
-2.33279749779288
30
1E-16
41
1
10
49.0811536582357
20
-2.39318142447476
30
1E-16
41
1
10
48.9202189330177
20
-2.45169282266553
30
2E-16
41
1
10
48.2583811366508
20
-2.68420158946677
30
2E-16
41
1
10
47.7598320352353
20
-2.84063545564646
30
2E-16
41
1
10
47.0100316724625
20
-3.03927826621725
30
0
41
1
10
46.7599098879734
20
-3.09968843386412
30
0
41
1
10
46.2588645871911
20
-3.20840718957336
30
0
41
1
10
46.0084826925075
20
-3.25678295339381
30
0
41
1
10
45.2587408427804
20
-3.38187139277662
30
0
41
1
10
44.7592282516186
20
-3.43877785084305
30
0
41
1
10
44.0087725943751
20
-3.48382916589188
30
0
41
1
10
43.7582252771638
20
-3.49207747460437
30
0
41
1
10
43.2577055370185
20
-3.49468313767744
30
0
41
1
10
43.0076370451668
20
-3.48912012989743
30
0
41
1
10
42.5077494848241
20
-3.46445743630466
30
0
41
1
10
42.2578691689391
20
-3.44537305874803
30
0
41
1
10
41.7582083112024
20
-3.39354168969027
30
0
41
1
10
41.5082147939196
20
-3.36084250685786
30
0
41
1
10
40.7560956385737
20
-3.24322859329746
30
0
41
1
10
40.2562532382053
20
-3.13934176734071
30
0
41
1
10
39.5070887402509
20
-2.94700529519838
30
0
41
1
10
39.2572061314035
20
-2.87702408754359
30
0
41
1
10
38.7563595759602
20
-2.7262279842451
30
2E-16
41
1
10
38.5053645309294
20
-2.64522094896898
30
2E-16
41
1
10
37.7544700194024
20
-2.387596495743
30
1E-16
41
1
10
37.2558797291134
20
-2.19519539561111
30
1E-16
41
1
10
36.5052543244173
20
-1.88438241979
30
1E-16
41
1
10
36.2544964166155
20
-1.7767179964828
30
1E-16
41
1
10
35.7533606460427
20
-1.55445700954235
30
1E-16
41
1
10
35.5035171057996
20
-1.43976442731113
30
1E-16
41
1
10
34.7538024922265
20
-1.08930401226553
30
1E-16
41
1
10
34.25381948584
20
-0.847141313099314
30
1E-16
41
1
10
33.5025762511857
20
-0.472922361405892
30
0
41
1
10
33.2520244203459
20
-0.346804314654122
30
0
41
1
10
32.7516598710062
20
-0.0951484457957008
30
0
41
1
10
32.5016090312441
20
0.0306773452981304
30
0
41
1
10
32.0016286690613
20
0.282045198808447
30
0
41
1
10
31.7516958782166
20
0.407580304585451
30
0
41
1
10
31.2514778476732
20
0.657416223770809
30
0
41
1
10
31.0006443952702
20
0.781452277332249
30
0
41
1
10
30.4995738385041
20
1.02486546973012
30
-1E-16
41
1
10
30.2493862694741
20
1.14450803476643
30
-1E-16
41
1
10
29.7493121661294
20
1.37894495047266
30
-1E-16
41
1
10
29.4996199648242
20
1.4940896754016
30
-1E-16
41
1
10
28.7497686972105
20
1.8299300108925
30
-1E-16
41
1
10
28.2472517722116
20
2.04061944168893
30
-1E-16
41
1
10
27.4968817352928
20
2.33030437806352
30
-1E-16
41
1
10
27.2472571215505
20
2.4227969804482
30
-1E-16
41
1
10
26.7474235147029
20
2.59731891410072
30
-2E-16
41
1
10
26.4972287735669
20
2.6794046408877
30
-2E-16
41
1
10
25.9961493044919
20
2.83307832440488
30
-2E-16
41
1
10
25.7450144138154
20
2.90463319032781
30
0
41
1
10
25.2445396865131
20
3.03620843006721
30
0
41
1
10
24.9947054860748
20
3.09608554775153
30
0
41
1
10
24.4946937153669
20
3.20307376049803
30
0
41
1
10
24.2445827883416
20
3.25027498439073
30
0
41
1
10
23.7440201987751
20
3.33200200770722
30
0
41
1
10
23.4933254522449
20
3.3665375703948
30
0
41
1
10
22.7416395838996
20
3.45015391166595
30
0
41
1
10
22.2417720184529
20
3.47861673212694
30
0
41
1
10
21.7269901410575
20
3.47997351168297
30
0
41
1
10
21.7124819380021
20
3.47998878564849
30
0
41
1
10
21.6979739833745
20
3.47998108436084
30
0
0
SPLINE
5
DD
100
AcDbEntity
8
1
62
256
6
ByLayer
370
18
48
1
60
0
100
AcDbSpline
70
4
71
3
72
20
73
16
40
0
40
0
40
0
40
0
40
0.25
40
0.25
40
0.5
40
0.5
40
0.5625
40
0.5625
40
0.625
40
0.625
40
0.75
40
0.75
40
0.875
40
0.875
40
1
40
1
40
1
40
1
41
1
10
53.7841935439846
20
3.35626370568639
30
0
41
1
10
53.8527920567148
20
3.16360634527527
30
0
41
1
10
53.9207163252641
20
2.96965244012259
30
0
41
1
10
54.0572362765449
20
2.58082542120042
30
0
41
1
10
54.1258464028857
20
2.38608290677232
30
0
41
1
10
54.2125903494574
20
2.14299816370559
30
0
41
1
10
54.2300792117841
20
2.09433050360616
30
0
41
1
10
54.2658632729489
20
1.99759798638763
30
0
41
1
10
54.2840272113577
20
1.94966361518982
30
0
41
1
10
54.3395532479577
20
1.80726825211525
30
0
41
1
10
54.3779601562428
20
1.71422673794945
30
0
41
1
10
54.4585503130617
20
1.53231931688418
30
0
41
1
10
54.5007427860997
20
1.44332165458624
30
0
41
1
10
54.5895220980336
20
1.27008945055081
30
0
41
1
10
54.6352409529416
20
1.18757017322832
30
0
41
1
10
54.682453861315
20
1.10888103304745
30
0
0
SPLINE
5
DE
100
AcDbEntity
8
1
62
256
6
ByLayer
370
18
48
1
60
0
100
AcDbSpline
70
4
71
3
72
28
73
24
40
0
40
0
40
0
40
0
40
0.125
40
0.125
40
0.187500000000001
40
0.187500000000001
40
0.250000000000001
40
0.250000000000001
40
0.375000000000002
40
0.375000000000002
40
0.437500000000003
40
0.437500000000003
40
0.500000000000003
40
0.500000000000003
40
0.625000000000003
40
0.625000000000003
40
0.687500000000002
40
0.687500000000002
40
0.750000000000002
40
0.750000000000002
40
0.875000000000001
40
0.875000000000001
40
1
40
1
40
1
40
1
41
1
10
53.3513458915236
20
-0.0253815524301331
30
0
41
1
10
53.3576592860957
20
-0.225858382308672
30
0
41
1
10
53.3725452809066
20
-0.422481758453841
30
0
41
1
10
53.4017470245049
20
-0.712426591349157
30
0
41
1
10
53.4126493768438
20
-0.808235771141511
30
0
41
1
10
53.4360037690365
20
-0.998228068365108
30
1E-16
41
1
10
53.4485212502384
20
-1.09286753181445
30
1E-16
41
1
10
53.4867995613387
20
-1.37038021292455
30
1E-16
41
1
10
53.5131601583677
20
-1.54678897600701
30
1E-16
41
1
10
53.5506655758329
20
-1.79918331038203
30
1E-16
41
1
10
53.5628451300979
20
-1.88126254150839
30
1E-16
41
1
10
53.5861884743594
20
-2.04124531658911
30
1E-16
41
1
10
53.5973633055114
20
-2.11925534701581
30
1E-16
41
1
10
53.6283779430692
20
-2.34232170228324
30
1E-16
41
1
10
53.6458900273689
20
-2.47812723278148
30
2E-16
41
1
10
53.6677022721033
20
-2.6625967442248
30
-1E-16
41
1
10
53.6742454308243
20
-2.72086044075132
30
-1E-16
41
1
10
53.6861212384478
20
-2.83071159024004
30
0
41
1
10
53.6914242742212
20
-2.88202905180268
30
0
41
1
10
53.7058730576517
20
-3.02290962535417
30
0
41
1
10
53.7136158505354
20
-3.10052571491551
30
0
41
1
10
53.730433214772
20
-3.22317444138292
30
0
41
1
10
53.7395745563808
20
-3.26815868229289
30
0
41
1
10
53.7526070659558
20
-3.29500198334929
30
0
0
SPLINE
5
DF
100
AcDbEntity
8
1
62
256
6
ByLayer
370
18
48
1
60
0
100
AcDbSpline
70
4
71
3
72
34
73
30
40
0
40
0
40
0
40
0
40
0.498483706943426
40
0.498483706943426
40
0.665832093978546
40
0.665832093978546
40
0.77781798989038
40
0.77781798989038
40
0.85272816884148
40
0.85272816884148
40
0.902823460909259
40
0.902823460909259
40
0.936317125591548
40
0.936317125591548
40
0.958707673227365
40
0.958707673227365
40
0.973674251212577
40
0.973674251212577
40
0.983677708571235
40
0.983677708571235
40
0.990362804869861
40
0.990362804869861
40
0.99482691363269
40
0.99482691363269
40
0.99780511937954
40
0.99780511937954
40
0.999845133416101
40
0.999845133416101
40
1
40
1
40
1
40
1
41
1
10
53.5688617817253
20
-3.49937787522049
30
0
41
1
10
53.6038283939428
20
-3.47647636629438
30
0
41
1
10
53.6388468251065
20
-3.45337039186055
30
0
41
1
10
53.6856675512654
20
-3.42225981007601
30
0
41
1
10
53.6974396008122
20
-3.41441940458887
30
0
41
1
10
53.717094842803
20
-3.40129842940431
30
0
41
1
10
53.7249762146585
20
-3.39602906756622
30
0
41
1
10
53.7381318389765
20
-3.38721999443641
30
0
41
1
10
53.7434053698461
20
-3.38368521132711
30
0
41
1
10
53.752206407041
20
-3.37778000240445
30
0
41
1
10
53.7557336192152
20
-3.37541175518646
30
0
41
1
10
53.7616194947757
20
-3.37145718237693
30
0
41
1
10
53.7639780353537
20
-3.36987182325686
30
0
41
1
10
53.7679134208691
20
-3.36722535329122
30
0
41
1
10
53.7694902135504
20
-3.36616467216874
30
0
41
1
10
53.7721210545012
20
-3.36439441967821
30
0
41
1
10
53.7731750802132
20
-3.36368503966381
30
0
41
1
10
53.7749336320281
20
-3.36250126250175
30
0
41
1
10
53.7756380276362
20
-3.3620270321926
30
0
41
1
10
53.7768141844093
20
-3.36123508222585
30
0
41
1
10
53.7772856239167
20
-3.36091761525969
30
0
41
1
10
53.7780727657006
20
-3.36038750607389
30
0
41
1
10
53.7783881743943
20
-3.36017507771166
30
0
41
1
10
53.7789144966179
20
-3.35982057728083
30
0
41
1
10
53.7791253675054
20
-3.35967854124573
30
0
41
1
10
53.779475535063
20
-3.35944267898279
30
0
41
1
10
53.7796166844329
20
-3.35934760483803
30
0
41
1
10
53.7797639443629
20
-3.35924841735772
30
0
41
1
10
53.7797743145539
20
-3.35924143250603
30
0
41
1
10
53.7797846559305
20
-3.35923446706536
30
0
0
SPLINE
5
E0
100
AcDbEntity
8
1
62
256
6
ByLayer
370
18
48
1
60
0
100
AcDbSpline
70
4
71
3
72
32
73
28
40
0
40
0
40
0
40
0
40
0.0425638498183392
40
0.0425638498183392
40
0.111657894597285
40
0.111657894597285
40
0.180751939376231
40
0.180751939376231
40
0.249845984155177
40
0.249845984155177
40
0.318940028934123
40
0.318940028934123
40
0.457128118492013
40
0.457128118492013
40
0.526222163270958
40
0.526222163270958
40
0.595316208049903
40
0.595316208049903
40
0.664410252828848
40
0.664410252828848
40
0.733504297607793
40
0.733504297607793
40
0.802598342386738
40
0.802598342386738
40
0.871692387165683
40
0.871692387165683
40
1
40
1
40
1
40
1
41
1
10
20.2488931446211
20
3.3090878748807
30
0
41
1
10
20.4085584497272
20
3.31426307381364
30
0
41
1
10
20.568510063471
20
3.31680972150698
30
0
41
1
10
20.989425443525
20
3.31554191405544
30
0
41
1
10
21.2510963405607
20
3.30745878065991
30
0
41
1
10
21.7710701403796
20
3.27851944368314
30
0
41
1
10
22.0300711227515
20
3.25768579539212
30
0
41
1
10
22.5473547862471
20
3.20088013844207
30
0
41
1
10
22.8054990629087
20
3.16564161509484
30
0
41
1
10
23.3209434102283
20
3.08309169848425
30
0
41
1
10
23.578246287373
20
3.03569887751803
30
0
41
1
10
24.3509329261435
20
2.87337784541657
30
0
41
1
10
24.8659215953683
20
2.74065866909362
30
1E-16
41
1
10
25.6423191099219
20
2.50772321111819
30
-2E-16
41
1
10
25.9018755183283
20
2.42433179895082
30
-1E-16
41
1
10
26.4223463942583
20
2.24733515924456
30
-1E-16
41
1
10
26.68371569811
20
2.1534644164885
30
-1E-16
41
1
10
27.2053200648981
20
1.95730641667501
30
-1E-16
41
1
10
27.4658960173092
20
1.8549510648939
30
-1E-16
41
1
10
27.986855725604
20
1.64271020492384
30
-1E-16
41
1
10
28.2474054924514
20
1.53283665227545
30
-1E-16
41
1
10
28.7695447322372
20
1.30678220274962
30
-1E-16
41
1
10
29.030439026552
20
1.19078769314965
30
-1E-16
41
1
10
29.55014331608
20
0.954823522411942
30
-1E-16
41
1
10
29.8093737386228
20
0.83485801874906
30
-1E-16
41
1
10
30.5493285117355
20
0.488694473762052
30
0
41
1
10
31.028857478287
20
0.258473796515347
30
0
41
1
10
31.5094588942397
20
0.0281341071201098
30
0
0
SPLINE
5
E1
100
AcDbEntity
8
1
62
256
6
ByLayer
370
18
48
1
60
0
100
AcDbSpline
70
4
71
3
72
34
73
30
40
0
40
0
40
0
40
0
40
0.0281492076953887
40
0.0281492076953887
40
0.166137328635682
40
0.166137328635682
40
0.235131389105831
40
0.235131389105831
40
0.304125449575979
40
0.304125449575979
40
0.373119510046127
40
0.373119510046127
40
0.442113570516275
40
0.442113570516275
40
0.511107630986423
40
0.511107630986423
40
0.580101691456572
40
0.580101691456572
40
0.718089812396867
40
0.718089812396867
40
0.787083872867014
40
0.787083872867014
40
0.856077933337162
40
0.856077933337162
40
0.925071993807309
40
0.925071993807309
40
0.994066054277456
40
0.994066054277456
40
1
40
1
40
1
40
1
41
1
10
31.9386119895446
20
-0.188020784856718
30
0
41
1
10
31.8328742002652
20
-0.137521748653825
30
0
41
1
10
31.7271924321019
20
-0.0870118016964625
30
0
41
1
10
31.1036281653032
20
0.210809617554275
30
0
41
1
10
30.5871852382431
20
0.458585415114698
30
0
41
1
10
29.8100584021411
20
0.821316531268138
30
-1E-16
41
1
10
29.5507869262896
20
0.941058216585731
30
-1E-16
41
1
10
29.0310079018451
20
1.17662122988861
30
-1E-16
41
1
10
28.7700899906445
20
1.29243229016262
30
-1E-16
41
1
10
28.2478624524581
20
1.51820647889184
30
-1E-16
41
1
10
27.9872686524383
20
1.62797644060493
30
-1E-16
41
1
10
27.4662230480112
20
1.84005703913618
30
-1E-16
41
1
10
27.2056057667375
20
1.94235583231404
30
-1E-16
41
1
10
26.6839260854585
20
2.13847336888321
30
-1E-16
41
1
10
26.4225191383563
20
2.23236091433077
30
-1E-16
41
1
10
25.9019410672942
20
2.40944497217274
30
-1E-16
41
1
10
25.6423297069035
20
2.49290737788218
30
-2E-16
41
1
10
24.8657614378561
20
2.72616262701769
30
1E-16
41
1
10
24.3506519270392
20
2.85919244379946
30
0
41
1
10
23.5777958398445
20
3.02215128939389
30
0
41
1
10
23.3204377117674
20
3.0697905331146
30
0
41
1
10
22.8048860107949
20
3.15285450488096
30
0
41
1
10
22.54669162815
20
3.18837412739757
30
0
41
1
10
22.0293173928428
20
3.2458024364166
30
0
41
1
10
21.7702752915417
20
3.26697871866975
30
0
41
1
10
21.2502247958635
20
3.29661891560247
30
0
41
1
10
20.9885236164968
20
3.30507721644201
30
0
41
1
10
20.7056041732465
20
3.30636136647115
30
0
41
1
10
20.6832080167083
20
3.30640417992586
30
0
41
1
10
20.6608210107178
20
3.30638918731833
30
0
0
SPLINE
5
E2
100
AcDbEntity
8
1
62
256
6
ByLayer
370
18
48
1
60
0
100
AcDbSpline
70
4
71
3
72
48
73
44
40
0
40
0
40
0
40
0
40
0.0910166606406749
40
0.0910166606406749
40
0.136524990961013
40
0.136524990961013
40
0.182033321281351
40
0.182033321281351
40
0.227541651601689
40
0.227541651601689
40
0.273049981922027
40
0.273049981922027
40
0.318558312242365
40
0.318558312242365
40
0.364066642562702
40
0.364066642562702
40
0.40957497288304
40
0.40957497288304
40
0.455083303203378
40
0.455083303203378
40
0.500591633523716
40
0.500591633523716
40
0.546099963844054
40
0.546099963844054
40
0.591608294164392
40
0.591608294164392
40
0.63711662448473
40
0.63711662448473
40
0.682624954805068
40
0.682624954805068
40
0.728133285125406
40
0.728133285125406
40
0.773641615445744
40
0.773641615445744
40
0.819149945766082
40
0.819149945766082
40
0.86465827608642
40
0.86465827608642
40
0.910166606406758
40
0.910166606406758
40
0.955674936727095
40
0.955674936727095
40
1
40
1
40
1
40
1
41
1
10
3.64708542225668
20
2.69848750968873
30
-2E-16
41
1
10
4.16542244349509
20
2.53285952900939
30
-2E-16
41
1
10
4.68394733842087
20
2.34665137685374
30
-1E-16
41
1
10
5.46385798200484
20
2.0406091682022
30
-1E-16
41
1
10
5.72445928146919
20
1.9339963498854
30
-1E-16
41
1
10
6.24415529534926
20
1.71308185658452
30
-1E-16
41
1
10
6.50328740976167
20
1.59837599385091
30
-1E-16
41
1
10
7.02155532768279
20
1.36296635677914
30
-1E-16
41
1
10
7.28088532388887
20
1.24263907503377
30
-1E-16
41
1
10
7.7998148688462
20
0.996534034461831
30
-1E-16
41
1
10
8.05976572645446
20
0.870538456479295
30
-1E-16
41
1
10
8.57948489178753
20
0.616120507045622
30
0
41
1
10
8.83846284380189
20
0.48815769263274
30
0
41
1
10
9.35472312940846
20
0.230822403225602
30
0
41
1
10
9.61197231508922
20
0.101387313023395
30
0
41
1
10
10.1259292050346
20
-0.156503007732709
30
0
41
1
10
10.3826770838657
20
-0.284881730019464
30
0
41
1
10
10.8957989274174
20
-0.540343641352393
30
0
41
1
10
11.1521294848151
20
-0.667509116556516
30
0
41
1
10
11.6654690123221
20
-0.918408251272325
30
1E-16
41
1
10
11.9225258284799
20
-1.04205207365416
30
1E-16
41
1
10
12.4375296404489
20
-1.28548359514508
30
1E-16
41
1
10
12.6954271881759
20
-1.40536250191602
30
1E-16
41
1
10
13.2131691403316
20
-1.63915751997709
30
1E-16
41
1
10
13.4735954399902
20
-1.75320623803103
30
1E-16
41
1
10
13.9931056839718
20
-1.9733193453153
30
1E-16
41
1
10
14.2522809903401
20
-2.07952888643303
30
1E-16
41
1
10
14.7706426348504
20
-2.28237368605369
30
1E-16
41
1
10
15.0298806991551
20
-2.37895617413235
30
1E-16
41
1
10
15.5484995180807
20
-2.56238050181639
30
2E-16
41
1
10
15.807949536404
20
-2.64922676618778
30
2E-16
41
1
10
16.3281162447208
20
-2.81099942402389
30
2E-16
41
1
10
16.5878023406225
20
-2.88581505148267
30
0
41
1
10
17.1063422114614
20
-3.02340871622766
30
0
41
1
10
17.3652036606109
20
-3.08612378635132
30
0
41
1
10
17.8837194240074
20
-3.19789644143549
30
0
41
1
10
18.1432231967212
20
-3.24713656328231
30
0
41
1
10
18.6627325052359
20
-3.33217894727301
30
0
41
1
10
18.9226026284327
20
-3.36786089887261
30
0
41
1
10
19.4415777037623
20
-3.42446490118837
30
0
41
1
10
19.7008524865907
20
-3.44558220374839
30
0
41
1
10
20.2122955736348
20
-3.47303119283899
30
0
41
1
10
20.4645099859092
20
-3.47966975296623
30
0
41
1
10
20.717337550574
20
-3.47934276802869
30
0
0
SPLINE
5
E3
100
AcDbEntity
8
1
62
256
6
ByLayer
370
18
48
1
60
0
100
AcDbSpline
70
4
71
3
72
32
73
28
40
0
40
0
40
0
40
0
40
0.0420949934419154
40
0.0420949934419154
40
0.101964056351797
40
0.101964056351797
40
0.161833119261678
40
0.161833119261678
40
0.281571245081437
40
0.281571245081437
40
0.401309370901197
40
0.401309370901197
40
0.461178433811078
40
0.461178433811078
40
0.521047496720959
40
0.521047496720959
40
0.58091655963084
40
0.58091655963084
40
0.640785622540722
40
0.640785622540722
40
0.760523748360481
40
0.760523748360481
40
0.880261874180241
40
0.880261874180241
40
0.940130937090121
40
0.940130937090121
40
1
40
1
40
1
40
1
41
1
10
40.3174621327104
20
3.32814642489177
30
0
41
1
10
40.4978652462993
20
3.35580046755609
30
0
41
1
10
40.678488637875
20
3.38007790058822
30
0
41
1
10
41.1169642674224
20
3.43038279580151
30
0
41
1
10
41.3749412868279
20
3.45301634704524
30
0
41
1
10
41.8924931192332
20
3.48390471618759
30
0
41
1
10
42.1528002392914
20
3.49207834715636
30
0
41
1
10
42.9311035785014
20
3.49449915312454
30
0
41
1
10
43.4472527264383
20
3.46637562595731
30
0
41
1
10
44.4842928257681
20
3.3531397742606
30
0
41
1
10
45.0050260898852
20
3.26792344358202
30
0
41
1
10
45.781826957201
20
3.09971584128266
30
0
41
1
10
46.040337381492
20
3.03679469451103
30
0
41
1
10
46.5579332778837
20
2.89852262959636
30
0
41
1
10
46.8170968993103
20
2.82328940776904
30
-2E-16
41
1
10
47.3364967126019
20
2.66106095433207
30
-2E-16
41
1
10
47.595873126922
20
2.5742448489101
30
-2E-16
41
1
10
48.1123377897844
20
2.39107986954022
30
-1E-16
41
1
10
48.3698072340239
20
2.29466125962571
30
-1E-16
41
1
10
49.1405717009401
20
1.99203325993761
30
-1E-16
41
1
10
49.6522258419105
20
1.77239591315441
30
-1E-16
41
1
10
50.6771654173414
20
1.30779200320626
30
-1E-16
41
1
10
51.1901872750332
20
1.06236196835809
30
-1E-16
41
1
10
51.9647265308931
20
0.682193157314373
30
0
41
1
10
52.2239577252465
20
0.553175408153209
30
0
41
1
10
52.743259107761
20
0.29260929824278
30
0
41
1
10
53.0025664137913
20
0.161437356950813
30
0
41
1
10
53.2619274360881
20
0.0301617847335081
30
0
0
SPLINE
5
E4
100
AcDbEntity
8
1
62
256
6
ByLayer
370
18
48
1
60
0
100
AcDbSpline
70
4
71
3
72
8
73
4
40
0
40
0
40
0
40
0
40
1
40
1
40
1
40
1
41
1
10
6.83056866671024
20
-3.0921702246973
30
0
41
1
10
7.92333472845394
20
-3.34159501678977
30
0
41
1
10
8.99766046414891
20
-3.47077789204073
30
0
41
1
10
10.0771867239917
20
-3.47270903149928
30
0
0
SPLINE
5
E5
100
AcDbEntity
8
1
62
256
6
ByLayer
370
18
48
1
60
0
100
AcDbSpline
70
4
71
3
72
8
73
4
40
0
40
0
40
0
40
0
40
1
40
1
40
1
40
1
41
1
10
54.9967724190198
20
0.193232742287364
30
0
41
1
10
55.0010765677932
20
0.0643897362278381
30
0
41
1
10
55.0010751530835
20
-0.0644320849996518
30
0
41
1
10
54.9967724190201
20
-0.193232742277644
30
0
0
SPLINE
5
E6
100
AcDbEntity
8
1
62
256
6
ByLayer
370
18
48
1
60
0
100
AcDbSpline
70
4
71
3
72
10
73
6
40
0
40
0
40
0
40
0
40
0.5
40
0.5
40
1
40
1
40
1
40
1
41
1
10
3.50170015746465
20
2.64153800113058
30
-2E-16
41
1
10
3.50170015746465
20
2.66381034670951
30
-2E-16
41
1
10
3.52020345003473
20
2.68473622858394
30
-2E-16
41
1
10
3.57872160644621
20
2.70731986793351
30
-2E-16
41
1
10
3.61646294746336
20
2.70827253073799
30
-2E-16
41
1
10
3.64708542225668
20
2.69848750968873
30
-2E-16
0
SPLINE
5
E7
100
AcDbEntity
8
1
62
256
6
ByLayer
370
18
48
1
60
0
100
AcDbSpline
70
4
71
3
72
8
73
4
40
0
40
0
40
0
40
0
40
1
40
1
40
1
40
1
41
1
10
53.2619274360881
20
0.0301617847335365
30
0
41
1
10
53.2546601767386
20
0.194801207307592
30
0
41
1
10
53.2533095505303
20
0.358303445408268
30
0
41
1
10
53.2598017446652
20
0.520660067511415
30
0
0
SPLINE
5
E8
100
AcDbEntity
8
1
62
256
6
ByLayer
370
18
48
1
60
0
100
AcDbSpline
70
4
71
3
72
10
73
6
40
0
40
0
40
0
40
0
40
0.5
40
0.5
40
1
40
1
40
1
40
1
41
1
10
3.5585548173074
20
-1.49617394726275
30
1E-16
41
1
10
3.53884337060219
20
-1.49292238464903
30
1E-16
41
1
10
3.52470501019741
20
-1.48792724503357
30
1E-16
41
1
10
3.50619499773671
20
-1.47684755000398
30
1E-16
41
1
10
3.50170015746468
20
-1.47062803171923
30
1E-16
41
1
10
3.50170015746465
20
-1.46441670535484
30
1E-16
0
SPLINE
5
E9
100
AcDbEntity
8
1
62
256
6
ByLayer
370
18
48
1
60
0
100
AcDbSpline
70
4
71
3
72
14
73
10
40
0
40
0
40
0
40
0
40
0.270573637667613
40
0.270573637667613
40
0.508251671882729
40
0.508251671882729
40
0.784279920375576
40
0.784279920375576
40
1
40
1
40
1
40
1
41
1
10
53.3460025538188
20
-0.0117948152594636
30
0
41
1
10
53.3467480612843
20
-0.0121489207545551
30
0
41
1
10
53.3474774971788
20
-0.0128685878530064
30
0
41
1
10
53.3486973921034
20
-0.0146502491149079
30
0
41
1
10
53.3492229256325
20
-0.0156840895178902
30
0
41
1
10
53.350191969801
20
-0.0181834530504261
30
0
41
1
10
53.3506242450002
20
-0.0197308596561925
30
0
41
1
10
53.3511506606367
20
-0.022649577404394
30
0
41
1
10
53.3513030043704
20
-0.024019704944692
30
0
41
1
10
53.3513458915237
20
-0.0253815524358458
30
0
0
SPLINE
5
EA
100
AcDbEntity
8
1
62
256
6
ByLayer
370
18
48
1
60
0
100
AcDbSpline
70
4
71
3
72
36
73
32
40
0
40
0
40
0
40
0
40
0.0303580273332888
40
0.0303580273332888
40
0.127322224599961
40
0.127322224599961
40
0.175804323233296
40
0.175804323233296
40
0.224286421866631
40
0.224286421866631
40
0.321250619133303
40
0.321250619133303
40
0.369732717766639
40
0.369732717766639
40
0.418214816399975
40
0.418214816399975
40
0.466696915033311
40
0.466696915033311
40
0.515179013666647
40
0.515179013666647
40
0.563661112299983
40
0.563661112299983
40
0.612143210933318
40
0.612143210933318
40
0.806071605466659
40
0.806071605466659
40
0.854553704099994
40
0.854553704099994
40
0.903035802733329
40
0.903035802733329
40
1
40
1
40
1
40
1
41
1
10
31.9361378275898
20
3.48636103946066
30
0
41
1
10
32.1559961207462
20
3.48648709174469
30
0
41
1
10
32.3763082538318
20
3.48135627968989
30
0
41
1
10
33.298650889132
20
3.4377051659047
30
0
41
1
10
33.9983375966618
20
3.35093855287337
30
0
41
1
10
35.0535040646312
20
3.14482958417136
30
0
41
1
10
35.4039380642412
20
3.06391128470597
30
0
41
1
10
36.1016400577204
20
2.88018589969405
30
0
41
1
10
36.4492529745876
20
2.77730023049125
30
-2E-16
41
1
10
37.4907621891748
20
2.43882667710102
30
-1E-16
41
1
10
38.1833614865345
20
2.17342630641332
30
-1E-16
41
1
10
39.2290054547329
20
1.72934085745703
30
-1E-16
41
1
10
39.5786788773249
20
1.57365910416249
30
-1E-16
41
1
10
40.2819149400632
20
1.24952847131999
30
-1E-16
41
1
10
40.6329853633068
20
1.08222525930478
30
-1E-16
41
1
10
41.3341707507194
20
0.740964793560266
30
0
41
1
10
41.6845312416033
20
0.566902743001549
30
0
41
1
10
42.3864241044856
20
0.215100647228297
30
0
41
1
10
42.7384585794225
20
0.0370877724811578
30
0
41
1
10
43.440344794542
20
-0.316825352936377
30
0
41
1
10
43.7906978181472
20
-0.492961430460696
30
0
41
1
10
44.4918696800782
20
-0.840345321347826
30
1E-16
41
1
10
44.8430131269517
20
-1.01177299655939
30
1E-16
41
1
10
46.6003868613211
20
-1.84713415116295
30
1E-16
41
1
10
47.9756477993364
20
-2.42672606191138
30
1E-16
41
1
10
49.7192152934076
20
-2.94202489647662
30
0
41
1
10
50.0696858780967
20
-3.03478412288254
30
0
41
1
10
50.7724874824826
20
-3.19657098144674
30
0
41
1
10
51.1225351926213
20
-3.26510952397419
30
0
41
1
10
52.1710234205036
20
-3.43241908959482
30
0
41
1
10
52.8678322295741
20
-3.49281492571714
30
0
41
1
10
53.5688617817254
20
-3.49937787522046
30
0
0
SPLINE
5
EB
100
AcDbEntity
8
1
62
256
6
ByLayer
370
18
48
1
60
0
100
AcDbSpline
70
4
71
3
72
8
73
4
40
0
40
0
40
0
40
0
40
1
40
1
40
1
40
1
41
1
10
3.60188141333683
20
-1.50822459412512
30
1E-16
41
1
10
3.5869061429629
20
-1.50251557032186
30
1E-16
41
1
10
3.57226707491248
20
-1.49843589509396
30
1E-16
41
1
10
3.55855481730802
20
-1.49617394726107
30
1E-16
0
SPLINE
5
EC
100
AcDbEntity
8
1
62
256
6
ByLayer
370
18
48
1
60
0
100
AcDbSpline
70
4
71
3
72
8
73
4
40
0
40
0
40
0
40
0
40
1
40
1
40
1
40
1
41
1
10
3.64106551494009
20
2.55803830246865
30
-2E-16
41
1
10
3.6289912288714
20
2.56164896373636
30
-2E-16
41
1
10
3.6158991131648
20
2.56348462293351
30
-2E-16
41
1
10
3.60248689216095
20
2.563468541568
30
-2E-16
0
SPLINE
5
ED
100
AcDbEntity
8
1
62
256
6
ByLayer
370
18
48
1
60
0
100
AcDbSpline
70
4
71
3
72
10
73
6
40
0
40
0
40
0
40
0
40
0.5
40
0.5
40
1
40
1
40
1
40
1
41
1
10
54.0953875138662
20
0.986794112813328
30
0
41
1
10
54.1941441266389
20
1.0027816208063
30
0
41
1
10
54.2926885102232
20
1.02035922809489
30
0
41
1
10
54.4886489886883
20
1.05991405065657
30
0
41
1
10
54.5860408274848
20
1.08226063244652
30
0
41
1
10
54.6824538613155
20
1.10888103304652
30
0
0
SPLINE
5
EE
100
AcDbEntity
8
1
62
256
6
ByLayer
370
18
48
1
60
0
100
AcDbSpline
70
4
71
3
72
8
73
4
40
0
40
0
40
0
40
0
40
1
40
1
40
1
40
1
41
1
10
53.7500154636012
20
-3.30621108180031
30
0
41
1
10
53.7449802242949
20
-3.32083119044808
30
0
41
1
10
53.7399651763772
20
-3.33545123629605
30
0
41
1
10
53.7349707052165
20
-3.35007132442479
30
0
0
SPLINE
5
EF
100
AcDbEntity
8
1
62
256
6
ByLayer
370
18
48
1
60
0
100
AcDbSpline
70
4
71
3
72
8
73
4
40
0
40
0
40
0
40
0
40
1
40
1
40
1
40
1
41
1
10
3.64535508295992
20
2.57145274602436
30
-2E-16
41
1
10
3.63194283873611
20
2.57548219496368
30
-2E-16
41
1
10
3.61739402501311
20
2.57753876863563
30
-2E-16
41
1
10
3.60248689216095
20
2.57753031094475
30
-2E-16
0
SPLINE
5
F0
100
AcDbEntity
8
1
62
256
6
ByLayer
370
18
48
1
60
0
100
AcDbSpline
70
4
71
3
72
8
73
4
40
0
40
0
40
0
40
0
40
1
40
1
40
1
40
1
41
1
10
53.779784655922
20
3.35923446705522
30
0
41
1
10
53.7812542673915
20
3.35824429541145
30
0
41
1
10
53.7827238967026
20
3.35725404161687
30
0
41
1
10
53.7841935439847
20
3.35626370568639
30
0
0
SPLINE
5
F1
100
AcDbEntity
8
1
62
256
6
ByLayer
370
18
48
1
60
0
100
AcDbSpline
70
4
71
3
72
16
73
12
40
0
40
0
40
0
40
0
40
0.207749356210549
40
0.207749356210549
40
0.415498712421098
40
0.415498712421098
40
0.623248068631647
40
0.623248068631647
40
0.830997424842196
40
0.830997424842196
40
1
40
1
40
1
40
1
41
1
10
53.7797846559227
20
3.35923446705962
30
0
41
1
10
53.4274257089359
20
3.36207443874858
30
0
41
1
10
53.0755483740425
20
3.35173079530537
30
0
41
1
10
52.3727544323801
20
3.30569192021434
30
0
41
1
10
52.0217929913711
20
3.26998816359341
30
0
41
1
10
51.3186408993926
20
3.17319103076664
30
0
41
1
10
50.9658790579336
20
3.11197587293106
30
0
41
1
10
50.2621561922588
20
2.96623458781247
30
0
41
1
10
49.911089718005
20
2.88186953290386
30
0
41
1
10
49.2740823567354
20
2.70893195417676
30
-1E-16
41
1
10
48.9882172939576
20
2.62412682764997
30
-2E-16
41
1
10
48.7018707457003
20
2.53276360582308
30
-2E-16
0
SPLINE
5
F2
100
AcDbEntity
8
1
62
256
6
ByLayer
370
18
48
1
60
0
100
AcDbSpline
70
4
71
3
72
8
73
4
40
0
40
0
40
0
40
0
40
1
40
1
40
1
40
1
41
1
10
21.6886695032557
20
-0.314916481697793
30
0
41
1
10
21.125587229556
20
-0.042765236432075
30
0
41
1
10
20.5638253856265
20
0.23199250866503
30
0
41
1
10
20
20
0.502339908113413
30
0
0
SPLINE
5
F3
100
AcDbEntity
8
1
62
256
6
ByLayer
370
18
48
1
60
0
100
AcDbSpline
70
4
71
3
72
26
73
22
40
0
40
0
40
0
40
0
40
0.0785546052401119
40
0.0785546052401119
40
0.157109210480224
40
0.157109210480224
40
0.235663815720335
40
0.235663815720335
40
0.314218420960447
40
0.314218420960447
40
0.471327631440671
40
0.471327631440671
40
0.628436841920894
40
0.628436841920894
40
0.785546052401117
40
0.785546052401117
40
0.864100657641227
40
0.864100657641227
40
0.942655262881337
40
0.942655262881337
40
1
40
1
40
1
40
1
41
1
10
53.7500154635812
20
-3.30621108179091
30
0
41
1
10
53.487205367824
20
-3.28903119286952
30
0
41
1
10
53.2248280759328
20
-3.26567113177535
30
0
41
1
10
52.7005695565245
20
-3.20408678890814
30
0
41
1
10
52.4386521466222
20
-3.16630115692843
30
0
41
1
10
51.9147165988861
20
-3.07732158613916
30
0
41
1
10
51.6527056156438
20
-3.02614015986825
30
0
41
1
10
51.1279240163038
20
-2.91086278154734
30
0
41
1
10
50.8647787074622
20
-2.84666483480513
30
0
41
1
10
50.0756748045487
20
-2.63606382427895
30
2E-16
41
1
10
49.5541385260446
20
-2.47281872604151
30
2E-16
41
1
10
48.5150042157535
20
-2.10922126386222
30
1E-16
41
1
10
47.9974420486707
20
-1.908793210277
30
1E-16
41
1
10
46.9617180568227
20
-1.4793201504128
30
1E-16
41
1
10
46.4434521629927
20
-1.25024921021932
30
1E-16
41
1
10
45.6619741391536
20
-0.891725661257794
30
1E-16
41
1
10
45.400771141062
20
-0.769767777539698
30
0
41
1
10
44.8763129946151
20
-0.52220879344145
30
0
41
1
10
44.6124321569811
20
-0.396302412826628
30
0
41
1
10
44.1585683226047
20
-0.178853617524879
30
0
41
1
10
43.9675918196687
20
-0.0870616372517929
30
0
41
1
10
43.7770353500276
20
0.0045195550010817
30
0
0
SPLINE
5
F4
100
AcDbEntity
8
1
62
256
6
ByLayer
370
18
48
1
60
0
100
AcDbSpline
70
4
71
3
72
18
73
14
40
0
40
0
40
0
40
0
40
0.076070194317139
40
0.076070194317139
40
0.178729061615235
40
0.178729061615235
40
0.589364530807618
40
0.589364530807618
40
0.794682265403809
40
0.794682265403809
40
0.897341132701905
40
0.897341132701905
40
1
40
1
40
1
40
1
41
1
10
11.2451981238837
20
-3.30829092073276
30
0
41
1
10
11.0516654817754
20
-3.30929671927586
30
0
41
1
10
10.8577938198472
20
-3.30642792262614
30
0
41
1
10
10.4011951404308
20
-3.29048103811189
30
0
41
1
10
10.1374014882725
20
-3.27412074713047
30
0
41
1
10
8.82171126235949
20
-3.15714650037626
30
0
41
1
10
7.78478215651188
20
-2.95187973508411
30
0
41
1
10
6.2237372609076
20
-2.50730672066487
30
2E-16
41
1
10
5.70257011198325
20
-2.33609127014571
30
1E-16
41
1
10
4.91574113070203
20
-2.05020301049075
30
1E-16
41
1
10
4.65216700152644
20
-1.94985702123958
30
1E-16
41
1
10
4.12482480148677
20
-1.74104202891022
30
1E-16
41
1
10
3.86127287933402
20
-1.63267580696046
30
1E-16
41
1
10
3.59755858863392
20
-1.5208168111952
30
1E-16
0
SPLINE
5
F5
100
AcDbEntity
8
1
62
256
6
ByLayer
370
18
48
1
60
0
100
AcDbSpline
70
4
71
3
72
12
73
8
40
0
40
0
40
0
40
0
40
0.250000000000002
40
0.250000000000002
40
0.500000000000003
40
0.500000000000003
40
1
40
1
40
1
40
1
41
1
10
3.60248689216095
20
2.57753031094475
30
-2E-16
41
1
10
3.58685308800494
20
2.57752144097063
30
-2E-16
41
1
10
3.57166977171676
20
2.57778704961979
30
-2E-16
41
1
10
3.54560349164004
20
2.57866079609812
30
-2E-16
41
1
10
3.53483370993399
20
2.57925116466726
30
-2E-16
41
1
10
3.5094615687062
20
2.58115834624058
30
-2E-16
41
1
10
3.5017001574646
20
2.58256202708063
30
-2E-16
41
1
10
3.50170015746465
20
2.58380755398346
30
-2E-16
0
SPLINE
5
F6
100
AcDbEntity
8
1
62
256
6
ByLayer
370
18
48
1
60
0
100
AcDbSpline
70
4
71
3
72
38
73
34
40
0
40
0
40
0
40
0
40
0.0756429338058455
40
0.0756429338058455
40
0.113464400708767
40
0.113464400708767
40
0.151285867611689
40
0.151285867611689
40
0.189107334514611
40
0.189107334514611
40
0.226928801417533
40
0.226928801417533
40
0.302571735223375
40
0.302571735223375
40
0.453857602835061
40
0.453857602835061
40
0.491679069737983
40
0.491679069737983
40
0.529500536640905
40
0.529500536640905
40
0.567322003543827
40
0.567322003543827
40
0.605143470446749
40
0.605143470446749
40
0.756429338058435
40
0.756429338058435
40
0.832072271864279
40
0.832072271864279
40
0.8698937387672
40
0.8698937387672
40
0.907715205670122
40
0.907715205670122
40
1
40
1
40
1
40
1
41
1
10
53.5546779155869
20
-3.45529536338785
30
0
41
1
10
53.0315233348469
20
-3.41280834047617
30
0
41
1
10
52.5093072872828
20
-3.3408643889928
30
0
41
1
10
51.7239044985366
20
-3.19082563664404
30
0
41
1
10
51.4618798869272
20
-3.13378743956264
30
0
41
1
10
50.9390877494032
20
-3.00687488544443
30
0
41
1
10
50.6779929969036
20
-2.9369420410261
30
0
41
1
10
50.1557546575059
20
-2.78485159215407
30
2E-16
41
1
10
49.8946118480732
20
-2.70269147899182
30
2E-16
41
1
10
49.3715744712385
20
-2.52695998780709
30
2E-16
41
1
10
49.1091833277971
20
-2.43319152262919
30
1E-16
41
1
10
48.3257149446175
20
-2.13836164408229
30
1E-16
41
1
10
47.8072082911366
20
-1.9233304466897
30
1E-16
41
1
10
46.2551459197992
20
-1.23725658961476
30
1E-16
41
1
10
45.2252126482229
20
-0.724754041555457
30
0
41
1
10
43.9169842050321
20
-0.0660718818223529
30
0
41
1
10
43.6547016324767
20
0.0663585430227442
30
0
41
1
10
43.131805198751
20
0.329707801082634
30
0
41
1
10
42.8706896513364
20
0.460870624752431
30
0
41
1
10
42.3483358042587
20
0.720615063244082
30
0
41
1
10
42.0870974333374
20
0.84919744039135
30
-1E-16
41
1
10
41.5638619575646
20
1.10253495804102
30
-1E-16
41
1
10
41.3014092017524
20
1.22749710558742
30
-1E-16
41
1
10
39.9956272041618
20
1.83464095266294
30
-1E-16
41
1
10
38.9659214250155
20
2.26667606957591
30
-1E-16
41
1
10
37.4123238538738
20
2.78524195815916
30
-2E-16
41
1
10
36.8929971279094
20
2.93663490779804
30
0
41
1
10
36.107819968235
20
3.12577456967952
30
0
41
1
10
35.8457594065788
20
3.18230513486768
30
0
41
1
10
35.3245435232218
20
3.28096077215997
30
0
41
1
10
35.0647482830444
20
3.32323473238694
30
0
41
1
10
34.1728213144716
20
3.44412740280578
30
0
41
1
10
33.5432140278919
20
3.4872329219057
30
0
41
1
10
32.9119126646137
20
3.48691427275884
30
0
0
SPLINE
5
F7
100
AcDbEntity
8
1
62
256
6
ByLayer
370
18
48
1
60
0
100
AcDbSpline
70
4
71
3
72
24
73
20
40
0
40
0
40
0
40
0
40
0.0338167003509555
40
0.0338167003509555
40
0.114331975321709
40
0.114331975321709
40
0.194847250292462
40
0.194847250292462
40
0.355877800233969
40
0.355877800233969
40
0.516908350175476
40
0.516908350175476
40
0.597423625146231
40
0.597423625146231
40
0.677938900116986
40
0.677938900116986
40
0.838969450058493
40
0.838969450058493
40
1
40
1
40
1
40
1
41
1
10
13.2615445490919
20
-3.3159703126114
30
0
41
1
10
13.1519004633323
20
-3.33235500455598
30
0
41
1
10
13.0420989151182
20
-3.34751185310091
30
0
41
1
10
12.6702520016885
20
-3.39451309692612
30
0
41
1
10
12.4078320177574
20
-3.42041887537405
30
0
41
1
10
11.8860334094619
20
-3.45725847049886
30
0
41
1
10
11.6259779021711
20
-3.46828935529712
30
0
41
1
10
10.8473935595319
20
-3.47940052518788
30
0
41
1
10
10.3303937140846
20
-3.45747855667457
30
0
41
1
10
9.29542345222467
20
-3.35640186298579
30
0
41
1
10
8.77742900905406
20
-3.27725543920667
30
0
41
1
10
7.99582136459904
20
-3.11716278138505
30
0
41
1
10
7.7345133820624
20
-3.0569072418931
30
0
41
1
10
7.2096469781047
20
-2.92299341474484
30
0
41
1
10
6.94801439889281
20
-2.84982173101889
30
0
41
1
10
6.16474143620511
20
-2.6129989073691
30
2E-16
41
1
10
5.64467051147474
20
-2.43197470540517
30
1E-16
41
1
10
4.60309314795441
20
-2.03188091511325
30
1E-16
41
1
10
4.08153023836928
20
-1.81295631131394
30
1E-16
41
1
10
3.55688722722027
20
-1.57862898651106
30
1E-16
0
SPLINE
5
F8
100
AcDbEntity
8
1
62
256
6
ByLayer
370
18
48
1
60
0
100
AcDbSpline
70
4
71
3
72
46
73
42
40
0
40
0
40
0
40
0
40
0.0107502797585067
40
0.0107502797585067
40
0.141452146875356
40
0.141452146875356
40
0.174127613654569
40
0.174127613654569
40
0.206803080433782
40
0.206803080433782
40
0.272154013992208
40
0.272154013992208
40
0.30482948077142
40
0.30482948077142
40
0.337504947550632
40
0.337504947550632
40
0.370180414329844
40
0.370180414329844
40
0.402855881109056
40
0.402855881109056
40
0.46820681466748
40
0.46820681466748
40
0.500882281446693
40
0.500882281446693
40
0.533557748225906
40
0.533557748225906
40
0.664259615342757
40
0.664259615342757
40
0.69693508212197
40
0.69693508212197
40
0.729610548901183
40
0.729610548901183
40
0.794961482459609
40
0.794961482459609
40
0.925663349576464
40
0.925663349576464
40
0.958338816355677
40
0.958338816355677
40
0.991014283134891
40
0.991014283134891
40
1
40
1
40
1
40
1
41
1
10
35.0615566855809
20
-3.32137859514154
30
0
41
1
10
34.9761309852388
20
-3.33448170639974
30
0
41
1
10
34.8907716291847
20
-3.34681570147603
30
0
41
1
10
33.7683469414772
20
-3.49895026251315
30
0
41
1
10
32.7393940658528
20
-3.52491999465451
30
0
41
1
10
31.4373459125797
20
-3.40983266201985
30
0
41
1
10
31.1759897685472
20
-3.37943542675907
30
0
41
1
10
30.6516775750917
20
-3.30403158939004
30
0
41
1
10
30.3900571991128
20
-3.25922530594275
30
0
41
1
10
29.6057554232064
20
-3.10439738399685
30
0
41
1
10
29.0837981358848
20
-2.97378957092485
30
0
41
1
10
28.2978002622946
20
-2.74095081030765
30
2E-16
41
1
10
28.0355496110226
20
-2.65717729998778
30
2E-16
41
1
10
27.5123857340032
20
-2.47898305108447
30
2E-16
41
1
10
27.2510777947085
20
-2.38452538276781
30
1E-16
41
1
10
26.7283546979629
20
-2.18587598797231
30
1E-16
41
1
10
26.4669795721084
20
-2.08162223241493
30
1E-16
41
1
10
25.943480137438
20
-1.8643413026555
30
1E-16
41
1
10
25.6810260279488
20
-1.75122228332154
30
1E-16
41
1
10
24.8956319863998
20
-1.40209409058198
30
1E-16
41
1
10
24.3735519706848
20
-1.15612122970487
30
1E-16
41
1
10
23.5886443800941
20
-0.774965914077313
30
0
41
1
10
23.3262963449298
20
-0.645544395025979
30
0
41
1
10
22.8025740350493
20
-0.385130764753853
30
0
41
1
10
22.5417551020157
20
-0.254313460619869
30
0
41
1
10
21.2409903937552
20
0.398994741487286
30
0
41
1
10
20.2116448683319
20
0.920327772530186
30
-1E-16
41
1
10
18.9124683281003
20
1.51733763157068
30
-1E-16
41
1
10
18.6521096283973
20
1.63420538712447
30
-1E-16
41
1
10
18.1294462038451
20
1.86111872896112
30
-1E-16
41
1
10
17.8666242211285
20
1.97134055251993
30
-1E-16
41
1
10
17.082704655622
20
2.28671237062471
30
-1E-16
41
1
10
16.5639603268087
20
2.4778790661922
30
-2E-16
41
1
10
15.0105152165261
20
2.98278928122545
30
0
41
1
10
13.979568857169
20
3.22901617185744
30
0
41
1
10
12.6702520016885
20
3.39451309692612
30
0
41
1
10
12.4078320177574
20
3.42041887537405
30
0
41
1
10
11.8860334094619
20
3.45725847049886
30
0
41
1
10
11.6259779021711
20
3.46828935529712
30
0
41
1
10
11.2950798464478
20
3.47301159836357
30
0
41
1
10
11.2237487831123
20
3.47347561338341
30
0
41
1
10
11.1524499906871
20
3.47338697724811
30
0
0
SPLINE
5
F9
100
AcDbEntity
8
1
62
256
6
ByLayer
370
18
48
1
60
0
100
AcDbSpline
70
4
71
3
72
8
73
4
40
0
40
0
40
0
40
0
40
1
40
1
40
1
40
1
41
1
10
54.6824538613151
20
-1.10888103304745
30
0
41
1
10
54.7901982352255
20
-0.804728235354418
30
0
41
1
10
54.8949863016786
20
-0.499517582412352
30
0
41
1
10
54.9967724190244
20
-0.193232742273494
30
0
0
SPLINE
5
FA
100
AcDbEntity
8
1
62
256
6
ByLayer
370
18
48
1
60
0
100
AcDbSpline
70
4
71
3
72
8
73
4
40
0
40
0
40
0
40
0
40
1
40
1
40
1
40
1
41
1
10
54.9967724190197
20
0.193232742287364
30
0
41
1
10
54.9816542248451
20
0.142842630152472
30
0
41
1
10
54.9664607464423
20
0.0924764667757643
30
0
41
1
10
54.9511922688092
20
0.0421341614962216
30
0
0
SPLINE
5
FB
100
AcDbEntity
8
1
62
256
6
ByLayer
370
18
48
1
60
0
100
AcDbSpline
70
4
71
3
72
16
73
12
40
0
40
0
40
0
40
0
40
0.228115236112161
40
0.228115236112161
40
0.458629467575734
40
0.458629467575734
40
0.656113879922103
40
0.656113879922103
40
0.829288300737234
40
0.829288300737234
40
1
40
1
40
1
40
1
41
1
10
53.7526070659557
20
-3.29500198334912
30
0
41
1
10
53.7526877487822
20
-3.29516816725953
30
0
41
1
10
53.7527120572607
20
-3.2955145500128
30
0
41
1
10
53.7526214268683
20
-3.29658198874574
30
0
41
1
10
53.7525022657452
20
-3.29732791601344
30
0
41
1
10
53.7521451236236
20
-3.29900918386465
30
0
41
1
10
53.7519204597266
20
-3.29992894926409
30
0
41
1
10
53.7514257594351
20
-3.30175386703456
30
0
41
1
10
53.7511583379423
20
-3.30267057884131
30
0
41
1
10
53.7506024088171
20
-3.30446392464731
30
0
41
1
10
53.7503078238431
20
-3.30536219692331
30
0
41
1
10
53.750015463604
20
-3.30621108179238
30
0
0
SPLINE
5
FC
100
AcDbEntity
8
1
62
256
6
ByLayer
370
18
48
1
60
0
100
AcDbSpline
70
4
71
3
72
8
73
4
40
0
40
0
40
0
40
0
40
1
40
1
40
1
40
1
41
1
10
53.261927436088
20
0.0301617847335649
30
0
41
1
10
53.2901226546228
20
0.015419954721807
30
0
41
1
10
53.3181374788105
20
0.001440701002025
30
0
41
1
10
53.3460025538188
20
-0.011794815259492
30
0
0
SPLINE
5
FD
100
AcDbEntity
8
1
62
256
6
ByLayer
370
18
48
1
60
0
100
AcDbSpline
70
4
71
3
72
10
73
6
40
0
40
0
40
0
40
0
40
0.639557473156643
40
0.639557473156643
40
1
40
1
40
1
40
1
41
1
10
6.83055968612973
20
-3.09216956343568
30
0
41
1
10
6.42765626345775
20
-3.00011856693382
30
0
41
1
10
6.01989916835709
20
-2.89791762355165
30
0
41
1
10
5.36985020086044
20
-2.73736273992998
30
1E-16
41
1
10
5.13305666559538
20
-2.67941610065992
30
1E-16
41
1
10
4.89399757798867
20
-2.62307256973264
30
2E-16
0
SPLINE
5
FE
100
AcDbEntity
8
1
62
256
6
ByLayer
370
18
48
1
60
0
100
AcDbSpline
70
4
71
3
72
8
73
4
40
0
40
0
40
0
40
0
40
1
40
1
40
1
40
1
41
1
10
53.5546779155833
20
-3.45529536338898
30
0
41
1
10
53.5600427801912
20
-3.48162479026146
30
0
41
1
10
53.5647296157441
20
-3.49651171458635
30
0
41
1
10
53.5688617817254
20
-3.49937787522046
30
0
0
SPLINE
5
FF
100
AcDbEntity
8
1
62
256
6
ByLayer
370
18
48
1
60
0
100
AcDbSpline
70
4
71
2
72
6
73
3
40
0
40
0
40
0
40
1
40
1
40
1
41
1
10
43.7827697229224
20
0.0017030888308796
30
0
41
1
10
43.7827449831671
20
0.0017124209371957
30
0
41
1
10
43.7827202437154
20
0.0017223448974732
30
0
0
SPLINE
5
100
100
AcDbEntity
8
1
62
256
6
ByLayer
370
18
48
1
60
0
100
AcDbSpline
70
4
71
2
72
6
73
3
40
0
40
0
40
0
40
1
40
1
40
1
41
1
10
9.81283691842793
20
0.0006053580833054
30
0
41
1
10
9.81275448594332
20
0.0006447841245745
30
0
41
1
10
9.81267205361067
20
0.0006862325799659
30
0
0
SPLINE
5
101
100
AcDbEntity
8
1
62
256
6
ByLayer
370
18
48
1
60
0
100
AcDbSpline
70
4
71
3
72
17
73
13
40
0
40
0
40
0
40
0
40
0.0262015298047208
40
0.0975451500544144
40
0.193454099917383
40
0.288543279310236
40
0.380644678422153
40
0.468791930863002
40
0.559411803475555
40
0.681606455361702
40
0.838927537108191
40
1
40
1
40
1
40
1
41
1
10
11.9698650614864
20
0.123761169901144
30
0
41
1
10
11.9207708052978
20
0.138155614743425
30
0
41
1
10
11.7380734676244
20
0.192056768904223
30
0
41
1
10
11.3764132274561
20
0.301788178256828
30
0
41
1
10
10.8868737566835
20
0.45428146977747
30
0
41
1
10
10.360170107932
20
0.624094604580847
30
0
41
1
10
9.84941814320007
20
0.793969270785567
30
0
41
1
10
9.34846575397887
20
0.965536133558885
30
-1E-16
41
1
10
8.79363966481552
20
1.16093164397077
30
-1E-16
41
1
10
8.11428393909381
20
1.40810727045047
30
-1E-16
41
1
10
7.30967037311535
20
1.7124531759554
30
-1E-16
41
1
10
6.73228567304352
20
1.94188324417547
30
-1E-16
41
1
10
6.4411720320773
20
2.06028110542889
30
-1E-16
0
SPLINE
5
102
100
AcDbEntity
8
1
62
256
6
ByLayer
370
18
48
1
60
0
100
AcDbSpline
70
4
71
1
72
4
73
2
40
0
40
0
40
1
40
1
41
1
10
53.3211560072542
20
0.0001849360877486
30
0
41
1
10
53.3211065871402
20
0.0002090649203979
30
0
0
SPLINE
5
103
100
AcDbEntity
8
1
62
256
6
ByLayer
370
18
48
1
60
0
100
AcDbSpline
70
4
71
3
72
12
73
8
40
0
40
0
40
0
40
0
40
0.17798673023977
40
0.321235394177115
40
0.500481375762592
40
0.735636726012153
40
1
40
1
40
1
40
1
41
1
10
53.9434573435381
20
0.598573588807454
30
0
41
1
10
53.6994171730161
20
0.676468316658742
30
0
41
1
10
53.2602185182033
20
0.820706852450655
30
-1E-16
41
1
10
52.5799187251716
20
1.05722736200247
30
-1E-16
41
1
10
51.8247260730044
20
1.32841535038651
30
-1E-16
41
1
10
50.9103210750111
20
1.67193495422748
30
-1E-16
41
1
10
50.2420907896329
20
1.93676088538444
30
-1E-16
41
1
10
49.8897167997946
20
2.08027405870587
30
-1E-16
0
SPLINE
5
104
100
AcDbEntity
8
1
62
256
6
ByLayer
370
18
48
1
60
0
100
AcDbSpline
70
4
71
3
72
20
73
16
40
0
40
0
40
0
40
0
40
0.113324182232684
40
0.185243871504825
40
0.245635347214661
40
0.316311676858315
40
0.390350357051821
40
0.463485290097277
40
0.533948583702622
40
0.597967606403473
40
0.71733888490294
40
0.845539394051304
40
0.915770551033581
40
0.992994610993213
40
1
40
1
40
1
40
1
41
1
10
32.9101203695848
20
-3.31214617611346
30
0
41
1
10
33.1900568130152
20
-3.31233681735102
30
0
41
1
10
33.6476807720175
20
-3.31264408197006
30
0
41
1
10
34.2547659851421
20
-3.3130497302746
30
0
41
1
10
34.7561707704152
20
-3.31336770048051
30
0
41
1
10
35.2630098800013
20
-3.31345186192741
30
0
41
1
10
35.8013214702641
20
-3.31423210090972
30
0
41
1
10
36.3391159441705
20
-3.31419708822136
30
0
41
1
10
36.8521602502082
20
-3.3142272973333
30
0
41
1
10
37.4794472556458
20
-3.31562815163423
30
0
41
1
10
38.2494067412834
20
-3.31423989813209
30
0
41
1
10
39.0347332084564
20
-3.31641449917359
30
0
41
1
10
39.7159007558149
20
-3.31531496589912
30
0
41
1
10
40.0975877019643
20
-3.31665366366326
30
0
41
1
10
40.3057253139023
20
-3.3169260620071
30
0
41
1
10
40.3230361731934
20
-3.31694579410632
30
0
0
SPLINE
5
105
100
AcDbEntity
8
1
62
256
6
ByLayer
370
18
48
1
60
0
100
AcDbSpline
70
4
71
3
72
23
73
19
40
0
40
0
40
0
40
0
40
0.0003633250031992
40
0.0007386925286466
40
0.0008760889768662
40
0.0009933362655474
40
0.0011002084104961
40
0.0018073925776975
40
0.0023860748998668
40
0.0034400567302888
40
0.0053769140574834
40
0.0090129338410722
40
0.0160847572019641
40
0.030617175380853
40
0.0628528064991613
40
0.141084917145148
40
0.636414433366239
40
1
40
1
40
1
40
1
41
1
10
12.5007278725511
20
-0.0314210592289328
30
0
41
1
10
12.5007381246237
20
-0.0314222996917977
30
0
41
1
10
12.5007154743477
20
-0.0314121266198697
30
0
41
1
10
12.500688671833
20
-0.0313997000085067
30
0
41
1
10
12.5006329388299
20
-0.0313799523884484
30
0
41
1
10
12.5005887240705
20
-0.0313650778656438
30
0
41
1
10
12.5004463253204
20
-0.0313188543947263
30
0
41
1
10
12.5001663197769
20
-0.0312334377700836
30
0
41
1
10
12.4998525953026
20
-0.031129063680595
30
0
41
1
10
12.4993187252282
20
-0.0309568050351459
30
0
41
1
10
12.4983462780033
20
-0.0306431285497695
30
0
41
1
10
12.4964271547402
20
-0.0300340150449188
30
0
41
1
10
12.4924851201396
20
-0.0288066534331222
30
0
41
1
10
12.483714854789
20
-0.0261478993677429
30
0
41
1
10
12.462505401555
20
-0.0198962916080347
30
0
41
1
10
12.3563116424303
20
0.010746245962082
30
0
41
1
10
12.1876042277297
20
0.0592530203328465
30
0
41
1
10
12.0347609243659
20
0.104447131329437
30
0
41
1
10
11.9698650614864
20
0.123761169901144
30
0
0
SPLINE
5
106
100
AcDbEntity
8
1
62
256
6
ByLayer
370
18
48
1
60
0
100
AcDbSpline
70
4
71
3
72
31
73
27
40
0
40
0
40
0
40
0
40
1.27046370766E-05
40
3.19636368447E-05
40
4.76674583717E-05
40
6.10888301036E-05
40
9.64247053416E-05
40
0.0001349043692756
40
0.0001688872833362
40
0.0003210644367212
40
0.0004397061994869
40
0.0006543472418202
40
0.0010465335544947
40
0.0017754098382293
40
0.0031688404972755
40
0.005990561338798
40
0.0132656489318795
40
0.0650680289324015
40
0.148910269806712
40
0.229905468142606
40
0.304229283101839
40
0.372390907946848
40
0.478682907742692
40
0.622776364622398
40
0.804705570519025
40
1
40
1
40
1
40
1
41
1
10
34.3057165373065
20
-0.0515585365446896
30
0
41
1
10
34.3057319204596
20
-0.0515627771519007
30
0
41
1
10
34.305768661774
20
-0.0515728878337995
30
0
41
1
10
34.3058143077022
20
-0.0515853639170132
30
0
41
1
10
34.3058414575514
20
-0.0515925798465844
30
0
41
1
10
34.3058088079579
20
-0.0515828058648822
30
0
41
1
10
34.3057237434966
20
-0.051558246298157
30
0
41
1
10
34.3055783304631
20
-0.0515169781603788
30
0
41
1
10
34.3051582469084
20
-0.0513994304051835
30
0
41
1
10
34.3044842997328
20
-0.0512133210555419
30
0
41
1
10
34.3035522650695
20
-0.0509528034279469
30
0
41
1
10
34.3021067014739
20
-0.0505497394337624
30
0
41
1
10
34.299467482146
20
-0.0498123722886135
30
0
41
1
10
34.294450705642
20
-0.048408818202148
30
0
41
1
10
34.284517806027
20
-0.0456214659839418
30
0
41
1
10
34.261148933557
20
-0.0390309269637896
30
0
41
1
10
34.1340074295614
20
-0.0029247201871954
30
0
41
1
10
33.8385664742539
20
0.0824708836593118
30
0
41
1
10
33.3915078359963
20
0.215513196169809
30
0
41
1
10
32.8992659277986
20
0.367038338298954
30
0
41
1
10
32.4404981407882
20
0.512645853308413
30
0
41
1
10
31.9310161678266
20
0.678800915461011
30
0
41
1
10
31.2805747114056
20
0.89782764885436
30
-1E-16
41
1
10
30.4017483168522
20
1.20712614548049
30
-1E-16
41
1
10
29.3480350474533
20
1.59801365793447
30
-1E-16
41
1
10
28.5914739418684
20
1.89671861923369
30
-1E-16
41
1
10
28.2012991593693
20
2.05553837667358
30
-1E-16
0
SPLINE
5
107
100
AcDbEntity
8
1
62
256
6
ByLayer
370
18
48
1
60
0
100
AcDbSpline
70
4
71
3
72
23
73
19
40
0
40
0
40
0
40
0
40
0.0982188082642827
40
0.176239346160659
40
0.264166010202694
40
0.317475405900764
40
0.370224741483846
40
0.425723595822677
40
0.4857833801137
40
0.550724247562436
40
0.621020752019432
40
0.693378614637618
40
0.785250039760137
40
0.861978810418987
40
0.933864544518981
40
0.967312317123633
40
0.998995438902433
40
1
40
1
40
1
40
1
41
1
10
42.4460100107885
20
3.31682448003238
30
0
41
1
10
42.2051536649843
20
3.31687588404964
30
0
41
1
10
41.772614108918
20
3.31696348558873
30
0
41
1
10
41.1237225582631
20
3.31555940765827
30
0
41
1
10
40.5836750963562
20
3.31707280353379
30
0
41
1
10
40.1098373669733
20
3.31657757907109
30
0
41
1
10
39.7121597842076
20
3.3155415087987
30
0
41
1
10
39.2985211192987
20
3.31589073323019
30
0
41
1
10
38.8547269692489
20
3.31610724191682
30
0
41
1
10
38.3746094948273
20
3.31478986730485
30
0
41
1
10
37.8642400244153
20
3.31504062714265
30
0
41
1
10
37.2876676147813
20
3.31535128913109
30
0
41
1
10
36.6952809866729
20
3.3139541000418
30
0
41
1
10
36.1040543406318
20
3.31432031424256
30
0
41
1
10
35.6564599361714
20
3.31402647520332
30
0
41
1
10
35.3196102390393
20
3.31359374487823
30
0
41
1
10
35.1570182707266
20
3.31348908061324
30
0
41
1
10
35.0766582250137
20
3.31345126432987
30
0
41
1
10
35.0741885936212
20
3.31345011482671
30
0
0
SPLINE
5
108
100
AcDbEntity
8
1
62
256
6
ByLayer
370
18
48
1
60
0
100
AcDbSpline
70
4
71
3
72
18
73
14
40
0
40
0
40
0
40
0
40
0.116527120777156
40
0.194765966295529
40
0.277973472846906
40
0.381286867210548
40
0.482224425525057
40
0.572128078743358
40
0.649580186690823
40
0.739784329257467
40
0.8398008152511
40
0.953792318311077
40
1
40
1
40
1
40
1
41
1
10
20.6894922753935
20
3.30639883757959
30
0
41
1
10
20.4012823440324
20
3.30570289311768
30
0
41
1
10
19.9195457321737
20
3.30484505357353
30
0
41
1
10
19.2318259837266
20
3.30557285652319
30
0
41
1
10
18.5770379405359
20
3.30443621651062
30
0
41
1
10
17.8657216639211
20
3.30421940435562
30
0
41
1
10
17.1379547612184
20
3.3036686453928
30
0
41
1
10
16.4741506033687
20
3.30274316264712
30
0
41
1
10
15.8368819963455
20
3.30314292812775
30
0
41
1
10
15.1747216550656
20
3.30160809332915
30
0
41
1
10
14.4220129923675
20
3.30153449022453
30
0
41
1
10
13.7782277165019
20
3.30073801046731
30
0
41
1
10
13.3818385860663
20
3.30045044864872
30
0
41
1
10
13.2675138422703
20
3.3003677154889
30
0
0
SPLINE
5
109
100
AcDbEntity
8
1
62
256
6
ByLayer
370
18
48
1
60
0
100
AcDbSpline
70
4
71
3
72
17
73
13
40
0
40
0
40
0
40
0
40
0.144677299134486
40
0.2616170584249
40
0.404206065148254
40
0.529885090250978
40
0.640036546302753
40
0.707855958115607
40
0.784627407698842
40
0.871789839970404
40
0.962931838836581
40
1
40
1
40
1
40
1
41
1
10
11.1566108039828
20
-3.29849253068042
30
0
41
1
10
11.5116278471638
20
-3.29865980084992
30
0
41
1
10
12.1535660077975
20
-3.29906487819915
30
0
41
1
10
13.1445369804851
20
-3.30047364969269
30
0
41
1
10
14.0904386387143
20
-3.30103763769455
30
0
41
1
10
15.019248211583
20
-3.30155558294757
30
0
41
1
10
15.7645316171058
20
-3.30300226334393
30
0
41
1
10
16.3898466077519
20
-3.30293986003139
30
0
41
1
10
16.9587187067964
20
-3.30295694709133
30
0
41
1
10
17.5848565498692
20
-3.30470972290434
30
0
41
1
10
18.1134867040862
20
-3.30380022893948
30
0
41
1
10
18.4282504402032
20
-3.3043662642423
30
0
41
1
10
18.5192472394008
20
-3.30454786779939
30
0
0
SPLINE
5
10A
100
AcDbEntity
8
1
62
256
6
ByLayer
370
18
48
1
60
0
100
AcDbSpline
70
4
71
2
72
6
73
3
40
0
40
0
40
0
40
1
40
1
40
1
41
1
10
31.5660759581601
20
-0.0010017451362785
30
0
41
1
10
31.5661824158808
20
-0.0009481554444903
30
0
41
1
10
31.5662888731879
20
-0.0008971686050359
30
0
0
LINE
5
84
100
AcDbEntity
8
SK1
62
256
6
ByLayer
370
18
48
1
60
0
100
AcDbLine
10
-36
20
-2.76
30
0
11
-36
21
2.76
31
0
39
0
210
0
220
0
230
1
0
LINE
5
86
100
AcDbEntity
8
SK1
62
256
6
ByLayer
370
18
48
1
60
0
100
AcDbLine
10
-34.76
20
-4
30
0
11
-34.76
21
4
31
0
39
0
210
0
220
0
230
1
0
LINE
5
87
100
AcDbEntity
8
SK1
62
256
6
ByLayer
370
18
48
1
60
0
100
AcDbLine
10
0
20
4
30
0
11
0
21
-4
31
0
39
0
210
0
220
0
230
1
0
LINE
5
88
100
AcDbEntity
8
1
62
256
6
ByLayer
370
18
48
1
60
0
100
AcDbLine
10
3.5017
20
-1.498487
30
0
11
3.5017
21
2.641538
31
0
39
0
210
0
220
0
230
1
0
LINE
5
89
100
AcDbEntity
8
1
62
256
6
ByLayer
370
18
48
1
60
0
100
AcDbLine
10
1.192623
20
3.467166
30
0
11
1.192623
21
0
31
0
39
0
210
0
220
0
230
1
0
LINE
5
8A
100
AcDbEntity
8
1
62
256
6
ByLayer
370
18
48
1
60
0
100
AcDbLine
10
1.192623
20
0
30
0
11
1.192623
21
-3.467166
31
0
39
0
210
0
220
0
230
1
0
LINE
5
8B
100
AcDbEntity
8
1
62
256
6
ByLayer
370
18
48
1
60
0
100
AcDbLine
10
20
20
0.530777
30
0
11
20
21
0.482854
31
0
39
0
210
0
220
0
230
1
0
LINE
5
8C
100
AcDbEntity
8
1
62
256
6
ByLayer
370
18
48
1
60
0
100
AcDbLine
10
0
20
4
30
0
11
0
21
0
31
0
39
0
210
0
220
0
230
1
0
LINE
5
8D
100
AcDbEntity
8
1
62
256
6
ByLayer
370
18
48
1
60
0
100
AcDbLine
10
0
20
0
30
0
11
0
21
-4
31
0
39
0
210
0
220
0
230
1
0
LINE
5
8E
100
AcDbEntity
8
1
62
256
6
ByLayer
370
18
48
1
60
0
100
AcDbLine
10
0.596062
20
3.733583
30
0
11
0.596062
21
0
31
0
39
0
210
0
220
0
230
1
0
LINE
5
8F
100
AcDbEntity
8
1
62
256
6
ByLayer
370
18
48
1
60
0
100
AcDbLine
10
0.596062
20
0
30
0
11
0.596062
21
-3.733583
31
0
39
0
210
0
220
0
230
1
0
LINE
5
90
100
AcDbEntity
8
1
62
256
6
ByLayer
370
18
48
1
60
0
100
AcDbLine
10
54.951192
20
0.042134
30
0
11
54.095388
21
0.986794
31
0
39
0
210
0
220
0
230
1
0
LINE
5
91
100
AcDbEntity
8
SK1
62
256
6
ByLayer
370
18
48
1
60
0
100
AcDbLine
10
-34.76
20
-4
30
0
11
0
21
-4
31
0
39
0
210
0
220
0
230
1
0
LINE
5
92
100
AcDbEntity
8
SK1
62
256
6
ByLayer
370
18
48
1
60
0
100
AcDbLine
10
0
20
4
30
0
11
-34.76
21
4
31
0
39
0
210
0
220
0
230
1
0
LINE
5
93
100
AcDbEntity
8
SK1
62
256
6
ByLayer
370
18
48
1
60
0
100
AcDbLine
10
-36
20
-2.76
30
0
11
-34.76
21
-4
31
0
39
0
210
0
220
0
230
1
0
LINE
5
94
100
AcDbEntity
8
SK1
62
256
6
ByLayer
370
18
48
1
60
0
100
AcDbLine
10
-34.76
20
4
30
0
11
-36
21
2.76
31
0
39
0
210
0
220
0
230
1
0
LINE
5
95
100
AcDbEntity
8
1
62
256
6
ByLayer
370
18
48
1
60
0
100
AcDbLine
10
1.192623
20
-3.467166
30
0
11
2.080877
21
-3.467721
31
0
39
0
210
0
220
0
230
1
0
LINE
5
96
100
AcDbEntity
8
1
62
256
6
ByLayer
370
18
48
1
60
0
100
AcDbLine
10
10.093027
20
-3.472728
30
0
11
11.161192
21
-3.473396
31
0
39
0
210
0
220
0
230
1
0
LINE
5
97
100
AcDbEntity
8
1
62
256
6
ByLayer
370
18
48
1
60
0
100
AcDbLine
10
20.691851
20
-3.479353
30
0
11
21.697672
21
-3.479981
31
0
39
0
210
0
220
0
230
1
0
LINE
5
98
100
AcDbEntity
8
1
62
256
6
ByLayer
370
18
48
1
60
0
100
AcDbLine
10
31.936322
20
-3.48638
30
0
11
32.910762
21
-3.486989
31
0
39
0
210
0
220
0
230
1
0
LINE
5
99
100
AcDbEntity
8
1
62
256
6
ByLayer
370
18
48
1
60
0
100
AcDbLine
10
42.444659
20
-3.492948
30
0
11
43.427629
21
-3.493562
31
0
39
0
210
0
220
0
230
1
0
LINE
5
9A
100
AcDbEntity
8
1
62
256
6
ByLayer
370
18
48
1
60
0
100
AcDbLine
10
43.427629
20
3.493562
30
0
11
42.444659
21
3.492948
31
0
39
0
210
0
220
0
230
1
0
LINE
5
9B
100
AcDbEntity
8
1
62
256
6
ByLayer
370
18
48
1
60
0
100
AcDbLine
10
32.910762
20
3.486989
30
0
11
31.936322
21
3.48638
31
0
39
0
210
0
220
0
230
1
0
LINE
5
9C
100
AcDbEntity
8
1
62
256
6
ByLayer
370
18
48
1
60
0
100
AcDbLine
10
21.697672
20
3.479981
30
0
11
20.691851
21
3.479353
31
0
39
0
210
0
220
0
230
1
0
LINE
5
9D
100
AcDbEntity
8
1
62
256
6
ByLayer
370
18
48
1
60
0
100
AcDbLine
10
11.161192
20
3.473396
30
0
11
10.093027
21
3.472728
31
0
39
0
210
0
220
0
230
1
0
LINE
5
9E
100
AcDbEntity
8
1
62
256
6
ByLayer
370
18
48
1
60
0
100
AcDbLine
10
2.080877
20
3.467721
30
0
11
1.192623
21
3.467166
31
0
39
0
210
0
220
0
230
1
0
LINE
5
9F
100
AcDbEntity
8
SK4
62
256
6
ByLayer
370
18
48
0.05
60
0
100
AcDbLine
10
60
20
0
30
0
11
-41
21
0
31
0
39
0
210
0
220
0
230
1
0
LINE
5
A1
100
AcDbEntity
8
4
62
256
6
ByLayer
370
18
48
0.05
60
0
100
AcDbLine
10
-36
20
0
30
0
11
60
21
0
31
0
39
0
210
0
220
0
230
1
0
LINE
5
A3
100
AcDbEntity
8
80
62
256
6
ByLayer
370
18
48
1
60
0
100
AcDbLine
10
0
20
0
30
0
11
-6
21
0
31
0
39
0
210
0
220
0
230
1
0
LINE
5
A4
100
AcDbEntity
8
81
62
256
6
ByLayer
370
18
48
1
60
0
100
AcDbLine
10
55
20
0
30
0
11
61
21
0
31
0
39
0
210
0
220
0
230
1
0
LINE
5
A5
100
AcDbEntity
8
SK2
62
256
6
ByLayer
370
13
48
1
60
0
100
AcDbLine
10
55.542959
20
1.491761
30
0
11
62.92634
21
21.777368
31
0
39
0
210
0
220
0
230
1
0
LINE
5
A7
100
AcDbEntity
8
SK2
62
256
6
ByLayer
370
13
48
1
60
0
100
AcDbLine
10
55.542959
20
-1.491761
30
0
11
62.92634
21
-21.777368
31
0
39
0
210
0
220
0
230
1
0
LINE
5
A8
100
AcDbEntity
8
1
62
256
6
ByLayer
370
13
48
1
60
0
100
AcDbLine
10
61.840423
20
18.793845
30
0
11
64.937012
21
17.97747
31
0
39
0
210
0
220
0
230
1
0
LINE
5
A9
100
AcDbEntity
8
1
62
256
6
ByLayer
370
13
48
1
60
0
100
AcDbLine
10
61.840423
20
18.793845
30
0
11
64.620208
21
17.203829
31
0
39
0
210
0
220
0
230
1
0
LINE
5
AA
100
AcDbEntity
8
1
62
256
6
ByLayer
370
13
48
1
60
0
100
AcDbLine
10
64.937012
20
17.97747
30
0
11
64.620208
21
17.203829
31
0
39
0
210
0
220
0
230
1
0
LINE
5
AB
100
AcDbEntity
8
1
62
256
6
ByLayer
370
13
48
1
60
0
100
AcDbLine
10
61.840423
20
-18.793845
30
0
11
64.620205
21
-17.203831
31
0
39
0
210
0
220
0
230
1
0
LINE
5
AC
100
AcDbEntity
8
1
62
256
6
ByLayer
370
13
48
1
60
0
100
AcDbLine
10
61.840423
20
-18.793845
30
0
11
64.937015
21
-17.977469
31
0
39
0
210
0
220
0
230
1
0
LINE
5
AD
100
AcDbEntity
8
1
62
256
6
ByLayer
370
13
48
1
60
0
100
AcDbLine
10
64.620205
20
-17.203831
30
0
11
64.937015
21
-17.977469
31
0
39
0
210
0
220
0
230
1
0
MTEXT
5
10B
100
AcDbEntity
8
SK2
62
256
6
ByLayer
370
18
48
1
60
0
100
AcDbMText
10
68.717388
20
-2.467451
30
0
210
0
220
0
230
1
1
\W0.7237;140.00
40
3.50012
41
0
44
1.084337
50
0
71
7
72
5
7
iso_b_vert
0
MTEXT
5
10E
100
AcDbEntity
8
SK6
62
256
6
ByLayer
370
18
48
1
60
0
100
AcDbMText
10
-29.831725
20
-120.342897
30
0
210
0
220
0
230
1
1
\W0.7561;860.1-0700-036A0-GM X1BM
40
3.175
41
0
44
1.084337
50
0
71
7
72
5
7
iso_b_vert
0
DIMENSION
5
111
100
AcDbEntity
8
SK2
62
256
6
ByLayer
370
18
48
1
60
0
100
AcDbDimension
2
_U0
10
55
20
-27.50012
30
0
11
27.5
21
-27.50012
31
0
70
32
71
2
72
1
41
1
210
0
220
0
230
1
3
Standard
100
AcDbAlignedDimension
13
0
23
-4
33
0
14
55
24
0
34
0
50
0
100
AcDbRotatedDimension
1001
ACAD
1000
DSTYLE
1002
{
1070
   371
1070
    13
1070
   372
1070
    13
1070
     3
1000

1070
   170
1070
     0
1070
   144
1040
1.0
1070
   277
1070
     2
1070
   284
1070
     8
1070
   278
1070
    46
1070
   146
1040
0.999966
1070
   345
1005
16
1070
   347
1005
16
1070
   346
1005
16
1070
   344
1005
112
1070
   343
1005
112
1070
   172
1070
     1
1070
    76
1070
     0
1070
    75
1070
     0
1070
   282
1070
     0
1070
   281
1070
     0
1070
    71
1070
     0
1070
    74
1070
     0
1070
   279
1070
     0
1070
   173
1070
     1
1070
   340
1005
10C
1070
   271
1070
     1
1070
   272
1070
     2
1070
    77
1070
     1
1070
    73
1070
     1
1070
   171
1070
     3
1070
   274
1070
     4
1070
   177
1070
   150
1070
   176
1070
     9
1070
   178
1070
    43
1070
    78
1070
     8
1070
    48
1040
-0.1
1070
    41
1040
3.175
1070
   147
1040
1.75006
1070
    42
1040
1.5875
1070
    44
1040
3.175
1070
   140
1040
3.50012
1002
}
1001
ACAD_DSTYLE_DIM_LINETYPE
1070
   380
1005
16
1001
ACAD_DSTYLE_DIM_EXT1_LINETYPE
1070
   381
1005
16
1001
ACAD_DSTYLE_DIM_EXT2_LINETYPE
1070
   382
1005
16
0
DIMENSION
5
137
100
AcDbEntity
8
2
62
256
6
ByLayer
370
18
48
1
60
0
100
AcDbDimension
2
_U1
10
61.75006
20
3.5
30
0
11
61.75006
21
16.573147
31
0
70
32
71
1
72
1
41
1
210
0
220
0
230
1
3
Standard
100
AcDbAlignedDimension
13
53.7261
23
-3.5
33
0
14
53.7261
24
3.5
34
0
50
90
100
AcDbRotatedDimension
1001
ACAD
1000
DSTYLE
1002
{
1070
   371
1070
    13
1070
   372
1070
    13
1070
     3
1000

1070
   170
1070
     0
1070
   144
1040
1.0
1070
   277
1070
     2
1070
   284
1070
     8
1070
   278
1070
    46
1070
   146
1040
0.999966
1070
   345
1005
16
1070
   347
1005
16
1070
   346
1005
16
1070
   344
1005
112
1070
   343
1005
112
1070
   172
1070
     1
1070
    76
1070
     0
1070
    75
1070
     0
1070
   282
1070
     0
1070
   281
1070
     0
1070
    71
1070
     0
1070
    74
1070
     0
1070
   279
1070
     0
1070
   173
1070
     1
1070
   340
1005
10C
1070
   271
1070
     1
1070
   272
1070
     2
1070
    77
1070
     1
1070
    73
1070
     0
1070
   171
1070
     3
1070
   274
1070
     4
1070
   177
1070
   150
1070
   176
1070
     9
1070
   178
1070
    43
1070
    78
1070
     8
1070
    48
1040
-0.1
1070
    41
1040
3.175
1070
   147
1040
1.75006
1070
    42
1040
1.5875
1070
    44
1040
3.175
1070
   140
1040
3.50012
1002
}
1001
ACAD_DSTYLE_DIM_LINETYPE
1070
   380
1005
16
1001
ACAD_DSTYLE_DIM_EXT1_LINETYPE
1070
   381
1005
16
1001
ACAD_DSTYLE_DIM_EXT2_LINETYPE
1070
   382
1005
16
0
DIMENSION
5
156
100
AcDbEntity
8
SK2
62
256
6
ByLayer
370
18
48
1
60
0
100
AcDbDimension
2
_U2
10
-39.24994
20
-4
30
0
11
-39.24994
21
18.10734
31
0
70
32
71
1
72
1
41
1
210
0
220
0
230
1
3
Standard
100
AcDbAlignedDimension
13
-36
23
4
33
0
14
-36
24
-4
34
0
50
90
100
AcDbRotatedDimension
1001
ACAD
1000
DSTYLE
1002
{
1070
   371
1070
    13
1070
   372
1070
    13
1070
     3
1000

1070
   170
1070
     0
1070
   144
1040
1.0
1070
   277
1070
     2
1070
   284
1070
     8
1070
   278
1070
    46
1070
   146
1040
0.999966
1070
   345
1005
16
1070
   347
1005
16
1070
   346
1005
16
1070
   344
1005
112
1070
   343
1005
112
1070
   172
1070
     1
1070
    76
1070
     0
1070
    75
1070
     0
1070
   282
1070
     0
1070
   281
1070
     0
1070
    71
1070
     0
1070
    74
1070
     0
1070
   279
1070
     0
1070
   173
1070
     1
1070
   340
1005
10C
1070
   271
1070
     1
1070
   272
1070
     2
1070
    77
1070
     1
1070
    73
1070
     0
1070
   171
1070
     3
1070
   274
1070
     4
1070
   177
1070
   150
1070
   176
1070
     9
1070
   178
1070
    43
1070
    78
1070
     8
1070
    48
1040
-0.1
1070
    41
1040
3.175
1070
   147
1040
1.75006
1070
    42
1040
1.5875
1070
    44
1040
3.175
1070
   140
1040
3.50012
1002
}
1001
ACAD_DSTYLE_DIM_LINETYPE
1070
   380
1005
16
1001
ACAD_DSTYLE_DIM_EXT1_LINETYPE
1070
   381
1005
16
1001
ACAD_DSTYLE_DIM_EXT2_LINETYPE
1070
   382
1005
16
0
DIMENSION
5
174
100
AcDbEntity
8
SK2
62
256
6
ByLayer
370
18
48
1
60
0
100
AcDbDimension
2
_U3
10
0
20
-27.50012
30
0
11
-18
21
-27.50012
31
0
70
32
71
1
72
1
41
1
210
0
220
0
230
1
3
Standard
100
AcDbAlignedDimension
13
-36
23
-4
33
0
14
0
24
-4
34
0
50
0
100
AcDbRotatedDimension
1001
ACAD
1000
DSTYLE
1002
{
1070
   371
1070
    13
1070
   372
1070
    13
1070
     3
1000

1070
   170
1070
     0
1070
   144
1040
1.0
1070
   277
1070
     2
1070
   284
1070
     8
1070
   278
1070
    46
1070
   146
1040
0.999966
1070
   345
1005
16
1070
   347
1005
16
1070
   346
1005
16
1070
   344
1005
112
1070
   343
1005
112
1070
   172
1070
     1
1070
    76
1070
     0
1070
    75
1070
     0
1070
   282
1070
     0
1070
   281
1070
     0
1070
    71
1070
     0
1070
    74
1070
     0
1070
   279
1070
     0
1070
   173
1070
     1
1070
   340
1005
10C
1070
   271
1070
     1
1070
   272
1070
     2
1070
    77
1070
     1
1070
    73
1070
     1
1070
   171
1070
     3
1070
   274
1070
     4
1070
   177
1070
   150
1070
   176
1070
     9
1070
   178
1070
    43
1070
    78
1070
     8
1070
    48
1040
-0.1
1070
    41
1040
3.175
1070
   147
1040
1.75006
1070
    42
1040
1.5875
1070
    44
1040
3.175
1070
   140
1040
3.50012
1002
}
1001
ACAD_DSTYLE_DIM_LINETYPE
1070
   380
1005
16
1001
ACAD_DSTYLE_DIM_EXT1_LINETYPE
1070
   381
1005
16
1001
ACAD_DSTYLE_DIM_EXT2_LINETYPE
1070
   382
1005
16
0
DIMENSION
5
190
100
AcDbEntity
8
SK2
62
256
6
ByLayer
370
18
48
1
60
0
100
AcDbDimension
2
_U4
10
55
20
-18.74982
30
0
11
28.5
21
-18.74982
31
0
70
32
71
1
72
1
41
1
210
0
220
0
230
1
3
Standard
100
AcDbAlignedDimension
13
2
23
4
33
0
14
55
24
0
34
0
50
0
100
AcDbRotatedDimension
1001
ACAD
1000
DSTYLE
1002
{
1070
   371
1070
    13
1070
   372
1070
    13
1070
     3
1000

1070
   170
1070
     0
1070
   144
1040
1.0
1070
   277
1070
     2
1070
   284
1070
     8
1070
   278
1070
    46
1070
   146
1040
0.999966
1070
   345
1005
16
1070
   347
1005
16
1070
   346
1005
16
1070
   344
1005
112
1070
   343
1005
112
1070
   172
1070
     1
1070
    76
1070
     0
1070
    75
1070
     0
1070
   282
1070
     0
1070
   281
1070
     0
1070
    71
1070
     0
1070
    74
1070
     0
1070
   279
1070
     0
1070
   173
1070
     1
1070
   340
1005
10C
1070
   271
1070
     1
1070
   272
1070
     2
1070
    77
1070
     1
1070
    73
1070
     1
1070
   171
1070
     3
1070
   274
1070
     4
1070
   177
1070
   150
1070
   176
1070
     9
1070
   178
1070
    43
1070
    78
1070
     8
1070
    48
1040
-0.1
1070
    41
1040
3.175
1070
   147
1040
1.75006
1070
    42
1040
1.5875
1070
    44
1040
3.175
1070
   140
1040
3.50012
1002
}
1001
ACAD_DSTYLE_DIM_LINETYPE
1070
   380
1005
16
1001
ACAD_DSTYLE_DIM_EXT1_LINETYPE
1070
   381
1005
16
1001
ACAD_DSTYLE_DIM_EXT2_LINETYPE
1070
   382
1005
16
0
DIMENSION
5
1AC
100
AcDbEntity
8
SK2
62
256
6
ByLayer
370
18
48
1
60
0
100
AcDbDimension
2
_U5
10
55
20
-10.82
30
0
11
36.9
21
-10.82
31
0
70
32
71
1
72
1
41
1
210
0
220
0
230
1
3
Standard
100
AcDbAlignedDimension
13
18.8
23
-3.5
33
0
14
55
24
0
34
0
50
0
100
AcDbRotatedDimension
1001
ACAD
1000
DSTYLE
1002
{
1070
   371
1070
    13
1070
   372
1070
    13
1070
     3
1000

1070
   170
1070
     0
1070
   144
1040
1.0
1070
   277
1070
     2
1070
   284
1070
     8
1070
   278
1070
    46
1070
   146
1040
1.25
1070
   345
1005
16
1070
   347
1005
16
1070
   346
1005
16
1070
   344
1005
112
1070
   343
1005
112
1070
   172
1070
     1
1070
    76
1070
     0
1070
    75
1070
     0
1070
   282
1070
     0
1070
   281
1070
     0
1070
    71
1070
     0
1070
    74
1070
     0
1070
   279
1070
     0
1070
   173
1070
     1
1070
   340
1005
10C
1070
   271
1070
     1
1070
   272
1070
     2
1070
    77
1070
     1
1070
    73
1070
     1
1070
   171
1070
     3
1070
   274
1070
     4
1070
   177
1070
   150
1070
   176
1070
     9
1070
   178
1070
    43
1070
    78
1070
     8
1070
    48
1040
-0.1
1070
    41
1040
3.175
1070
   147
1040
0.42
1070
    42
1040
1.5875
1070
    44
1040
0.5
1070
   140
1040
2.8
1002
}
1001
ACAD_DSTYLE_DIM_LINETYPE
1070
   380
1005
16
1001
ACAD_DSTYLE_DIM_EXT1_LINETYPE
1070
   381
1005
16
1001
ACAD_DSTYLE_DIM_EXT2_LINETYPE
1070
   382
1005
16
0
DIMENSION
5
1C8
100
AcDbEntity
8
SK2
62
256
6
ByLayer
370
18
48
1
60
0
100
AcDbDimension
2
_U6
10
55
20
-37.50012
30
0
11
9.5
21
-37.50012
31
0
70
32
71
1
72
1
41
1
210
0
220
0
230
1
3
Standard
100
AcDbAlignedDimension
13
-36
23
0
33
0
14
55
24
0
34
0
50
0
100
AcDbRotatedDimension
1001
ACAD
1000
DSTYLE
1002
{
1070
   371
1070
    13
1070
   372
1070
    13
1070
     3
1000

1070
   170
1070
     0
1070
   144
1040
1.0
1070
   277
1070
     2
1070
   284
1070
     8
1070
   278
1070
    46
1070
   146
1040
0.999966
1070
   345
1005
16
1070
   347
1005
16
1070
   346
1005
16
1070
   344
1005
112
1070
   343
1005
112
1070
   172
1070
     1
1070
    76
1070
     0
1070
    75
1070
     0
1070
   282
1070
     0
1070
   281
1070
     0
1070
    71
1070
     0
1070
    74
1070
     0
1070
   279
1070
     0
1070
   173
1070
     1
1070
   340
1005
10C
1070
   271
1070
     1
1070
   272
1070
     2
1070
    77
1070
     1
1070
    73
1070
     1
1070
   171
1070
     3
1070
   274
1070
     4
1070
   177
1070
   150
1070
   176
1070
     9
1070
   178
1070
    43
1070
    78
1070
     8
1070
    48
1040
-0.1
1070
    41
1040
3.175
1070
   147
1040
1.75006
1070
    42
1040
1.5875
1070
    44
1040
3.175
1070
   140
1040
3.50012
1002
}
1001
ACAD_DSTYLE_DIM_LINETYPE
1070
   380
1005
16
1001
ACAD_DSTYLE_DIM_EXT1_LINETYPE
1070
   381
1005
16
1001
ACAD_DSTYLE_DIM_EXT2_LINETYPE
1070
   382
1005
16
0
ENDSEC
0
SECTION
2
OBJECTS
0
DICTIONARY
5
254
330
0
100
AcDbDictionary
280
0
281
1
3
ACAD_GROUP
350
255
3
ACAD_MLINESTYLE
350
256
0
DICTIONARY
5
255
330
0
100
AcDbDictionary
280
0
281
1
0
DICTIONARY
5
256
330
0
100
AcDbDictionary
280
0
281
1
3
Standard
350
18
0
MLINESTYLE
5
18
330
256
100
AcDbMlineStyle
2
Standard
70
0
3

62
256
51
90
52
90
71
2
49
-0.5
62
256
6
ByLayer
49
0.5
62
256
6
ByLayer
0
RASTERVARIABLES
5
242
330

100
AcDbRasterVariables
90
0
70
1
71
1
72
1
0
ENDSEC
0
EOF
