0
SECTION
2
HEADER
9
$ACADVER
1
AC1015
9
$DWGCODEPAGE
3
ANSI_1252
9
$HANDSEED
5
25f
9
$ANGBASE
50
0
9
$ANGDIR
70
0
9
$ATTMODE
70
1
9
$AUNITS
70
0
9
$AUPREC
70
0
9
$CECOLOR
62
256
9
$CELTSCALE
40
1
9
$CELTYPE
6
ByLayer
9
$CELWEIGHT
370
18
9
$CLAYER
8
0
9
$CMLJUST
70
0
9
$CMLSCALE
40
1
9
$CMLSTYLE
2
Standard
9
$DIMSTYLE
2
Standard
9
$TEXTSIZE
40
0.2
9
$TEXTSTYLE
7
Standard
9
$LUNITS
70
2
9
$LUPREC
70
4
9
$EXTNAMES
290
1
9
$INSUNITS
70
4
9
$LTSCALE
40
1
9
$LWDISPLAY
290
1
9
$PDMODE
70
0
9
$PDSIZE
40
0
9
$PLINEGEN
70
0
0
ENDSEC
0
SECTION
2
CLASSES
0
CLASS
1
RASTERVARIABLES
2
AcDbRasterVariables
3
ISM
90
0
280
0
281
0
0
ENDSEC
0
SECTION
2
TABLES
0
TABLE
2
VPORT
5
255
100
AcDbSymbolTable
0
VPORT
5
1
100
AcDbSymbolTableRecord
100
AcDbViewportTableRecord
2
*Active
70
0
10
0
20
0
11
1
21
1
12
-1
22
1
13
0
23
0
14
0.5
24
0.5
15
10
25
10
16
0
26
0
36
1
17
0
27
0
37
0
0
ENDTAB
0
TABLE
2
LTYPE
5
256
100
AcDbSymbolTable
0
LTYPE
5
14
100
AcDbSymbolTableRecord
100
AcDbLinetypeTableRecord
70
0
2
ByBlock
3

72
65
73
0
40
0
0
LTYPE
5
15
100
AcDbSymbolTableRecord
100
AcDbLinetypeTableRecord
70
0
2
ByLayer
3

72
65
73
0
40
0
0
LTYPE
5
16
100
AcDbSymbolTableRecord
100
AcDbLinetypeTableRecord
70
0
2
Continuous
3
Solid line
72
65
73
0
40
0
0
LTYPE
5
6E
100
AcDbSymbolTableRecord
100
AcDbLinetypeTableRecord
70
0
2
CENTER
3
____ _ ____ _ ____ _ ____
72
65
73
4
40
47.5
49
22
74
0
49
-8.5
74
0
49
8.5
74
0
49
-8.5
74
0
0
LTYPE
5
6F
100
AcDbSymbolTableRecord
100
AcDbLinetypeTableRecord
70
0
2
DASHED
3
__ __ __ __ __ __ __ __ __
72
65
73
2
40
25.72
49
12.86
74
0
49
-12.86
74
0
0
ENDTAB
0
TABLE
2
LAYER
5
257
100
AcDbSymbolTable
0
LAYER
5
10
100
AcDbSymbolTableRecord
100
AcDbLayerTableRecord
2
0
70
0
62
7
6
Continuous
290
1
370
-3
390
0
0
LAYER
5
71
100
AcDbSymbolTableRecord
100
AcDbLayerTableRecord
2
80
70
0
62
-6
6
Continuous
290
1
370
-3
390
0
0
LAYER
5
73
100
AcDbSymbolTableRecord
100
AcDbLayerTableRecord
2
81
70
0
62
-3
6
Continuous
290
1
370
-3
390
0
0
LAYER
5
75
100
AcDbSymbolTableRecord
100
AcDbLayerTableRecord
2
1
70
0
62
4
6
Continuous
290
1
370
-3
390
0
0
LAYER
5
A2
100
AcDbSymbolTableRecord
100
AcDbLayerTableRecord
2
4
70
0
62
-2
6
CENTER
290
1
370
-3
390
0
0
LAYER
5
119
100
AcDbSymbolTableRecord
100
AcDbLayerTableRecord
2
Defpoints
70
0
62
7
6
Continuous
290
0
370
-3
390
0
0
LAYER
5
146
100
AcDbSymbolTableRecord
100
AcDbLayerTableRecord
2
2
70
0
62
7
6
Continuous
290
1
370
-3
390
0
0
LAYER
5
241
100
AcDbSymbolTableRecord
100
AcDbLayerTableRecord
2
SK1
70
0
62
4
6
Continuous
290
1
370
-3
390
0
0
LAYER
5
242
100
AcDbSymbolTableRecord
100
AcDbLayerTableRecord
2
SK4
70
0
62
2
6
CENTER
290
1
370
-3
390
0
0
LAYER
5
243
100
AcDbSymbolTableRecord
100
AcDbLayerTableRecord
2
SK2
70
0
62
7
6
Continuous
290
1
370
-3
390
0
0
LAYER
5
244
100
AcDbSymbolTableRecord
100
AcDbLayerTableRecord
2
SK6
70
0
62
5
6
Continuous
290
1
370
-3
390
0
0
ENDTAB
0
TABLE
2
STYLE
5
258
100
AcDbSymbolTable
0
STYLE
5
11
100
AcDbSymbolTableRecord
100
AcDbTextStyleTableRecord
2
Standard
3
txt
70
0
71
0
40
0
41
1
42
0
50
0
0
STYLE
5
10A
100
AcDbSymbolTableRecord
100
AcDbTextStyleTableRecord
2
iso_b_vert
3
simplex.shx
70
0
71
0
40
0
41
1
42
0
50
0
0
STYLE
5
10B
100
AcDbSymbolTableRecord
100
AcDbTextStyleTableRecord
2
DWGDirectTextStyle
3
simplex
70
0
71
0
40
0
41
1
42
0
50
0
0
ENDTAB
0
TABLE
2
DIMSTYLE
5
259
100
AcDbSymbolTable
100
AcDbDimStyleTable
0
DIMSTYLE
105
27
100
AcDbSymbolTableRecord
100
AcDbDimStyleTableRecord
2
Standard
70
0
3
<>
41
0.18
42
0.0625
44
0.18
140
0.18
147
0.09
73
0
74
0
77
1
271
2
275
0
278
52
280
0
340
11
0
ENDTAB
0
TABLE
2
VIEW
5
25a
100
AcDbSymbolTable
0
ENDTAB
0
TABLE
2
UCS
5
25b
100
AcDbSymbolTable
0
ENDTAB
0
TABLE
2
APPID
5
25c
100
AcDbSymbolTable
0
APPID
5
12
100
AcDbSymbolTableRecord
100
AcDbRegAppTableRecord
2
ACAD
70
0
0
APPID
5
10E
100
AcDbSymbolTableRecord
100
AcDbRegAppTableRecord
2
ACAD_DSTYLE_DIMBREAK
70
0
0
APPID
5
200
100
AcDbSymbolTableRecord
100
AcDbRegAppTableRecord
2
ACAD_DSTYLE_DIM_LINETYPE
70
0
0
APPID
5
201
100
AcDbSymbolTableRecord
100
AcDbRegAppTableRecord
2
ACAD_DSTYLE_DIM_EXT1_LINETYPE
70
0
0
APPID
5
202
100
AcDbSymbolTableRecord
100
AcDbRegAppTableRecord
2
ACAD_DSTYLE_DIM_EXT2_LINETYPE
70
0
0
APPID
5
23D
100
AcDbSymbolTableRecord
100
AcDbRegAppTableRecord
2
ACAD_MLEADERVER
70
0
0
ENDTAB
0
TABLE
2
BLOCK_RECORD
5
25d
100
AcDbSymbolTable
0
BLOCK_RECORD
5
1F
100
AcDbSymbolTableRecord
100
AcDbBlockTableRecord
2
*Model_Space
340
0
70
0
0
BLOCK_RECORD
5
1B
100
AcDbSymbolTableRecord
100
AcDbBlockTableRecord
2
*Paper_Space
340
0
70
0
0
BLOCK_RECORD
5
23
100
AcDbSymbolTableRecord
100
AcDbBlockTableRecord
2
*Paper_Space0
340
0
70
0
0
BLOCK_RECORD
5
110
100
AcDbSymbolTableRecord
100
AcDbBlockTableRecord
2
_Closed
340
0
70
0
0
BLOCK_RECORD
5
11A
100
AcDbSymbolTableRecord
100
AcDbBlockTableRecord
2
*D2
340
0
70
0
0
BLOCK_RECORD
5
126
100
AcDbSymbolTableRecord
100
AcDbBlockTableRecord
2
_U0
340
0
70
0
0
BLOCK_RECORD
5
138
100
AcDbSymbolTableRecord
100
AcDbBlockTableRecord
2
*D4
340
0
70
0
0
BLOCK_RECORD
5
147
100
AcDbSymbolTableRecord
100
AcDbBlockTableRecord
2
_U1
340
0
70
0
0
BLOCK_RECORD
5
157
100
AcDbSymbolTableRecord
100
AcDbBlockTableRecord
2
*D6
340
0
70
0
0
BLOCK_RECORD
5
165
100
AcDbSymbolTableRecord
100
AcDbBlockTableRecord
2
_U2
340
0
70
0
0
BLOCK_RECORD
5
175
100
AcDbSymbolTableRecord
100
AcDbBlockTableRecord
2
*D8
340
0
70
0
0
BLOCK_RECORD
5
181
100
AcDbSymbolTableRecord
100
AcDbBlockTableRecord
2
_U3
340
0
70
0
0
BLOCK_RECORD
5
191
100
AcDbSymbolTableRecord
100
AcDbBlockTableRecord
2
*D10
340
0
70
0
0
BLOCK_RECORD
5
19D
100
AcDbSymbolTableRecord
100
AcDbBlockTableRecord
2
_U4
340
0
70
0
0
BLOCK_RECORD
5
1AD
100
AcDbSymbolTableRecord
100
AcDbBlockTableRecord
2
*D12
340
0
70
0
0
BLOCK_RECORD
5
1B9
100
AcDbSymbolTableRecord
100
AcDbBlockTableRecord
2
_U5
340
0
70
0
0
BLOCK_RECORD
5
1C9
100
AcDbSymbolTableRecord
100
AcDbBlockTableRecord
2
*D14
340
0
70
0
0
BLOCK_RECORD
5
1D5
100
AcDbSymbolTableRecord
100
AcDbBlockTableRecord
2
_U6
340
0
70
0
0
ENDTAB
0
ENDSEC
0
SECTION
2
BLOCKS
0
BLOCK
5
20
100
AcDbEntity
8
0
100
AcDbBlockBegin
2
*Model_Space
70
0
10
0
20
0
30
0
3
*Model_Space
0
ENDBLK
5
21
100
AcDbEntity
8
0
100
AcDbBlockEnd
0
BLOCK
5
1C
100
AcDbEntity
8
0
100
AcDbBlockBegin
2
*Paper_Space
70
0
10
0
20
0
30
0
3
*Paper_Space
0
ENDBLK
5
1D
100
AcDbEntity
8
0
100
AcDbBlockEnd
0
BLOCK
5
24
100
AcDbEntity
8
0
100
AcDbBlockBegin
2
*Paper_Space0
70
0
10
0
20
0
30
0
3
*Paper_Space0
0
ENDBLK
5
25
100
AcDbEntity
8
0
100
AcDbBlockEnd
0
BLOCK
5
111
100
AcDbEntity
8
0
100
AcDbBlockBegin
2
_Closed
70
0
10
0
20
0
30
0
3
_Closed
0
LINE
5
113
100
AcDbEntity
8
0
62
256
6
ByLayer
370
-2
48
1
60
0
100
AcDbLine
10
-1
20
0.166667
30
0
11
0
21
0
31
0
39
0
210
0
220
0
230
1
0
LINE
5
114
100
AcDbEntity
8
0
62
256
6
ByLayer
370
-2
48
1
60
0
100
AcDbLine
10
0
20
0
30
0
11
-1
21
-0.166667
31
0
39
0
210
0
220
0
230
1
0
LINE
5
115
100
AcDbEntity
8
0
62
256
6
ByLayer
370
-2
48
1
60
0
100
AcDbLine
10
-1
20
0.166667
30
0
11
-1
21
-0.166667
31
0
39
0
210
0
220
0
230
1
0
LINE
5
116
100
AcDbEntity
8
0
62
256
6
ByLayer
370
-2
48
1
60
0
100
AcDbLine
10
0
20
0
30
0
11
-1
21
0
31
0
39
0
210
0
220
0
230
1
0
ENDBLK
5
112
100
AcDbEntity
8
0
100
AcDbBlockEnd
0
BLOCK
5
11B
100
AcDbEntity
8
0
100
AcDbBlockBegin
2
*D2
70
1
10
0
20
0
30
0
3
*D2
0
LINE
5
11D
100
AcDbEntity
8
0
62
256
6
ByLayer
370
-2
48
1
60
0
100
AcDbLine
10
0
20
-5.5875
30
0
11
0
21
-30.67512
31
0
39
0
210
0
220
0
230
1
0
LINE
5
11E
100
AcDbEntity
8
0
62
256
6
ByLayer
370
-2
48
1
60
0
100
AcDbLine
10
55
20
-1.5875
30
0
11
55
21
-30.67512
31
0
39
0
210
0
220
0
230
1
0
LINE
5
11F
100
AcDbEntity
8
0
62
256
6
ByLayer
370
-2
48
1
60
0
100
AcDbLine
10
3.175
20
-27.50012
30
0
11
51.825
21
-27.50012
31
0
39
0
210
0
220
0
230
1
0
SOLID
5
120
100
AcDbEntity
8
0
62
256
6
ByLayer
370
-1
48
1
60
0
100
AcDbTrace
10
3.175
20
-26.970953
30
0
11
3.175
21
-28.029287
31
0
12
0
22
-27.50012
32
0
13
0
23
-27.50012
33
0
39
0
210
0
220
0
230
1
0
SOLID
5
121
100
AcDbEntity
8
0
62
256
6
ByLayer
370
-1
48
1
60
0
100
AcDbTrace
10
51.825
20
-28.029287
30
0
11
51.825
21
-26.970953
31
0
12
55
22
-27.50012
32
0
13
55
23
-27.50012
33
0
39
0
210
0
220
0
230
1
0
MTEXT
5
122
100
AcDbEntity
8
0
62
256
6
ByLayer
370
18
48
1
60
0
100
AcDbMText
10
27.5
20
-20.193619
30
0
210
0
220
0
230
1
1
\A1;55
40
3.50012
41
0
44
1
50
0
71
5
72
5
7
iso_b_vert
0
POINT
5
123
100
AcDbEntity
8
Defpoints
62
0
6
ByLayer
370
-1
48
1
60
0
100
AcDbPoint
10
0
20
-4
30
0
39
0
210
0
220
0
230
1
50
360
0
POINT
5
124
100
AcDbEntity
8
Defpoints
62
0
6
ByLayer
370
-1
48
1
60
0
100
AcDbPoint
10
55
20
0
30
0
39
0
210
0
220
0
230
1
50
360
0
POINT
5
125
100
AcDbEntity
8
Defpoints
62
0
6
ByLayer
370
-1
48
1
60
0
100
AcDbPoint
10
55
20
-27.50012
30
0
39
0
210
0
220
0
230
1
50
360
0
ENDBLK
5
11C
100
AcDbEntity
8
0
100
AcDbBlockEnd
0
BLOCK
5
133
100
AcDbEntity
8
0
100
AcDbBlockBegin
2
_U0
70
0
10
0
20
0
30
0
3
_U0
0
MTEXT
5
127
100
AcDbEntity
8
SK2
62
256
6
ByLayer
370
18
48
1
60
0
100
AcDbMText
10
22.270389
20
-26.467451
30
0
210
0
220
0
230
1
1
\W0.7468;55.00
40
3.50012
41
0
44
1.084337
50
0
71
7
72
5
7
iso_b_vert
0
MTEXT
5
128
100
AcDbEntity
8
SK2
62
256
6
ByLayer
370
18
48
1
60
0
100
AcDbMText
10
18.744329
20
-26.400814
30
0
210
0
220
0
230
1
1
\W0.1790;(
40
3.175
41
0
44
1.084337
50
0
71
7
72
5
7
iso_b_vert
0
MTEXT
5
129
100
AcDbEntity
8
SK2
62
256
6
ByLayer
370
18
48
1
60
0
100
AcDbMText
10
36.258393
20
-26.400814
30
0
210
0
220
0
230
1
1
\W0.1969;)
40
3.175
41
0
44
1.084337
50
0
71
7
72
5
7
iso_b_vert
0
LINE
5
12A
100
AcDbEntity
8
SK2
62
256
6
ByLayer
370
13
48
1
60
0
100
AcDbLine
10
0
20
-5.5875
30
0
11
0
21
-30.67512
31
0
39
0
210
0
220
0
230
1
0
LINE
5
12B
100
AcDbEntity
8
SK2
62
256
6
ByLayer
370
13
48
1
60
0
100
AcDbLine
10
55
20
-1.5875
30
0
11
55
21
-30.67512
31
0
39
0
210
0
220
0
230
1
0
LINE
5
12C
100
AcDbEntity
8
SK2
62
256
6
ByLayer
370
13
48
1
60
0
100
AcDbLine
10
0
20
-27.50012
30
0
11
55
21
-27.50012
31
0
39
0
210
0
220
0
230
1
0
LINE
5
12D
100
AcDbEntity
8
SK2
62
256
6
ByLayer
370
13
48
1
60
0
100
AcDbLine
10
0
20
-27.50012
30
0
11
3.174998
21
-27.082123
31
0
39
0
210
0
220
0
230
1
0
LINE
5
12E
100
AcDbEntity
8
SK2
62
256
6
ByLayer
370
13
48
1
60
0
100
AcDbLine
10
0
20
-27.50012
30
0
11
3.175002
21
-27.918117
31
0
39
0
210
0
220
0
230
1
0
LINE
5
12F
100
AcDbEntity
8
SK2
62
256
6
ByLayer
370
13
48
1
60
0
100
AcDbLine
10
3.174998
20
-27.082123
30
0
11
3.175002
21
-27.918117
31
0
39
0
210
0
220
0
230
1
0
LINE
5
130
100
AcDbEntity
8
SK2
62
256
6
ByLayer
370
13
48
1
60
0
100
AcDbLine
10
55
20
-27.50012
30
0
11
51.825002
21
-27.918117
31
0
39
0
210
0
220
0
230
1
0
LINE
5
131
100
AcDbEntity
8
SK2
62
256
6
ByLayer
370
13
48
1
60
0
100
AcDbLine
10
55
20
-27.50012
30
0
11
51.824998
21
-27.082123
31
0
39
0
210
0
220
0
230
1
0
LINE
5
132
100
AcDbEntity
8
SK2
62
256
6
ByLayer
370
13
48
1
60
0
100
AcDbLine
10
51.825002
20
-27.918117
30
0
11
51.824998
21
-27.082123
31
0
39
0
210
0
220
0
230
1
0
ENDBLK
5
134
100
AcDbEntity
8
0
100
AcDbBlockEnd
0
BLOCK
5
139
100
AcDbEntity
8
0
100
AcDbBlockBegin
2
*D4
70
1
10
0
20
0
30
0
3
*D4
0
LINE
5
13B
100
AcDbEntity
8
0
62
256
6
ByLayer
370
-2
48
1
60
0
100
AcDbLine
10
55.3682
20
-3.35
30
0
11
64.92506
21
-3.35
31
0
39
0
210
0
220
0
230
1
0
LINE
5
13C
100
AcDbEntity
8
0
62
256
6
ByLayer
370
-2
48
1
60
0
100
AcDbLine
10
55.3682
20
3.35
30
0
11
64.92506
21
3.35
31
0
39
0
210
0
220
0
230
1
0
LINE
5
13D
100
AcDbEntity
8
0
62
256
6
ByLayer
370
-2
48
1
60
0
100
AcDbLine
10
61.75006
20
3.35
30
0
11
61.75006
21
27.979793
31
0
39
0
210
0
220
0
230
1
0
LINE
5
13E
100
AcDbEntity
8
0
62
256
6
ByLayer
370
-2
48
1
60
0
100
AcDbLine
10
61.75006
20
-6.525
30
0
11
61.75006
21
-9.7
31
0
39
0
210
0
220
0
230
1
0
LINE
5
13F
100
AcDbEntity
8
0
62
256
6
ByLayer
370
-2
48
1
60
0
100
AcDbLine
10
61.75006
20
6.525
30
0
11
61.75006
21
9.7
31
0
39
0
210
0
220
0
230
1
0
SOLID
5
140
100
AcDbEntity
8
0
62
256
6
ByLayer
370
-1
48
1
60
0
100
AcDbTrace
10
62.279227
20
-6.525
30
0
11
61.220893
21
-6.525
31
0
12
61.75006
22
-3.35
32
0
13
61.75006
23
-3.35
33
0
39
0
210
0
220
0
230
1
0
SOLID
5
141
100
AcDbEntity
8
0
62
256
6
ByLayer
370
-1
48
1
60
0
100
AcDbTrace
10
61.220893
20
6.525
30
0
11
62.279227
21
6.525
31
0
12
61.75006
22
3.35
32
0
13
61.75006
23
3.35
33
0
39
0
210
0
220
0
230
1
0
MTEXT
5
142
100
AcDbEntity
8
0
62
256
6
ByLayer
370
18
48
1
60
0
100
AcDbMText
10
54.443559
20
18.839897
30
0
210
0
220
0
230
1
1
\A1;6.7
40
3.50012
41
0
44
1
50
90
71
5
72
5
7
iso_b_vert
0
POINT
5
143
100
AcDbEntity
8
Defpoints
62
0
6
ByLayer
370
-1
48
1
60
0
100
AcDbPoint
10
53.7807
20
-3.35
30
0
39
0
210
0
220
0
230
1
50
360
0
POINT
5
144
100
AcDbEntity
8
Defpoints
62
0
6
ByLayer
370
-1
48
1
60
0
100
AcDbPoint
10
53.7807
20
3.35
30
0
39
0
210
0
220
0
230
1
50
360
0
POINT
5
145
100
AcDbEntity
8
Defpoints
62
0
6
ByLayer
370
-1
48
1
60
0
100
AcDbPoint
10
61.75006
20
3.35
30
0
39
0
210
0
220
0
230
1
50
360
0
ENDBLK
5
13A
100
AcDbEntity
8
0
100
AcDbBlockEnd
0
BLOCK
5
152
100
AcDbEntity
8
0
100
AcDbBlockBegin
2
_U1
70
0
10
0
20
0
30
0
3
_U1
0
MTEXT
5
148
100
AcDbEntity
8
2
62
256
6
ByLayer
370
18
48
1
60
0
100
AcDbMText
10
61.060403
20
7.507505
30
0
210
0
220
0
230
1
1
\W0.7346;6.70
40
3.50012
41
0
44
1.084337
50
90
71
7
72
5
7
iso_b_vert
0
LINE
5
149
100
AcDbEntity
8
2
62
256
6
ByLayer
370
13
48
1
60
0
100
AcDbLine
10
55.3682
20
-3.35
30
0
11
64.92506
21
-3.35
31
0
39
0
210
0
220
0
230
1
0
LINE
5
14A
100
AcDbEntity
8
2
62
256
6
ByLayer
370
13
48
1
60
0
100
AcDbLine
10
55.3682
20
3.35
30
0
11
64.92506
21
3.35
31
0
39
0
210
0
220
0
230
1
0
LINE
5
14B
100
AcDbEntity
8
2
62
256
6
ByLayer
370
13
48
1
60
0
100
AcDbLine
10
61.75006
20
-3.35
30
0
11
61.75006
21
15.56468
31
0
39
0
210
0
220
0
230
1
0
LINE
5
14C
100
AcDbEntity
8
2
62
256
6
ByLayer
370
13
48
1
60
0
100
AcDbLine
10
61.75006
20
-3.35
30
0
11
61.332063
21
-0.175002
31
0
39
0
210
0
220
0
230
1
0
LINE
5
14D
100
AcDbEntity
8
2
62
256
6
ByLayer
370
13
48
1
60
0
100
AcDbLine
10
61.75006
20
-3.35
30
0
11
62.168057
21
-0.174998
31
0
39
0
210
0
220
0
230
1
0
LINE
5
14E
100
AcDbEntity
8
2
62
256
6
ByLayer
370
13
48
1
60
0
100
AcDbLine
10
61.332063
20
-0.175002
30
0
11
62.168057
21
-0.174998
31
0
39
0
210
0
220
0
230
1
0
LINE
5
14F
100
AcDbEntity
8
2
62
256
6
ByLayer
370
13
48
1
60
0
100
AcDbLine
10
61.75006
20
3.35
30
0
11
62.168057
21
0.175002
31
0
39
0
210
0
220
0
230
1
0
LINE
5
150
100
AcDbEntity
8
2
62
256
6
ByLayer
370
13
48
1
60
0
100
AcDbLine
10
61.75006
20
3.35
30
0
11
61.332063
21
0.174998
31
0
39
0
210
0
220
0
230
1
0
LINE
5
151
100
AcDbEntity
8
2
62
256
6
ByLayer
370
13
48
1
60
0
100
AcDbLine
10
62.168057
20
0.175002
30
0
11
61.332063
21
0.174998
31
0
39
0
210
0
220
0
230
1
0
ENDBLK
5
153
100
AcDbEntity
8
0
100
AcDbBlockEnd
0
BLOCK
5
158
100
AcDbEntity
8
0
100
AcDbBlockBegin
2
*D6
70
1
10
0
20
0
30
0
3
*D6
0
LINE
5
15A
100
AcDbEntity
8
0
62
256
6
ByLayer
370
-2
48
1
60
0
100
AcDbLine
10
-37.5875
20
4
30
0
11
-42.42494
21
4
31
0
39
0
210
0
220
0
230
1
0
LINE
5
15B
100
AcDbEntity
8
0
62
256
6
ByLayer
370
-2
48
1
60
0
100
AcDbLine
10
-37.5875
20
-4
30
0
11
-42.42494
21
-4
31
0
39
0
210
0
220
0
230
1
0
LINE
5
15C
100
AcDbEntity
8
0
62
256
6
ByLayer
370
-2
48
1
60
0
100
AcDbLine
10
-39.24994
20
4
30
0
11
-39.24994
21
24.830487
31
0
39
0
210
0
220
0
230
1
0
LINE
5
15D
100
AcDbEntity
8
0
62
256
6
ByLayer
370
-2
48
1
60
0
100
AcDbLine
10
-39.24994
20
7.175
30
0
11
-39.24994
21
10.35
31
0
39
0
210
0
220
0
230
1
0
LINE
5
15E
100
AcDbEntity
8
0
62
256
6
ByLayer
370
-2
48
1
60
0
100
AcDbLine
10
-39.24994
20
-7.175
30
0
11
-39.24994
21
-10.35
31
0
39
0
210
0
220
0
230
1
0
SOLID
5
15F
100
AcDbEntity
8
0
62
256
6
ByLayer
370
-1
48
1
60
0
100
AcDbTrace
10
-39.779107
20
7.175
30
0
11
-38.720773
21
7.175
31
0
12
-39.24994
22
4
32
0
13
-39.24994
23
4
33
0
39
0
210
0
220
0
230
1
0
SOLID
5
160
100
AcDbEntity
8
0
62
256
6
ByLayer
370
-1
48
1
60
0
100
AcDbTrace
10
-38.720773
20
-7.175
30
0
11
-39.779107
21
-7.175
31
0
12
-39.24994
22
-4
32
0
13
-39.24994
23
-4
33
0
39
0
210
0
220
0
230
1
0
MTEXT
5
161
100
AcDbEntity
8
0
62
256
6
ByLayer
370
18
48
1
60
0
100
AcDbMText
10
-46.556441
20
18.10734
30
0
210
0
220
0
230
1
1
\A1;8
40
3.50012
41
0
44
1
50
90
71
5
72
5
7
iso_b_vert
0
POINT
5
162
100
AcDbEntity
8
Defpoints
62
0
6
ByLayer
370
-1
48
1
60
0
100
AcDbPoint
10
-36
20
4
30
0
39
0
210
0
220
0
230
1
50
360
0
POINT
5
163
100
AcDbEntity
8
Defpoints
62
0
6
ByLayer
370
-1
48
1
60
0
100
AcDbPoint
10
-36
20
-4
30
0
39
0
210
0
220
0
230
1
50
360
0
POINT
5
164
100
AcDbEntity
8
Defpoints
62
0
6
ByLayer
370
-1
48
1
60
0
100
AcDbPoint
10
-39.24994
20
-4
30
0
39
0
210
0
220
0
230
1
50
360
0
ENDBLK
5
159
100
AcDbEntity
8
0
100
AcDbBlockEnd
0
BLOCK
5
170
100
AcDbEntity
8
0
100
AcDbBlockBegin
2
_U2
70
0
10
0
20
0
30
0
3
_U2
0
MTEXT
5
166
100
AcDbEntity
8
SK2
62
256
6
ByLayer
370
18
48
1
60
0
100
AcDbMText
10
-39.939597
20
14.157505
30
0
210
0
220
0
230
1
1
\W0.7346;8.00
40
3.50012
41
0
44
1.084337
50
90
71
7
72
5
7
iso_b_vert
0
LINE
5
167
100
AcDbEntity
8
SK2
62
256
6
ByLayer
370
13
48
1
60
0
100
AcDbLine
10
-37.5875
20
4
30
0
11
-42.42494
21
4
31
0
39
0
210
0
220
0
230
1
0
LINE
5
168
100
AcDbEntity
8
SK2
62
256
6
ByLayer
370
13
48
1
60
0
100
AcDbLine
10
-37.5875
20
-4
30
0
11
-42.42494
21
-4
31
0
39
0
210
0
220
0
230
1
0
LINE
5
169
100
AcDbEntity
8
SK2
62
256
6
ByLayer
370
13
48
1
60
0
100
AcDbLine
10
-39.24994
20
-4
30
0
11
-39.24994
21
22.21468
31
0
39
0
210
0
220
0
230
1
0
LINE
5
16A
100
AcDbEntity
8
SK2
62
256
6
ByLayer
370
13
48
1
60
0
100
AcDbLine
10
-39.24994
20
4
30
0
11
-38.831943
21
0.825002
31
0
39
0
210
0
220
0
230
1
0
LINE
5
16B
100
AcDbEntity
8
SK2
62
256
6
ByLayer
370
13
48
1
60
0
100
AcDbLine
10
-39.24994
20
4
30
0
11
-39.667937
21
0.824998
31
0
39
0
210
0
220
0
230
1
0
LINE
5
16C
100
AcDbEntity
8
SK2
62
256
6
ByLayer
370
13
48
1
60
0
100
AcDbLine
10
-38.831943
20
0.825002
30
0
11
-39.667937
21
0.824998
31
0
39
0
210
0
220
0
230
1
0
LINE
5
16D
100
AcDbEntity
8
SK2
62
256
6
ByLayer
370
13
48
1
60
0
100
AcDbLine
10
-39.24994
20
-4
30
0
11
-39.667937
21
-0.825002
31
0
39
0
210
0
220
0
230
1
0
LINE
5
16E
100
AcDbEntity
8
SK2
62
256
6
ByLayer
370
13
48
1
60
0
100
AcDbLine
10
-39.24994
20
-4
30
0
11
-38.831943
21
-0.824998
31
0
39
0
210
0
220
0
230
1
0
LINE
5
16F
100
AcDbEntity
8
SK2
62
256
6
ByLayer
370
13
48
1
60
0
100
AcDbLine
10
-39.667937
20
-0.825002
30
0
11
-38.831943
21
-0.824998
31
0
39
0
210
0
220
0
230
1
0
ENDBLK
5
171
100
AcDbEntity
8
0
100
AcDbBlockEnd
0
BLOCK
5
176
100
AcDbEntity
8
0
100
AcDbBlockBegin
2
*D8
70
1
10
0
20
0
30
0
3
*D8
0
LINE
5
178
100
AcDbEntity
8
0
62
256
6
ByLayer
370
-2
48
1
60
0
100
AcDbLine
10
-36
20
-5.5875
30
0
11
-36
21
-30.67512
31
0
39
0
210
0
220
0
230
1
0
LINE
5
179
100
AcDbEntity
8
0
62
256
6
ByLayer
370
-2
48
1
60
0
100
AcDbLine
10
0
20
-5.5875
30
0
11
0
21
-30.67512
31
0
39
0
210
0
220
0
230
1
0
LINE
5
17A
100
AcDbEntity
8
0
62
256
6
ByLayer
370
-2
48
1
60
0
100
AcDbLine
10
-32.825
20
-27.50012
30
0
11
-3.175
21
-27.50012
31
0
39
0
210
0
220
0
230
1
0
SOLID
5
17B
100
AcDbEntity
8
0
62
256
6
ByLayer
370
-1
48
1
60
0
100
AcDbTrace
10
-32.825
20
-26.970953
30
0
11
-32.825
21
-28.029287
31
0
12
-36
22
-27.50012
32
0
13
-36
23
-27.50012
33
0
39
0
210
0
220
0
230
1
0
SOLID
5
17C
100
AcDbEntity
8
0
62
256
6
ByLayer
370
-1
48
1
60
0
100
AcDbTrace
10
-3.175
20
-28.029287
30
0
11
-3.175
21
-26.970953
31
0
12
0
22
-27.50012
32
0
13
0
23
-27.50012
33
0
39
0
210
0
220
0
230
1
0
MTEXT
5
17D
100
AcDbEntity
8
0
62
256
6
ByLayer
370
18
48
1
60
0
100
AcDbMText
10
-18
20
-20.193619
30
0
210
0
220
0
230
1
1
\A1;36
40
3.50012
41
0
44
1
50
0
71
5
72
5
7
iso_b_vert
0
POINT
5
17E
100
AcDbEntity
8
Defpoints
62
0
6
ByLayer
370
-1
48
1
60
0
100
AcDbPoint
10
-36
20
-4
30
0
39
0
210
0
220
0
230
1
50
360
0
POINT
5
17F
100
AcDbEntity
8
Defpoints
62
0
6
ByLayer
370
-1
48
1
60
0
100
AcDbPoint
10
0
20
-4
30
0
39
0
210
0
220
0
230
1
50
360
0
POINT
5
180
100
AcDbEntity
8
Defpoints
62
0
6
ByLayer
370
-1
48
1
60
0
100
AcDbPoint
10
0
20
-27.50012
30
0
39
0
210
0
220
0
230
1
50
360
0
ENDBLK
5
177
100
AcDbEntity
8
0
100
AcDbBlockEnd
0
BLOCK
5
18C
100
AcDbEntity
8
0
100
AcDbBlockBegin
2
_U3
70
0
10
0
20
0
30
0
3
_U3
0
MTEXT
5
182
100
AcDbEntity
8
SK2
62
256
6
ByLayer
370
18
48
1
60
0
100
AcDbMText
10
-23.229611
20
-26.467451
30
0
210
0
220
0
230
1
1
\W0.7468;36.00
40
3.50012
41
0
44
1.084337
50
0
71
7
72
5
7
iso_b_vert
0
LINE
5
183
100
AcDbEntity
8
SK2
62
256
6
ByLayer
370
13
48
1
60
0
100
AcDbLine
10
-36
20
-5.5875
30
0
11
-36
21
-30.67512
31
0
39
0
210
0
220
0
230
1
0
LINE
5
184
100
AcDbEntity
8
SK2
62
256
6
ByLayer
370
13
48
1
60
0
100
AcDbLine
10
0
20
-5.5875
30
0
11
0
21
-30.67512
31
0
39
0
210
0
220
0
230
1
0
LINE
5
185
100
AcDbEntity
8
SK2
62
256
6
ByLayer
370
13
48
1
60
0
100
AcDbLine
10
-36
20
-27.50012
30
0
11
0
21
-27.50012
31
0
39
0
210
0
220
0
230
1
0
LINE
5
186
100
AcDbEntity
8
SK2
62
256
6
ByLayer
370
13
48
1
60
0
100
AcDbLine
10
-36
20
-27.50012
30
0
11
-32.825002
21
-27.082123
31
0
39
0
210
0
220
0
230
1
0
LINE
5
187
100
AcDbEntity
8
SK2
62
256
6
ByLayer
370
13
48
1
60
0
100
AcDbLine
10
-36
20
-27.50012
30
0
11
-32.824998
21
-27.918117
31
0
39
0
210
0
220
0
230
1
0
LINE
5
188
100
AcDbEntity
8
SK2
62
256
6
ByLayer
370
13
48
1
60
0
100
AcDbLine
10
-32.825002
20
-27.082123
30
0
11
-32.824998
21
-27.918117
31
0
39
0
210
0
220
0
230
1
0
LINE
5
189
100
AcDbEntity
8
SK2
62
256
6
ByLayer
370
13
48
1
60
0
100
AcDbLine
10
0
20
-27.50012
30
0
11
-3.174998
21
-27.918117
31
0
39
0
210
0
220
0
230
1
0
LINE
5
18A
100
AcDbEntity
8
SK2
62
256
6
ByLayer
370
13
48
1
60
0
100
AcDbLine
10
0
20
-27.50012
30
0
11
-3.175002
21
-27.082123
31
0
39
0
210
0
220
0
230
1
0
LINE
5
18B
100
AcDbEntity
8
SK2
62
256
6
ByLayer
370
13
48
1
60
0
100
AcDbLine
10
-3.174998
20
-27.918117
30
0
11
-3.175002
21
-27.082123
31
0
39
0
210
0
220
0
230
1
0
ENDBLK
5
18D
100
AcDbEntity
8
0
100
AcDbBlockEnd
0
BLOCK
5
192
100
AcDbEntity
8
0
100
AcDbBlockBegin
2
*D10
70
1
10
0
20
0
30
0
3
*D10
0
LINE
5
194
100
AcDbEntity
8
0
62
256
6
ByLayer
370
-2
48
1
60
0
100
AcDbLine
10
2
20
2.2625
30
0
11
2
21
-21.92482
31
0
39
0
210
0
220
0
230
1
0
LINE
5
195
100
AcDbEntity
8
0
62
256
6
ByLayer
370
-2
48
1
60
0
100
AcDbLine
10
55
20
-1.5875
30
0
11
55
21
-21.92482
31
0
39
0
210
0
220
0
230
1
0
LINE
5
196
100
AcDbEntity
8
0
62
256
6
ByLayer
370
-2
48
1
60
0
100
AcDbLine
10
5.175
20
-18.74982
30
0
11
51.825
21
-18.74982
31
0
39
0
210
0
220
0
230
1
0
SOLID
5
197
100
AcDbEntity
8
0
62
256
6
ByLayer
370
-1
48
1
60
0
100
AcDbTrace
10
5.175
20
-18.220653
30
0
11
5.175
21
-19.278987
31
0
12
2
22
-18.74982
32
0
13
2
23
-18.74982
33
0
39
0
210
0
220
0
230
1
0
SOLID
5
198
100
AcDbEntity
8
0
62
256
6
ByLayer
370
-1
48
1
60
0
100
AcDbTrace
10
51.825
20
-19.278987
30
0
11
51.825
21
-18.220653
31
0
12
55
22
-18.74982
32
0
13
55
23
-18.74982
33
0
39
0
210
0
220
0
230
1
0
MTEXT
5
199
100
AcDbEntity
8
0
62
256
6
ByLayer
370
18
48
1
60
0
100
AcDbMText
10
28.5
20
-11.443319
30
0
210
0
220
0
230
1
1
\A1;53
40
3.50012
41
0
44
1
50
0
71
5
72
5
7
iso_b_vert
0
POINT
5
19A
100
AcDbEntity
8
Defpoints
62
0
6
ByLayer
370
-1
48
1
60
0
100
AcDbPoint
10
2
20
3.85
30
0
39
0
210
0
220
0
230
1
50
360
0
POINT
5
19B
100
AcDbEntity
8
Defpoints
62
0
6
ByLayer
370
-1
48
1
60
0
100
AcDbPoint
10
55
20
0
30
0
39
0
210
0
220
0
230
1
50
360
0
POINT
5
19C
100
AcDbEntity
8
Defpoints
62
0
6
ByLayer
370
-1
48
1
60
0
100
AcDbPoint
10
55
20
-18.74982
30
0
39
0
210
0
220
0
230
1
50
360
0
ENDBLK
5
193
100
AcDbEntity
8
0
100
AcDbBlockEnd
0
BLOCK
5
1A8
100
AcDbEntity
8
0
100
AcDbBlockBegin
2
_U4
70
0
10
0
20
0
30
0
3
_U4
0
MTEXT
5
19E
100
AcDbEntity
8
SK2
62
256
6
ByLayer
370
18
48
1
60
0
100
AcDbMText
10
23.270389
20
-17.717151
30
0
210
0
220
0
230
1
1
\W0.7468;53.00
40
3.50012
41
0
44
1.084337
50
0
71
7
72
5
7
iso_b_vert
0
LINE
5
19F
100
AcDbEntity
8
SK2
62
256
6
ByLayer
370
13
48
1
60
0
100
AcDbLine
10
2
20
2.2625
30
0
11
2
21
-21.92482
31
0
39
0
210
0
220
0
230
1
0
LINE
5
1A0
100
AcDbEntity
8
SK2
62
256
6
ByLayer
370
13
48
1
60
0
100
AcDbLine
10
55
20
-1.5875
30
0
11
55
21
-21.92482
31
0
39
0
210
0
220
0
230
1
0
LINE
5
1A1
100
AcDbEntity
8
SK2
62
256
6
ByLayer
370
13
48
1
60
0
100
AcDbLine
10
2
20
-18.74982
30
0
11
55
21
-18.74982
31
0
39
0
210
0
220
0
230
1
0
LINE
5
1A2
100
AcDbEntity
8
SK2
62
256
6
ByLayer
370
13
48
1
60
0
100
AcDbLine
10
2
20
-18.74982
30
0
11
5.174998
21
-18.331823
31
0
39
0
210
0
220
0
230
1
0
LINE
5
1A3
100
AcDbEntity
8
SK2
62
256
6
ByLayer
370
13
48
1
60
0
100
AcDbLine
10
2
20
-18.74982
30
0
11
5.175002
21
-19.167817
31
0
39
0
210
0
220
0
230
1
0
LINE
5
1A4
100
AcDbEntity
8
SK2
62
256
6
ByLayer
370
13
48
1
60
0
100
AcDbLine
10
5.174998
20
-18.331823
30
0
11
5.175002
21
-19.167817
31
0
39
0
210
0
220
0
230
1
0
LINE
5
1A5
100
AcDbEntity
8
SK2
62
256
6
ByLayer
370
13
48
1
60
0
100
AcDbLine
10
55
20
-18.74982
30
0
11
51.825002
21
-19.167817
31
0
39
0
210
0
220
0
230
1
0
LINE
5
1A6
100
AcDbEntity
8
SK2
62
256
6
ByLayer
370
13
48
1
60
0
100
AcDbLine
10
55
20
-18.74982
30
0
11
51.824998
21
-18.331823
31
0
39
0
210
0
220
0
230
1
0
LINE
5
1A7
100
AcDbEntity
8
SK2
62
256
6
ByLayer
370
13
48
1
60
0
100
AcDbLine
10
51.825002
20
-19.167817
30
0
11
51.824998
21
-18.331823
31
0
39
0
210
0
220
0
230
1
0
ENDBLK
5
1A9
100
AcDbEntity
8
0
100
AcDbBlockEnd
0
BLOCK
5
1AE
100
AcDbEntity
8
0
100
AcDbBlockBegin
2
*D12
70
1
10
0
20
0
30
0
3
*D12
0
LINE
5
1B0
100
AcDbEntity
8
0
62
256
6
ByLayer
370
-2
48
1
60
0
100
AcDbLine
10
20.3
20
-4.9375
30
0
11
20.3
21
-11.32
31
0
39
0
210
0
220
0
230
1
0
LINE
5
1B1
100
AcDbEntity
8
0
62
256
6
ByLayer
370
-2
48
1
60
0
100
AcDbLine
10
55
20
-1.5875
30
0
11
55
21
-11.32
31
0
39
0
210
0
220
0
230
1
0
LINE
5
1B2
100
AcDbEntity
8
0
62
256
6
ByLayer
370
-2
48
1
60
0
100
AcDbLine
10
23.475
20
-10.82
30
0
11
51.825
21
-10.82
31
0
39
0
210
0
220
0
230
1
0
SOLID
5
1B3
100
AcDbEntity
8
0
62
256
6
ByLayer
370
-1
48
1
60
0
100
AcDbTrace
10
23.475
20
-10.290833
30
0
11
23.475
21
-11.349167
31
0
12
20.3
22
-10.82
32
0
13
20.3
23
-10.82
33
0
39
0
210
0
220
0
230
1
0
SOLID
5
1B4
100
AcDbEntity
8
0
62
256
6
ByLayer
370
-1
48
1
60
0
100
AcDbTrace
10
51.825
20
-11.349167
30
0
11
51.825
21
-10.290833
31
0
12
55
22
-10.82
32
0
13
55
23
-10.82
33
0
39
0
210
0
220
0
230
1
0
MTEXT
5
1B5
100
AcDbEntity
8
0
62
256
6
ByLayer
370
18
48
1
60
0
100
AcDbMText
10
37.65
20
-4.975
30
0
210
0
220
0
230
1
1
\A1;34.7
40
2.8
41
0
44
1
50
0
71
5
72
5
7
iso_b_vert
0
POINT
5
1B6
100
AcDbEntity
8
Defpoints
62
0
6
ByLayer
370
-1
48
1
60
0
100
AcDbPoint
10
20.3
20
-3.35
30
0
39
0
210
0
220
0
230
1
50
360
0
POINT
5
1B7
100
AcDbEntity
8
Defpoints
62
0
6
ByLayer
370
-1
48
1
60
0
100
AcDbPoint
10
55
20
0
30
0
39
0
210
0
220
0
230
1
50
360
0
POINT
5
1B8
100
AcDbEntity
8
Defpoints
62
0
6
ByLayer
370
-1
48
1
60
0
100
AcDbPoint
10
55
20
-10.82
30
0
39
0
210
0
220
0
230
1
50
360
0
ENDBLK
5
1AF
100
AcDbEntity
8
0
100
AcDbBlockEnd
0
BLOCK
5
1C4
100
AcDbEntity
8
0
100
AcDbBlockBegin
2
_U5
70
0
10
0
20
0
30
0
3
_U5
0
MTEXT
5
1BA
100
AcDbEntity
8
SK2
62
256
6
ByLayer
370
18
48
1
60
0
100
AcDbMText
10
33.319041
20
-10.973893
30
0
210
0
220
0
230
1
1
\W0.7694;34.70
40
2.8
41
0
44
1.084337
50
0
71
7
72
5
7
iso_b_vert
0
LINE
5
1BB
100
AcDbEntity
8
SK2
62
256
6
ByLayer
370
13
48
1
60
0
100
AcDbLine
10
20.3
20
-4.9375
30
0
11
20.3
21
-11.32
31
0
39
0
210
0
220
0
230
1
0
LINE
5
1BC
100
AcDbEntity
8
SK2
62
256
6
ByLayer
370
13
48
1
60
0
100
AcDbLine
10
55
20
-1.5875
30
0
11
55
21
-11.32
31
0
39
0
210
0
220
0
230
1
0
LINE
5
1BD
100
AcDbEntity
8
SK2
62
256
6
ByLayer
370
13
48
1
60
0
100
AcDbLine
10
20.3
20
-10.82
30
0
11
55
21
-10.82
31
0
39
0
210
0
220
0
230
1
0
LINE
5
1BE
100
AcDbEntity
8
SK2
62
256
6
ByLayer
370
13
48
1
60
0
100
AcDbLine
10
20.3
20
-10.82
30
0
11
23.474998
21
-10.402003
31
0
39
0
210
0
220
0
230
1
0
LINE
5
1BF
100
AcDbEntity
8
SK2
62
256
6
ByLayer
370
13
48
1
60
0
100
AcDbLine
10
20.3
20
-10.82
30
0
11
23.475002
21
-11.237997
31
0
39
0
210
0
220
0
230
1
0
LINE
5
1C0
100
AcDbEntity
8
SK2
62
256
6
ByLayer
370
13
48
1
60
0
100
AcDbLine
10
23.474998
20
-10.402003
30
0
11
23.475002
21
-11.237997
31
0
39
0
210
0
220
0
230
1
0
LINE
5
1C1
100
AcDbEntity
8
SK2
62
256
6
ByLayer
370
13
48
1
60
0
100
AcDbLine
10
55
20
-10.82
30
0
11
51.825002
21
-11.237997
31
0
39
0
210
0
220
0
230
1
0
LINE
5
1C2
100
AcDbEntity
8
SK2
62
256
6
ByLayer
370
13
48
1
60
0
100
AcDbLine
10
55
20
-10.82
30
0
11
51.824998
21
-10.402003
31
0
39
0
210
0
220
0
230
1
0
LINE
5
1C3
100
AcDbEntity
8
SK2
62
256
6
ByLayer
370
13
48
1
60
0
100
AcDbLine
10
51.825002
20
-11.237997
30
0
11
51.824998
21
-10.402003
31
0
39
0
210
0
220
0
230
1
0
ENDBLK
5
1C5
100
AcDbEntity
8
0
100
AcDbBlockEnd
0
BLOCK
5
1CA
100
AcDbEntity
8
0
100
AcDbBlockBegin
2
*D14
70
1
10
0
20
0
30
0
3
*D14
0
LINE
5
1CC
100
AcDbEntity
8
0
62
256
6
ByLayer
370
-2
48
1
60
0
100
AcDbLine
10
-36
20
-1.5875
30
0
11
-36
21
-40.67512
31
0
39
0
210
0
220
0
230
1
0
LINE
5
1CD
100
AcDbEntity
8
0
62
256
6
ByLayer
370
-2
48
1
60
0
100
AcDbLine
10
55
20
-1.5875
30
0
11
55
21
-40.67512
31
0
39
0
210
0
220
0
230
1
0
LINE
5
1CE
100
AcDbEntity
8
0
62
256
6
ByLayer
370
-2
48
1
60
0
100
AcDbLine
10
-32.825
20
-37.50012
30
0
11
51.825
21
-37.50012
31
0
39
0
210
0
220
0
230
1
0
SOLID
5
1CF
100
AcDbEntity
8
0
62
256
6
ByLayer
370
-1
48
1
60
0
100
AcDbTrace
10
-32.825
20
-36.970953
30
0
11
-32.825
21
-38.029287
31
0
12
-36
22
-37.50012
32
0
13
-36
23
-37.50012
33
0
39
0
210
0
220
0
230
1
0
SOLID
5
1D0
100
AcDbEntity
8
0
62
256
6
ByLayer
370
-1
48
1
60
0
100
AcDbTrace
10
51.825
20
-38.029287
30
0
11
51.825
21
-36.970953
31
0
12
55
22
-37.50012
32
0
13
55
23
-37.50012
33
0
39
0
210
0
220
0
230
1
0
MTEXT
5
1D1
100
AcDbEntity
8
0
62
256
6
ByLayer
370
18
48
1
60
0
100
AcDbMText
10
9.5
20
-30.193619
30
0
210
0
220
0
230
1
1
\A1;91
40
3.50012
41
0
44
1
50
0
71
5
72
5
7
iso_b_vert
0
POINT
5
1D2
100
AcDbEntity
8
Defpoints
62
0
6
ByLayer
370
-1
48
1
60
0
100
AcDbPoint
10
-36
20
0
30
0
39
0
210
0
220
0
230
1
50
360
0
POINT
5
1D3
100
AcDbEntity
8
Defpoints
62
0
6
ByLayer
370
-1
48
1
60
0
100
AcDbPoint
10
55
20
0
30
0
39
0
210
0
220
0
230
1
50
360
0
POINT
5
1D4
100
AcDbEntity
8
Defpoints
62
0
6
ByLayer
370
-1
48
1
60
0
100
AcDbPoint
10
55
20
-37.50012
30
0
39
0
210
0
220
0
230
1
50
360
0
ENDBLK
5
1CB
100
AcDbEntity
8
0
100
AcDbBlockEnd
0
BLOCK
5
1E0
100
AcDbEntity
8
0
100
AcDbBlockBegin
2
_U6
70
0
10
0
20
0
30
0
3
_U6
0
MTEXT
5
1D6
100
AcDbEntity
8
SK2
62
256
6
ByLayer
370
18
48
1
60
0
100
AcDbMText
10
4.707837
20
-36.467451
30
0
210
0
220
0
230
1
1
\W0.6864;91.00
40
3.50012
41
0
44
1.084337
50
0
71
7
72
5
7
iso_b_vert
0
LINE
5
1D7
100
AcDbEntity
8
SK2
62
256
6
ByLayer
370
13
48
1
60
0
100
AcDbLine
10
-36
20
-1.5875
30
0
11
-36
21
-40.67512
31
0
39
0
210
0
220
0
230
1
0
LINE
5
1D8
100
AcDbEntity
8
SK2
62
256
6
ByLayer
370
13
48
1
60
0
100
AcDbLine
10
55
20
-1.5875
30
0
11
55
21
-40.67512
31
0
39
0
210
0
220
0
230
1
0
LINE
5
1D9
100
AcDbEntity
8
SK2
62
256
6
ByLayer
370
13
48
1
60
0
100
AcDbLine
10
-36
20
-37.50012
30
0
11
55
21
-37.50012
31
0
39
0
210
0
220
0
230
1
0
LINE
5
1DA
100
AcDbEntity
8
SK2
62
256
6
ByLayer
370
13
48
1
60
0
100
AcDbLine
10
-36
20
-37.50012
30
0
11
-32.825002
21
-37.082123
31
0
39
0
210
0
220
0
230
1
0
LINE
5
1DB
100
AcDbEntity
8
SK2
62
256
6
ByLayer
370
13
48
1
60
0
100
AcDbLine
10
-36
20
-37.50012
30
0
11
-32.824998
21
-37.918117
31
0
39
0
210
0
220
0
230
1
0
LINE
5
1DC
100
AcDbEntity
8
SK2
62
256
6
ByLayer
370
13
48
1
60
0
100
AcDbLine
10
-32.825002
20
-37.082123
30
0
11
-32.824998
21
-37.918117
31
0
39
0
210
0
220
0
230
1
0
LINE
5
1DD
100
AcDbEntity
8
SK2
62
256
6
ByLayer
370
13
48
1
60
0
100
AcDbLine
10
55
20
-37.50012
30
0
11
51.825002
21
-37.918117
31
0
39
0
210
0
220
0
230
1
0
LINE
5
1DE
100
AcDbEntity
8
SK2
62
256
6
ByLayer
370
13
48
1
60
0
100
AcDbLine
10
55
20
-37.50012
30
0
11
51.824998
21
-37.082123
31
0
39
0
210
0
220
0
230
1
0
LINE
5
1DF
100
AcDbEntity
8
SK2
62
256
6
ByLayer
370
13
48
1
60
0
100
AcDbLine
10
51.825002
20
-37.918117
30
0
11
51.824998
21
-37.082123
31
0
39
0
210
0
220
0
230
1
0
ENDBLK
5
1E1
100
AcDbEntity
8
0
100
AcDbBlockEnd
0
ENDSEC
0
SECTION
2
ENTITIES
0
ARC
5
AE
100
AcDbEntity
8
1
62
256
6
ByLayer
370
18
48
1
60
0
100
AcDbCircle
39
0
10
1.311005
20
4.117206
30
0
40
0.799999999999998
210
0
220
0
230
1
100
AcDbArc
50
214.977412
51
270.03581
0
ARC
5
AF
100
AcDbEntity
8
1
62
256
6
ByLayer
370
18
48
1
60
0
100
AcDbCircle
39
0
10
1.311005
20
-4.117206
30
0
40
0.799999999999998
210
0
220
0
230
1
100
AcDbArc
50
89.96419
51
145.022588
0
ARC
5
B0
100
AcDbEntity
8
1
62
256
6
ByLayer
370
18
48
1
60
0
100
AcDbCircle
39
0
10
0
20
3.2
30
0
40
0.8
210
0
220
0
230
1
100
AcDbArc
50
34.977412
51
90
0
ARC
5
B1
100
AcDbEntity
8
1
62
256
6
ByLayer
370
18
48
1
60
0
100
AcDbCircle
39
0
10
0
20
-3.2
30
0
40
0.8
210
0
220
0
230
1
100
AcDbArc
50
270
51
325.022588
0
ARC
5
B2
100
AcDbEntity
8
SK2
62
256
6
ByLayer
370
13
48
1
60
0
100
AcDbCircle
39
0
10
55
20
0
30
0
40
20
210
0
220
0
230
1
100
AcDbArc
50
9.606349
51
70.000004
0
ARC
5
B3
100
AcDbEntity
8
SK2
62
256
6
ByLayer
370
13
48
1
60
0
100
AcDbCircle
39
0
10
55
20
0
30
0
40
20
210
0
220
0
230
1
100
AcDbArc
50
289.999996
51
350.393651
0
ELLIPSE
5
B4
100
AcDbEntity
8
1
62
256
6
ByLayer
370
18
48
1
60
0
100
AcDbEllipse
10
3.564248
20
-1.414025
30
0
11
0.00199961514271484
21
0.00979803752192374
31
0
210
0
220
0
230
1
40
0.514975
41
1.25091939288182
42
2.64529382678444
0
ELLIPSE
5
B5
100
AcDbEntity
8
1
62
256
6
ByLayer
370
18
48
1
60
0
100
AcDbEllipse
10
3.602411
20
2.475377
30
0
11
-1.27664969357245E-05
21
0.00999999185082448
31
0
210
0
220
0
230
1
40
0.011157
41
-2.46995988457939
42
-0.899491048791713
0
ELLIPSE
5
B6
100
AcDbEntity
8
1
62
256
6
ByLayer
370
18
48
1
60
0
100
AcDbEllipse
10
3.601855
20
-1.4257
30
0
11
-0.00377825231263857
21
-0.00925876932761808
31
0
210
0
220
0
230
1
40
0.185882
41
-2.00247219917774
42
-0.433664102480026
0
ELLIPSE
5
B7
100
AcDbEntity
8
1
62
256
6
ByLayer
370
18
48
1
60
0
100
AcDbEllipse
10
3.639608
20
2.470386
30
0
11
-0.00273174374506526
21
-0.00961964532149169
31
0
210
0
220
0
230
1
40
0.333375
41
0.72375377031384
42
2.28865315840463
0
POINT
5
70
100
AcDbEntity
8
80
62
256
6
ByLayer
370
18
48
1
60
0
100
AcDbPoint
10
0
20
0
30
0
39
0
210
0
220
0
230
1
50
360
0
POINT
5
72
100
AcDbEntity
8
81
62
256
6
ByLayer
370
18
48
1
60
0
100
AcDbPoint
10
55
20
0
30
0
39
0
210
0
220
0
230
1
50
360
0
POINT
5
74
100
AcDbEntity
8
1
62
256
6
ByLayer
370
18
48
1
60
0
100
AcDbPoint
10
-36
20
0
30
0
39
0
210
0
220
0
230
1
50
360
0
POINT
5
76
100
AcDbEntity
8
1
62
256
6
ByLayer
370
18
48
1
60
1
100
AcDbPoint
10
0
20
-4
30
0
39
0
210
0
220
0
230
1
50
360
0
POINT
5
77
100
AcDbEntity
8
1
62
256
6
ByLayer
370
18
48
1
60
1
100
AcDbPoint
10
55
20
0
30
0
39
0
210
0
220
0
230
1
50
360
0
POINT
5
78
100
AcDbEntity
8
1
62
256
6
ByLayer
370
18
48
1
60
1
100
AcDbPoint
10
53.7807
20
-3.35
30
0
39
0
210
0
220
0
230
1
50
360
0
POINT
5
79
100
AcDbEntity
8
1
62
256
6
ByLayer
370
18
48
1
60
1
100
AcDbPoint
10
53.7807
20
3.35
30
0
39
0
210
0
220
0
230
1
50
360
0
POINT
5
7A
100
AcDbEntity
8
1
62
256
6
ByLayer
370
18
48
1
60
1
100
AcDbPoint
10
-36
20
4
30
0
39
0
210
0
220
0
230
1
50
360
0
POINT
5
7B
100
AcDbEntity
8
1
62
256
6
ByLayer
370
18
48
1
60
1
100
AcDbPoint
10
-36
20
-4
30
0
39
0
210
0
220
0
230
1
50
360
0
POINT
5
7C
100
AcDbEntity
8
1
62
256
6
ByLayer
370
18
48
1
60
1
100
AcDbPoint
10
-36
20
-4
30
0
39
0
210
0
220
0
230
1
50
360
0
POINT
5
7D
100
AcDbEntity
8
1
62
256
6
ByLayer
370
18
48
1
60
1
100
AcDbPoint
10
0
20
-4
30
0
39
0
210
0
220
0
230
1
50
360
0
POINT
5
7E
100
AcDbEntity
8
1
62
256
6
ByLayer
370
18
48
1
60
1
100
AcDbPoint
10
2
20
3.85
30
0
39
0
210
0
220
0
230
1
50
360
0
POINT
5
7F
100
AcDbEntity
8
1
62
256
6
ByLayer
370
18
48
1
60
1
100
AcDbPoint
10
55
20
0
30
0
39
0
210
0
220
0
230
1
50
360
0
POINT
5
80
100
AcDbEntity
8
1
62
256
6
ByLayer
370
18
48
1
60
1
100
AcDbPoint
10
20.3
20
-3.35
30
0
39
0
210
0
220
0
230
1
50
360
0
POINT
5
81
100
AcDbEntity
8
1
62
256
6
ByLayer
370
18
48
1
60
1
100
AcDbPoint
10
55
20
0
30
0
39
0
210
0
220
0
230
1
50
360
0
POINT
5
82
100
AcDbEntity
8
1
62
256
6
ByLayer
370
18
48
1
60
1
100
AcDbPoint
10
-36
20
0
30
0
39
0
210
0
220
0
230
1
50
360
0
POINT
5
83
100
AcDbEntity
8
1
62
256
6
ByLayer
370
18
48
1
60
1
100
AcDbPoint
10
55
20
0
30
0
39
0
210
0
220
0
230
1
50
360
0
SPLINE
5
B8
100
AcDbEntity
8
1
62
256
6
ByLayer
370
18
48
1
60
0
100
AcDbSpline
70
4
71
3
72
34
73
30
40
0
40
0
40
0
40
0
40
0.338903764169506
40
0.338903764169506
40
0.566565857842099
40
0.566565857842099
40
0.716287533892598
40
0.716287533892598
40
0.814557395340737
40
0.814557395340737
40
0.879045998229757
40
0.879045998229757
40
0.921423497774456
40
0.921423497774456
40
0.949313132251292
40
0.949313132251292
40
0.967861175999243
40
0.967861175999243
40
0.980181291677121
40
0.980181291677121
40
0.987909606781411
40
0.987909606781411
40
0.99291404885721
40
0.99291404885721
40
0.99636215613345
40
0.99636215613345
40
0.999546255780372
40
0.999546255780372
40
1
40
1
40
1
40
1
41
1
10
53.6303545419652
20
3.3494758556408
30
0
41
1
10
53.653003151187
20
3.33461006928289
30
0
41
1
10
53.6756626062457
20
3.31966908446304
30
0
41
1
10
53.7135502259269
20
3.29457572973993
30
0
41
1
10
53.7287764310062
20
3.28446118998733
30
0
41
1
10
53.7540154479198
20
3.26764582552198
30
0
41
1
10
53.7640280064531
20
3.26096204466958
30
0
41
1
10
53.7806407676238
20
3.24985027593863
30
0
41
1
10
53.7872312966214
20
3.24543635714079
30
0
41
1
10
53.7981665893773
20
3.23810336405049
30
0
41
1
10
53.8025045996834
20
3.23519198838463
30
0
41
1
10
53.8097035807229
20
3.23035670036006
30
0
41
1
10
53.8125613783497
20
3.22843622541211
30
0
41
1
10
53.8173036234343
20
3.22524779318266
30
0
41
1
10
53.8191859726249
20
3.22398181526532
30
0
41
1
10
53.8222899346151
20
3.22189374769647
30
0
41
1
10
53.8235127233432
20
3.22107107792144
30
0
41
1
10
53.8255557412145
20
3.21969613953993
30
0
41
1
10
53.826383029423
20
3.21913922321676
30
0
41
1
10
53.8277584449973
20
3.21821306862432
30
0
41
1
10
53.8282966693397
20
3.21785058842184
30
0
41
1
10
53.8291811738125
20
3.21725487564891
30
0
41
1
10
53.8295285286168
20
3.21702092663173
30
0
41
1
10
53.8301079188073
20
3.21663070617194
30
0
41
1
10
53.8303425830984
20
3.21647266158968
30
0
41
1
10
53.830781349357
20
3.21617717268344
30
0
41
1
10
53.8309891011851
20
3.21603726840917
30
0
41
1
10
53.8312035900737
20
3.21589285075277
30
0
41
1
10
53.8312300104634
20
3.21587506291161
30
0
41
1
10
53.8312558224621
20
3.21585768458616
30
0
0
SPLINE
5
B9
100
AcDbEntity
8
1
62
256
6
ByLayer
370
18
48
1
60
0
100
AcDbSpline
70
4
71
3
72
8
73
4
40
0
40
0
40
0
40
0
40
1
40
1
40
1
40
1
41
1
10
3.60187300129428
20
-1.42118827210871
30
1E-16
41
1
10
3.58745306833376
20
-1.41590790212621
30
1E-16
41
1
10
3.57336840766027
20
-1.41212103473083
30
1E-16
41
1
10
3.56008651187671
20
-1.40996675421033
30
1E-16
0
SPLINE
5
BA
100
AcDbEntity
8
1
62
256
6
ByLayer
370
18
48
1
60
0
100
AcDbSpline
70
4
71
3
72
22
73
18
40
0
40
0
40
0
40
0
40
0.249999999999993
40
0.249999999999993
40
0.37499999999999
40
0.37499999999999
40
0.437499999999988
40
0.437499999999988
40
0.499999999999987
40
0.499999999999987
40
0.62499999999999
40
0.62499999999999
40
0.749999999999993
40
0.749999999999993
40
0.874999999999997
40
0.874999999999997
40
1
40
1
40
1
40
1
41
1
10
53.8362369270845
20
3.21250149907433
30
0
41
1
10
53.9015642756127
20
3.02901202804242
30
0
41
1
10
53.9662014528727
20
2.84435604230021
30
0
41
1
10
54.0633322001913
20
2.56664598931096
30
0
41
1
10
54.0957226728409
20
2.4739716765142
30
0
41
1
10
54.1444322137555
20
2.33492455473726
30
0
41
1
10
54.1606868941262
20
2.28857637917099
30
0
41
1
10
54.193253792543
20
2.19588980510156
30
0
41
1
10
54.2094903805287
20
2.14953080557473
30
0
41
1
10
54.2592314495546
20
2.01072715902473
30
0
41
1
10
54.2937875117335
20
1.91819316655122
30
0
41
1
10
54.3650574015455
20
1.73746126346037
30
0
41
1
10
54.4018962521445
20
1.64893780377395
30
0
41
1
10
54.4788836038455
20
1.47600430698466
30
0
41
1
10
54.5190444969742
20
1.39161121404555
30
0
41
1
10
54.6033515179974
20
1.2271146392078
30
0
41
1
10
54.6473175167918
20
1.14743534110835
30
0
41
1
10
54.6923371530826
20
1.07187132974718
30
0
0
SPLINE
5
BB
100
AcDbEntity
8
1
62
256
6
ByLayer
370
18
48
1
60
0
100
AcDbSpline
70
4
71
3
72
22
73
18
40
0
40
0
40
0
40
0
40
0.310583716277435
40
0.310583716277435
40
0.465875574416153
40
0.465875574416153
40
0.62116743255487
40
0.62116743255487
40
0.698813361624227
40
0.698813361624227
40
0.776459290693584
40
0.776459290693584
40
0.854105219762941
40
0.854105219762941
40
0.931751148832298
40
0.931751148832298
40
1
40
1
40
1
40
1
41
1
10
5.36856408984636
20
2.37460780909362
30
-1E-16
41
1
10
4.97329748435317
20
2.5068935204273
30
-2E-16
41
1
10
4.58565308899517
20
2.63554026988226
30
-2E-16
41
1
10
4.02006251501061
20
2.81801485098379
30
0
41
1
10
3.83420560984501
20
2.87706647408723
30
0
41
1
10
3.46941217886683
20
2.99006239998943
30
0
41
1
10
3.28997331944322
20
3.04415834643095
30
0
41
1
10
3.03259911751917
20
3.11818910202487
30
0
41
1
10
2.94864283089552
20
3.14171656609884
30
0
41
1
10
2.78523060911522
20
3.18589432524118
30
0
41
1
10
2.7056243488864
20
3.20657739051512
30
0
41
1
10
2.55436537354231
20
3.24369100984035
30
0
41
1
10
2.48244544785945
20
3.26020113212721
30
0
41
1
10
2.34807072305654
20
3.2879672651936
30
0
41
1
10
2.2855780939104
20
3.29924346950966
30
0
41
1
10
2.18030392397867
20
3.31368711648707
30
0
41
1
10
2.13724530176529
20
3.31749673410079
30
0
41
1
10
2.10182565337649
20
3.31769090296666
30
0
0
SPLINE
5
BC
100
AcDbEntity
8
1
62
256
6
ByLayer
370
18
48
1
60
0
100
AcDbSpline
70
4
71
3
72
10
73
6
40
0
40
0
40
0
40
0
40
0.157805691159661
40
0.157805691159661
40
1
40
1
40
1
40
1
41
1
10
5.01059098357212
20
2.493947955029
30
-2E-16
41
1
10
5.08731829875677
20
2.5129846593322
30
-2E-16
41
1
10
5.16379095570574
20
2.5321426437043
30
-2E-16
41
1
10
5.64684618710783
20
2.65396369027772
30
-2E-16
41
1
10
6.04705093009431
20
2.75851916616392
30
1E-16
41
1
10
6.44191957445088
20
2.85548782785295
30
0
0
SPLINE
5
BD
100
AcDbEntity
8
1
62
256
6
ByLayer
370
18
48
1
60
0
100
AcDbSpline
70
4
71
3
72
16
73
12
40
0
40
0
40
0
40
0
40
0.411184850084717
40
0.411184850084717
40
0.616777275127076
40
0.616777275127076
40
0.719573487648254
40
0.719573487648254
40
0.822369700169432
40
0.822369700169432
40
1
40
1
40
1
40
1
41
1
10
3.60187300129431
20
-1.42118827210874
30
1E-16
41
1
10
4.65892106506951
20
-1.85116480823663
30
1E-16
41
1
10
5.69884668932906
20
-2.22357198694238
30
1E-16
41
1
10
7.26120017084423
20
-2.65462736022224
30
-1E-16
41
1
10
7.78234047762817
20
-2.77720718471511
30
-1E-16
41
1
10
8.56784375399019
20
-2.9247147716172
30
0
41
1
10
8.83032083770823
20
-2.96783616353233
30
0
41
1
10
9.35713185645585
20
-3.0413107360971
30
0
41
1
10
9.62200293333387
20
-3.07168093293555
30
0
41
1
10
10.3407093025796
20
-3.13570203635905
30
0
41
1
10
10.7933094901439
20
-3.15583273034844
30
0
41
1
10
11.2447158456677
20
-3.15588897931286
30
0
0
SPLINE
5
BE
100
AcDbEntity
8
1
62
256
6
ByLayer
370
18
48
1
60
0
100
AcDbSpline
70
4
71
3
72
22
73
18
40
0
40
0
40
0
40
0
40
0.102870917343948
40
0.102870917343948
40
0.401913944895967
40
0.401913944895967
40
0.476674701783972
40
0.476674701783972
40
0.551435458671977
40
0.551435458671977
40
0.700956972447985
40
0.700956972447985
40
0.850478486223993
40
0.850478486223993
40
0.925239243111996
40
0.925239243111996
40
1
40
1
40
1
40
1
41
1
10
43.3458531699997
20
0.236945186855166
30
0
41
1
10
43.7029130109644
20
0.0736839729640053
30
0
41
1
10
44.0592301551381
20
-0.0901516942315936
30
0
41
1
10
45.4510785440767
20
-0.726572104414259
30
0
41
1
10
46.4859416435051
20
-1.19236100931502
30
1E-16
41
1
10
47.8014366341309
20
-1.71366863358429
30
1E-16
41
1
10
48.0659362475789
20
-1.81498694041636
30
1E-16
41
1
10
48.5916371364994
20
-2.00808963458451
30
1E-16
41
1
10
48.8535578039652
20
-2.10017165707538
30
1E-16
41
1
10
49.6372678675529
20
-2.36173731622293
30
1E-16
41
1
10
50.1570444877896
20
-2.51659432928565
30
-1E-16
41
1
10
51.1958823660334
20
-2.78128966018534
30
-1E-16
41
1
10
51.7148782248652
20
-2.8911633124134
30
0
41
1
10
52.4961984852197
20
-3.01866554161754
30
0
41
1
10
52.7571106072605
20
-3.05493767129471
30
0
41
1
10
53.2803736073072
20
-3.11431265186971
30
0
41
1
10
53.5427584333709
20
-3.13704769640188
30
0
41
1
10
53.8060610284733
20
-3.15377266188781
30
0
0
SPLINE
5
BF
100
AcDbEntity
8
1
62
256
6
ByLayer
370
18
48
1
60
0
100
AcDbSpline
70
4
71
3
72
8
73
4
40
0
40
0
40
0
40
0
40
1
40
1
40
1
40
1
41
1
10
3.64382062542646
20
2.47602780815706
30
1E-16
41
1
10
3.63081588983704
20
2.47972725187017
30
1E-16
41
1
10
3.61682923808306
20
2.48160651830432
30
1E-16
41
1
10
3.60249089084058
20
2.48159712616422
30
1E-16
0
SPLINE
5
C0
100
AcDbEntity
8
1
62
256
6
ByLayer
370
18
48
1
60
0
100
AcDbSpline
70
4
71
3
72
8
73
4
40
0
40
0
40
0
40
0
40
1
40
1
40
1
40
1
41
1
10
3.6455144032123
20
2.59803226347824
30
-2E-16
41
1
10
3.64495729814831
20
2.55737003050069
30
-2E-16
41
1
10
3.6443926942236
20
2.51670198652292
30
1E-16
41
1
10
3.64382062542646
20
2.47602780815706
30
1E-16
0
SPLINE
5
C1
100
AcDbEntity
8
1
62
256
6
ByLayer
370
18
48
1
60
0
100
AcDbSpline
70
4
71
3
72
62
73
58
40
0
40
0
40
0
40
0
40
0.0525380199470822
40
0.0525380199470822
40
0.0802772609795794
40
0.0802772609795794
40
0.108016502012076
40
0.108016502012076
40
0.163494984077071
40
0.163494984077071
40
0.191234225109568
40
0.191234225109568
40
0.218973466142065
40
0.218973466142065
40
0.246712707174562
40
0.246712707174562
40
0.274451948207059
40
0.274451948207059
40
0.329930430272054
40
0.329930430272054
40
0.38540891233705
40
0.38540891233705
40
0.413148153369547
40
0.413148153369547
40
0.440887394402044
40
0.440887394402044
40
0.468626635434541
40
0.468626635434541
40
0.496365876467038
40
0.496365876467038
40
0.551844358532031
40
0.551844358532031
40
0.579583599564528
40
0.579583599564528
40
0.607322840597024
40
0.607322840597024
40
0.662801322662017
40
0.662801322662017
40
0.690540563694514
40
0.690540563694514
40
0.71827980472701
40
0.71827980472701
40
0.773758286792003
40
0.773758286792003
40
0.8014975278245
40
0.8014975278245
40
0.829236768856997
40
0.829236768856997
40
0.856976009889494
40
0.856976009889494
40
0.884715250921991
40
0.884715250921991
40
0.940193732986985
40
0.940193732986985
40
0.995672215051978
40
0.995672215051978
40
1
40
1
40
1
40
1
41
1
10
48.7606767700576
20
-2.41767876884634
30
1E-16
41
1
10
48.2838189144937
20
-2.57685931951838
30
1E-16
41
1
10
47.8108083870057
20
-2.71847827793536
30
-1E-16
41
1
10
47.0890063665528
20
-2.90245674345846
30
0
41
1
10
46.8399534277855
20
-2.96039690807166
30
0
41
1
10
46.3422018723637
20
-3.06468008103255
30
0
41
1
10
46.0937723970739
20
-3.11123018714284
30
0
41
1
10
45.3475105420657
20
-3.2320520483587
30
0
41
1
10
44.8484742759156
20
-3.28769513382457
30
0
41
1
10
44.0969098856073
20
-3.33280434514273
30
0
41
1
10
43.8455400788018
20
-3.34135671581964
30
0
41
1
10
43.3418761866681
20
-3.34501718060278
30
0
41
1
10
43.0908000497375
20
-3.34019738568554
30
0
41
1
10
42.5901291585702
20
-3.31761412010602
30
0
41
1
10
42.3404771155078
20
-3.29985977899605
30
0
41
1
10
41.8425081474682
20
-3.25141981203166
30
0
41
1
10
41.5939183918633
20
-3.22081835534382
30
0
41
1
10
40.8479157074777
20
-3.11097623966344
30
0
41
1
10
40.3508587957756
20
-3.0134907583047
30
0
41
1
10
39.3548969185853
20
-2.77125678834813
30
-1E-16
41
1
10
38.8546206900598
20
-2.62798146598863
30
2E-16
41
1
10
38.098877572164
20
-2.3815478088101
30
1E-16
41
1
10
37.8473243779046
20
-2.29401291545176
30
1E-16
41
1
10
37.3463078600355
20
-2.11150941925905
30
1E-16
41
1
10
37.0963492729303
20
-2.01652603653721
30
1E-16
41
1
10
36.5972971743838
20
-1.81965229870963
30
1E-16
41
1
10
36.3482054746937
20
-1.717760991407
30
1E-16
41
1
10
35.8508433384861
20
-1.50715201558356
30
1E-16
41
1
10
35.6026073424518
20
-1.3983470779751
30
1E-16
41
1
10
34.8569595707701
20
-1.06580584146414
30
1E-16
41
1
10
34.3588027572558
20
-0.835729783482748
30
1E-16
41
1
10
33.6095012459723
20
-0.478681487622851
30
0
41
1
10
33.3591418270335
20
-0.358173766848182
30
0
41
1
10
32.8562273515665
20
-0.11636741932864
30
0
41
1
10
32.6035210924578
20
0.0052254858198921
30
0
41
1
10
31.8500377193072
20
0.367764462116014
30
0
41
1
10
31.3517511932239
20
0.608441055116288
30
0
41
1
10
30.6047388418703
20
0.956169124692423
30
-1E-16
41
1
10
30.3559765909852
20
1.07024793210644
30
-1E-16
41
1
10
29.8585823039748
20
1.29403661703421
30
-1E-16
41
1
10
29.6102060916439
20
1.40424145065361
30
-1E-16
41
1
10
28.863941433598
20
1.72560388472604
30
-1E-16
41
1
10
28.3645370638127
20
1.92690957369538
30
-1E-16
41
1
10
27.6115916918893
20
2.2073698703249
30
-1E-16
41
1
10
27.3594115866045
20
2.29763083504628
30
-1E-16
41
1
10
26.8563355133155
20
2.46716247870327
30
-2E-16
41
1
10
26.6054778199843
20
2.54655608102149
30
-2E-16
41
1
10
26.1050901264067
20
2.69489525661246
30
1E-16
41
1
10
25.855495770543
20
2.76375470098643
30
1E-16
41
1
10
25.3575718377639
20
2.89090267439545
30
0
41
1
10
25.1089865770154
20
2.94886028320002
30
0
41
1
10
24.3627843918552
20
3.10454167916919
30
0
41
1
10
23.8652495249486
20
3.18478111345749
30
0
41
1
10
22.8680866078942
20
3.29585412903975
30
0
41
1
10
22.3665624937652
20
3.32591715792506
30
0
41
1
10
21.8227831032786
20
3.3298846492699
30
0
41
1
10
21.7834640512676
20
3.33000993021568
30
0
41
1
10
21.7441731669199
20
3.32997383301068
30
0
0
SPLINE
5
C2
100
AcDbEntity
8
1
62
256
6
ByLayer
370
18
48
1
60
0
100
AcDbSpline
70
4
71
3
72
8
73
4
40
0
40
0
40
0
40
0
40
1
40
1
40
1
40
1
41
1
10
53.6168119324963
20
-3.30792612720956
30
0
41
1
10
53.6219350485111
20
-3.33289609357604
30
0
41
1
10
53.6264044356264
20
-3.34693506900317
30
0
41
1
10
53.6303545419652
20
-3.34947585564078
30
0
0
SPLINE
5
C3
100
AcDbEntity
8
1
62
256
6
ByLayer
370
18
48
1
60
0
100
AcDbSpline
70
4
71
3
72
8
73
4
40
0
40
0
40
0
40
0
40
1
40
1
40
1
40
1
41
1
10
54.9969107438972
20
0.184951339052134
30
0
41
1
10
55.0010312728188
20
0.0616049212657686
30
0
41
1
10
55.0010282323052
20
-0.0616959378390902
30
0
41
1
10
54.9969107438976
20
-0.184951339040566
30
0
0
SPLINE
5
C4
100
AcDbEntity
8
1
62
256
6
ByLayer
370
18
48
1
60
0
100
AcDbSpline
70
4
71
3
72
24
73
20
40
0
40
0
40
0
40
0
40
0.0712150476434136
40
0.0712150476434136
40
0.209365467616052
40
0.209365467616052
40
0.34751588758869
40
0.34751588758869
40
0.41659109757501
40
0.41659109757501
40
0.485666307561328
40
0.485666307561328
40
0.554741517547648
40
0.554741517547648
40
0.623816727533967
40
0.623816727533967
40
0.90011756747925
40
0.90011756747925
40
1
40
1
40
1
40
1
41
1
10
21.647332938212
20
0.212482384725945
30
0
41
1
10
21.9180183302109
20
0.0890815330091073
30
0
41
1
10
22.1879084484991
20
-0.0344795738744779
30
0
41
1
10
22.9801325252457
20
-0.395702606539089
30
0
41
1
10
23.500837992577
20
-0.63231341627565
30
0
41
1
10
24.5435167564347
20
-1.09082713213411
30
1E-16
41
1
10
25.0651830106322
20
-1.31313714470088
30
1E-16
41
1
10
25.8518377786323
20
-1.62857623667071
30
1E-16
41
1
10
26.1147184734195
20
-1.73073700486518
30
1E-16
41
1
10
26.6424158556737
20
-1.92782592203133
30
1E-16
41
1
10
26.9067728193032
20
-2.02257650960996
30
1E-16
41
1
10
27.4343747247061
20
-2.20252808186916
30
1E-16
41
1
10
27.6979641978954
20
-2.28781886367037
30
1E-16
41
1
10
28.2254182930597
20
-2.44817779200392
30
1E-16
41
1
10
28.4895706471673
20
-2.52338138769349
30
-1E-16
41
1
10
29.8096329147854
20
-2.87087445257637
30
0
41
1
10
30.8495596344748
20
-3.05329204369966
30
0
41
1
10
32.2686967469794
20
-3.15689277650091
30
0
41
1
10
32.6457437638194
20
-3.17030438072936
30
0
41
1
10
33.0239518169097
20
-3.16965409626712
30
0
0
SPLINE
5
C5
100
AcDbEntity
8
1
62
256
6
ByLayer
370
18
48
1
60
0
100
AcDbSpline
70
4
71
3
72
34
73
30
40
0
40
0
40
0
40
0
40
0.33890376782188
40
0.33890376782188
40
0.566565863947855
40
0.566565863947855
40
0.716287541612013
40
0.716287541612013
40
0.814557404119369
40
0.814557404119369
40
0.879046007703504
40
0.879046007703504
40
0.921423507704921
40
0.921423507704921
40
0.949313142482307
40
0.949313142482307
40
0.967861186430165
40
0.967861186430165
40
0.980181302240896
40
0.980181302240896
40
0.987909617428552
40
0.987909617428552
40
0.99291405955837
40
0.99291405955837
40
0.99636216687182
40
0.99636216687182
40
0.999546266552994
40
0.999546266552994
40
1
40
1
40
1
40
1
41
1
10
53.6303545419652
20
-3.3494758556408
30
0
41
1
10
53.6530031511871
20
-3.33461006928289
30
0
41
1
10
53.6756626062457
20
-3.31966908446304
30
0
41
1
10
53.7135502259269
20
-3.29457572973996
30
0
41
1
10
53.7287764310061
20
-3.28446118998738
30
0
41
1
10
53.7540154479197
20
-3.26764582552204
30
0
41
1
10
53.764028006453
20
-3.26096204466964
30
0
41
1
10
53.7806407676237
20
-3.24985027593865
30
0
41
1
10
53.7872312966213
20
-3.24543635714085
30
0
41
1
10
53.7981665893773
20
-3.23810336405052
30
0
41
1
10
53.8025045996834
20
-3.23519198838469
30
0
41
1
10
53.8097035807228
20
-3.23035670036009
30
0
41
1
10
53.8125613783496
20
-3.22843622541214
30
0
41
1
10
53.8173036234342
20
-3.22524779318269
30
0
41
1
10
53.8191859726248
20
-3.22398181526532
30
0
41
1
10
53.822289934615
20
-3.22189374769647
30
0
41
1
10
53.8235127233432
20
-3.22107107792147
30
0
41
1
10
53.8255557412145
20
-3.21969613953993
30
0
41
1
10
53.8263830294229
20
-3.21913922321679
30
0
41
1
10
53.8277584449972
20
-3.21821306862435
30
0
41
1
10
53.8282966693397
20
-3.21785058842187
30
0
41
1
10
53.8291811738125
20
-3.21725487564893
30
0
41
1
10
53.8295285286168
20
-3.21702092663176
30
0
41
1
10
53.8301079188073
20
-3.21663070617194
30
0
41
1
10
53.8303425830984
20
-3.21647266158968
30
0
41
1
10
53.830781349357
20
-3.21617717268344
30
0
41
1
10
53.8309891011851
20
-3.21603726840917
30
0
41
1
10
53.8312035894365
20
-3.21589285118174
30
0
41
1
10
53.8312300092097
20
-3.21587506375559
30
0
41
1
10
53.8312558206249
20
-3.21585768582298
30
0
0
SPLINE
5
C6
100
AcDbEntity
8
1
62
256
6
ByLayer
370
18
48
1
60
0
100
AcDbSpline
70
4
71
3
72
24
73
20
40
0
40
0
40
0
40
0
40
0.118509340190742
40
0.118509340190742
40
0.401855602818344
40
0.401855602818344
40
0.472692168475247
40
0.472692168475247
40
0.54352873413215
40
0.54352873413215
40
0.614365299789053
40
0.614365299789053
40
0.685201865445955
40
0.685201865445955
40
0.826874996759763
40
0.826874996759763
40
0.968548128073569
40
0.968548128073569
40
1
40
1
40
1
40
1
41
1
10
33.2026139758084
20
-3.1779268545873
30
0
41
1
10
32.764625326208
20
-3.1845144918361
30
0
41
1
10
32.3283995326952
20
-3.1722260677721
30
0
41
1
10
30.8503140151817
20
-3.06637088424208
30
0
41
1
10
29.8105770355176
20
-2.88503317531306
30
0
41
1
10
28.4906839240111
20
-2.53829833978372
30
-1E-16
41
1
10
28.2265345046699
20
-2.46320418650814
30
2E-16
41
1
10
27.6991230721218
20
-2.30300659698011
30
1E-16
41
1
10
27.4355571276287
20
-2.21776870521515
30
1E-16
41
1
10
26.9080023498811
20
-2.03785976740653
30
1E-16
41
1
10
26.6436771794715
20
-1.94309774096965
30
1E-16
41
1
10
26.115998250715
20
-1.74590232983846
30
1E-16
41
1
10
25.8531326033544
20
-1.64366147059991
30
1E-16
41
1
10
25.0665384591997
20
-1.32789322144635
30
1E-16
41
1
10
24.544938436691
20
-1.10523936551877
30
1E-16
41
1
10
23.5024029786704
20
-0.645833706992988
30
0
41
1
10
22.9817854539575
20
-0.408652920349283
30
0
41
1
10
22.3430817524864
20
-0.116570540860806
30
0
41
1
10
22.2269720072615
20
-0.0633741245053443
30
0
41
1
10
22.1107552152169
20
-0.0101121705265257
30
0
0
SPLINE
5
C7
100
AcDbEntity
8
1
62
256
6
ByLayer
370
18
48
1
60
0
100
AcDbSpline
70
4
71
3
72
8
73
4
40
0
40
0
40
0
40
0
40
1
40
1
40
1
40
1
41
1
10
53.6168119324981
20
-3.30792612720728
30
0
41
1
10
53.6741546342033
20
-3.27471849889832
30
0
41
1
10
53.7316168240667
20
-3.24094200712963
30
0
41
1
10
53.7892172277954
20
-3.20661063288904
30
0
0
SPLINE
5
C8
100
AcDbEntity
8
1
62
256
6
ByLayer
370
18
48
1
60
0
100
AcDbSpline
70
4
71
3
72
8
73
4
40
0
40
0
40
0
40
0
40
1
40
1
40
1
40
1
41
1
10
53.831255818748
20
-3.21585768572507
30
0
41
1
10
53.8329161666669
20
-3.21473905435394
30
0
41
1
10
53.8345765360358
20
-3.2136203254739
30
0
41
1
10
53.8362369270845
20
-3.21250149907436
30
0
0
SPLINE
5
C9
100
AcDbEntity
8
1
62
256
6
ByLayer
370
18
48
1
60
0
100
AcDbSpline
70
4
71
3
72
10
73
6
40
0
40
0
40
0
40
0
40
0.163233129736467
40
0.163233129736467
40
1
40
1
40
1
40
1
41
1
10
5.00112864874464
20
-2.49160120760698
30
2E-16
41
1
10
5.08103145877936
20
-2.51140989051314
30
2E-16
41
1
10
5.1606577621119
20
-2.53135248784241
30
2E-16
41
1
10
5.64684618710797
20
-2.65396369027778
30
2E-16
41
1
10
6.04705093009437
20
-2.75851916616395
30
-1E-16
41
1
10
6.44191957445091
20
-2.85548782785295
30
0
0
SPLINE
5
CA
100
AcDbEntity
8
1
62
256
6
ByLayer
370
18
48
1
60
0
100
AcDbSpline
70
4
71
3
72
8
73
4
40
0
40
0
40
0
40
0
40
1
40
1
40
1
40
1
41
1
10
53.8312558213989
20
3.21585768393911
30
0
41
1
10
53.8329161684341
20
3.21473905316319
30
0
41
1
10
53.8345765369195
20
3.21362032487846
30
0
41
1
10
53.8362369270845
20
3.21250149907433
30
0
0
SPLINE
5
CB
100
AcDbEntity
8
1
62
256
6
ByLayer
370
18
48
1
60
0
100
AcDbSpline
70
4
71
3
72
8
73
4
40
0
40
0
40
0
40
0
40
1
40
1
40
1
40
1
41
1
10
54.6923371530826
20
1.07187132974718
30
0
41
1
10
54.7967744058615
20
0.777273543329471
30
0
41
1
10
54.8983140272438
20
0.481638946229367
30
0
41
1
10
54.9969107438972
20
0.184951339052162
30
0
0
SPLINE
5
CC
100
AcDbEntity
8
1
62
256
6
ByLayer
370
18
48
1
60
0
100
AcDbSpline
70
4
71
3
72
10
73
6
40
0
40
0
40
0
40
0
40
0.5
40
0.5
40
1
40
1
40
1
40
1
41
1
10
3.56008651187625
20
-1.40996675421161
30
1E-16
41
1
10
3.53988239678657
20
-1.40668971211764
30
1E-16
41
1
10
3.52535001246653
20
-1.40152883110736
30
1E-16
41
1
10
3.50631782212338
20
-1.39002106687582
30
1E-16
41
1
10
3.50169668523029
20
-1.38353004282104
30
1E-16
41
1
10
3.50169668523029
20
-1.37706152456266
30
1E-16
0
SPLINE
5
CD
100
AcDbEntity
8
1
62
256
6
ByLayer
370
18
48
1
60
0
100
AcDbSpline
70
4
71
3
72
40
73
36
40
0
40
0
40
0
40
0
40
0.0722061965087642
40
0.0722061965087642
40
0.164985576857887
40
0.164985576857887
40
0.211375267032449
40
0.211375267032449
40
0.257764957207011
40
0.257764957207011
40
0.304154647381573
40
0.304154647381573
40
0.350544337556135
40
0.350544337556135
40
0.443323717905258
40
0.443323717905258
40
0.536103098254381
40
0.536103098254381
40
0.582492788428943
40
0.582492788428943
40
0.628882478603505
40
0.628882478603505
40
0.675272168778067
40
0.675272168778067
40
0.721661858952629
40
0.721661858952629
40
0.768051549127191
40
0.768051549127191
40
0.814441239301753
40
0.814441239301753
40
0.907220619650877
40
0.907220619650877
40
0.953610309825439
40
0.953610309825439
40
1
40
1
40
1
40
1
41
1
10
31.971461927458
20
3.33634936714594
30
0
41
1
10
32.4883787282131
20
3.33728234104893
30
0
41
1
10
33.0070881429561
20
3.31032617063548
30
0
41
1
10
34.2014923777191
20
3.18395103106161
30
0
41
1
10
34.8696543490914
20
3.06721259567536
30
0
41
1
10
35.8745692678527
20
2.83005152140032
30
0
41
1
10
36.2105691613748
20
2.74047907131234
30
1E-16
41
1
10
36.8812130299525
20
2.54299705693887
30
-2E-16
41
1
10
37.2158653809675
20
2.43512190745827
30
-1E-16
41
1
10
37.8851529527272
20
2.20301994052042
30
-1E-16
41
1
10
38.2197922707616
20
2.07879759201151
30
-1E-16
41
1
10
38.8904333906384
20
1.81611074239751
30
-1E-16
41
1
10
39.2263446009531
20
1.67766420463258
30
-1E-16
41
1
10
40.2311013074227
20
1.24737291074229
30
-1E-16
41
1
10
40.8995516582178
20
0.939375017872123
30
-1E-16
41
1
10
42.2423185884986
20
0.302631947857634
30
0
41
1
10
42.9102695019338
20
-0.0230463367968241
30
0
41
1
10
43.915094118771
20
-0.505757018181754
30
0
41
1
10
44.2510676124164
20
-0.665972520464777
30
0
41
1
10
44.9213296087069
20
-0.979885482277354
30
1E-16
41
1
10
45.2558482065499
20
-1.13368561352382
30
1E-16
41
1
10
45.9250139754379
20
-1.43233841858165
30
1E-16
41
1
10
46.2596567216384
20
-1.5772011208891
30
1E-16
41
1
10
46.9303358733247
20
-1.85555413419357
30
1E-16
41
1
10
47.2659935017948
20
-1.98884940980929
30
1E-16
41
1
10
47.9354908971803
20
-2.23989533313664
30
1E-16
41
1
10
48.2698725211552
20
-2.35786833949618
30
1E-16
41
1
10
48.9392281442842
20
-2.57672231251021
30
2E-16
41
1
10
49.2745132312727
20
-2.67770612690401
30
2E-16
41
1
10
50.2810295963757
20
-2.95164936418229
30
0
41
1
10
50.9492915009786
20
-3.09454275712633
30
0
41
1
10
51.9556480204171
20
-3.24190973942149
30
0
41
1
10
52.2910065857483
20
-3.27974914188675
30
0
41
1
10
52.9606554539693
20
-3.33210252566616
30
0
41
1
10
53.295277892414
20
-3.34667178309462
30
0
41
1
10
53.6303545419652
20
-3.34947585564078
30
0
0
SPLINE
5
CE
100
AcDbEntity
8
1
62
256
6
ByLayer
370
18
48
1
60
0
100
AcDbSpline
70
4
71
3
72
10
73
6
40
0
40
0
40
0
40
0
40
0.507743138336774
40
0.507743138336774
40
1
40
1
40
1
40
1
41
1
10
6.44191843507306
20
-2.85548760133346
30
0
41
1
10
7.07519511859959
20
-3.01078134637598
30
0
41
1
10
7.70266864099691
20
-3.1288305653822
30
0
41
1
10
8.93509777238444
20
-3.28353043270991
30
0
41
1
10
9.54064216222105
20
-3.32234197886754
30
0
41
1
10
10.1484378423392
20
-3.32272887053924
30
0
0
SPLINE
5
CF
100
AcDbEntity
8
1
62
256
6
ByLayer
370
18
48
1
60
0
100
AcDbSpline
70
4
71
3
72
8
73
4
40
0
40
0
40
0
40
0
40
1
40
1
40
1
40
1
41
1
10
54.1243360986809
20
0.955343088499944
30
0
41
1
10
54.3149117411226
20
0.985192096736824
30
0
41
1
10
54.5057233900904
20
1.02085699932982
30
0
41
1
10
54.6923371530826
20
1.07187132974715
30
0
0
SPLINE
5
D0
100
AcDbEntity
8
1
62
256
6
ByLayer
370
18
48
1
60
0
100
AcDbSpline
70
4
71
3
72
28
73
24
40
0
40
0
40
0
40
0
40
0.124999999999998
40
0.124999999999998
40
0.249999999999997
40
0.249999999999997
40
0.312499999999996
40
0.312499999999996
40
0.374999999999996
40
0.374999999999996
40
0.499999999999994
40
0.499999999999994
40
0.624999999999993
40
0.624999999999993
40
0.656249999999993
40
0.656249999999993
40
0.687499999999993
40
0.687499999999993
40
0.749999999999994
40
0.749999999999994
40
0.874999999999997
40
0.874999999999997
40
1
40
1
40
1
40
1
41
1
10
6.44191843507306
20
2.85548760133346
30
0
41
1
10
7.07519511859962
20
3.01078134637601
30
0
41
1
10
7.70266864099693
20
3.1288305653822
30
0
41
1
10
8.95418351089364
20
3.28592615765672
30
0
41
1
10
9.57874159396374
20
3.32474702526298
30
0
41
1
10
10.519341095325
20
3.32160338167699
30
0
41
1
10
10.8334682210971
20
3.31028749427912
30
0
41
1
10
11.464483059186
20
3.26706001534251
30
0
41
1
10
11.7815578523389
20
3.23498470987238
30
0
41
1
10
12.7265799562505
20
3.10945854482327
30
0
41
1
10
13.3521054394459
20
2.98663887696498
30
0
41
1
10
14.6025654443509
20
2.67157421166422
30
-2E-16
41
1
10
15.2275311113273
20
2.47934948469836
30
-2E-16
41
1
10
16.0137484100596
20
2.20219802898569
30
-1E-16
41
1
10
16.1712307092573
20
2.1449078711899
30
-1E-16
41
1
10
16.486842676295
20
2.02684064884849
30
-1E-16
41
1
10
16.6451883353014
20
1.96590318407729
30
-1E-16
41
1
10
17.1190039863382
20
1.77902941772044
30
-1E-16
41
1
10
17.4336011037777
20
1.64938603792663
30
-1E-16
41
1
10
18.3744045292395
20
1.24710842820932
30
-1E-16
41
1
10
18.9977367408666
20
0.961288647581199
30
-1E-16
41
1
10
20.2460627314866
20
0.373685902767278
30
0
41
1
10
20.8704487558455
20
0.0706210245316186
30
0
41
1
10
21.5000000000125
20
-0.231278799563285
30
0
0
SPLINE
5
D1
100
AcDbEntity
8
1
62
256
6
ByLayer
370
18
48
1
60
0
100
AcDbSpline
70
4
71
3
72
42
73
38
40
0
40
0
40
0
40
0
40
0.0009641350440046
40
0.0009641350440046
40
0.0612213023087409
40
0.0612213023087409
40
0.121478469573477
40
0.121478469573477
40
0.181735636838213
40
0.181735636838213
40
0.24199280410295
40
0.24199280410295
40
0.302249971367686
40
0.302249971367686
40
0.362507138632422
40
0.362507138632422
40
0.422764305897158
40
0.422764305897158
40
0.483021473161895
40
0.483021473161895
40
0.543278640426631
40
0.543278640426631
40
0.603535807691367
40
0.603535807691367
40
0.663792974956103
40
0.663792974956103
40
0.72405014222084
40
0.72405014222084
40
0.784307309485576
40
0.784307309485576
40
0.844564476750312
40
0.844564476750312
40
0.904821644015049
40
0.904821644015049
40
0.965078811279785
40
0.965078811279785
40
1
40
1
40
1
40
1
41
1
10
43.7723018768896
20
-0.431335059861681
30
0
41
1
10
43.7669012603207
20
-0.428845893567626
30
0
41
1
10
43.7615004811899
20
-0.426356137779408
30
0
41
1
10
43.41854810352
20
-0.268222842855181
30
0
41
1
10
43.0809492025947
20
-0.111168023228714
30
0
41
1
10
42.4057063972819
20
0.202525274016864
30
0
41
1
10
42.0680359675445
20
0.35885738427308
30
0
41
1
10
41.393527828612
20
0.668450607051881
30
0
41
1
10
41.056014445646
20
0.821525465410133
30
-1E-16
41
1
10
40.3812350940235
20
1.12037240344486
30
-1E-16
41
1
10
40.0444805431518
20
1.26568241650631
30
-1E-16
41
1
10
39.3715600844651
20
1.54706566698422
30
-1E-16
41
1
10
39.0352547740491
20
1.68283988567273
30
-1E-16
41
1
10
38.3615249582642
20
1.94143551422351
30
-1E-16
41
1
10
38.0235360198914
20
2.06425198419873
30
-1E-16
41
1
10
37.3495144603663
20
2.29460391375039
30
-1E-16
41
1
10
37.0131444845651
20
2.40204817389886
30
-1E-16
41
1
10
36.3401419041384
20
2.59872308163315
30
1E-16
41
1
10
36.0034825604138
20
2.68792579079289
30
1E-16
41
1
10
35.328940396416
20
2.84749135222359
30
0
41
1
10
34.9911515799939
20
2.91793271249929
30
0
41
1
10
34.3158659623257
20
3.03670425787297
30
0
41
1
10
33.9781327737974
20
3.0850712550926
30
0
41
1
10
33.3033136113633
20
3.16000111278413
30
0
41
1
10
32.9660494712364
20
3.1867294096516
30
0
41
1
10
32.2909596200773
20
3.21669404037217
30
0
41
1
10
31.9542070522875
20
3.21993528664009
30
0
41
1
10
31.2810355128969
20
3.20392263923813
30
0
41
1
10
30.944791503952
20
3.18492318598101
30
0
41
1
10
30.271181073796
20
3.12395839179538
30
0
41
1
10
29.9333275522112
20
3.08194702387965
30
0
41
1
10
29.2589260638239
20
2.97676957380546
30
0
41
1
10
28.9225155134852
20
2.91375019328757
30
0
41
1
10
28.249484238885
20
2.76729118519106
30
1E-16
41
1
10
27.9129593720028
20
2.68386081513739
30
1E-16
41
1
10
27.380332198856
20
2.53719821425383
30
-1E-16
41
1
10
27.1847161888565
20
2.48023761728763
30
-1E-16
41
1
10
26.9890439787091
20
2.42036424526736
30
-1E-16
0
SPLINE
5
D2
100
AcDbEntity
8
1
62
256
6
ByLayer
370
18
48
1
60
0
100
AcDbSpline
70
4
71
3
72
8
73
4
40
0
40
0
40
0
40
0
40
1
40
1
40
1
40
1
41
1
10
53.3368879297612
20
0.0183723569457754
30
0
41
1
10
53.3637550887625
20
0.005057651730624
30
0
41
1
10
53.3904553932814
20
-0.0075639282528073
30
0
41
1
10
53.4170170880133
20
-0.0195092552305312
30
0
0
SPLINE
5
D3
100
AcDbEntity
8
1
62
256
6
ByLayer
370
18
48
1
60
0
100
AcDbSpline
70
4
71
3
72
14
73
10
40
0
40
0
40
0
40
0
40
0.200909538764521
40
0.200909538764521
40
0.5503424463126
40
0.5503424463126
40
0.899775353860682
40
0.899775353860682
40
1
40
1
40
1
40
1
41
1
10
6.44191843505726
20
2.8554876012787
30
0
41
1
10
6.42646834042947
20
2.80190953074217
30
1E-16
41
1
10
6.41048165598605
20
2.74853045320168
30
1E-16
41
1
10
6.36555593368539
20
2.602786573478
30
1E-16
41
1
10
6.3361025234264
20
2.51070528111256
30
1E-16
41
1
10
6.27184310701023
20
2.32821337495156
30
1E-16
41
1
10
6.23758545313046
20
2.23832423414578
30
1E-16
41
1
10
6.1916494681912
20
2.12462756521262
30
1E-16
41
1
10
6.18127082549734
20
2.09940784774335
30
1E-16
41
1
10
6.17073485906926
20
2.07431490978755
30
1E-16
0
SPLINE
5
D4
100
AcDbEntity
8
1
62
256
6
ByLayer
370
18
48
1
60
0
100
AcDbSpline
70
4
71
3
72
18
73
14
40
0
40
0
40
0
40
0
40
0.199183333804431
40
0.199183333804431
40
0.398366667608862
40
0.398366667608862
40
0.597550001413293
40
0.597550001413293
40
0.796733335217724
40
0.796733335217724
40
0.995916669022155
40
0.995916669022155
40
1
40
1
40
1
40
1
41
1
10
53.8312558215672
20
3.21585768570168
30
0
41
1
10
53.4936641205645
20
3.21865733256436
30
0
41
1
10
53.1559206438462
20
3.20973829305291
30
0
41
1
10
52.4810458470129
20
3.16900615012909
30
0
41
1
10
52.1437921486057
20
3.13710218576753
30
0
41
1
10
51.4686471692409
20
3.05200323509092
30
0
41
1
10
51.1309043742113
20
2.99807700102156
30
0
41
1
10
50.4559625413461
20
2.86936371333258
30
0
41
1
10
50.1187638884473
20
2.79475481313097
30
1E-16
41
1
10
49.4441022725545
20
2.62626033703759
30
1E-16
41
1
10
49.1065100236669
20
2.53224937073128
30
1E-16
41
1
10
48.7640510705343
20
2.42804827115563
30
0
41
1
10
48.7571720908353
20
2.4259515171463
30
0
41
1
10
48.7502936283757
20
2.42385126893274
30
0
0
SPLINE
5
D5
100
AcDbEntity
8
1
62
256
6
ByLayer
370
18
48
1
60
0
100
AcDbSpline
70
4
71
3
72
8
73
4
40
0
40
0
40
0
40
0
40
1
40
1
40
1
40
1
41
1
10
21.7602636869377
20
-0.310150389705655
30
0
41
1
10
21.6735081390682
20
-0.270051309082049
30
0
41
1
10
21.5867531853889
20
-0.229888959753509
30
0
41
1
10
21.5000000000027
20
-0.189694629686016
30
0
0
SPLINE
5
D6
100
AcDbEntity
8
1
62
256
6
ByLayer
370
18
48
1
60
0
100
AcDbSpline
70
4
71
3
72
12
73
8
40
0
40
0
40
0
40
0
40
0.500000000000034
40
0.500000000000034
40
0.750000000000017
40
0.750000000000017
40
1
40
1
40
1
40
1
41
1
10
3.50169668523029
20
2.48886395734962
30
-2E-16
41
1
10
3.50169668523026
20
2.48418714433768
30
-2E-16
41
1
10
3.50946041563569
20
2.47929737913643
30
-2E-16
41
1
10
3.53484676437108
20
2.47299942654453
30
1E-16
41
1
10
3.54562176311856
20
2.47110744085555
30
1E-16
41
1
10
3.57168854400362
20
2.46834280086242
30
1E-16
41
1
10
3.58686621718641
20
2.46752107533504
30
1E-16
41
1
10
3.60249089084058
20
2.46754896213909
30
1E-16
0
SPLINE
5
D7
100
AcDbEntity
8
1
62
256
6
ByLayer
370
18
48
1
60
0
100
AcDbSpline
70
4
71
3
72
8
73
4
40
0
40
0
40
0
40
0
40
1
40
1
40
1
40
1
41
1
10
3.56008651187625
20
-1.42215083414405
30
1E-16
41
1
10
3.55953456606707
20
-1.44425105424645
30
1E-16
41
1
10
3.55898949017725
20
-1.46634324336526
30
1E-16
41
1
10
3.55845131969167
20
-1.4884278197122
30
1E-16
0
SPLINE
5
D8
100
AcDbEntity
8
1
62
256
6
ByLayer
370
18
48
1
60
0
100
AcDbSpline
70
4
71
3
72
14
73
10
40
0
40
0
40
0
40
0
40
0.272702136900454
40
0.272702136900454
40
0.511166505225156
40
0.511166505225156
40
0.785461908325909
40
0.785461908325909
40
1
40
1
40
1
40
1
41
1
10
53.4170170880133
20
-0.0195092552305027
30
0
41
1
10
53.4177627744913
20
-0.0198446053989869
30
0
41
1
10
53.4184945245846
20
-0.0205463730599718
30
0
41
1
10
53.4197169177061
20
-0.022299294642977
30
0
41
1
10
53.4202432142079
20
-0.0233193660515951
30
0
41
1
10
53.4212085442259
20
-0.0257816469105308
30
0
41
1
10
53.4216381784357
20
-0.0273030007943476
30
0
41
1
10
53.422162469233
20
-0.030177784167762
30
0
41
1
10
53.4223146882071
20
-0.0315295679282883
30
0
41
1
10
53.4223587247978
20
-0.0328736823324789
30
0
0
SPLINE
5
D9
100
AcDbEntity
8
1
62
256
6
ByLayer
370
18
48
1
60
0
100
AcDbSpline
70
4
71
3
72
28
73
24
40
0
40
0
40
0
40
0
40
0.124999999999999
40
0.124999999999999
40
0.187499999999998
40
0.187499999999998
40
0.249999999999998
40
0.249999999999998
40
0.374999999999999
40
0.374999999999999
40
0.437499999999999
40
0.437499999999999
40
0.499999999999999
40
0.499999999999999
40
0.624999999999999
40
0.624999999999999
40
0.6875
40
0.6875
40
0.75
40
0.75
40
0.875
40
0.875
40
1
40
1
40
1
40
1
41
1
10
53.4223587247979
20
-0.0328736823362021
30
0
41
1
10
53.4286327436838
20
-0.224373502491602
30
0
41
1
10
53.4430186176992
20
-0.412154967303849
30
0
41
1
10
53.4710806851241
20
-0.689007762678472
30
0
41
1
10
53.4815370622478
20
-0.780481680762904
30
0
41
1
10
53.5039070742512
20
-0.961858618483689
30
1E-16
41
1
10
53.5158828879761
20
-1.05219522578392
30
1E-16
41
1
10
53.552485403343
20
-1.31713345761733
30
1E-16
41
1
10
53.5776555943533
20
-1.48551893351873
30
1E-16
41
1
10
53.6134402614601
20
-1.7263887440638
30
1E-16
41
1
10
53.6250562065509
20
-1.80471225776768
30
1E-16
41
1
10
53.647312770075
20
-1.95735895070905
30
1E-16
41
1
10
53.6579683707437
20
-2.03181450581405
30
1E-16
41
1
10
53.6875385386519
20
-2.24471809438251
30
1E-16
41
1
10
53.7042260785207
20
-2.3743052444118
30
1E-16
41
1
10
53.7250113805659
20
-2.55029497264647
30
-1E-16
41
1
10
53.7312464476227
20
-2.60587430224004
30
-1E-16
41
1
10
53.7425648223146
20
-2.71065531063175
30
-1E-16
41
1
10
53.747624937336
20
-2.75964783333245
30
-1E-16
41
1
10
53.761411950309
20
-2.89409976129196
30
0
41
1
10
53.7688066217675
20
-2.96815743761275
30
0
41
1
10
53.7848737887871
20
-3.08518398870243
30
0
41
1
10
53.7936111827011
20
-3.12812548247013
30
0
41
1
10
53.8060610284641
20
-3.15377266188787
30
0
0
SPLINE
5
DA
100
AcDbEntity
8
1
62
256
6
ByLayer
370
18
48
1
60
0
100
AcDbSpline
70
4
71
3
72
16
73
12
40
0
40
0
40
0
40
0
40
0.136515126892297
40
0.136515126892297
40
0.352386345169223
40
0.352386345169223
40
0.568257563446149
40
0.568257563446149
40
0.784128781723074
40
0.784128781723074
40
1
40
1
40
1
40
1
41
1
10
53.6116943021977
20
0.638597372695074
30
0
41
1
10
53.6198887520216
20
0.653721373086199
30
0
41
1
10
53.6305247600619
20
0.669644576380648
30
0
41
1
10
53.6644556130806
20
0.712927143035728
30
0
41
1
10
53.6905482073046
20
0.74034742832572
30
0
41
1
10
53.754104829997
20
0.795643093715995
30
0
41
1
10
53.7917089490935
20
0.823271389252795
30
0
41
1
10
53.8746777540647
20
0.873593253670663
30
0
41
1
10
53.9213872189745
20
0.896864369513509
30
0
41
1
10
54.0191673238626
20
0.933377167869736
30
0
41
1
10
54.0711481714865
20
0.947012501985341
30
0
41
1
10
54.1243360986809
20
0.955343088499887
30
0
0
SPLINE
5
DB
100
AcDbEntity
8
1
62
256
6
ByLayer
370
18
48
1
60
0
100
AcDbSpline
70
4
71
3
72
22
73
18
40
0
40
0
40
0
40
0
40
0.0957534693057646
40
0.0957534693057646
40
0.191506938611529
40
0.191506938611529
40
0.38301387722306
40
0.38301387722306
40
0.574520815834591
40
0.574520815834591
40
0.670274285140356
40
0.670274285140356
40
0.766027754446122
40
0.766027754446122
40
0.957534693057656
40
0.957534693057656
40
1
40
1
40
1
40
1
41
1
10
21.5
20
-0.186238308152383
30
0
41
1
10
21.8357588715557
20
-0.347452376375657
30
0
41
1
10
22.1711836175637
20
-0.507886283864963
30
0
41
1
10
22.8426851380195
20
-0.824462439085664
30
1E-16
41
1
10
23.1785949521741
20
-0.980504565850737
30
1E-16
41
1
10
24.1837787678914
20
-1.43551838797617
30
1E-16
41
1
10
24.852755831671
20
-1.72247076027173
30
1E-16
41
1
10
26.1961100648106
20
-2.24264279734135
30
1E-16
41
1
10
26.8644364210719
20
-2.47348492251336
30
2E-16
41
1
10
27.8698748405761
20
-2.76432560720704
30
-1E-16
41
1
10
28.2063314404716
20
-2.85219848173622
30
0
41
1
10
28.8755146564235
20
-3.00644680236556
30
0
41
1
10
29.2086368589306
20
-3.07299214130694
30
0
41
1
10
30.2055432087973
20
-3.23981139081786
30
0
41
1
10
30.8668846617167
20
-3.30719925737705
30
0
41
1
10
31.6770447047381
20
-3.33355364617799
30
0
41
1
10
31.82418040792
20
-3.336083538384
30
0
41
1
10
31.9714616369653
20
-3.33634936662165
30
0
0
SPLINE
5
DC
100
AcDbEntity
8
1
62
256
6
ByLayer
370
18
48
1
60
0
100
AcDbSpline
70
4
71
3
72
8
73
4
40
0
40
0
40
0
40
0
40
1
40
1
40
1
40
1
41
1
10
53.4167982652369
20
3.34609595480035
30
0
41
1
10
53.4879673781667
20
3.34775285162374
30
0
41
1
10
53.5591507048167
20
3.34887998981367
30
0
41
1
10
53.6303545419652
20
3.34947585564078
30
0
0
SPLINE
5
DD
100
AcDbEntity
8
1
62
256
6
ByLayer
370
18
48
1
60
0
100
AcDbSpline
70
4
71
3
72
8
73
4
40
0
40
0
40
0
40
0
40
1
40
1
40
1
40
1
41
1
10
53.3368879297613
20
0.018372356945747
30
0
41
1
10
53.3296902701764
20
0.175792857044996
30
0
41
1
10
53.3280906620233
20
0.332327357339096
30
0
41
1
10
53.3339782385505
20
0.487975866057553
30
0
0
SPLINE
5
DE
100
AcDbEntity
8
1
62
256
6
ByLayer
370
18
48
1
60
0
100
AcDbSpline
70
4
71
3
72
10
73
6
40
0
40
0
40
0
40
0
40
0.5
40
0.5
40
1
40
1
40
1
40
1
41
1
10
3.55845131969167
20
-1.48842781971229
30
1E-16
41
1
10
3.54141725479832
20
-1.48112096222468
30
1E-16
41
1
10
3.52704765243655
20
-1.46958162896337
30
1E-16
41
1
10
3.5071556566684
20
-1.44121475317658
30
1E-16
41
1
10
3.50169668523029
20
-1.4243833749162
30
1E-16
41
1
10
3.50169668523029
20
-1.40727416914365
30
1E-16
0
SPLINE
5
DF
100
AcDbEntity
8
1
62
256
6
ByLayer
370
18
48
1
60
0
100
AcDbSpline
70
4
71
3
72
26
73
22
40
0
40
0
40
0
40
0
40
0.124999999999993
40
0.124999999999993
40
0.249999999999986
40
0.249999999999986
40
0.312499999999982
40
0.312499999999982
40
0.374999999999979
40
0.374999999999979
40
0.437499999999975
40
0.437499999999975
40
0.499999999999971
40
0.499999999999971
40
0.624999999999978
40
0.624999999999978
40
0.749999999999986
40
0.749999999999986
40
0.874999999999993
40
0.874999999999993
40
1
40
1
40
1
40
1
41
1
10
54.9532840287008
20
0.0403284117361977
30
0
41
1
10
54.9370678922303
20
-0.0131384572141542
30
0
41
1
10
54.9184241253938
20
-0.0653829551656315
30
0
41
1
10
54.8760985381235
20
-0.167251482218433
30
0
41
1
10
54.85234860441
20
-0.216753554790245
30
0
41
1
10
54.814999734272
20
-0.283868317523769
30
0
41
1
10
54.8021771344825
20
-0.305250893381185
30
0
41
1
10
54.7757466297177
20
-0.345860045323661
30
0
41
1
10
54.7621698336631
20
-0.364994541776127
30
0
41
1
10
54.7353249153813
20
-0.3994267461091
30
0
41
1
10
54.7219209771867
20
-0.414941963414378
30
0
41
1
10
54.6951323036811
20
-0.442500056227544
30
0
41
1
10
54.6816254853633
20
-0.454618425688494
30
0
41
1
10
54.6424076887077
20
-0.484425046898707
30
0
41
1
10
54.6174508776656
20
-0.496088853711598
30
0
41
1
10
54.5711509137753
20
-0.503289643645104
30
0
41
1
10
54.5500007887518
20
-0.49887230724363
30
0
41
1
10
54.5115513949508
20
-0.476435723610848
30
0
41
1
10
54.4946221027022
20
-0.45877770129195
30
0
41
1
10
54.4639745878906
20
-0.412869102094078
30
0
41
1
10
54.4503026543817
20
-0.384506831644671
30
0
41
1
10
54.4382133722905
20
-0.352235872832693
30
0
0
SPLINE
5
E0
100
AcDbEntity
8
1
62
256
6
ByLayer
370
18
48
1
60
0
100
AcDbSpline
70
4
71
3
72
8
73
4
40
0
40
0
40
0
40
0
40
1
40
1
40
1
40
1
41
1
10
54.4382133722908
20
-0.352235872832353
30
0
41
1
10
54.342277186931
20
-0.0961451750588083
30
0
41
1
10
54.2249834368466
20
0.174069223408026
30
0
41
1
10
54.0865834247731
20
0.458241136738707
30
0
0
SPLINE
5
E1
100
AcDbEntity
8
1
62
256
6
ByLayer
370
18
48
1
60
0
100
AcDbSpline
70
4
71
3
72
50
73
46
40
0
40
0
40
0
40
0
40
0.0908595309214917
40
0.0908595309214917
40
0.136289296382237
40
0.136289296382237
40
0.181719061842982
40
0.181719061842982
40
0.227148827303728
40
0.227148827303728
40
0.272578592764473
40
0.272578592764473
40
0.318008358225218
40
0.318008358225218
40
0.363438123685964
40
0.363438123685964
40
0.408867889146709
40
0.408867889146709
40
0.454297654607455
40
0.454297654607455
40
0.4997274200682
40
0.4997274200682
40
0.545157185528945
40
0.545157185528945
40
0.590586950989691
40
0.590586950989691
40
0.636016716450436
40
0.636016716450436
40
0.681446481911181
40
0.681446481911181
40
0.726876247371927
40
0.726876247371927
40
0.772306012832672
40
0.772306012832672
40
0.817735778293417
40
0.817735778293417
40
0.863165543754163
40
0.863165543754163
40
0.908595309214908
40
0.908595309214908
40
0.954025074675653
40
0.954025074675653
40
0.999454840136399
40
0.999454840136399
40
1
40
1
40
1
40
1
41
1
10
3.6455144032123
20
2.5980322634783
30
-2E-16
41
1
10
4.16440979684057
20
2.44090350163745
30
-1E-16
41
1
10
4.68351199665307
20
2.26391924452628
30
-1E-16
41
1
10
5.46413795336795
20
1.97262958157131
30
-1E-16
41
1
10
5.72494363013612
20
1.87109836901936
30
-1E-16
41
1
10
6.24511496722525
20
1.66055321869138
30
-1E-16
41
1
10
6.50450376633771
20
1.55113493874771
30
-1E-16
41
1
10
7.02326323560055
20
1.32650334421876
30
-1E-16
41
1
10
7.28280447017977
20
1.21163679617152
30
-1E-16
41
1
10
7.8020916652562
20
0.976596856928722
30
-1E-16
41
1
10
8.06186818186887
20
0.856380338027122
30
-1E-16
41
1
10
8.58260812333981
20
0.612897432852691
30
0
41
1
10
8.84260292068041
20
0.490135778958631
30
0
41
1
10
9.36187633810576
20
0.242647339978049
30
0
41
1
10
9.62113155053851
20
0.117870066751067
30
0
41
1
10
10.1400757199863
20
-0.131243755729145
30
0
41
1
10
10.3997922593433
20
-0.255520919634904
30
0
41
1
10
10.9197779660164
20
-0.503383697877268
30
0
41
1
10
11.1801623822358
20
-0.627090204063279
30
0
41
1
10
11.6998083473651
20
-0.87023161155571
30
1E-16
41
1
10
11.9594331410995
20
-0.989775905969083
30
1E-16
41
1
10
12.4783603689323
20
-1.22468880404006
30
1E-16
41
1
10
12.7376333828382
20
-1.34010095764228
30
1E-16
41
1
10
13.2569492978749
20
-1.56458661584804
30
1E-16
41
1
10
13.5172790170376
20
-1.67372961217853
30
1E-16
41
1
10
14.0376442943799
20
-1.88489882202685
30
1E-16
41
1
10
14.2972117213012
20
-1.98677070089909
30
1E-16
41
1
10
14.8162124156265
20
-2.18126053626747
30
1E-16
41
1
10
15.0756659899185
20
-2.27387074133364
30
1E-16
41
1
10
15.5946142879411
20
-2.44961703604247
30
1E-16
41
1
10
15.8540892283668
20
-2.53275451394418
30
2E-16
41
1
10
16.374227749629
20
-2.68784199609769
30
-1E-16
41
1
10
16.6346604044823
20
-2.75970218301092
30
-1E-16
41
1
10
17.1524711494542
20
-2.89140228976044
30
0
41
1
10
17.4104004281632
20
-2.95127131950849
30
0
41
1
10
17.9256930393385
20
-3.05785148452162
30
0
41
1
10
18.1829250637221
20
-3.10474008753428
30
0
41
1
10
18.6965577816891
20
-3.18576575758073
30
0
41
1
10
18.9530090244498
20
-3.21981565876908
30
0
41
1
10
19.4665222822089
20
-3.27429356430386
30
0
41
1
10
19.7234264496658
20
-3.29484544456906
30
0
41
1
10
20.2375729446612
20
-3.32241172154704
30
0
41
1
10
20.4948583395105
20
-3.32936056201734
30
0
41
1
10
20.7561776529848
20
-3.3293535214334
30
0
41
1
10
20.7592764200992
20
-3.32935244451718
30
0
41
1
10
20.7623752913608
20
-3.32935037385687
30
0
0
SPLINE
5
E2
100
AcDbEntity
8
1
62
256
6
ByLayer
370
18
48
1
60
0
100
AcDbSpline
70
4
71
3
72
32
73
28
40
0
40
0
40
0
40
0
40
0.0448910984165739
40
0.0448910984165739
40
0.104585404765538
40
0.104585404765538
40
0.164279711114503
40
0.164279711114503
40
0.223974017463467
40
0.223974017463467
40
0.283668323812432
40
0.283668323812432
40
0.40305693651036
40
0.40305693651036
40
0.462751242859324
40
0.462751242859324
40
0.522445549208287
40
0.522445549208287
40
0.58213985555725
40
0.58213985555725
40
0.641834161906213
40
0.641834161906213
40
0.761222774604142
40
0.761222774604142
40
0.880611387302071
40
0.880611387302071
40
1
40
1
40
1
40
1
41
1
10
40.3748459866835
20
3.18589139394066
30
0
41
1
10
40.5702823496117
20
3.21447698940483
30
0
41
1
10
40.7659901540323
20
3.23918718735459
30
0
41
1
10
41.2209693804585
20
3.28768567284675
30
0
41
1
10
41.4801429342376
20
3.30854869767663
30
0
41
1
10
41.9985620541118
20
3.33624493638146
30
0
41
1
10
42.2578867617485
20
3.34310346893045
30
0
41
1
10
42.7767554095135
20
3.34279375974307
30
0
41
1
10
43.0366143809117
20
3.33555406982538
30
0
41
1
10
43.5554300564912
20
3.30687003863363
30
0
41
1
10
43.8141095665076
20
3.28558924278977
30
0
41
1
10
44.5885253536033
20
3.20193438595518
30
0
41
1
10
45.1024935469616
20
3.11978937556307
30
0
41
1
10
45.871673889519
20
2.95843374045214
30
0
41
1
10
46.1277362684611
20
2.89819501896756
30
0
41
1
10
46.6405481434858
20
2.76611238588356
30
1E-16
41
1
10
46.8973595582834
20
2.69437717903287
30
1E-16
41
1
10
47.4120388306981
20
2.53986237378277
30
-2E-16
41
1
10
47.6698732041574
20
2.45702415094345
30
-2E-16
41
1
10
48.1871687566986
20
2.28092462764741
30
-1E-16
41
1
10
48.4472818701126
20
2.18746585378923
30
-1E-16
41
1
10
49.2259545745669
20
1.89394670954928
30
-1E-16
41
1
10
49.7408889124314
20
1.68161739952114
30
-1E-16
41
1
10
50.7681314015925
20
1.23479647547654
30
-1E-16
41
1
10
51.280190142591
20
0.999835570845391
30
-1E-16
41
1
10
52.3063832232394
20
0.517336290105334
30
0
41
1
10
52.8201082709363
20
0.268960634770394
30
0
41
1
10
53.3368879297612
20
0.0183723569457754
30
0
0
SPLINE
5
E3
100
AcDbEntity
8
1
62
256
6
ByLayer
370
18
48
1
60
0
100
AcDbSpline
70
4
71
3
72
8
73
4
40
0
40
0
40
0
40
0
40
1
40
1
40
1
40
1
41
1
10
53.8034672291447
20
-3.16497519728318
30
0
41
1
10
53.7986986270475
20
-3.17885351921095
30
0
41
1
10
53.7939485104687
20
-3.1927319678056
30
0
41
1
10
53.7892172277951
20
-3.20661063288927
30
0
0
SPLINE
5
E4
100
AcDbEntity
8
1
62
256
6
ByLayer
370
18
48
1
60
0
100
AcDbSpline
70
4
71
3
72
28
73
24
40
0
40
0
40
0
40
0
40
0.0760225047638268
40
0.0760225047638268
40
0.152045009527654
40
0.152045009527654
40
0.304090019055307
40
0.304090019055307
40
0.380112523819134
40
0.380112523819134
40
0.456135028582961
40
0.456135028582961
40
0.608180038110615
40
0.608180038110615
40
0.684202542874439
40
0.684202542874439
40
0.760225047638265
40
0.760225047638265
40
0.912270057165915
40
0.912270057165915
40
0.98829256192974
40
0.98829256192974
40
1
40
1
40
1
40
1
41
1
10
53.3339782385503
20
0.487975866053063
30
0
41
1
10
53.083486597814
20
0.607647918838865
30
0
41
1
10
52.8336203297447
20
0.725943121487376
30
0
41
1
10
52.3351861332933
20
0.959891624776702
30
-1E-16
41
1
10
52.0865430201394
20
1.07536647544234
30
-1E-16
41
1
10
51.3402537147518
20
1.41315393097901
30
-1E-16
41
1
10
50.8425316772412
20
1.62754109825832
30
-1E-16
41
1
10
50.0949596299428
20
1.93138035116212
30
-1E-16
41
1
10
49.8453305379954
20
2.02918116414088
30
-1E-16
41
1
10
49.3442836270539
20
2.21622736633702
30
-1E-16
41
1
10
49.0927863151998
20
2.30571052710485
30
-1E-16
41
1
10
48.3367680256061
20
2.56094053468195
30
-2E-16
41
1
10
47.8372471502609
20
2.71173936206065
30
1E-16
41
1
10
47.0890063665533
20
2.90245674345835
30
0
41
1
10
46.8399534277861
20
2.96039690807154
30
0
41
1
10
46.3422018723643
20
3.06468008103246
30
0
41
1
10
46.0937723970745
20
3.11123018714275
30
0
41
1
10
45.3475105420666
20
3.23205204835858
30
0
41
1
10
44.8484742759165
20
3.28769513382449
30
0
41
1
10
44.0969098856085
20
3.33280434514268
30
0
41
1
10
43.8455400788034
20
3.34135671581961
30
0
41
1
10
43.5549261046797
20
3.34346880333354
30
0
41
1
10
43.5161620013077
20
3.34359294715353
30
0
41
1
10
43.4774157674068
20
3.34356003046142
30
0
0
SPLINE
5
E5
100
AcDbEntity
8
1
62
256
6
ByLayer
370
18
48
1
60
0
100
AcDbSpline
70
4
71
3
72
42
73
38
40
0
40
0
40
0
40
0
40
0.0386368770263432
40
0.0386368770263432
40
0.0844160733584207
40
0.0844160733584207
40
0.130195269690498
40
0.130195269690498
40
0.175974466022576
40
0.175974466022576
40
0.267532858686733
40
0.267532858686733
40
0.313312055018811
40
0.313312055018811
40
0.35909125135089
40
0.35909125135089
40
0.450649644015048
40
0.450649644015048
40
0.496428840347128
40
0.496428840347128
40
0.542208036679207
40
0.542208036679207
40
0.633766429343366
40
0.633766429343366
40
0.679545625675445
40
0.679545625675445
40
0.725324822007524
40
0.725324822007524
40
0.771104018339604
40
0.771104018339604
40
0.816883214671683
40
0.816883214671683
40
0.908441607335841
40
0.908441607335841
40
0.954220803667921
40
0.954220803667921
40
1
40
1
40
1
40
1
41
1
10
21.7441731669605
20
-3.32997383301063
30
0
41
1
10
21.5316263735011
20
-3.32977856265012
30
0
41
1
10
21.3199038630137
20
-3.32486081104568
30
0
41
1
10
20.8582541757282
20
-3.30395117524574
30
0
41
1
10
20.6084071876696
20
-3.28614021596041
30
0
41
1
10
20.1094183241592
20
-3.2380137187516
30
0
41
1
10
19.8603168017016
20
-3.2076845757606
30
0
41
1
10
19.3627332078254
20
-3.13458431794751
30
0
41
1
10
19.1143902742837
20
-3.09167092135706
30
0
41
1
10
18.3682763753966
20
-2.94564492108091
30
0
41
1
10
17.8695355871886
20
-2.82556076346873
30
0
41
1
10
17.1190654159959
20
-2.61090844017409
30
2E-16
41
1
10
16.8683067722265
20
-2.53378513847275
30
2E-16
41
1
10
16.3644674572869
20
-2.36986869950206
30
1E-16
41
1
10
16.1120160587299
20
-2.28315291597704
30
1E-16
41
1
10
15.3589687232893
20
-2.01102524075935
30
1E-16
41
1
10
14.8607737344578
20
-1.81208347293497
30
1E-16
41
1
10
14.1136339468192
20
-1.49778148157347
30
1E-16
41
1
10
13.8647633702166
20
-1.39011307259577
30
1E-16
41
1
10
13.3670679926001
20
-1.16957289692925
30
1E-16
41
1
10
13.1184637586669
20
-1.05625211006853
30
1E-16
41
1
10
12.3715120565855
20
-0.710790598686401
30
0
41
1
10
11.8714942808781
20
-0.474367986570314
30
0
41
1
10
11.1171896509838
20
-0.112850800865146
30
0
41
1
10
10.8647054730942
20
0.0094556728847124
30
0
41
1
10
10.3620227573148
20
0.251119150169643
30
0
41
1
10
10.1113351429068
20
0.370762527777515
30
0
41
1
10
9.61121644954437
20
0.607705949290647
30
0
41
1
10
9.36172172882289
20
0.724868652020405
30
0
41
1
10
8.86397566980088
20
0.956805812095155
30
-1E-16
41
1
10
8.61550114021219
20
1.07109480644499
30
-1E-16
41
1
10
7.86955387240482
20
1.40550989388859
30
-1E-16
41
1
10
7.37183344635545
20
1.61788147120456
30
-1E-16
41
1
10
6.62438008917132
20
1.91974140764481
30
-1E-16
41
1
10
6.37491058188533
20
2.01721550942196
30
-1E-16
41
1
10
5.87356631356425
20
2.20274205574083
30
-1E-16
41
1
10
5.62182566409513
20
2.29104647165684
30
-1E-16
41
1
10
5.36878402670493
20
2.37454319632064
30
-1E-16
0
SPLINE
5
E6
100
AcDbEntity
8
1
62
256
6
ByLayer
370
18
48
1
60
0
100
AcDbSpline
70
4
71
3
72
10
73
6
40
0
40
0
40
0
40
0
40
0.5
40
0.5
40
1
40
1
40
1
40
1
41
1
10
53.8362369270845
20
-3.21250149907436
30
0
41
1
10
53.8254971258806
20
-3.21971855429104
30
0
41
1
10
53.816380827756
20
-3.22278380466739
30
0
41
1
10
53.8009067093803
20
-3.22065798127159
30
0
41
1
10
53.7945850877577
20
-3.21550730443397
30
0
41
1
10
53.7892172277952
20
-3.20661063288924
30
0
0
SPLINE
5
E7
100
AcDbEntity
8
1
62
256
6
ByLayer
370
18
48
1
60
0
100
AcDbSpline
70
4
71
3
72
20
73
16
40
0
40
0
40
0
40
0
40
0.0625000000000003
40
0.0625000000000003
40
0.125000000000001
40
0.125000000000001
40
0.250000000000001
40
0.250000000000001
40
0.375000000000001
40
0.375000000000001
40
0.5
40
0.5
40
0.75
40
0.75
40
1
40
1
40
1
40
1
41
1
10
54.0865834247731
20
0.458241136738707
30
0
41
1
10
54.0723737947638
20
0.468335323193401
30
0
41
1
10
54.0577855894911
20
0.477230741448096
30
0
41
1
10
54.0285815366043
20
0.495414796319693
30
0
41
1
10
54.0137409398174
20
0.503703232956951
30
0
41
1
10
53.9686037474822
20
0.52638958743367
30
0
41
1
10
53.9374654196969
20
0.538036202994618
30
0
41
1
10
53.8746230193459
20
0.554501653633736
30
0
41
1
10
53.8429039988471
20
0.559914630748381
30
0
41
1
10
53.7792596089731
20
0.56895708373915
30
0
41
1
10
53.7472718550773
20
0.57145877497274
30
0
41
1
10
53.6511053858935
20
0.573205589189428
30
0
41
1
10
53.5867042856605
20
0.5655740482037
30
0
41
1
10
53.45888754158
20
0.53608849192716
30
0
41
1
10
53.3954505163152
20
0.515620555705397
30
0
41
1
10
53.3339782385579
20
0.487975866056502
30
0
0
SPLINE
5
E8
100
AcDbEntity
8
1
62
256
6
ByLayer
370
18
48
1
60
0
100
AcDbSpline
70
4
71
3
72
10
73
6
40
0
40
0
40
0
40
0
40
0.5
40
0.5
40
1
40
1
40
1
40
1
41
1
10
3.50169668523029
20
2.54107946452336
30
-2E-16
41
1
10
3.50169668523029
20
2.56298939552082
30
-2E-16
41
1
10
3.51980717610164
20
2.58354357279151
30
-2E-16
41
1
10
3.57757628738438
20
2.60608332083515
30
-2E-16
41
1
10
3.61489372259683
20
2.60730463261265
30
-2E-16
41
1
10
3.6455144032123
20
2.5980322634783
30
-2E-16
0
SPLINE
5
E9
100
AcDbEntity
8
1
62
256
6
ByLayer
370
18
48
1
60
0
100
AcDbSpline
70
4
71
3
72
30
73
26
40
0
40
0
40
0
40
0
40
0.0624999999999998
40
0.0624999999999998
40
0.125
40
0.125
40
0.25
40
0.25
40
0.3125
40
0.3125
40
0.375
40
0.375
40
0.4375
40
0.4375
40
0.5
40
0.5
40
0.625
40
0.625
40
0.6875
40
0.6875
40
0.75
40
0.75
40
0.875
40
0.875
40
1
40
1
40
1
40
1
41
1
10
3.60249089084061
20
2.46754896213909
30
1E-16
41
1
10
3.60248386371524
20
2.4112713828691
30
-1E-16
41
1
10
3.6024760332329
20
2.35210633555303
30
-1E-16
41
1
10
3.60245897540045
20
2.22803267454952
30
-1E-16
41
1
10
3.60244971832563
20
2.1629270671323
30
-1E-16
41
1
10
3.60242046951186
20
1.96145292635956
30
-1E-16
41
1
10
3.60239895975675
20
1.81844345156031
30
-1E-16
41
1
10
3.60236450643379
20
1.59117028816161
30
-1E-16
41
1
10
3.60235265047112
20
1.51327449664316
30
-1E-16
41
1
10
3.60232825669468
20
1.35311237633496
30
-1E-16
41
1
10
3.60231568362545
20
1.27061365664247
30
-1E-16
41
1
10
3.60229025270962
20
1.10359140793398
30
-1E-16
41
1
10
3.60227735746824
20
1.01882259748874
30
-1E-16
41
1
10
3.6022512078037
20
0.846777264706475
30
-1E-16
41
1
10
3.60223790962289
20
0.759212485841516
30
0
41
1
10
3.60219772313408
20
0.494783856029016
30
0
41
1
10
3.60217076198052
20
0.317519898682775
30
0
41
1
10
3.60212950743053
20
0.0502057026474461
30
0
41
1
10
3.60211561608762
20
-0.0391367294089378
30
0
41
1
10
3.60208740322241
20
-0.218304527491114
30
0
41
1
10
3.60207301541874
20
-0.308536974875494
30
0
41
1
10
3.60202942620913
20
-0.576834788582914
30
0
41
1
10
3.60199998365877
20
-0.751490820628106
30
0
41
1
10
3.60193873846527
20
-1.09264966227633
30
1E-16
41
1
10
3.60190682249103
20
-1.2597294892922
30
1E-16
41
1
10
3.60187300129428
20
-1.42118827210871
30
1E-16
0
SPLINE
5
EA
100
AcDbEntity
8
1
62
256
6
ByLayer
370
18
48
1
60
0
100
AcDbSpline
70
4
71
3
72
10
73
6
40
0
40
0
40
0
40
0
40
0.5
40
0.5
40
1
40
1
40
1
40
1
41
1
10
3.56008651187622
20
-1.42215083414405
30
1E-16
41
1
10
3.53988040076445
20
-1.41761329705088
30
1E-16
41
1
10
3.52535322040885
20
-1.41048801959806
30
1E-16
41
1
10
3.50632121716021
20
-1.39470220776656
30
1E-16
41
1
10
3.50169668523031
20
-1.38584392601274
30
1E-16
41
1
10
3.50169668523029
20
-1.37706152456266
30
1E-16
0
SPLINE
5
EB
100
AcDbEntity
8
1
62
256
6
ByLayer
370
18
48
1
60
0
100
AcDbSpline
70
4
71
3
72
20
73
16
40
0
40
0
40
0
40
0
40
0.250125046981658
40
0.250125046981658
40
0.375187570472488
40
0.375187570472488
40
0.500250093963317
40
0.500250093963317
40
0.625312617454146
40
0.625312617454146
40
0.750375140944976
40
0.750375140944976
40
0.875437664435805
40
0.875437664435805
40
1
40
1
40
1
40
1
41
1
10
3.64382062542643
20
2.47602780815706
30
1E-16
41
1
10
4.16566962472137
20
2.32838092156604
30
-1E-16
41
1
10
4.68415315471012
20
2.15959679926877
30
-1E-16
41
1
10
5.45976173094448
20
1.88289656003218
30
-1E-16
41
1
10
5.71793595167577
20
1.78671942116196
30
-1E-16
41
1
10
6.23375823978657
20
1.58744270160255
30
-1E-16
41
1
10
6.49125874010807
20
1.48422945297497
30
-1E-16
41
1
10
7.00650894568466
20
1.27200633065351
30
-1E-16
41
1
10
7.2644560029687
20
1.16312968621852
30
-1E-16
41
1
10
7.78090429071509
20
0.940434148095335
30
-1E-16
41
1
10
8.03936460456336
20
0.826581253854897
30
-1E-16
41
1
10
8.55782884390118
20
0.595581800593834
30
0
41
1
10
8.81788956656399
20
0.47849525656045
30
0
41
1
10
9.33854357929641
20
0.242009289093659
30
0
41
1
10
9.59947272526165
20
0.122342001539948
30
0
41
1
10
9.85904265515003
20
0.0035218234150136
30
0
0
SPLINE
5
EC
100
AcDbEntity
8
1
62
256
6
ByLayer
370
18
48
1
60
0
100
AcDbSpline
70
4
71
3
72
28
73
24
40
0
40
0
40
0
40
0
40
0.0302858974183763
40
0.0302858974183763
40
0.0995511904599204
40
0.0995511904599204
40
0.168816483501465
40
0.168816483501465
40
0.30734706958455
40
0.30734706958455
40
0.376612362626094
40
0.376612362626094
40
0.445877655667638
40
0.445877655667638
40
0.515142948709182
40
0.515142948709182
40
0.584408241750726
40
0.584408241750726
40
0.722938827833818
40
0.722938827833818
40
0.861469413916909
40
0.861469413916909
40
1
40
1
40
1
40
1
41
1
10
42.2039888070221
20
3.18132595817744
30
0
41
1
10
42.3182056732158
20
3.18349323717254
30
0
41
1
10
42.4324887180379
20
3.18437577931928
30
0
41
1
10
42.8077491286442
20
3.18327259156723
30
0
41
1
10
43.0677451163069
20
3.17654842770148
30
0
41
1
10
43.5863430642484
20
3.14972816498548
30
0
41
1
10
43.8451104935375
20
3.12893129343979
30
0
41
1
10
44.6205476100592
20
3.04643130263139
30
0
41
1
10
45.1363462115763
20
2.965048615489
30
0
41
1
10
45.9098132346048
20
2.80907597365743
30
1E-16
41
1
10
46.1675362790278
20
2.75154233167612
30
1E-16
41
1
10
46.6841042105726
20
2.62458063941912
30
1E-16
41
1
10
46.9430263117557
20
2.55499171161321
30
1E-16
41
1
10
47.4623612004645
20
2.40482659682135
30
-1E-16
41
1
10
47.7227340317013
20
2.32432427503616
30
-1E-16
41
1
10
48.2455181666395
20
2.15311703959395
30
-1E-16
41
1
10
48.506721063639
20
2.06277843955854
30
-1E-16
41
1
10
49.2865567044142
20
1.78058510761608
30
-1E-16
41
1
10
49.803077778107
20
1.57705959957596
30
-1E-16
41
1
10
50.8341963920713
20
1.14784875175391
30
-1E-16
41
1
10
51.348685720348
20
0.922269539917266
30
-1E-16
41
1
10
52.3803933345703
20
0.458826374054269
30
0
41
1
10
52.8971993709196
20
0.220642503631865
30
0
41
1
10
53.4170170880134
20
-0.0195092552305312
30
0
0
SPLINE
5
ED
100
AcDbEntity
8
1
62
256
6
ByLayer
370
18
48
1
60
0
100
AcDbSpline
70
4
71
3
72
12
73
8
40
0
40
0
40
0
40
0
40
0.25
40
0.25
40
0.5
40
0.5
40
1
40
1
40
1
40
1
41
1
10
3.60249089084058
20
2.48159712616422
30
1E-16
41
1
10
3.58686016979462
20
2.48158688747219
30
1E-16
41
1
10
3.57167903988045
20
2.48189020876353
30
1E-16
41
1
10
3.54561407970871
20
2.48289122468506
30
1E-16
41
1
10
3.53484324986439
20
2.48356882296113
30
1E-16
41
1
10
3.50946445589574
20
2.48576749661581
30
-2E-16
41
1
10
3.50169668523029
20
2.48739885880121
30
-2E-16
41
1
10
3.50169668523031
20
2.48886395734962
30
-2E-16
0
SPLINE
5
EE
100
AcDbEntity
8
1
62
256
6
ByLayer
370
18
48
1
60
0
100
AcDbSpline
70
4
71
3
72
38
73
34
40
0
40
0
40
0
40
0
40
0.0370746653184651
40
0.0370746653184651
40
0.105605389328085
40
0.105605389328085
40
0.174136113337706
40
0.174136113337706
40
0.242666837347326
40
0.242666837347326
40
0.311197561356947
40
0.311197561356947
40
0.379728285366567
40
0.379728285366567
40
0.448259009376188
40
0.448259009376188
40
0.516789733385808
40
0.516789733385808
40
0.585320457395428
40
0.585320457395428
40
0.653851181405048
40
0.653851181405048
40
0.722381905414669
40
0.722381905414669
40
0.790912629424289
40
0.790912629424289
40
0.85944335343391
40
0.85944335343391
40
0.92797407744353
40
0.92797407744353
40
0.996504801453151
40
0.996504801453151
40
1
40
1
40
1
40
1
41
1
10
32.0943968028075
20
-0.227254907446394
30
0
41
1
10
31.9541558348618
20
-0.16320038057944
30
0
41
1
10
31.8137296329957
20
-0.0989575473480215
30
0
41
1
10
31.4130507568429
20
0.0841884276307212
30
0
41
1
10
31.1520460306201
20
0.203661373574789
30
0
41
1
10
30.6291196259574
20
0.441957142616417
30
0
41
1
10
30.3679739150655
20
0.560104517503504
30
0
41
1
10
29.8457931727256
20
0.793265892642836
30
0
41
1
10
29.5848897554151
20
0.908449888717882
30
-1E-16
41
1
10
29.0627752770897
20
1.13465501410676
30
-1E-16
41
1
10
28.8012391246714
20
1.24560500715822
30
-1E-16
41
1
10
28.2781008084925
20
1.46170806974453
30
-1E-16
41
1
10
28.0170181292696
20
1.56675924459626
30
-1E-16
41
1
10
27.494990137382
20
1.76965868965439
30
-1E-16
41
1
10
27.2338889359229
20
1.86749401624547
30
-1E-16
41
1
10
26.7112739370752
20
2.05496965609174
30
-1E-16
41
1
10
26.4494231538127
20
2.14467304359562
30
-1E-16
41
1
10
25.9278692937747
20
2.31380759867827
30
-1E-16
41
1
10
25.6677746535719
20
2.39346313658859
30
-1E-16
41
1
10
25.1489621983984
20
2.54191991072744
30
1E-16
41
1
10
24.8903227319805
20
2.61060347906198
30
1E-16
41
1
10
24.3735763304331
20
2.73674556963513
30
1E-16
41
1
10
24.1153924388991
20
2.79433634947364
30
1E-16
41
1
10
23.5992234982015
20
2.89756744165484
30
0
41
1
10
23.3414345099039
20
2.94271228549133
30
0
41
1
10
22.8251162598688
20
3.02133653235097
30
0
41
1
10
22.5666053317111
20
3.05481237202409
30
0
41
1
10
22.048732084897
20
3.10872068283825
30
0
41
1
10
21.7895009833407
20
3.12844929332911
30
0
41
1
10
21.2692779436012
20
3.15568625678333
30
0
41
1
10
21.0078743098345
20
3.16321822371296
30
0
41
1
10
20.7330761261942
20
3.16379381308309
30
0
41
1
10
20.7197444961311
20
3.16380180823168
30
0
41
1
10
20.7064162392595
20
3.16379008422402
30
0
0
SPLINE
5
EF
100
AcDbEntity
8
1
62
256
6
ByLayer
370
18
48
1
60
0
100
AcDbSpline
70
4
71
3
72
8
73
4
40
0
40
0
40
0
40
0
40
1
40
1
40
1
40
1
41
1
10
54.6923371530826
20
-1.07187132974718
30
0
41
1
10
54.7967744058634
20
-0.777273543324014
30
0
41
1
10
54.8983140272476
20
-0.481638946218396
30
0
41
1
10
54.9969107439027
20
-0.184951339035678
30
0
0
SPLINE
5
F0
100
AcDbEntity
8
1
62
256
6
ByLayer
370
18
48
1
60
0
100
AcDbSpline
70
4
71
3
72
28
73
24
40
0
40
0
40
0
40
0
40
0.141964671556969
40
0.141964671556969
40
0.283929343113939
40
0.283929343113939
40
0.425894014670909
40
0.425894014670909
40
0.496876350449394
40
0.496876350449394
40
0.56785868622788
40
0.56785868622788
40
0.638841022006365
40
0.638841022006365
40
0.70982335778485
40
0.70982335778485
40
0.851788029341816
40
0.851788029341816
40
0.922770365120301
40
0.922770365120301
40
0.993752700898786
40
0.993752700898786
40
1
40
1
40
1
40
1
41
1
10
53.4223587247964
20
-0.0328736823363442
30
0
41
1
10
52.9025012201121
20
0.206538616967322
30
0
41
1
10
52.3856517732402
20
0.444099993432616
30
0
41
1
10
51.3538670916678
20
0.906552799868336
30
-1E-16
41
1
10
50.8393409039621
20
1.13176593432209
30
-1E-16
41
1
10
49.8081846319383
20
1.56049369472603
30
-1E-16
41
1
10
49.2916585841682
20
1.76390980595596
30
-1E-16
41
1
10
48.5118593200221
20
2.04612135624083
30
-1E-16
41
1
10
48.2507119626237
20
2.1364899891629
30
-1E-16
41
1
10
47.7278795983744
20
2.3078835305387
30
-1E-16
41
1
10
47.4674813986917
20
2.38851133986503
30
-1E-16
41
1
10
46.9480942363477
20
2.53899846699665
30
1E-16
41
1
10
46.6891436633697
20
2.60879201972287
30
1E-16
41
1
10
46.1725183005218
20
2.73621806267963
30
1E-16
41
1
10
45.9147690455137
20
2.79399897943134
30
1E-16
41
1
10
45.1412404153684
20
2.95079148838809
30
0
41
1
10
44.6254136765148
20
3.03284756192929
30
0
41
1
10
43.8499551477933
20
3.1165411939601
30
0
41
1
10
43.5911853594454
20
3.137780073469
30
0
41
1
10
43.0725934779321
20
3.16551557473167
30
0
41
1
10
42.8126072816411
20
3.17268632666949
30
0
41
1
10
42.5285523286403
20
3.1740473070025
30
0
41
1
10
42.5055691601524
20
3.17410836171871
30
0
41
1
10
42.4825822961414
20
3.17411981571274
30
0
0
SPLINE
5
F1
100
AcDbEntity
8
1
62
256
6
ByLayer
370
18
48
1
60
0
100
AcDbSpline
70
4
71
3
72
24
73
20
40
0
40
0
40
0
40
0
40
0.0691180577482334
40
0.0691180577482334
40
0.185478300529704
40
0.185478300529704
40
0.301838543311175
40
0.301838543311175
40
0.418198786092645
40
0.418198786092645
40
0.534559028874117
40
0.534559028874117
40
0.650919271655587
40
0.650919271655587
40
0.767279514437058
40
0.767279514437058
40
0.883639757218529
40
0.883639757218529
40
1
40
1
40
1
40
1
41
1
10
10.3292152147701
20
-0.221538675383158
30
0
41
1
10
10.1749408378256
20
-0.15144553868916
30
0
41
1
10
10.0204222133238
20
-0.08108082902109
30
0
41
1
10
9.60504174489998
20
0.108456502387469
30
0
41
1
10
9.34308024411473
20
0.228249263516716
30
0
41
1
10
8.82127042103349
20
0.464622002522873
30
0
41
1
10
8.56110886612285
20
0.581464833256518
30
0
41
1
10
8.0423481449109
20
0.812072702240329
30
0
41
1
10
7.78369534437516
20
0.925777552704773
30
-1E-16
41
1
10
7.26678242323453
20
1.14826865703711
30
-1E-16
41
1
10
7.00856080680029
20
1.25709095164481
30
-1E-16
41
1
10
6.49266492911875
20
1.46929386731418
30
-1E-16
41
1
10
6.23479917181726
20
1.57252947503656
30
-1E-16
41
1
10
5.71817160196926
20
1.77192738411585
30
-1E-16
41
1
10
5.45955587853047
20
1.86820530423535
30
-1E-16
41
1
10
4.94150896066952
20
2.05293777324582
30
-1E-16
41
1
10
4.68208601346385
20
2.14140507119578
30
-1E-16
41
1
10
4.16194800651388
20
2.30920494594193
30
-1E-16
41
1
10
3.90096394796359
20
2.38861327020672
30
-1E-16
41
1
10
3.63968491583171
20
2.46257491939909
30
1E-16
0
SPLINE
5
F2
100
AcDbEntity
8
1
62
256
6
ByLayer
370
18
48
1
60
0
100
AcDbSpline
70
4
71
3
72
56
73
52
40
0
40
0
40
0
40
0
40
0.0232541063702843
40
0.0232541063702843
40
0.0557765293936402
40
0.0557765293936402
40
0.0882989524169961
40
0.0882989524169961
40
0.120821375440352
40
0.120821375440352
40
0.153343798463708
40
0.153343798463708
40
0.185866221487064
40
0.185866221487064
40
0.21838864451042
40
0.21838864451042
40
0.250911067533776
40
0.250911067533776
40
0.283433490557132
40
0.283433490557132
40
0.348478336603844
40
0.348478336603844
40
0.381000759627201
40
0.381000759627201
40
0.413523182650558
40
0.413523182650558
40
0.446045605673915
40
0.446045605673915
40
0.478568028697272
40
0.478568028697272
40
0.543612874743984
40
0.543612874743984
40
0.608657720790697
40
0.608657720790697
40
0.673702566837409
40
0.673702566837409
40
0.738747412884122
40
0.738747412884122
40
0.803792258930834
40
0.803792258930834
40
0.868837104977547
40
0.868837104977547
40
0.901359528000904
40
0.901359528000904
40
0.933881951024261
40
0.933881951024261
40
0.966404374047618
40
0.966404374047618
40
0.998926797070975
40
0.998926797070975
40
1
40
1
40
1
40
1
41
1
10
18.659232373849
20
3.17830653664481
30
0
41
1
10
18.8427507410189
20
3.20461984875198
30
0
41
1
10
19.0261801328117
20
3.2275782796342
30
0
41
1
10
19.4665222822089
20
3.27429356430386
30
0
41
1
10
19.7234264496658
20
3.29484544456906
30
0
41
1
10
20.2375729446612
20
3.32241172154704
30
0
41
1
10
20.4948583395105
20
3.32936056201731
30
0
41
1
10
21.0112996404044
20
3.32934664782061
30
0
41
1
10
21.2702431101127
20
3.32244093460815
30
0
41
1
10
21.7896453126751
20
3.29446922811303
30
0
41
1
10
22.0498621726144
20
3.27333067466438
30
0
41
1
10
22.5693363678899
20
3.21773388668879
30
0
41
1
10
22.8288273889638
20
3.18318454011057
30
0
41
1
10
23.3474311172716
20
3.10060289798659
30
0
41
1
10
23.6065645682969
20
3.05253310463578
30
0
41
1
10
24.1260113413043
20
2.94408091002509
30
0
41
1
10
24.3864086854111
20
2.88341064642461
30
0
41
1
10
24.9062451867537
20
2.74994476723427
30
1E-16
41
1
10
25.165677389894
20
2.67728787021133
30
1E-16
41
1
10
25.9440154136446
20
2.44355726900048
30
-1E-16
41
1
10
26.4620381359239
20
2.26545832621301
30
-1E-16
41
1
10
27.2424998631451
20
1.97166845166655
30
-1E-16
41
1
10
27.5025972608956
20
1.86938246294295
30
-1E-16
41
1
10
28.0215062185393
20
1.65717580791664
30
-1E-16
41
1
10
28.2807310918676
20
1.54749511753945
30
-1E-16
41
1
10
28.7995261268231
20
1.32251878719944
30
-1E-16
41
1
10
29.0589325680935
20
1.20692055247952
30
-1E-16
41
1
10
29.5782112120591
20
0.970292556142738
30
-1E-16
41
1
10
29.8385636997312
20
0.849447374048026
30
-1E-16
41
1
10
30.6181177948593
20
0.483604037506382
30
0
41
1
10
31.1358900919626
20
0.233476281355451
30
0
41
1
10
32.1739471110196
20
-0.265988377177848
30
0
41
1
10
32.6949433549756
20
-0.517589017504861
30
0
41
1
10
33.728606762667
20
-1.00204270713968
30
1E-16
41
1
10
34.2420886558662
20
-1.23748629220154
30
1E-16
41
1
10
35.2688322944101
20
-1.68216823950783
30
1E-16
41
1
10
35.7812116597489
20
-1.89309901969557
30
1E-16
41
1
10
36.8103976334676
20
-2.28036499802622
30
1E-16
41
1
10
37.326614516676
20
-2.45827418022503
30
2E-16
41
1
10
38.3672814340576
20
-2.77050674902546
30
-1E-16
41
1
10
38.8850073757785
20
-2.9045281741445
30
0
41
1
10
39.6628616613364
20
-3.0669477897444
30
0
41
1
10
39.9220735732151
20
-3.11494072837718
30
0
41
1
10
40.4411644445367
20
-3.19775685604307
30
0
41
1
10
40.7015915688874
20
-3.23232262373068
30
0
41
1
10
41.2209693804585
20
-3.28768567284675
30
0
41
1
10
41.4801429342376
20
-3.30854869767663
30
0
41
1
10
41.9985620541118
20
-3.33624493638146
30
0
41
1
10
42.2578867617485
20
-3.34310346893045
30
0
41
1
10
42.5258821229215
20
-3.34294350431148
30
0
41
1
10
42.5344436226212
20
-3.34293067943295
30
0
41
1
10
42.5430055532604
20
-3.34291013907267
30
0
0
SPLINE
5
F3
100
AcDbEntity
8
1
62
256
6
ByLayer
370
18
48
1
60
0
100
AcDbSpline
70
4
71
3
72
38
73
34
40
0
40
0
40
0
40
0
40
0.0757029819452169
40
0.0757029819452169
40
0.113554472917825
40
0.113554472917825
40
0.151405963890434
40
0.151405963890434
40
0.189257454863042
40
0.189257454863042
40
0.227108945835651
40
0.227108945835651
40
0.302811927780868
40
0.302811927780868
40
0.454217891671301
40
0.454217891671301
40
0.492069382643911
40
0.492069382643911
40
0.529920873616521
40
0.529920873616521
40
0.60562385556174
40
0.60562385556174
40
0.681326837506959
40
0.681326837506959
40
0.719178328479568
40
0.719178328479568
40
0.757029819452177
40
0.757029819452177
40
0.832732801397393
40
0.832732801397393
40
0.908435783342609
40
0.908435783342609
40
1
40
1
40
1
40
1
41
1
10
53.616811932499
20
-3.3079261272087
30
0
41
1
10
53.0930894601733
20
-3.26753795960556
30
0
41
1
10
52.5702471186966
20
-3.19887461851854
30
0
41
1
10
51.7840415845163
20
-3.05548519260586
30
0
41
1
10
51.5217572374278
20
-3.00095027431035
30
0
41
1
10
50.9984148076622
20
-2.87955783131164
30
0
41
1
10
50.7370437434844
20
-2.81264709192567
30
0
41
1
10
50.2142974258628
20
-2.66710427106886
30
2E-16
41
1
10
49.9529228547688
20
-2.58846951866556
30
2E-16
41
1
10
49.429508614625
20
-2.42028670225341
30
1E-16
41
1
10
49.1669340114049
20
-2.33054215729774
30
1E-16
41
1
10
48.3819352923655
20
-2.04795668643044
30
1E-16
41
1
10
47.8624457569453
20
-1.84179917344468
30
1E-16
41
1
10
46.3080483249824
20
-1.18425025173974
30
1E-16
41
1
10
45.2773573448284
20
-0.693317901424393
30
0
41
1
10
43.971074600294
20
-0.0638506830409824
30
0
41
1
10
43.7082627489452
20
0.0631509620508268
30
0
41
1
10
43.1852178825947
20
0.315267165622373
30
0
41
1
10
42.9246626034758
20
0.440519204214041
30
0
41
1
10
42.1448556095296
20
0.811706412694576
30
0
41
1
10
41.6274741197724
20
1.05309045820425
30
-1E-16
41
1
10
40.592734933919
20
1.51389713208059
30
-1E-16
41
1
10
40.0754564583752
20
1.73347842219817
30
-1E-16
41
1
10
39.2960435681598
20
2.03961436742114
30
-1E-16
41
1
10
39.0356510108159
20
2.13777943620886
30
-1E-16
41
1
10
38.5130925273764
20
2.32522234218104
30
-1E-16
41
1
10
38.250425457252
20
2.41462138292485
30
-1E-16
41
1
10
37.4644323316862
20
2.66589905735086
30
-2E-16
41
1
10
36.9420639578051
20
2.81140314209219
30
0
41
1
10
35.8954119582691
20
3.05239835537827
30
0
41
1
10
35.3696226478648
20
3.14797668015478
30
0
41
1
10
34.2180098439248
20
3.29658218137053
30
0
41
1
10
33.5919149747332
20
3.33716386775887
30
0
41
1
10
32.9658314615817
20
3.33689751636956
30
0
0
SPLINE
5
F4
100
AcDbEntity
8
1
62
256
6
ByLayer
370
18
48
1
60
0
100
AcDbSpline
70
4
71
3
72
20
73
16
40
0
40
0
40
0
40
0
40
0.0372273785180648
40
0.0372273785180648
40
0.197689482098388
40
0.197689482098388
40
0.358151585678711
40
0.358151585678711
40
0.438382637468873
40
0.438382637468873
40
0.518613689259034
40
0.518613689259034
40
0.679075792839356
40
0.679075792839356
40
1
40
1
40
1
40
1
41
1
10
13.3148478507291
20
-3.17274858151595
30
0
41
1
10
13.1945679421368
20
-3.18994765967852
30
0
41
1
10
13.0742222447657
20
-3.20571622529135
30
0
41
1
10
12.4346391717142
20
-3.28171358951519
30
0
41
1
10
11.91371072589
20
-3.31640473650606
30
0
41
1
10
10.8633896766965
20
-3.3284828084748
30
0
41
1
10
10.3400338223292
20
-3.30577487528976
30
0
41
1
10
9.55478283342754
20
-3.22975546533957
30
0
41
1
10
9.29295250797324
20
-3.19742666485726
30
0
41
1
10
8.76847731418965
20
-3.11907491318763
30
0
41
1
10
8.50551889679684
20
-3.07296519534174
30
0
41
1
10
7.72051533830907
20
-2.91587161404223
30
0
41
1
10
7.2004792141621
20
-2.78599766503047
30
-1E-16
41
1
10
5.64322276731139
20
-2.33045639478607
30
1E-16
41
1
10
4.60862344415759
20
-1.93890503105035
30
1E-16
41
1
10
3.5584513196917
20
-1.48842781971229
30
1E-16
0
SPLINE
5
F5
100
AcDbEntity
8
1
62
256
6
ByLayer
370
18
48
1
60
0
100
AcDbSpline
70
4
71
3
72
36
73
32
40
0
40
0
40
0
40
0
40
0.0132206766953115
40
0.0132206766953115
40
0.083911926552462
40
0.083911926552462
40
0.154603176409613
40
0.154603176409613
40
0.225294426266763
40
0.225294426266763
40
0.295985676123914
40
0.295985676123914
40
0.366676925981065
40
0.366676925981065
40
0.437368175838215
40
0.437368175838215
40
0.508059425695366
40
0.508059425695366
40
0.578750675552517
40
0.578750675552517
40
0.649441925409671
40
0.649441925409671
40
0.720133175266824
40
0.720133175266824
40
0.790824425123978
40
0.790824425123978
40
0.861515674981132
40
0.861515674981132
40
0.932206924838286
40
0.932206924838286
40
1
40
1
40
1
40
1
41
1
10
20.5958204180156
20
3.17301814977668
30
0
41
1
10
20.6446265262
20
3.1735343539423
30
0
41
1
10
20.6934739657623
20
3.17379241700724
30
0
41
1
10
21.003808598483
20
3.17372217025411
30
0
41
1
10
21.2652579909215
20
3.16664418567711
30
0
41
1
10
21.785498783446
20
3.14025638866485
30
0
41
1
10
22.0447308451573
20
3.12095612660573
30
0
41
1
10
22.5625960420391
20
3.06782173242121
30
0
41
1
10
22.8210986052791
20
3.03469469908953
30
0
41
1
10
23.3373929513069
20
2.95671352779235
30
0
41
1
10
23.5951631037306
20
2.91188399015911
30
0
41
1
10
24.1112914243723
20
2.80920440603816
30
1E-16
41
1
10
24.369454604837
20
2.75184669251814
30
1E-16
41
1
10
24.8861551789468
20
2.62612650359583
30
1E-16
41
1
10
25.1447683740243
20
2.55763304061944
30
1E-16
41
1
10
25.6635301409117
20
2.4094834344946
30
-1E-16
41
1
10
25.9236032113954
20
2.32993930048548
30
-1E-16
41
1
10
26.4451130172985
20
2.1609716814861
30
-1E-16
41
1
10
26.7069637812016
20
2.07131868960568
30
-1E-16
41
1
10
27.2295856741697
20
1.88385766675191
30
-1E-16
41
1
10
27.4906879612873
20
1.78598972510281
30
-1E-16
41
1
10
28.0127093442052
20
1.58297051240444
30
-1E-16
41
1
10
28.2737836764452
20
1.47783144674389
30
-1E-16
41
1
10
28.7969066138498
20
1.26147309084485
30
-1E-16
41
1
10
29.0584605364855
20
1.15034937616795
30
-1E-16
41
1
10
29.5805788477841
20
0.923749039598562
30
-1E-16
41
1
10
29.8414787299486
20
0.808336526452194
30
0
41
1
10
30.3636499488677
20
0.574653006315458
30
0
41
1
10
30.6247902709327
20
0.456215695765735
30
0
41
1
10
31.1369801111709
20
0.222178613185292
30
0
41
1
10
31.3873380045705
20
0.107260951139068
30
0
41
1
10
31.6367791702044
20
-0.0071297824657393
30
0
0
SPLINE
5
F6
100
AcDbEntity
8
1
62
256
6
ByLayer
370
18
48
1
60
0
100
AcDbSpline
70
4
71
3
72
16
73
12
40
0
40
0
40
0
40
0
40
0.225498494574842
40
0.225498494574842
40
0.453205015397953
40
0.453205015397953
40
0.650558647875165
40
0.650558647875165
40
0.825529661475514
40
0.825529661475514
40
1
40
1
40
1
40
1
41
1
10
53.8060610284637
20
-3.15377266188719
30
0
41
1
10
53.8061405279925
20
-3.15393643409107
30
0
41
1
10
53.8061641977203
20
-3.15427858792103
30
0
41
1
10
53.8060748617675
20
-3.15533031807476
30
0
41
1
10
53.8059579094888
20
-3.1560635559598
30
0
41
1
10
53.8056071714535
20
-3.15772162201606
30
0
41
1
10
53.8053851233674
20
-3.15863398050314
30
0
41
1
10
53.804893273353
20
-3.16045557250834
30
0
41
1
10
53.8046254170161
20
-3.16137704798285
30
0
41
1
10
53.8040644583776
20
-3.16319282617027
30
0
41
1
10
53.8037648269923
20
-3.16410908208866
30
0
41
1
10
53.8034672291448
20
-3.16497519728321
30
0
0
SPLINE
5
F7
100
AcDbEntity
8
1
62
256
6
ByLayer
370
18
48
1
60
0
100
AcDbSpline
70
4
71
3
72
8
73
4
40
0
40
0
40
0
40
0
40
1
40
1
40
1
40
1
41
1
10
3.59770368209098
20
-1.43380656165004
30
1E-16
41
1
10
3.58473509000214
20
-1.42852232721319
30
1E-16
41
1
10
3.57205873827905
20
-1.4245882157943
30
1E-16
41
1
10
3.56008651187622
20
-1.42215083414405
30
1E-16
0
SPLINE
5
F8
100
AcDbEntity
8
1
62
256
6
ByLayer
370
18
48
1
60
0
100
AcDbSpline
70
4
71
3
72
46
73
42
40
0
40
0
40
0
40
0
40
0.0088853869675099
40
0.0088853869675099
40
0.140076072163193
40
0.140076072163193
40
0.172873743462114
40
0.172873743462114
40
0.205671414761035
40
0.205671414761035
40
0.271266757358878
40
0.271266757358878
40
0.304064428657799
40
0.304064428657799
40
0.336862099956721
40
0.336862099956721
40
0.402457442554566
40
0.402457442554566
40
0.435255113853487
40
0.435255113853487
40
0.468052785152409
40
0.468052785152409
40
0.533648127750252
40
0.533648127750252
40
0.566445799049174
40
0.566445799049174
40
0.599243470348095
40
0.599243470348095
40
0.664838812945938
40
0.664838812945938
40
0.73043415554378
40
0.73043415554378
40
0.763231826842701
40
0.763231826842701
40
0.796029498141622
40
0.796029498141622
40
0.927220183337307
40
0.927220183337307
40
0.99281552593515
40
0.99281552593515
40
1
40
1
40
1
40
1
41
1
10
35.0604559095456
20
-3.18635169901654
30
0
41
1
10
34.9897040067411
20
-3.19649303038437
30
0
41
1
10
34.9190187014432
20
-3.20612315532307
30
0
41
1
10
33.8060072343311
20
-3.34974749361041
30
0
41
1
10
32.775389119727
20
-3.37279551742242
30
0
41
1
10
31.4775472037185
20
-3.26181455456575
30
0
41
1
10
31.2175286670706
20
-3.23264859273886
30
0
41
1
10
30.6959461943469
20
-3.1604767469907
30
0
41
1
10
30.4340863910576
20
-3.11743724211149
30
0
41
1
10
29.6469005244185
20
-2.96825556884025
30
0
41
1
10
29.1242647188387
20
-2.84263870313973
30
0
41
1
10
28.3393938520511
20
-2.61958070905683
30
2E-16
41
1
10
28.0776640979257
20
-2.53941115912303
30
2E-16
41
1
10
27.5533577567513
20
-2.36818829684557
30
1E-16
41
1
10
27.290755989794
20
-2.27718890385506
30
1E-16
41
1
10
26.5049247554813
20
-1.99096287121341
30
1E-16
41
1
10
25.9824080982291
20
-1.78174745454416
30
1E-16
41
1
10
25.1966423602532
20
-1.44731546637172
30
1E-16
41
1
10
24.9340847297606
20
-1.33216372700886
30
1E-16
41
1
10
24.4096289960401
20
-1.09695846310177
30
1E-16
41
1
10
24.1478145708842
20
-0.977009919834785
30
1E-16
41
1
10
23.3627236392116
20
-0.611939977932479
30
0
41
1
10
22.8399913137894
20
-0.36118797634677
30
0
41
1
10
22.0525719934783
20
0.0171189519398069
30
0
41
1
10
21.7906755461357
20
0.143406786202462
30
0
41
1
10
21.2689065910571
20
0.393617179413667
30
0
41
1
10
21.0087493798185
20
0.517656850038975
30
0
41
1
10
20.2296568691335
20
0.884972916536583
30
-1E-16
41
1
10
19.7123233662604
20
1.12388408220562
30
-1E-16
41
1
10
18.6761966583124
20
1.57855944884241
30
-1E-16
41
1
10
18.1577749501869
20
1.79505081383471
30
-1E-16
41
1
10
17.3754487331081
20
2.09547110505241
30
-1E-16
41
1
10
17.1140010709227
20
2.19175787207504
30
-1E-16
41
1
10
16.5889500181475
20
2.37510222223457
30
-1E-16
41
1
10
16.3272729020038
20
2.46147995966177
30
-2E-16
41
1
10
15.0232340679299
20
2.86498133676886
30
0
41
1
10
13.9920641428383
20
3.09665523233082
30
0
41
1
10
12.4346391717142
20
3.28171358951519
30
0
41
1
10
11.91371072589
20
3.31640473650606
30
0
41
1
10
11.3310308406279
20
3.32310521117933
30
0
41
1
10
11.2735331291604
20
3.32342179527367
30
0
41
1
10
11.2160545054539
20
3.32339454344299
30
0
0
SPLINE
5
F9
100
AcDbEntity
8
1
62
256
6
ByLayer
370
18
48
1
60
0
100
AcDbSpline
70
4
71
3
72
8
73
4
40
0
40
0
40
0
40
0
40
1
40
1
40
1
40
1
41
1
10
54.9969107438972
20
0.184951339052134
30
0
41
1
10
54.9824404498659
20
0.136720728275549
30
0
41
1
10
54.9678981203447
20
0.0885131149278777
30
0
41
1
10
54.9532840287008
20
0.0403284117361977
30
0
0
SPLINE
5
FA
100
AcDbEntity
8
1
62
256
6
ByLayer
370
18
48
1
60
0
100
AcDbSpline
70
4
71
3
72
22
73
18
40
0
40
0
40
0
40
0
40
0.0786472624580712
40
0.0786472624580712
40
0.157294524916142
40
0.157294524916142
40
0.314589049832285
40
0.314589049832285
40
0.471883574748428
40
0.471883574748428
40
0.550530837206501
40
0.550530837206501
40
0.629178099664575
40
0.629178099664575
40
0.943767149496867
40
0.943767149496867
40
1
40
1
40
1
40
1
41
1
10
53.8034672291447
20
-3.16497519728321
30
0
41
1
10
53.5402287609019
20
-3.14853621658025
30
0
41
1
10
53.2778529178496
20
-3.12613221180877
30
0
41
1
10
52.7546700777753
20
-3.06730431343041
30
0
41
1
10
52.4938006325998
20
-3.03128155090735
30
0
41
1
10
51.7126148885074
20
-2.90445034480027
30
0
41
1
10
51.1937174989464
20
-2.79492284323092
30
-1E-16
41
1
10
50.1550745655738
20
-2.53070423831753
30
-1E-16
41
1
10
49.6353939352699
20
-2.37597668528957
30
1E-16
41
1
10
48.8518089585538
20
-2.11442647692553
30
1E-16
41
1
10
48.5899260550169
20
-2.02232081860481
30
1E-16
41
1
10
48.0642918685292
20
-1.82910566466148
30
1E-16
41
1
10
47.7998142906205
20
-1.72769464979868
30
1E-16
41
1
10
46.4844106954623
20
-1.20577453242902
30
1E-16
41
1
10
45.4497262428602
20
-0.739068859629498
30
0
41
1
10
44.2292284559686
20
-0.179404990843551
30
0
41
1
10
44.0441295387004
20
-0.0942684046652005
30
0
41
1
10
43.8589176107619
20
-0.0090782803937088
30
0
0
SPLINE
5
FB
100
AcDbEntity
8
1
62
256
6
ByLayer
370
18
48
1
60
0
100
AcDbSpline
70
4
71
3
72
20
73
16
40
0
40
0
40
0
40
0
40
0.212364483347824
40
0.212364483347824
40
0.310818922929345
40
0.310818922929345
40
0.409273362510866
40
0.409273362510866
40
0.606182241673911
40
0.606182241673911
40
0.803091120836955
40
0.803091120836955
40
0.901545560418478
40
0.901545560418478
40
1
40
1
40
1
40
1
41
1
10
11.5837899758974
20
-3.16155486004808
30
0
41
1
10
11.0210352145638
20
-3.17494545109227
30
0
41
1
10
10.4569890234032
20
-3.15711038453881
30
0
41
1
10
9.62539202398847
20
-3.08427916566831
30
0
41
1
10
9.36055091966378
20
-3.05428500637291
30
0
41
1
10
8.83365942428773
20
-2.98147753059871
30
0
41
1
10
8.5711013786277
20
-2.93865141618969
30
0
41
1
10
7.78522783380294
20
-2.79189747633092
30
-1E-16
41
1
10
7.26366747585917
20
-2.66964143014991
30
-1E-16
41
1
10
6.22088057123062
20
-2.38244485844166
30
1E-16
41
1
10
5.69971292175234
20
-2.21714505293212
30
1E-16
41
1
10
4.91476106283375
20
-1.94241172121079
30
1E-16
41
1
10
4.65254567151788
20
-1.84633262648842
30
1E-16
41
1
10
4.12643231322082
20
-1.64598549804785
30
1E-16
41
1
10
3.86219405277436
20
-1.54157686665707
30
1E-16
41
1
10
3.59770368209098
20
-1.43380656165004
30
1E-16
0
SPLINE
5
FC
100
AcDbEntity
8
1
62
256
6
ByLayer
370
18
48
1
60
0
100
AcDbSpline
70
4
71
3
72
8
73
4
40
0
40
0
40
0
40
0
40
1
40
1
40
1
40
1
41
1
10
3.63968491583168
20
2.46257491939909
30
1E-16
41
1
10
3.62797767016491
20
2.46588895187216
30
1E-16
41
1
10
3.61539136136326
20
2.46756569078775
30
1E-16
41
1
10
3.60249089084058
20
2.46754896213909
30
1E-16
0
SPLINE
5
FD
100
AcDbEntity
8
1
62
256
6
ByLayer
370
18
48
1
60
0
100
AcDbSpline
70
4
71
3
72
22
73
18
40
0
40
0
40
0
40
0
40
0.249999999999998
40
0.249999999999998
40
0.374999999999998
40
0.374999999999998
40
0.437499999999998
40
0.437499999999998
40
0.499999999999998
40
0.499999999999998
40
0.624999999999998
40
0.624999999999998
40
0.749999999999999
40
0.749999999999999
40
0.874999999999999
40
0.874999999999999
40
1
40
1
40
1
40
1
41
1
10
53.8362369270845
20
-3.21250149907436
30
0
41
1
10
53.9015642756127
20
-3.02901202804245
30
0
41
1
10
53.9662014528727
20
-2.84435604230023
30
0
41
1
10
54.0633322001913
20
-2.56664598931096
30
0
41
1
10
54.0957226728409
20
-2.4739716765142
30
0
41
1
10
54.1444322137555
20
-2.33492455473726
30
0
41
1
10
54.1606868941262
20
-2.28857637917102
30
0
41
1
10
54.193253792543
20
-2.19588980510161
30
0
41
1
10
54.2094903805287
20
-2.14953080557476
30
0
41
1
10
54.2592314495546
20
-2.01072715902475
30
0
41
1
10
54.2937875117335
20
-1.91819316655122
30
0
41
1
10
54.3650574015455
20
-1.7374612634604
30
0
41
1
10
54.4018962521444
20
-1.64893780377395
30
0
41
1
10
54.4788836038455
20
-1.47600430698466
30
0
41
1
10
54.5190444969742
20
-1.39161121404555
30
0
41
1
10
54.6033515179974
20
-1.22711463920777
30
0
41
1
10
54.6473175167918
20
-1.14743534110832
30
0
41
1
10
54.6923371530826
20
-1.07187132974718
30
0
0
SPLINE
5
FE
100
AcDbEntity
8
1
62
256
6
ByLayer
370
18
48
1
60
0
100
AcDbSpline
70
4
71
3
72
16
73
12
40
0
40
0
40
0
40
0
40
0.056315786007185
40
0.161796193346297
40
0.273852220378106
40
0.425370460579859
40
0.537981136816264
40
0.598357330050149
40
0.700984494146993
40
0.846225188037297
40
1
40
1
40
1
40
1
41
1
10
11.7200129536593
20
0.140195404245645
30
0
41
1
10
11.6248918183536
20
0.168373108844776
30
0
41
1
10
11.351839399213
20
0.250166899626521
30
0
41
1
10
10.8908633813311
20
0.393382735469004
30
0
41
1
10
10.271521299451
20
0.59184545901482
30
0
41
1
10
9.64255212847945
20
0.801814963910118
30
0
41
1
10
9.10272636746927
20
0.988982804571947
30
-1E-16
41
1
10
8.64571815031456
20
1.15127919222638
30
-1E-16
41
1
10
8.13533413131069
20
1.33669625987568
30
-1E-16
41
1
10
7.47271580688022
20
1.58507742351801
30
-1E-16
41
1
10
6.98203800164674
20
1.77721427915549
30
-1E-16
41
1
10
6.73035236967479
20
1.87783677528566
30
-1E-16
0
SPLINE
5
FF
100
AcDbEntity
8
1
62
256
6
ByLayer
370
18
48
1
60
0
100
AcDbSpline
70
4
71
3
72
12
73
8
40
0
40
0
40
0
40
0
40
0.0797983024979643
40
0.253902854448401
40
0.444814110372616
40
0.708876729516944
40
1
40
1
40
1
40
1
41
1
10
53.9376299554895
20
0.538204385076995
30
0
41
1
10
53.8382628752199
20
0.569913356451735
30
0
41
1
10
53.5224752472098
20
0.671923321732351
30
0
41
1
10
52.9718420044487
20
0.858583346956266
30
-1E-16
41
1
10
52.1959761240868
20
1.13015287568385
30
-1E-16
41
1
10
51.2805785155026
20
1.4658281680847
30
-1E-16
41
1
10
50.6044079888736
20
1.72850941040286
30
-1E-16
41
1
10
50.2511603308365
20
1.86974887438745
30
-1E-16
0
SPLINE
5
100
100
AcDbEntity
8
1
62
256
6
ByLayer
370
18
48
1
60
0
100
AcDbSpline
70
4
71
1
72
4
73
2
40
0
40
0
40
1
40
1
41
1
10
50.2511603308365
20
1.86974887438745
30
-1E-16
41
1
10
50.0811513380945
20
1.935783137599
30
-1E-16
0
SPLINE
5
101
100
AcDbEntity
8
1
62
256
6
ByLayer
370
18
48
1
60
0
100
AcDbSpline
70
4
71
3
72
20
73
16
40
0
40
0
40
0
40
0
40
0.112735723962266
40
0.184864559115693
40
0.244699549787873
40
0.314301069186087
40
0.387808854843251
40
0.461234816719984
40
0.532581534095412
40
0.597058318301906
40
0.716278354559724
40
0.843316803820422
40
0.913087425630627
40
0.990287124347873
40
1
40
1
40
1
40
1
41
1
10
20.7422440881791
20
3.16379253960193
30
0
41
1
10
20.4631300062033
20
3.16318654620872
30
0
41
1
10
20.0054394877929
20
3.16254517590693
30
0
41
1
10
19.3993724433336
20
3.16262515479451
30
0
41
1
10
18.900504488136
20
3.16289332454426
30
0
41
1
10
18.397878527976
20
3.16133617780312
30
0
41
1
10
17.8616725268195
20
3.1616306355001
30
0
41
1
10
17.3211230768306
20
3.16162682789255
30
0
41
1
10
16.8029445422112
20
3.1602188029442
30
0
41
1
10
16.1713607539087
20
3.16058970487904
30
0
41
1
10
15.4018616691433
20
3.15925875826713
30
0
41
1
10
14.6192539284317
20
3.15913323016417
30
0
41
1
10
13.940707699491
20
3.15822801483014
30
0
41
1
10
13.5527006379766
20
3.15805925651091
30
0
41
1
10
13.3374736078062
20
3.15790144286507
30
0
41
1
10
13.3134210259689
20
3.15788308897911
30
0
0
SPLINE
5
102
100
AcDbEntity
8
1
62
256
6
ByLayer
370
18
48
1
60
0
100
AcDbSpline
70
4
71
3
72
20
73
16
40
0
40
0
40
0
40
0
40
1.876431131E-06
40
0.0001608256363679
40
0.0002295148803281
40
0.0002963324814283
40
0.000559376350985
40
0.002603836580454
40
0.0042164949762186
40
0.0071147452094333
40
0.0123492084035331
40
0.0218847286372785
40
0.0395131566958491
40
0.626262123509275
40
1
40
1
40
1
40
1
41
1
10
12.2733944286447
20
-0.0240802259611797
30
0
41
1
10
12.2733954283081
20
-0.024080196449135
30
0
41
1
10
12.2734015640822
20
-0.0240800084999364
30
0
41
1
10
12.2734070911291
20
-0.0240781650541066
30
0
41
1
10
12.2733816882436
20
-0.0240710314169803
30
0
41
1
10
12.2733352158904
20
-0.0240548134260905
30
0
41
1
10
12.2729591883153
20
-0.0239346056075647
30
0
41
1
10
12.2722070010228
20
-0.0237115573473829
30
0
41
1
10
12.2710444264741
20
-0.0233568899729448
30
0
41
1
10
12.269281929032
20
-0.0228234787825272
30
0
41
1
10
12.2661047141508
20
-0.0218609922685573
30
0
41
1
10
12.260257986364
20
-0.0200954908116842
30
0
41
1
10
12.1492718575591
20
0.0132748029501499
30
0
41
1
10
11.9673458574438
20
0.0656260919543854
30
0
41
1
10
11.7895650907029
20
0.119212547424553
30
0
41
1
10
11.7200129536593
20
0.140195404245645
30
0
0
SPLINE
5
103
100
AcDbEntity
8
1
62
256
6
ByLayer
370
18
48
1
60
0
100
AcDbSpline
70
4
71
3
72
28
73
24
40
0
40
0
40
0
40
0
40
1.5974977063E-05
40
2.69552321718E-05
40
3.70675308415E-05
40
4.67542502618E-05
40
5.66243484023E-05
40
7.78394478446E-05
40
0.0005011458944274
40
0.0008374123857203
40
0.0014464428876455
40
0.0025612800421166
40
0.0046390783233838
40
0.0086270079301038
40
0.0166339503903067
40
0.102240813217833
40
0.21004225786103
40
0.320211172729145
40
0.433303570312966
40
0.551247355868729
40
0.674217329802147
40
0.822160396201388
40
1
40
1
40
1
40
1
41
1
10
34.1616895432193
20
-0.0680587343719594
30
0
41
1
10
34.1616970394671
20
-0.0680603803783129
30
0
41
1
10
34.161704800268
20
-0.0680615683007773
30
0
41
1
10
34.1616933523634
20
-0.0680554398365416
30
0
41
1
10
34.1616813159499
20
-0.0680511730017201
30
0
41
1
10
34.1616536245204
20
-0.0680423539224648
30
0
41
1
10
34.1615969852872
20
-0.0680252714749088
30
0
41
1
10
34.1608008852718
20
-0.0677931169574606
30
0
41
1
10
34.159254199723
20
-0.0673562894340023
30
0
41
1
10
34.1566853865792
20
-0.0666209152319084
30
0
41
1
10
34.1527670772263
20
-0.0655025951592165
30
0
41
1
10
34.1455656899995
20
-0.0634440782066861
30
0
41
1
10
34.1319343421862
20
-0.0595459132837846
30
0
41
1
10
34.1052077952772
20
-0.0518905580586022
30
0
41
1
10
33.9195492534824
20
0.0014421105547058
30
0
41
1
10
33.5350406282698
20
0.114115487158728
30
0
41
1
10
32.957350888015
20
0.289634897300658
30
0
41
1
10
32.3287406898497
20
0.488305502391
30
0
41
1
10
31.682328215888
20
0.700770939096145
30
0
41
1
10
31.0142647951761
20
0.929001289932359
30
-1E-16
41
1
10
30.2832824797361
20
1.18860177140769
30
-1E-16
41
1
10
29.4434745959466
20
1.49905367768406
30
-1E-16
41
1
10
28.8377177264692
20
1.73479220253193
30
-1E-16
41
1
10
28.508154424788
20
1.86648360773773
30
-1E-16
0
SPLINE
5
104
100
AcDbEntity
8
1
62
256
6
ByLayer
370
18
48
1
60
0
100
AcDbSpline
70
4
71
3
72
23
73
19
40
0
40
0
40
0
40
0
40
0.0975756363536674
40
0.174892803360063
40
0.261904260533831
40
0.314660084288762
40
0.367107378170864
40
0.422646777950942
40
0.483186957951999
40
0.548714150153172
40
0.619208905224662
40
0.691015263232894
40
0.780870171690515
40
0.856017409539001
40
0.927355112244226
40
0.960741952728374
40
0.992532863499689
40
1
40
1
40
1
40
1
41
1
10
11.2089084759403
20
-3.15596131178293
30
0
41
1
10
11.4500291818826
20
-3.15617306832277
30
0
41
1
10
11.8822828490969
20
-3.15656298822938
30
0
41
1
10
12.529814720483
20
-3.15699067381212
30
0
41
1
10
13.0666350664367
20
-3.15769110586666
30
0
41
1
10
13.5414639533423
20
-3.1580476237892
30
0
41
1
10
13.9388529826538
20
-3.15826594804537
30
0
41
1
10
14.3555293575733
20
-3.1587365341737
30
0
41
1
10
14.8045406282074
20
-3.15920479601334
30
0
41
1
10
15.2905052814725
20
-3.15933634747287
30
0
41
1
10
15.8043586467204
20
-3.1599731338849
30
0
41
1
10
16.3783539675591
20
-3.16051877666521
30
0
41
1
10
16.9638554938944
20
-3.1604055115134
30
0
41
1
10
17.5481959690331
20
-3.16191588138133
30
0
41
1
10
17.9929234409747
20
-3.16148738655355
30
0
41
1
10
18.3304522105735
20
-3.16156119660991
30
0
41
1
10
18.5100644017405
20
-3.1617995199183
30
0
41
1
10
18.6071264902089
20
-3.16199950272937
30
0
41
1
10
18.6255882728779
20
-3.16203899172171
30
0
0
SPLINE
5
105
100
AcDbEntity
8
1
62
256
6
ByLayer
370
18
48
1
60
0
100
AcDbSpline
70
4
71
3
72
19
73
15
40
0
40
0
40
0
40
0
40
0.108758819322194
40
0.183484567207584
40
0.251221487769065
40
0.340302658469456
40
0.433391429194105
40
0.522262054640531
40
0.599322341804846
40
0.719728404386019
40
0.849533246474338
40
0.920528426136377
40
0.998248082699424
40
1
40
1
40
1
40
1
41
1
10
32.9628563546218
20
-3.16961390163715
30
0
41
1
10
33.2301449463018
20
-3.16983974043759
30
0
41
1
10
33.6810905986337
20
-3.17018455369535
30
0
41
1
10
34.2988158705468
20
-3.17061111962053
30
0
41
1
10
34.8676732375418
20
-3.17087756217421
30
0
41
1
10
35.4821667352406
20
-3.17118907570492
30
0
41
1
10
36.1484646431846
20
-3.17188251777191
30
0
41
1
10
36.7852464645754
20
-3.17148132463706
30
0
41
1
10
37.489176378885
20
-3.17307483925617
30
0
41
1
10
38.2937293177524
20
-3.17174863730364
30
0
41
1
10
39.0833939199265
20
-3.17377287182592
30
0
41
1
10
39.768107467036
20
-3.17276268677824
30
0
41
1
10
40.1380174256419
20
-3.1740092729018
30
0
41
1
10
40.333390494848
20
-3.1742835563569
30
0
41
1
10
40.3376974111306
20
-3.17428941965886
30
0
0
SPLINE
5
106
100
AcDbEntity
8
1
62
256
6
ByLayer
370
18
48
1
60
0
100
AcDbSpline
70
4
71
3
72
8
73
4
40
0
40
0
40
0
40
0
40
1
40
1
40
1
40
1
41
1
10
22.5050386210695
20
-0.182220069054892
30
0
41
1
10
22.4871109503691
20
-0.177958228660799
30
0
41
1
10
22.4691825920906
20
-0.173677606643764
30
0
41
1
10
22.4512534491048
20
-0.169378242654489
30
0
0
SPLINE
5
107
100
AcDbEntity
8
1
62
256
6
ByLayer
370
18
48
1
60
0
100
AcDbSpline
70
4
71
3
72
8
73
4
40
0
40
0
40
0
40
0
40
1
40
1
40
1
40
1
41
1
10
18.9217269987448
20
0.98801468763142
30
-1E-16
41
1
10
18.9018215263262
20
0.998263185909877
30
-1E-16
41
1
10
18.8825229135112
20
1.00838922774616
30
-1E-16
41
1
10
18.8638794411182
20
1.01840630104746
30
-1E-16
0
SPLINE
5
108
100
AcDbEntity
8
1
62
256
6
ByLayer
370
18
48
1
60
0
100
AcDbSpline
70
4
71
3
72
22
73
18
40
0
40
0
40
0
40
0
40
0.0956438324372291
40
0.172132375588486
40
0.259860022887843
40
0.311914304886773
40
0.363143616928221
40
0.416466887012947
40
0.473887717600725
40
0.535734634776809
40
0.602820977830165
40
0.673671005197368
40
0.77647949383109
40
0.863475542934325
40
0.948165519195647
40
0.992560493970927
40
1
40
1
40
1
40
1
41
1
10
42.4992384227685
20
3.17412153299782
30
0
41
1
10
42.2627597236725
20
3.17423625966973
30
0
41
1
10
41.8368303731587
20
3.17437912536826
30
0
41
1
10
41.1934120273428
20
3.17305818643192
30
0
41
1
10
40.6563236166414
20
3.17425843045629
30
0
41
1
10
40.1859477166246
20
3.17411680146495
30
0
41
1
10
39.7974295575353
20
3.17299019379792
30
0
41
1
10
39.3961298838165
20
3.17324185451116
30
0
41
1
10
38.9683692739282
20
3.17351282146009
30
0
41
1
10
38.5065449395689
20
3.17250797290987
30
0
41
1
10
38.011425613914
20
3.17231824436985
30
0
41
1
10
37.414796536929
20
3.17290360029645
30
0
41
1
10
36.7688251714514
20
3.17143447657631
30
0
41
1
10
36.0885541749855
20
3.17186920367209
30
0
41
1
10
35.5530469326794
20
3.17129747824913
30
0
41
1
10
35.2147040883564
20
3.17101372566893
30
0
41
1
10
35.0862480134798
20
3.17094526460792
30
0
41
1
10
35.0678114988276
20
3.17093610976284
30
0
0
LINE
5
84
100
AcDbEntity
8
SK1
62
256
6
ByLayer
370
18
48
1
60
0
100
AcDbLine
10
-34.76
20
-4
30
0
11
-34.76
21
4
31
0
39
0
210
0
220
0
230
1
0
LINE
5
86
100
AcDbEntity
8
SK1
62
256
6
ByLayer
370
18
48
1
60
0
100
AcDbLine
10
-36
20
-2.76
30
0
11
-36
21
2.76
31
0
39
0
210
0
220
0
230
1
0
LINE
5
87
100
AcDbEntity
8
SK1
62
256
6
ByLayer
370
18
48
1
60
0
100
AcDbLine
10
0
20
4
30
0
11
0
21
-4
31
0
39
0
210
0
220
0
230
1
0
LINE
5
88
100
AcDbEntity
8
1
62
256
6
ByLayer
370
18
48
1
60
0
100
AcDbLine
10
21.5
20
-0.186238
30
0
11
21.5
21
-0.231279
31
0
39
0
210
0
220
0
230
1
0
LINE
5
89
100
AcDbEntity
8
1
62
256
6
ByLayer
370
18
48
1
60
0
100
AcDbLine
10
3.501697
20
-1.407274
30
0
11
3.501697
21
2.541079
31
0
39
0
210
0
220
0
230
1
0
LINE
5
8A
100
AcDbEntity
8
1
62
256
6
ByLayer
370
18
48
1
60
0
100
AcDbLine
10
1.311505
20
3.317206
30
0
11
1.311505
21
0
31
0
39
0
210
0
220
0
230
1
0
LINE
5
8B
100
AcDbEntity
8
1
62
256
6
ByLayer
370
18
48
1
60
0
100
AcDbLine
10
1.311505
20
0
30
0
11
1.311505
21
-3.317206
31
0
39
0
210
0
220
0
230
1
0
LINE
5
8C
100
AcDbEntity
8
1
62
256
6
ByLayer
370
18
48
1
60
0
100
AcDbLine
10
0
20
4
30
0
11
0
21
0
31
0
39
0
210
0
220
0
230
1
0
LINE
5
8D
100
AcDbEntity
8
1
62
256
6
ByLayer
370
18
48
1
60
0
100
AcDbLine
10
0
20
0
30
0
11
0
21
-4
31
0
39
0
210
0
220
0
230
1
0
LINE
5
8E
100
AcDbEntity
8
1
62
256
6
ByLayer
370
18
48
1
60
0
100
AcDbLine
10
0.655502
20
3.658603
30
0
11
0.655502
21
0
31
0
39
0
210
0
220
0
230
1
0
LINE
5
8F
100
AcDbEntity
8
1
62
256
6
ByLayer
370
18
48
1
60
0
100
AcDbLine
10
0.655502
20
0
30
0
11
0.655502
21
-3.658603
31
0
39
0
210
0
220
0
230
1
0
LINE
5
90
100
AcDbEntity
8
1
62
256
6
ByLayer
370
18
48
1
60
0
100
AcDbLine
10
54.953284
20
0.040328
30
0
11
54.124336
21
0.955343
31
0
39
0
210
0
220
0
230
1
0
LINE
5
91
100
AcDbEntity
8
1
62
256
6
ByLayer
370
18
48
1
60
0
100
AcDbLine
10
20.743379
20
-3.329351
30
0
11
21.748696
21
-3.329979
31
0
39
0
210
0
220
0
230
1
0
LINE
5
92
100
AcDbEntity
8
1
62
256
6
ByLayer
370
18
48
1
60
0
100
AcDbLine
10
42.498223
20
-3.342947
30
0
11
43.480769
21
-3.343561
31
0
39
0
210
0
220
0
230
1
0
LINE
5
93
100
AcDbEntity
8
1
62
256
6
ByLayer
370
18
48
1
60
0
100
AcDbLine
10
43.480769
20
3.343561
30
0
11
42.498223
21
3.342947
31
0
39
0
210
0
220
0
230
1
0
LINE
5
94
100
AcDbEntity
8
1
62
256
6
ByLayer
370
18
48
1
60
0
100
AcDbLine
10
21.748696
20
3.329979
30
0
11
20.743379
21
3.329351
31
0
39
0
210
0
220
0
230
1
0
LINE
5
95
100
AcDbEntity
8
SK1
62
256
6
ByLayer
370
18
48
1
60
0
100
AcDbLine
10
-34.76
20
-4
30
0
11
0
21
-4
31
0
39
0
210
0
220
0
230
1
0
LINE
5
96
100
AcDbEntity
8
SK1
62
256
6
ByLayer
370
18
48
1
60
0
100
AcDbLine
10
0
20
4
30
0
11
-34.76
21
4
31
0
39
0
210
0
220
0
230
1
0
LINE
5
97
100
AcDbEntity
8
SK1
62
256
6
ByLayer
370
18
48
1
60
0
100
AcDbLine
10
-36
20
-2.76
30
0
11
-34.76
21
-4
31
0
39
0
210
0
220
0
230
1
0
LINE
5
98
100
AcDbEntity
8
SK1
62
256
6
ByLayer
370
18
48
1
60
0
100
AcDbLine
10
-34.76
20
4
30
0
11
-36
21
2.76
31
0
39
0
210
0
220
0
230
1
0
LINE
5
99
100
AcDbEntity
8
1
62
256
6
ByLayer
370
18
48
1
60
0
100
AcDbLine
10
1.311505
20
-3.317206
30
0
11
2.115131
21
-3.317708
31
0
39
0
210
0
220
0
230
1
0
LINE
5
9A
100
AcDbEntity
8
1
62
256
6
ByLayer
370
18
48
1
60
0
100
AcDbLine
10
10.148789
20
-3.322729
30
0
11
11.213974
21
-3.323395
31
0
39
0
210
0
220
0
230
1
0
LINE
5
9B
100
AcDbEntity
8
1
62
256
6
ByLayer
370
18
48
1
60
0
100
AcDbLine
10
31.989112
20
-3.336379
30
0
11
32.963589
21
-3.336988
31
0
39
0
210
0
220
0
230
1
0
LINE
5
9C
100
AcDbEntity
8
1
62
256
6
ByLayer
370
18
48
1
60
0
100
AcDbLine
10
32.963589
20
3.336988
30
0
11
31.989112
21
3.336379
31
0
39
0
210
0
220
0
230
1
0
LINE
5
9D
100
AcDbEntity
8
1
62
256
6
ByLayer
370
18
48
1
60
0
100
AcDbLine
10
11.213974
20
3.323395
30
0
11
10.148789
21
3.322729
31
0
39
0
210
0
220
0
230
1
0
LINE
5
9E
100
AcDbEntity
8
1
62
256
6
ByLayer
370
18
48
1
60
0
100
AcDbLine
10
2.115131
20
3.317708
30
0
11
1.311505
21
3.317206
31
0
39
0
210
0
220
0
230
1
0
LINE
5
9F
100
AcDbEntity
8
SK4
62
256
6
ByLayer
370
18
48
0.05
60
0
100
AcDbLine
10
60
20
0
30
0
11
-41
21
0
31
0
39
0
210
0
220
0
230
1
0
LINE
5
A1
100
AcDbEntity
8
4
62
256
6
ByLayer
370
18
48
0.05
60
0
100
AcDbLine
10
-36
20
0
30
0
11
60
21
0
31
0
39
0
210
0
220
0
230
1
0
LINE
5
A3
100
AcDbEntity
8
80
62
256
6
ByLayer
370
18
48
1
60
0
100
AcDbLine
10
0
20
0
30
0
11
-6
21
0
31
0
39
0
210
0
220
0
230
1
0
LINE
5
A4
100
AcDbEntity
8
81
62
256
6
ByLayer
370
18
48
1
60
0
100
AcDbLine
10
55
20
0
30
0
11
61
21
0
31
0
39
0
210
0
220
0
230
1
0
LINE
5
A5
100
AcDbEntity
8
SK2
62
256
6
ByLayer
370
13
48
1
60
0
100
AcDbLine
10
55.542957
20
1.491762
30
0
11
62.926315
21
21.777377
31
0
39
0
210
0
220
0
230
1
0
LINE
5
A7
100
AcDbEntity
8
SK2
62
256
6
ByLayer
370
13
48
1
60
0
100
AcDbLine
10
55.542957
20
-1.491762
30
0
11
62.926315
21
-21.777377
31
0
39
0
210
0
220
0
230
1
0
LINE
5
A8
100
AcDbEntity
8
1
62
256
6
ByLayer
370
13
48
1
60
0
100
AcDbLine
10
61.840401
20
18.793853
30
0
11
64.936992
21
17.977481
31
0
39
0
210
0
220
0
230
1
0
LINE
5
A9
100
AcDbEntity
8
1
62
256
6
ByLayer
370
13
48
1
60
0
100
AcDbLine
10
61.840401
20
18.793853
30
0
11
64.620188
21
17.20384
31
0
39
0
210
0
220
0
230
1
0
LINE
5
AA
100
AcDbEntity
8
1
62
256
6
ByLayer
370
13
48
1
60
0
100
AcDbLine
10
64.936992
20
17.977481
30
0
11
64.620188
21
17.20384
31
0
39
0
210
0
220
0
230
1
0
LINE
5
AB
100
AcDbEntity
8
1
62
256
6
ByLayer
370
13
48
1
60
0
100
AcDbLine
10
61.840401
20
-18.793853
30
0
11
64.620186
21
-17.203841
31
0
39
0
210
0
220
0
230
1
0
LINE
5
AC
100
AcDbEntity
8
1
62
256
6
ByLayer
370
13
48
1
60
0
100
AcDbLine
10
61.840401
20
-18.793853
30
0
11
64.936995
21
-17.97748
31
0
39
0
210
0
220
0
230
1
0
LINE
5
AD
100
AcDbEntity
8
1
62
256
6
ByLayer
370
13
48
1
60
0
100
AcDbLine
10
64.620186
20
-17.203841
30
0
11
64.936995
21
-17.97748
31
0
39
0
210
0
220
0
230
1
0
MTEXT
5
109
100
AcDbEntity
8
SK2
62
256
6
ByLayer
370
18
48
1
60
0
100
AcDbMText
10
68.717388
20
-2.467451
30
0
210
0
220
0
230
1
1
\W0.7237;140.00
40
3.50012
41
0
44
1.084337
50
0
71
7
72
5
7
iso_b_vert
0
MTEXT
5
10C
100
AcDbEntity
8
SK6
62
256
6
ByLayer
370
18
48
1
60
0
100
AcDbMText
10
-29.831725
20
-120.88428
30
0
210
0
220
0
230
1
1
\W0.7601;860.1-0670-034A0-GM X1BM
40
3.175
41
0
44
1.084337
50
0
71
7
72
5
7
iso_b_vert
0
DIMENSION
5
10F
100
AcDbEntity
8
SK2
62
256
6
ByLayer
370
18
48
1
60
0
100
AcDbDimension
2
_U0
10
55
20
-27.50012
30
0
11
27.5
21
-27.50012
31
0
70
32
71
2
72
1
41
1
210
0
220
0
230
1
3
Standard
100
AcDbAlignedDimension
13
0
23
-4
33
0
14
55
24
0
34
0
50
0
100
AcDbRotatedDimension
1001
ACAD
1000
DSTYLE
1002
{
1070
   371
1070
    13
1070
   372
1070
    13
1070
     3
1000

1070
   170
1070
     0
1070
   144
1040
1.0
1070
   277
1070
     2
1070
   284
1070
     8
1070
   278
1070
    46
1070
   146
1040
0.999966
1070
   345
1005
16
1070
   347
1005
16
1070
   346
1005
16
1070
   344
1005
110
1070
   343
1005
110
1070
   172
1070
     1
1070
    76
1070
     0
1070
    75
1070
     0
1070
   282
1070
     0
1070
   281
1070
     0
1070
    71
1070
     0
1070
    74
1070
     0
1070
   279
1070
     0
1070
   173
1070
     1
1070
   340
1005
10A
1070
   271
1070
     1
1070
   272
1070
     2
1070
    77
1070
     1
1070
    73
1070
     1
1070
   171
1070
     3
1070
   274
1070
     4
1070
   177
1070
   150
1070
   176
1070
     9
1070
   178
1070
    43
1070
    78
1070
     8
1070
    48
1040
-0.1
1070
    41
1040
3.175
1070
   147
1040
1.75006
1070
    42
1040
1.5875
1070
    44
1040
3.175
1070
   140
1040
3.50012
1002
}
1001
ACAD_DSTYLE_DIM_LINETYPE
1070
   380
1005
16
1001
ACAD_DSTYLE_DIM_EXT1_LINETYPE
1070
   381
1005
16
1001
ACAD_DSTYLE_DIM_EXT2_LINETYPE
1070
   382
1005
16
0
DIMENSION
5
135
100
AcDbEntity
8
2
62
256
6
ByLayer
370
18
48
1
60
0
100
AcDbDimension
2
_U1
10
61.75006
20
3.35
30
0
11
61.75006
21
18.839897
31
0
70
32
71
1
72
1
41
1
210
0
220
0
230
1
3
Standard
100
AcDbAlignedDimension
13
53.7807
23
-3.35
33
0
14
53.7807
24
3.35
34
0
50
90
100
AcDbRotatedDimension
1001
ACAD
1000
DSTYLE
1002
{
1070
   371
1070
    13
1070
   372
1070
    13
1070
     3
1000

1070
   170
1070
     0
1070
   144
1040
1.0
1070
   277
1070
     2
1070
   284
1070
     8
1070
   278
1070
    46
1070
   146
1040
0.999966
1070
   345
1005
16
1070
   347
1005
16
1070
   346
1005
16
1070
   344
1005
110
1070
   343
1005
110
1070
   172
1070
     1
1070
    76
1070
     0
1070
    75
1070
     0
1070
   282
1070
     0
1070
   281
1070
     0
1070
    71
1070
     0
1070
    74
1070
     0
1070
   279
1070
     0
1070
   173
1070
     1
1070
   340
1005
10A
1070
   271
1070
     1
1070
   272
1070
     2
1070
    77
1070
     1
1070
    73
1070
     0
1070
   171
1070
     3
1070
   274
1070
     4
1070
   177
1070
   150
1070
   176
1070
     9
1070
   178
1070
    43
1070
    78
1070
     8
1070
    48
1040
-0.1
1070
    41
1040
3.175
1070
   147
1040
1.75006
1070
    42
1040
1.5875
1070
    44
1040
3.175
1070
   140
1040
3.50012
1002
}
1001
ACAD_DSTYLE_DIM_LINETYPE
1070
   380
1005
16
1001
ACAD_DSTYLE_DIM_EXT1_LINETYPE
1070
   381
1005
16
1001
ACAD_DSTYLE_DIM_EXT2_LINETYPE
1070
   382
1005
16
0
DIMENSION
5
154
100
AcDbEntity
8
SK2
62
256
6
ByLayer
370
18
48
1
60
0
100
AcDbDimension
2
_U2
10
-39.24994
20
-4
30
0
11
-39.24994
21
18.10734
31
0
70
32
71
1
72
1
41
1
210
0
220
0
230
1
3
Standard
100
AcDbAlignedDimension
13
-36
23
4
33
0
14
-36
24
-4
34
0
50
90
100
AcDbRotatedDimension
1001
ACAD
1000
DSTYLE
1002
{
1070
   371
1070
    13
1070
   372
1070
    13
1070
     3
1000

1070
   170
1070
     0
1070
   144
1040
1.0
1070
   277
1070
     2
1070
   284
1070
     8
1070
   278
1070
    46
1070
   146
1040
0.999966
1070
   345
1005
16
1070
   347
1005
16
1070
   346
1005
16
1070
   344
1005
110
1070
   343
1005
110
1070
   172
1070
     1
1070
    76
1070
     0
1070
    75
1070
     0
1070
   282
1070
     0
1070
   281
1070
     0
1070
    71
1070
     0
1070
    74
1070
     0
1070
   279
1070
     0
1070
   173
1070
     1
1070
   340
1005
10A
1070
   271
1070
     1
1070
   272
1070
     2
1070
    77
1070
     1
1070
    73
1070
     0
1070
   171
1070
     3
1070
   274
1070
     4
1070
   177
1070
   150
1070
   176
1070
     9
1070
   178
1070
    43
1070
    78
1070
     8
1070
    48
1040
-0.1
1070
    41
1040
3.175
1070
   147
1040
1.75006
1070
    42
1040
1.5875
1070
    44
1040
3.175
1070
   140
1040
3.50012
1002
}
1001
ACAD_DSTYLE_DIM_LINETYPE
1070
   380
1005
16
1001
ACAD_DSTYLE_DIM_EXT1_LINETYPE
1070
   381
1005
16
1001
ACAD_DSTYLE_DIM_EXT2_LINETYPE
1070
   382
1005
16
0
DIMENSION
5
172
100
AcDbEntity
8
SK2
62
256
6
ByLayer
370
18
48
1
60
0
100
AcDbDimension
2
_U3
10
0
20
-27.50012
30
0
11
-18
21
-27.50012
31
0
70
32
71
1
72
1
41
1
210
0
220
0
230
1
3
Standard
100
AcDbAlignedDimension
13
-36
23
-4
33
0
14
0
24
-4
34
0
50
0
100
AcDbRotatedDimension
1001
ACAD
1000
DSTYLE
1002
{
1070
   371
1070
    13
1070
   372
1070
    13
1070
     3
1000

1070
   170
1070
     0
1070
   144
1040
1.0
1070
   277
1070
     2
1070
   284
1070
     8
1070
   278
1070
    46
1070
   146
1040
0.999966
1070
   345
1005
16
1070
   347
1005
16
1070
   346
1005
16
1070
   344
1005
110
1070
   343
1005
110
1070
   172
1070
     1
1070
    76
1070
     0
1070
    75
1070
     0
1070
   282
1070
     0
1070
   281
1070
     0
1070
    71
1070
     0
1070
    74
1070
     0
1070
   279
1070
     0
1070
   173
1070
     1
1070
   340
1005
10A
1070
   271
1070
     1
1070
   272
1070
     2
1070
    77
1070
     1
1070
    73
1070
     1
1070
   171
1070
     3
1070
   274
1070
     4
1070
   177
1070
   150
1070
   176
1070
     9
1070
   178
1070
    43
1070
    78
1070
     8
1070
    48
1040
-0.1
1070
    41
1040
3.175
1070
   147
1040
1.75006
1070
    42
1040
1.5875
1070
    44
1040
3.175
1070
   140
1040
3.50012
1002
}
1001
ACAD_DSTYLE_DIM_LINETYPE
1070
   380
1005
16
1001
ACAD_DSTYLE_DIM_EXT1_LINETYPE
1070
   381
1005
16
1001
ACAD_DSTYLE_DIM_EXT2_LINETYPE
1070
   382
1005
16
0
DIMENSION
5
18E
100
AcDbEntity
8
SK2
62
256
6
ByLayer
370
18
48
1
60
0
100
AcDbDimension
2
_U4
10
55
20
-18.74982
30
0
11
28.5
21
-18.74982
31
0
70
32
71
1
72
1
41
1
210
0
220
0
230
1
3
Standard
100
AcDbAlignedDimension
13
2
23
3.85
33
0
14
55
24
0
34
0
50
0
100
AcDbRotatedDimension
1001
ACAD
1000
DSTYLE
1002
{
1070
   371
1070
    13
1070
   372
1070
    13
1070
     3
1000

1070
   170
1070
     0
1070
   144
1040
1.0
1070
   277
1070
     2
1070
   284
1070
     8
1070
   278
1070
    46
1070
   146
1040
0.999966
1070
   345
1005
16
1070
   347
1005
16
1070
   346
1005
16
1070
   344
1005
110
1070
   343
1005
110
1070
   172
1070
     1
1070
    76
1070
     0
1070
    75
1070
     0
1070
   282
1070
     0
1070
   281
1070
     0
1070
    71
1070
     0
1070
    74
1070
     0
1070
   279
1070
     0
1070
   173
1070
     1
1070
   340
1005
10A
1070
   271
1070
     1
1070
   272
1070
     2
1070
    77
1070
     1
1070
    73
1070
     1
1070
   171
1070
     3
1070
   274
1070
     4
1070
   177
1070
   150
1070
   176
1070
     9
1070
   178
1070
    43
1070
    78
1070
     8
1070
    48
1040
-0.1
1070
    41
1040
3.175
1070
   147
1040
1.75006
1070
    42
1040
1.5875
1070
    44
1040
3.175
1070
   140
1040
3.50012
1002
}
1001
ACAD_DSTYLE_DIM_LINETYPE
1070
   380
1005
16
1001
ACAD_DSTYLE_DIM_EXT1_LINETYPE
1070
   381
1005
16
1001
ACAD_DSTYLE_DIM_EXT2_LINETYPE
1070
   382
1005
16
0
DIMENSION
5
1AA
100
AcDbEntity
8
SK2
62
256
6
ByLayer
370
18
48
1
60
0
100
AcDbDimension
2
_U5
10
55
20
-10.82
30
0
11
37.65
21
-10.82
31
0
70
32
71
1
72
1
41
1
210
0
220
0
230
1
3
Standard
100
AcDbAlignedDimension
13
20.3
23
-3.35
33
0
14
55
24
0
34
0
50
0
100
AcDbRotatedDimension
1001
ACAD
1000
DSTYLE
1002
{
1070
   371
1070
    13
1070
   372
1070
    13
1070
     3
1000

1070
   170
1070
     0
1070
   144
1040
1.0
1070
   277
1070
     2
1070
   284
1070
     8
1070
   278
1070
    46
1070
   146
1040
1.25
1070
   345
1005
16
1070
   347
1005
16
1070
   346
1005
16
1070
   344
1005
110
1070
   343
1005
110
1070
   172
1070
     1
1070
    76
1070
     0
1070
    75
1070
     0
1070
   282
1070
     0
1070
   281
1070
     0
1070
    71
1070
     0
1070
    74
1070
     0
1070
   279
1070
     0
1070
   173
1070
     1
1070
   340
1005
10A
1070
   271
1070
     1
1070
   272
1070
     2
1070
    77
1070
     1
1070
    73
1070
     1
1070
   171
1070
     3
1070
   274
1070
     4
1070
   177
1070
   150
1070
   176
1070
     9
1070
   178
1070
    43
1070
    78
1070
     8
1070
    48
1040
-0.1
1070
    41
1040
3.175
1070
   147
1040
0.42
1070
    42
1040
1.5875
1070
    44
1040
0.5
1070
   140
1040
2.8
1002
}
1001
ACAD_DSTYLE_DIM_LINETYPE
1070
   380
1005
16
1001
ACAD_DSTYLE_DIM_EXT1_LINETYPE
1070
   381
1005
16
1001
ACAD_DSTYLE_DIM_EXT2_LINETYPE
1070
   382
1005
16
0
DIMENSION
5
1C6
100
AcDbEntity
8
SK2
62
256
6
ByLayer
370
18
48
1
60
0
100
AcDbDimension
2
_U6
10
55
20
-37.50012
30
0
11
9.5
21
-37.50012
31
0
70
32
71
1
72
1
41
1
210
0
220
0
230
1
3
Standard
100
AcDbAlignedDimension
13
-36
23
0
33
0
14
55
24
0
34
0
50
0
100
AcDbRotatedDimension
1001
ACAD
1000
DSTYLE
1002
{
1070
   371
1070
    13
1070
   372
1070
    13
1070
     3
1000

1070
   170
1070
     0
1070
   144
1040
1.0
1070
   277
1070
     2
1070
   284
1070
     8
1070
   278
1070
    46
1070
   146
1040
0.999966
1070
   345
1005
16
1070
   347
1005
16
1070
   346
1005
16
1070
   344
1005
110
1070
   343
1005
110
1070
   172
1070
     1
1070
    76
1070
     0
1070
    75
1070
     0
1070
   282
1070
     0
1070
   281
1070
     0
1070
    71
1070
     0
1070
    74
1070
     0
1070
   279
1070
     0
1070
   173
1070
     1
1070
   340
1005
10A
1070
   271
1070
     1
1070
   272
1070
     2
1070
    77
1070
     1
1070
    73
1070
     1
1070
   171
1070
     3
1070
   274
1070
     4
1070
   177
1070
   150
1070
   176
1070
     9
1070
   178
1070
    43
1070
    78
1070
     8
1070
    48
1040
-0.1
1070
    41
1040
3.175
1070
   147
1040
1.75006
1070
    42
1040
1.5875
1070
    44
1040
3.175
1070
   140
1040
3.50012
1002
}
1001
ACAD_DSTYLE_DIM_LINETYPE
1070
   380
1005
16
1001
ACAD_DSTYLE_DIM_EXT1_LINETYPE
1070
   381
1005
16
1001
ACAD_DSTYLE_DIM_EXT2_LINETYPE
1070
   382
1005
16
0
ENDSEC
0
SECTION
2
OBJECTS
0
DICTIONARY
5
252
330
0
100
AcDbDictionary
280
0
281
1
3
ACAD_GROUP
350
253
3
ACAD_MLINESTYLE
350
254
0
DICTIONARY
5
253
330
0
100
AcDbDictionary
280
0
281
1
0
DICTIONARY
5
254
330
0
100
AcDbDictionary
280
0
281
1
3
Standard
350
18
0
MLINESTYLE
5
18
330
254
100
AcDbMlineStyle
2
Standard
70
0
3

62
256
51
90
52
90
71
2
49
-0.5
62
256
6
ByLayer
49
0.5
62
256
6
ByLayer
0
RASTERVARIABLES
5
240
330

100
AcDbRasterVariables
90
0
70
1
71
1
72
1
0
ENDSEC
0
EOF
