0
SECTION
2
HEADER
9
$ACADVER
1
AC1015
9
$DWGCODEPAGE
3
ANSI_1252
9
$HANDSEED
5
257
9
$ANGBASE
50
0
9
$ANGDIR
70
0
9
$ATTMODE
70
1
9
$AUNITS
70
0
9
$AUPREC
70
0
9
$CECOLOR
62
256
9
$CELTSCALE
40
1
9
$CELTYPE
6
ByLayer
9
$CELWEIGHT
370
18
9
$CLAYER
8
0
9
$CMLJUST
70
0
9
$CMLSCALE
40
1
9
$CMLSTYLE
2
Standard
9
$DIMSTYLE
2
Standard
9
$TEXTSIZE
40
0.2
9
$TEXTSTYLE
7
Standard
9
$LUNITS
70
2
9
$LUPREC
70
4
9
$EXTNAMES
290
1
9
$INSUNITS
70
4
9
$LTSCALE
40
1
9
$LWDISPLAY
290
1
9
$PDMODE
70
0
9
$PDSIZE
40
0
9
$PLINEGEN
70
0
0
ENDSEC
0
SECTION
2
CLASSES
0
CLASS
1
RASTERVARIABLES
2
AcDbRasterVariables
3
ISM
90
0
280
0
281
0
0
ENDSEC
0
SECTION
2
TABLES
0
TABLE
2
VPORT
5
24d
100
AcDbSymbolTable
0
VPORT
5
1
100
AcDbSymbolTableRecord
100
AcDbViewportTableRecord
2
*Active
70
0
10
0
20
0
11
1
21
1
12
-1
22
1
13
0
23
0
14
0.5
24
0.5
15
10
25
10
16
0
26
0
36
1
17
0
27
0
37
0
0
ENDTAB
0
TABLE
2
LTYPE
5
24e
100
AcDbSymbolTable
0
LTYPE
5
14
100
AcDbSymbolTableRecord
100
AcDbLinetypeTableRecord
70
0
2
ByBlock
3

72
65
73
0
40
0
0
LTYPE
5
15
100
AcDbSymbolTableRecord
100
AcDbLinetypeTableRecord
70
0
2
ByLayer
3

72
65
73
0
40
0
0
LTYPE
5
16
100
AcDbSymbolTableRecord
100
AcDbLinetypeTableRecord
70
0
2
Continuous
3
Solid line
72
65
73
0
40
0
0
LTYPE
5
6E
100
AcDbSymbolTableRecord
100
AcDbLinetypeTableRecord
70
0
2
CENTER
3
____ _ ____ _ ____ _ ____
72
65
73
4
40
47.5
49
22
74
0
49
-8.5
74
0
49
8.5
74
0
49
-8.5
74
0
0
LTYPE
5
6F
100
AcDbSymbolTableRecord
100
AcDbLinetypeTableRecord
70
0
2
DASHED
3
__ __ __ __ __ __ __ __ __
72
65
73
2
40
25.72
49
12.86
74
0
49
-12.86
74
0
0
ENDTAB
0
TABLE
2
LAYER
5
24f
100
AcDbSymbolTable
0
LAYER
5
10
100
AcDbSymbolTableRecord
100
AcDbLayerTableRecord
2
0
70
0
62
7
6
Continuous
290
1
370
-3
390
0
0
LAYER
5
71
100
AcDbSymbolTableRecord
100
AcDbLayerTableRecord
2
80
70
0
62
-6
6
Continuous
290
1
370
-3
390
0
0
LAYER
5
73
100
AcDbSymbolTableRecord
100
AcDbLayerTableRecord
2
81
70
0
62
-3
6
Continuous
290
1
370
-3
390
0
0
LAYER
5
75
100
AcDbSymbolTableRecord
100
AcDbLayerTableRecord
2
1
70
0
62
4
6
Continuous
290
1
370
-3
390
0
0
LAYER
5
A6
100
AcDbSymbolTableRecord
100
AcDbLayerTableRecord
2
4
70
0
62
-2
6
CENTER
290
1
370
-3
390
0
0
LAYER
5
111
100
AcDbSymbolTableRecord
100
AcDbLayerTableRecord
2
Defpoints
70
0
62
7
6
Continuous
290
0
370
-3
390
0
0
LAYER
5
13E
100
AcDbSymbolTableRecord
100
AcDbLayerTableRecord
2
2
70
0
62
7
6
Continuous
290
1
370
-3
390
0
0
LAYER
5
239
100
AcDbSymbolTableRecord
100
AcDbLayerTableRecord
2
SK1
70
0
62
4
6
Continuous
290
1
370
-3
390
0
0
LAYER
5
23a
100
AcDbSymbolTableRecord
100
AcDbLayerTableRecord
2
SK4
70
0
62
2
6
CENTER
290
1
370
-3
390
0
0
LAYER
5
23b
100
AcDbSymbolTableRecord
100
AcDbLayerTableRecord
2
SK2
70
0
62
7
6
Continuous
290
1
370
-3
390
0
0
LAYER
5
23c
100
AcDbSymbolTableRecord
100
AcDbLayerTableRecord
2
SK6
70
0
62
5
6
Continuous
290
1
370
-3
390
0
0
ENDTAB
0
TABLE
2
STYLE
5
250
100
AcDbSymbolTable
0
STYLE
5
11
100
AcDbSymbolTableRecord
100
AcDbTextStyleTableRecord
2
Standard
3
txt
70
0
71
0
40
0
41
1
42
0
50
0
0
STYLE
5
102
100
AcDbSymbolTableRecord
100
AcDbTextStyleTableRecord
2
iso_b_vert
3
simplex.shx
70
0
71
0
40
0
41
1
42
0
50
0
0
STYLE
5
103
100
AcDbSymbolTableRecord
100
AcDbTextStyleTableRecord
2
DWGDirectTextStyle
3
simplex
70
0
71
0
40
0
41
1
42
0
50
0
0
ENDTAB
0
TABLE
2
DIMSTYLE
5
251
100
AcDbSymbolTable
100
AcDbDimStyleTable
0
DIMSTYLE
105
27
100
AcDbSymbolTableRecord
100
AcDbDimStyleTableRecord
2
Standard
70
0
3
<>
41
0.18
42
0.0625
44
0.18
140
0.18
147
0.09
73
0
74
0
77
1
271
2
275
0
278
52
280
0
340
11
0
ENDTAB
0
TABLE
2
VIEW
5
252
100
AcDbSymbolTable
0
ENDTAB
0
TABLE
2
UCS
5
253
100
AcDbSymbolTable
0
ENDTAB
0
TABLE
2
APPID
5
254
100
AcDbSymbolTable
0
APPID
5
12
100
AcDbSymbolTableRecord
100
AcDbRegAppTableRecord
2
ACAD
70
0
0
APPID
5
106
100
AcDbSymbolTableRecord
100
AcDbRegAppTableRecord
2
ACAD_DSTYLE_DIMBREAK
70
0
0
APPID
5
1F8
100
AcDbSymbolTableRecord
100
AcDbRegAppTableRecord
2
ACAD_DSTYLE_DIM_LINETYPE
70
0
0
APPID
5
1F9
100
AcDbSymbolTableRecord
100
AcDbRegAppTableRecord
2
ACAD_DSTYLE_DIM_EXT1_LINETYPE
70
0
0
APPID
5
1FA
100
AcDbSymbolTableRecord
100
AcDbRegAppTableRecord
2
ACAD_DSTYLE_DIM_EXT2_LINETYPE
70
0
0
APPID
5
235
100
AcDbSymbolTableRecord
100
AcDbRegAppTableRecord
2
ACAD_MLEADERVER
70
0
0
ENDTAB
0
TABLE
2
BLOCK_RECORD
5
255
100
AcDbSymbolTable
0
BLOCK_RECORD
5
1F
100
AcDbSymbolTableRecord
100
AcDbBlockTableRecord
2
*Model_Space
340
0
70
0
0
BLOCK_RECORD
5
1B
100
AcDbSymbolTableRecord
100
AcDbBlockTableRecord
2
*Paper_Space
340
0
70
0
0
BLOCK_RECORD
5
23
100
AcDbSymbolTableRecord
100
AcDbBlockTableRecord
2
*Paper_Space0
340
0
70
0
0
BLOCK_RECORD
5
108
100
AcDbSymbolTableRecord
100
AcDbBlockTableRecord
2
_Closed
340
0
70
0
0
BLOCK_RECORD
5
112
100
AcDbSymbolTableRecord
100
AcDbBlockTableRecord
2
*D2
340
0
70
0
0
BLOCK_RECORD
5
11E
100
AcDbSymbolTableRecord
100
AcDbBlockTableRecord
2
_U0
340
0
70
0
0
BLOCK_RECORD
5
130
100
AcDbSymbolTableRecord
100
AcDbBlockTableRecord
2
*D4
340
0
70
0
0
BLOCK_RECORD
5
13F
100
AcDbSymbolTableRecord
100
AcDbBlockTableRecord
2
_U1
340
0
70
0
0
BLOCK_RECORD
5
14F
100
AcDbSymbolTableRecord
100
AcDbBlockTableRecord
2
*D6
340
0
70
0
0
BLOCK_RECORD
5
15D
100
AcDbSymbolTableRecord
100
AcDbBlockTableRecord
2
_U2
340
0
70
0
0
BLOCK_RECORD
5
16D
100
AcDbSymbolTableRecord
100
AcDbBlockTableRecord
2
*D8
340
0
70
0
0
BLOCK_RECORD
5
179
100
AcDbSymbolTableRecord
100
AcDbBlockTableRecord
2
_U3
340
0
70
0
0
BLOCK_RECORD
5
189
100
AcDbSymbolTableRecord
100
AcDbBlockTableRecord
2
*D10
340
0
70
0
0
BLOCK_RECORD
5
195
100
AcDbSymbolTableRecord
100
AcDbBlockTableRecord
2
_U4
340
0
70
0
0
BLOCK_RECORD
5
1A5
100
AcDbSymbolTableRecord
100
AcDbBlockTableRecord
2
*D12
340
0
70
0
0
BLOCK_RECORD
5
1B1
100
AcDbSymbolTableRecord
100
AcDbBlockTableRecord
2
_U5
340
0
70
0
0
BLOCK_RECORD
5
1C1
100
AcDbSymbolTableRecord
100
AcDbBlockTableRecord
2
*D14
340
0
70
0
0
BLOCK_RECORD
5
1CD
100
AcDbSymbolTableRecord
100
AcDbBlockTableRecord
2
_U6
340
0
70
0
0
ENDTAB
0
ENDSEC
0
SECTION
2
BLOCKS
0
BLOCK
5
20
100
AcDbEntity
8
0
100
AcDbBlockBegin
2
*Model_Space
70
0
10
0
20
0
30
0
3
*Model_Space
0
ENDBLK
5
21
100
AcDbEntity
8
0
100
AcDbBlockEnd
0
BLOCK
5
1C
100
AcDbEntity
8
0
100
AcDbBlockBegin
2
*Paper_Space
70
0
10
0
20
0
30
0
3
*Paper_Space
0
ENDBLK
5
1D
100
AcDbEntity
8
0
100
AcDbBlockEnd
0
BLOCK
5
24
100
AcDbEntity
8
0
100
AcDbBlockBegin
2
*Paper_Space0
70
0
10
0
20
0
30
0
3
*Paper_Space0
0
ENDBLK
5
25
100
AcDbEntity
8
0
100
AcDbBlockEnd
0
BLOCK
5
109
100
AcDbEntity
8
0
100
AcDbBlockBegin
2
_Closed
70
0
10
0
20
0
30
0
3
_Closed
0
LINE
5
10B
100
AcDbEntity
8
0
62
256
6
ByLayer
370
-2
48
1
60
0
100
AcDbLine
10
-1
20
0.166667
30
0
11
0
21
0
31
0
39
0
210
0
220
0
230
1
0
LINE
5
10C
100
AcDbEntity
8
0
62
256
6
ByLayer
370
-2
48
1
60
0
100
AcDbLine
10
0
20
0
30
0
11
-1
21
-0.166667
31
0
39
0
210
0
220
0
230
1
0
LINE
5
10D
100
AcDbEntity
8
0
62
256
6
ByLayer
370
-2
48
1
60
0
100
AcDbLine
10
-1
20
0.166667
30
0
11
-1
21
-0.166667
31
0
39
0
210
0
220
0
230
1
0
LINE
5
10E
100
AcDbEntity
8
0
62
256
6
ByLayer
370
-2
48
1
60
0
100
AcDbLine
10
0
20
0
30
0
11
-1
21
0
31
0
39
0
210
0
220
0
230
1
0
ENDBLK
5
10A
100
AcDbEntity
8
0
100
AcDbBlockEnd
0
BLOCK
5
113
100
AcDbEntity
8
0
100
AcDbBlockBegin
2
*D2
70
1
10
0
20
0
30
0
3
*D2
0
LINE
5
115
100
AcDbEntity
8
0
62
256
6
ByLayer
370
-2
48
1
60
0
100
AcDbLine
10
0
20
-9.5875
30
0
11
0
21
-34.67512
31
0
39
0
210
0
220
0
230
1
0
LINE
5
116
100
AcDbEntity
8
0
62
256
6
ByLayer
370
-2
48
1
60
0
100
AcDbLine
10
85
20
-1.5875
30
0
11
85
21
-34.67512
31
0
39
0
210
0
220
0
230
1
0
LINE
5
117
100
AcDbEntity
8
0
62
256
6
ByLayer
370
-2
48
1
60
0
100
AcDbLine
10
3.175
20
-31.50012
30
0
11
81.825
21
-31.50012
31
0
39
0
210
0
220
0
230
1
0
SOLID
5
118
100
AcDbEntity
8
0
62
256
6
ByLayer
370
-1
48
1
60
0
100
AcDbTrace
10
3.175
20
-30.970953
30
0
11
3.175
21
-32.029287
31
0
12
0
22
-31.50012
32
0
13
0
23
-31.50012
33
0
39
0
210
0
220
0
230
1
0
SOLID
5
119
100
AcDbEntity
8
0
62
256
6
ByLayer
370
-1
48
1
60
0
100
AcDbTrace
10
81.825
20
-32.029287
30
0
11
81.825
21
-30.970953
31
0
12
85
22
-31.50012
32
0
13
85
23
-31.50012
33
0
39
0
210
0
220
0
230
1
0
MTEXT
5
11A
100
AcDbEntity
8
0
62
256
6
ByLayer
370
18
48
1
60
0
100
AcDbMText
10
42.5
20
-24.193619
30
0
210
0
220
0
230
1
1
\A1;85
40
3.50012
41
0
44
1
50
0
71
5
72
5
7
iso_b_vert
0
POINT
5
11B
100
AcDbEntity
8
Defpoints
62
0
6
ByLayer
370
-1
48
1
60
0
100
AcDbPoint
10
0
20
-8
30
0
39
0
210
0
220
0
230
1
50
360
0
POINT
5
11C
100
AcDbEntity
8
Defpoints
62
0
6
ByLayer
370
-1
48
1
60
0
100
AcDbPoint
10
85
20
0
30
0
39
0
210
0
220
0
230
1
50
360
0
POINT
5
11D
100
AcDbEntity
8
Defpoints
62
0
6
ByLayer
370
-1
48
1
60
0
100
AcDbPoint
10
85
20
-31.50012
30
0
39
0
210
0
220
0
230
1
50
360
0
ENDBLK
5
114
100
AcDbEntity
8
0
100
AcDbBlockEnd
0
BLOCK
5
12B
100
AcDbEntity
8
0
100
AcDbBlockBegin
2
_U0
70
0
10
0
20
0
30
0
3
_U0
0
MTEXT
5
11F
100
AcDbEntity
8
SK2
62
256
6
ByLayer
370
18
48
1
60
0
100
AcDbMText
10
37.270389
20
-30.467451
30
0
210
0
220
0
230
1
1
\W0.7468;85.00
40
3.50012
41
0
44
1.084337
50
0
71
7
72
5
7
iso_b_vert
0
MTEXT
5
120
100
AcDbEntity
8
SK2
62
256
6
ByLayer
370
18
48
1
60
0
100
AcDbMText
10
33.744329
20
-30.400814
30
0
210
0
220
0
230
1
1
\W0.1790;(
40
3.175
41
0
44
1.084337
50
0
71
7
72
5
7
iso_b_vert
0
MTEXT
5
121
100
AcDbEntity
8
SK2
62
256
6
ByLayer
370
18
48
1
60
0
100
AcDbMText
10
51.258393
20
-30.400814
30
0
210
0
220
0
230
1
1
\W0.1969;)
40
3.175
41
0
44
1.084337
50
0
71
7
72
5
7
iso_b_vert
0
LINE
5
122
100
AcDbEntity
8
SK2
62
256
6
ByLayer
370
13
48
1
60
0
100
AcDbLine
10
0
20
-9.5875
30
0
11
0
21
-34.67512
31
0
39
0
210
0
220
0
230
1
0
LINE
5
123
100
AcDbEntity
8
SK2
62
256
6
ByLayer
370
13
48
1
60
0
100
AcDbLine
10
85
20
-1.5875
30
0
11
85
21
-34.67512
31
0
39
0
210
0
220
0
230
1
0
LINE
5
124
100
AcDbEntity
8
SK2
62
256
6
ByLayer
370
13
48
1
60
0
100
AcDbLine
10
0
20
-31.50012
30
0
11
85
21
-31.50012
31
0
39
0
210
0
220
0
230
1
0
LINE
5
125
100
AcDbEntity
8
SK2
62
256
6
ByLayer
370
13
48
1
60
0
100
AcDbLine
10
0
20
-31.50012
30
0
11
3.174998
21
-31.082123
31
0
39
0
210
0
220
0
230
1
0
LINE
5
126
100
AcDbEntity
8
SK2
62
256
6
ByLayer
370
13
48
1
60
0
100
AcDbLine
10
0
20
-31.50012
30
0
11
3.175002
21
-31.918117
31
0
39
0
210
0
220
0
230
1
0
LINE
5
127
100
AcDbEntity
8
SK2
62
256
6
ByLayer
370
13
48
1
60
0
100
AcDbLine
10
3.174998
20
-31.082123
30
0
11
3.175002
21
-31.918117
31
0
39
0
210
0
220
0
230
1
0
LINE
5
128
100
AcDbEntity
8
SK2
62
256
6
ByLayer
370
13
48
1
60
0
100
AcDbLine
10
85
20
-31.50012
30
0
11
81.825002
21
-31.918117
31
0
39
0
210
0
220
0
230
1
0
LINE
5
129
100
AcDbEntity
8
SK2
62
256
6
ByLayer
370
13
48
1
60
0
100
AcDbLine
10
85
20
-31.50012
30
0
11
81.824998
21
-31.082123
31
0
39
0
210
0
220
0
230
1
0
LINE
5
12A
100
AcDbEntity
8
SK2
62
256
6
ByLayer
370
13
48
1
60
0
100
AcDbLine
10
81.825002
20
-31.918117
30
0
11
81.824998
21
-31.082123
31
0
39
0
210
0
220
0
230
1
0
ENDBLK
5
12C
100
AcDbEntity
8
0
100
AcDbBlockEnd
0
BLOCK
5
131
100
AcDbEntity
8
0
100
AcDbBlockBegin
2
*D4
70
1
10
0
20
0
30
0
3
*D4
0
LINE
5
133
100
AcDbEntity
8
0
62
256
6
ByLayer
370
-2
48
1
60
0
100
AcDbLine
10
83.8577
20
-7.5
30
0
11
94.92506
21
-7.5
31
0
39
0
210
0
220
0
230
1
0
LINE
5
134
100
AcDbEntity
8
0
62
256
6
ByLayer
370
-2
48
1
60
0
100
AcDbLine
10
83.8577
20
7.5
30
0
11
94.92506
21
7.5
31
0
39
0
210
0
220
0
230
1
0
LINE
5
135
100
AcDbEntity
8
0
62
256
6
ByLayer
370
-2
48
1
60
0
100
AcDbLine
10
91.75006
20
7.5
30
0
11
91.75006
21
30.129725
31
0
39
0
210
0
220
0
230
1
0
LINE
5
136
100
AcDbEntity
8
0
62
256
6
ByLayer
370
-2
48
1
60
0
100
AcDbLine
10
91.75006
20
-10.675
30
0
11
91.75006
21
-13.85
31
0
39
0
210
0
220
0
230
1
0
LINE
5
137
100
AcDbEntity
8
0
62
256
6
ByLayer
370
-2
48
1
60
0
100
AcDbLine
10
91.75006
20
10.675
30
0
11
91.75006
21
13.85
31
0
39
0
210
0
220
0
230
1
0
SOLID
5
138
100
AcDbEntity
8
0
62
256
6
ByLayer
370
-1
48
1
60
0
100
AcDbTrace
10
92.279227
20
-10.675
30
0
11
91.220893
21
-10.675
31
0
12
91.75006
22
-7.5
32
0
13
91.75006
23
-7.5
33
0
39
0
210
0
220
0
230
1
0
SOLID
5
139
100
AcDbEntity
8
0
62
256
6
ByLayer
370
-1
48
1
60
0
100
AcDbTrace
10
91.220893
20
10.675
30
0
11
92.279227
21
10.675
31
0
12
91.75006
22
7.5
32
0
13
91.75006
23
7.5
33
0
39
0
210
0
220
0
230
1
0
MTEXT
5
13A
100
AcDbEntity
8
0
62
256
6
ByLayer
370
18
48
1
60
0
100
AcDbMText
10
84.44356
20
21.989862
30
0
210
0
220
0
230
1
1
\A1;15
40
3.50012
41
0
44
1
50
90
71
5
72
5
7
iso_b_vert
0
POINT
5
13B
100
AcDbEntity
8
Defpoints
62
0
6
ByLayer
370
-1
48
1
60
0
100
AcDbPoint
10
82.2702
20
-7.5
30
0
39
0
210
0
220
0
230
1
50
360
0
POINT
5
13C
100
AcDbEntity
8
Defpoints
62
0
6
ByLayer
370
-1
48
1
60
0
100
AcDbPoint
10
82.2702
20
7.5
30
0
39
0
210
0
220
0
230
1
50
360
0
POINT
5
13D
100
AcDbEntity
8
Defpoints
62
0
6
ByLayer
370
-1
48
1
60
0
100
AcDbPoint
10
91.75006
20
7.5
30
0
39
0
210
0
220
0
230
1
50
360
0
ENDBLK
5
132
100
AcDbEntity
8
0
100
AcDbBlockEnd
0
BLOCK
5
14A
100
AcDbEntity
8
0
100
AcDbBlockBegin
2
_U1
70
0
10
0
20
0
30
0
3
_U1
0
MTEXT
5
140
100
AcDbEntity
8
2
62
256
6
ByLayer
370
18
48
1
60
0
100
AcDbMText
10
91.060403
20
11.657505
30
0
210
0
220
0
230
1
1
\W0.6864;15.00
40
3.50012
41
0
44
1.084337
50
90
71
7
72
5
7
iso_b_vert
0
LINE
5
141
100
AcDbEntity
8
2
62
256
6
ByLayer
370
13
48
1
60
0
100
AcDbLine
10
83.8577
20
-7.5
30
0
11
94.92506
21
-7.5
31
0
39
0
210
0
220
0
230
1
0
LINE
5
142
100
AcDbEntity
8
2
62
256
6
ByLayer
370
13
48
1
60
0
100
AcDbLine
10
83.8577
20
7.5
30
0
11
94.92506
21
7.5
31
0
39
0
210
0
220
0
230
1
0
LINE
5
143
100
AcDbEntity
8
2
62
256
6
ByLayer
370
13
48
1
60
0
100
AcDbLine
10
91.75006
20
-7.5
30
0
11
91.75006
21
21.455339
31
0
39
0
210
0
220
0
230
1
0
LINE
5
144
100
AcDbEntity
8
2
62
256
6
ByLayer
370
13
48
1
60
0
100
AcDbLine
10
91.75006
20
-7.5
30
0
11
91.332063
21
-4.325002
31
0
39
0
210
0
220
0
230
1
0
LINE
5
145
100
AcDbEntity
8
2
62
256
6
ByLayer
370
13
48
1
60
0
100
AcDbLine
10
91.75006
20
-7.5
30
0
11
92.168057
21
-4.324998
31
0
39
0
210
0
220
0
230
1
0
LINE
5
146
100
AcDbEntity
8
2
62
256
6
ByLayer
370
13
48
1
60
0
100
AcDbLine
10
91.332063
20
-4.325002
30
0
11
92.168057
21
-4.324998
31
0
39
0
210
0
220
0
230
1
0
LINE
5
147
100
AcDbEntity
8
2
62
256
6
ByLayer
370
13
48
1
60
0
100
AcDbLine
10
91.75006
20
7.5
30
0
11
92.168057
21
4.325002
31
0
39
0
210
0
220
0
230
1
0
LINE
5
148
100
AcDbEntity
8
2
62
256
6
ByLayer
370
13
48
1
60
0
100
AcDbLine
10
91.75006
20
7.5
30
0
11
91.332063
21
4.324998
31
0
39
0
210
0
220
0
230
1
0
LINE
5
149
100
AcDbEntity
8
2
62
256
6
ByLayer
370
13
48
1
60
0
100
AcDbLine
10
92.168057
20
4.325002
30
0
11
91.332063
21
4.324998
31
0
39
0
210
0
220
0
230
1
0
ENDBLK
5
14B
100
AcDbEntity
8
0
100
AcDbBlockEnd
0
BLOCK
5
150
100
AcDbEntity
8
0
100
AcDbBlockBegin
2
*D6
70
1
10
0
20
0
30
0
3
*D6
0
LINE
5
152
100
AcDbEntity
8
0
62
256
6
ByLayer
370
-2
48
1
60
0
100
AcDbLine
10
-49.5875
20
8
30
0
11
-54.42494
21
8
31
0
39
0
210
0
220
0
230
1
0
LINE
5
153
100
AcDbEntity
8
0
62
256
6
ByLayer
370
-2
48
1
60
0
100
AcDbLine
10
-49.5875
20
-8
30
0
11
-54.42494
21
-8
31
0
39
0
210
0
220
0
230
1
0
LINE
5
154
100
AcDbEntity
8
0
62
256
6
ByLayer
370
-2
48
1
60
0
100
AcDbLine
10
-51.24994
20
8
30
0
11
-51.24994
21
31.117532
31
0
39
0
210
0
220
0
230
1
0
LINE
5
155
100
AcDbEntity
8
0
62
256
6
ByLayer
370
-2
48
1
60
0
100
AcDbLine
10
-51.24994
20
11.175
30
0
11
-51.24994
21
14.35
31
0
39
0
210
0
220
0
230
1
0
LINE
5
156
100
AcDbEntity
8
0
62
256
6
ByLayer
370
-2
48
1
60
0
100
AcDbLine
10
-51.24994
20
-11.175
30
0
11
-51.24994
21
-14.35
31
0
39
0
210
0
220
0
230
1
0
SOLID
5
157
100
AcDbEntity
8
0
62
256
6
ByLayer
370
-1
48
1
60
0
100
AcDbTrace
10
-51.779107
20
11.175
30
0
11
-50.720773
21
11.175
31
0
12
-51.24994
22
8
32
0
13
-51.24994
23
8
33
0
39
0
210
0
220
0
230
1
0
SOLID
5
158
100
AcDbEntity
8
0
62
256
6
ByLayer
370
-1
48
1
60
0
100
AcDbTrace
10
-50.720773
20
-11.175
30
0
11
-51.779107
21
-11.175
31
0
12
-51.24994
22
-8
32
0
13
-51.24994
23
-8
33
0
39
0
210
0
220
0
230
1
0
MTEXT
5
159
100
AcDbEntity
8
0
62
256
6
ByLayer
370
18
48
1
60
0
100
AcDbMText
10
-58.556441
20
22.97767
30
0
210
0
220
0
230
1
1
\A1;16
40
3.50012
41
0
44
1
50
90
71
5
72
5
7
iso_b_vert
0
POINT
5
15A
100
AcDbEntity
8
Defpoints
62
0
6
ByLayer
370
-1
48
1
60
0
100
AcDbPoint
10
-48
20
8
30
0
39
0
210
0
220
0
230
1
50
360
0
POINT
5
15B
100
AcDbEntity
8
Defpoints
62
0
6
ByLayer
370
-1
48
1
60
0
100
AcDbPoint
10
-48
20
-8
30
0
39
0
210
0
220
0
230
1
50
360
0
POINT
5
15C
100
AcDbEntity
8
Defpoints
62
0
6
ByLayer
370
-1
48
1
60
0
100
AcDbPoint
10
-51.24994
20
-8
30
0
39
0
210
0
220
0
230
1
50
360
0
ENDBLK
5
151
100
AcDbEntity
8
0
100
AcDbBlockEnd
0
BLOCK
5
168
100
AcDbEntity
8
0
100
AcDbBlockBegin
2
_U2
70
0
10
0
20
0
30
0
3
_U2
0
MTEXT
5
15E
100
AcDbEntity
8
SK2
62
256
6
ByLayer
370
18
48
1
60
0
100
AcDbMText
10
-51.939597
20
18.157505
30
0
210
0
220
0
230
1
1
\W0.6864;16.00
40
3.50012
41
0
44
1.084337
50
90
71
7
72
5
7
iso_b_vert
0
LINE
5
15F
100
AcDbEntity
8
SK2
62
256
6
ByLayer
370
13
48
1
60
0
100
AcDbLine
10
-49.5875
20
8
30
0
11
-54.42494
21
8
31
0
39
0
210
0
220
0
230
1
0
LINE
5
160
100
AcDbEntity
8
SK2
62
256
6
ByLayer
370
13
48
1
60
0
100
AcDbLine
10
-49.5875
20
-8
30
0
11
-54.42494
21
-8
31
0
39
0
210
0
220
0
230
1
0
LINE
5
161
100
AcDbEntity
8
SK2
62
256
6
ByLayer
370
13
48
1
60
0
100
AcDbLine
10
-51.24994
20
-8
30
0
11
-51.24994
21
27.955339
31
0
39
0
210
0
220
0
230
1
0
LINE
5
162
100
AcDbEntity
8
SK2
62
256
6
ByLayer
370
13
48
1
60
0
100
AcDbLine
10
-51.24994
20
8
30
0
11
-50.831943
21
4.825002
31
0
39
0
210
0
220
0
230
1
0
LINE
5
163
100
AcDbEntity
8
SK2
62
256
6
ByLayer
370
13
48
1
60
0
100
AcDbLine
10
-51.24994
20
8
30
0
11
-51.667937
21
4.824998
31
0
39
0
210
0
220
0
230
1
0
LINE
5
164
100
AcDbEntity
8
SK2
62
256
6
ByLayer
370
13
48
1
60
0
100
AcDbLine
10
-50.831943
20
4.825002
30
0
11
-51.667937
21
4.824998
31
0
39
0
210
0
220
0
230
1
0
LINE
5
165
100
AcDbEntity
8
SK2
62
256
6
ByLayer
370
13
48
1
60
0
100
AcDbLine
10
-51.24994
20
-8
30
0
11
-51.667937
21
-4.825002
31
0
39
0
210
0
220
0
230
1
0
LINE
5
166
100
AcDbEntity
8
SK2
62
256
6
ByLayer
370
13
48
1
60
0
100
AcDbLine
10
-51.24994
20
-8
30
0
11
-50.831943
21
-4.824998
31
0
39
0
210
0
220
0
230
1
0
LINE
5
167
100
AcDbEntity
8
SK2
62
256
6
ByLayer
370
13
48
1
60
0
100
AcDbLine
10
-51.667937
20
-4.825002
30
0
11
-50.831943
21
-4.824998
31
0
39
0
210
0
220
0
230
1
0
ENDBLK
5
169
100
AcDbEntity
8
0
100
AcDbBlockEnd
0
BLOCK
5
16E
100
AcDbEntity
8
0
100
AcDbBlockBegin
2
*D8
70
1
10
0
20
0
30
0
3
*D8
0
LINE
5
170
100
AcDbEntity
8
0
62
256
6
ByLayer
370
-2
48
1
60
0
100
AcDbLine
10
-48
20
-9.5875
30
0
11
-48
21
-34.67512
31
0
39
0
210
0
220
0
230
1
0
LINE
5
171
100
AcDbEntity
8
0
62
256
6
ByLayer
370
-2
48
1
60
0
100
AcDbLine
10
0
20
-9.5875
30
0
11
0
21
-34.67512
31
0
39
0
210
0
220
0
230
1
0
LINE
5
172
100
AcDbEntity
8
0
62
256
6
ByLayer
370
-2
48
1
60
0
100
AcDbLine
10
-44.825
20
-31.50012
30
0
11
-3.175
21
-31.50012
31
0
39
0
210
0
220
0
230
1
0
SOLID
5
173
100
AcDbEntity
8
0
62
256
6
ByLayer
370
-1
48
1
60
0
100
AcDbTrace
10
-44.825
20
-30.970953
30
0
11
-44.825
21
-32.029287
31
0
12
-48
22
-31.50012
32
0
13
-48
23
-31.50012
33
0
39
0
210
0
220
0
230
1
0
SOLID
5
174
100
AcDbEntity
8
0
62
256
6
ByLayer
370
-1
48
1
60
0
100
AcDbTrace
10
-3.175
20
-32.029287
30
0
11
-3.175
21
-30.970953
31
0
12
0
22
-31.50012
32
0
13
0
23
-31.50012
33
0
39
0
210
0
220
0
230
1
0
MTEXT
5
175
100
AcDbEntity
8
0
62
256
6
ByLayer
370
18
48
1
60
0
100
AcDbMText
10
-24
20
-24.193619
30
0
210
0
220
0
230
1
1
\A1;48
40
3.50012
41
0
44
1
50
0
71
5
72
5
7
iso_b_vert
0
POINT
5
176
100
AcDbEntity
8
Defpoints
62
0
6
ByLayer
370
-1
48
1
60
0
100
AcDbPoint
10
-48
20
-8
30
0
39
0
210
0
220
0
230
1
50
360
0
POINT
5
177
100
AcDbEntity
8
Defpoints
62
0
6
ByLayer
370
-1
48
1
60
0
100
AcDbPoint
10
0
20
-8
30
0
39
0
210
0
220
0
230
1
50
360
0
POINT
5
178
100
AcDbEntity
8
Defpoints
62
0
6
ByLayer
370
-1
48
1
60
0
100
AcDbPoint
10
0
20
-31.50012
30
0
39
0
210
0
220
0
230
1
50
360
0
ENDBLK
5
16F
100
AcDbEntity
8
0
100
AcDbBlockEnd
0
BLOCK
5
184
100
AcDbEntity
8
0
100
AcDbBlockBegin
2
_U3
70
0
10
0
20
0
30
0
3
_U3
0
MTEXT
5
17A
100
AcDbEntity
8
SK2
62
256
6
ByLayer
370
18
48
1
60
0
100
AcDbMText
10
-29.413884
20
-30.467451
30
0
210
0
220
0
230
1
1
\W0.7694;48.00
40
3.50012
41
0
44
1.084337
50
0
71
7
72
5
7
iso_b_vert
0
LINE
5
17B
100
AcDbEntity
8
SK2
62
256
6
ByLayer
370
13
48
1
60
0
100
AcDbLine
10
-48
20
-9.5875
30
0
11
-48
21
-34.67512
31
0
39
0
210
0
220
0
230
1
0
LINE
5
17C
100
AcDbEntity
8
SK2
62
256
6
ByLayer
370
13
48
1
60
0
100
AcDbLine
10
0
20
-9.5875
30
0
11
0
21
-34.67512
31
0
39
0
210
0
220
0
230
1
0
LINE
5
17D
100
AcDbEntity
8
SK2
62
256
6
ByLayer
370
13
48
1
60
0
100
AcDbLine
10
-48
20
-31.50012
30
0
11
0
21
-31.50012
31
0
39
0
210
0
220
0
230
1
0
LINE
5
17E
100
AcDbEntity
8
SK2
62
256
6
ByLayer
370
13
48
1
60
0
100
AcDbLine
10
-48
20
-31.50012
30
0
11
-44.825002
21
-31.082123
31
0
39
0
210
0
220
0
230
1
0
LINE
5
17F
100
AcDbEntity
8
SK2
62
256
6
ByLayer
370
13
48
1
60
0
100
AcDbLine
10
-48
20
-31.50012
30
0
11
-44.824998
21
-31.918117
31
0
39
0
210
0
220
0
230
1
0
LINE
5
180
100
AcDbEntity
8
SK2
62
256
6
ByLayer
370
13
48
1
60
0
100
AcDbLine
10
-44.825002
20
-31.082123
30
0
11
-44.824998
21
-31.918117
31
0
39
0
210
0
220
0
230
1
0
LINE
5
181
100
AcDbEntity
8
SK2
62
256
6
ByLayer
370
13
48
1
60
0
100
AcDbLine
10
0
20
-31.50012
30
0
11
-3.174998
21
-31.918117
31
0
39
0
210
0
220
0
230
1
0
LINE
5
182
100
AcDbEntity
8
SK2
62
256
6
ByLayer
370
13
48
1
60
0
100
AcDbLine
10
0
20
-31.50012
30
0
11
-3.175002
21
-31.082123
31
0
39
0
210
0
220
0
230
1
0
LINE
5
183
100
AcDbEntity
8
SK2
62
256
6
ByLayer
370
13
48
1
60
0
100
AcDbLine
10
-3.174998
20
-31.918117
30
0
11
-3.175002
21
-31.082123
31
0
39
0
210
0
220
0
230
1
0
ENDBLK
5
185
100
AcDbEntity
8
0
100
AcDbBlockEnd
0
BLOCK
5
18A
100
AcDbEntity
8
0
100
AcDbBlockBegin
2
*D10
70
1
10
0
20
0
30
0
3
*D10
0
LINE
5
18C
100
AcDbEntity
8
0
62
256
6
ByLayer
370
-2
48
1
60
0
100
AcDbLine
10
2
20
6.4125
30
0
11
2
21
-25.92482
31
0
39
0
210
0
220
0
230
1
0
LINE
5
18D
100
AcDbEntity
8
0
62
256
6
ByLayer
370
-2
48
1
60
0
100
AcDbLine
10
85
20
-1.5875
30
0
11
85
21
-25.92482
31
0
39
0
210
0
220
0
230
1
0
LINE
5
18E
100
AcDbEntity
8
0
62
256
6
ByLayer
370
-2
48
1
60
0
100
AcDbLine
10
5.175
20
-22.74982
30
0
11
81.825
21
-22.74982
31
0
39
0
210
0
220
0
230
1
0
SOLID
5
18F
100
AcDbEntity
8
0
62
256
6
ByLayer
370
-1
48
1
60
0
100
AcDbTrace
10
5.175
20
-22.220653
30
0
11
5.175
21
-23.278987
31
0
12
2
22
-22.74982
32
0
13
2
23
-22.74982
33
0
39
0
210
0
220
0
230
1
0
SOLID
5
190
100
AcDbEntity
8
0
62
256
6
ByLayer
370
-1
48
1
60
0
100
AcDbTrace
10
81.825
20
-23.278987
30
0
11
81.825
21
-22.220653
31
0
12
85
22
-22.74982
32
0
13
85
23
-22.74982
33
0
39
0
210
0
220
0
230
1
0
MTEXT
5
191
100
AcDbEntity
8
0
62
256
6
ByLayer
370
18
48
1
60
0
100
AcDbMText
10
43.5
20
-15.443319
30
0
210
0
220
0
230
1
1
\A1;83
40
3.50012
41
0
44
1
50
0
71
5
72
5
7
iso_b_vert
0
POINT
5
192
100
AcDbEntity
8
Defpoints
62
0
6
ByLayer
370
-1
48
1
60
0
100
AcDbPoint
10
2
20
8
30
0
39
0
210
0
220
0
230
1
50
360
0
POINT
5
193
100
AcDbEntity
8
Defpoints
62
0
6
ByLayer
370
-1
48
1
60
0
100
AcDbPoint
10
85
20
0
30
0
39
0
210
0
220
0
230
1
50
360
0
POINT
5
194
100
AcDbEntity
8
Defpoints
62
0
6
ByLayer
370
-1
48
1
60
0
100
AcDbPoint
10
85
20
-22.74982
30
0
39
0
210
0
220
0
230
1
50
360
0
ENDBLK
5
18B
100
AcDbEntity
8
0
100
AcDbBlockEnd
0
BLOCK
5
1A0
100
AcDbEntity
8
0
100
AcDbBlockBegin
2
_U4
70
0
10
0
20
0
30
0
3
_U4
0
MTEXT
5
196
100
AcDbEntity
8
SK2
62
256
6
ByLayer
370
18
48
1
60
0
100
AcDbMText
10
38.270389
20
-21.717151
30
0
210
0
220
0
230
1
1
\W0.7468;83.00
40
3.50012
41
0
44
1.084337
50
0
71
7
72
5
7
iso_b_vert
0
LINE
5
197
100
AcDbEntity
8
SK2
62
256
6
ByLayer
370
13
48
1
60
0
100
AcDbLine
10
2
20
6.4125
30
0
11
2
21
-25.92482
31
0
39
0
210
0
220
0
230
1
0
LINE
5
198
100
AcDbEntity
8
SK2
62
256
6
ByLayer
370
13
48
1
60
0
100
AcDbLine
10
85
20
-1.5875
30
0
11
85
21
-25.92482
31
0
39
0
210
0
220
0
230
1
0
LINE
5
199
100
AcDbEntity
8
SK2
62
256
6
ByLayer
370
13
48
1
60
0
100
AcDbLine
10
2
20
-22.74982
30
0
11
85
21
-22.74982
31
0
39
0
210
0
220
0
230
1
0
LINE
5
19A
100
AcDbEntity
8
SK2
62
256
6
ByLayer
370
13
48
1
60
0
100
AcDbLine
10
2
20
-22.74982
30
0
11
5.174998
21
-22.331823
31
0
39
0
210
0
220
0
230
1
0
LINE
5
19B
100
AcDbEntity
8
SK2
62
256
6
ByLayer
370
13
48
1
60
0
100
AcDbLine
10
2
20
-22.74982
30
0
11
5.175002
21
-23.167817
31
0
39
0
210
0
220
0
230
1
0
LINE
5
19C
100
AcDbEntity
8
SK2
62
256
6
ByLayer
370
13
48
1
60
0
100
AcDbLine
10
5.174998
20
-22.331823
30
0
11
5.175002
21
-23.167817
31
0
39
0
210
0
220
0
230
1
0
LINE
5
19D
100
AcDbEntity
8
SK2
62
256
6
ByLayer
370
13
48
1
60
0
100
AcDbLine
10
85
20
-22.74982
30
0
11
81.825002
21
-23.167817
31
0
39
0
210
0
220
0
230
1
0
LINE
5
19E
100
AcDbEntity
8
SK2
62
256
6
ByLayer
370
13
48
1
60
0
100
AcDbLine
10
85
20
-22.74982
30
0
11
81.824998
21
-22.331823
31
0
39
0
210
0
220
0
230
1
0
LINE
5
19F
100
AcDbEntity
8
SK2
62
256
6
ByLayer
370
13
48
1
60
0
100
AcDbLine
10
81.825002
20
-23.167817
30
0
11
81.824998
21
-22.331823
31
0
39
0
210
0
220
0
230
1
0
ENDBLK
5
1A1
100
AcDbEntity
8
0
100
AcDbBlockEnd
0
BLOCK
5
1A6
100
AcDbEntity
8
0
100
AcDbBlockBegin
2
*D12
70
1
10
0
20
0
30
0
3
*D12
0
LINE
5
1A8
100
AcDbEntity
8
0
62
256
6
ByLayer
370
-2
48
1
60
0
100
AcDbLine
10
22
20
-9.0875
30
0
11
22
21
-15.32
31
0
39
0
210
0
220
0
230
1
0
LINE
5
1A9
100
AcDbEntity
8
0
62
256
6
ByLayer
370
-2
48
1
60
0
100
AcDbLine
10
85
20
-1.5875
30
0
11
85
21
-15.32
31
0
39
0
210
0
220
0
230
1
0
LINE
5
1AA
100
AcDbEntity
8
0
62
256
6
ByLayer
370
-2
48
1
60
0
100
AcDbLine
10
25.175
20
-14.82
30
0
11
81.825
21
-14.82
31
0
39
0
210
0
220
0
230
1
0
SOLID
5
1AB
100
AcDbEntity
8
0
62
256
6
ByLayer
370
-1
48
1
60
0
100
AcDbTrace
10
25.175
20
-14.290833
30
0
11
25.175
21
-15.349167
31
0
12
22
22
-14.82
32
0
13
22
23
-14.82
33
0
39
0
210
0
220
0
230
1
0
SOLID
5
1AC
100
AcDbEntity
8
0
62
256
6
ByLayer
370
-1
48
1
60
0
100
AcDbTrace
10
81.825
20
-15.349167
30
0
11
81.825
21
-14.290833
31
0
12
85
22
-14.82
32
0
13
85
23
-14.82
33
0
39
0
210
0
220
0
230
1
0
MTEXT
5
1AD
100
AcDbEntity
8
0
62
256
6
ByLayer
370
18
48
1
60
0
100
AcDbMText
10
53.5
20
-8.975
30
0
210
0
220
0
230
1
1
\A1;63
40
2.8
41
0
44
1
50
0
71
5
72
5
7
iso_b_vert
0
POINT
5
1AE
100
AcDbEntity
8
Defpoints
62
0
6
ByLayer
370
-1
48
1
60
0
100
AcDbPoint
10
22
20
-7.5
30
0
39
0
210
0
220
0
230
1
50
360
0
POINT
5
1AF
100
AcDbEntity
8
Defpoints
62
0
6
ByLayer
370
-1
48
1
60
0
100
AcDbPoint
10
85
20
0
30
0
39
0
210
0
220
0
230
1
50
360
0
POINT
5
1B0
100
AcDbEntity
8
Defpoints
62
0
6
ByLayer
370
-1
48
1
60
0
100
AcDbPoint
10
85
20
-14.82
30
0
39
0
210
0
220
0
230
1
50
360
0
ENDBLK
5
1A7
100
AcDbEntity
8
0
100
AcDbBlockEnd
0
BLOCK
5
1BC
100
AcDbEntity
8
0
100
AcDbBlockBegin
2
_U5
70
0
10
0
20
0
30
0
3
_U5
0
MTEXT
5
1B2
100
AcDbEntity
8
SK2
62
256
6
ByLayer
370
18
48
1
60
0
100
AcDbMText
10
49.316454
20
-14.973893
30
0
210
0
220
0
230
1
1
\W0.7468;63.00
40
2.8
41
0
44
1.084337
50
0
71
7
72
5
7
iso_b_vert
0
LINE
5
1B3
100
AcDbEntity
8
SK2
62
256
6
ByLayer
370
13
48
1
60
0
100
AcDbLine
10
22
20
-9.0875
30
0
11
22
21
-15.32
31
0
39
0
210
0
220
0
230
1
0
LINE
5
1B4
100
AcDbEntity
8
SK2
62
256
6
ByLayer
370
13
48
1
60
0
100
AcDbLine
10
85
20
-1.5875
30
0
11
85
21
-15.32
31
0
39
0
210
0
220
0
230
1
0
LINE
5
1B5
100
AcDbEntity
8
SK2
62
256
6
ByLayer
370
13
48
1
60
0
100
AcDbLine
10
22
20
-14.82
30
0
11
85
21
-14.82
31
0
39
0
210
0
220
0
230
1
0
LINE
5
1B6
100
AcDbEntity
8
SK2
62
256
6
ByLayer
370
13
48
1
60
0
100
AcDbLine
10
22
20
-14.82
30
0
11
25.174998
21
-14.402003
31
0
39
0
210
0
220
0
230
1
0
LINE
5
1B7
100
AcDbEntity
8
SK2
62
256
6
ByLayer
370
13
48
1
60
0
100
AcDbLine
10
22
20
-14.82
30
0
11
25.175002
21
-15.237997
31
0
39
0
210
0
220
0
230
1
0
LINE
5
1B8
100
AcDbEntity
8
SK2
62
256
6
ByLayer
370
13
48
1
60
0
100
AcDbLine
10
25.174998
20
-14.402003
30
0
11
25.175002
21
-15.237997
31
0
39
0
210
0
220
0
230
1
0
LINE
5
1B9
100
AcDbEntity
8
SK2
62
256
6
ByLayer
370
13
48
1
60
0
100
AcDbLine
10
85
20
-14.82
30
0
11
81.825002
21
-15.237997
31
0
39
0
210
0
220
0
230
1
0
LINE
5
1BA
100
AcDbEntity
8
SK2
62
256
6
ByLayer
370
13
48
1
60
0
100
AcDbLine
10
85
20
-14.82
30
0
11
81.824998
21
-14.402003
31
0
39
0
210
0
220
0
230
1
0
LINE
5
1BB
100
AcDbEntity
8
SK2
62
256
6
ByLayer
370
13
48
1
60
0
100
AcDbLine
10
81.825002
20
-15.237997
30
0
11
81.824998
21
-14.402003
31
0
39
0
210
0
220
0
230
1
0
ENDBLK
5
1BD
100
AcDbEntity
8
0
100
AcDbBlockEnd
0
BLOCK
5
1C2
100
AcDbEntity
8
0
100
AcDbBlockBegin
2
*D14
70
1
10
0
20
0
30
0
3
*D14
0
LINE
5
1C4
100
AcDbEntity
8
0
62
256
6
ByLayer
370
-2
48
1
60
0
100
AcDbLine
10
-48
20
-1.5875
30
0
11
-48
21
-44.67512
31
0
39
0
210
0
220
0
230
1
0
LINE
5
1C5
100
AcDbEntity
8
0
62
256
6
ByLayer
370
-2
48
1
60
0
100
AcDbLine
10
85
20
-1.5875
30
0
11
85
21
-44.67512
31
0
39
0
210
0
220
0
230
1
0
LINE
5
1C6
100
AcDbEntity
8
0
62
256
6
ByLayer
370
-2
48
1
60
0
100
AcDbLine
10
-44.825
20
-41.50012
30
0
11
81.825
21
-41.50012
31
0
39
0
210
0
220
0
230
1
0
SOLID
5
1C7
100
AcDbEntity
8
0
62
256
6
ByLayer
370
-1
48
1
60
0
100
AcDbTrace
10
-44.825
20
-40.970953
30
0
11
-44.825
21
-42.029287
31
0
12
-48
22
-41.50012
32
0
13
-48
23
-41.50012
33
0
39
0
210
0
220
0
230
1
0
SOLID
5
1C8
100
AcDbEntity
8
0
62
256
6
ByLayer
370
-1
48
1
60
0
100
AcDbTrace
10
81.825
20
-42.029287
30
0
11
81.825
21
-40.970953
31
0
12
85
22
-41.50012
32
0
13
85
23
-41.50012
33
0
39
0
210
0
220
0
230
1
0
MTEXT
5
1C9
100
AcDbEntity
8
0
62
256
6
ByLayer
370
18
48
1
60
0
100
AcDbMText
10
18.5
20
-34.193619
30
0
210
0
220
0
230
1
1
\A1;133
40
3.50012
41
0
44
1
50
0
71
5
72
5
7
iso_b_vert
0
POINT
5
1CA
100
AcDbEntity
8
Defpoints
62
0
6
ByLayer
370
-1
48
1
60
0
100
AcDbPoint
10
-48
20
0
30
0
39
0
210
0
220
0
230
1
50
360
0
POINT
5
1CB
100
AcDbEntity
8
Defpoints
62
0
6
ByLayer
370
-1
48
1
60
0
100
AcDbPoint
10
85
20
0
30
0
39
0
210
0
220
0
230
1
50
360
0
POINT
5
1CC
100
AcDbEntity
8
Defpoints
62
0
6
ByLayer
370
-1
48
1
60
0
100
AcDbPoint
10
85
20
-41.50012
30
0
39
0
210
0
220
0
230
1
50
360
0
ENDBLK
5
1C3
100
AcDbEntity
8
0
100
AcDbBlockEnd
0
BLOCK
5
1D8
100
AcDbEntity
8
0
100
AcDbBlockBegin
2
_U6
70
0
10
0
20
0
30
0
3
_U6
0
MTEXT
5
1CE
100
AcDbEntity
8
SK2
62
256
6
ByLayer
370
18
48
1
60
0
100
AcDbMText
10
12.400059
20
-40.467451
30
0
210
0
220
0
230
1
1
\W0.7022;133.00
40
3.50012
41
0
44
1.084337
50
0
71
7
72
5
7
iso_b_vert
0
LINE
5
1CF
100
AcDbEntity
8
SK2
62
256
6
ByLayer
370
13
48
1
60
0
100
AcDbLine
10
-48
20
-1.5875
30
0
11
-48
21
-44.67512
31
0
39
0
210
0
220
0
230
1
0
LINE
5
1D0
100
AcDbEntity
8
SK2
62
256
6
ByLayer
370
13
48
1
60
0
100
AcDbLine
10
85
20
-1.5875
30
0
11
85
21
-44.67512
31
0
39
0
210
0
220
0
230
1
0
LINE
5
1D1
100
AcDbEntity
8
SK2
62
256
6
ByLayer
370
13
48
1
60
0
100
AcDbLine
10
-48
20
-41.50012
30
0
11
85
21
-41.50012
31
0
39
0
210
0
220
0
230
1
0
LINE
5
1D2
100
AcDbEntity
8
SK2
62
256
6
ByLayer
370
13
48
1
60
0
100
AcDbLine
10
-48
20
-41.50012
30
0
11
-44.825002
21
-41.082123
31
0
39
0
210
0
220
0
230
1
0
LINE
5
1D3
100
AcDbEntity
8
SK2
62
256
6
ByLayer
370
13
48
1
60
0
100
AcDbLine
10
-48
20
-41.50012
30
0
11
-44.824998
21
-41.918117
31
0
39
0
210
0
220
0
230
1
0
LINE
5
1D4
100
AcDbEntity
8
SK2
62
256
6
ByLayer
370
13
48
1
60
0
100
AcDbLine
10
-44.825002
20
-41.082123
30
0
11
-44.824998
21
-41.918117
31
0
39
0
210
0
220
0
230
1
0
LINE
5
1D5
100
AcDbEntity
8
SK2
62
256
6
ByLayer
370
13
48
1
60
0
100
AcDbLine
10
85
20
-41.50012
30
0
11
81.825002
21
-41.918117
31
0
39
0
210
0
220
0
230
1
0
LINE
5
1D6
100
AcDbEntity
8
SK2
62
256
6
ByLayer
370
13
48
1
60
0
100
AcDbLine
10
85
20
-41.50012
30
0
11
81.824998
21
-41.082123
31
0
39
0
210
0
220
0
230
1
0
LINE
5
1D7
100
AcDbEntity
8
SK2
62
256
6
ByLayer
370
13
48
1
60
0
100
AcDbLine
10
81.825002
20
-41.918117
30
0
11
81.824998
21
-41.082123
31
0
39
0
210
0
220
0
230
1
0
ENDBLK
5
1D9
100
AcDbEntity
8
0
100
AcDbBlockEnd
0
ENDSEC
0
SECTION
2
ENTITIES
0
ARC
5
B2
100
AcDbEntity
8
1
62
256
6
ByLayer
370
18
48
1
60
0
100
AcDbCircle
39
0
10
1.207848
20
8.249335
30
0
40
0.799999999999999
210
0
220
0
230
1
100
AcDbArc
50
220.982953
51
270.03581
0
ARC
5
B3
100
AcDbEntity
8
1
62
256
6
ByLayer
370
18
48
1
60
0
100
AcDbCircle
39
0
10
1.207848
20
-8.249335
30
0
40
0.799999999999999
210
0
220
0
230
1
100
AcDbArc
50
89.96419
51
139.017047
0
ARC
5
B4
100
AcDbEntity
8
1
62
256
6
ByLayer
370
18
48
1
60
0
100
AcDbCircle
39
0
10
0
20
7.2
30
0
40
0.799999999999999
210
0
220
0
230
1
100
AcDbArc
50
40.982953
51
90
0
ARC
5
B5
100
AcDbEntity
8
1
62
256
6
ByLayer
370
18
48
1
60
0
100
AcDbCircle
39
0
10
0
20
-7.2
30
0
40
0.799999999999999
210
0
220
0
230
1
100
AcDbArc
50
270
51
319.017047
0
ARC
5
B6
100
AcDbEntity
8
SK2
62
256
6
ByLayer
370
13
48
1
60
0
100
AcDbCircle
39
0
10
85
20
0
30
0
40
20
210
0
220
0
230
1
100
AcDbArc
50
9.606349
51
69.999843
0
ARC
5
B7
100
AcDbEntity
8
SK2
62
256
6
ByLayer
370
13
48
1
60
0
100
AcDbCircle
39
0
10
85
20
0
30
0
40
20
210
0
220
0
230
1
100
AcDbArc
50
290.000157
51
350.393651
0
ELLIPSE
5
B8
100
AcDbEntity
8
1
62
256
6
ByLayer
370
18
48
1
60
0
100
AcDbEllipse
10
3.601698
20
7.176069
30
0
11
0.1
21
0
31
0
210
0
220
0
230
1
40
1
41
-3.1350455296376
42
-1.53771635010425
0
ELLIPSE
5
B9
100
AcDbEntity
8
1
62
256
6
ByLayer
370
18
48
1
60
0
100
AcDbEllipse
10
3.601698
20
-7.176069
30
0
11
0.1
21
0
31
0
210
0
220
0
230
1
40
1
41
1.59803167195812
42
3.13504552963763
0
POINT
5
70
100
AcDbEntity
8
80
62
256
6
ByLayer
370
18
48
1
60
0
100
AcDbPoint
10
0
20
0
30
0
39
0
210
0
220
0
230
1
50
360
0
POINT
5
72
100
AcDbEntity
8
81
62
256
6
ByLayer
370
18
48
1
60
0
100
AcDbPoint
10
85
20
0
30
0
39
0
210
0
220
0
230
1
50
360
0
POINT
5
74
100
AcDbEntity
8
1
62
256
6
ByLayer
370
18
48
1
60
0
100
AcDbPoint
10
-48
20
0
30
0
39
0
210
0
220
0
230
1
50
360
0
POINT
5
76
100
AcDbEntity
8
1
62
256
6
ByLayer
370
18
48
1
60
1
100
AcDbPoint
10
0
20
-8
30
0
39
0
210
0
220
0
230
1
50
360
0
POINT
5
77
100
AcDbEntity
8
1
62
256
6
ByLayer
370
18
48
1
60
1
100
AcDbPoint
10
85
20
0
30
0
39
0
210
0
220
0
230
1
50
360
0
POINT
5
78
100
AcDbEntity
8
1
62
256
6
ByLayer
370
18
48
1
60
1
100
AcDbPoint
10
82.2702
20
-7.5
30
0
39
0
210
0
220
0
230
1
50
360
0
POINT
5
79
100
AcDbEntity
8
1
62
256
6
ByLayer
370
18
48
1
60
1
100
AcDbPoint
10
82.2702
20
7.5
30
0
39
0
210
0
220
0
230
1
50
360
0
POINT
5
7A
100
AcDbEntity
8
1
62
256
6
ByLayer
370
18
48
1
60
1
100
AcDbPoint
10
-48
20
8
30
0
39
0
210
0
220
0
230
1
50
360
0
POINT
5
7B
100
AcDbEntity
8
1
62
256
6
ByLayer
370
18
48
1
60
1
100
AcDbPoint
10
-48
20
-8
30
0
39
0
210
0
220
0
230
1
50
360
0
POINT
5
7C
100
AcDbEntity
8
1
62
256
6
ByLayer
370
18
48
1
60
1
100
AcDbPoint
10
-48
20
-8
30
0
39
0
210
0
220
0
230
1
50
360
0
POINT
5
7D
100
AcDbEntity
8
1
62
256
6
ByLayer
370
18
48
1
60
1
100
AcDbPoint
10
0
20
-8
30
0
39
0
210
0
220
0
230
1
50
360
0
POINT
5
7E
100
AcDbEntity
8
1
62
256
6
ByLayer
370
18
48
1
60
1
100
AcDbPoint
10
2
20
8
30
0
39
0
210
0
220
0
230
1
50
360
0
POINT
5
7F
100
AcDbEntity
8
1
62
256
6
ByLayer
370
18
48
1
60
1
100
AcDbPoint
10
85
20
0
30
0
39
0
210
0
220
0
230
1
50
360
0
POINT
5
80
100
AcDbEntity
8
1
62
256
6
ByLayer
370
18
48
1
60
1
100
AcDbPoint
10
22
20
-7.5
30
0
39
0
210
0
220
0
230
1
50
360
0
POINT
5
81
100
AcDbEntity
8
1
62
256
6
ByLayer
370
18
48
1
60
1
100
AcDbPoint
10
85
20
0
30
0
39
0
210
0
220
0
230
1
50
360
0
POINT
5
82
100
AcDbEntity
8
1
62
256
6
ByLayer
370
18
48
1
60
1
100
AcDbPoint
10
-48
20
0
30
0
39
0
210
0
220
0
230
1
50
360
0
POINT
5
83
100
AcDbEntity
8
1
62
256
6
ByLayer
370
18
48
1
60
1
100
AcDbPoint
10
85
20
0
30
0
39
0
210
0
220
0
230
1
50
360
0
SPLINE
5
BA
100
AcDbEntity
8
1
62
256
6
ByLayer
370
18
48
1
60
0
100
AcDbSpline
70
4
71
3
72
12
73
8
40
0
40
0
40
0
40
0
40
0.397507268959771
40
0.397507268959771
40
0.795014537919542
40
0.795014537919542
40
1
40
1
40
1
40
1
41
1
10
82.7717211865948
20
1.39509860392948
30
-1E-16
41
1
10
82.7027721286615
20
1.43203184185214
30
-1E-16
41
1
10
82.6346787956062
20
1.46684136801508
30
-1E-16
41
1
10
82.5035655219394
20
1.52911460524342
30
-1E-16
41
1
10
82.4405804451704
20
1.5563665839982
30
-1E-16
41
1
10
82.3504710606193
20
1.58958143607063
30
-1E-16
41
1
10
82.3207162949715
20
1.59951792121072
30
-1E-16
41
1
10
82.2918555603187
20
1.60810386879703
30
-1E-16
0
SPLINE
5
BB
100
AcDbEntity
8
1
62
256
6
ByLayer
370
18
48
1
60
0
100
AcDbSpline
70
4
71
3
72
32
73
28
40
0
40
0
40
0
40
0
40
0.124999999999991
40
0.124999999999991
40
0.187499999999991
40
0.187499999999991
40
0.249999999999992
40
0.249999999999992
40
0.312499999999993
40
0.312499999999993
40
0.374999999999993
40
0.374999999999993
40
0.437499999999994
40
0.437499999999994
40
0.499999999999994
40
0.499999999999994
40
0.562499999999995
40
0.562499999999995
40
0.624999999999996
40
0.624999999999996
40
0.687499999999997
40
0.687499999999997
40
0.749999999999997
40
0.749999999999997
40
0.874999999999999
40
0.874999999999999
40
1
40
1
40
1
40
1
41
1
10
84.8954120045972
20
0.0902874889137308
30
0
41
1
10
84.8591072214531
20
-0.0294144564968519
30
0
41
1
10
84.8173674449523
20
-0.146379750417395
30
0
41
1
10
84.7462983618479
20
-0.317427650318365
30
0
41
1
10
84.7209613275865
20
-0.374145871611603
30
0
41
1
10
84.6686010041634
20
-0.483052035983747
30
0
41
1
10
84.641564882942
20
-0.535354796390152
30
0
41
1
10
84.5858203006457
20
-0.635526084051264
30
0
41
1
10
84.5571129876838
20
-0.683397522537689
30
0
41
1
10
84.4979402158219
20
-0.774313534348437
30
0
41
1
10
84.4675444037589
20
-0.817151959241528
30
1E-16
41
1
10
84.4074438404412
20
-0.894238983866785
30
1E-16
41
1
10
84.3774350235877
20
-0.928974544996834
30
-1E-16
41
1
10
84.3174603814108
20
-0.990671767712371
30
-1E-16
41
1
10
84.2872212359229
20
-1.01780244561047
30
0
41
1
10
84.2286872110638
20
-1.0622899399537
30
0
41
1
10
84.2002516229815
20
-1.07986854930186
30
0
41
1
10
84.1448251924053
20
-1.10606084013386
30
1E-16
41
1
10
84.1176325821836
20
-1.1146769803259
30
1E-16
41
1
10
84.0658042643962
20
-1.12273756607252
30
1E-16
41
1
10
84.041112966253
20
-1.12228783215124
30
1E-16
41
1
10
83.9937872768504
20
-1.11312706276496
30
1E-16
41
1
10
83.9710188962333
20
-1.10432051049207
30
1E-16
41
1
10
83.906458346941
20
-1.06664714245275
30
1E-16
41
1
10
83.8685569463852
20
-1.02711425666467
30
1E-16
41
1
10
83.7999431072557
20
-0.924333810700546
30
1E-16
41
1
10
83.7693343008931
20
-0.860836190292105
30
1E-16
41
1
10
83.7422687439731
20
-0.788587775042089
30
0
0
SPLINE
5
BC
100
AcDbEntity
8
1
62
256
6
ByLayer
370
18
48
1
60
0
100
AcDbSpline
70
4
71
3
72
10
73
6
40
0
40
0
40
0
40
0
40
0.5
40
0.5
40
1
40
1
40
1
40
1
41
1
10
3.50169783643383
20
-4.91107549117291
30
3E-16
41
1
10
3.50169783643383
20
-4.88490605431917
30
3E-16
41
1
10
3.52077306096046
20
-4.8595890942521
30
3E-16
41
1
10
3.58037850718404
20
-4.83268276866576
30
3E-16
41
1
10
3.61885929777651
20
-4.83208062417069
30
3E-16
41
1
10
3.6494366755598
20
-4.84471430796438
30
3E-16
0
SPLINE
5
BD
100
AcDbEntity
8
1
62
256
6
ByLayer
370
18
48
1
60
0
100
AcDbSpline
70
4
71
3
72
8
73
4
40
0
40
0
40
0
40
0
40
1
40
1
40
1
40
1
41
1
10
82.379715274445
20
7.19906840851993
30
0
41
1
10
82.3843826129023
20
7.19592519857082
30
0
41
1
10
82.3890500294482
20
7.19278156907802
30
0
41
1
10
82.3937175249055
20
7.1896375201396
30
0
0
SPLINE
5
BE
100
AcDbEntity
8
1
62
256
6
ByLayer
370
18
48
1
60
0
100
AcDbSpline
70
4
71
3
72
60
73
56
40
0
40
0
40
0
40
0
40
0.0312499999999999
40
0.0312499999999999
40
0.0624999999999998
40
0.0624999999999998
40
0.0937499999999997
40
0.0937499999999997
40
0.125
40
0.125
40
0.187499999999999
40
0.187499999999999
40
0.218749999999999
40
0.218749999999999
40
0.249999999999999
40
0.249999999999999
40
0.281249999999999
40
0.281249999999999
40
0.312499999999999
40
0.312499999999999
40
0.343749999999999
40
0.343749999999999
40
0.374999999999999
40
0.374999999999999
40
0.406249999999999
40
0.406249999999999
40
0.437499999999999
40
0.437499999999999
40
0.468749999999998
40
0.468749999999998
40
0.499999999999998
40
0.499999999999998
40
0.562499999999998
40
0.562499999999998
40
0.593749999999998
40
0.593749999999998
40
0.624999999999999
40
0.624999999999999
40
0.687499999999998
40
0.687499999999998
40
0.718749999999999
40
0.718749999999999
40
0.749999999999999
40
0.749999999999999
40
0.812499999999999
40
0.812499999999999
40
0.84375
40
0.84375
40
0.875
40
0.875
40
0.90625
40
0.90625
40
0.9375
40
0.9375
40
1
40
1
40
1
40
1
41
1
10
32
20
6.61802012209404
30
0
41
1
10
32.5212294891384
20
6.7484517636525
30
0
41
1
10
33.0423067515898
20
6.86481604386117
30
0
41
1
10
34.0830251038583
20
7.06779836005811
30
0
41
1
10
34.603021068486
20
7.15451010336349
30
0
41
1
10
35.6438192307171
20
7.29748293269736
30
0
41
1
10
36.165220137419
20
7.35377545600448
30
0
41
1
10
37.2067817768584
20
7.43486785697687
30
0
41
1
10
37.7269369323188
20
7.45972630542212
30
0
41
1
10
39.2876044757037
20
7.48702021699012
30
0
41
1
10
40.3297199971764
20
7.44181997402549
30
0
41
1
10
41.8926739640235
20
7.28015908424504
30
0
41
1
10
42.4136832350226
20
7.21069564957887
30
0
41
1
10
43.4543177225265
20
7.04189889293511
30
0
41
1
10
43.9743319054608
20
6.94251831984374
30
0
41
1
10
45.0151150931194
20
6.714673352077
30
0
41
1
10
45.536474371459
20
6.58603292915186
30
0
41
1
10
46.5777019557908
20
6.30170474335179
30
-4E-16
41
1
10
47.0976642634377
20
6.14603728262867
30
-4E-16
41
1
10
48.1378201004711
20
5.80933517535885
30
-4E-16
41
1
10
48.6580153666901
20
5.62830295399212
30
-3E-16
41
1
10
49.7001611130164
20
5.24256431862551
30
-3E-16
41
1
10
50.2205621036364
20
5.03843738887335
30
-3E-16
41
1
10
51.260774955506
20
4.60996810801103
30
-3E-16
41
1
10
51.7806877514966
20
4.38557187908069
30
-3E-16
41
1
10
52.8216004458421
20
3.91858207194457
30
-2E-16
41
1
10
53.3428840454301
20
3.67583800445345
30
-2E-16
41
1
10
54.3834386684052
20
3.1767547286594
30
-2E-16
41
1
10
54.903260686847
20
2.92018344456295
30
-2E-16
41
1
10
55.9435257763605
20
2.39560336408118
30
-1E-16
41
1
10
56.4645140266958
20
2.12731372906458
30
-1E-16
41
1
10
58.026642636772
20
1.31095131173063
30
-1E-16
41
1
10
59.0639221447183
20
0.753006434529311
30
0
41
1
10
60.6222849219611
20
-0.088458835420596
30
0
41
1
10
61.142377936647
20
-0.369802957492652
30
0
41
1
10
62.1840569619502
20
-0.930550733565838
30
1E-16
41
1
10
62.7037871903409
20
-1.20894443806921
30
1E-16
41
1
10
64.2619364306503
20
-2.03405961988287
30
1E-16
41
1
10
65.2992899955446
20
-2.57076284282536
30
2E-16
41
1
10
66.8617433321157
20
-3.34039501642863
30
2E-16
41
1
10
67.3823522772348
20
-3.59036476798016
30
2E-16
41
1
10
68.4233850497003
20
-4.07403169562309
30
2E-16
41
1
10
68.9445863526472
20
-4.30806376590331
30
3E-16
41
1
10
70.5051332792095
20
-4.98004685345012
30
3E-16
41
1
10
71.5420128648457
20
-5.38833008066911
30
3E-16
41
1
10
73.100676099647
20
-5.92972947946058
30
4E-16
41
1
10
73.6213642733113
20
-6.09848762549382
30
4E-16
41
1
10
74.6625571159629
20
-6.40935024143752
30
-1E-16
41
1
10
75.1828172454704
20
-6.55139613818633
30
0
41
1
10
76.2241111875852
20
-6.80740783024106
30
0
41
1
10
76.7449228060505
20
-6.92127950659477
30
0
41
1
10
77.783148008419
20
-7.1188324740325
30
0
41
1
10
78.3012411638048
20
-7.20269584169239
30
0
41
1
10
79.8545760139491
20
-7.40861653945606
30
0
41
1
10
80.8889580164289
20
-7.48489334136443
30
0
41
1
10
81.9283598788674
20
-7.49795674674476
30
0
0
SPLINE
5
BF
100
AcDbEntity
8
1
62
256
6
ByLayer
370
18
48
1
60
0
100
AcDbSpline
70
4
71
3
72
30
73
26
40
0
40
0
40
0
40
0
40
0.0085025110498202
40
0.0085025110498202
40
0.12112148964446
40
0.12112148964446
40
0.346359446833738
40
0.346359446833738
40
0.458978425428378
40
0.458978425428378
40
0.487133170077038
40
0.487133170077038
40
0.515287914725697
40
0.515287914725697
40
0.571597404023016
40
0.571597404023016
40
0.796835361212292
40
0.796835361212292
40
0.90945433980693
40
0.90945433980693
40
0.937609084455589
40
0.937609084455589
40
0.965763829104247
40
0.965763829104247
40
1
40
1
40
1
40
1
41
1
10
40.704948838266
20
-7.10892832738494
30
0
41
1
10
40.6425408151475
20
-7.10905412202806
30
0
41
1
10
40.5801276198606
20
-7.10896300480121
30
0
41
1
10
39.6909423915487
20
-7.10457019446102
30
0
41
1
10
38.8689963564739
20
-7.0627605908154
30
0
41
1
10
36.4121476767758
20
-6.82754281618867
30
0
41
1
10
34.7855185542219
20
-6.52612930586514
30
0
41
1
10
32.3301375942287
20
-5.87778162118454
30
4E-16
41
1
10
31.5094274518071
20
-5.62940706922865
30
3E-16
41
1
10
30.4767973265152
20
-5.28093326582982
30
3E-16
41
1
10
30.2698956191842
20
-5.20933155653654
30
3E-16
41
1
10
29.8571856312758
20
-5.06311600646464
30
3E-16
41
1
10
29.651152432396
20
-4.98842932726765
30
3E-16
41
1
10
29.0338551608294
20
-4.75977503195716
30
3E-16
41
1
10
28.6233927441975
20
-4.60121263370388
30
3E-16
41
1
10
26.5745252566379
20
-3.78103266068706
30
2E-16
41
1
10
24.9472667781751
20
-3.03673060949799
30
2E-16
41
1
10
22.4924534106106
20
-1.84352901810797
30
1E-16
41
1
10
21.6718686996096
20
-1.43303899115449
30
1E-16
41
1
10
20.6399189819989
20
-0.910086259245531
30
1E-16
41
1
10
20.4329865822717
20
-0.804897634941881
30
0
41
1
10
20.0198914830373
20
-0.59445571759764
30
0
41
1
10
19.8136767965781
20
-0.489176734767057
30
0
41
1
10
19.357355352864
20
-0.255920300925567
30
0
41
1
10
19.1073877036245
20
-0.127954475715853
30
0
41
1
10
18.8577713456967
20
-0.0001808009204751
30
0
0
SPLINE
5
C0
100
AcDbEntity
8
1
62
256
6
ByLayer
370
18
48
1
60
0
100
AcDbSpline
70
4
71
3
72
14
73
10
40
0
40
0
40
0
40
0
40
0.266377788711759
40
0.266377788711759
40
0.498085825036636
40
0.498085825036636
40
0.77534784577517
40
0.77534784577517
40
1
40
1
40
1
40
1
41
1
10
81.4709390351229
20
-0.273013124180352
30
0
41
1
10
81.4716705628377
20
-0.273333044542255
30
0
41
1
10
81.4723889764458
20
-0.27402800996714
30
0
41
1
10
81.4735900241762
20
-0.275756671071775
30
0
41
1
10
81.4741075936504
20
-0.276757635144122
30
0
41
1
10
81.4750906270563
20
-0.279220552542029
30
0
41
1
10
81.4755415248776
20
-0.280771788456633
30
0
41
1
10
81.4761227808642
20
-0.283759827388678
30
0
41
1
10
81.47630358276
20
-0.285198030400181
30
0
41
1
10
81.4763708534964
20
-0.286636980601457
30
0
0
SPLINE
5
C1
100
AcDbEntity
8
1
62
256
6
ByLayer
370
18
48
1
60
0
100
AcDbSpline
70
4
71
3
72
8
73
4
40
0
40
0
40
0
40
0
40
1
40
1
40
1
40
1
41
1
10
32.0000000000001
20
6.67121184004222
30
0
41
1
10
32.0000000000001
20
6.57720871286099
30
0
41
1
10
32.0000000000001
20
6.48336413933583
30
0
41
1
10
32.0000000000001
20
6.38967403513229
30
1E-16
0
SPLINE
5
C2
100
AcDbEntity
8
1
62
256
6
ByLayer
370
18
48
1
60
0
100
AcDbSpline
70
4
71
3
72
20
73
16
40
0
40
0
40
0
40
0
40
0.499999999999948
40
0.499999999999948
40
0.749999999999922
40
0.749999999999922
40
0.87499999999996
40
0.87499999999996
40
0.937500000000032
40
0.937500000000032
40
0.968750000000068
40
0.968750000000068
40
0.984375000000034
40
0.984375000000034
40
1
40
1
40
1
40
1
41
1
10
81.928359878868
20
-7.49795674673237
30
0
41
1
10
82.0033429199885
20
-7.44910226635591
30
0
41
1
10
82.0785163999147
20
-7.39970427047692
30
0
41
1
10
82.1913702505811
20
-7.32496449184617
30
0
41
1
10
82.2289977784982
20
-7.29994808111394
30
0
41
1
10
82.2854126897213
20
-7.26229778491356
30
0
41
1
10
82.3041966937462
20
-7.24973807656659
30
0
41
1
10
82.3324632378724
20
-7.23079972694038
30
0
41
1
10
82.3419025145255
20
-7.22446914167222
30
0
41
1
10
82.3561039909581
20
-7.21493542294516
30
0
41
1
10
82.3608544299346
20
-7.21174470398577
30
0
41
1
10
82.3679274457065
20
-7.20699263180862
30
0
41
1
10
82.370275679681
20
-7.20541472663194
30
0
41
1
10
82.3749277523449
20
-7.20228848206344
30
0
41
1
10
82.3774379680994
20
-7.20059914513251
30
0
41
1
10
82.3797152744375
20
-7.19906840852858
30
0
0
SPLINE
5
C3
100
AcDbEntity
8
1
62
256
6
ByLayer
370
18
48
1
60
0
100
AcDbSpline
70
4
71
3
72
12
73
8
40
0
40
0
40
0
40
0
40
0.0870114522838427
40
0.0870114522838427
40
0.391340968189231
40
0.391340968189231
40
1
40
1
40
1
40
1
41
1
10
28.0594395581839
20
5.45939051399188
30
-3E-16
41
1
10
28.1746016692927
20
5.50177087589646
30
-3E-16
41
1
10
28.2896684857566
20
5.543553239087
30
-3E-16
41
1
10
28.8065110740634
20
5.72863471446519
30
-4E-16
41
1
10
29.2072431436854
20
5.86517080546304
30
-4E-16
41
1
10
30.4071944792937
20
6.2513355188668
30
-4E-16
41
1
10
31.2039496859675
20
6.47780338343892
30
0
41
1
10
31.9999999999895
20
6.671211840034
30
0
0
SPLINE
5
C4
100
AcDbEntity
8
1
62
256
6
ByLayer
370
18
48
1
60
0
100
AcDbSpline
70
4
71
3
72
8
73
4
40
0
40
0
40
0
40
0
40
1
40
1
40
1
40
1
41
1
10
84.3639082527146
20
-2.25068830616488
30
0
41
1
10
84.5792135599759
20
-1.640479424402
30
0
41
1
10
84.788965474758
20
-1.02828294939184
30
0
41
1
10
84.9930837550548
20
-0.41407016202794
30
0
0
SPLINE
5
C5
100
AcDbEntity
8
1
62
256
6
ByLayer
370
18
48
1
60
0
100
AcDbSpline
70
4
71
3
72
24
73
20
40
0
40
0
40
0
40
0
40
0.250000000000005
40
0.250000000000005
40
0.50000000000001
40
0.50000000000001
40
0.562500000000009
40
0.562500000000009
40
0.625000000000008
40
0.625000000000008
40
0.687500000000006
40
0.687500000000006
40
0.750000000000005
40
0.750000000000005
40
0.875000000000003
40
0.875000000000003
40
0.937500000000001
40
0.937500000000001
40
1
40
1
40
1
40
1
41
1
10
82.3937175249054
20
7.1896375201396
30
0
41
1
10
82.5433298409269
20
6.76666145338206
30
0
41
1
10
82.6913963879651
20
6.3407740615753
30
0
41
1
10
82.9901374074302
20
5.48594018579709
30
0
41
1
10
83.1408232085753
20
5.05738525048392
30
0
41
1
10
83.3325030003733
20
4.52304751307489
30
0
41
1
10
83.3709874779334
20
4.41625667142691
30
0
41
1
10
83.4483028764625
20
4.20284402857561
30
0
41
1
10
83.4869977968862
20
4.09615745731509
30
0
41
1
10
83.5670612201802
20
3.88408500862209
30
0
41
1
10
83.6082968121825
20
3.77832394283226
30
0
41
1
10
83.6924020994664
20
3.57054205515217
30
0
41
1
10
83.7353670536598
20
3.46827786747409
30
0
41
1
10
83.8674851554463
20
3.16656006980767
30
0
41
1
10
83.9598920595342
20
2.97221312179914
30
0
41
1
10
84.1064886890111
20
2.69121598333393
30
0
41
1
10
84.1569126183694
20
2.59893783220124
30
0
41
1
10
84.2592390116641
20
2.42046832797865
30
0
41
1
10
84.3111708527962
20
2.33417594064741
30
0
41
1
10
84.3639082527146
20
2.25068830616488
30
0
0
SPLINE
5
C6
100
AcDbEntity
8
1
62
256
6
ByLayer
370
18
48
1
60
0
100
AcDbSpline
70
4
71
3
72
26
73
22
40
0
40
0
40
0
40
0
40
0.0346326014421647
40
0.0346326014421647
40
0.275974451081624
40
0.275974451081624
40
0.336309913491489
40
0.336309913491489
40
0.396645375901355
40
0.396645375901355
40
0.517316300721084
40
0.517316300721084
40
0.758658150360546
40
0.758658150360546
40
0.879329075180275
40
0.879329075180275
40
0.939664537590137
40
0.939664537590137
40
0.969832268795069
40
0.969832268795069
40
1
40
1
40
1
40
1
41
1
10
61.9884411062078
20
0.226158324795023
30
0
41
1
10
62.222491464699
20
0.106152531847499
30
0
41
1
10
62.4563587285127
20
-0.0138599835759123
30
0
41
1
10
64.3190037718846
20
-0.969255333189636
30
1E-16
41
1
10
65.9417230373098
20
-1.79961033332017
30
1E-16
41
1
10
67.988689642414
20
-2.77904375961757
30
2E-16
41
1
10
68.3989905235645
20
-2.97204636742157
30
2E-16
41
1
10
69.2221074506695
20
-3.35090303079096
30
2E-16
41
1
10
69.6358651896779
20
-3.53715324219019
30
2E-16
41
1
10
70.8719891980242
20
-4.07873424374367
30
2E-16
41
1
10
71.6906980236745
20
-4.41788868924758
30
3E-16
41
1
10
74.1388732120067
20
-5.35843953757296
30
3E-16
41
1
10
75.7606261059676
20
-5.88303567918905
30
4E-16
41
1
10
78.2079573530089
20
-6.47746647563588
30
0
41
1
10
79.0263886682809
20
-6.64392104805876
30
0
41
1
10
80.2616737956484
20
-6.84089048975488
30
0
41
1
10
80.6751587058249
20
-6.8977943206707
30
0
41
1
10
81.2944872442262
20
-6.96906305763946
30
0
41
1
10
81.5008938986126
20
-6.99049415233307
30
0
41
1
10
81.9137123442078
20
-7.02866403582274
30
0
41
1
10
82.1201186602922
20
-7.04504306178367
30
0
41
1
10
82.3265794215002
20
-7.05982807173265
30
0
0
SPLINE
5
C7
100
AcDbEntity
8
1
62
256
6
ByLayer
370
18
48
1
60
0
100
AcDbSpline
70
4
71
3
72
64
73
60
40
0
40
0
40
0
40
0
40
0.0353073890901957
40
0.0353073890901957
40
0.0779231173640938
40
0.0779231173640938
40
0.120538845637992
40
0.120538845637992
40
0.16315457391189
40
0.16315457391189
40
0.205770302185788
40
0.205770302185788
40
0.248386030459686
40
0.248386030459686
40
0.291001758733585
40
0.291001758733585
40
0.333617487007483
40
0.333617487007483
40
0.354925351144432
40
0.354925351144432
40
0.376233215281381
40
0.376233215281381
40
0.418848943555278
40
0.418848943555278
40
0.461464671829176
40
0.461464671829176
40
0.504080400103073
40
0.504080400103073
40
0.525388264240022
40
0.525388264240022
40
0.536042196308496
40
0.536042196308496
40
0.546696128376971
40
0.546696128376971
40
0.589311856650869
40
0.589311856650869
40
0.631927584924768
40
0.631927584924768
40
0.674543313198667
40
0.674543313198667
40
0.695851177335616
40
0.695851177335616
40
0.717159041472566
40
0.717159041472566
40
0.759774769746464
40
0.759774769746464
40
0.802390498020363
40
0.802390498020363
40
0.845006226294262
40
0.845006226294262
40
0.887621954568161
40
0.887621954568161
40
0.90892981870511
40
0.90892981870511
40
0.93023768284206
40
0.93023768284206
40
0.972853411115959
40
0.972853411115959
40
1
40
1
40
1
40
1
41
1
10
71.6666656163184
20
-5.42760089715586
30
3E-16
41
1
10
71.0286183681335
20
-5.6653521467222
30
3E-16
41
1
10
70.393364516617
20
-5.88485268544301
30
4E-16
41
1
10
68.9940502097972
20
-6.32565862537871
30
4E-16
41
1
10
68.2310556659142
20
-6.53848748066071
30
0
41
1
10
66.7039116652545
20
-6.90245473664851
30
0
41
1
10
65.9397335548987
20
-7.05368070342146
30
0
41
1
10
64.4068243748521
20
-7.29148329840035
30
0
41
1
10
63.6374028223644
20
-7.37765500408733
30
0
41
1
10
62.0886391601785
20
-7.48113890681813
30
0
41
1
10
61.3195759688583
20
-7.49767520068892
30
0
41
1
10
59.7862357969347
20
-7.4620984440167
30
0
41
1
10
59.0222583925812
20
-7.41003543967781
30
0
41
1
10
57.4953875106348
20
-7.23902231995305
30
0
41
1
10
56.731955559851
20
-7.12032209230512
30
0
41
1
10
55.2016130874014
20
-6.81813612346127
30
0
41
1
10
54.4346290374304
20
-6.63459578299023
30
0
41
1
10
53.277206244532
20
-6.31305237145833
30
4E-16
41
1
10
52.8894475898862
20
-6.19784780115728
30
4E-16
41
1
10
52.116754255396
20
-5.95385778275681
30
4E-16
41
1
10
51.731692365018
20
-5.82500145334444
30
4E-16
41
1
10
50.5787060688562
20
-5.42011994264388
30
3E-16
41
1
10
49.8132245216976
20
-5.12554507809469
30
3E-16
41
1
10
48.2852255899828
20
-4.49235753796583
30
3E-16
41
1
10
47.5220726972788
20
-4.15464357473175
30
3E-16
41
1
10
45.9933253256851
20
-3.44348230838699
30
2E-16
41
1
10
45.2280563794876
20
-3.06944309853281
30
2E-16
41
1
10
44.0742017284076
20
-2.48812254771607
30
2E-16
41
1
10
43.6886874609411
20
-2.29081123923447
30
1E-16
41
1
10
43.1086925012111
20
-1.99010830290399
30
1E-16
41
1
10
42.9148696251346
20
-1.8890334095091
30
1E-16
41
1
10
42.5281674638701
20
-1.68617034020764
30
1E-16
41
1
10
42.335140577671
20
-1.58433641522765
30
1E-16
41
1
10
41.3712120438018
20
-1.07395263656491
30
1E-16
41
1
10
40.6040008369662
20
-0.661613135202828
30
0
41
1
10
39.0734391689052
20
0.163608210812384
30
0
41
1
10
38.3102646780772
20
0.576815618785929
30
0
41
1
10
36.7822747819457
20
1.39338115338282
30
-1E-16
41
1
10
36.0181005670507
20
1.79794485215612
30
-1E-16
41
1
10
34.8673286005581
20
2.39123736071221
30
-1E-16
41
1
10
34.4829537641112
20
2.58668475334068
30
-2E-16
41
1
10
33.7122164361275
20
2.97215511000036
30
-2E-16
41
1
10
33.3254113827281
20
3.16231308129022
30
-2E-16
41
1
10
32.1640455694374
20
3.7221928887804
30
-2E-16
41
1
10
31.3946290812511
20
4.07692595851157
30
-2E-16
41
1
10
29.861033760514
20
4.74360389708298
30
-3E-16
41
1
10
29.0970760424886
20
5.05583172958151
30
-3E-16
41
1
10
27.5690473705413
20
5.63033615991787
30
-3E-16
41
1
10
26.8051892697866
20
5.89296814958826
30
-4E-16
41
1
10
25.2739274242876
20
6.36385238499929
30
1E-16
41
1
10
24.5058695617845
20
6.57140260706527
30
0
41
1
10
23.3474174102064
20
6.83734631724255
30
0
41
1
10
22.9594953635536
20
6.91856830239703
30
0
41
1
10
22.1868005217717
20
7.06383882674234
30
0
41
1
10
21.8015215922182
20
7.12803544197055
30
0
41
1
10
20.648130641432
20
7.2953369126077
30
0
41
1
10
19.8827247437231
20
7.37325050454504
30
0
41
1
10
18.6313341006776
20
7.445097753683
30
0
41
1
10
18.1446433747175
20
7.45926328097798
30
0
41
1
10
17.6578091326422
20
7.45960428659814
30
0
0
SPLINE
5
C8
100
AcDbEntity
8
1
62
256
6
ByLayer
370
18
48
1
60
0
100
AcDbSpline
70
4
71
3
72
52
73
48
40
0
40
0
40
0
40
0
40
0.0516832354303533
40
0.0516832354303533
40
0.0813181343231548
40
0.0813181343231548
40
0.110953033215956
40
0.110953033215956
40
0.170222831001559
40
0.170222831001559
40
0.199857729894361
40
0.199857729894361
40
0.229492628787163
40
0.229492628787163
40
0.288762426572766
40
0.288762426572766
40
0.318397325465566
40
0.318397325465566
40
0.348032224358368
40
0.348032224358368
40
0.407302022143971
40
0.407302022143971
40
0.436936921036773
40
0.436936921036773
40
0.466571819929575
40
0.466571819929575
40
0.525841617715178
40
0.525841617715178
40
0.55547651660798
40
0.55547651660798
40
0.585111415500782
40
0.585111415500782
40
0.644381213286385
40
0.644381213286385
40
0.674016112179186
40
0.674016112179186
40
0.703651011071988
40
0.703651011071988
40
0.76292080885759
40
0.76292080885759
40
0.792555707750391
40
0.792555707750391
40
0.822190606643192
40
0.822190606643192
40
0.881460404428795
40
0.881460404428795
40
1
40
1
40
1
40
1
41
1
10
44.8560119502654
20
-7.13222294649339
30
0
41
1
10
44.1441660663008
20
-7.24697419332387
30
0
41
1
10
43.4334847360178
20
-7.33330877871509
30
0
41
1
10
42.3141191114239
20
-7.42326799711759
30
0
41
1
10
41.9059500991202
20
-7.44647111602242
30
0
41
1
10
41.088433779926
20
-7.47345552794758
30
0
41
1
10
40.679109242784
20
-7.47720390518126
30
0
41
1
10
39.4539122501773
20
-7.459223780233
30
0
41
1
10
38.6390030460321
20
-7.40833910435629
30
0
41
1
10
37.4150232374253
20
-7.27484133412815
30
0
41
1
10
37.006825000239
20
-7.22079125790086
30
0
41
1
10
36.1891821098509
20
-7.09383887045354
30
0
41
1
10
35.7798538344957
20
-7.02093861209659
30
0
41
1
10
34.5545531916521
20
-6.77569101446906
30
0
41
1
10
33.7396639662271
20
-6.57630201535903
30
0
41
1
10
32.5154827546957
20
-6.22760643702685
30
4E-16
41
1
10
32.1072137073299
20
-6.10301576729836
30
4E-16
41
1
10
31.289429546703
20
-5.83786555840555
30
4E-16
41
1
10
30.8801240784359
20
-5.69738189979199
30
3E-16
41
1
10
29.6547893768292
20
-5.25532821045374
30
3E-16
41
1
10
28.8398285362396
20
-4.93218558240781
30
3E-16
41
1
10
27.6154995032505
20
-4.41145726464416
30
3E-16
41
1
10
27.2071571586267
20
-4.23176399794752
30
3E-16
41
1
10
26.3892171993475
20
-3.86125533658151
30
2E-16
41
1
10
25.9799374973563
20
-3.6706092879983
30
2E-16
41
1
10
24.754577124308
20
-3.08650711088549
30
2E-16
41
1
10
23.9395316940081
20
-2.67965089063219
30
2E-16
41
1
10
22.7151204063629
20
-2.05121207540248
30
1E-16
41
1
10
22.3066884315289
20
-1.83868850541017
30
1E-16
41
1
10
21.4885734852079
20
-1.40870501693371
30
1E-16
41
1
10
21.0793327869378
20
-1.19149593082921
30
1E-16
41
1
10
19.8540102740109
20
-0.537522305005012
30
0
41
1
10
19.0388111502184
20
-0.0974300586064771
30
0
41
1
10
17.8142209285267
20
0.560815977706881
30
0
41
1
10
17.4057254564588
20
0.779915574054598
30
0
41
1
10
16.587454962032
20
1.21620945429623
30
-1E-16
41
1
10
16.1782474379806
20
1.43307714139661
30
-1E-16
41
1
10
14.9528893276677
20
2.07589100511785
30
-1E-16
41
1
10
14.1376240319911
20
2.49492978214096
30
-2E-16
41
1
10
12.9128687093569
20
3.10159038676511
30
-2E-16
41
1
10
12.5043077840797
20
3.30016290305249
30
-2E-16
41
1
10
11.6858814329827
20
3.68880253774671
30
-2E-16
41
1
10
11.276967230347
20
3.87838770374663
30
-2E-16
41
1
10
10.0541647335475
20
4.42939366765981
30
-3E-16
41
1
10
9.24256314433183
20
4.77395584207105
30
-3E-16
41
1
10
6.81008378554208
20
5.72800108415419
30
-4E-16
41
1
10
5.19162168691904
20
6.25792869017019
30
-4E-16
41
1
10
3.55433471354505
20
6.65333950845408
30
0
0
SPLINE
5
C9
100
AcDbEntity
8
1
62
256
6
ByLayer
370
18
48
1
60
0
100
AcDbSpline
70
4
71
3
72
8
73
4
40
0
40
0
40
0
40
0
40
1
40
1
40
1
40
1
41
1
10
3.55433471354505
20
6.65333950845408
30
0
41
1
10
3.52241904150193
20
6.66104726048772
30
0
41
1
10
3.50169783643383
20
6.67656045320402
30
0
41
1
10
3.50169783643383
20
6.69248815208601
30
0
0
SPLINE
5
CA
100
AcDbEntity
8
1
62
256
6
ByLayer
370
18
48
1
60
0
100
AcDbSpline
70
4
71
3
72
14
73
10
40
0
40
0
40
0
40
0
40
0.25
40
0.25
40
0.5
40
0.5
40
0.75
40
0.75
40
1
40
1
40
1
40
1
41
1
10
82.7717211865948
20
1.39509860392946
30
-1E-16
41
1
10
82.64235933154
20
1.39628246193823
30
-1E-16
41
1
10
82.5125959642945
20
1.38616813502
30
-1E-16
41
1
10
82.2541904413206
20
1.34172644360768
30
-1E-16
41
1
10
82.1255812710845
20
1.30766451439303
30
-1E-16
41
1
10
81.8712255173601
20
1.22146192395175
30
-1E-16
41
1
10
81.7453176988401
20
1.16789318133723
30
-1E-16
41
1
10
81.4989130194361
20
1.03833033248881
30
-1E-16
41
1
10
81.3792488340408
20
0.962710394634144
30
-1E-16
41
1
10
81.2640393796585
20
0.876000944874193
30
-1E-16
0
SPLINE
5
CB
100
AcDbEntity
8
1
62
256
6
ByLayer
370
18
48
1
60
0
100
AcDbSpline
70
4
71
3
72
10
73
6
40
0
40
0
40
0
40
0
40
0.5
40
0.5
40
1
40
1
40
1
40
1
41
1
10
83.1410653868613
20
2.02678174292623
30
0
41
1
10
83.3465482787048
20
2.0545287985673
30
0
41
1
10
83.5512607882371
20
2.08681285280758
30
0
41
1
10
83.9591676370847
20
2.16032189365998
30
0
41
1
10
84.1627582237149
20
2.20144226684323
30
0
41
1
10
84.3639082527148
20
2.25068830616456
30
0
0
SPLINE
5
CC
100
AcDbEntity
8
1
62
256
6
ByLayer
370
18
48
1
60
0
100
AcDbSpline
70
4
71
3
72
22
73
18
40
0
40
0
40
0
40
0
40
0.25
40
0.25
40
0.499999999999999
40
0.499999999999999
40
0.562499999999999
40
0.562499999999999
40
0.625
40
0.625
40
0.75
40
0.75
40
0.812500000000001
40
0.812500000000001
40
0.875000000000001
40
0.875000000000001
40
1
40
1
40
1
40
1
41
1
10
12.7673242767313
20
2.08548968485331
30
-1E-16
41
1
10
14.3822706748238
20
1.25129810675611
30
-1E-16
41
1
10
15.9752513041854
20
0.386227736273582
30
0
41
1
10
19.1599348390452
20
-1.32477161054652
30
1E-16
41
1
10
20.7514593192028
20
-2.17104034330049
30
1E-16
41
1
10
22.7662729860133
20
-3.1673845426271
30
2E-16
41
1
10
23.170215203607
20
-3.3632881919705
30
2E-16
41
1
10
23.9758867511638
20
-3.74504841626663
30
2E-16
41
1
10
24.3782698123316
20
-3.93124073528619
30
2E-16
41
1
10
25.5850972629485
20
-4.47414961570928
30
3E-16
41
1
10
26.3891743455294
20
-4.81525717676428
30
3E-16
41
1
10
27.5988819048525
20
-5.28912506614714
30
3E-16
41
1
10
28.0026573123349
20
-5.44077445763841
30
3E-16
41
1
10
28.8065110740635
20
-5.72863471446516
30
4E-16
41
1
10
29.2072431436854
20
-5.86517080546304
30
4E-16
41
1
10
30.4071944792938
20
-6.2513355188668
30
4E-16
41
1
10
31.2039496859676
20
-6.47780338343895
30
0
41
1
10
31.9999999999895
20
-6.671211840034
30
0
0
SPLINE
5
CD
100
AcDbEntity
8
1
62
256
6
ByLayer
370
18
48
1
60
0
100
AcDbSpline
70
4
71
3
72
8
73
4
40
0
40
0
40
0
40
0
40
1
40
1
40
1
40
1
41
1
10
81.2888314170297
20
-0.188402959572045
30
0
41
1
10
81.3499018188099
20
-0.218428674518265
30
0
41
1
10
81.4105778141524
20
-0.246615240123447
30
0
41
1
10
81.4709390351305
20
-0.273013124171655
30
0
0
SPLINE
5
CE
100
AcDbEntity
8
1
62
256
6
ByLayer
370
18
48
1
60
0
100
AcDbSpline
70
4
71
3
72
16
73
12
40
0
40
0
40
0
40
0
40
0.10466478808123
40
0.10466478808123
40
0.253887323401025
40
0.253887323401025
40
0.40310985872082
40
0.40310985872082
40
0.70155492936041
40
0.70155492936041
40
1
40
1
40
1
40
1
41
1
10
82.1022186097332
20
1.65794592488328
30
0
41
1
10
82.1297798981689
20
1.67311706007189
30
0
41
1
10
82.1585513887921
20
1.68862358486618
30
0
41
1
10
82.2314707942487
20
1.72669466919928
30
0
41
1
10
82.2769275847898
20
1.74953180426198
30
0
41
1
10
82.3707263958594
20
1.79430738233884
30
0
41
1
10
82.4193734366821
20
1.81638211361749
30
0
41
1
10
82.5708444785202
20
1.88049777861215
30
0
41
1
10
82.6806611135958
20
1.92080689492144
30
0
41
1
10
82.9056721543502
20
1.98569843842068
30
0
41
1
10
83.0216370971195
20
2.0106549336777
30
0
41
1
10
83.1410653868613
20
2.0267817429262
30
0
0
SPLINE
5
CF
100
AcDbEntity
8
1
62
256
6
ByLayer
370
18
48
1
60
0
100
AcDbSpline
70
4
71
3
72
8
73
4
40
0
40
0
40
0
40
0
40
1
40
1
40
1
40
1
41
1
10
84.3639082527146
20
2.25068830616488
30
0
41
1
10
84.5792135599772
20
1.64047942439845
30
0
41
1
10
84.7889654747605
20
1.0282829493847
30
0
41
1
10
84.9930837550583
20
0.414070162017225
30
0
0
SPLINE
5
D0
100
AcDbEntity
8
1
62
256
6
ByLayer
370
18
48
1
60
0
100
AcDbSpline
70
4
71
3
72
8
73
4
40
0
40
0
40
0
40
0
40
1
40
1
40
1
40
1
41
1
10
82.3239940152607
20
-7.07106903156398
30
0
41
1
10
82.3121145865609
20
-7.10547415439797
30
0
41
1
10
82.3002900299174
20
-7.13987822148104
30
0
41
1
10
82.2885214938102
20
-7.17428157919645
30
0
0
SPLINE
5
D1
100
AcDbEntity
8
1
62
256
6
ByLayer
370
18
48
1
60
0
100
AcDbSpline
70
4
71
3
72
26
73
22
40
0
40
0
40
0
40
0
40
0.0308622924586231
40
0.0308622924586231
40
0.0617245849172466
40
0.0617245849172466
40
0.123449169834493
40
0.123449169834493
40
0.246898339668987
40
0.246898339668987
40
0.493796679337978
40
0.493796679337978
40
0.617245849172473
40
0.617245849172473
40
0.678970434089719
40
0.678970434089719
40
0.740695019006966
40
0.740695019006966
40
0.98759335867595
40
0.98759335867595
40
1
40
1
40
1
40
1
41
1
10
82.3239940152609
20
-7.07106903156404
30
0
41
1
10
82.1175421038795
20
-7.05639066223188
30
0
41
1
10
81.9111165711535
20
-7.04014805530568
30
0
41
1
10
81.4982831763266
20
-7.00221406704489
30
0
41
1
10
81.2918689339803
20
-6.98089676654487
30
0
41
1
10
80.6725170483091
20
-6.90995684052209
30
0
41
1
10
80.2590119982216
20
-6.85325510426475
30
0
41
1
10
79.0236707075169
20
-6.65683849880452
30
0
41
1
10
78.2052147114986
20
-6.49068462284555
30
0
41
1
10
75.7578421616388
20
-5.89693449318452
30
4E-16
41
1
10
74.136087696613
20
-5.37252147814939
30
3E-16
41
1
10
71.6878885808408
20
-4.43179317931885
30
3E-16
41
1
10
70.8691686675399
20
-4.09250471246159
30
3E-16
41
1
10
69.6330128899932
20
-3.55060263647172
30
2E-16
41
1
10
69.2192339464614
20
-3.36422284409753
30
2E-16
41
1
10
68.3960819074289
20
-2.98507677512904
30
2E-16
41
1
10
67.9857665984945
20
-2.79191416085203
30
2E-16
41
1
10
65.938740095101
20
-1.81160598858682
30
1E-16
41
1
10
64.3160186904134
20
-0.980300151492912
30
1E-16
41
1
10
62.6052552291433
20
-0.101600518598303
30
0
41
1
10
62.5233877316255
20
-0.0595434577974459
30
0
41
1
10
62.4415027853479
20
-0.0174767409567664
30
0
0
SPLINE
5
D2
100
AcDbEntity
8
1
62
256
6
ByLayer
370
18
48
1
60
0
100
AcDbSpline
70
4
71
3
72
8
73
4
40
0
40
0
40
0
40
0
40
1
40
1
40
1
40
1
41
1
10
83.7422687439733
20
-0.788587775041663
30
0
41
1
10
83.4860195724139
20
-0.104559856862465
30
0
41
1
10
83.1619407790525
20
0.623702721151318
30
0
41
1
10
82.7717211865948
20
1.39509860392943
30
-1E-16
0
SPLINE
5
D3
100
AcDbEntity
8
1
62
256
6
ByLayer
370
18
48
1
60
0
100
AcDbSpline
70
4
71
3
72
32
73
28
40
0
40
0
40
0
40
0
40
0.125
40
0.125
40
0.187500000000001
40
0.187500000000001
40
0.218750000000001
40
0.218750000000001
40
0.250000000000002
40
0.250000000000002
40
0.375000000000001
40
0.375000000000001
40
0.4375
40
0.4375
40
0.5
40
0.5
40
0.624999999999999
40
0.624999999999999
40
0.687499999999999
40
0.687499999999999
40
0.749999999999999
40
0.749999999999999
40
0.875
40
0.875
40
0.9375
40
0.9375
40
1
40
1
40
1
40
1
41
1
10
81.4763708534968
20
-0.286636980611462
30
0
41
1
10
81.4959645102933
20
-0.705753790341447
30
0
41
1
10
81.5314970467335
20
-1.11568622257315
30
1E-16
41
1
10
81.597000477658
20
-1.71860593420527
30
1E-16
41
1
10
81.620914434891
20
-1.91756545935766
30
1E-16
41
1
10
81.6587560966021
20
-2.21306986794838
30
1E-16
41
1
10
81.6717001402562
20
-2.31108130376512
30
1E-16
41
1
10
81.6980752064
20
-2.50612768640821
30
2E-16
41
1
10
81.711539259245
20
-2.60339389598539
30
2E-16
41
1
10
81.7791494371023
20
-3.08361415149804
30
2E-16
41
1
10
81.834048051318
20
-3.44903114611293
30
2E-16
41
1
10
81.9114303595386
20
-3.97054670636351
30
2E-16
41
1
10
81.9364306976005
20
-4.1399174718982
30
3E-16
41
1
10
81.9841716467707
20
-4.46959952017789
30
3E-16
41
1
10
82.0070138444013
20
-4.63067028562969
30
3E-16
41
1
10
82.0705059368175
20
-5.09261448991543
30
3E-16
41
1
10
82.1061148532968
20
-5.37296666357557
30
3E-16
41
1
10
82.1504678577008
20
-5.75287154404921
30
4E-16
41
1
10
82.1637713200021
20
-5.87269582419384
30
4E-16
41
1
10
82.1879608434019
20
-6.09837317746795
30
-1E-16
41
1
10
82.1988852102326
20
-6.2046223884625
30
-1E-16
41
1
10
82.2287778510108
20
-6.4963799720791
30
0
41
1
10
82.2449542435145
20
-6.6566507237099
30
0
41
1
10
82.2713848430988
20
-6.84663766580488
30
0
41
1
10
82.2805784728928
20
-6.90151658222024
30
0
41
1
10
82.3013649616388
20
-6.99398392202252
30
0
41
1
10
82.3129806790189
20
-7.03153566268975
30
0
41
1
10
82.326579421512
20
-7.0598280717326
30
0
0
SPLINE
5
D4
100
AcDbEntity
8
1
62
256
6
ByLayer
370
18
48
1
60
0
100
AcDbSpline
70
4
71
3
72
8
73
4
40
0
40
0
40
0
40
0
40
1
40
1
40
1
40
1
41
1
10
81.2888314170297
20
-0.188402959572045
30
0
41
1
10
81.2674578077284
20
0.164651024988046
30
0
41
1
10
81.2574868452284
20
0.519333015571817
30
0
41
1
10
81.2640393796584
20
0.876000944874221
30
-1E-16
0
SPLINE
5
D5
100
AcDbEntity
8
1
62
256
6
ByLayer
370
18
48
1
60
0
100
AcDbSpline
70
4
71
3
72
20
73
16
40
0
40
0
40
0
40
0
40
0.499999999999999
40
0.499999999999999
40
0.749999999999947
40
0.749999999999947
40
0.874999999999973
40
0.874999999999973
40
0.937499999999987
40
0.937499999999987
40
0.968749999999993
40
0.968749999999993
40
0.984374999999997
40
0.984374999999997
40
1
40
1
40
1
40
1
41
1
10
81.9283598788649
20
7.49795674673436
30
0
41
1
10
82.0033429199874
20
7.44910226635662
30
0
41
1
10
82.0785163999157
20
7.39970427047629
30
0
41
1
10
82.1913702505851
20
7.32496449184353
30
0
41
1
10
82.2289977785031
20
7.29994808111064
30
0
41
1
10
82.2854126897277
20
7.26229778490924
30
0
41
1
10
82.3041966937532
20
7.24973807656195
30
0
41
1
10
82.3324632378801
20
7.2307997269352
30
0
41
1
10
82.3419025145335
20
7.22446914166685
30
0
41
1
10
82.3561039909665
20
7.2149354229395
30
0
41
1
10
82.3608544299431
20
7.21174470398006
30
0
41
1
10
82.3679274457152
20
7.20699263180282
30
0
41
1
10
82.3702756796897
20
7.20541472662612
30
0
41
1
10
82.3749277523536
20
7.20228848205758
30
0
41
1
10
82.3774379681105
20
7.20059914512507
30
0
41
1
10
82.3797152744463
20
7.19906840852272
30
0
0
SPLINE
5
D6
100
AcDbEntity
8
1
62
256
6
ByLayer
370
18
48
1
60
0
100
AcDbSpline
70
4
71
3
72
8
73
4
40
0
40
0
40
0
40
0
40
1
40
1
40
1
40
1
41
1
10
84.9930837550507
20
0.414070162024615
30
0
41
1
10
85.0023022429281
20
0.13811834157454
30
0
41
1
10
85.0023085892225
20
-0.137928367741665
30
0
41
1
10
84.9930837550504
20
-0.41407016203226
30
0
0
SPLINE
5
D7
100
AcDbEntity
8
1
62
256
6
ByLayer
370
18
48
1
60
0
100
AcDbSpline
70
4
71
3
72
30
73
26
40
0
40
0
40
0
40
0
40
0.0534993325370508
40
0.0534993325370508
40
0.0811618526657705
40
0.0811618526657705
40
0.10882437279449
40
0.10882437279449
40
0.21947445330937
40
0.21947445330937
40
0.440774614339128
40
0.440774614339128
40
0.496099654596567
40
0.496099654596567
40
0.523762174725287
40
0.523762174725287
40
0.551424694854007
40
0.551424694854007
40
0.662074775368891
40
0.662074775368891
40
0.883374936398661
40
0.883374936398661
40
0.994025016913545
40
0.994025016913545
40
1
40
1
40
1
40
1
41
1
10
18.4200890257152
20
0.234710471965514
30
0
41
1
10
18.8164698136431
20
0.0322407515080272
30
0
41
1
10
19.2136157645298
20
-0.170966151404628
30
0
41
1
10
19.8177673744621
20
-0.479375148001282
30
0
41
1
10
20.0239741061466
20
-0.584512037192752
30
0
41
1
10
20.4370516611421
20
-0.79467525124258
30
0
41
1
10
20.6439753241878
20
-0.899727684618199
30
1E-16
41
1
10
21.6758878192596
20
-1.42202281731758
30
1E-16
41
1
10
22.4964542130985
20
-1.83205082002922
30
1E-16
41
1
10
24.9512243979117
20
-3.02406709648699
30
2E-16
41
1
10
26.578476904031
20
-3.76783315683105
30
2E-16
41
1
10
28.6272914069868
20
-4.58769856091044
30
3E-16
41
1
10
29.0377416220912
20
-4.7462144477982
30
3E-16
41
1
10
29.6550179197119
20
-4.97482302591479
30
3E-16
41
1
10
29.8610439897551
20
-5.04949796593453
30
3E-16
41
1
10
30.2737375465464
20
-5.19569987334168
30
3E-16
41
1
10
30.4806291317163
20
-5.2673003087302
30
3E-16
41
1
10
31.5132192833147
20
-5.61579547955645
30
3E-16
41
1
10
32.3339133575113
20
-5.86425642202627
30
4E-16
41
1
10
34.7892453405434
20
-6.5131040734542
30
0
41
1
10
36.4158704290619
20
-6.81512135600832
30
0
41
1
10
38.8726566115715
20
-7.05163600466378
30
0
41
1
10
39.6945720897568
20
-7.09393839212254
30
0
41
1
10
40.5659455415229
20
-7.09882803607411
30
0
41
1
10
40.6105850297984
20
-7.09896757121345
30
0
41
1
10
40.6552217512845
20
-7.09899625568389
30
0
0
SPLINE
5
D8
100
AcDbEntity
8
1
62
256
6
ByLayer
370
18
48
1
60
0
100
AcDbSpline
70
4
71
3
72
58
73
54
40
0
40
0
40
0
40
0
40
0.0296541821290232
40
0.0296541821290232
40
0.0593083642580463
40
0.0593083642580463
40
0.118616728516093
40
0.118616728516093
40
0.148270910645115
40
0.148270910645115
40
0.177925092774137
40
0.177925092774137
40
0.237233457032183
40
0.237233457032183
40
0.266887639161205
40
0.266887639161205
40
0.296541821290227
40
0.296541821290227
40
0.355850185548272
40
0.355850185548272
40
0.385504367677293
40
0.385504367677293
40
0.415158549806315
40
0.415158549806315
40
0.474466914064358
40
0.474466914064358
40
0.504121096193379
40
0.504121096193379
40
0.5337752783224
40
0.5337752783224
40
0.593083642580443
40
0.593083642580443
40
0.622737824709464
40
0.622737824709464
40
0.652392006838485
40
0.652392006838485
40
0.711700371096528
40
0.711700371096528
40
0.741354553225549
40
0.741354553225549
40
0.77100873535457
40
0.77100873535457
40
0.830317099612613
40
0.830317099612613
40
0.859971281741634
40
0.859971281741634
40
0.889625463870654
40
0.889625463870654
40
0.948933828128696
40
0.948933828128696
40
0.978588010257717
40
0.978588010257717
40
1
40
1
40
1
40
1
41
1
10
81.9004573511293
20
-7.39837299175684
30
0
41
1
10
81.4919114828766
20
-7.361863191156
30
0
41
1
10
81.0835000157929
20
-7.31573968768282
30
0
41
1
10
80.2663119074361
20
-7.20456366082769
30
0
41
1
10
79.8572127400738
20
-7.13944184490285
30
0
41
1
10
78.6321225449675
20
-6.9168594124817
30
0
41
1
10
77.8175725630766
20
-6.73215363679532
30
0
41
1
10
76.5949138243218
20
-6.4040594482411
30
-1E-16
41
1
10
76.187188989691
20
-6.28621750845463
30
4E-16
41
1
10
75.370671500836
20
-6.03422243120573
30
4E-16
41
1
10
74.9614790360253
20
-5.89991983157225
30
4E-16
41
1
10
73.7363952414894
20
-5.47541913358293
30
3E-16
41
1
10
72.9218479051265
20
-5.16322888179678
30
3E-16
41
1
10
71.6990646869876
20
-4.65689300038812
30
3E-16
41
1
10
71.2913018311363
20
-4.48178378218731
30
3E-16
41
1
10
70.4746788956273
20
-4.11996510576213
30
3E-16
41
1
10
70.065458377953
20
-3.93307797027507
30
2E-16
41
1
10
68.8404102034481
20
-3.35909327744068
30
2E-16
41
1
10
68.0257957598067
20
-2.95806585511269
30
2E-16
41
1
10
66.8026927613692
20
-2.33638453924453
30
1E-16
41
1
10
66.3947986456758
20
-2.1257957817416
30
1E-16
41
1
10
65.577982705909
20
-1.69899578590224
30
1E-16
41
1
10
65.1687420114661
20
-1.48261927957904
30
1E-16
41
1
10
63.943766493104
20
-0.830011041605019
30
1E-16
41
1
10
63.1291170979823
20
-0.389666898824544
30
0
41
1
10
61.9058872748476
20
0.270839564934391
30
0
41
1
10
61.4979508488492
20
0.491036739541102
30
0
41
1
10
60.6809996272512
20
0.930200872386138
30
-1E-16
41
1
10
60.2717128268766
20
1.14928188218772
30
-1E-16
41
1
10
59.0466687166757
20
1.79967375805018
30
-1E-16
41
1
10
58.2319535735183
20
2.22490783449607
30
-1E-16
41
1
10
57.0086367853536
20
2.84274847017033
30
-2E-16
41
1
10
56.6006739551576
20
3.04538919637085
30
-2E-16
41
1
10
55.783586779386
20
3.4426836959706
30
-2E-16
41
1
10
55.3742564848531
20
3.63740738800101
30
-2E-16
41
1
10
54.149145221587
20
4.20530144051205
30
-3E-16
41
1
10
53.334392949936
20
4.56298358655479
30
-3E-16
41
1
10
52.1109292940404
20
5.06177483539346
30
-3E-16
41
1
10
51.7029004092309
20
5.22177180697418
30
-3E-16
41
1
10
50.8856708025872
20
5.52813564173746
30
-3E-16
41
1
10
50.4763323897326
20
5.67451720089056
30
-3E-16
41
1
10
49.2511960040843
20
6.08992347104507
30
-4E-16
41
1
10
48.4363846457616
20
6.33588177802267
30
1E-16
41
1
10
47.212763457367
20
6.65406227567323
30
0
41
1
10
46.8046651498839
20
6.75167324206694
30
0
41
1
10
45.9872805178712
20
6.92928754005948
30
0
41
1
10
45.5779564975826
20
7.0092833595406
30
0
41
1
10
44.3527911423715
20
7.22099984969722
30
0
41
1
10
43.5379157732069
20
7.32491604780017
30
0
41
1
10
42.314119111428
20
7.42326799711734
30
0
41
1
10
41.9059500991242
20
7.44647111602222
30
0
41
1
10
41.2020455253623
20
7.46970545462625
30
0
41
1
10
40.9066038215791
20
7.47436749273652
30
0
41
1
10
40.6114284680535
20
7.47395021802947
30
0
0
SPLINE
5
D9
100
AcDbEntity
8
1
62
256
6
ByLayer
370
18
48
1
60
0
100
AcDbSpline
70
4
71
3
72
48
73
44
40
0
40
0
40
0
40
0
40
0.005305760963943
40
0.005305760963943
40
0.0600043729822236
40
0.0600043729822236
40
0.114702985000503
40
0.114702985000503
40
0.169401597018784
40
0.169401597018784
40
0.224100209037064
40
0.224100209037064
40
0.278798821055345
40
0.278798821055345
40
0.333497433073625
40
0.333497433073625
40
0.388196045091905
40
0.388196045091905
40
0.442894657110186
40
0.442894657110186
40
0.497593269128466
40
0.497593269128466
40
0.552291881146746
40
0.552291881146746
40
0.606990493165026
40
0.606990493165026
40
0.661689105183307
40
0.661689105183307
40
0.716387717201587
40
0.716387717201587
40
0.771086329219867
40
0.771086329219867
40
0.798435635229007
40
0.798435635229007
40
0.825784941238147
40
0.825784941238147
40
0.880483553256426
40
0.880483553256426
40
0.935182165274706
40
0.935182165274706
40
0.989880777292984
40
0.989880777292984
40
1
40
1
40
1
40
1
41
1
10
37.8194470322643
20
-0.233705534020942
30
0
41
1
10
37.7801928138546
20
-0.21363561024836
30
0
41
1
10
37.7409449688347
20
-0.193564947172661
30
0
41
1
10
37.2971517906166
20
0.0334271347609558
30
0
41
1
10
36.8934640420859
20
0.240714803831906
30
0
41
1
10
36.0862098837049
20
0.653180039219848
30
0
41
1
10
35.6827144263193
20
0.858478523857883
30
-1E-16
41
1
10
34.8757773836583
20
1.26663218323634
30
-1E-16
41
1
10
34.4725197925213
20
1.46975314702175
30
-1E-16
41
1
10
33.6648502360272
20
1.87143451943533
30
-1E-16
41
1
10
33.2605124639944
20
2.07011126362372
30
-1E-16
41
1
10
32.4506654941316
20
2.46256843372132
30
-2E-16
41
1
10
32.0452879008785
20
2.6564944807474
30
-2E-16
41
1
10
31.2321821478878
20
3.03748062246339
30
-2E-16
41
1
10
30.8243517611829
20
3.2246960668073
30
-2E-16
41
1
10
30.0068488050794
20
3.59129370800366
30
-2E-16
41
1
10
29.5998062283638
20
3.76951353444051
30
-2E-16
41
1
10
28.7870203337345
20
4.11500317799559
30
-3E-16
41
1
10
28.3813872293744
20
4.28227466017899
30
-3E-16
41
1
10
27.5717613256667
20
4.60484605369629
30
-3E-16
41
1
10
27.1678884172384
20
4.76000021214219
30
-3E-16
41
1
10
26.3602990274893
20
5.05787613545965
30
-3E-16
41
1
10
25.9566707115035
20
5.20055325288112
30
-3E-16
41
1
10
25.1497841476711
20
5.47205883322624
30
-3E-16
41
1
10
24.7465828198451
20
5.60071029399569
30
-3E-16
41
1
10
23.9391524067285
20
5.84428039605905
30
-4E-16
41
1
10
23.5350005213757
20
5.95908537358008
30
1E-16
41
1
10
22.725801961334
20
6.17289053187247
30
1E-16
41
1
10
22.3206885233728
20
6.27203406397075
30
1E-16
41
1
10
21.5084176327309
20
6.45479787071338
30
0
41
1
10
21.1013019825412
20
6.53830773879298
30
0
41
1
10
20.4888374425849
20
6.65066175078505
30
0
41
1
10
20.284311627253
20
6.6859912290692
30
0
41
1
10
19.8763032426899
20
6.75214946401661
30
0
41
1
10
19.6725951018198
20
6.78302974653704
30
0
41
1
10
19.0621861053509
20
6.86913149247465
30
0
41
1
10
18.6562559749634
20
6.91770791435721
30
0
41
1
10
17.8462606629259
20
6.99621187257705
30
0
41
1
10
17.4421165945408
20
7.02631499853331
30
0
41
1
10
16.6344208414242
20
7.06924839506161
30
0
41
1
10
16.2309394843022
20
7.08190871306067
30
0
41
1
10
15.7531431090711
20
7.08581677057938
30
0
41
1
10
15.6785579825102
20
7.08611235279099
30
0
41
1
10
15.6039770381674
20
7.08609710523325
30
0
0
SPLINE
5
DA
100
AcDbEntity
8
1
62
256
6
ByLayer
370
18
48
1
60
0
100
AcDbSpline
70
4
71
3
72
10
73
6
40
0
40
0
40
0
40
0
40
0.5
40
0.5
40
1
40
1
40
1
40
1
41
1
10
82.3937175249055
20
-7.1896375201396
30
0
41
1
10
82.3698340427464
20
-7.2052183595529
30
0
41
1
10
82.3497101628072
20
-7.21154573423564
30
0
41
1
10
82.3151843004724
20
-7.20625975378812
30
0
41
1
10
82.300738824334
20
-7.19447477108798
30
0
41
1
10
82.2885214938102
20
-7.17428157919647
30
0
0
SPLINE
5
DB
100
AcDbEntity
8
1
62
256
6
ByLayer
370
18
48
1
60
0
100
AcDbSpline
70
4
71
3
72
24
73
20
40
0
40
0
40
0
40
0
40
0.0429795708778392
40
0.0429795708778392
40
0.145415233660676
40
0.145415233660676
40
0.350286559226351
40
0.350286559226351
40
0.452722222009188
40
0.452722222009188
40
0.555157884792025
40
0.555157884792025
40
0.657593547574862
40
0.657593547574862
40
0.7600292103577
40
0.7600292103577
40
0.964900535923374
40
0.964900535923374
40
1
40
1
40
1
40
1
41
1
10
3.60227150379515
20
-4.85585159316554
30
3E-16
41
1
10
3.60226839922288
20
-4.91622429920091
30
3E-16
41
1
10
3.60226520276478
20
-4.97559452098972
30
3E-16
41
1
10
3.60225410379397
20
-5.17298615695182
30
3E-16
41
1
10
3.60224581407942
20
-5.30602467800219
30
3E-16
41
1
10
3.60222005157041
20
-5.68345621423955
30
3E-16
41
1
10
3.60220162094032
20
-5.90784409299297
30
-1E-16
41
1
10
3.60217283951977
20
-6.20414970171487
30
-1E-16
41
1
10
3.60216305187024
20
-6.29617127944454
30
-1E-16
41
1
10
3.60214316204844
20
-6.46639223422372
30
0
41
1
10
3.60213305057502
20
-6.54458408405031
30
0
41
1
10
3.60211287012348
20
-6.68459729794714
30
0
41
1
10
3.60210276338296
20
-6.74676697955374
30
0
41
1
10
3.60208253669788
20
-6.85547523972951
30
0
41
1
10
3.60207239523763
20
-6.90209400324358
30
0
41
1
10
3.60204207303943
20
-7.01754481081517
30
0
41
1
10
3.60202228339585
20
-7.06123843409472
30
0
41
1
10
3.60199930697016
20
-7.07490531461713
30
0
41
1
10
3.60199595070762
20
-7.07596213831906
30
0
41
1
10
3.6019925969
20
-7.07607053748166
30
0
0
SPLINE
5
DC
100
AcDbEntity
8
1
62
256
6
ByLayer
370
18
48
1
60
0
100
AcDbSpline
70
4
71
3
72
8
73
4
40
0
40
0
40
0
40
0
40
1
40
1
40
1
40
1
41
1
10
84.9930837550439
20
0.414070162021545
30
0
41
1
10
84.9606882335333
20
0.306093379694261
30
0
41
1
10
84.9281307851132
20
0.198165882338628
30
0
41
1
10
84.8954120045972
20
0.0902874889137593
30
0
0
SPLINE
5
DD
100
AcDbEntity
8
1
62
256
6
ByLayer
370
18
48
1
60
0
100
AcDbSpline
70
4
71
3
72
38
73
34
40
0
40
0
40
0
40
0
40
0.0436158451352852
40
0.0436158451352852
40
0.0980672317398256
40
0.0980672317398256
40
0.152518618344366
40
0.152518618344366
40
0.206970004948906
40
0.206970004948906
40
0.261421391553447
40
0.261421391553447
40
0.370324164762528
40
0.370324164762528
40
0.424775551367068
40
0.424775551367068
40
0.479226937971608
40
0.479226937971608
40
0.533678324576149
40
0.533678324576149
40
0.588129711180689
40
0.588129711180689
40
0.697032484389771
40
0.697032484389771
40
0.805935257598853
40
0.805935257598853
40
0.860386644203395
40
0.860386644203395
40
0.914838030807936
40
0.914838030807936
40
0.969289417412477
40
0.969289417412477
40
1
40
1
40
1
40
1
41
1
10
58.6637926655031
20
7.11500134911145
30
0
41
1
10
58.98943648656
20
7.12136530653061
30
0
41
1
10
59.3143488370194
20
7.12156052404498
30
0
41
1
10
60.0435460431217
20
7.10867368397078
30
0
41
1
10
60.4474225633275
20
7.09273486462709
30
0
41
1
10
61.2536681433079
20
7.04386192456823
30
0
41
1
10
61.6563445943259
20
7.00990352117068
30
0
41
1
10
62.4612068428276
20
6.92390540366728
30
0
41
1
10
62.8632261212348
20
6.87239732178574
30
0
41
1
10
63.6672429883008
20
6.75238165020255
30
0
41
1
10
64.0693722806161
20
6.68352964848947
30
0
41
1
10
65.2763947165951
20
6.45214511816769
30
0
41
1
10
66.0809778787262
20
6.26638794695896
30
1E-16
41
1
10
67.2956223626301
20
5.93636991390244
30
1E-16
41
1
10
67.7016301898566
20
5.81819018975904
30
-4E-16
41
1
10
68.5161157860768
20
5.56645497261579
30
-3E-16
41
1
10
68.9255164222735
20
5.43253924512473
30
-3E-16
41
1
10
69.7409764506002
20
5.15222336589756
30
-3E-16
41
1
10
70.1472246013983
20
5.00584919981034
30
-3E-16
41
1
10
70.9576872371262
20
4.70139633974384
30
-3E-16
41
1
10
71.3619710717712
20
4.54320153832907
30
-3E-16
41
1
10
72.5729007283571
20
4.05245373370624
30
-2E-16
41
1
10
73.3774740599135
20
3.7041341118107
30
-2E-16
41
1
10
74.9858561293169
20
2.97404959543945
30
-2E-16
41
1
10
75.7893850418717
20
2.59218563043126
30
-2E-16
41
1
10
76.9983229946208
20
2.00098646452506
30
-1E-16
41
1
10
77.4017169382315
20
1.80076778635512
30
-1E-16
41
1
10
78.2104150758867
20
1.39546356281721
30
-1E-16
41
1
10
78.6158071420202
20
1.19042699264634
30
-1E-16
41
1
10
79.4289444848461
20
0.776600857700913
30
0
41
1
10
79.8370589778052
20
0.567600300571968
30
0
41
1
10
80.4761873004567
20
0.239250592499133
30
0
41
1
10
80.7065589838691
20
0.120694430885635
30
0
41
1
10
80.9368755531342
20
0.0020897014495915
30
0
0
SPLINE
5
DE
100
AcDbEntity
8
1
62
256
6
ByLayer
370
18
48
1
60
0
100
AcDbSpline
70
4
71
3
72
38
73
34
40
0
40
0
40
0
40
0
40
0.0544306321281602
40
0.0544306321281602
40
0.10886126425632
40
0.10886126425632
40
0.163291896384481
40
0.163291896384481
40
0.217722528512641
40
0.217722528512641
40
0.326583792768964
40
0.326583792768964
40
0.435445057025287
40
0.435445057025287
40
0.489875689153447
40
0.489875689153447
40
0.544306321281608
40
0.544306321281608
40
0.598736953409768
40
0.598736953409768
40
0.653167585537929
40
0.653167585537929
40
0.76202884979425
40
0.76202884979425
40
0.816459481922411
40
0.816459481922411
40
0.870890114050572
40
0.870890114050572
40
0.925320746178733
40
0.925320746178733
40
0.979751378306894
40
0.979751378306894
40
1
40
1
40
1
40
1
41
1
10
81.476370853512
20
-0.286636980609956
30
0
41
1
10
81.0680597745025
20
-0.0766044088671549
30
0
41
1
10
80.6597033895219
20
0.133535031317706
30
0
41
1
10
79.8423248307244
20
0.552912158369168
30
0
41
1
10
79.4341280856948
20
0.761699670423013
30
0
41
1
10
78.6208561789552
20
1.17512446550032
30
-1E-16
41
1
10
78.2153962121495
20
1.37997947354052
30
-1E-16
41
1
10
77.4065629527281
20
1.78496656339911
30
-1E-16
41
1
10
77.0031043545068
20
1.98504186412421
30
-1E-16
41
1
10
75.7939740866563
20
2.57587389435261
30
-2E-16
41
1
10
74.9903200569491
20
2.95756900489329
30
-2E-16
41
1
10
73.3817116555009
20
3.68745886408246
30
-2E-16
41
1
10
72.5770343991801
20
4.03575586843522
30
-2E-16
41
1
10
71.3659715821028
20
4.52658869378104
30
-3E-16
41
1
10
70.9616474794629
20
4.68483652352828
30
-3E-16
41
1
10
70.1511100813514
20
4.9894195962371
30
-3E-16
41
1
10
69.7448278872271
20
5.13586952427295
30
-3E-16
41
1
10
68.9293122555864
20
5.41637871177653
30
-3E-16
41
1
10
68.5198565048078
20
5.55042283102614
30
-3E-16
41
1
10
67.7052438234995
20
5.80245751300259
30
-4E-16
41
1
10
67.2991711621676
20
5.92080529412141
30
1E-16
41
1
10
66.0843302793928
20
6.25139146835602
30
1E-16
41
1
10
65.2796145901572
20
6.43758868382412
30
0
41
1
10
64.0724103926364
20
6.66970646714543
30
0
41
1
10
63.670221576452
20
6.73882756375872
30
0
41
1
10
62.8660884302551
20
6.85939843459164
30
0
41
1
10
62.4640130679509
20
6.91118894026854
30
0
41
1
10
61.6590447764714
20
6.99779476525001
30
0
41
1
10
61.2563177224836
20
7.03208740124012
30
0
41
1
10
60.449974679478
20
7.08162200534602
30
0
41
1
10
60.0460521006024
20
7.0978905497368
30
0
41
1
10
59.4904925210813
20
7.10819336773784
30
0
41
1
10
59.3397290784983
20
7.10971220922633
30
0
41
1
10
59.1888237999122
20
7.10993067172299
30
0
0
SPLINE
5
DF
100
AcDbEntity
8
1
62
256
6
ByLayer
370
18
48
1
60
0
100
AcDbSpline
70
4
71
3
72
69
73
65
40
0
40
0
40
0
40
0
40
0.0050457674690967
40
0.0050457674690967
40
0.0227722307995874
40
0.0227722307995874
40
0.0404986941300783
40
0.0404986941300783
40
0.07595162079106
40
0.07595162079106
40
0.0936780841215509
40
0.0936780841215509
40
0.0947859880797065
40
0.0947859880797065
40
0.094924476074476
40
0.094924476074476
40
0.0950629640692455
40
0.0950629640692455
40
0.0953399400587844
40
0.0953399400587844
40
0.0958938920378623
40
0.0958938920378623
40
0.0981096999541739
40
0.0981096999541739
40
0.102541315786797
40
0.102541315786797
40
0.111404547452043
40
0.111404547452043
40
0.146857474113029
40
0.146857474113029
40
0.217763327434999
40
0.217763327434999
40
0.359575034078941
40
0.359575034078941
40
0.430480887400912
40
0.430480887400912
40
0.465933814061897
40
0.465933814061897
40
0.48366027739239
40
0.48366027739239
40
0.492523509057636
40
0.492523509057636
40
0.496955124890259
40
0.496955124890259
40
0.49917093280657
40
0.49917093280657
40
0.499724884785649
40
0.499724884785649
40
0.500001860775187
40
0.500001860775187
40
0.500140348769957
40
0.500140348769957
40
0.500278836764726
40
0.500278836764726
40
0.500417324759495
40
0.500417324759495
40
0.500555812754265
40
0.500832788743804
40
0.501386740722881
40
0.643198447366746
40
0.643198447366746
40
0.785010154010611
40
0.785010154010611
40
1
40
1
40
1
40
1
41
1
10
12.4559406990966
20
2.22422116444585
30
-1E-16
41
1
10
12.4398213154219
20
2.22810448696609
30
-1E-16
41
1
10
12.4235268308818
20
2.2315937965142
30
-1E-16
41
1
10
12.3492571233119
20
2.24552456711564
30
-1E-16
41
1
10
12.2894342002672
20
2.25136157651613
30
-1E-16
41
1
10
12.1676595066423
20
2.25248085104434
30
-1E-16
41
1
10
12.104888139559
20
2.24811449509608
30
-1E-16
41
1
10
11.9073109400502
20
2.22210092589833
30
-1E-16
41
1
10
11.7657553151132
20
2.18606819009466
30
-1E-16
41
1
10
11.5425555086321
20
2.10378638443532
30
-1E-16
41
1
10
11.4663470301229
20
2.07161031896675
30
-1E-16
41
1
10
11.3840787154067
20
2.03224184180144
30
-1E-16
41
1
10
11.3792346142021
20
2.02990701580126
30
-1E-16
41
1
10
11.3737797544851
20
2.02725889075714
30
-1E-16
41
1
10
11.3728615341668
20
2.02708933048368
30
-1E-16
41
1
10
11.3724604208111
20
2.02616909134826
30
-1E-16
41
1
10
11.3736569809691
20
2.02542423775032
30
-1E-16
41
1
10
11.3764172187111
20
2.02359779086754
30
-1E-16
41
1
10
11.3785009280531
20
2.0224214269129
30
-1E-16
41
1
10
11.3847352983594
20
2.01892547374862
30
-1E-16
41
1
10
11.3890346978978
20
2.01663503876676
30
-1E-16
41
1
10
11.4106129931811
20
2.00523700624134
30
-1E-16
41
1
10
11.4282755630243
20
1.9962710426899
30
-1E-16
41
1
10
11.4812387617061
20
1.96935628099996
30
-1E-16
41
1
10
11.5167684327778
20
1.95149018285858
30
-1E-16
41
1
10
11.6234834935331
20
1.89788183383445
30
-1E-16
41
1
10
11.6948592762726
20
1.86215908216718
30
-1E-16
41
1
10
12.0520236495435
20
1.68326017121663
30
-1E-16
41
1
10
12.3387543423
20
1.53919947009604
30
-1E-16
41
1
10
13.1990542787232
20
1.10307720730071
30
-1E-16
41
1
10
13.7731547501541
20
0.807343804595916
30
0
41
1
10
15.4944222755591
20
-0.097335395270477
30
0
41
1
10
16.6410561463472
20
-0.723406790829415
30
0
41
1
10
18.3571516540974
20
-1.6946069118155
30
1E-16
41
1
10
18.9287458039972
20
-2.02371352449606
30
-1E-16
41
1
10
19.7844181215123
20
-2.52564624939467
30
0
41
1
10
20.0694046976046
20
-2.69433438320109
30
1E-16
41
1
10
20.4958602642774
20
-2.95034732469517
30
0
41
1
10
20.6378593440419
20
-3.03616016302362
30
0
41
1
10
20.8502663889594
20
-3.16620846412548
30
0
41
1
10
20.9209801798353
20
-3.20975452679187
30
0
41
1
10
21.0266135358213
20
-3.27588476084304
30
0
41
1
10
21.0617697647274
20
-3.29803284855055
30
0
41
1
10
21.1141110911871
20
-3.33193869840969
30
0
41
1
10
21.1315499854405
20
-3.34327753784223
30
0
41
1
10
21.1528433489257
20
-3.35823461417456
30
0
41
1
10
21.1570769924184
20
-3.36126675767804
30
0
41
1
10
21.1632743464054
20
-3.36602735761903
30
0
41
1
10
21.165322294141
20
-3.36764772866354
30
0
41
1
10
21.1682538172753
20
-3.37023693196275
30
0
41
1
10
21.1692116444106
20
-3.37112174131721
30
0
41
1
10
21.1709689527213
20
-3.37306925666451
30
0
41
1
10
21.172365193524
20
-3.37455167437835
30
0
41
1
10
21.1705324206502
20
-3.37648034032253
30
0
41
1
10
21.168994334818
20
-3.37632026682798
30
0
41
1
10
21.1664194928205
20
-3.37673273313686
30
0
41
1
10
21.1625572502464
20
-3.3773514317258
30
0
41
1
10
21.1535454938236
20
-3.37879505563828
30
0
41
1
10
19.8275709678431
20
-3.59121234035621
30
0
41
1
10
18.5116487094784
20
-3.80286601971596
30
0
41
1
10
15.9064027606896
20
-4.22312592435688
30
0
41
1
10
14.6136422740313
20
-4.43226810618552
30
-2E-16
41
1
10
11.3874366183016
20
-4.95471732562069
30
-1E-16
41
1
10
9.46703150616577
20
-5.26632513710513
30
3E-16
41
1
10
7.5700967294724
20
-5.57435218089068
30
3E-16
0
SPLINE
5
E0
100
AcDbEntity
8
1
62
256
6
ByLayer
370
18
48
1
60
0
100
AcDbSpline
70
2053
71
3
72
70
73
66
40
0
40
0
40
0
40
0
40
0.0625000000000016
40
0.0625000000000016
40
0.125000000000003
40
0.125000000000003
40
0.187500000000005
40
0.187500000000005
40
0.250000000000007
40
0.250000000000007
40
0.281250000000007
40
0.281250000000007
40
0.296875000000007
40
0.296875000000007
40
0.312500000000007
40
0.312500000000007
40
0.343750000000007
40
0.343750000000007
40
0.375000000000006
40
0.375000000000006
40
0.390625000000006
40
0.390625000000006
40
0.406250000000006
40
0.406250000000006
40
0.437500000000006
40
0.437500000000006
40
0.468750000000006
40
0.468750000000006
40
0.500000000000005
40
0.500000000000005
40
0.531250000000005
40
0.531250000000005
40
0.562500000000005
40
0.562500000000005
40
0.593750000000005
40
0.593750000000005
40
0.625000000000004
40
0.625000000000004
40
0.656250000000004
40
0.656250000000004
40
0.687500000000004
40
0.687500000000004
40
0.718750000000003
40
0.718750000000003
40
0.750000000000003
40
0.750000000000003
40
0.765625000000003
40
0.765625000000003
40
0.781250000000003
40
0.781250000000003
40
0.812500000000002
40
0.812500000000002
40
0.828125000000002
40
0.828125000000002
40
0.843750000000002
40
0.843750000000002
40
0.875000000000002
40
0.875000000000002
40
0.906250000000001
40
0.906250000000001
40
0.937500000000001
40
0.937500000000001
40
0.968750000000001
40
0.968750000000001
40
1
40
1
40
1
40
1
41
1
10
82.9740470367934
20
-3.02013178450597
30
2E-16
41
1
10
82.923644567028
20
-3.07816543128919
30
2E-16
41
1
10
82.8765144190275
20
-3.11372233531117
30
2E-16
41
1
10
82.7864767305882
20
-3.14168391909996
30
2E-16
41
1
10
82.7460020449772
20
-3.13327436685546
30
2E-16
41
1
10
82.6716893520012
20
-3.07080376614525
30
2E-16
41
1
10
82.6398857683202
20
-3.01852448827196
30
2E-16
41
1
10
82.58578625141
20
-2.86905794442171
30
2E-16
41
1
10
82.5650129949111
20
-2.77621447815142
30
2E-16
41
1
10
82.5448196311298
20
-2.60737450128926
30
2E-16
41
1
10
82.5402274367045
20
-2.54805585780829
30
2E-16
41
1
10
82.5368149760858
20
-2.45459716021227
30
2E-16
41
1
10
82.5362611691322
20
-2.42268352922801
30
1E-16
41
1
10
82.53643965098
20
-2.35724339608368
30
1E-16
41
1
10
82.5371867459311
20
-2.3234610622082
30
1E-16
41
1
10
82.5415028701539
20
-2.22204243924151
30
1E-16
41
1
10
82.5470770197811
20
-2.15407791048307
30
1E-16
41
1
10
82.5642789332041
20
-2.01747447299456
30
1E-16
41
1
10
82.5760776667161
20
-1.94856523595362
30
1E-16
41
1
10
82.5978106083888
20
-1.85085068491944
30
1E-16
41
1
10
82.6057557612188
20
-1.81895986461819
30
1E-16
41
1
10
82.6230934705893
20
-1.75654606891203
30
1E-16
41
1
10
82.6325532428116
20
-1.72584704193898
30
1E-16
41
1
10
82.6624871739328
20
-1.6379296075097
30
1E-16
41
1
10
82.6845920723823
20
-1.58436499573534
30
1E-16
41
1
10
82.7329131827051
20
-1.4865502872488
30
1E-16
41
1
10
82.7587647349137
20
-1.44316674838913
30
1E-16
41
1
10
82.8122799928499
20
-1.36806104080424
30
1E-16
41
1
10
82.8403727461683
20
-1.33580013925936
30
1E-16
41
1
10
82.896852884543
20
-1.28311306624687
30
1E-16
41
1
10
82.9253221461015
20
-1.26245908964572
30
1E-16
41
1
10
82.982485974645
20
-1.23158114307051
30
1E-16
41
1
10
83.0111173988863
20
-1.22149130281292
30
1E-16
41
1
10
83.0666733974856
20
-1.21178065438218
30
1E-16
41
1
10
83.0938218887568
20
-1.21202759605828
30
1E-16
41
1
10
83.1466037088985
20
-1.22263775314261
30
1E-16
41
1
10
83.1721551948512
20
-1.23308750387207
30
1E-16
41
1
10
83.2198357706583
20
-1.26362099681205
30
1E-16
41
1
10
83.2421819482797
20
-1.28372565700732
30
1E-16
41
1
10
83.2834643730811
20
-1.33422642275266
30
1E-16
41
1
10
83.3025174756914
20
-1.36497326305798
30
1E-16
41
1
10
83.3352783392293
20
-1.43581671809096
30
1E-16
41
1
10
83.3491537554253
20
-1.47598264920589
30
1E-16
41
1
10
83.3711957697423
20
-1.56700889923681
30
1E-16
41
1
10
83.3792501880645
20
-1.61792574079979
30
1E-16
41
1
10
83.3859460159332
20
-1.69982689177365
30
1E-16
41
1
10
83.3873116723788
20
-1.72817729140454
30
1E-16
41
1
10
83.3882214117783
20
-1.78712152489158
30
1E-16
41
1
10
83.387749274082
20
-1.81793738716749
30
1E-16
41
1
10
83.3835261936686
20
-1.91170412548124
30
1E-16
41
1
10
83.3770538686416
20
-1.97626728896202
30
1E-16
41
1
10
83.3619694277648
20
-2.07635083991139
30
1E-16
41
1
10
83.3559834481899
20
-2.11050643665081
30
1E-16
41
1
10
83.3425222738692
20
-2.17821077740191
30
1E-16
41
1
10
83.3350451001646
20
-2.21185946143811
30
1E-16
41
1
10
83.3105365203189
20
-2.31223647421615
30
1E-16
41
1
10
83.2911548453584
20
-2.37921978714113
30
1E-16
41
1
10
83.2489368226822
20
-2.50670000622137
30
2E-16
41
1
10
83.2261501341335
20
-2.56734767251396
30
2E-16
41
1
10
83.1777205808098
20
-2.68288023205287
30
2E-16
41
1
10
83.1528047059906
20
-2.73602109919355
30
2E-16
41
1
10
83.1020646167064
20
-2.83366543907684
30
2E-16
41
1
10
83.0760252794917
20
-2.8784439262952
30
2E-16
41
1
10
83.0247423888526
20
-2.95692656090134
30
2E-16
41
1
10
82.9992482716761
20
-2.99111496111436
30
2E-16
41
1
10
82.9740470367934
20
-3.02013178450597
30
2E-16
0
SPLINE
5
E1
100
AcDbEntity
8
1
62
256
6
ByLayer
370
18
48
1
60
0
100
AcDbSpline
70
4
71
3
72
20
73
16
40
0
40
0
40
0
40
0
40
0.150693260642557
40
0.150693260642557
40
0.301386521285113
40
0.301386521285113
40
0.45207978192767
40
0.45207978192767
40
0.602773042570227
40
0.602773042570227
40
0.753466303212784
40
0.753466303212784
40
0.90415956385534
40
0.90415956385534
40
1
40
1
40
1
40
1
41
1
10
82.3797152744492
20
7.19906840850479
30
0
41
1
10
81.8549567916401
20
7.20298597750349
30
0
41
1
10
81.3298530983981
20
7.19117247222053
30
0
41
1
10
80.2822743633498
20
7.13703173065971
30
0
41
1
10
79.7591074259076
20
7.09432505556086
30
0
41
1
10
78.7125201006814
20
6.97914836757241
30
0
41
1
10
78.1890725321918
20
6.90652475545147
30
0
41
1
10
77.1407498174087
20
6.73216224863489
30
0
41
1
10
76.6153999199572
20
6.6303103104498
30
0
41
1
10
75.5651245649014
20
6.39867346436492
30
1E-16
41
1
10
75.0399854355195
20
6.26858036631239
30
1E-16
41
1
10
73.98994526194
20
5.9819912766128
30
-4E-16
41
1
10
73.4652460412046
20
5.82521760122791
30
-4E-16
41
1
10
72.6075317245193
20
5.5495526860125
30
-3E-16
41
1
10
72.2741502772432
20
5.437598917814
30
-3E-16
41
1
10
71.9406856458082
20
5.32098586471463
30
-3E-16
0
SPLINE
5
E2
100
AcDbEntity
8
1
62
256
6
ByLayer
370
18
48
1
60
0
100
AcDbSpline
70
4
71
3
72
10
73
6
40
0
40
0
40
0
40
0
40
0.5
40
0.5
40
1
40
1
40
1
40
1
41
1
10
81.9004573511245
20
-7.39837299175832
30
0
41
1
10
81.9054356842872
20
-7.42739209720904
30
0
41
1
10
81.910277480515
20
-7.45028189049697
30
0
41
1
10
81.9195177067215
20
-7.48358596623487
30
0
41
1
10
81.9239775292068
20
-7.49400448358264
30
0
41
1
10
81.9283598788496
20
-7.49795674674482
30
0
0
SPLINE
5
E3
100
AcDbEntity
8
1
62
256
6
ByLayer
370
18
48
1
60
0
100
AcDbSpline
70
4
71
3
72
32
73
28
40
0
40
0
40
0
40
0
40
0.0415852746324278
40
0.0415852746324278
40
0.148075799673269
40
0.148075799673269
40
0.254566324714111
40
0.254566324714111
40
0.361056849754952
40
0.361056849754952
40
0.414302112275373
40
0.414302112275373
40
0.467547374795793
40
0.467547374795793
40
0.520792637316214
40
0.520792637316214
40
0.574037899836635
40
0.574037899836635
40
0.680528424877476
40
0.680528424877476
40
0.787018949918317
40
0.787018949918317
40
0.893509474959159
40
0.893509474959159
40
0.946754737479579
40
0.946754737479579
40
1
40
1
40
1
40
1
41
1
10
61.5751666729695
20
-0.603534031876904
30
0
41
1
10
61.1651886697545
20
-0.391274942788044
30
0
41
1
10
60.7552497074807
20
-0.178231512604213
30
0
41
1
10
59.2953281316827
20
0.580009745334166
30
0
41
1
10
58.2481395227389
20
1.12345082773291
30
-1E-16
41
1
10
56.147928195242
20
2.18481383881974
30
-1E-16
41
1
10
55.0974412823256
20
2.70163542230978
30
-2E-16
41
1
10
52.9971555707041
20
3.67928531426259
30
-2E-16
41
1
10
51.9481044041315
20
4.14018223774849
30
-3E-16
41
1
10
50.3730729718533
20
4.77303830261249
30
-3E-16
41
1
10
49.8485716943875
20
4.97394057131018
30
-3E-16
41
1
10
48.7991138765853
20
5.35345539259342
30
-3E-16
41
1
10
48.273966393803
20
5.53244758566476
30
-3E-16
41
1
10
47.2237712464169
20
5.86544279099232
30
-4E-16
41
1
10
46.6986497305021
20
6.019606822642
30
1E-16
41
1
10
45.6490283036218
20
6.30132931534789
30
1E-16
41
1
10
45.1243197981699
20
6.42936446062512
30
1E-16
41
1
10
43.5488826941095
20
6.77128593300409
30
0
41
1
10
42.4988830247904
20
6.9425104851303
30
0
41
1
10
40.3994845616816
20
7.16162024487403
30
0
41
1
10
39.3491386342155
20
7.2096202946062
30
0
41
1
10
37.2486838554149
20
7.1840189730755
30
0
41
1
10
36.1981534816929
20
7.10858483959356
30
0
41
1
10
34.6235355377253
20
6.90510940862109
30
0
41
1
10
34.0983569654998
20
6.82187098645886
30
0
41
1
10
33.0490996295008
20
6.6269494280825
30
0
41
1
10
32.5247341736579
20
6.51513152806191
30
0
41
1
10
32.0000000000001
20
6.38967403513229
30
1E-16
0
SPLINE
5
E4
100
AcDbEntity
8
1
62
256
6
ByLayer
370
18
48
1
60
0
100
AcDbSpline
70
4
71
3
72
68
73
64
40
0
40
0
40
0
40
0
40
0.062500000000007
40
0.062500000000007
40
0.125000000000014
40
0.125000000000014
40
0.187500000000021
40
0.187500000000021
40
0.250000000000028
40
0.250000000000028
40
0.265625000000029
40
0.265625000000029
40
0.281250000000031
40
0.281250000000031
40
0.312500000000034
40
0.312500000000034
40
0.328125000000035
40
0.328125000000035
40
0.343750000000037
40
0.343750000000037
40
0.359375000000039
40
0.359375000000039
40
0.37500000000004
40
0.37500000000004
40
0.406250000000043
40
0.406250000000043
40
0.421875000000045
40
0.421875000000045
40
0.437500000000047
40
0.437500000000047
40
0.468750000000049
40
0.468750000000049
40
0.484375000000051
40
0.484375000000051
40
0.500000000000053
40
0.500000000000053
40
0.56250000000006
40
0.56250000000006
40
0.625000000000068
40
0.625000000000068
40
0.656250000000072
40
0.656250000000072
40
0.664062500000072
40
0.667968750000072
40
0.667968750000072
40
0.669921875000072
40
0.669921875000072
40
0.671875000000072
40
0.671875000000072
40
0.673828125000072
40
0.673828125000072
40
0.675781250000072
40
0.675781250000072
40
0.679687500000071
40
0.68750000000007
40
0.68750000000007
40
0.750000000000056
40
0.750000000000056
40
0.875000000000029
40
0.875000000000029
40
0.937500000000014
40
0.937500000000014
40
1
40
1
40
1
40
1
41
1
10
7.57013019493854
20
-5.57435419839311
30
3E-16
41
1
10
7.15332519996073
20
-5.42568468672286
30
3E-16
41
1
10
6.74376495251173
20
-5.26337322573471
30
3E-16
41
1
10
5.94204237030041
20
-4.9045651455838
30
3E-16
41
1
10
5.54983339803681
20
-4.7081737848996
30
3E-16
41
1
10
4.78754949998597
20
-4.27015980296042
30
3E-16
41
1
10
4.41733762090237
20
-4.02884556925537
30
2E-16
41
1
10
3.70805345640167
20
-3.48029085848773
30
2E-16
41
1
10
3.37571950123549
20
-3.17863350128482
30
2E-16
41
1
10
3.00259482836859
20
-2.75029779765333
30
2E-16
41
1
10
2.93007480568386
20
-2.66189757409333
30
2E-16
41
1
10
2.79148939061599
20
-2.48124670165794
30
2E-16
41
1
10
2.72521826604469
20
-2.38877444530706
30
1E-16
41
1
10
2.53633890753662
20
-2.10427600708215
30
1E-16
41
1
10
2.42355697245043
20
-1.90524564641319
30
1E-16
41
1
10
2.27906575358631
20
-1.58900994602229
30
1E-16
41
1
10
2.23484595656501
20
-1.48005682647684
30
1E-16
41
1
10
2.15688391261642
20
-1.2581879626787
30
1E-16
41
1
10
2.12327763794605
20
-1.14582419955596
30
1E-16
41
1
10
2.06735719038852
20
-0.918089318145917
30
1E-16
41
1
10
2.04504181563294
20
-0.802718513695936
30
0
41
1
10
2.01240067989798
20
-0.568780844264637
30
0
41
1
10
2.00206102893514
20
-0.449552368566913
30
0
41
1
10
1.99047008072614
20
-0.0914546428568883
30
0
41
1
10
2.00838196790144
20
0.144280687314421
30
0
41
1
10
2.07117417680587
20
0.493686572192587
30
0
41
1
10
2.09824860260642
20
0.609925187276218
30
0
41
1
10
2.1635518870186
20
0.83888449785627
30
-1E-16
41
1
10
2.20142696129651
20
0.950592846515832
30
-1E-16
41
1
10
2.32901062143298
20
1.27832261463121
30
-1E-16
41
1
10
2.43259451953338
20
1.4869927442555
30
-1E-16
41
1
10
2.61103816537039
20
1.78782469328877
30
-1E-16
41
1
10
2.67457930190775
20
1.88628990072039
30
-1E-16
41
1
10
2.80676577096574
20
2.07663915150061
30
-1E-16
41
1
10
2.87560282062691
20
2.16888774329655
30
-1E-16
41
1
10
3.23185710279742
20
2.61730762425847
30
-2E-16
41
1
10
3.55464795789743
20
2.93591553774186
30
-2E-16
41
1
10
4.25160211737557
20
3.51956624132572
30
-2E-16
41
1
10
4.61966950626845
20
3.77902341603368
30
-2E-16
41
1
10
5.19236028254076
20
4.13443771890931
30
-3E-16
41
1
10
5.38693458239518
20
4.2472631053603
30
-3E-16
41
1
10
5.63338117785173
20
4.38175492015361
30
-3E-16
41
1
10
5.70756147464459
20
4.42161358064075
30
-3E-16
41
1
10
5.78209947851354
20
4.46076500573466
30
-3E-16
41
1
10
5.81942427361128
20
4.48022336222328
30
-3E-16
41
1
10
5.83152967158998
20
4.48716916091163
30
-3E-16
41
1
10
5.85750237120993
20
4.49862606719975
30
-3E-16
41
1
10
5.87166026922236
20
4.50213765283198
30
-3E-16
41
1
10
5.90094666566918
20
4.5054017295345
30
-3E-16
41
1
10
5.91555643685371
20
4.50528265947327
30
-3E-16
41
1
10
5.94472644870021
20
4.50244989955061
30
-3E-16
41
1
10
5.95908825484253
20
4.49942003318975
30
-3E-16
41
1
10
6.00209222262322
20
4.49109721031053
30
-3E-16
41
1
10
6.08806085844668
20
4.47429959490623
30
-3E-16
41
1
10
6.17390378962938
20
4.45704876417884
30
-3E-16
41
1
10
6.6884598266584
20
4.351719819951
30
-3E-16
41
1
10
7.14239579926459
20
4.24504680625654
30
-3E-16
41
1
10
8.48928652006634
20
3.88594176935348
30
-2E-16
41
1
10
9.36716538316051
20
3.59400343500437
30
-2E-16
41
1
10
10.6610528974338
20
3.0795277688533
30
-2E-16
41
1
10
11.0882615399021
20
2.89552509509929
30
-2E-16
41
1
10
11.9334507205697
20
2.5060678205318
30
-2E-16
41
1
10
12.3518779881091
20
2.30044323012564
30
-1E-16
41
1
10
12.767324261611
20
2.08548969363539
30
-1E-16
0
SPLINE
5
E5
100
AcDbEntity
8
1
62
256
6
ByLayer
370
18
48
1
60
0
100
AcDbSpline
70
4
71
3
72
16
73
12
40
0
40
0
40
0
40
0
40
0.233619679295171
40
0.233619679295171
40
0.467239358590342
40
0.467239358590342
40
0.700859037885513
40
0.700859037885513
40
0.934478717180684
40
0.934478717180684
40
1
40
1
40
1
40
1
41
1
10
32
20
-6.61802012209404
30
0
41
1
10
32.5212294891385
20
-6.7484517636525
30
0
41
1
10
33.0423067515899
20
-6.86481604386117
30
0
41
1
10
34.0830251038585
20
-7.06779836005813
30
0
41
1
10
34.6030210684862
20
-7.15451010336352
30
0
41
1
10
35.6438192307173
20
-7.29748293269736
30
0
41
1
10
36.1652201374193
20
-7.35377545600451
30
0
41
1
10
37.2067817768587
20
-7.43486785697689
30
0
41
1
10
37.7269369323192
20
-7.45972630542212
30
0
41
1
10
38.3930617380683
20
-7.4713759047352
30
0
41
1
10
38.5389968789863
20
-7.47268087054715
30
0
41
1
10
38.6849598598223
20
-7.47274144149569
30
0
0
SPLINE
5
E6
100
AcDbEntity
8
1
62
256
6
ByLayer
370
18
48
1
60
0
100
AcDbSpline
70
4
71
3
72
18
73
14
40
0
40
0
40
0
40
0
40
0.0881454191635114
40
0.0881454191635114
40
0.24012118263626
40
0.24012118263626
40
0.392096946109008
40
0.392096946109008
40
0.544072709581756
40
0.544072709581756
40
0.696048473054503
40
0.696048473054503
40
1
40
1
40
1
40
1
41
1
10
71.6775254495417
20
5.42349333557365
30
-3E-16
41
1
10
71.9786296276181
20
5.53594104349941
30
-3E-16
41
1
10
72.2797819195078
20
5.64459308458345
30
-3E-16
41
1
10
73.1006760996496
20
5.92972947946143
30
-4E-16
41
1
10
73.6213642733139
20
6.09848762549464
30
-4E-16
41
1
10
74.6625571159656
20
6.40935024143826
30
1E-16
41
1
10
75.1828172454732
20
6.55139613818704
30
0
41
1
10
76.224111187588
20
6.80740783024171
30
0
41
1
10
76.7449228060534
20
6.92127950659534
30
0
41
1
10
77.7831480084218
20
7.11883247403298
30
0
41
1
10
78.3012411638078
20
7.20269584169282
30
0
41
1
10
79.8545760139521
20
7.40861653945635
30
0
41
1
10
80.888958016432
20
7.4848933413646
30
0
41
1
10
81.9283598788706
20
7.49795674674479
30
0
0
SPLINE
5
E7
100
AcDbEntity
8
1
62
256
6
ByLayer
370
18
48
1
60
0
100
AcDbSpline
70
4
71
3
72
8
73
4
40
0
40
0
40
0
40
0
40
1
40
1
40
1
40
1
41
1
10
82.3797152744383
20
-7.19906840852445
30
0
41
1
10
82.3843826128979
20
-7.19592519857383
30
0
41
1
10
82.389050029446
20
-7.19278156907956
30
0
41
1
10
82.3937175249055
20
-7.18963752013963
30
0
0
SPLINE
5
E8
100
AcDbEntity
8
1
62
256
6
ByLayer
370
18
48
1
60
0
100
AcDbSpline
70
4
71
3
72
26
73
22
40
0
40
0
40
0
40
0
40
0.114318448580952
40
0.114318448580952
40
0.228636897161904
40
0.228636897161904
40
0.342955345742856
40
0.342955345742856
40
0.400114570033331
40
0.400114570033331
40
0.457273794323806
40
0.457273794323806
40
0.571592242904757
40
0.571592242904757
40
0.685910691485707
40
0.685910691485707
40
0.800229140066657
40
0.800229140066657
40
0.914547588647608
40
0.914547588647608
40
1
40
1
40
1
40
1
41
1
10
81.2640393796585
20
0.876000944874193
30
-1E-16
41
1
10
80.4950530193807
20
1.28987124871634
30
-1E-16
41
1
10
79.729471383963
20
1.69703467406234
30
-1E-16
41
1
10
78.2011106451307
20
2.49101563113433
30
-2E-16
41
1
10
77.4385690614919
20
2.87822399679973
30
-2E-16
41
1
10
75.9107270453371
20
3.62250632269843
30
-2E-16
41
1
10
75.1460390195141
20
3.98064068248434
30
-2E-16
41
1
10
73.9939208056323
20
4.48998245724289
30
-3E-16
41
1
10
73.6089719888626
20
4.65502588002764
30
-3E-16
41
1
10
72.8367467965267
20
4.97476232710611
30
-3E-16
41
1
10
72.4490478005755
20
5.12962846054961
30
-3E-16
41
1
10
71.2916551537735
20
5.57363552082134
30
-3E-16
41
1
10
70.5246049485297
20
5.84350989228716
30
-4E-16
41
1
10
68.9940502097972
20
6.32565862537874
30
-4E-16
41
1
10
68.2310556659143
20
6.53848748066073
30
0
41
1
10
66.7039116652546
20
6.90245473664851
30
0
41
1
10
65.9397335548987
20
7.05368070342146
30
0
41
1
10
64.4068243748522
20
7.29148329840032
30
0
41
1
10
63.6374028223644
20
7.3776550040873
30
0
41
1
10
62.2841748330548
20
7.46807377942238
30
0
41
1
10
61.7083004543057
20
7.48707951180589
30
0
41
1
10
61.1341759731775
20
7.48678210586505
30
0
0
SPLINE
5
E9
100
AcDbEntity
8
1
62
256
6
ByLayer
370
18
48
1
60
0
100
AcDbSpline
70
4
71
3
72
28
73
24
40
0
40
0
40
0
40
0
40
0.100011187158345
40
0.100011187158345
40
0.212509788763551
40
0.212509788763551
40
0.268759089566154
40
0.268759089566154
40
0.325008390368756
40
0.325008390368756
40
0.437506991973964
40
0.437506991973964
40
0.550005593579171
40
0.550005593579171
40
0.662504195184378
40
0.662504195184378
40
0.718753495986982
40
0.718753495986982
40
0.775002796789585
40
0.775002796789585
40
0.887501398394793
40
0.887501398394793
40
1
40
1
40
1
40
1
41
1
10
28.0786466499124
20
-5.43782590413699
30
3E-16
41
1
10
27.3994480828987
20
-5.68830577676212
30
3E-16
41
1
10
26.7202037632178
20
-5.91910237045931
30
3E-16
41
1
10
25.2739274242876
20
-6.36385238499929
30
-1E-16
41
1
10
24.5058695617845
20
-6.57140260706532
30
0
41
1
10
23.3474174102064
20
-6.83734631724255
30
0
41
1
10
22.9594953635536
20
-6.91856830239703
30
0
41
1
10
22.1868005217717
20
-7.06383882674234
30
0
41
1
10
21.8015215922182
20
-7.12803544197058
30
0
41
1
10
20.6481306414321
20
-7.29533691260772
30
0
41
1
10
19.8827247437231
20
-7.37325050454504
30
0
41
1
10
18.353849964871
20
-7.46102920718067
30
0
41
1
10
17.5900595457741
20
-7.47092878948538
30
0
41
1
10
16.0606309331485
20
-7.42249965039755
30
0
41
1
10
15.2944947144939
20
-7.36414667927968
30
0
41
1
10
14.1396332615671
20
-7.2255159782078
30
0
41
1
10
13.7537506058993
20
-7.17079191304825
30
0
41
1
10
12.9797804925392
20
-7.0441390527981
30
0
41
1
10
12.5922468845405
20
-6.97235071246749
30
0
41
1
10
11.4323631536058
20
-6.73367685117137
30
0
41
1
10
10.6609452326668
20
-6.54288083829843
30
0
41
1
10
9.11797715855565
20
-6.10125510024048
30
4E-16
41
1
10
8.34576838184478
20
-5.8510000156742
30
4E-16
41
1
10
7.57007328203025
20
-5.57435598832066
30
3E-16
0
SPLINE
5
EA
100
AcDbEntity
8
1
62
256
6
ByLayer
370
18
48
1
60
0
100
AcDbSpline
70
4
71
3
72
8
73
4
40
0
40
0
40
0
40
0
40
1
40
1
40
1
40
1
41
1
10
81.9004573511279
20
-7.39837299175431
30
0
41
1
10
82.0294633088508
20
-7.32521836056929
30
0
41
1
10
82.1587996426779
20
-7.250507682055
30
0
41
1
10
82.2885214938102
20
-7.17428157919645
30
0
0
SPLINE
5
EB
100
AcDbEntity
8
1
62
256
6
ByLayer
370
18
48
1
60
0
100
AcDbSpline
70
4
71
3
72
24
73
20
40
0
40
0
40
0
40
0
40
0.250000000000002
40
0.250000000000002
40
0.500000000000004
40
0.500000000000004
40
0.562500000000004
40
0.562500000000004
40
0.625000000000003
40
0.625000000000003
40
0.687500000000003
40
0.687500000000003
40
0.750000000000002
40
0.750000000000002
40
0.875000000000001
40
0.875000000000001
40
0.937500000000001
40
0.937500000000001
40
1
40
1
40
1
40
1
41
1
10
82.3937175249054
20
-7.18963752013957
30
0
41
1
10
82.5433298409269
20
-6.76666145338203
30
0
41
1
10
82.6913963879651
20
-6.3407740615753
30
0
41
1
10
82.9901374074302
20
-5.48594018579712
30
0
41
1
10
83.1408232085753
20
-5.05738525048392
30
0
41
1
10
83.3325030003733
20
-4.52304751307489
30
0
41
1
10
83.3709874779333
20
-4.41625667142691
30
0
41
1
10
83.4483028764624
20
-4.20284402857558
30
0
41
1
10
83.4869977968862
20
-4.09615745731509
30
0
41
1
10
83.5670612201803
20
-3.88408500862209
30
0
41
1
10
83.6082968121826
20
-3.77832394283226
30
0
41
1
10
83.6924020994664
20
-3.57054205515215
30
0
41
1
10
83.7353670536598
20
-3.46827786747411
30
0
41
1
10
83.8674851554462
20
-3.16656006980767
30
0
41
1
10
83.9598920595342
20
-2.97221312179914
30
0
41
1
10
84.106488689011
20
-2.69121598333391
30
0
41
1
10
84.1569126183694
20
-2.59893783220119
30
0
41
1
10
84.2592390116641
20
-2.42046832797863
30
0
41
1
10
84.3111708527963
20
-2.33417594064738
30
0
41
1
10
84.3639082527146
20
-2.25068830616485
30
0
0
SPLINE
5
EC
100
AcDbEntity
8
1
62
256
6
ByLayer
370
18
48
1
60
0
100
AcDbSpline
70
4
71
3
72
24
73
20
40
0
40
0
40
0
40
0
40
0.203005283616783
40
0.203005283616783
40
0.304507925425175
40
0.304507925425175
40
0.406010567233567
40
0.406010567233567
40
0.507513209041959
40
0.507513209041959
40
0.609015850850351
40
0.609015850850351
40
0.710518492658743
40
0.710518492658743
40
0.812021134467135
40
0.812021134467135
40
0.913523776275527
40
0.913523776275527
40
1
40
1
40
1
40
1
41
1
10
3.64943667555983
20
-4.84471430796438
30
3E-16
41
1
10
4.45883514494597
20
-5.1791342310141
30
3E-16
41
1
10
5.26941862023173
20
-5.48525449501386
30
3E-16
41
1
10
6.48666860325659
20
-5.90007434866521
30
4E-16
41
1
10
6.89185783136014
20
-6.03065382757015
30
4E-16
41
1
10
7.70137978516712
20
-6.2762310126212
30
4E-16
41
1
10
8.10554399310087
20
-6.39138376023556
30
-1E-16
41
1
10
8.9139157469514
20
-6.605099251203
30
0
41
1
10
9.31840260164276
20
-6.70343646691958
30
0
41
1
10
10.127938150423
20
-6.88311915737256
30
0
41
1
10
10.5331954268389
20
-6.96450695758242
30
0
41
1
10
11.3443364445787
20
-7.10909893730758
30
0
41
1
10
11.7494054948904
20
-7.17216141488402
30
0
41
1
10
12.5586652438376
20
-7.27990481232538
30
0
41
1
10
12.9628031383294
20
-7.32457990974919
30
0
41
1
10
13.7713289672916
20
-7.39506418454792
30
0
41
1
10
14.1757739993303
20
-7.42088362581597
30
0
41
1
10
14.9253260879988
20
-7.45117985774527
30
0
41
1
10
15.2704654931581
20
-7.45823633283436
30
0
41
1
10
15.6158737537116
20
-7.45833734832479
30
0
0
SPLINE
5
ED
100
AcDbEntity
8
1
62
256
6
ByLayer
370
18
48
1
60
0
100
AcDbSpline
70
4
71
3
72
28
73
24
40
0
40
0
40
0
40
0
40
0.0852112613612847
40
0.0852112613612847
40
0.176690135225156
40
0.176690135225156
40
0.268169009089028
40
0.268169009089028
40
0.3596478829529
40
0.3596478829529
40
0.451126756816772
40
0.451126756816772
40
0.542605630680644
40
0.542605630680644
40
0.634084504544515
40
0.634084504544515
40
0.725563378408387
40
0.725563378408387
40
0.817042252272259
40
0.817042252272259
40
0.90852112613613
40
0.90852112613613
40
1
40
1
40
1
40
1
41
1
10
54.803900164122
20
7.11603714907528
30
0
41
1
10
55.5588027453241
20
7.24241569134904
30
0
41
1
10
56.3112736890692
20
7.33700468034914
30
0
41
1
10
57.8722160396678
20
7.46487455923025
30
0
41
1
10
58.6797597903778
20
7.49349899505657
30
0
41
1
10
60.3012365733219
20
7.47384453767106
30
0
41
1
10
61.1088086571952
20
7.42547653702977
30
0
41
1
10
62.7251454513675
20
7.25445419932962
30
0
41
1
10
63.5329157329169
20
7.13147720863253
30
0
41
1
10
65.1541155328181
20
6.81306177241959
30
0
41
1
10
65.9611997832665
20
6.61744850763247
30
0
41
1
10
67.5771365973885
20
6.16332532829799
30
-4E-16
41
1
10
68.3856404660895
20
5.90449122661477
30
-4E-16
41
1
10
70.0064702551479
20
5.32555968663118
30
-3E-16
41
1
10
70.8137293101304
20
5.00669027898968
30
-3E-16
41
1
10
72.4292986341547
20
4.32427211080579
30
-3E-16
41
1
10
73.2371151081526
20
3.95951937227332
30
-2E-16
41
1
10
74.8579254182869
20
3.19044179767252
30
-2E-16
41
1
10
75.6641584078551
20
2.78861932787677
30
-2E-16
41
1
10
77.2720590479101
20
1.96441919340876
30
-1E-16
41
1
10
78.0737715223543
20
1.54096278477806
30
-1E-16
41
1
10
79.6792794030202
20
0.6834171654979
30
0
41
1
10
80.4825418984571
20
0.248354963194117
30
0
41
1
10
81.2888314170297
20
-0.188402959571988
30
0
0
SPLINE
5
EE
100
AcDbEntity
8
1
62
256
6
ByLayer
370
18
48
1
60
0
100
AcDbSpline
70
4
71
3
72
18
73
14
40
0
40
0
40
0
40
0
40
0.232566639264803
40
0.232566639264803
40
0.428606346064549
40
0.428606346064549
40
0.626278615076909
40
0.626278615076909
40
0.799684906399265
40
0.799684906399265
40
0.967652641421989
40
0.967652641421989
40
1
40
1
40
1
40
1
41
1
10
82.3265794215125
20
-7.05982807173356
30
0
41
1
10
82.3266618692707
20
-7.05999960566052
30
0
41
1
10
82.3266870185265
20
-7.06035469564173
30
0
41
1
10
82.3266015618852
20
-7.06136290506262
30
0
41
1
10
82.3265099014978
20
-7.06197393599697
30
0
41
1
10
82.3262174914572
20
-7.06344681325658
30
0
41
1
10
82.3260104597746
20
-7.06433538015091
30
0
41
1
10
82.3255401710354
20
-7.06612948054058
30
0
41
1
10
82.3252806251463
20
-7.06704349975556
30
0
41
1
10
82.3247383994821
20
-7.06883087192188
30
0
41
1
10
82.3244502528012
20
-7.06972636393914
30
0
41
1
10
82.3241064083059
20
-7.07074193411074
30
0
41
1
10
82.3240502199235
20
-7.07090625199137
30
0
41
1
10
82.3239940152607
20
-7.07106903156404
30
0
0
SPLINE
5
EF
100
AcDbEntity
8
1
62
256
6
ByLayer
370
18
48
1
60
0
100
AcDbSpline
70
4
71
3
72
46
73
42
40
0
40
0
40
0
40
0
40
0.0235681693444763
40
0.0235681693444763
40
0.07863425725448
40
0.07863425725448
40
0.133700345164484
40
0.133700345164484
40
0.188766433074488
40
0.188766433074488
40
0.21629947702949
40
0.21629947702949
40
0.243832520984492
40
0.243832520984492
40
0.298898608894495
40
0.298898608894495
40
0.353964696804499
40
0.353964696804499
40
0.409030784714503
40
0.409030784714503
40
0.464096872624507
40
0.464096872624507
40
0.519162960534511
40
0.519162960534511
40
0.574229048444514
40
0.574229048444514
40
0.629295136354519
40
0.629295136354519
40
0.684361224264522
40
0.684361224264522
40
0.739427312174526
40
0.739427312174526
40
0.79449340008453
40
0.79449340008453
40
0.849559487994533
40
0.849559487994533
40
0.904625575904538
40
0.904625575904538
40
0.959691663814541
40
0.959691663814541
40
1
40
1
40
1
40
1
41
1
10
15.3131758583315
20
7.09423004774655
30
0
41
1
10
15.485682619338
20
7.09626193845443
30
0
41
1
10
15.6581889824295
20
7.09665452446731
30
0
41
1
10
16.2338830839676
20
7.09234185159809
30
0
41
1
10
16.637308854457
20
7.07994915024057
30
0
41
1
10
17.4448914274696
20
7.03752565864039
30
0
41
1
10
17.8489786477881
20
7.00766613366304
30
0
41
1
10
18.6588651795644
20
6.92962890250647
30
0
41
1
10
19.0647426950925
20
6.88127397166838
30
0
41
1
10
19.6750734216226
20
6.79548095916508
30
0
41
1
10
19.8787556277251
20
6.76469983092409
30
0
41
1
10
20.2867134570986
20
6.69873408194158
30
0
41
1
10
20.4912157781778
20
6.66349760056434
30
0
41
1
10
21.1036198861099
20
6.55141031176885
30
0
41
1
10
21.5106926640883
20
6.46806348310068
30
0
41
1
10
22.322869875104
20
6.28559065699653
30
1E-16
41
1
10
22.7279333934722
20
6.18657737525081
30
1E-16
41
1
10
23.5370322988268
20
5.97300887603009
30
1E-16
41
1
10
23.9411333055257
20
5.85830689748391
30
-4E-16
41
1
10
24.7484543819294
20
5.61490159112009
30
-3E-16
41
1
10
25.1516004437977
20
5.4863213263115
30
-3E-16
41
1
10
25.9583767061403
20
5.21492626887218
30
-3E-16
41
1
10
26.3619492296477
20
5.07228660689449
30
-3E-16
41
1
10
27.1694245180539
20
4.77444733215853
30
-3E-16
41
1
10
27.5732407957029
20
4.61930012641298
30
-3E-16
41
1
10
28.3827552960956
20
4.29670636727991
30
-3E-16
41
1
10
28.7883330995103
20
4.12940401351455
30
-3E-16
41
1
10
29.6010092704927
20
3.78381388726712
30
-2E-16
41
1
10
30.0079982403163
20
3.60553237975819
30
-2E-16
41
1
10
30.8253983680653
20
3.23877036193264
30
-2E-16
41
1
10
31.2332030783406
20
3.05144025156704
30
-2E-16
41
1
10
32.0462211931052
20
2.67020629064999
30
-2E-16
41
1
10
32.4515535212676
20
2.47614653211741
30
-2E-16
41
1
10
33.2613054636228
20
2.08338756257552
30
-1E-16
41
1
10
33.6655924288404
20
1.88454170977272
30
-1E-16
41
1
10
34.4731564996322
20
1.48249356369806
30
-1E-16
41
1
10
34.876360310593
20
1.27917809597543
30
-1E-16
41
1
10
35.6831879373258
20
0.870602830839346
30
-1E-16
41
1
10
36.0866268048818
20
0.665076250134774
30
0
41
1
10
36.7856099691944
20
0.307463575069448
30
0
41
1
10
37.0810553263655
20
0.155752985167737
30
0
41
1
10
37.3768483079921
20
0.0040268884454235
30
0
0
SPLINE
5
F0
100
AcDbEntity
8
1
62
256
6
ByLayer
370
18
48
1
60
0
100
AcDbSpline
70
4
71
3
72
12
73
8
40
0
40
0
40
0
40
0
40
0.397496492686916
40
0.397496492686916
40
0.877173354833866
40
0.877173354833866
40
1
40
1
40
1
40
1
41
1
10
3.60199259689978
20
7.07607053749001
30
0
41
1
10
3.60197637493826
20
7.07659485088547
30
0
41
1
10
3.60196021041145
20
7.05493039430087
30
0
41
1
10
3.601924181101
20
6.95659573512529
30
0
41
1
10
3.60190473461776
20
6.87094198368061
30
0
41
1
10
3.60187982817769
20
6.72490326990436
30
0
41
1
10
3.60187472608609
20
6.6931245691764
30
0
41
1
10
3.60186958626929
20
6.65931624978407
30
0
0
SPLINE
5
F1
100
AcDbEntity
8
1
62
256
6
ByLayer
370
18
48
1
60
0
100
AcDbSpline
70
4
71
3
72
70
73
66
40
0
40
0
40
0
40
0
40
0.0173450480471081
40
0.0173450480471081
40
0.0427032385139332
40
0.0427032385139332
40
0.0680614289807582
40
0.0680614289807582
40
0.0934196194475836
40
0.0934196194475836
40
0.144136000381234
40
0.144136000381234
40
0.169494190848059
40
0.169494190848059
40
0.194852381314884
40
0.194852381314884
40
0.245568762248534
40
0.245568762248534
40
0.270926952715359
40
0.270926952715359
40
0.296285143182184
40
0.296285143182184
40
0.321643333649009
40
0.321643333649009
40
0.347001524115834
40
0.347001524115834
40
0.372359714582659
40
0.372359714582659
40
0.397717905049484
40
0.397717905049484
40
0.423076095516309
40
0.423076095516309
40
0.448434285983135
40
0.448434285983135
40
0.473792476449959
40
0.473792476449959
40
0.499150666916785
40
0.499150666916785
40
0.52450885738361
40
0.52450885738361
40
0.549867047850435
40
0.549867047850435
40
0.57522523831726
40
0.57522523831726
40
0.600583428784085
40
0.600583428784085
40
0.62594161925091
40
0.62594161925091
40
0.651299809717735
40
0.651299809717735
40
0.67665800018456
40
0.67665800018456
40
0.702016190651385
40
0.702016190651385
40
0.752732571585035
40
0.752732571585035
40
0.803448952518685
40
0.803448952518685
40
0.854165333452335
40
0.854165333452335
40
0.904881714385986
40
0.904881714385986
40
0.955598095319636
40
0.955598095319636
40
1
40
1
40
1
40
1
41
1
10
11.3230963281771
20
7.10257446958104
30
0
41
1
10
11.6002947683541
20
7.14803645156906
30
0
41
1
10
11.8772678049267
20
7.18918477444922
30
0
41
1
10
12.5586652438376
20
7.27990481232538
30
0
41
1
10
12.9628031383295
20
7.32457990974919
30
0
41
1
10
13.7713289672916
20
7.39506418454792
30
0
41
1
10
14.1757739993303
20
7.42088362581595
30
0
41
1
10
14.9852428399596
20
7.45360163982193
30
0
41
1
10
15.3904205238077
20
7.46048089370456
30
0
41
1
10
16.6070268194013
20
7.45231695234409
30
0
41
1
10
17.4155936479456
20
7.40861983775829
30
0
41
1
10
18.6282888650793
20
7.28687539185268
30
0
41
1
10
19.0326885624742
20
7.23699895418031
30
0
41
1
10
19.8420799905587
20
7.11874198316988
30
0
41
1
10
20.2471878971483
20
7.05027516336168
30
0
41
1
10
21.4637463595916
20
6.81785924455255
30
0
41
1
10
22.2721500002488
20
6.62764643372481
30
0
41
1
10
23.4847939177376
20
6.29316258619085
30
-4E-16
41
1
10
23.8892426837573
20
6.17370970549115
30
-4E-16
41
1
10
24.6985079630084
20
5.91874892317784
30
-4E-16
41
1
10
25.1033632546142
20
5.7830365648357
30
-4E-16
41
1
10
25.9144520983633
20
5.49740935925473
30
-3E-16
41
1
10
26.3194856474104
20
5.34781304507911
30
-3E-16
41
1
10
27.128531150722
20
5.03514265654297
30
-3E-16
41
1
10
27.5324572255694
20
4.87192180088059
30
-3E-16
41
1
10
28.3409054378657
20
4.5342440313064
30
-3E-16
41
1
10
28.7452910185608
20
4.3596197165472
30
-3E-16
41
1
10
29.5544003885269
20
3.9987745141494
30
-2E-16
41
1
10
29.9591319938389
20
3.81232695783393
30
-2E-16
41
1
10
30.7702781739586
20
3.43072425833481
30
-2E-16
41
1
10
31.1753091274418
20
3.23583651998627
30
-2E-16
41
1
10
31.984274467536
20
2.83790401434936
30
-2E-16
41
1
10
32.3880997828639
20
2.63465370794887
30
-2E-16
41
1
10
33.1965240558001
20
2.22323817450086
30
-1E-16
41
1
10
33.6008811132302
20
2.01466449191335
30
-1E-16
41
1
10
34.4099144209037
20
1.59181071489274
30
-1E-16
41
1
10
34.8145564371041
20
1.37730679888588
30
-1E-16
41
1
10
35.6256528387866
20
0.945868888891994
30
-1E-16
41
1
10
36.0306031754778
20
0.729191719556241
30
0
41
1
10
36.8395069765676
20
0.294290678309636
30
0
41
1
10
37.243390148207
20
0.0759362233736738
30
0
41
1
10
38.0517343879825
20
-0.359380779911646
30
0
41
1
10
38.4560175778564
20
-0.576675770239689
30
0
41
1
10
39.2648618377277
20
-1.01043316680955
30
1E-16
41
1
10
39.6695468655869
20
-1.22671702642927
30
1E-16
41
1
10
40.4805919585029
20
-1.65563672103468
30
1E-16
41
1
10
40.885544177456
20
-1.86766318115718
30
1E-16
41
1
10
41.6943169172843
20
-2.28686973547386
30
1E-16
41
1
10
42.0982011070885
20
-2.49392043547775
30
2E-16
41
1
10
42.9064912250552
20
-2.90025490541845
30
2E-16
41
1
10
43.3107505800709
20
-3.09980914628031
30
2E-16
41
1
10
44.1194226691286
20
-3.49177498156953
30
2E-16
41
1
10
44.5241019095259
20
-3.68372891674383
30
2E-16
41
1
10
45.7405801683216
20
-4.24512527193133
30
3E-16
41
1
10
46.5485232221751
20
-4.59874912554568
30
3E-16
41
1
10
48.1649305788388
20
-5.25488507979924
30
3E-16
41
1
10
48.972735120249
20
-5.55837482263593
30
3E-16
41
1
10
50.5945726200093
20
-6.10657347037679
30
4E-16
41
1
10
51.4024565584785
20
-6.35033091942955
30
-1E-16
41
1
10
53.0187823757738
20
-6.77010852414287
30
0
41
1
10
53.8264532174372
20
-6.94694672560217
30
0
41
1
10
55.4481102478879
20
-7.22832281803704
30
0
41
1
10
56.2559034117192
20
-7.33246883656503
30
0
41
1
10
57.7715960080411
20
-7.45663192858333
30
0
41
1
10
58.4786627665596
20
-7.48578865885426
30
0
41
1
10
59.1878148558318
20
-7.48555589471633
30
0
0
SPLINE
5
F2
100
AcDbEntity
8
SK1
62
256
6
ByLayer
370
18
48
1
60
0
100
AcDbSpline
70
4
71
3
72
8
73
4
40
0
40
0
40
0
40
0
40
1
40
1
40
1
40
1
41
1
10
-46.5
20
-3.32264541187266
30
2E-16
41
1
10
-46.57833452458
20
-3.27327952520383
30
2E-16
41
1
10
-46.6566474718692
20
-3.2239005639789
30
2E-16
41
1
10
-46.7349364905389
20
-3.17450710343223
30
2E-16
0
SPLINE
5
F3
100
AcDbEntity
8
SK1
62
256
6
ByLayer
370
18
48
1
60
0
100
AcDbSpline
70
4
71
3
72
12
73
8
40
0
40
0
40
0
40
0
40
0.25
40
0.25
40
0.5
40
0.5
40
1
40
1
40
1
40
1
41
1
10
-46.4
20
-3.47465328120848
30
2E-16
41
1
10
-46.4
20
-3.46000671318947
30
2E-16
41
1
10
-46.4041640203491
20
-3.44368564995435
30
2E-16
41
1
10
-46.4170552197607
20
-3.41270386099453
30
2E-16
41
1
10
-46.4255471163326
20
-3.39822941855724
30
2E-16
41
1
10
-46.4540060778302
20
-3.35859449935765
30
2E-16
41
1
10
-46.4766801706343
20
-3.33734141034557
30
2E-16
41
1
10
-46.5
20
-3.32264541187266
30
2E-16
0
SPLINE
5
F4
100
AcDbEntity
8
SK1
62
256
6
ByLayer
370
18
48
1
60
0
100
AcDbSpline
70
4
71
3
72
8
73
4
40
0
40
0
40
0
40
0
40
1
40
1
40
1
40
1
41
1
10
-46.7349364905389
20
-5.13559978277408
30
3E-16
41
1
10
-46.6566473712311
20
-5.1849933068145
30
3E-16
41
1
10
-46.5783344272936
20
-5.23437226585489
30
3E-16
41
1
10
-46.5
20
-5.2837380912145
30
3E-16
0
SPLINE
5
F5
100
AcDbEntity
8
SK1
62
256
6
ByLayer
370
18
48
1
60
0
100
AcDbSpline
70
4
71
3
72
16
73
12
40
0
40
0
40
0
40
0
40
0.25
40
0.25
40
0.5
40
0.5
40
0.625
40
0.625
40
0.75
40
0.75
40
1
40
1
40
1
40
1
41
1
10
-48
20
-1.29383779435838
30
1E-16
41
1
10
-47.8810564304756
20
-1.42432160730758
30
1E-16
41
1
10
-47.7649821497655
20
-1.56071797329685
30
1E-16
41
1
10
-47.5384661528774
20
-1.84612338804251
30
1E-16
41
1
10
-47.4280182219188
20
-1.99510868957554
30
1E-16
41
1
10
-47.2670123996533
20
-2.22974376191766
30
1E-16
41
1
10
-47.2141272145624
20
-2.30982813151104
30
1E-16
41
1
10
-47.1100965751718
20
-2.47427143502293
30
2E-16
41
1
10
-47.0588695586746
20
-2.55880319140201
30
2E-16
41
1
10
-46.9107668048979
20
-2.81535662379215
30
2E-16
41
1
10
-46.8185085598479
20
-2.99148179380458
30
2E-16
41
1
10
-46.7349364905389
20
-3.17450710343226
30
2E-16
0
SPLINE
5
F6
100
AcDbEntity
8
SK1
62
256
6
ByLayer
370
18
48
1
60
0
100
AcDbSpline
70
4
71
3
72
12
73
8
40
0
40
0
40
0
40
0
40
0.5
40
0.5
40
0.75
40
0.75
40
1
40
1
40
1
40
1
41
1
10
-46.5
20
-5.2837380912145
30
3E-16
41
1
10
-46.4766765617276
20
-5.29843636399596
30
3E-16
41
1
10
-46.4539377815664
20
-5.30748331025902
30
3E-16
41
1
10
-46.4257150407642
20
-5.30898930788621
30
3E-16
41
1
10
-46.4170867124434
20
-5.30739981881266
30
3E-16
41
1
10
-46.404231047165
20
-5.29812383601069
30
3E-16
41
1
10
-46.4
20
-5.29013514024527
30
3E-16
41
1
10
-46.4
20
-5.27885854620297
30
3E-16
0
SPLINE
5
F7
100
AcDbEntity
8
SK1
62
256
6
ByLayer
370
18
48
1
60
0
100
AcDbSpline
70
4
71
3
72
16
73
12
40
0
40
0
40
0
40
0
40
0.125
40
0.125
40
0.250000000000001
40
0.250000000000001
40
0.5
40
0.5
40
0.75
40
0.75
40
1
40
1
40
1
40
1
41
1
10
-46.7349364905389
20
-5.13559978277408
30
3E-16
41
1
10
-46.7761038085464
20
-5.15730895946425
30
3E-16
41
1
10
-46.8197172023999
20
-5.17400563525737
30
3E-16
41
1
10
-46.9112454226016
20
-5.19869251663354
30
3E-16
41
1
10
-46.9592640257055
20
-5.20664405602343
30
3E-16
41
1
10
-47.1064069635942
20
-5.21872949216279
30
-1E-16
41
1
10
-47.2094353355106
20
-5.21156348715448
30
-1E-16
41
1
10
-47.4235019816838
20
-5.17387666296244
30
-1E-16
41
1
10
-47.5347634663194
20
-5.14319048912671
30
-1E-16
41
1
10
-47.7639276887532
20
-5.06188606897558
30
-1E-16
41
1
10
-47.8808008723263
20
-5.01165254195931
30
-1E-16
41
1
10
-48
20
-4.95304965822254
30
-1E-16
0
SPLINE
5
F8
100
AcDbEntity
8
1
62
256
6
ByLayer
370
18
48
1
60
0
100
AcDbSpline
70
4
71
2
72
6
73
3
40
0
40
0
40
0
40
1
40
1
40
1
41
1
10
62.4072470021146
20
-0.0001197221546363
30
0
41
1
10
62.4072842378523
20
-9.94763144035E-05
30
0
41
1
10
62.4073214736223
20
-8.0201125769E-05
30
0
0
SPLINE
5
F9
100
AcDbEntity
8
1
62
256
6
ByLayer
370
18
48
1
60
0
100
AcDbSpline
70
4
71
3
72
19
73
15
40
0
40
0
40
0
40
0
40
0.1213098644961
40
0.221909790037524
40
0.314529649647458
40
0.401905587295994
40
0.476884655801977
40
0.529518558758474
40
0.587983976137869
40
0.651103375613956
40
0.717581891106304
40
0.789851482797954
40
0.882930456935973
40
1
40
1
40
1
40
1
41
1
10
15.6044186265671
20
7.0861041300206
30
0
41
1
10
15.1173586905978
20
7.08489235449733
30
0
41
1
10
14.2253753355864
20
7.08327113739787
30
0
41
1
10
12.9556503150652
20
7.08401186485386
30
0
41
1
10
11.8257027299808
20
7.08331082245471
30
0
41
1
10
10.7951849824929
20
7.08311136604098
30
0
41
1
10
9.92709501387807
20
7.08192246554142
30
0
41
1
10
9.17556442035499
20
7.08185270213716
30
0
41
1
10
8.47197838819017
20
7.08117639024638
30
0
41
1
10
7.71242924188971
20
7.07969892897188
30
0
41
1
10
6.89761742927735
20
7.07988994168795
30
0
41
1
10
5.96257118101934
20
7.07918310227572
30
0
41
1
10
4.82135110154422
20
7.07880925871805
30
0
41
1
10
3.97373845893998
20
7.07703489866
30
0
41
1
10
3.50169783643383
20
7.07576854090436
30
0
0
SPLINE
5
FA
100
AcDbEntity
8
1
62
256
6
ByLayer
370
18
48
1
60
0
100
AcDbSpline
70
4
71
2
72
6
73
3
40
0
40
0
40
0
40
1
40
1
40
1
41
1
10
62.4073214736227
20
8.02011255132E-05
30
0
41
1
10
62.4072842378524
20
9.94763143183E-05
30
0
41
1
10
62.4072470021145
20
0.0001197221547216
30
0
0
SPLINE
5
FB
100
AcDbEntity
8
1
62
256
6
ByLayer
370
18
48
1
60
0
100
AcDbSpline
70
4
71
3
72
17
73
13
40
0
40
0
40
0
40
0
40
0.0015873554858541
40
0.141236016223686
40
0.262849972196425
40
0.410134699476932
40
0.496287190104951
40
0.576987309839559
40
0.655577768895303
40
0.740395508415037
40
0.861706376878948
40
1
40
1
40
1
40
1
41
1
10
82.307359860534
20
1.60363021481578
30
-1E-16
41
1
10
82.3024681645369
20
1.6050323334758
30
-1E-16
41
1
10
81.867244874472
20
1.72984612471521
30
-1E-16
41
1
10
81.0623477321744
20
1.97873817997561
30
-1E-16
41
1
10
79.8143591053117
20
2.37413583777018
30
-1E-16
41
1
10
78.7355764792138
20
2.73500320826017
30
-2E-16
41
1
10
77.7851703225747
20
3.06545526741613
30
-2E-16
41
1
10
77.0450451742172
20
3.33021336313445
30
-2E-16
41
1
10
76.3112864570751
20
3.59963708138048
30
-2E-16
41
1
10
75.4584375070673
20
3.92126035614805
30
-2E-16
41
1
10
74.4313589925549
20
4.32093260269062
30
-3E-16
41
1
10
73.6622760985068
20
4.63384850186094
30
-3E-16
41
1
10
73.253953759177
20
4.80370810248263
30
-3E-16
0
SPLINE
5
FC
100
AcDbEntity
8
1
62
256
6
ByLayer
370
18
48
1
60
0
100
AcDbSpline
70
4
71
3
72
32
73
28
40
0
40
0
40
0
40
0
40
2.1831222208E-06
40
2.72879653957E-05
40
4.73300109511E-05
40
6.44252051123E-05
40
0.0001581713844425
40
0.0002291994236549
40
0.0003569059434563
40
0.0005877349583774
40
0.0010088269050658
40
0.0017892902995756
40
0.0032746285499142
40
0.0299415497803113
40
0.0730053753426057
40
0.117226891126759
40
0.161283059411283
40
0.275607520946531
40
0.38349079802129
40
0.491256629721213
40
0.598961254000408
40
0.655369288333036
40
0.711001625433941
40
0.765205031351923
40
0.824470422155676
40
0.909655512325922
40
1
40
1
40
1
40
1
41
1
10
42.5537994995846
20
0.572526724201325
30
0
41
1
10
42.5538004568957
20
0.572527016979623
30
0
41
1
10
42.553804400154
20
0.572529234460291
30
0
41
1
10
42.5537606801682
20
0.572545604322841
30
0
41
1
10
42.5536568012518
20
0.572577826302506
30
0
41
1
10
42.5532670816701
20
0.572684360909193
30
0
41
1
10
42.5523879958208
20
0.57289917512108
30
0
41
1
10
42.5512620300989
20
0.573188526745241
30
0
41
1
10
42.5495084384775
20
0.573632915165717
30
0
41
1
10
42.5463786607154
20
0.574428997557249
30
0
41
1
10
42.5405660844294
20
0.575903299476494
30
0
41
1
10
42.5296145135626
20
0.578677007397204
30
0
41
1
10
42.4102308216768
20
0.608804397298115
30
0
41
1
10
42.0990378474485
20
0.686642980151561
30
0
41
1
10
41.6055604146701
20
0.813235563427469
30
0
41
1
10
41.0334899085337
20
0.963749059908253
30
-1E-16
41
1
10
40.1538712049182
20
1.20145563910637
30
-1E-16
41
1
10
39.0015324604722
20
1.52742008167351
30
-1E-16
41
1
10
37.5811892977962
20
1.95467878881794
30
-1E-16
41
1
10
36.1967301935059
20
2.39545265289837
30
-1E-16
41
1
10
35.0392431381185
20
2.78448367981286
30
-2E-16
41
1
10
34.1079317181213
20
3.11015457619288
30
-2E-16
41
1
10
33.4056121566248
20
3.36232520128877
30
-2E-16
41
1
10
32.6935464211288
20
3.62453654638043
30
-2E-16
41
1
10
31.8598686088999
20
3.9396447835486
30
-2E-16
41
1
10
30.8780744696652
20
4.32213347317855
30
-3E-16
41
1
10
30.1488134810974
20
4.61918759903961
30
-3E-16
41
1
10
29.7745857660271
20
4.77485248945064
30
-3E-16
0
SPLINE
5
FD
100
AcDbEntity
8
1
62
256
6
ByLayer
370
18
48
1
60
0
100
AcDbSpline
70
4
71
3
72
26
73
22
40
0
40
0
40
0
40
0
40
0.0789787913835459
40
0.139995747214369
40
0.183082400912155
40
0.218435108522818
40
0.260946473004114
40
0.310746276588819
40
0.363364783310333
40
0.408880666673404
40
0.455973166134468
40
0.499974795091701
40
0.545530087923677
40
0.603011347062344
40
0.672761212990183
40
0.749214566231488
40
0.804386676288461
40
0.855173069554783
40
0.910997142724657
40
0.985964355086346
40
1
40
1
40
1
40
1
41
1
10
40.6313374595818
20
-7.09897931498878
30
0
41
1
10
41.0037716461318
20
-7.09920958523807
30
0
41
1
10
41.6639735849235
20
-7.09961988660001
30
0
41
1
10
42.527320972483
20
-7.10027546798119
30
0
41
1
10
43.1851541525869
20
-7.10062939532037
30
0
41
1
10
43.7551540564605
20
-7.10099820943134
30
0
41
1
10
44.3572181311957
20
-7.10151748283425
30
0
41
1
10
45.0407245221272
20
-7.10194969981475
30
0
41
1
10
45.7384345801157
20
-7.10209086063725
30
0
41
1
10
46.4233620798933
20
-7.10271732582669
30
0
41
1
10
47.0676358689805
20
-7.10326762136958
30
0
41
1
10
47.7121121309
20
-7.10346518132636
30
0
41
1
10
48.4055890139576
20
-7.10342165569509
30
0
41
1
10
49.2205002943882
20
-7.10472196072385
30
0
41
1
10
50.1811362548805
20
-7.10471772510928
30
0
41
1
10
51.1308818394447
20
-7.10524020409082
30
0
41
1
10
51.9911901691531
20
-7.1063297337835
30
0
41
1
10
52.754204779192
20
-7.10599041403603
30
0
41
1
10
53.610578062527
20
-7.10654728256395
30
0
41
1
10
54.2936096313295
20
-7.10749317347057
30
0
41
1
10
54.7133818165453
20
-7.10748831475649
30
0
41
1
10
54.7795793048705
20
-7.10748112549089
30
0
0
SPLINE
5
FE
100
AcDbEntity
8
1
62
256
6
ByLayer
370
18
48
1
60
0
100
AcDbSpline
70
4
71
3
72
25
73
21
40
0
40
0
40
0
40
0
40
0.0762055336530924
40
0.135909294558683
40
0.179133309123702
40
0.215065601097314
40
0.257237722241729
40
0.305775871676257
40
0.3564294959126
40
0.3995678254396
40
0.453044339297152
40
0.502400374157224
40
0.55642135369535
40
0.630983425427507
40
0.716948001987639
40
0.782304449401991
40
0.837764213589873
40
0.897106444968507
40
0.974132374123438
40
1
40
1
40
1
40
1
41
1
10
59.1629601727671
20
7.1100235375477
30
0
41
1
10
58.8001671045326
20
7.10943525622679
30
0
41
1
10
58.1530811213316
20
7.10872308095296
30
0
41
1
10
57.3002008863919
20
7.10866046448106
30
0
41
1
10
56.6387926535742
20
7.10896487599734
30
0
41
1
10
56.0616194717473
20
7.10826654293598
30
0
41
1
10
55.4585732953807
20
7.107296223395
30
0
41
1
10
54.7854042613153
20
7.10751243527668
30
0
41
1
10
54.1076186013527
20
7.10751686646853
30
0
41
1
10
53.4063270022014
20
7.10625271830665
30
0
41
1
10
52.7112076087725
20
7.10605117317928
30
0
41
1
10
51.9642627905744
20
7.10631143062966
30
0
41
1
10
51.1169079480882
20
7.10519550395196
30
0
41
1
10
50.0952213265456
20
7.10477240878714
30
0
41
1
10
49.0195549440752
20
7.10439216655169
30
0
41
1
10
48.0348550002241
20
7.10330891494195
30
0
41
1
10
47.1769282954191
20
7.10342260253336
30
0
41
1
10
46.2634625096446
20
7.10248336281123
30
0
41
1
10
45.490887466257
20
7.10210809356343
30
0
41
1
10
45.0008973936559
20
7.10187019702269
30
0
41
1
10
44.87771489879
20
7.10180564284553
30
0
0
SPLINE
5
FF
100
AcDbEntity
8
1
62
256
6
ByLayer
370
18
48
1
60
0
100
AcDbSpline
70
4
71
3
72
16
73
12
40
0
40
0
40
0
40
0
40
0.181476789913588
40
0.325764304777989
40
0.43779389988281
40
0.540846387096962
40
0.638691699365127
40
0.729322584130471
40
0.810913675196259
40
0.927143399059947
40
1
40
1
40
1
40
1
41
1
10
3.50169783643383
20
-7.07576854090436
30
0
41
1
10
3.97373845893989
20
-7.07703489866
30
0
41
1
10
4.82135110154408
20
-7.07880925871805
30
0
41
1
10
5.96257118101917
20
-7.07918310227572
30
0
41
1
10
6.89761742927715
20
-7.07988994168795
30
0
41
1
10
7.71242924188945
20
-7.07969892897188
30
0
41
1
10
8.47197838818965
20
-7.08117639024638
30
0
41
1
10
9.17556442035428
20
-7.08185270213718
30
0
41
1
10
9.92709501387719
20
-7.08192246554142
30
0
41
1
10
10.6321508924994
20
-7.08288808122251
30
0
41
1
10
11.1250287122498
20
-7.08312752533186
30
0
41
1
10
11.3148658166164
20
-7.08320126357864
30
0
0
SPLINE
5
100
100
AcDbEntity
8
1
62
256
6
ByLayer
370
18
48
1
60
0
100
AcDbSpline
70
4
71
1
72
4
73
2
40
0
40
0
40
1
40
1
41
1
10
18.8498776443445
20
0.0038604861768476
30
0
41
1
10
18.8498915484099
20
0.003851315841132
30
0
0
LINE
5
84
100
AcDbEntity
8
1
62
256
6
ByLayer
370
18
48
1
60
0
100
AcDbLine
10
3.501698
20
-7.450769
30
0
11
3.501698
21
-4.911075
31
0
39
0
210
0
220
0
230
1
0
LINE
5
85
100
AcDbEntity
8
1
62
256
6
ByLayer
370
18
48
1
60
0
100
AcDbLine
10
84.895412
20
0.090287
30
0
11
83.141065
21
2.026782
31
0
39
0
210
0
220
0
230
1
0
LINE
5
86
100
AcDbEntity
8
1
62
256
6
ByLayer
370
18
48
1
60
0
100
AcDbLine
10
0.603924
20
7.724668
30
0
11
0.603924
21
0
31
0
39
0
210
0
220
0
230
1
0
LINE
5
87
100
AcDbEntity
8
1
62
256
6
ByLayer
370
18
48
1
60
0
100
AcDbLine
10
0.603924
20
0
30
0
11
0.603924
21
-7.724668
31
0
39
0
210
0
220
0
230
1
0
LINE
5
88
100
AcDbEntity
8
1
62
256
6
ByLayer
370
18
48
1
60
0
100
AcDbLine
10
32
20
-6.61802
30
0
11
32
21
-6.671212
31
0
39
0
210
0
220
0
230
1
0
LINE
5
89
100
AcDbEntity
8
1
62
256
6
ByLayer
370
18
48
1
60
0
100
AcDbLine
10
3.501698
20
7.450769
30
0
11
3.501698
21
6.692488
31
0
39
0
210
0
220
0
230
1
0
LINE
5
8A
100
AcDbEntity
8
1
62
256
6
ByLayer
370
18
48
1
60
0
100
AcDbLine
10
1.208348
20
7.449335
30
0
11
1.208348
21
0
31
0
39
0
210
0
220
0
230
1
0
LINE
5
8B
100
AcDbEntity
8
1
62
256
6
ByLayer
370
18
48
1
60
0
100
AcDbLine
10
1.208348
20
0
30
0
11
1.208348
21
-7.449335
31
0
39
0
210
0
220
0
230
1
0
LINE
5
8C
100
AcDbEntity
8
1
62
256
6
ByLayer
370
18
48
1
60
0
100
AcDbLine
10
0
20
8
30
0
11
0
21
0
31
0
39
0
210
0
220
0
230
1
0
LINE
5
8D
100
AcDbEntity
8
1
62
256
6
ByLayer
370
18
48
1
60
0
100
AcDbLine
10
0
20
0
30
0
11
0
21
-8
31
0
39
0
210
0
220
0
230
1
0
LINE
5
8E
100
AcDbEntity
8
SK1
62
256
6
ByLayer
370
18
48
1
60
0
100
AcDbLine
10
0
20
8
30
0
11
0
21
-8
31
0
39
0
210
0
220
0
230
1
0
LINE
5
90
100
AcDbEntity
8
SK1
62
256
6
ByLayer
370
18
48
1
60
0
100
AcDbLine
10
-45.55
20
-8
30
0
11
-45.55
21
8
31
0
39
0
210
0
220
0
230
1
0
LINE
5
91
100
AcDbEntity
8
SK1
62
256
6
ByLayer
370
18
48
1
60
0
100
AcDbLine
10
-46.734936
20
-5.1356
30
0
11
-46.734936
21
-3.174415
31
0
39
0
210
0
220
0
230
1
0
LINE
5
92
100
AcDbEntity
8
SK1
62
256
6
ByLayer
370
18
48
1
60
0
100
AcDbLine
10
-48
20
-4.95305
30
0
11
-48
21
-1.293935
31
0
39
0
210
0
220
0
230
1
0
LINE
5
93
100
AcDbEntity
8
SK1
62
256
6
ByLayer
370
18
48
1
60
0
100
AcDbLine
10
-46.5
20
-5.283738
30
0
11
-46.5
21
-3.322558
31
0
39
0
210
0
220
0
230
1
0
LINE
5
94
100
AcDbEntity
8
SK1
62
256
6
ByLayer
370
18
48
1
60
0
100
AcDbLine
10
-48
20
-5.55
30
0
11
-48
21
-4.95305
31
0
39
0
210
0
220
0
230
1
0
LINE
5
95
100
AcDbEntity
8
SK1
62
256
6
ByLayer
370
18
48
1
60
0
100
AcDbLine
10
-46.4
20
-5.278859
30
0
11
-46.4
21
-3.474653
31
0
39
0
210
0
220
0
230
1
0
LINE
5
96
100
AcDbEntity
8
SK1
62
256
6
ByLayer
370
18
48
1
60
0
100
AcDbLine
10
-48
20
5.55
30
0
11
-48
21
-1.293838
31
0
39
0
210
0
220
0
230
1
0
LINE
5
97
100
AcDbEntity
8
SK1
62
256
6
ByLayer
370
18
48
1
60
0
100
AcDbLine
10
-48
20
-5.55
30
0
11
-45.55
21
-8
31
0
39
0
210
0
220
0
230
1
0
LINE
5
98
100
AcDbEntity
8
SK1
62
256
6
ByLayer
370
18
48
1
60
0
100
AcDbLine
10
-45.55
20
8
30
0
11
-48
21
5.55
31
0
39
0
210
0
220
0
230
1
0
LINE
5
99
100
AcDbEntity
8
SK1
62
256
6
ByLayer
370
18
48
1
60
0
100
AcDbLine
10
-45.55
20
-8
30
0
11
0
21
-8
31
0
39
0
210
0
220
0
230
1
0
LINE
5
9A
100
AcDbEntity
8
SK1
62
256
6
ByLayer
370
18
48
1
60
0
100
AcDbLine
10
0
20
8
30
0
11
-45.55
21
8
31
0
39
0
210
0
220
0
230
1
0
LINE
5
9B
100
AcDbEntity
8
1
62
256
6
ByLayer
370
18
48
1
60
0
100
AcDbLine
10
1.208348
20
-7.449335
30
0
11
3.501698
21
-7.450769
31
0
39
0
210
0
220
0
230
1
0
LINE
5
9C
100
AcDbEntity
8
1
62
256
6
ByLayer
370
18
48
1
60
0
100
AcDbLine
10
15.607185
20
-7.458335
30
0
11
17.624228
21
-7.459595
31
0
39
0
210
0
220
0
230
1
0
LINE
5
9D
100
AcDbEntity
8
1
62
256
6
ByLayer
370
18
48
1
60
0
100
AcDbLine
10
38.680785
20
-7.472756
30
0
11
40.632553
21
-7.473975
31
0
39
0
210
0
220
0
230
1
0
LINE
5
9E
100
AcDbEntity
8
1
62
256
6
ByLayer
370
18
48
1
60
0
100
AcDbLine
10
59.163388
20
-7.485557
30
0
11
61.130883
21
-7.486787
31
0
39
0
210
0
220
0
230
1
0
LINE
5
9F
100
AcDbEntity
8
1
62
256
6
ByLayer
370
18
48
1
60
0
100
AcDbLine
10
61.130883
20
7.486787
30
0
11
59.163388
21
7.485557
31
0
39
0
210
0
220
0
230
1
0
LINE
5
A0
100
AcDbEntity
8
1
62
256
6
ByLayer
370
18
48
1
60
0
100
AcDbLine
10
40.632553
20
7.473975
30
0
11
38.680785
21
7.472756
31
0
39
0
210
0
220
0
230
1
0
LINE
5
A1
100
AcDbEntity
8
1
62
256
6
ByLayer
370
18
48
1
60
0
100
AcDbLine
10
17.624228
20
7.459595
30
0
11
15.607185
21
7.458335
31
0
39
0
210
0
220
0
230
1
0
LINE
5
A2
100
AcDbEntity
8
1
62
256
6
ByLayer
370
18
48
1
60
0
100
AcDbLine
10
3.501698
20
7.450769
30
0
11
1.208348
21
7.449335
31
0
39
0
210
0
220
0
230
1
0
LINE
5
A3
100
AcDbEntity
8
SK4
62
256
6
ByLayer
370
18
48
0.05
60
0
100
AcDbLine
10
90
20
0
30
0
11
-53
21
0
31
0
39
0
210
0
220
0
230
1
0
LINE
5
A5
100
AcDbEntity
8
4
62
256
6
ByLayer
370
18
48
0.05
60
0
100
AcDbLine
10
-48
20
0
30
0
11
90
21
0
31
0
39
0
210
0
220
0
230
1
0
LINE
5
A7
100
AcDbEntity
8
80
62
256
6
ByLayer
370
18
48
1
60
0
100
AcDbLine
10
0
20
0
30
0
11
-6
21
0
31
0
39
0
210
0
220
0
230
1
0
LINE
5
A8
100
AcDbEntity
8
81
62
256
6
ByLayer
370
18
48
1
60
0
100
AcDbLine
10
85
20
0
30
0
11
91
21
0
31
0
39
0
210
0
220
0
230
1
0
LINE
5
A9
100
AcDbEntity
8
SK2
62
256
6
ByLayer
370
13
48
1
60
0
100
AcDbLine
10
85.542961
20
1.491761
30
0
11
92.926376
21
21.777355
31
0
39
0
210
0
220
0
230
1
0
LINE
5
AB
100
AcDbEntity
8
SK2
62
256
6
ByLayer
370
13
48
1
60
0
100
AcDbLine
10
85.542961
20
-1.491761
30
0
11
92.926376
21
-21.777355
31
0
39
0
210
0
220
0
230
1
0
LINE
5
AC
100
AcDbEntity
8
1
62
256
6
ByLayer
370
13
48
1
60
0
100
AcDbLine
10
91.840454
20
18.793834
30
0
11
94.937043
21
17.977453
31
0
39
0
210
0
220
0
230
1
0
LINE
5
AD
100
AcDbEntity
8
1
62
256
6
ByLayer
370
13
48
1
60
0
100
AcDbLine
10
91.840454
20
18.793834
30
0
11
94.620237
21
17.203813
31
0
39
0
210
0
220
0
230
1
0
LINE
5
AE
100
AcDbEntity
8
1
62
256
6
ByLayer
370
13
48
1
60
0
100
AcDbLine
10
94.937043
20
17.977453
30
0
11
94.620237
21
17.203813
31
0
39
0
210
0
220
0
230
1
0
LINE
5
AF
100
AcDbEntity
8
1
62
256
6
ByLayer
370
13
48
1
60
0
100
AcDbLine
10
91.840454
20
-18.793834
30
0
11
94.620234
21
-17.203814
31
0
39
0
210
0
220
0
230
1
0
LINE
5
B0
100
AcDbEntity
8
1
62
256
6
ByLayer
370
13
48
1
60
0
100
AcDbLine
10
91.840454
20
-18.793834
30
0
11
94.937045
21
-17.977452
31
0
39
0
210
0
220
0
230
1
0
LINE
5
B1
100
AcDbEntity
8
1
62
256
6
ByLayer
370
13
48
1
60
0
100
AcDbLine
10
94.620234
20
-17.203814
30
0
11
94.937045
21
-17.977452
31
0
39
0
210
0
220
0
230
1
0
MTEXT
5
101
100
AcDbEntity
8
SK2
62
256
6
ByLayer
370
18
48
1
60
0
100
AcDbMText
10
98.717388
20
-2.467451
30
0
210
0
220
0
230
1
1
\W0.7237;140.00
40
3.50012
41
0
44
1.084337
50
0
71
7
72
5
7
iso_b_vert
0
MTEXT
5
104
100
AcDbEntity
8
SK6
62
256
6
ByLayer
370
18
48
1
60
0
100
AcDbMText
10
-18.619185
20
-68.12007
30
0
210
0
220
0
230
1
1
\W0.7348;860.1-1500-059A1-GM X1BM
40
3.175
41
0
44
1.084337
50
0
71
7
72
5
7
iso_b_vert
0
DIMENSION
5
107
100
AcDbEntity
8
SK2
62
256
6
ByLayer
370
18
48
1
60
0
100
AcDbDimension
2
_U0
10
85
20
-31.50012
30
0
11
42.5
21
-31.50012
31
0
70
32
71
2
72
1
41
1
210
0
220
0
230
1
3
Standard
100
AcDbAlignedDimension
13
0
23
-8
33
0
14
85
24
0
34
0
50
0
100
AcDbRotatedDimension
1001
ACAD
1000
DSTYLE
1002
{
1070
   371
1070
    13
1070
   372
1070
    13
1070
     3
1000

1070
   170
1070
     0
1070
   144
1040
1.0
1070
   277
1070
     2
1070
   284
1070
     8
1070
   278
1070
    46
1070
   146
1040
0.999966
1070
   345
1005
16
1070
   347
1005
16
1070
   346
1005
16
1070
   344
1005
108
1070
   343
1005
108
1070
   172
1070
     1
1070
    76
1070
     0
1070
    75
1070
     0
1070
   282
1070
     0
1070
   281
1070
     0
1070
    71
1070
     0
1070
    74
1070
     0
1070
   279
1070
     0
1070
   173
1070
     1
1070
   340
1005
102
1070
   271
1070
     1
1070
   272
1070
     2
1070
    77
1070
     1
1070
    73
1070
     1
1070
   171
1070
     3
1070
   274
1070
     4
1070
   177
1070
   150
1070
   176
1070
     9
1070
   178
1070
    43
1070
    78
1070
     8
1070
    48
1040
-0.1
1070
    41
1040
3.175
1070
   147
1040
1.75006
1070
    42
1040
1.5875
1070
    44
1040
3.175
1070
   140
1040
3.50012
1002
}
1001
ACAD_DSTYLE_DIM_LINETYPE
1070
   380
1005
16
1001
ACAD_DSTYLE_DIM_EXT1_LINETYPE
1070
   381
1005
16
1001
ACAD_DSTYLE_DIM_EXT2_LINETYPE
1070
   382
1005
16
0
DIMENSION
5
12D
100
AcDbEntity
8
2
62
256
6
ByLayer
370
18
48
1
60
0
100
AcDbDimension
2
_U1
10
91.75006
20
7.5
30
0
11
91.75006
21
21.989862
31
0
70
32
71
1
72
1
41
1
210
0
220
0
230
1
3
Standard
100
AcDbAlignedDimension
13
82.2702
23
-7.5
33
0
14
82.2702
24
7.5
34
0
50
90
100
AcDbRotatedDimension
1001
ACAD
1000
DSTYLE
1002
{
1070
   371
1070
    13
1070
   372
1070
    13
1070
     3
1000

1070
   170
1070
     0
1070
   144
1040
1.0
1070
   277
1070
     2
1070
   284
1070
     8
1070
   278
1070
    46
1070
   146
1040
0.999966
1070
   345
1005
16
1070
   347
1005
16
1070
   346
1005
16
1070
   344
1005
108
1070
   343
1005
108
1070
   172
1070
     1
1070
    76
1070
     0
1070
    75
1070
     0
1070
   282
1070
     0
1070
   281
1070
     0
1070
    71
1070
     0
1070
    74
1070
     0
1070
   279
1070
     0
1070
   173
1070
     1
1070
   340
1005
102
1070
   271
1070
     1
1070
   272
1070
     2
1070
    77
1070
     1
1070
    73
1070
     0
1070
   171
1070
     3
1070
   274
1070
     4
1070
   177
1070
   150
1070
   176
1070
     9
1070
   178
1070
    43
1070
    78
1070
     8
1070
    48
1040
-0.1
1070
    41
1040
3.175
1070
   147
1040
1.75006
1070
    42
1040
1.5875
1070
    44
1040
3.175
1070
   140
1040
3.50012
1002
}
1001
ACAD_DSTYLE_DIM_LINETYPE
1070
   380
1005
16
1001
ACAD_DSTYLE_DIM_EXT1_LINETYPE
1070
   381
1005
16
1001
ACAD_DSTYLE_DIM_EXT2_LINETYPE
1070
   382
1005
16
0
DIMENSION
5
14C
100
AcDbEntity
8
SK2
62
256
6
ByLayer
370
18
48
1
60
0
100
AcDbDimension
2
_U2
10
-51.24994
20
-8
30
0
11
-51.24994
21
22.97767
31
0
70
32
71
1
72
1
41
1
210
0
220
0
230
1
3
Standard
100
AcDbAlignedDimension
13
-48
23
8
33
0
14
-48
24
-8
34
0
50
90
100
AcDbRotatedDimension
1001
ACAD
1000
DSTYLE
1002
{
1070
   371
1070
    13
1070
   372
1070
    13
1070
     3
1000

1070
   170
1070
     0
1070
   144
1040
1.0
1070
   277
1070
     2
1070
   284
1070
     8
1070
   278
1070
    46
1070
   146
1040
0.999966
1070
   345
1005
16
1070
   347
1005
16
1070
   346
1005
16
1070
   344
1005
108
1070
   343
1005
108
1070
   172
1070
     1
1070
    76
1070
     0
1070
    75
1070
     0
1070
   282
1070
     0
1070
   281
1070
     0
1070
    71
1070
     0
1070
    74
1070
     0
1070
   279
1070
     0
1070
   173
1070
     1
1070
   340
1005
102
1070
   271
1070
     1
1070
   272
1070
     2
1070
    77
1070
     1
1070
    73
1070
     0
1070
   171
1070
     3
1070
   274
1070
     4
1070
   177
1070
   150
1070
   176
1070
     9
1070
   178
1070
    43
1070
    78
1070
     8
1070
    48
1040
-0.1
1070
    41
1040
3.175
1070
   147
1040
1.75006
1070
    42
1040
1.5875
1070
    44
1040
3.175
1070
   140
1040
3.50012
1002
}
1001
ACAD_DSTYLE_DIM_LINETYPE
1070
   380
1005
16
1001
ACAD_DSTYLE_DIM_EXT1_LINETYPE
1070
   381
1005
16
1001
ACAD_DSTYLE_DIM_EXT2_LINETYPE
1070
   382
1005
16
0
DIMENSION
5
16A
100
AcDbEntity
8
SK2
62
256
6
ByLayer
370
18
48
1
60
0
100
AcDbDimension
2
_U3
10
0
20
-31.50012
30
0
11
-24
21
-31.50012
31
0
70
32
71
1
72
1
41
1
210
0
220
0
230
1
3
Standard
100
AcDbAlignedDimension
13
-48
23
-8
33
0
14
0
24
-8
34
0
50
0
100
AcDbRotatedDimension
1001
ACAD
1000
DSTYLE
1002
{
1070
   371
1070
    13
1070
   372
1070
    13
1070
     3
1000

1070
   170
1070
     0
1070
   144
1040
1.0
1070
   277
1070
     2
1070
   284
1070
     8
1070
   278
1070
    46
1070
   146
1040
0.999966
1070
   345
1005
16
1070
   347
1005
16
1070
   346
1005
16
1070
   344
1005
108
1070
   343
1005
108
1070
   172
1070
     1
1070
    76
1070
     0
1070
    75
1070
     0
1070
   282
1070
     0
1070
   281
1070
     0
1070
    71
1070
     0
1070
    74
1070
     0
1070
   279
1070
     0
1070
   173
1070
     1
1070
   340
1005
102
1070
   271
1070
     1
1070
   272
1070
     2
1070
    77
1070
     1
1070
    73
1070
     1
1070
   171
1070
     3
1070
   274
1070
     4
1070
   177
1070
   150
1070
   176
1070
     9
1070
   178
1070
    43
1070
    78
1070
     8
1070
    48
1040
-0.1
1070
    41
1040
3.175
1070
   147
1040
1.75006
1070
    42
1040
1.5875
1070
    44
1040
3.175
1070
   140
1040
3.50012
1002
}
1001
ACAD_DSTYLE_DIM_LINETYPE
1070
   380
1005
16
1001
ACAD_DSTYLE_DIM_EXT1_LINETYPE
1070
   381
1005
16
1001
ACAD_DSTYLE_DIM_EXT2_LINETYPE
1070
   382
1005
16
0
DIMENSION
5
186
100
AcDbEntity
8
SK2
62
256
6
ByLayer
370
18
48
1
60
0
100
AcDbDimension
2
_U4
10
85
20
-22.74982
30
0
11
43.5
21
-22.74982
31
0
70
32
71
1
72
1
41
1
210
0
220
0
230
1
3
Standard
100
AcDbAlignedDimension
13
2
23
8
33
0
14
85
24
0
34
0
50
0
100
AcDbRotatedDimension
1001
ACAD
1000
DSTYLE
1002
{
1070
   371
1070
    13
1070
   372
1070
    13
1070
     3
1000

1070
   170
1070
     0
1070
   144
1040
1.0
1070
   277
1070
     2
1070
   284
1070
     8
1070
   278
1070
    46
1070
   146
1040
0.999966
1070
   345
1005
16
1070
   347
1005
16
1070
   346
1005
16
1070
   344
1005
108
1070
   343
1005
108
1070
   172
1070
     1
1070
    76
1070
     0
1070
    75
1070
     0
1070
   282
1070
     0
1070
   281
1070
     0
1070
    71
1070
     0
1070
    74
1070
     0
1070
   279
1070
     0
1070
   173
1070
     1
1070
   340
1005
102
1070
   271
1070
     1
1070
   272
1070
     2
1070
    77
1070
     1
1070
    73
1070
     1
1070
   171
1070
     3
1070
   274
1070
     4
1070
   177
1070
   150
1070
   176
1070
     9
1070
   178
1070
    43
1070
    78
1070
     8
1070
    48
1040
-0.1
1070
    41
1040
3.175
1070
   147
1040
1.75006
1070
    42
1040
1.5875
1070
    44
1040
3.175
1070
   140
1040
3.50012
1002
}
1001
ACAD_DSTYLE_DIM_LINETYPE
1070
   380
1005
16
1001
ACAD_DSTYLE_DIM_EXT1_LINETYPE
1070
   381
1005
16
1001
ACAD_DSTYLE_DIM_EXT2_LINETYPE
1070
   382
1005
16
0
DIMENSION
5
1A2
100
AcDbEntity
8
SK2
62
256
6
ByLayer
370
18
48
1
60
0
100
AcDbDimension
2
_U5
10
85
20
-14.82
30
0
11
53.5
21
-14.82
31
0
70
32
71
1
72
1
41
1
210
0
220
0
230
1
3
Standard
100
AcDbAlignedDimension
13
22
23
-7.5
33
0
14
85
24
0
34
0
50
0
100
AcDbRotatedDimension
1001
ACAD
1000
DSTYLE
1002
{
1070
   371
1070
    13
1070
   372
1070
    13
1070
     3
1000

1070
   170
1070
     0
1070
   144
1040
1.0
1070
   277
1070
     2
1070
   284
1070
     8
1070
   278
1070
    46
1070
   146
1040
1.25
1070
   345
1005
16
1070
   347
1005
16
1070
   346
1005
16
1070
   344
1005
108
1070
   343
1005
108
1070
   172
1070
     1
1070
    76
1070
     0
1070
    75
1070
     0
1070
   282
1070
     0
1070
   281
1070
     0
1070
    71
1070
     0
1070
    74
1070
     0
1070
   279
1070
     0
1070
   173
1070
     1
1070
   340
1005
102
1070
   271
1070
     1
1070
   272
1070
     2
1070
    77
1070
     1
1070
    73
1070
     1
1070
   171
1070
     3
1070
   274
1070
     4
1070
   177
1070
   150
1070
   176
1070
     9
1070
   178
1070
    43
1070
    78
1070
     8
1070
    48
1040
-0.1
1070
    41
1040
3.175
1070
   147
1040
0.42
1070
    42
1040
1.5875
1070
    44
1040
0.5
1070
   140
1040
2.8
1002
}
1001
ACAD_DSTYLE_DIM_LINETYPE
1070
   380
1005
16
1001
ACAD_DSTYLE_DIM_EXT1_LINETYPE
1070
   381
1005
16
1001
ACAD_DSTYLE_DIM_EXT2_LINETYPE
1070
   382
1005
16
0
DIMENSION
5
1BE
100
AcDbEntity
8
SK2
62
256
6
ByLayer
370
18
48
1
60
0
100
AcDbDimension
2
_U6
10
85
20
-41.50012
30
0
11
18.5
21
-41.50012
31
0
70
32
71
1
72
1
41
1
210
0
220
0
230
1
3
Standard
100
AcDbAlignedDimension
13
-48
23
0
33
0
14
85
24
0
34
0
50
0
100
AcDbRotatedDimension
1001
ACAD
1000
DSTYLE
1002
{
1070
   371
1070
    13
1070
   372
1070
    13
1070
     3
1000

1070
   170
1070
     0
1070
   144
1040
1.0
1070
   277
1070
     2
1070
   284
1070
     8
1070
   278
1070
    46
1070
   146
1040
0.999966
1070
   345
1005
16
1070
   347
1005
16
1070
   346
1005
16
1070
   344
1005
108
1070
   343
1005
108
1070
   172
1070
     1
1070
    76
1070
     0
1070
    75
1070
     0
1070
   282
1070
     0
1070
   281
1070
     0
1070
    71
1070
     0
1070
    74
1070
     0
1070
   279
1070
     0
1070
   173
1070
     1
1070
   340
1005
102
1070
   271
1070
     1
1070
   272
1070
     2
1070
    77
1070
     1
1070
    73
1070
     1
1070
   171
1070
     3
1070
   274
1070
     4
1070
   177
1070
   150
1070
   176
1070
     9
1070
   178
1070
    43
1070
    78
1070
     8
1070
    48
1040
-0.1
1070
    41
1040
3.175
1070
   147
1040
1.75006
1070
    42
1040
1.5875
1070
    44
1040
3.175
1070
   140
1040
3.50012
1002
}
1001
ACAD_DSTYLE_DIM_LINETYPE
1070
   380
1005
16
1001
ACAD_DSTYLE_DIM_EXT1_LINETYPE
1070
   381
1005
16
1001
ACAD_DSTYLE_DIM_EXT2_LINETYPE
1070
   382
1005
16
0
ENDSEC
0
SECTION
2
OBJECTS
0
DICTIONARY
5
24a
330
0
100
AcDbDictionary
280
0
281
1
3
ACAD_GROUP
350
24b
3
ACAD_MLINESTYLE
350
24c
0
DICTIONARY
5
24b
330
0
100
AcDbDictionary
280
0
281
1
0
DICTIONARY
5
24c
330
0
100
AcDbDictionary
280
0
281
1
3
Standard
350
18
0
MLINESTYLE
5
18
330
24c
100
AcDbMlineStyle
2
Standard
70
0
3

62
256
51
90
52
90
71
2
49
-0.5
62
256
6
ByLayer
49
0.5
62
256
6
ByLayer
0
RASTERVARIABLES
5
238
330

100
AcDbRasterVariables
90
0
70
1
71
1
72
1
0
ENDSEC
0
EOF
