0
SECTION
2
HEADER
9
$ACADVER
1
AC1015
9
$DWGCODEPAGE
3
ANSI_1252
9
$HANDSEED
5
25f
9
$ANGBASE
50
0
9
$ANGDIR
70
0
9
$ATTMODE
70
1
9
$AUNITS
70
0
9
$AUPREC
70
0
9
$CECOLOR
62
256
9
$CELTSCALE
40
1
9
$CELTYPE
6
ByLayer
9
$CELWEIGHT
370
18
9
$CLAYER
8
0
9
$CMLJUST
70
0
9
$CMLSCALE
40
1
9
$CMLSTYLE
2
Standard
9
$DIMSTYLE
2
Standard
9
$TEXTSIZE
40
0.2
9
$TEXTSTYLE
7
Standard
9
$LUNITS
70
2
9
$LUPREC
70
4
9
$EXTNAMES
290
1
9
$INSUNITS
70
4
9
$LTSCALE
40
1
9
$LWDISPLAY
290
1
9
$PDMODE
70
0
9
$PDSIZE
40
0
9
$PLINEGEN
70
0
0
ENDSEC
0
SECTION
2
CLASSES
0
CLASS
1
RASTERVARIABLES
2
AcDbRasterVariables
3
ISM
90
0
280
0
281
0
0
ENDSEC
0
SECTION
2
TABLES
0
TABLE
2
VPORT
5
255
100
AcDbSymbolTable
0
VPORT
5
1
100
AcDbSymbolTableRecord
100
AcDbViewportTableRecord
2
*Active
70
0
10
0
20
0
11
1
21
1
12
-1
22
1
13
0
23
0
14
0.5
24
0.5
15
10
25
10
16
0
26
0
36
1
17
0
27
0
37
0
0
ENDTAB
0
TABLE
2
LTYPE
5
256
100
AcDbSymbolTable
0
LTYPE
5
14
100
AcDbSymbolTableRecord
100
AcDbLinetypeTableRecord
70
0
2
ByBlock
3

72
65
73
0
40
0
0
LTYPE
5
15
100
AcDbSymbolTableRecord
100
AcDbLinetypeTableRecord
70
0
2
ByLayer
3

72
65
73
0
40
0
0
LTYPE
5
16
100
AcDbSymbolTableRecord
100
AcDbLinetypeTableRecord
70
0
2
Continuous
3
Solid line
72
65
73
0
40
0
0
LTYPE
5
6E
100
AcDbSymbolTableRecord
100
AcDbLinetypeTableRecord
70
0
2
CENTER
3
____ _ ____ _ ____ _ ____
72
65
73
4
40
47.5
49
22
74
0
49
-8.5
74
0
49
8.5
74
0
49
-8.5
74
0
0
LTYPE
5
6F
100
AcDbSymbolTableRecord
100
AcDbLinetypeTableRecord
70
0
2
DASHED
3
__ __ __ __ __ __ __ __ __
72
65
73
2
40
25.72
49
12.86
74
0
49
-12.86
74
0
0
ENDTAB
0
TABLE
2
LAYER
5
257
100
AcDbSymbolTable
0
LAYER
5
10
100
AcDbSymbolTableRecord
100
AcDbLayerTableRecord
2
0
70
0
62
7
6
Continuous
290
1
370
-3
390
0
0
LAYER
5
71
100
AcDbSymbolTableRecord
100
AcDbLayerTableRecord
2
80
70
0
62
-6
6
Continuous
290
1
370
-3
390
0
0
LAYER
5
73
100
AcDbSymbolTableRecord
100
AcDbLayerTableRecord
2
81
70
0
62
-3
6
Continuous
290
1
370
-3
390
0
0
LAYER
5
75
100
AcDbSymbolTableRecord
100
AcDbLayerTableRecord
2
1
70
0
62
4
6
Continuous
290
1
370
-3
390
0
0
LAYER
5
A5
100
AcDbSymbolTableRecord
100
AcDbLayerTableRecord
2
4
70
0
62
-2
6
CENTER
290
1
370
-3
390
0
0
LAYER
5
119
100
AcDbSymbolTableRecord
100
AcDbLayerTableRecord
2
Defpoints
70
0
62
7
6
Continuous
290
0
370
-3
390
0
0
LAYER
5
146
100
AcDbSymbolTableRecord
100
AcDbLayerTableRecord
2
2
70
0
62
7
6
Continuous
290
1
370
-3
390
0
0
LAYER
5
241
100
AcDbSymbolTableRecord
100
AcDbLayerTableRecord
2
SK1
70
0
62
4
6
Continuous
290
1
370
-3
390
0
0
LAYER
5
242
100
AcDbSymbolTableRecord
100
AcDbLayerTableRecord
2
SK4
70
0
62
2
6
CENTER
290
1
370
-3
390
0
0
LAYER
5
243
100
AcDbSymbolTableRecord
100
AcDbLayerTableRecord
2
SK2
70
0
62
7
6
Continuous
290
1
370
-3
390
0
0
LAYER
5
244
100
AcDbSymbolTableRecord
100
AcDbLayerTableRecord
2
SK6
70
0
62
5
6
Continuous
290
1
370
-3
390
0
0
ENDTAB
0
TABLE
2
STYLE
5
258
100
AcDbSymbolTable
0
STYLE
5
11
100
AcDbSymbolTableRecord
100
AcDbTextStyleTableRecord
2
Standard
3
txt
70
0
71
0
40
0
41
1
42
0
50
0
0
STYLE
5
10A
100
AcDbSymbolTableRecord
100
AcDbTextStyleTableRecord
2
iso_b_vert
3
simplex.shx
70
0
71
0
40
0
41
1
42
0
50
0
0
STYLE
5
10B
100
AcDbSymbolTableRecord
100
AcDbTextStyleTableRecord
2
DWGDirectTextStyle
3
simplex
70
0
71
0
40
0
41
1
42
0
50
0
0
ENDTAB
0
TABLE
2
DIMSTYLE
5
259
100
AcDbSymbolTable
100
AcDbDimStyleTable
0
DIMSTYLE
105
27
100
AcDbSymbolTableRecord
100
AcDbDimStyleTableRecord
2
Standard
70
0
3
<>
41
0.18
42
0.0625
44
0.18
140
0.18
147
0.09
73
0
74
0
77
1
271
2
275
0
278
52
280
0
340
11
0
ENDTAB
0
TABLE
2
VIEW
5
25a
100
AcDbSymbolTable
0
ENDTAB
0
TABLE
2
UCS
5
25b
100
AcDbSymbolTable
0
ENDTAB
0
TABLE
2
APPID
5
25c
100
AcDbSymbolTable
0
APPID
5
12
100
AcDbSymbolTableRecord
100
AcDbRegAppTableRecord
2
ACAD
70
0
0
APPID
5
10E
100
AcDbSymbolTableRecord
100
AcDbRegAppTableRecord
2
ACAD_DSTYLE_DIMBREAK
70
0
0
APPID
5
200
100
AcDbSymbolTableRecord
100
AcDbRegAppTableRecord
2
ACAD_DSTYLE_DIM_LINETYPE
70
0
0
APPID
5
201
100
AcDbSymbolTableRecord
100
AcDbRegAppTableRecord
2
ACAD_DSTYLE_DIM_EXT1_LINETYPE
70
0
0
APPID
5
202
100
AcDbSymbolTableRecord
100
AcDbRegAppTableRecord
2
ACAD_DSTYLE_DIM_EXT2_LINETYPE
70
0
0
APPID
5
23D
100
AcDbSymbolTableRecord
100
AcDbRegAppTableRecord
2
ACAD_MLEADERVER
70
0
0
ENDTAB
0
TABLE
2
BLOCK_RECORD
5
25d
100
AcDbSymbolTable
0
BLOCK_RECORD
5
1F
100
AcDbSymbolTableRecord
100
AcDbBlockTableRecord
2
*Model_Space
340
0
70
0
0
BLOCK_RECORD
5
1B
100
AcDbSymbolTableRecord
100
AcDbBlockTableRecord
2
*Paper_Space
340
0
70
0
0
BLOCK_RECORD
5
23
100
AcDbSymbolTableRecord
100
AcDbBlockTableRecord
2
*Paper_Space0
340
0
70
0
0
BLOCK_RECORD
5
110
100
AcDbSymbolTableRecord
100
AcDbBlockTableRecord
2
_Closed
340
0
70
0
0
BLOCK_RECORD
5
11A
100
AcDbSymbolTableRecord
100
AcDbBlockTableRecord
2
*D2
340
0
70
0
0
BLOCK_RECORD
5
126
100
AcDbSymbolTableRecord
100
AcDbBlockTableRecord
2
_U0
340
0
70
0
0
BLOCK_RECORD
5
138
100
AcDbSymbolTableRecord
100
AcDbBlockTableRecord
2
*D4
340
0
70
0
0
BLOCK_RECORD
5
147
100
AcDbSymbolTableRecord
100
AcDbBlockTableRecord
2
_U1
340
0
70
0
0
BLOCK_RECORD
5
157
100
AcDbSymbolTableRecord
100
AcDbBlockTableRecord
2
*D6
340
0
70
0
0
BLOCK_RECORD
5
165
100
AcDbSymbolTableRecord
100
AcDbBlockTableRecord
2
_U2
340
0
70
0
0
BLOCK_RECORD
5
175
100
AcDbSymbolTableRecord
100
AcDbBlockTableRecord
2
*D8
340
0
70
0
0
BLOCK_RECORD
5
181
100
AcDbSymbolTableRecord
100
AcDbBlockTableRecord
2
_U3
340
0
70
0
0
BLOCK_RECORD
5
191
100
AcDbSymbolTableRecord
100
AcDbBlockTableRecord
2
*D10
340
0
70
0
0
BLOCK_RECORD
5
19D
100
AcDbSymbolTableRecord
100
AcDbBlockTableRecord
2
_U4
340
0
70
0
0
BLOCK_RECORD
5
1AD
100
AcDbSymbolTableRecord
100
AcDbBlockTableRecord
2
*D12
340
0
70
0
0
BLOCK_RECORD
5
1B9
100
AcDbSymbolTableRecord
100
AcDbBlockTableRecord
2
_U5
340
0
70
0
0
BLOCK_RECORD
5
1C9
100
AcDbSymbolTableRecord
100
AcDbBlockTableRecord
2
*D14
340
0
70
0
0
BLOCK_RECORD
5
1D5
100
AcDbSymbolTableRecord
100
AcDbBlockTableRecord
2
_U6
340
0
70
0
0
ENDTAB
0
ENDSEC
0
SECTION
2
BLOCKS
0
BLOCK
5
20
100
AcDbEntity
8
0
100
AcDbBlockBegin
2
*Model_Space
70
0
10
0
20
0
30
0
3
*Model_Space
0
ENDBLK
5
21
100
AcDbEntity
8
0
100
AcDbBlockEnd
0
BLOCK
5
1C
100
AcDbEntity
8
0
100
AcDbBlockBegin
2
*Paper_Space
70
0
10
0
20
0
30
0
3
*Paper_Space
0
ENDBLK
5
1D
100
AcDbEntity
8
0
100
AcDbBlockEnd
0
BLOCK
5
24
100
AcDbEntity
8
0
100
AcDbBlockBegin
2
*Paper_Space0
70
0
10
0
20
0
30
0
3
*Paper_Space0
0
ENDBLK
5
25
100
AcDbEntity
8
0
100
AcDbBlockEnd
0
BLOCK
5
111
100
AcDbEntity
8
0
100
AcDbBlockBegin
2
_Closed
70
0
10
0
20
0
30
0
3
_Closed
0
LINE
5
113
100
AcDbEntity
8
0
62
256
6
ByLayer
370
-2
48
1
60
0
100
AcDbLine
10
-1
20
0.166667
30
0
11
0
21
0
31
0
39
0
210
0
220
0
230
1
0
LINE
5
114
100
AcDbEntity
8
0
62
256
6
ByLayer
370
-2
48
1
60
0
100
AcDbLine
10
0
20
0
30
0
11
-1
21
-0.166667
31
0
39
0
210
0
220
0
230
1
0
LINE
5
115
100
AcDbEntity
8
0
62
256
6
ByLayer
370
-2
48
1
60
0
100
AcDbLine
10
-1
20
0.166667
30
0
11
-1
21
-0.166667
31
0
39
0
210
0
220
0
230
1
0
LINE
5
116
100
AcDbEntity
8
0
62
256
6
ByLayer
370
-2
48
1
60
0
100
AcDbLine
10
0
20
0
30
0
11
-1
21
0
31
0
39
0
210
0
220
0
230
1
0
ENDBLK
5
112
100
AcDbEntity
8
0
100
AcDbBlockEnd
0
BLOCK
5
11B
100
AcDbEntity
8
0
100
AcDbBlockBegin
2
*D2
70
1
10
0
20
0
30
0
3
*D2
0
LINE
5
11D
100
AcDbEntity
8
0
62
256
6
ByLayer
370
-2
48
1
60
0
100
AcDbLine
10
0
20
-7.5875
30
0
11
0
21
-32.67512
31
0
39
0
210
0
220
0
230
1
0
LINE
5
11E
100
AcDbEntity
8
0
62
256
6
ByLayer
370
-2
48
1
60
0
100
AcDbLine
10
73
20
-1.5875
30
0
11
73
21
-32.67512
31
0
39
0
210
0
220
0
230
1
0
LINE
5
11F
100
AcDbEntity
8
0
62
256
6
ByLayer
370
-2
48
1
60
0
100
AcDbLine
10
3.175
20
-29.50012
30
0
11
69.825
21
-29.50012
31
0
39
0
210
0
220
0
230
1
0
SOLID
5
120
100
AcDbEntity
8
0
62
256
6
ByLayer
370
-1
48
1
60
0
100
AcDbTrace
10
3.175
20
-28.970953
30
0
11
3.175
21
-30.029287
31
0
12
0
22
-29.50012
32
0
13
0
23
-29.50012
33
0
39
0
210
0
220
0
230
1
0
SOLID
5
121
100
AcDbEntity
8
0
62
256
6
ByLayer
370
-1
48
1
60
0
100
AcDbTrace
10
69.825
20
-30.029287
30
0
11
69.825
21
-28.970953
31
0
12
73
22
-29.50012
32
0
13
73
23
-29.50012
33
0
39
0
210
0
220
0
230
1
0
MTEXT
5
122
100
AcDbEntity
8
0
62
256
6
ByLayer
370
18
48
1
60
0
100
AcDbMText
10
36.5
20
-22.193619
30
0
210
0
220
0
230
1
1
\A1;73
40
3.50012
41
0
44
1
50
0
71
5
72
5
7
iso_b_vert
0
POINT
5
123
100
AcDbEntity
8
Defpoints
62
0
6
ByLayer
370
-1
48
1
60
0
100
AcDbPoint
10
0
20
-6
30
0
39
0
210
0
220
0
230
1
50
360
0
POINT
5
124
100
AcDbEntity
8
Defpoints
62
0
6
ByLayer
370
-1
48
1
60
0
100
AcDbPoint
10
73
20
0
30
0
39
0
210
0
220
0
230
1
50
360
0
POINT
5
125
100
AcDbEntity
8
Defpoints
62
0
6
ByLayer
370
-1
48
1
60
0
100
AcDbPoint
10
73
20
-29.50012
30
0
39
0
210
0
220
0
230
1
50
360
0
ENDBLK
5
11C
100
AcDbEntity
8
0
100
AcDbBlockEnd
0
BLOCK
5
133
100
AcDbEntity
8
0
100
AcDbBlockBegin
2
_U0
70
0
10
0
20
0
30
0
3
_U0
0
MTEXT
5
127
100
AcDbEntity
8
SK2
62
256
6
ByLayer
370
18
48
1
60
0
100
AcDbMText
10
31.270389
20
-28.467451
30
0
210
0
220
0
230
1
1
\W0.7468;73.00
40
3.50012
41
0
44
1.084337
50
0
71
7
72
5
7
iso_b_vert
0
MTEXT
5
128
100
AcDbEntity
8
SK2
62
256
6
ByLayer
370
18
48
1
60
0
100
AcDbMText
10
27.744329
20
-28.400814
30
0
210
0
220
0
230
1
1
\W0.1790;(
40
3.175
41
0
44
1.084337
50
0
71
7
72
5
7
iso_b_vert
0
MTEXT
5
129
100
AcDbEntity
8
SK2
62
256
6
ByLayer
370
18
48
1
60
0
100
AcDbMText
10
45.258393
20
-28.400814
30
0
210
0
220
0
230
1
1
\W0.1969;)
40
3.175
41
0
44
1.084337
50
0
71
7
72
5
7
iso_b_vert
0
LINE
5
12A
100
AcDbEntity
8
SK2
62
256
6
ByLayer
370
13
48
1
60
0
100
AcDbLine
10
0
20
-7.5875
30
0
11
0
21
-32.67512
31
0
39
0
210
0
220
0
230
1
0
LINE
5
12B
100
AcDbEntity
8
SK2
62
256
6
ByLayer
370
13
48
1
60
0
100
AcDbLine
10
73
20
-1.5875
30
0
11
73
21
-32.67512
31
0
39
0
210
0
220
0
230
1
0
LINE
5
12C
100
AcDbEntity
8
SK2
62
256
6
ByLayer
370
13
48
1
60
0
100
AcDbLine
10
0
20
-29.50012
30
0
11
73
21
-29.50012
31
0
39
0
210
0
220
0
230
1
0
LINE
5
12D
100
AcDbEntity
8
SK2
62
256
6
ByLayer
370
13
48
1
60
0
100
AcDbLine
10
0
20
-29.50012
30
0
11
3.174998
21
-29.082123
31
0
39
0
210
0
220
0
230
1
0
LINE
5
12E
100
AcDbEntity
8
SK2
62
256
6
ByLayer
370
13
48
1
60
0
100
AcDbLine
10
0
20
-29.50012
30
0
11
3.175002
21
-29.918117
31
0
39
0
210
0
220
0
230
1
0
LINE
5
12F
100
AcDbEntity
8
SK2
62
256
6
ByLayer
370
13
48
1
60
0
100
AcDbLine
10
3.174998
20
-29.082123
30
0
11
3.175002
21
-29.918117
31
0
39
0
210
0
220
0
230
1
0
LINE
5
130
100
AcDbEntity
8
SK2
62
256
6
ByLayer
370
13
48
1
60
0
100
AcDbLine
10
73
20
-29.50012
30
0
11
69.825002
21
-29.918117
31
0
39
0
210
0
220
0
230
1
0
LINE
5
131
100
AcDbEntity
8
SK2
62
256
6
ByLayer
370
13
48
1
60
0
100
AcDbLine
10
73
20
-29.50012
30
0
11
69.824998
21
-29.082123
31
0
39
0
210
0
220
0
230
1
0
LINE
5
132
100
AcDbEntity
8
SK2
62
256
6
ByLayer
370
13
48
1
60
0
100
AcDbLine
10
69.825002
20
-29.918117
30
0
11
69.824998
21
-29.082123
31
0
39
0
210
0
220
0
230
1
0
ENDBLK
5
134
100
AcDbEntity
8
0
100
AcDbBlockEnd
0
BLOCK
5
139
100
AcDbEntity
8
0
100
AcDbBlockBegin
2
*D4
70
1
10
0
20
0
30
0
3
*D4
0
LINE
5
13B
100
AcDbEntity
8
0
62
256
6
ByLayer
370
-2
48
1
60
0
100
AcDbLine
10
72.6949
20
-5.2
30
0
11
82.92506
21
-5.2
31
0
39
0
210
0
220
0
230
1
0
LINE
5
13C
100
AcDbEntity
8
0
62
256
6
ByLayer
370
-2
48
1
60
0
100
AcDbLine
10
72.6949
20
5.2
30
0
11
82.92506
21
5.2
31
0
39
0
210
0
220
0
230
1
0
LINE
5
13D
100
AcDbEntity
8
0
62
256
6
ByLayer
370
-2
48
1
60
0
100
AcDbLine
10
79.75006
20
5.2
30
0
11
79.75006
21
32.996569
31
0
39
0
210
0
220
0
230
1
0
LINE
5
13E
100
AcDbEntity
8
0
62
256
6
ByLayer
370
-2
48
1
60
0
100
AcDbLine
10
79.75006
20
-8.375
30
0
11
79.75006
21
-11.55
31
0
39
0
210
0
220
0
230
1
0
LINE
5
13F
100
AcDbEntity
8
0
62
256
6
ByLayer
370
-2
48
1
60
0
100
AcDbLine
10
79.75006
20
8.375
30
0
11
79.75006
21
11.55
31
0
39
0
210
0
220
0
230
1
0
SOLID
5
140
100
AcDbEntity
8
0
62
256
6
ByLayer
370
-1
48
1
60
0
100
AcDbTrace
10
80.279227
20
-8.375
30
0
11
79.220893
21
-8.375
31
0
12
79.75006
22
-5.2
32
0
13
79.75006
23
-5.2
33
0
39
0
210
0
220
0
230
1
0
SOLID
5
141
100
AcDbEntity
8
0
62
256
6
ByLayer
370
-1
48
1
60
0
100
AcDbTrace
10
79.220893
20
8.375
30
0
11
80.279227
21
8.375
31
0
12
79.75006
22
5.2
32
0
13
79.75006
23
5.2
33
0
39
0
210
0
220
0
230
1
0
MTEXT
5
142
100
AcDbEntity
8
0
62
256
6
ByLayer
370
18
48
1
60
0
100
AcDbMText
10
72.44356
20
22.273284
30
0
210
0
220
0
230
1
1
\A1;10.4
40
3.50012
41
0
44
1
50
90
71
5
72
5
7
iso_b_vert
0
POINT
5
143
100
AcDbEntity
8
Defpoints
62
0
6
ByLayer
370
-1
48
1
60
0
100
AcDbPoint
10
71.1074
20
-5.2
30
0
39
0
210
0
220
0
230
1
50
360
0
POINT
5
144
100
AcDbEntity
8
Defpoints
62
0
6
ByLayer
370
-1
48
1
60
0
100
AcDbPoint
10
71.1074
20
5.2
30
0
39
0
210
0
220
0
230
1
50
360
0
POINT
5
145
100
AcDbEntity
8
Defpoints
62
0
6
ByLayer
370
-1
48
1
60
0
100
AcDbPoint
10
79.75006
20
5.2
30
0
39
0
210
0
220
0
230
1
50
360
0
ENDBLK
5
13A
100
AcDbEntity
8
0
100
AcDbBlockEnd
0
BLOCK
5
152
100
AcDbEntity
8
0
100
AcDbBlockBegin
2
_U1
70
0
10
0
20
0
30
0
3
_U1
0
MTEXT
5
148
100
AcDbEntity
8
2
62
256
6
ByLayer
370
18
48
1
60
0
100
AcDbMText
10
79.060403
20
9.357505
30
0
210
0
220
0
230
1
1
\W0.7091;10.40
40
3.50012
41
0
44
1.084337
50
90
71
7
72
5
7
iso_b_vert
0
LINE
5
149
100
AcDbEntity
8
2
62
256
6
ByLayer
370
13
48
1
60
0
100
AcDbLine
10
72.6949
20
-5.2
30
0
11
82.92506
21
-5.2
31
0
39
0
210
0
220
0
230
1
0
LINE
5
14A
100
AcDbEntity
8
2
62
256
6
ByLayer
370
13
48
1
60
0
100
AcDbLine
10
72.6949
20
5.2
30
0
11
82.92506
21
5.2
31
0
39
0
210
0
220
0
230
1
0
LINE
5
14B
100
AcDbEntity
8
2
62
256
6
ByLayer
370
13
48
1
60
0
100
AcDbLine
10
79.75006
20
-5.2
30
0
11
79.75006
21
19.523885
31
0
39
0
210
0
220
0
230
1
0
LINE
5
14C
100
AcDbEntity
8
2
62
256
6
ByLayer
370
13
48
1
60
0
100
AcDbLine
10
79.75006
20
-5.2
30
0
11
79.332063
21
-2.025002
31
0
39
0
210
0
220
0
230
1
0
LINE
5
14D
100
AcDbEntity
8
2
62
256
6
ByLayer
370
13
48
1
60
0
100
AcDbLine
10
79.75006
20
-5.2
30
0
11
80.168057
21
-2.024998
31
0
39
0
210
0
220
0
230
1
0
LINE
5
14E
100
AcDbEntity
8
2
62
256
6
ByLayer
370
13
48
1
60
0
100
AcDbLine
10
79.332063
20
-2.025002
30
0
11
80.168057
21
-2.024998
31
0
39
0
210
0
220
0
230
1
0
LINE
5
14F
100
AcDbEntity
8
2
62
256
6
ByLayer
370
13
48
1
60
0
100
AcDbLine
10
79.75006
20
5.2
30
0
11
80.168057
21
2.025002
31
0
39
0
210
0
220
0
230
1
0
LINE
5
150
100
AcDbEntity
8
2
62
256
6
ByLayer
370
13
48
1
60
0
100
AcDbLine
10
79.75006
20
5.2
30
0
11
79.332063
21
2.024998
31
0
39
0
210
0
220
0
230
1
0
LINE
5
151
100
AcDbEntity
8
2
62
256
6
ByLayer
370
13
48
1
60
0
100
AcDbLine
10
80.168057
20
2.025002
30
0
11
79.332063
21
2.024998
31
0
39
0
210
0
220
0
230
1
0
ENDBLK
5
153
100
AcDbEntity
8
0
100
AcDbBlockEnd
0
BLOCK
5
158
100
AcDbEntity
8
0
100
AcDbBlockBegin
2
*D6
70
1
10
0
20
0
30
0
3
*D6
0
LINE
5
15A
100
AcDbEntity
8
0
62
256
6
ByLayer
370
-2
48
1
60
0
100
AcDbLine
10
-46.5875
20
6
30
0
11
-51.42494
21
6
31
0
39
0
210
0
220
0
230
1
0
LINE
5
15B
100
AcDbEntity
8
0
62
256
6
ByLayer
370
-2
48
1
60
0
100
AcDbLine
10
-46.5875
20
-6
30
0
11
-51.42494
21
-6
31
0
39
0
210
0
220
0
230
1
0
LINE
5
15C
100
AcDbEntity
8
0
62
256
6
ByLayer
370
-2
48
1
60
0
100
AcDbLine
10
-48.24994
20
6
30
0
11
-48.24994
21
29.117532
31
0
39
0
210
0
220
0
230
1
0
LINE
5
15D
100
AcDbEntity
8
0
62
256
6
ByLayer
370
-2
48
1
60
0
100
AcDbLine
10
-48.24994
20
9.175
30
0
11
-48.24994
21
12.35
31
0
39
0
210
0
220
0
230
1
0
LINE
5
15E
100
AcDbEntity
8
0
62
256
6
ByLayer
370
-2
48
1
60
0
100
AcDbLine
10
-48.24994
20
-9.175
30
0
11
-48.24994
21
-12.35
31
0
39
0
210
0
220
0
230
1
0
SOLID
5
15F
100
AcDbEntity
8
0
62
256
6
ByLayer
370
-1
48
1
60
0
100
AcDbTrace
10
-48.779107
20
9.175
30
0
11
-47.720773
21
9.175
31
0
12
-48.24994
22
6
32
0
13
-48.24994
23
6
33
0
39
0
210
0
220
0
230
1
0
SOLID
5
160
100
AcDbEntity
8
0
62
256
6
ByLayer
370
-1
48
1
60
0
100
AcDbTrace
10
-47.720773
20
-9.175
30
0
11
-48.779107
21
-9.175
31
0
12
-48.24994
22
-6
32
0
13
-48.24994
23
-6
33
0
39
0
210
0
220
0
230
1
0
MTEXT
5
161
100
AcDbEntity
8
0
62
256
6
ByLayer
370
18
48
1
60
0
100
AcDbMText
10
-55.556441
20
20.97767
30
0
210
0
220
0
230
1
1
\A1;12
40
3.50012
41
0
44
1
50
90
71
5
72
5
7
iso_b_vert
0
POINT
5
162
100
AcDbEntity
8
Defpoints
62
0
6
ByLayer
370
-1
48
1
60
0
100
AcDbPoint
10
-45
20
6
30
0
39
0
210
0
220
0
230
1
50
360
0
POINT
5
163
100
AcDbEntity
8
Defpoints
62
0
6
ByLayer
370
-1
48
1
60
0
100
AcDbPoint
10
-45
20
-6
30
0
39
0
210
0
220
0
230
1
50
360
0
POINT
5
164
100
AcDbEntity
8
Defpoints
62
0
6
ByLayer
370
-1
48
1
60
0
100
AcDbPoint
10
-48.24994
20
-6
30
0
39
0
210
0
220
0
230
1
50
360
0
ENDBLK
5
159
100
AcDbEntity
8
0
100
AcDbBlockEnd
0
BLOCK
5
170
100
AcDbEntity
8
0
100
AcDbBlockBegin
2
_U2
70
0
10
0
20
0
30
0
3
_U2
0
MTEXT
5
166
100
AcDbEntity
8
SK2
62
256
6
ByLayer
370
18
48
1
60
0
100
AcDbMText
10
-48.939597
20
16.157505
30
0
210
0
220
0
230
1
1
\W0.6864;12.00
40
3.50012
41
0
44
1.084337
50
90
71
7
72
5
7
iso_b_vert
0
LINE
5
167
100
AcDbEntity
8
SK2
62
256
6
ByLayer
370
13
48
1
60
0
100
AcDbLine
10
-46.5875
20
6
30
0
11
-51.42494
21
6
31
0
39
0
210
0
220
0
230
1
0
LINE
5
168
100
AcDbEntity
8
SK2
62
256
6
ByLayer
370
13
48
1
60
0
100
AcDbLine
10
-46.5875
20
-6
30
0
11
-51.42494
21
-6
31
0
39
0
210
0
220
0
230
1
0
LINE
5
169
100
AcDbEntity
8
SK2
62
256
6
ByLayer
370
13
48
1
60
0
100
AcDbLine
10
-48.24994
20
-6
30
0
11
-48.24994
21
25.955339
31
0
39
0
210
0
220
0
230
1
0
LINE
5
16A
100
AcDbEntity
8
SK2
62
256
6
ByLayer
370
13
48
1
60
0
100
AcDbLine
10
-48.24994
20
6
30
0
11
-47.831943
21
2.825002
31
0
39
0
210
0
220
0
230
1
0
LINE
5
16B
100
AcDbEntity
8
SK2
62
256
6
ByLayer
370
13
48
1
60
0
100
AcDbLine
10
-48.24994
20
6
30
0
11
-48.667937
21
2.824998
31
0
39
0
210
0
220
0
230
1
0
LINE
5
16C
100
AcDbEntity
8
SK2
62
256
6
ByLayer
370
13
48
1
60
0
100
AcDbLine
10
-47.831943
20
2.825002
30
0
11
-48.667937
21
2.824998
31
0
39
0
210
0
220
0
230
1
0
LINE
5
16D
100
AcDbEntity
8
SK2
62
256
6
ByLayer
370
13
48
1
60
0
100
AcDbLine
10
-48.24994
20
-6
30
0
11
-48.667937
21
-2.825002
31
0
39
0
210
0
220
0
230
1
0
LINE
5
16E
100
AcDbEntity
8
SK2
62
256
6
ByLayer
370
13
48
1
60
0
100
AcDbLine
10
-48.24994
20
-6
30
0
11
-47.831943
21
-2.824998
31
0
39
0
210
0
220
0
230
1
0
LINE
5
16F
100
AcDbEntity
8
SK2
62
256
6
ByLayer
370
13
48
1
60
0
100
AcDbLine
10
-48.667937
20
-2.825002
30
0
11
-47.831943
21
-2.824998
31
0
39
0
210
0
220
0
230
1
0
ENDBLK
5
171
100
AcDbEntity
8
0
100
AcDbBlockEnd
0
BLOCK
5
176
100
AcDbEntity
8
0
100
AcDbBlockBegin
2
*D8
70
1
10
0
20
0
30
0
3
*D8
0
LINE
5
178
100
AcDbEntity
8
0
62
256
6
ByLayer
370
-2
48
1
60
0
100
AcDbLine
10
-45
20
-7.5875
30
0
11
-45
21
-32.67512
31
0
39
0
210
0
220
0
230
1
0
LINE
5
179
100
AcDbEntity
8
0
62
256
6
ByLayer
370
-2
48
1
60
0
100
AcDbLine
10
0
20
-7.5875
30
0
11
0
21
-32.67512
31
0
39
0
210
0
220
0
230
1
0
LINE
5
17A
100
AcDbEntity
8
0
62
256
6
ByLayer
370
-2
48
1
60
0
100
AcDbLine
10
-41.825
20
-29.50012
30
0
11
-3.175
21
-29.50012
31
0
39
0
210
0
220
0
230
1
0
SOLID
5
17B
100
AcDbEntity
8
0
62
256
6
ByLayer
370
-1
48
1
60
0
100
AcDbTrace
10
-41.825
20
-28.970953
30
0
11
-41.825
21
-30.029287
31
0
12
-45
22
-29.50012
32
0
13
-45
23
-29.50012
33
0
39
0
210
0
220
0
230
1
0
SOLID
5
17C
100
AcDbEntity
8
0
62
256
6
ByLayer
370
-1
48
1
60
0
100
AcDbTrace
10
-3.175
20
-30.029287
30
0
11
-3.175
21
-28.970953
31
0
12
0
22
-29.50012
32
0
13
0
23
-29.50012
33
0
39
0
210
0
220
0
230
1
0
MTEXT
5
17D
100
AcDbEntity
8
0
62
256
6
ByLayer
370
18
48
1
60
0
100
AcDbMText
10
-22.5
20
-22.193619
30
0
210
0
220
0
230
1
1
\A1;45
40
3.50012
41
0
44
1
50
0
71
5
72
5
7
iso_b_vert
0
POINT
5
17E
100
AcDbEntity
8
Defpoints
62
0
6
ByLayer
370
-1
48
1
60
0
100
AcDbPoint
10
-45
20
-6
30
0
39
0
210
0
220
0
230
1
50
360
0
POINT
5
17F
100
AcDbEntity
8
Defpoints
62
0
6
ByLayer
370
-1
48
1
60
0
100
AcDbPoint
10
0
20
-6
30
0
39
0
210
0
220
0
230
1
50
360
0
POINT
5
180
100
AcDbEntity
8
Defpoints
62
0
6
ByLayer
370
-1
48
1
60
0
100
AcDbPoint
10
0
20
-29.50012
30
0
39
0
210
0
220
0
230
1
50
360
0
ENDBLK
5
177
100
AcDbEntity
8
0
100
AcDbBlockEnd
0
BLOCK
5
18C
100
AcDbEntity
8
0
100
AcDbBlockBegin
2
_U3
70
0
10
0
20
0
30
0
3
_U3
0
MTEXT
5
182
100
AcDbEntity
8
SK2
62
256
6
ByLayer
370
18
48
1
60
0
100
AcDbMText
10
-27.913884
20
-28.467451
30
0
210
0
220
0
230
1
1
\W0.7694;45.00
40
3.50012
41
0
44
1.084337
50
0
71
7
72
5
7
iso_b_vert
0
LINE
5
183
100
AcDbEntity
8
SK2
62
256
6
ByLayer
370
13
48
1
60
0
100
AcDbLine
10
-45
20
-7.5875
30
0
11
-45
21
-32.67512
31
0
39
0
210
0
220
0
230
1
0
LINE
5
184
100
AcDbEntity
8
SK2
62
256
6
ByLayer
370
13
48
1
60
0
100
AcDbLine
10
0
20
-7.5875
30
0
11
0
21
-32.67512
31
0
39
0
210
0
220
0
230
1
0
LINE
5
185
100
AcDbEntity
8
SK2
62
256
6
ByLayer
370
13
48
1
60
0
100
AcDbLine
10
-45
20
-29.50012
30
0
11
0
21
-29.50012
31
0
39
0
210
0
220
0
230
1
0
LINE
5
186
100
AcDbEntity
8
SK2
62
256
6
ByLayer
370
13
48
1
60
0
100
AcDbLine
10
-45
20
-29.50012
30
0
11
-41.825002
21
-29.082123
31
0
39
0
210
0
220
0
230
1
0
LINE
5
187
100
AcDbEntity
8
SK2
62
256
6
ByLayer
370
13
48
1
60
0
100
AcDbLine
10
-45
20
-29.50012
30
0
11
-41.824998
21
-29.918117
31
0
39
0
210
0
220
0
230
1
0
LINE
5
188
100
AcDbEntity
8
SK2
62
256
6
ByLayer
370
13
48
1
60
0
100
AcDbLine
10
-41.825002
20
-29.082123
30
0
11
-41.824998
21
-29.918117
31
0
39
0
210
0
220
0
230
1
0
LINE
5
189
100
AcDbEntity
8
SK2
62
256
6
ByLayer
370
13
48
1
60
0
100
AcDbLine
10
0
20
-29.50012
30
0
11
-3.174998
21
-29.918117
31
0
39
0
210
0
220
0
230
1
0
LINE
5
18A
100
AcDbEntity
8
SK2
62
256
6
ByLayer
370
13
48
1
60
0
100
AcDbLine
10
0
20
-29.50012
30
0
11
-3.175002
21
-29.082123
31
0
39
0
210
0
220
0
230
1
0
LINE
5
18B
100
AcDbEntity
8
SK2
62
256
6
ByLayer
370
13
48
1
60
0
100
AcDbLine
10
-3.174998
20
-29.918117
30
0
11
-3.175002
21
-29.082123
31
0
39
0
210
0
220
0
230
1
0
ENDBLK
5
18D
100
AcDbEntity
8
0
100
AcDbBlockEnd
0
BLOCK
5
192
100
AcDbEntity
8
0
100
AcDbBlockBegin
2
*D10
70
1
10
0
20
0
30
0
3
*D10
0
LINE
5
194
100
AcDbEntity
8
0
62
256
6
ByLayer
370
-2
48
1
60
0
100
AcDbLine
10
2
20
4.1125
30
0
11
2
21
-23.92482
31
0
39
0
210
0
220
0
230
1
0
LINE
5
195
100
AcDbEntity
8
0
62
256
6
ByLayer
370
-2
48
1
60
0
100
AcDbLine
10
73
20
-1.5875
30
0
11
73
21
-23.92482
31
0
39
0
210
0
220
0
230
1
0
LINE
5
196
100
AcDbEntity
8
0
62
256
6
ByLayer
370
-2
48
1
60
0
100
AcDbLine
10
5.175
20
-20.74982
30
0
11
69.825
21
-20.74982
31
0
39
0
210
0
220
0
230
1
0
SOLID
5
197
100
AcDbEntity
8
0
62
256
6
ByLayer
370
-1
48
1
60
0
100
AcDbTrace
10
5.175
20
-20.220653
30
0
11
5.175
21
-21.278987
31
0
12
2
22
-20.74982
32
0
13
2
23
-20.74982
33
0
39
0
210
0
220
0
230
1
0
SOLID
5
198
100
AcDbEntity
8
0
62
256
6
ByLayer
370
-1
48
1
60
0
100
AcDbTrace
10
69.825
20
-21.278987
30
0
11
69.825
21
-20.220653
31
0
12
73
22
-20.74982
32
0
13
73
23
-20.74982
33
0
39
0
210
0
220
0
230
1
0
MTEXT
5
199
100
AcDbEntity
8
0
62
256
6
ByLayer
370
18
48
1
60
0
100
AcDbMText
10
37.5
20
-13.443319
30
0
210
0
220
0
230
1
1
\A1;71
40
3.50012
41
0
44
1
50
0
71
5
72
5
7
iso_b_vert
0
POINT
5
19A
100
AcDbEntity
8
Defpoints
62
0
6
ByLayer
370
-1
48
1
60
0
100
AcDbPoint
10
2
20
5.7
30
0
39
0
210
0
220
0
230
1
50
360
0
POINT
5
19B
100
AcDbEntity
8
Defpoints
62
0
6
ByLayer
370
-1
48
1
60
0
100
AcDbPoint
10
73
20
0
30
0
39
0
210
0
220
0
230
1
50
360
0
POINT
5
19C
100
AcDbEntity
8
Defpoints
62
0
6
ByLayer
370
-1
48
1
60
0
100
AcDbPoint
10
73
20
-20.74982
30
0
39
0
210
0
220
0
230
1
50
360
0
ENDBLK
5
193
100
AcDbEntity
8
0
100
AcDbBlockEnd
0
BLOCK
5
1A8
100
AcDbEntity
8
0
100
AcDbBlockBegin
2
_U4
70
0
10
0
20
0
30
0
3
_U4
0
MTEXT
5
19E
100
AcDbEntity
8
SK2
62
256
6
ByLayer
370
18
48
1
60
0
100
AcDbMText
10
32.707837
20
-19.717151
30
0
210
0
220
0
230
1
1
\W0.6864;71.00
40
3.50012
41
0
44
1.084337
50
0
71
7
72
5
7
iso_b_vert
0
LINE
5
19F
100
AcDbEntity
8
SK2
62
256
6
ByLayer
370
13
48
1
60
0
100
AcDbLine
10
2
20
4.1125
30
0
11
2
21
-23.92482
31
0
39
0
210
0
220
0
230
1
0
LINE
5
1A0
100
AcDbEntity
8
SK2
62
256
6
ByLayer
370
13
48
1
60
0
100
AcDbLine
10
73
20
-1.5875
30
0
11
73
21
-23.92482
31
0
39
0
210
0
220
0
230
1
0
LINE
5
1A1
100
AcDbEntity
8
SK2
62
256
6
ByLayer
370
13
48
1
60
0
100
AcDbLine
10
2
20
-20.74982
30
0
11
73
21
-20.74982
31
0
39
0
210
0
220
0
230
1
0
LINE
5
1A2
100
AcDbEntity
8
SK2
62
256
6
ByLayer
370
13
48
1
60
0
100
AcDbLine
10
2
20
-20.74982
30
0
11
5.174998
21
-20.331823
31
0
39
0
210
0
220
0
230
1
0
LINE
5
1A3
100
AcDbEntity
8
SK2
62
256
6
ByLayer
370
13
48
1
60
0
100
AcDbLine
10
2
20
-20.74982
30
0
11
5.175002
21
-21.167817
31
0
39
0
210
0
220
0
230
1
0
LINE
5
1A4
100
AcDbEntity
8
SK2
62
256
6
ByLayer
370
13
48
1
60
0
100
AcDbLine
10
5.174998
20
-20.331823
30
0
11
5.175002
21
-21.167817
31
0
39
0
210
0
220
0
230
1
0
LINE
5
1A5
100
AcDbEntity
8
SK2
62
256
6
ByLayer
370
13
48
1
60
0
100
AcDbLine
10
73
20
-20.74982
30
0
11
69.825002
21
-21.167817
31
0
39
0
210
0
220
0
230
1
0
LINE
5
1A6
100
AcDbEntity
8
SK2
62
256
6
ByLayer
370
13
48
1
60
0
100
AcDbLine
10
73
20
-20.74982
30
0
11
69.824998
21
-20.331823
31
0
39
0
210
0
220
0
230
1
0
LINE
5
1A7
100
AcDbEntity
8
SK2
62
256
6
ByLayer
370
13
48
1
60
0
100
AcDbLine
10
69.825002
20
-21.167817
30
0
11
69.824998
21
-20.331823
31
0
39
0
210
0
220
0
230
1
0
ENDBLK
5
1A9
100
AcDbEntity
8
0
100
AcDbBlockEnd
0
BLOCK
5
1AE
100
AcDbEntity
8
0
100
AcDbBlockBegin
2
*D12
70
1
10
0
20
0
30
0
3
*D12
0
LINE
5
1B0
100
AcDbEntity
8
0
62
256
6
ByLayer
370
-2
48
1
60
0
100
AcDbLine
10
19.2
20
-6.7875
30
0
11
19.2
21
-13.32
31
0
39
0
210
0
220
0
230
1
0
LINE
5
1B1
100
AcDbEntity
8
0
62
256
6
ByLayer
370
-2
48
1
60
0
100
AcDbLine
10
73
20
-1.5875
30
0
11
73
21
-13.32
31
0
39
0
210
0
220
0
230
1
0
LINE
5
1B2
100
AcDbEntity
8
0
62
256
6
ByLayer
370
-2
48
1
60
0
100
AcDbLine
10
22.375
20
-12.82
30
0
11
69.825
21
-12.82
31
0
39
0
210
0
220
0
230
1
0
SOLID
5
1B3
100
AcDbEntity
8
0
62
256
6
ByLayer
370
-1
48
1
60
0
100
AcDbTrace
10
22.375
20
-12.290833
30
0
11
22.375
21
-13.349167
31
0
12
19.2
22
-12.82
32
0
13
19.2
23
-12.82
33
0
39
0
210
0
220
0
230
1
0
SOLID
5
1B4
100
AcDbEntity
8
0
62
256
6
ByLayer
370
-1
48
1
60
0
100
AcDbTrace
10
69.825
20
-13.349167
30
0
11
69.825
21
-12.290833
31
0
12
73
22
-12.82
32
0
13
73
23
-12.82
33
0
39
0
210
0
220
0
230
1
0
MTEXT
5
1B5
100
AcDbEntity
8
0
62
256
6
ByLayer
370
18
48
1
60
0
100
AcDbMText
10
46.1
20
-6.975
30
0
210
0
220
0
230
1
1
\A1;53.8
40
2.8
41
0
44
1
50
0
71
5
72
5
7
iso_b_vert
0
POINT
5
1B6
100
AcDbEntity
8
Defpoints
62
0
6
ByLayer
370
-1
48
1
60
0
100
AcDbPoint
10
19.2
20
-5.2
30
0
39
0
210
0
220
0
230
1
50
360
0
POINT
5
1B7
100
AcDbEntity
8
Defpoints
62
0
6
ByLayer
370
-1
48
1
60
0
100
AcDbPoint
10
73
20
0
30
0
39
0
210
0
220
0
230
1
50
360
0
POINT
5
1B8
100
AcDbEntity
8
Defpoints
62
0
6
ByLayer
370
-1
48
1
60
0
100
AcDbPoint
10
73
20
-12.82
30
0
39
0
210
0
220
0
230
1
50
360
0
ENDBLK
5
1AF
100
AcDbEntity
8
0
100
AcDbBlockEnd
0
BLOCK
5
1C4
100
AcDbEntity
8
0
100
AcDbBlockBegin
2
_U5
70
0
10
0
20
0
30
0
3
_U5
0
MTEXT
5
1BA
100
AcDbEntity
8
SK2
62
256
6
ByLayer
370
18
48
1
60
0
100
AcDbMText
10
41.916454
20
-12.973893
30
0
210
0
220
0
230
1
1
\W0.7468;53.80
40
2.8
41
0
44
1.084337
50
0
71
7
72
5
7
iso_b_vert
0
LINE
5
1BB
100
AcDbEntity
8
SK2
62
256
6
ByLayer
370
13
48
1
60
0
100
AcDbLine
10
19.2
20
-6.7875
30
0
11
19.2
21
-13.32
31
0
39
0
210
0
220
0
230
1
0
LINE
5
1BC
100
AcDbEntity
8
SK2
62
256
6
ByLayer
370
13
48
1
60
0
100
AcDbLine
10
73
20
-1.5875
30
0
11
73
21
-13.32
31
0
39
0
210
0
220
0
230
1
0
LINE
5
1BD
100
AcDbEntity
8
SK2
62
256
6
ByLayer
370
13
48
1
60
0
100
AcDbLine
10
19.2
20
-12.82
30
0
11
73
21
-12.82
31
0
39
0
210
0
220
0
230
1
0
LINE
5
1BE
100
AcDbEntity
8
SK2
62
256
6
ByLayer
370
13
48
1
60
0
100
AcDbLine
10
19.2
20
-12.82
30
0
11
22.374998
21
-12.402003
31
0
39
0
210
0
220
0
230
1
0
LINE
5
1BF
100
AcDbEntity
8
SK2
62
256
6
ByLayer
370
13
48
1
60
0
100
AcDbLine
10
19.2
20
-12.82
30
0
11
22.375002
21
-13.237997
31
0
39
0
210
0
220
0
230
1
0
LINE
5
1C0
100
AcDbEntity
8
SK2
62
256
6
ByLayer
370
13
48
1
60
0
100
AcDbLine
10
22.374998
20
-12.402003
30
0
11
22.375002
21
-13.237997
31
0
39
0
210
0
220
0
230
1
0
LINE
5
1C1
100
AcDbEntity
8
SK2
62
256
6
ByLayer
370
13
48
1
60
0
100
AcDbLine
10
73
20
-12.82
30
0
11
69.825002
21
-13.237997
31
0
39
0
210
0
220
0
230
1
0
LINE
5
1C2
100
AcDbEntity
8
SK2
62
256
6
ByLayer
370
13
48
1
60
0
100
AcDbLine
10
73
20
-12.82
30
0
11
69.824998
21
-12.402003
31
0
39
0
210
0
220
0
230
1
0
LINE
5
1C3
100
AcDbEntity
8
SK2
62
256
6
ByLayer
370
13
48
1
60
0
100
AcDbLine
10
69.825002
20
-13.237997
30
0
11
69.824998
21
-12.402003
31
0
39
0
210
0
220
0
230
1
0
ENDBLK
5
1C5
100
AcDbEntity
8
0
100
AcDbBlockEnd
0
BLOCK
5
1CA
100
AcDbEntity
8
0
100
AcDbBlockBegin
2
*D14
70
1
10
0
20
0
30
0
3
*D14
0
LINE
5
1CC
100
AcDbEntity
8
0
62
256
6
ByLayer
370
-2
48
1
60
0
100
AcDbLine
10
-45
20
-1.5875
30
0
11
-45
21
-42.67512
31
0
39
0
210
0
220
0
230
1
0
LINE
5
1CD
100
AcDbEntity
8
0
62
256
6
ByLayer
370
-2
48
1
60
0
100
AcDbLine
10
73
20
-1.5875
30
0
11
73
21
-42.67512
31
0
39
0
210
0
220
0
230
1
0
LINE
5
1CE
100
AcDbEntity
8
0
62
256
6
ByLayer
370
-2
48
1
60
0
100
AcDbLine
10
-41.825
20
-39.50012
30
0
11
69.825
21
-39.50012
31
0
39
0
210
0
220
0
230
1
0
SOLID
5
1CF
100
AcDbEntity
8
0
62
256
6
ByLayer
370
-1
48
1
60
0
100
AcDbTrace
10
-41.825
20
-38.970953
30
0
11
-41.825
21
-40.029287
31
0
12
-45
22
-39.50012
32
0
13
-45
23
-39.50012
33
0
39
0
210
0
220
0
230
1
0
SOLID
5
1D0
100
AcDbEntity
8
0
62
256
6
ByLayer
370
-1
48
1
60
0
100
AcDbTrace
10
69.825
20
-40.029287
30
0
11
69.825
21
-38.970953
31
0
12
73
22
-39.50012
32
0
13
73
23
-39.50012
33
0
39
0
210
0
220
0
230
1
0
MTEXT
5
1D1
100
AcDbEntity
8
0
62
256
6
ByLayer
370
18
48
1
60
0
100
AcDbMText
10
14
20
-32.19362
30
0
210
0
220
0
230
1
1
\A1;118
40
3.50012
41
0
44
1
50
0
71
5
72
5
7
iso_b_vert
0
POINT
5
1D2
100
AcDbEntity
8
Defpoints
62
0
6
ByLayer
370
-1
48
1
60
0
100
AcDbPoint
10
-45
20
0
30
0
39
0
210
0
220
0
230
1
50
360
0
POINT
5
1D3
100
AcDbEntity
8
Defpoints
62
0
6
ByLayer
370
-1
48
1
60
0
100
AcDbPoint
10
73
20
0
30
0
39
0
210
0
220
0
230
1
50
360
0
POINT
5
1D4
100
AcDbEntity
8
Defpoints
62
0
6
ByLayer
370
-1
48
1
60
0
100
AcDbPoint
10
73
20
-39.50012
30
0
39
0
210
0
220
0
230
1
50
360
0
ENDBLK
5
1CB
100
AcDbEntity
8
0
100
AcDbBlockEnd
0
BLOCK
5
1E0
100
AcDbEntity
8
0
100
AcDbBlockBegin
2
_U6
70
0
10
0
20
0
30
0
3
_U6
0
MTEXT
5
1D6
100
AcDbEntity
8
SK2
62
256
6
ByLayer
370
18
48
1
60
0
100
AcDbMText
10
8.337507
20
-38.467451
30
0
210
0
220
0
230
1
1
\W0.6532;118.00
40
3.50012
41
0
44
1.084337
50
0
71
7
72
5
7
iso_b_vert
0
LINE
5
1D7
100
AcDbEntity
8
SK2
62
256
6
ByLayer
370
13
48
1
60
0
100
AcDbLine
10
-45
20
-1.5875
30
0
11
-45
21
-42.67512
31
0
39
0
210
0
220
0
230
1
0
LINE
5
1D8
100
AcDbEntity
8
SK2
62
256
6
ByLayer
370
13
48
1
60
0
100
AcDbLine
10
73
20
-1.5875
30
0
11
73
21
-42.67512
31
0
39
0
210
0
220
0
230
1
0
LINE
5
1D9
100
AcDbEntity
8
SK2
62
256
6
ByLayer
370
13
48
1
60
0
100
AcDbLine
10
-45
20
-39.50012
30
0
11
73
21
-39.50012
31
0
39
0
210
0
220
0
230
1
0
LINE
5
1DA
100
AcDbEntity
8
SK2
62
256
6
ByLayer
370
13
48
1
60
0
100
AcDbLine
10
-45
20
-39.50012
30
0
11
-41.825002
21
-39.082123
31
0
39
0
210
0
220
0
230
1
0
LINE
5
1DB
100
AcDbEntity
8
SK2
62
256
6
ByLayer
370
13
48
1
60
0
100
AcDbLine
10
-45
20
-39.50012
30
0
11
-41.824998
21
-39.918117
31
0
39
0
210
0
220
0
230
1
0
LINE
5
1DC
100
AcDbEntity
8
SK2
62
256
6
ByLayer
370
13
48
1
60
0
100
AcDbLine
10
-41.825002
20
-39.082123
30
0
11
-41.824998
21
-39.918117
31
0
39
0
210
0
220
0
230
1
0
LINE
5
1DD
100
AcDbEntity
8
SK2
62
256
6
ByLayer
370
13
48
1
60
0
100
AcDbLine
10
73
20
-39.50012
30
0
11
69.825002
21
-39.918117
31
0
39
0
210
0
220
0
230
1
0
LINE
5
1DE
100
AcDbEntity
8
SK2
62
256
6
ByLayer
370
13
48
1
60
0
100
AcDbLine
10
73
20
-39.50012
30
0
11
69.824998
21
-39.082123
31
0
39
0
210
0
220
0
230
1
0
LINE
5
1DF
100
AcDbEntity
8
SK2
62
256
6
ByLayer
370
13
48
1
60
0
100
AcDbLine
10
69.825002
20
-39.918117
30
0
11
69.824998
21
-39.082123
31
0
39
0
210
0
220
0
230
1
0
ENDBLK
5
1E1
100
AcDbEntity
8
0
100
AcDbBlockEnd
0
ENDSEC
0
SECTION
2
ENTITIES
0
ARC
5
B1
100
AcDbEntity
8
1
62
256
6
ByLayer
370
18
48
1
60
0
100
AcDbCircle
39
0
10
1.409894
20
5.956438
30
0
40
0.800000000000006
210
0
220
0
230
1
100
AcDbArc
50
208.214505
51
270.03581
0
ARC
5
B2
100
AcDbEntity
8
1
62
256
6
ByLayer
370
18
48
1
60
0
100
AcDbCircle
39
0
10
1.409894
20
-5.956438
30
0
40
0.800000000000006
210
0
220
0
230
1
100
AcDbArc
50
89.96419
51
151.785495
0
ARC
5
B3
100
AcDbEntity
8
1
62
256
6
ByLayer
370
18
48
1
60
0
100
AcDbCircle
39
0
10
0
20
5.2
30
0
40
0.799999999999999
210
0
220
0
230
1
100
AcDbArc
50
28.214505
51
90
0
ARC
5
B4
100
AcDbEntity
8
1
62
256
6
ByLayer
370
18
48
1
60
0
100
AcDbCircle
39
0
10
0
20
-5.2
30
0
40
0.799999999999999
210
0
220
0
230
1
100
AcDbArc
50
270
51
331.785495
0
ARC
5
B5
100
AcDbEntity
8
SK2
62
256
6
ByLayer
370
13
48
1
60
0
100
AcDbCircle
39
0
10
73
20
0
30
0
40
20
210
0
220
0
230
1
100
AcDbArc
50
9.606349
51
70.00044
0
ARC
5
B6
100
AcDbEntity
8
SK2
62
256
6
ByLayer
370
13
48
1
60
0
100
AcDbCircle
39
0
10
73
20
0
30
0
40
20
210
0
220
0
230
1
100
AcDbArc
50
289.99956
51
350.393651
0
ELLIPSE
5
B7
100
AcDbEntity
8
1
62
256
6
ByLayer
370
18
48
1
60
0
100
AcDbEllipse
10
3.640523
20
0.637865
30
0
11
-0.00428349090882815
21
-0.00903613333423022
31
0
210
0
220
0
230
1
40
0.062183
41
1.45610305178113
42
3.0222638392247
0
ELLIPSE
5
B8
100
AcDbEntity
8
1
62
256
6
ByLayer
370
18
48
1
60
0
100
AcDbEllipse
10
3.563161
20
-4.61003
30
0
11
-0.00269165880622109
21
0.00963093831726133
31
0
210
0
220
0
230
1
40
0.504721
41
0.372385103955266
42
1.75779845409788
0
ELLIPSE
5
B9
100
AcDbEntity
8
1
62
256
6
ByLayer
370
18
48
1
60
0
100
AcDbEllipse
10
3.601774
20
-4.608224
30
0
11
-0.0016161061233469
21
-0.00986854604276033
31
0
210
0
220
0
230
1
40
0.400434
41
-2.75677974208036
42
-1.1870895738679
0
ELLIPSE
5
BA
100
AcDbEntity
8
1
62
256
6
ByLayer
370
18
48
1
60
0
100
AcDbEllipse
10
3.602272
20
0.646583
30
0
11
6.00160823439199E-05
21
0.00999981990187124
31
0
210
0
220
0
230
1
40
0.007841
41
-1.70280889883964
42
-0.132127467204892
0
POINT
5
70
100
AcDbEntity
8
80
62
256
6
ByLayer
370
18
48
1
60
0
100
AcDbPoint
10
0
20
0
30
0
39
0
210
0
220
0
230
1
50
360
0
POINT
5
72
100
AcDbEntity
8
81
62
256
6
ByLayer
370
18
48
1
60
0
100
AcDbPoint
10
73
20
0
30
0
39
0
210
0
220
0
230
1
50
360
0
POINT
5
74
100
AcDbEntity
8
1
62
256
6
ByLayer
370
18
48
1
60
0
100
AcDbPoint
10
-45
20
0
30
0
39
0
210
0
220
0
230
1
50
360
0
POINT
5
76
100
AcDbEntity
8
1
62
256
6
ByLayer
370
18
48
1
60
1
100
AcDbPoint
10
0
20
-6
30
0
39
0
210
0
220
0
230
1
50
360
0
POINT
5
77
100
AcDbEntity
8
1
62
256
6
ByLayer
370
18
48
1
60
1
100
AcDbPoint
10
73
20
0
30
0
39
0
210
0
220
0
230
1
50
360
0
POINT
5
78
100
AcDbEntity
8
1
62
256
6
ByLayer
370
18
48
1
60
1
100
AcDbPoint
10
71.1074
20
-5.2
30
0
39
0
210
0
220
0
230
1
50
360
0
POINT
5
79
100
AcDbEntity
8
1
62
256
6
ByLayer
370
18
48
1
60
1
100
AcDbPoint
10
71.1074
20
5.2
30
0
39
0
210
0
220
0
230
1
50
360
0
POINT
5
7A
100
AcDbEntity
8
1
62
256
6
ByLayer
370
18
48
1
60
1
100
AcDbPoint
10
-45
20
6
30
0
39
0
210
0
220
0
230
1
50
360
0
POINT
5
7B
100
AcDbEntity
8
1
62
256
6
ByLayer
370
18
48
1
60
1
100
AcDbPoint
10
-45
20
-6
30
0
39
0
210
0
220
0
230
1
50
360
0
POINT
5
7C
100
AcDbEntity
8
1
62
256
6
ByLayer
370
18
48
1
60
1
100
AcDbPoint
10
-45
20
-6
30
0
39
0
210
0
220
0
230
1
50
360
0
POINT
5
7D
100
AcDbEntity
8
1
62
256
6
ByLayer
370
18
48
1
60
1
100
AcDbPoint
10
0
20
-6
30
0
39
0
210
0
220
0
230
1
50
360
0
POINT
5
7E
100
AcDbEntity
8
1
62
256
6
ByLayer
370
18
48
1
60
1
100
AcDbPoint
10
2
20
5.7
30
0
39
0
210
0
220
0
230
1
50
360
0
POINT
5
7F
100
AcDbEntity
8
1
62
256
6
ByLayer
370
18
48
1
60
1
100
AcDbPoint
10
73
20
0
30
0
39
0
210
0
220
0
230
1
50
360
0
POINT
5
80
100
AcDbEntity
8
1
62
256
6
ByLayer
370
18
48
1
60
1
100
AcDbPoint
10
19.2
20
-5.2
30
0
39
0
210
0
220
0
230
1
50
360
0
POINT
5
81
100
AcDbEntity
8
1
62
256
6
ByLayer
370
18
48
1
60
1
100
AcDbPoint
10
73
20
0
30
0
39
0
210
0
220
0
230
1
50
360
0
POINT
5
82
100
AcDbEntity
8
1
62
256
6
ByLayer
370
18
48
1
60
1
100
AcDbPoint
10
-45
20
0
30
0
39
0
210
0
220
0
230
1
50
360
0
POINT
5
83
100
AcDbEntity
8
1
62
256
6
ByLayer
370
18
48
1
60
1
100
AcDbPoint
10
73
20
0
30
0
39
0
210
0
220
0
230
1
50
360
0
SPLINE
5
BB
100
AcDbEntity
8
SK1
62
256
6
ByLayer
370
18
48
1
60
0
100
AcDbSpline
70
4
71
3
72
12
73
8
40
0
40
0
40
0
40
0
40
0.5
40
0.5
40
0.75
40
0.75
40
1
40
1
40
1
40
1
41
1
10
-44.25
20
3.87742857957204
30
2E-16
41
1
10
-44.2265754814923
20
3.89859608843642
30
2E-16
41
1
10
-44.2038494963526
20
3.92424797938335
30
2E-16
41
1
10
-44.1756806214309
20
3.96501984743966
30
2E-16
41
1
10
-44.1670810890644
20
3.97935875920931
30
2E-16
41
1
10
-44.1542487488419
20
4.0070425117587
30
2E-16
41
1
10
-44.15
20
4.02068076315001
30
2E-16
41
1
10
-44.15
20
4.03100530169246
30
2E-16
0
SPLINE
5
BC
100
AcDbEntity
8
SK1
62
256
6
ByLayer
370
18
48
1
60
0
100
AcDbSpline
70
4
71
3
72
12
73
8
40
0
40
0
40
0
40
0
40
0.25
40
0.25
40
0.5
40
0.5
40
1
40
1
40
1
40
1
41
1
10
-44.4179491924311
20
3.72555198859823
30
2E-16
41
1
10
-44.4585118025587
20
3.64304552898679
30
2E-16
41
1
10
-44.5017617157541
20
3.55965553346644
30
-2E-16
41
1
10
-44.5926945369118
20
3.39144304407645
30
-2E-16
41
1
10
-44.6405857309338
20
3.30627641042437
30
-2E-16
41
1
10
-44.7885787506849
20
3.05153556084258
30
-2E-16
41
1
10
-44.8923167485562
20
2.88362897250641
30
-2E-16
41
1
10
-45.0000000000001
20
2.71725009918651
30
-2E-16
0
SPLINE
5
BD
100
AcDbEntity
8
SK1
62
256
6
ByLayer
370
18
48
1
60
0
100
AcDbSpline
70
4
71
3
72
12
73
8
40
0
40
0
40
0
40
0
40
0.25
40
0.25
40
0.5
40
0.5
40
1
40
1
40
1
40
1
41
1
10
-44.15
20
4.86760654529459
30
-1E-16
41
1
10
-44.15
20
4.87268693623616
30
-1E-16
41
1
10
-44.1541964903379
20
4.87356439040767
30
-1E-16
41
1
10
-44.1670510016405
20
4.86960590755896
30
-1E-16
41
1
10
-44.1755314964661
20
4.86495787597076
30
-1E-16
41
1
10
-44.2039103264456
20
4.84641884974749
30
-1E-16
41
1
10
-44.2265803533262
20
4.82814862335132
30
-1E-16
41
1
10
-44.25
20
4.80698551690776
30
-1E-16
0
SPLINE
5
BE
100
AcDbEntity
8
SK1
62
256
6
ByLayer
370
18
48
1
60
0
100
AcDbSpline
70
4
71
3
72
8
73
4
40
0
40
0
40
0
40
0
40
1
40
1
40
1
40
1
41
1
10
-44.25
20
4.80698551690773
30
-1E-16
41
1
10
-44.3060037835836
20
4.75637783483074
30
-1E-16
41
1
10
-44.3619875825256
20
4.70575293747984
30
-1E-16
41
1
10
-44.4179491924311
20
4.65510892593392
30
-1E-16
0
SPLINE
5
BF
100
AcDbEntity
8
SK1
62
256
6
ByLayer
370
18
48
1
60
0
100
AcDbSpline
70
4
71
3
72
10
73
6
40
0
40
0
40
0
40
0
40
0.5
40
0.5
40
1
40
1
40
1
40
1
41
1
10
-45.0000000000001
20
4.23829045272018
30
0
41
1
10
-44.892418923189
20
4.33422931723848
30
0
41
1
10
-44.7890116623726
20
4.41964590687428
30
0
41
1
10
-44.5927829535177
20
4.56269747434342
30
1E-16
41
1
10
-44.4993017440334
20
4.62061445241233
30
-1E-16
41
1
10
-44.4179491924311
20
4.65510892593392
30
-1E-16
0
SPLINE
5
C0
100
AcDbEntity
8
SK1
62
256
6
ByLayer
370
18
48
1
60
0
100
AcDbSpline
70
4
71
3
72
8
73
4
40
0
40
0
40
0
40
0
40
1
40
1
40
1
40
1
41
1
10
-44.4179491924311
20
3.72555198859823
30
2E-16
41
1
10
-44.3619874122719
20
3.77619615421992
30
2E-16
41
1
10
-44.3060036190381
20
3.82682104618618
30
2E-16
41
1
10
-44.25
20
3.87742857957204
30
2E-16
0
SPLINE
5
C1
100
AcDbEntity
8
1
62
256
6
ByLayer
370
18
48
1
60
0
100
AcDbSpline
70
4
71
3
72
8
73
4
40
0
40
0
40
0
40
0
40
1
40
1
40
1
40
1
41
1
10
3.60178831492047
20
-4.59883382805032
30
1E-16
41
1
10
3.58696547070096
20
-4.59665152908715
30
1E-16
41
1
10
3.5724795302647
20
-4.59752738656189
30
1E-16
41
1
10
3.55888555020121
20
-4.60155333008461
30
1E-16
0
SPLINE
5
C2
100
AcDbEntity
8
1
62
256
6
ByLayer
370
18
48
1
60
0
100
AcDbSpline
70
4
71
3
72
20
73
16
40
0
40
0
40
0
40
0
40
0.125
40
0.125
40
0.250000000000001
40
0.250000000000001
40
0.375000000000001
40
0.375000000000001
40
0.437500000000001
40
0.437500000000001
40
0.500000000000001
40
0.500000000000001
40
0.750000000000001
40
0.750000000000001
40
1
40
1
40
1
40
1
41
1
10
72.5425679214464
20
-1.60693198712212
30
0
41
1
10
72.471169676466
20
-1.72273950727816
30
0
41
1
10
72.4018911086391
20
-1.8448475049041
30
0
41
1
10
72.2674414197812
20
-2.10230548373613
30
0
41
1
10
72.2033834311733
20
-2.23552813632364
30
0
41
1
10
72.0804821658282
20
-2.51075482109584
30
0
41
1
10
72.021765649272
20
-2.65257752745296
30
0
41
1
10
71.9378797612065
20
-2.86800001056173
30
0
41
1
10
71.9105342564793
20
-2.94043655237206
30
0
41
1
10
71.8569404993901
20
-3.08619716906577
30
0
41
1
10
71.8308467430424
20
-3.15934052883614
30
0
41
1
10
71.7019254692381
20
-3.52564234430329
30
0
41
1
10
71.6001334245017
20
-3.81874172850948
30
0
41
1
10
71.3969519821763
20
-4.40384787112399
30
0
41
1
10
71.2956332365822
20
-4.69565012362528
30
0
41
1
10
71.1931410654964
20
-4.98521441446272
30
0
0
SPLINE
5
C3
100
AcDbEntity
8
1
62
256
6
ByLayer
370
18
48
1
60
0
100
AcDbSpline
70
4
71
3
72
38
73
34
40
0
40
0
40
0
40
0
40
0.117994098829768
40
0.117994098829768
40
0.176991148244652
40
0.176991148244652
40
0.235988197659536
40
0.235988197659536
40
0.29498524707442
40
0.29498524707442
40
0.353982296489304
40
0.353982296489304
40
0.412979345904188
40
0.412979345904188
40
0.471976395319072
40
0.471976395319072
40
0.530973444733956
40
0.530973444733956
40
0.58997049414884
40
0.58997049414884
40
0.648967543563724
40
0.648967543563724
40
0.707964592978608
40
0.707964592978608
40
0.766961642393492
40
0.766961642393492
40
0.825958691808376
40
0.825958691808376
40
0.88495574122326
40
0.88495574122326
40
0.943952790638144
40
0.943952790638144
40
1
40
1
40
1
40
1
41
1
10
3.64660245310083
20
0.678744788730313
30
0
41
1
10
4.34386640814171
20
0.330900032668069
30
0
41
1
10
5.04175558269387
20
-0.0170465383889393
30
0
41
1
10
6.09132440156802
20
-0.535430474190775
30
0
41
1
10
6.44072307625399
20
-0.707158777875406
30
0
41
1
10
7.13852405256259
20
-1.04788423454696
30
1E-16
41
1
10
7.48679643232796
20
-1.2172611342011
30
1E-16
41
1
10
8.18344467804468
20
-1.55131571265511
30
1E-16
41
1
10
8.53208061441359
20
-1.71549832674455
30
1E-16
41
1
10
9.22987953074758
20
-2.03836841107898
30
1E-16
41
1
10
9.57941549688766
20
-2.19726878537421
30
1E-16
41
1
10
10.2781743867323
20
-2.50635095227295
30
2E-16
41
1
10
10.6271561360735
20
-2.65637253862693
30
2E-16
41
1
10
11.3243971374673
20
-2.94732553496789
30
2E-16
41
1
10
11.6726122649256
20
-3.0883071591897
30
2E-16
41
1
10
12.3695353437138
20
-3.35911895916397
30
2E-16
41
1
10
12.7182916574631
20
-3.48889600476838
30
2E-16
41
1
10
13.4165371624863
20
-3.73693846974098
30
-2E-16
41
1
10
13.766281327143
20
-3.85533366721475
30
-2E-16
41
1
10
14.4643513919714
20
-4.07784019549143
30
-2E-16
41
1
10
14.8130743550267
20
-4.182048553779
30
-2E-16
41
1
10
15.5100496002778
20
-4.37628344207082
30
-2E-16
41
1
10
15.858250891969
20
-4.46633639282322
30
-2E-16
41
1
10
16.5553229609413
20
-4.63096739168415
30
-2E-16
41
1
10
16.9042430895607
20
-4.7055291506357
30
-2E-16
41
1
10
17.6030165650398
20
-4.83892249204496
30
1E-16
41
1
10
17.9522360882573
20
-4.89761493243617
30
1E-16
41
1
10
18.6477452949214
20
-4.99771658790525
30
1E-16
41
1
10
18.9946331766865
20
-5.03924458025267
30
1E-16
41
1
10
19.686764536941
20
-5.10546194991818
30
0
41
1
10
20.0319847596258
20
-5.13011088450142
30
0
41
1
10
20.7049568314257
20
-5.16143383071153
30
0
41
1
10
21.032650265468
20
-5.16900561847277
30
0
41
1
10
21.3601549096995
20
-5.1688976867693
30
0
0
SPLINE
5
C4
100
AcDbEntity
8
1
62
256
6
ByLayer
370
18
48
1
60
0
100
AcDbSpline
70
4
71
3
72
32
73
28
40
0
40
0
40
0
40
0
40
0.0487278264273872
40
0.0487278264273872
40
0.101576280514755
40
0.101576280514755
40
0.154424734602122
40
0.154424734602122
40
0.260121642776856
40
0.260121642776856
40
0.312970096864225
40
0.312970096864225
40
0.365818550951593
40
0.365818550951593
40
0.471515459126327
40
0.471515459126327
40
0.524363913213695
40
0.524363913213695
40
0.577212367301062
40
0.577212367301062
40
0.682909275475797
40
0.682909275475797
40
0.788606183650531
40
0.788606183650531
40
0.894303091825266
40
0.894303091825266
40
1
40
1
40
1
40
1
41
1
10
50.7443150825486
20
4.93561877511669
30
-1E-16
41
1
10
51.0629790820719
20
4.98476870330313
30
-1E-16
41
1
10
51.3811106297446
20
5.02689223261061
30
0
41
1
10
52.0439447706588
20
5.09968964095566
30
0
41
1
10
52.3883772489821
20
5.12925025476625
30
0
41
1
10
53.0769288576026
20
5.17141886659149
30
0
41
1
10
53.4215105794018
20
5.18392442857879
30
0
41
1
10
54.4564446558316
20
5.19588514420067
30
0
41
1
10
55.1474882041123
20
5.16966584719444
30
0
41
1
10
56.1903803231565
20
5.07836506493578
30
-1E-16
41
1
10
56.5394308523224
20
5.03908590523625
30
-1E-16
41
1
10
57.2366723182025
20
4.94333322864549
30
-1E-16
41
1
10
57.5850145848823
20
4.88719391169673
30
-1E-16
41
1
10
58.6299166142366
20
4.69498954052156
30
2E-16
41
1
10
59.3262165201739
20
4.53516319542382
30
2E-16
41
1
10
60.3722700677681
20
4.2492917682485
30
2E-16
41
1
10
60.7215959228267
20
4.14601931168974
30
2E-16
41
1
10
61.417114286007
20
3.92693759252992
30
2E-16
41
1
10
61.7639525277223
20
3.81117990392107
30
2E-16
41
1
10
62.8024174754679
20
3.44664445683128
30
-2E-16
41
1
10
63.491782665558
20
3.18027827254906
30
-2E-16
41
1
10
64.8695918093222
20
2.6092897392731
30
-2E-16
41
1
10
65.5577616243779
20
2.30414045690796
30
-1E-16
41
1
10
66.9392468999787
20
1.66610406428822
30
-1E-16
41
1
10
67.6322014622566
20
1.33253827433131
30
-1E-16
41
1
10
69.0288141933642
20
0.647986254555548
30
0
41
1
10
69.7254604491596
20
0.299124853570334
30
0
41
1
10
70.4223465511589
20
-0.0501773331912432
30
0
0
SPLINE
5
C5
100
AcDbEntity
8
1
62
256
6
ByLayer
370
18
48
1
60
0
100
AcDbSpline
70
4
71
3
72
10
73
6
40
0
40
0
40
0
40
0
40
0.967820086680413
40
0.967820086680413
40
1
40
1
40
1
40
1
41
1
10
3.60178831492047
20
-4.59883382805032
30
1E-16
41
1
10
5.02182700178028
20
-4.83091025249678
30
1E-16
41
1
10
6.42521953861925
20
-4.92920705364219
30
0
41
1
10
7.88022786904168
20
-4.89169563971089
30
0
41
1
10
7.92705515550546
20
-4.89034000267364
30
0
41
1
10
7.97388844372506
20
-4.8888357983802
30
0
0
SPLINE
5
C6
100
AcDbEntity
8
1
62
256
6
ByLayer
370
18
48
1
60
0
100
AcDbSpline
70
4
71
3
72
24
73
20
40
0
40
0
40
0
40
0
40
0.172983804427971
40
0.172983804427971
40
0.310819837023312
40
0.310819837023312
40
0.379737853320982
40
0.379737853320982
40
0.448655869618651
40
0.448655869618651
40
0.724327934809326
40
0.724327934809326
40
0.862163967404663
40
0.862163967404663
40
0.931081983702331
40
0.931081983702331
40
0.965540991851166
40
0.965540991851166
40
1
40
1
40
1
40
1
41
1
10
55.8519055066336
20
0.178267373837031
30
0
41
1
10
56.7333333915906
20
-0.239646707115298
30
0
41
1
10
57.6104932363837
20
-0.657672402797488
30
0
41
1
10
59.1883266248869
20
-1.38878252952168
30
1E-16
41
1
10
59.8885159102571
20
-1.70622770981083
30
1E-16
41
1
10
60.9434324847226
20
-2.16389653494906
30
1E-16
41
1
10
61.2958508754174
20
-2.31336017583709
30
1E-16
41
1
10
62.0029510020238
20
-2.60464940201149
30
2E-16
41
1
10
62.3581050171553
20
-2.74665037670582
30
2E-16
41
1
10
64.1245864020268
20
-3.42805406931066
30
2E-16
41
1
10
65.5207102315646
20
-3.88643168294809
30
-2E-16
41
1
10
67.6196352366802
20
-4.40173830890896
30
-2E-16
41
1
10
68.3203016095432
20
-4.5452488381124
30
1E-16
41
1
10
69.3763283508176
20
-4.71307463652693
30
1E-16
41
1
10
69.729200027272
20
-4.76111715362907
30
1E-16
41
1
10
70.260270623859
20
-4.8207851438905
30
1E-16
41
1
10
70.4376415627308
20
-4.83861017544965
30
0
41
1
10
70.7920935116978
20
-4.86996291268892
30
0
41
1
10
70.9692766401126
20
-4.8832365372341
30
0
41
1
10
71.1464887165824
20
-4.89492332861036
30
0
0
SPLINE
5
C7
100
AcDbEntity
8
1
62
256
6
ByLayer
370
18
48
1
60
0
100
AcDbSpline
70
4
71
3
72
54
73
50
40
0
40
0
40
0
40
0
40
0.0163790128907309
40
0.0163790128907309
40
0.0457320767472105
40
0.0457320767472105
40
0.104438204460169
40
0.104438204460169
40
0.133791268316648
40
0.133791268316648
40
0.163144332173126
40
0.163144332173126
40
0.221850459886085
40
0.221850459886085
40
0.280556587599043
40
0.280556587599043
40
0.339262715312001
40
0.339262715312001
40
0.36861577916848
40
0.36861577916848
40
0.397968843024959
40
0.397968843024959
40
0.456674970737918
40
0.456674970737918
40
0.486028034594399
40
0.486028034594399
40
0.515381098450879
40
0.515381098450879
40
0.574087226163838
40
0.574087226163838
40
0.603440290020318
40
0.603440290020318
40
0.632793353876797
40
0.632793353876797
40
0.662146417733277
40
0.662146417733277
40
0.691499481589756
40
0.691499481589756
40
0.750205609302716
40
0.750205609302716
40
0.867617864728633
40
0.867617864728633
40
0.896970928585113
40
0.896970928585113
40
0.926323992441592
40
0.926323992441592
40
0.98503012015455
40
0.98503012015455
40
1
40
1
40
1
40
1
41
1
10
43.0559583765139
20
-4.94220906673863
30
1E-16
41
1
10
42.8601548445707
20
-4.97147816673836
30
1E-16
41
1
10
42.6642884581544
20
-4.9981248794445
30
1E-16
41
1
10
42.1170498903483
20
-5.06507909446375
30
1E-16
41
1
10
41.7649472935429
20
-5.09950907622408
30
0
41
1
10
40.70992763333
20
-5.17622021694095
30
0
41
1
10
40.0088161537068
20
-5.19195851480791
30
0
41
1
10
38.956124703257
20
-5.16244273269172
30
0
41
1
10
38.6050553896606
20
-5.14375904982714
30
0
41
1
10
37.9019085658932
20
-5.08874170126711
30
0
41
1
10
37.5496638046236
20
-5.05236488931419
30
1E-16
41
1
10
36.4954582507875
20
-4.91775655252135
30
1E-16
41
1
10
35.7944691000403
20
-4.79386005160413
30
1E-16
41
1
10
34.3901901195417
20
-4.48217990122939
30
-2E-16
41
1
10
33.6855024261054
20
-4.2937269000723
30
-2E-16
41
1
10
32.2806818237702
20
-3.86226456991548
30
-2E-16
41
1
10
31.5797472937845
20
-3.61879556483473
30
2E-16
41
1
10
30.5257186932434
20
-3.21876466583572
30
2E-16
41
1
10
30.1736581791205
20
-3.07927862071847
30
2E-16
41
1
10
29.4700407745526
20
-2.79043639644081
30
2E-16
41
1
10
29.1187814175709
20
-2.64125906184509
30
2E-16
41
1
10
28.0655707886657
20
-2.18142823070926
30
1E-16
41
1
10
27.3644343790033
20
-1.85801114306852
30
1E-16
41
1
10
26.3095059917313
20
-1.35630818154638
30
1E-16
41
1
10
25.9571804060128
20
-1.18594837095458
30
1E-16
41
1
10
25.2541278798664
20
-0.84274737725093
30
1E-16
41
1
10
24.9030201095421
20
-0.669732561911559
30
0
41
1
10
23.8500087002463
20
-0.14834979005218
30
0
41
1
10
23.148551340687
20
0.202631483919561
30
0
41
1
10
22.0924965089615
20
0.724706931574815
30
0
41
1
10
21.7405827156867
20
0.897879584799995
30
-1E-16
41
1
10
21.0379599712788
20
1.23972909448864
30
-1E-16
41
1
10
20.6869604158349
20
1.40856290883846
30
-1E-16
41
1
10
19.9849572622907
20
1.74084230857261
30
-1E-16
41
1
10
19.6340027124338
20
1.90437983813561
30
-1E-16
41
1
10
18.9313146373859
20
2.22457446461738
30
-1E-16
41
1
10
18.5790847499989
20
2.38145901136005
30
-1E-16
41
1
10
17.5237390827428
20
2.83834102176604
30
-2E-16
41
1
10
16.8251681721584
20
3.12333333117161
30
-2E-16
41
1
10
14.7357646246164
20
3.90697981608517
30
2E-16
41
1
10
13.3514794026403
20
4.33445735488039
30
2E-16
41
1
10
11.6045572866924
20
4.71456289678466
30
2E-16
41
1
10
11.2543396711375
20
4.78288787195288
30
-1E-16
41
1
10
10.5515706456146
20
4.90333891018088
30
-1E-16
41
1
10
10.1989013579779
20
4.95541930668736
30
-1E-16
41
1
10
9.14611899973303
20
5.08515540901641
30
0
41
1
10
8.44796701061145
20
5.1369401065983
30
0
41
1
10
7.57303797032588
20
5.15821260880213
30
0
41
1
10
7.39532435180274
20
5.16026585588472
30
0
41
1
10
7.21762501835388
20
5.16005504202658
30
0
0
SPLINE
5
C8
100
AcDbEntity
8
1
62
256
6
ByLayer
370
18
48
1
60
0
100
AcDbSpline
70
4
71
3
72
72
73
68
40
0
40
0
40
0
40
0
40
0.0025046291512548
40
0.0025046291512548
40
0.0316319834923236
40
0.0316319834923236
40
0.0607593378333924
40
0.0607593378333924
40
0.0898866921744613
40
0.0898866921744613
40
0.11901404651553
40
0.11901404651553
40
0.148141400856599
40
0.148141400856599
40
0.177268755197668
40
0.177268755197668
40
0.206396109538737
40
0.206396109538737
40
0.235523463879806
40
0.235523463879806
40
0.264650818220875
40
0.264650818220875
40
0.293778172561944
40
0.293778172561944
40
0.322905526903013
40
0.322905526903013
40
0.352032881244081
40
0.352032881244081
40
0.38116023558515
40
0.38116023558515
40
0.410287589926219
40
0.410287589926219
40
0.439414944267288
40
0.439414944267288
40
0.468542298608357
40
0.468542298608357
40
0.497669652949426
40
0.497669652949426
40
0.526797007290495
40
0.526797007290495
40
0.555924361631564
40
0.555924361631564
40
0.585051715972632
40
0.585051715972632
40
0.614179070313701
40
0.614179070313701
40
0.64330642465477
40
0.64330642465477
40
0.701561133336908
40
0.701561133336908
40
0.730688487677977
40
0.730688487677977
40
0.759815842019047
40
0.759815842019047
40
0.818070550701184
40
0.818070550701184
40
0.847197905042254
40
0.847197905042254
40
0.876325259383323
40
0.876325259383323
40
0.934579968065463
40
0.934579968065463
40
0.963707322406532
40
0.963707322406532
40
0.992834676747602
40
0.992834676747602
40
1
40
1
40
1
40
1
41
1
10
18.2102499143018
20
4.93456302799731
30
-1E-16
41
1
10
18.2401737884192
20
4.93899423208845
30
-1E-16
41
1
10
18.2700876558796
20
4.9433619445642
30
-1E-16
41
1
10
18.6477452949214
20
4.99771658790522
30
-1E-16
41
1
10
18.9946331766865
20
5.03924458025267
30
-1E-16
41
1
10
19.686764536941
20
5.10546194991815
30
0
41
1
10
20.0319847596258
20
5.13011088450142
30
0
41
1
10
20.7222124510722
20
5.16223697971083
30
0
41
1
10
21.0671437018242
20
5.16978134871445
30
0
41
1
10
21.7565850337734
20
5.16785230409056
30
0
41
1
10
22.1010604072805
20
5.15831878077435
30
0
41
1
10
22.7912091916341
20
5.12227940406936
30
0
41
1
10
23.1367603294958
20
5.09580530422267
30
0
41
1
10
23.8288097920926
20
5.02576950154338
30
-1E-16
41
1
10
24.1752660898006
20
4.98212856819549
30
-1E-16
41
1
10
24.870747531729
20
4.87829186739549
30
-1E-16
41
1
10
25.2201493712538
20
4.81794673529774
30
-1E-16
41
1
10
25.9187001750567
20
4.68076404328525
30
2E-16
41
1
10
26.2671291180255
20
4.6039901574587
30
2E-16
41
1
10
26.9642020072033
20
4.43594443717603
30
2E-16
41
1
10
27.3126182491426
20
4.34450253796476
30
2E-16
41
1
10
28.0092093734305
20
4.14673923538521
30
2E-16
41
1
10
28.3573288057691
20
4.04029565927524
30
2E-16
41
1
10
29.0552533788724
20
3.81479523018689
30
2E-16
41
1
10
29.4051707962367
20
3.69526467512998
30
2E-16
41
1
10
30.1031487832634
20
3.44399260188854
30
-2E-16
41
1
10
30.451382338521
20
3.31208561861419
30
-2E-16
41
1
10
31.1482125456003
20
3.0386938612495
30
-2E-16
41
1
10
31.496533875936
20
2.89680088960543
30
-2E-16
41
1
10
32.1932614915696
20
2.60303154999028
30
-2E-16
41
1
10
32.5416364624863
20
2.45107434051445
30
-2E-16
41
1
10
33.2400554368325
20
2.13990562186896
30
-1E-16
41
1
10
33.5897422563883
20
1.98033961464171
30
-1E-16
41
1
10
34.2870626799757
20
1.65503572649354
30
-1E-16
41
1
10
34.6352531602636
20
1.48935264964948
30
-1E-16
41
1
10
35.3318831929592
20
1.15424804128099
30
-1E-16
41
1
10
35.6802485131192
20
0.98469159124619
30
-1E-16
41
1
10
36.3770421402873
20
0.641463017288174
30
0
41
1
10
36.7257046761508
20
0.468249635997552
30
0
41
1
10
37.4247478739695
20
0.121022225976049
30
0
41
1
10
37.7737042214041
20
-0.0527057318655011
30
0
41
1
10
38.4704754714102
20
-0.400099446723715
30
0
41
1
10
38.8186223906185
20
-0.573142614315913
30
0
41
1
10
39.5151735902213
20
-0.916460686061384
30
1E-16
41
1
10
39.8635359324428
20
-1.08682171692092
30
1E-16
41
1
10
40.5606339356732
20
-1.42452936024912
30
1E-16
41
1
10
40.9100990422212
20
-1.59145813168502
30
1E-16
41
1
10
41.957543987779
20
-2.08242422881023
30
1E-16
41
1
10
42.6531905033685
20
-2.39765198552581
30
1E-16
41
1
10
43.6981384077258
20
-2.84259282936736
30
2E-16
41
1
10
44.0465917912153
20
-2.98646663605621
30
2E-16
41
1
10
44.744087672967
20
-3.26470005338857
30
2E-16
41
1
10
45.0937174391185
20
-3.39855941733668
30
2E-16
41
1
10
46.1402485184844
20
-3.78111053327703
30
-2E-16
41
1
10
46.8356118283597
20
-4.01238725069751
30
-2E-16
41
1
10
47.8808142571679
20
-4.31625126545188
30
-2E-16
41
1
10
48.2294025676219
20
-4.41060222779907
30
-2E-16
41
1
10
48.927408600417
20
-4.58471982568744
30
-2E-16
41
1
10
49.2763421972667
20
-4.66383270515755
30
-2E-16
41
1
10
50.3188885254712
20
-4.87642976133944
30
1E-16
41
1
10
51.0093599398462
20
-4.98606378835191
30
1E-16
41
1
10
52.0439447706587
20
-5.09968964095566
30
0
41
1
10
52.388377248982
20
-5.12925025476625
30
0
41
1
10
53.0769288576026
20
-5.17141886659147
30
0
41
1
10
53.4215105794018
20
-5.18392442857879
30
0
41
1
10
53.8513531290836
20
-5.18889211165737
30
0
41
1
10
53.9362341060088
20
-5.18935558286063
30
0
41
1
10
54.0211373608363
20
-5.18930090110592
30
0
0
SPLINE
5
C9
100
AcDbEntity
8
1
62
256
6
ByLayer
370
18
48
1
60
0
100
AcDbSpline
70
4
71
3
72
32
73
28
40
0
40
0
40
0
40
0
40
0.126039866060206
40
0.126039866060206
40
0.189059799090311
40
0.189059799090311
40
0.252079732120415
40
0.252079732120415
40
0.315099665150519
40
0.315099665150519
40
0.378119598180624
40
0.378119598180624
40
0.50415946424083
40
0.50415946424083
40
0.567179397270934
40
0.567179397270934
40
0.630199330301038
40
0.630199330301038
40
0.756239196361245
40
0.756239196361245
40
0.819259129391349
40
0.819259129391349
40
0.882279062421453
40
0.882279062421453
40
0.945298995451558
40
0.945298995451558
40
1
40
1
40
1
40
1
41
1
10
70.5536258584552
20
-0.121193282519869
30
0
41
1
10
69.8539445044659
20
0.211875578633681
30
0
41
1
10
69.1570939221189
20
0.543515979185742
30
0
41
1
10
68.1125477636656
20
1.03131000545554
30
-1E-16
41
1
10
67.7645172549141
20
1.19233976550714
30
-1E-16
41
1
10
67.0683611781298
20
1.51017537289349
30
-1E-16
41
1
10
66.7202531955183
20
1.66697441815592
30
-1E-16
41
1
10
66.0229065607969
20
1.97462340778253
30
-1E-16
41
1
10
65.6737418739224
20
2.12552973429479
30
-1E-16
41
1
10
64.9739312937154
20
2.42029021999844
30
-1E-16
41
1
10
64.6226823890356
20
2.56435596958329
30
-2E-16
41
1
10
63.5693264256819
20
2.98230525423207
30
-2E-16
41
1
10
62.8718936266044
20
3.24042541178969
30
-2E-16
41
1
10
61.8295786849553
20
3.59140808853596
30
-2E-16
41
1
10
61.4828203724675
20
3.70226706262432
30
2E-16
41
1
10
60.7902608187448
20
3.91053111537315
30
2E-16
41
1
10
60.4443459250905
20
4.00811731924
30
2E-16
41
1
10
59.4057564107473
20
4.28152396491427
30
2E-16
41
1
10
58.7125694559195
20
4.43756493413042
30
2E-16
41
1
10
57.6696254445623
20
4.62546848575809
30
-1E-16
41
1
10
57.321432553849
20
4.68035757729575
30
-1E-16
41
1
10
56.623403248046
20
4.77295520944378
30
-1E-16
41
1
10
56.2733721487196
20
4.81140755954451
30
-1E-16
41
1
10
55.5704664285305
20
4.87345559868626
30
0
41
1
10
55.2198229958232
20
4.89640662433305
30
0
41
1
10
54.567338192141
20
4.92279229754618
30
0
41
1
10
54.2649233725031
20
4.92871529435163
30
0
41
1
10
53.9629271969176
20
4.92869423969245
30
0
0
SPLINE
5
CA
100
AcDbEntity
8
1
62
256
6
ByLayer
370
18
48
1
60
0
100
AcDbSpline
70
4
71
3
72
8
73
4
40
0
40
0
40
0
40
0
40
1
40
1
40
1
40
1
41
1
10
5.47663940254145
20
-0.231209305774996
30
0
41
1
10
4.86606831592397
20
0.0560614346889565
30
0
41
1
10
4.2545092825373
20
0.346126953441996
30
0
41
1
10
3.64059054158147
20
0.636566432005708
30
0
0
SPLINE
5
CB
100
AcDbEntity
8
1
62
256
6
ByLayer
370
18
48
1
60
0
100
AcDbSpline
70
4
71
3
72
20
73
16
40
0
40
0
40
0
40
0
40
0.243414230822846
40
0.243414230822846
40
0.36512134623425
40
0.36512134623425
40
0.486828461645654
40
0.486828461645654
40
0.608535577057057
40
0.608535577057057
40
0.730242692468461
40
0.730242692468461
40
0.973656923291242
40
0.973656923291242
40
1
40
1
40
1
40
1
41
1
10
71.6772461275285
20
1.44264682569994
30
0
41
1
10
71.5951253118249
20
1.43085019193313
30
0
41
1
10
71.5155578701053
20
1.41229156691819
30
0
41
1
10
71.4001792734182
20
1.37512235894005
30
0
41
1
10
71.3621039261848
20
1.36105629148196
30
0
41
1
10
71.2891442960531
20
1.33079623853681
30
0
41
1
10
71.2541769864181
20
1.31460914622201
30
0
41
1
10
71.1871107891662
20
1.28062237237211
30
0
41
1
10
71.1550111807739
20
1.26282246477652
30
0
41
1
10
71.0936196616215
20
1.22604528611629
30
0
41
1
10
71.0644561926346
20
1.2071237963431
30
0
41
1
10
70.9835359331358
20
1.15098247915074
30
0
41
1
10
70.9370097158387
20
1.11356652099539
30
0
41
1
10
70.8941363661162
20
1.07481775017394
30
0
41
1
10
70.8900513289816
20
1.07107213845958
30
0
41
1
10
70.8860678616487
20
1.06736511150029
30
0
0
SPLINE
5
CC
100
AcDbEntity
8
1
62
256
6
ByLayer
370
18
48
1
60
0
100
AcDbSpline
70
4
71
3
72
38
73
34
40
0
40
0
40
0
40
0
40
0.103615596562647
40
0.103615596562647
40
0.164583893211919
40
0.164583893211919
40
0.225552189861192
40
0.225552189861192
40
0.286520486510465
40
0.286520486510465
40
0.347488783159738
40
0.347488783159738
40
0.408457079809011
40
0.408457079809011
40
0.469425376458284
40
0.469425376458284
40
0.530393673107557
40
0.530393673107557
40
0.591361969756829
40
0.591361969756829
40
0.652330266406102
40
0.652330266406102
40
0.713298563055375
40
0.713298563055375
40
0.774266859704648
40
0.774266859704648
40
0.835235156353921
40
0.835235156353921
40
0.896203453003194
40
0.896203453003194
40
0.957171749652467
40
0.957171749652467
40
1
40
1
40
1
40
1
41
1
10
55.6169152752989
20
-0.436129504252534
30
0
41
1
10
54.7611243788728
20
-0.0266137925553096
30
0
41
1
10
53.9073487940759
20
0.385946271007469
30
0
41
1
10
52.5472587258572
20
1.03116766145607
30
-1E-16
41
1
10
52.0426757553697
20
1.26744860254601
30
-1E-16
41
1
10
51.0343479345308
20
1.72907664876104
30
-1E-16
41
1
10
50.5299005029312
20
1.95502892093239
30
-1E-16
41
1
10
49.5217550389475
20
2.3910177902969
30
-1E-16
41
1
10
49.0172593787713
20
2.60125170207408
30
-2E-16
41
1
10
48.0088936297571
20
3.00185670264412
30
-2E-16
41
1
10
47.5046883509528
20
3.19267508848702
30
-2E-16
41
1
10
46.4964935327236
20
3.54953936467541
30
-2E-16
41
1
10
45.9933877689487
20
3.71540496446406
30
2E-16
41
1
10
44.9873265639221
20
4.02054254995386
30
2E-16
41
1
10
44.4844659135834
20
4.15980020921631
30
2E-16
41
1
10
43.4766167462826
20
4.40810795708674
30
2E-16
41
1
10
42.9719774885664
20
4.51724201592361
30
2E-16
41
1
10
41.9638183737153
20
4.70296826406167
30
-1E-16
41
1
10
41.4593049258134
20
4.77966496241859
30
-1E-16
41
1
10
40.4506429756089
20
4.89793716929691
30
0
41
1
10
39.9467260602797
20
4.9399180672375
30
0
41
1
10
38.9380597103133
20
4.98953276533442
30
0
41
1
10
38.4335802868266
20
4.99665581174784
30
0
41
1
10
37.4246212399505
20
4.97557976198794
30
0
41
1
10
36.9203349222362
20
4.94746550138009
30
0
41
1
10
35.9122641378168
20
4.8565834759697
30
-1E-16
41
1
10
35.407762561055
20
4.7934150751708
30
-1E-16
41
1
10
34.3995370964583
20
4.63385068126371
30
-1E-16
41
1
10
33.8953589600245
20
4.53753176221437
30
2E-16
41
1
10
32.8865206931329
20
4.31370972250843
30
2E-16
41
1
10
32.3818674110864
20
4.18621476000578
30
2E-16
41
1
10
31.5233544570949
20
3.94500995096172
30
2E-16
41
1
10
31.1692705554455
20
3.8384453795052
30
2E-16
41
1
10
30.8150725716074
20
3.72533675875928
30
1E-16
0
SPLINE
5
CD
100
AcDbEntity
8
1
62
256
6
ByLayer
370
18
48
1
60
0
100
AcDbSpline
70
4
71
3
72
67
73
63
40
0
40
0
40
0
40
0
40
0.0203633344089451
40
0.0203633344089451
40
0.0367078213733115
40
0.0367078213733115
40
0.0530523083376778
40
0.0530523083376778
40
0.0857412822664106
40
0.0857412822664106
40
0.0939135257485937
40
0.0939135257485937
40
0.0979996474896854
40
0.100042708360231
40
0.100553473577868
40
0.100808856186686
40
0.100808856186686
40
0.100936547491095
40
0.100936547491095
40
0.101064238795504
40
0.101064238795504
40
0.102085769230777
40
0.102085769230777
40
0.10617189097187
40
0.10617189097187
40
0.110258012712963
40
0.110258012712963
40
0.11843025619515
40
0.11843025619515
40
0.183808204052639
40
0.183808204052639
40
0.249186151910128
40
0.249186151910128
40
0.379942047625107
40
0.379942047625107
40
0.445319995482597
40
0.445319995482597
40
0.510697943340086
40
0.510697943340086
40
0.527042430304459
40
0.527042430304459
40
0.531128552045552
40
0.531128552045552
40
0.531639317263188
40
0.531639317263188
40
0.531767008567598
40
0.531767008567598
40
0.531894699872007
40
0.531894699872007
40
0.532022391176416
40
0.532022391176416
40
0.532150082480825
40
0.533171612916098
40
0.535214673786644
40
0.543386917268826
40
0.576075891197555
40
0.576075891197555
40
0.641453839055014
40
0.641453839055014
40
0.772209734769932
40
0.772209734769932
40
1
40
1
40
1
40
1
41
1
10
9.00230698095012
20
4.89027617122184
30
-1E-16
41
1
10
8.9645202512514
20
4.78589628601128
30
-1E-16
41
1
10
8.92373481110437
20
4.67946481627905
30
-1E-16
41
1
10
8.84667642018374
20
4.48298712743255
30
-1E-16
41
1
10
8.81145786518411
20
4.39365180173308
30
0
41
1
10
8.73697091055359
20
4.21247382673954
30
0
41
1
10
8.69740512636949
20
4.1207956459711
30
0
41
1
10
8.57308742689375
20
3.84171143635604
30
0
41
1
10
8.48283964738712
20
3.64927023605378
30
0
41
1
10
8.36112101805475
20
3.40525759031624
30
0
41
1
10
8.33637991253582
20
3.35623765305238
30
0
41
1
10
8.29873820559166
20
3.28234567913765
30
0
41
1
10
8.27979094318803
20
3.24532137009501
30
0
41
1
10
8.25907189408559
20
3.20507699392331
30
0
41
1
10
8.25027369255059
20
3.18802707965961
30
0
41
1
10
8.24787155093486
20
3.18337517352336
30
0
41
1
10
8.24667004524147
20
3.18104890167743
30
0
41
1
10
8.24596796110538
20
3.18031261289548
30
0
41
1
10
8.24626429288227
20
3.17850977362534
30
0
41
1
10
8.24700866280133
20
3.17777572444245
30
0
41
1
10
8.25291082343904
20
3.17165104698867
30
0
41
1
10
8.25942857307808
20
3.16765125596032
30
0
41
1
10
8.29032440837724
20
3.14610862094986
30
0
41
1
10
8.31571076899505
20
3.12995342719995
30
0
41
1
10
8.36634595455385
20
3.0974658582756
30
0
41
1
10
8.39174175571972
20
3.08136129001719
30
0
41
1
10
8.46800519591758
20
3.03319698243459
30
0
41
1
10
8.51895067693431
20
3.00128508729679
30
0
41
1
10
8.97768929726757
20
2.7146216400202
30
-1E-16
41
1
10
9.38663942718944
20
2.46290054648304
30
0
41
1
10
10.2037483807109
20
1.96135681557033
30
0
41
1
10
10.6122921809744
20
1.71207697956117
30
0
41
1
10
11.8370526609254
20
0.967288431947281
30
-1E-16
41
1
10
12.6524860382949
20
0.475042211862643
30
0
41
1
10
13.8752804985529
20
-0.254764938843181
30
0
41
1
10
14.2826637526192
20
-0.496393864305048
30
0
41
1
10
15.096618716195
20
-0.976897827032531
30
1E-16
41
1
10
15.5033710480485
20
-1.21563645946125
30
1E-16
41
1
10
16.0105214486177
20
-1.51293219233659
30
1E-16
41
1
10
16.1120380958068
20
-1.57220098744557
30
1E-16
41
1
10
16.2378872455547
20
-1.64711812781926
30
1E-16
41
1
10
16.263217488387
20
-1.66197049899944
30
1E-16
41
1
10
16.2906716911927
20
-1.67956136735782
30
1E-16
41
1
10
16.2937148966875
20
-1.68152604652934
30
1E-16
41
1
10
16.2973399825771
20
-1.68410593509847
30
1E-16
41
1
10
16.2980572865275
20
-1.68462973405181
30
1E-16
41
1
10
16.2994222309993
20
-1.68571535911388
30
1E-16
41
1
10
16.300342971842
20
-1.68629153399743
30
1E-16
41
1
10
16.3005026356813
20
-1.68755595132851
30
1E-16
41
1
10
16.298949435998
20
-1.68715041024743
30
1E-16
41
1
10
16.2971519178483
20
-1.68695307677874
30
1E-16
41
1
10
16.2890631207582
20
-1.68606494780482
30
1E-16
41
1
10
16.2665951067056
20
-1.68359471395706
30
1E-16
41
1
10
16.1875158767893
20
-1.67486937243743
30
1E-16
41
1
10
15.8856814602635
20
-1.6411710949549
30
1E-16
41
1
10
15.598622598236
20
-1.60761685697221
30
1E-16
41
1
10
14.9104701712497
20
-1.52427817450172
30
1E-16
41
1
10
14.4528077677008
20
-1.46498092641821
30
1E-16
41
1
10
13.0831931638702
20
-1.27584323464208
30
1E-16
41
1
10
12.1744288399048
20
-1.13473169318803
30
1E-16
41
1
10
9.69716546033024
20
-0.706742737462207
30
0
41
1
10
8.1380203923008
20
-0.389068973834782
30
0
41
1
10
6.59556279864847
20
-0.0263549497154258
30
0
0
SPLINE
5
CE
100
AcDbEntity
8
1
62
256
6
ByLayer
370
18
48
1
60
0
100
AcDbSpline
70
4
71
3
72
38
73
34
40
0
40
0
40
0
40
0
40
0.497143443226373
40
0.497143443226373
40
0.663851624199839
40
0.663851624199839
40
0.775372596913127
40
0.775372596913127
40
0.849975594321343
40
0.849975594321343
40
0.899882634729594
40
0.899882634729594
40
0.93326892042243
40
0.93326892042243
40
0.955603286299133
40
0.955603286299133
40
0.970543231243224
40
0.970543231243224
40
0.980533925988235
40
0.980533925988235
40
0.987215222169885
40
0.987215222169885
40
0.99169114895828
40
0.99169114895828
40
0.994695030152039
40
0.994695030152039
40
0.996738983020833
40
0.996738983020833
40
0.998613821106928
40
0.998613821106928
40
0.99959365690975
40
0.99959365690975
40
1
40
1
40
1
40
1
41
1
10
70.8710205476592
20
-5.19890111765554
30
0
41
1
10
70.9229427453709
20
-5.16494904439367
30
0
41
1
10
70.9749367967094
20
-5.13070475192816
30
0
41
1
10
71.0444758931822
20
-5.08458961428988
30
0
41
1
10
71.0619486807585
20
-5.0729759673977
30
0
41
1
10
71.0911266948277
20
-5.05353867122162
30
0
41
1
10
71.1028266044912
20
-5.04573296809673
30
0
41
1
10
71.1223574146885
20
-5.03268367162863
30
0
41
1
10
71.1301869571069
20
-5.02744731742956
30
0
41
1
10
71.1432549800428
20
-5.01869899376592
30
0
41
1
10
71.1484932103458
20
-5.01519000604767
30
0
41
1
10
71.1572356700923
20
-5.00932980870087
30
0
41
1
10
71.1607398957565
20
-5.00697985781906
30
0
41
1
10
71.166588243162
20
-5.00305623050846
30
0
41
1
10
71.1689320564801
20
-5.00148332781322
30
0
41
1
10
71.1728456558622
20
-4.99885617184796
30
0
41
1
10
71.1744148940137
20
-4.99780254650517
30
0
41
1
10
71.1770356708223
20
-4.99604252634799
30
0
41
1
10
71.1780868567766
20
-4.99533648486917
30
0
41
1
10
71.1798405520504
20
-4.9941584528793
30
0
41
1
10
71.1805430502986
20
-4.9936865190615
30
0
41
1
10
71.1817141633826
20
-4.99289972966335
30
0
41
1
10
71.1821834416589
20
-4.99258444259505
30
0
41
1
10
71.1829662284128
20
-4.99205850837055
30
0
41
1
10
71.1832810886155
20
-4.99184694875757
30
0
41
1
10
71.1838037468629
20
-4.99149582045695
30
0
41
1
10
71.1840137803024
20
-4.99135473302437
30
0
41
1
10
71.1844042095607
20
-4.99109256731356
30
0
41
1
10
71.1845878650937
20
-4.99096928550776
30
0
41
1
10
71.1848375428549
20
-4.99080189363656
30
0
41
1
10
71.1849188264063
20
-4.99074744162169
30
0
41
1
10
71.1850110647403
20
-4.99068579829222
30
0
41
1
10
71.1850352742588
20
-4.99066964269923
30
0
41
1
10
71.1850556591573
20
-4.99065607014788
30
0
0
SPLINE
5
CF
100
AcDbEntity
8
1
62
256
6
ByLayer
370
18
48
1
60
0
100
AcDbSpline
70
4
71
3
72
10
73
6
40
0
40
0
40
0
40
0
40
0.5
40
0.5
40
1
40
1
40
1
40
1
41
1
10
70.4223465511589
20
-0.0501773331912148
30
0
41
1
10
70.4158443477032
20
0.0720619997889287
30
0
41
1
10
70.4113789813619
20
0.195651675882715
30
0
41
1
10
70.4075234435457
20
0.441322157019698
30
0
41
1
10
70.4081152081766
20
0.563046980851738
30
0
41
1
10
70.4115054337937
20
0.683668066855603
30
0
0
SPLINE
5
D0
100
AcDbEntity
8
1
62
256
6
ByLayer
370
18
48
1
60
0
100
AcDbSpline
70
4
71
3
72
8
73
4
40
0
40
0
40
0
40
0
40
1
40
1
40
1
40
1
41
1
10
71.1438981678205
20
-4.9061456960662
30
0
41
1
10
71.1359516320771
20
-4.92925400571846
30
0
41
1
10
71.1280389898257
20
-4.95236231947322
30
0
41
1
10
71.1201609232862
20
-4.97547082223818
30
0
0
SPLINE
5
D1
100
AcDbEntity
8
1
62
256
6
ByLayer
370
18
48
1
60
0
100
AcDbSpline
70
4
71
3
72
16
73
12
40
0
40
0
40
0
40
0
40
0.227299699508487
40
0.227299699508487
40
0.456939887272348
40
0.456939887272348
40
0.654353253146615
40
0.654353253146615
40
0.827985476518836
40
0.827985476518836
40
1
40
1
40
1
40
1
41
1
10
71.1464887165981
20
-4.89492332861141
30
0
41
1
10
71.146568888523
20
-4.89508976150148
30
0
41
1
10
71.1465928732695
20
-4.89543597057065
30
0
41
1
10
71.1465025812983
20
-4.89650098470699
30
0
41
1
10
71.1463841749372
20
-4.89724433202716
30
0
41
1
10
71.1460293790647
20
-4.89892084664581
30
0
41
1
10
71.1458057990505
20
-4.89983942809758
30
0
41
1
10
71.1453126439733
20
-4.90166484651348
30
0
41
1
10
71.1450454958421
20
-4.90258347386248
30
0
41
1
10
71.1444884165884
20
-4.90438545968823
30
0
41
1
10
71.1441922193481
20
-4.90529060222775
30
0
41
1
10
71.1438981678208
20
-4.90614569606547
30
0
0
SPLINE
5
D2
100
AcDbEntity
8
1
62
256
6
ByLayer
370
18
48
1
60
0
100
AcDbSpline
70
4
71
3
72
20
73
16
40
0
40
0
40
0
40
0
40
0.125000000000001
40
0.125000000000001
40
0.250000000000002
40
0.250000000000002
40
0.375000000000003
40
0.375000000000003
40
0.437500000000003
40
0.437500000000003
40
0.500000000000004
40
0.500000000000004
40
0.750000000000002
40
0.750000000000002
40
1
40
1
40
1
40
1
41
1
10
72.5425679214464
20
1.60693198712212
30
0
41
1
10
72.471169676466
20
1.72273950727816
30
0
41
1
10
72.4018911086391
20
1.8448475049041
30
0
41
1
10
72.2674414197811
20
2.10230548373616
30
0
41
1
10
72.2033834311733
20
2.23552813632364
30
0
41
1
10
72.0804821658282
20
2.51075482109584
30
0
41
1
10
72.021765649272
20
2.65257752745299
30
0
41
1
10
71.9378797612065
20
2.86800001056176
30
0
41
1
10
71.9105342564794
20
2.94043655237209
30
0
41
1
10
71.8569404993901
20
3.08619716906577
30
0
41
1
10
71.8308467430423
20
3.15934052883617
30
0
41
1
10
71.701925469238
20
3.52564234430332
30
0
41
1
10
71.6001334245018
20
3.81874172850951
30
0
41
1
10
71.3969519821763
20
4.40384787112402
30
0
41
1
10
71.2956332365822
20
4.69565012362531
30
0
41
1
10
71.1931410654964
20
4.98521441446272
30
0
0
SPLINE
5
D3
100
AcDbEntity
8
1
62
256
6
ByLayer
370
18
48
1
60
0
100
AcDbSpline
70
4
71
3
72
38
73
34
40
0
40
0
40
0
40
0
40
0.497143443235701
40
0.497143443235701
40
0.663851624212813
40
0.663851624212813
40
0.775372596928556
40
0.775372596928556
40
0.849975594338507
40
0.849975594338507
40
0.899882634747887
40
0.899882634747887
40
0.933268920441387
40
0.933268920441387
40
0.955603286318676
40
0.955603286318676
40
0.970543231262993
40
0.970543231262993
40
0.980533926008207
40
0.980533926008207
40
0.987215222189914
40
0.987215222189914
40
0.99169114897847
40
0.99169114897847
40
0.994695030172333
40
0.994695030172333
40
0.996738983041207
40
0.996738983041207
40
0.99861382112739
40
0.99861382112739
40
0.999593656930205
40
0.999593656930205
40
1
40
1
40
1
40
1
41
1
10
70.8710205476597
20
5.19890111765523
30
0
41
1
10
70.9229427453713
20
5.16494904439347
30
0
41
1
10
70.9749367967096
20
5.13070475192808
30
0
41
1
10
71.0444758931821
20
5.08458961428991
30
0
41
1
10
71.0619486807585
20
5.0729759673977
30
0
41
1
10
71.0911266948276
20
5.05353867122162
30
0
41
1
10
71.1028266044912
20
5.04573296809673
30
0
41
1
10
71.1223574146885
20
5.0326836716286
30
0
41
1
10
71.1301869571069
20
5.02744731742956
30
0
41
1
10
71.1432549800428
20
5.0186989937659
30
0
41
1
10
71.1484932103458
20
5.01519000604767
30
0
41
1
10
71.1572356700923
20
5.00932980870087
30
0
41
1
10
71.1607398957565
20
5.00697985781909
30
0
41
1
10
71.1665882431621
20
5.00305623050849
30
0
41
1
10
71.1689320564801
20
5.00148332781319
30
0
41
1
10
71.1728456558622
20
4.99885617184793
30
0
41
1
10
71.1744148940136
20
4.99780254650514
30
0
41
1
10
71.1770356708223
20
4.99604252634796
30
0
41
1
10
71.1780868567766
20
4.9953364848692
30
0
41
1
10
71.1798405520504
20
4.9941584528793
30
0
41
1
10
71.1805430502985
20
4.99368651906147
30
0
41
1
10
71.1817141633825
20
4.99289972966335
30
0
41
1
10
71.1821834416588
20
4.99258444259505
30
0
41
1
10
71.1829662284128
20
4.99205850837052
30
0
41
1
10
71.1832810886155
20
4.99184694875757
30
0
41
1
10
71.1838037468629
20
4.99149582045695
30
0
41
1
10
71.1840137803024
20
4.99135473302437
30
0
41
1
10
71.1844042095607
20
4.99109256731356
30
0
41
1
10
71.1845878650937
20
4.99096928550773
30
0
41
1
10
71.1848375428549
20
4.99080189363653
30
0
41
1
10
71.1849188264063
20
4.99074744162169
30
0
41
1
10
71.185011064739
20
4.9906857982931
30
0
41
1
10
71.1850352742564
20
4.99066964270082
30
0
41
1
10
71.1850556591542
20
4.9906560701499
30
0
0
SPLINE
5
D4
100
AcDbEntity
8
1
62
256
6
ByLayer
370
18
48
1
60
0
100
AcDbSpline
70
4
71
3
72
8
73
4
40
0
40
0
40
0
40
0
40
1
40
1
40
1
40
1
41
1
10
72.5425679214464
20
1.60693198712215
30
0
41
1
10
72.6976028121896
20
1.16847139418758
30
0
41
1
10
72.8485023947626
20
0.728531001108649
30
0
41
1
10
72.9952047368344
20
0.287088645698503
30
0
0
SPLINE
5
D5
100
AcDbEntity
8
1
62
256
6
ByLayer
370
18
48
1
60
0
100
AcDbSpline
70
4
71
3
72
8
73
4
40
0
40
0
40
0
40
0
40
1
40
1
40
1
40
1
41
1
10
3.64484247422038
20
0.6468053202899
30
0
41
1
10
3.63152334046865
20
0.653120160451039
30
0
41
1
10
3.61710923155161
20
0.656406060054763
30
0
41
1
10
3.60234148886602
20
0.656496050131523
30
0
0
SPLINE
5
D6
100
AcDbEntity
8
1
62
256
6
ByLayer
370
18
48
1
60
0
100
AcDbSpline
70
4
71
3
72
8
73
4
40
0
40
0
40
0
40
0
40
1
40
1
40
1
40
1
41
1
10
3.6466024531008
20
0.678744788730313
30
0
41
1
10
3.64602419311959
20
0.668108452526894
30
0
41
1
10
3.64543752737981
20
0.657462166442457
30
0
41
1
10
3.64484247422038
20
0.646805320289872
30
0
0
SPLINE
5
D7
100
AcDbEntity
8
1
62
256
6
ByLayer
370
18
48
1
60
0
100
AcDbSpline
70
4
71
3
72
8
73
4
40
0
40
0
40
0
40
0
40
1
40
1
40
1
40
1
41
1
10
72.995204736844
20
0.287088645695519
30
0
41
1
10
72.9727436780936
20
0.212224197202488
30
0
41
1
10
72.9501705124228
20
0.137394466866425
30
0
41
1
10
72.9274856565247
20
0.0625993256426511
30
0
0
SPLINE
5
D8
100
AcDbEntity
8
1
62
256
6
ByLayer
370
18
48
1
60
0
100
AcDbSpline
70
4
71
3
72
66
73
62
40
0
40
0
40
0
40
0
40
0.124999999999981
40
0.124999999999981
40
0.249999999999962
40
0.249999999999962
40
0.265624999999959
40
0.265624999999959
40
0.269531249999959
40
0.269531249999959
40
0.273437499999959
40
0.273437499999959
40
0.277343749999958
40
0.277343749999958
40
0.279296874999958
40
0.279296874999958
40
0.281249999999958
40
0.312499999999959
40
0.312499999999959
40
0.374999999999961
40
0.374999999999961
40
0.406249999999962
40
0.406249999999962
40
0.437499999999963
40
0.437499999999963
40
0.468749999999964
40
0.468749999999964
40
0.484374999999965
40
0.484374999999965
40
0.499999999999966
40
0.499999999999966
40
0.531249999999968
40
0.531249999999968
40
0.546874999999968
40
0.546874999999968
40
0.562499999999969
40
0.57812499999997
40
0.57812499999997
40
0.593749999999971
40
0.593749999999971
40
0.624999999999972
40
0.624999999999972
40
0.640624999999973
40
0.640624999999973
40
0.656249999999974
40
0.656249999999974
40
0.687499999999976
40
0.687499999999976
40
0.718749999999979
40
0.718749999999979
40
0.749999999999981
40
0.749999999999981
40
0.781249999999984
40
0.781249999999984
40
0.812499999999986
40
0.812499999999986
40
0.874999999999991
40
0.874999999999991
40
0.937499999999995
40
0.937499999999995
40
1
40
1
40
1
40
1
41
1
10
9.00230333982631
20
4.89027648185157
30
-1E-16
41
1
10
8.41179449620049
20
4.98380589267686
30
-1E-16
41
1
10
7.81340870373262
20
5.04693350239643
30
-1E-16
41
1
10
6.59174003540153
20
5.128671562498
30
0
41
1
10
5.9691732621533
20
5.14742485574683
30
0
41
1
10
5.25771184036327
20
5.15553346456576
30
0
41
1
10
5.1785108007592
20
5.15625450315127
30
0
41
1
10
5.07932783350137
20
5.15695631854132
30
0
41
1
10
5.05948200044563
20
5.15708670486646
30
0
41
1
10
5.01977189111579
20
5.15732816058517
30
0
41
1
10
4.9996598542379
20
5.15743980782051
30
0
41
1
10
4.95873449588666
20
5.15747066350085
30
0
41
1
10
4.93769230263661
20
5.15742503792151
30
0
41
1
10
4.90898561896751
20
5.15714244212026
30
0
41
1
10
4.90000812221354
20
5.15700602003659
30
0
41
1
10
4.88219257655399
20
5.15671777841374
30
0
41
1
10
4.73085791612638
20
5.1541237758606
30
0
41
1
10
4.58107687388974
20
5.1490658671691
30
0
41
1
10
4.16401469711104
20
5.12705241922666
30
0
41
1
10
3.89382482053267
20
5.10230148355069
30
0
41
1
10
3.50492761483508
20
5.04272135198119
30
-1E-16
41
1
10
3.37795790017671
20
5.01901543073981
30
-1E-16
41
1
10
3.13403717779877
20
4.96281271303312
30
-1E-16
41
1
10
3.01669014128819
20
4.93028034523607
30
-1E-16
41
1
10
2.79327296043527
20
4.85412158520805
30
-1E-16
41
1
10
2.68717742735055
20
4.81052200507813
30
-1E-16
41
1
10
2.53888070083332
20
4.73422615416072
30
2E-16
41
1
10
2.49126722839495
20
4.70696646546935
30
2E-16
41
1
10
2.40028166224897
20
4.6481447612361
30
2E-16
41
1
10
2.35685805721349
20
4.616495198698
30
2E-16
41
1
10
2.23646399093585
20
4.51599058435227
30
2E-16
41
1
10
2.16840143439248
20
4.44114682211045
30
2E-16
41
1
10
2.08913020545202
20
4.31398726353439
30
2E-16
41
1
10
2.06651967697863
20
4.26889552863042
30
2E-16
41
1
10
2.0308066367987
20
4.17558890524569
30
2E-16
41
1
10
2.0042276946711
20
4.07869474733053
30
2E-16
41
1
10
1.99638315002613
20
3.9743974542084
30
2E-16
41
1
10
1.99823751204107
20
3.86625079560494
30
2E-16
41
1
10
2.00412873193457
20
3.80989007783759
30
2E-16
41
1
10
2.03582977650853
20
3.63960033106426
30
2E-16
41
1
10
2.07537215553765
20
3.52339574465756
30
-2E-16
41
1
10
2.15861516558559
20
3.3456085558189
30
-2E-16
41
1
10
2.19033066375042
20
3.28593505554954
30
-2E-16
41
1
10
2.25960900320709
20
3.16803521498795
30
-2E-16
41
1
10
2.29732004673357
20
3.1094810544665
30
-2E-16
41
1
10
2.41852452106835
20
2.93487076070883
30
-2E-16
41
1
10
2.51003408731097
20
2.81985951231505
30
-2E-16
41
1
10
2.71028688248504
20
2.59216403526858
30
-2E-16
41
1
10
2.81747919040393
20
2.48126889169663
30
-2E-16
41
1
10
3.04134147601792
20
2.26543378675828
30
-1E-16
41
1
10
3.15827713534833
20
2.16023657600562
30
-1E-16
41
1
10
3.40020957809827
20
1.95429084004454
30
-1E-16
41
1
10
3.52521877443851
20
1.85354886116013
30
-1E-16
41
1
10
3.78202828065614
20
1.65587745820079
30
-1E-16
41
1
10
3.91386740213648
20
1.55895609275692
30
-1E-16
41
1
10
4.31354763321761
20
1.27638556623157
30
-1E-16
41
1
10
4.58711344582051
20
1.09756398899242
30
-1E-16
41
1
10
5.14484787394863
20
0.754352252975224
30
0
41
1
10
5.42905858111519
20
0.590017230125198
30
0
41
1
10
6.00612298085525
20
0.273266616577047
30
0
41
1
10
6.29899307350826
20
0.120872487256008
30
0
41
1
10
6.59555743190009
20
-0.0263572298313193
30
0
0
SPLINE
5
D9
100
AcDbEntity
8
1
62
256
6
ByLayer
370
18
48
1
60
0
100
AcDbSpline
70
4
71
3
72
58
73
54
40
0
40
0
40
0
40
0
40
0.0410583195000877
40
0.0410583195000877
40
0.0891919206840782
40
0.0891919206840782
40
0.137325521868069
40
0.137325521868069
40
0.161392322460063
40
0.161392322460063
40
0.185459123052058
40
0.185459123052058
40
0.233592724236048
40
0.233592724236048
40
0.281726325420038
40
0.281726325420038
40
0.329859926604028
40
0.329859926604028
40
0.353926727196022
40
0.353926727196022
40
0.377993527788016
40
0.377993527788016
40
0.426127128972006
40
0.426127128972006
40
0.474260730155996
40
0.474260730155996
40
0.522394331339986
40
0.522394331339986
40
0.546461131931981
40
0.546461131931981
40
0.570527932523976
40
0.570527932523976
40
0.618661533707967
40
0.618661533707967
40
0.666795134891957
40
0.666795134891957
40
0.714928736075947
40
0.714928736075947
40
0.738995536667943
40
0.738995536667943
40
0.763062337259939
40
0.763062337259939
40
0.811195938443931
40
0.811195938443931
40
0.859329539627923
40
0.859329539627923
40
0.907463140811915
40
0.907463140811915
40
0.931529941403912
40
0.931529941403912
40
0.955596741995908
40
0.955596741995908
40
1
40
1
40
1
40
1
41
1
10
22.8568698656257
20
5.16984029169652
30
0
41
1
10
23.4276565960816
20
5.17007497862917
30
0
41
1
10
23.9953617267779
20
5.14684984766075
30
0
41
1
10
25.2253760405043
20
5.04729099066287
30
-1E-16
41
1
10
25.8866998948861
20
4.96229096124006
30
-1E-16
41
1
10
27.2103252478707
20
4.73337581887392
30
2E-16
41
1
10
27.8723989193311
20
4.58941453142506
30
2E-16
41
1
10
28.8689410033144
20
4.3311978403957
30
2E-16
41
1
10
29.2018334823974
20
4.23822692359272
30
2E-16
41
1
10
29.8695888777628
20
4.03897760774873
30
2E-16
41
1
10
30.2050679904505
20
3.93244173837087
30
2E-16
41
1
10
31.2105360056322
20
3.59493117837613
30
-2E-16
41
1
10
31.8760627692394
20
3.34722405409369
30
-2E-16
41
1
10
33.2033360307501
20
2.81648934137149
30
-2E-16
41
1
10
33.864613958748
20
2.53268645268852
30
-2E-16
41
1
10
35.1878008961808
20
1.93782695297546
30
-1E-16
41
1
10
35.8498488149716
20
1.62707770800796
30
-1E-16
41
1
10
36.8463684991619
20
1.14604537739945
30
-1E-16
41
1
10
37.1791217237594
20
0.983214924298778
30
-1E-16
41
1
10
37.8467801399574
20
0.654552192075982
30
0
41
1
10
38.1822775944745
20
0.488199053648174
30
0
41
1
10
39.1874976495359
20
-0.0120107323033096
30
0
41
1
10
39.8527899934942
20
-0.345871212842752
30
0
41
1
10
41.179711601359
20
-1.00208788620074
30
1E-16
41
1
10
41.8410599639483
20
-1.32505813792062
30
1E-16
41
1
10
43.163765226983
20
-1.95229939763607
30
1E-16
41
1
10
43.8257290653171
20
-2.25540162500104
30
1E-16
41
1
10
44.8222491953198
20
-2.68910186040841
30
2E-16
41
1
10
45.1549778135881
20
-2.83024233681346
30
2E-16
41
1
10
45.8224772278139
20
-3.10391435862064
30
2E-16
41
1
10
46.1579989943983
20
-3.23666144034382
30
2E-16
41
1
10
47.1629138708753
20
-3.61865583350993
30
2E-16
41
1
10
47.8280645029017
20
-3.85099724765328
30
-2E-16
41
1
10
49.1545305598015
20
-4.26416922153749
30
-2E-16
41
1
10
49.8158336947909
20
-4.44512314231082
30
-2E-16
41
1
10
51.1383979961011
20
-4.75179549233172
30
-2E-16
41
1
10
51.8000898814964
20
-4.87706898138339
30
1E-16
41
1
10
52.7965914189333
20
-5.01982324141841
30
1E-16
41
1
10
53.1293847897433
20
-5.05990335098568
30
1E-16
41
1
10
53.7967856486304
20
-5.12449761268286
30
0
41
1
10
54.132274472091
20
-5.14898795061768
30
0
41
1
10
55.1368245344565
20
-5.19806718197879
30
0
41
1
10
55.8019571614014
20
-5.19837853177575
30
0
41
1
10
57.1278191525048
20
-5.13581055524187
30
0
41
1
10
57.7890250427157
20
-5.07309724013791
30
1E-16
41
1
10
59.1115185267068
20
-4.88674888554257
30
1E-16
41
1
10
59.7729656657053
20
-4.76309337359629
30
-2E-16
41
1
10
60.7694356944146
20
-4.53439977399711
30
-2E-16
41
1
10
61.1022538941268
20
-4.45093026588026
30
-2E-16
41
1
10
61.7697173885007
20
-4.26976520705219
30
-2E-16
41
1
10
62.1051418511655
20
-4.17179651489641
30
-2E-16
41
1
10
63.0573662789841
20
-3.87607910947583
30
-2E-16
41
1
10
63.6710724154802
20
-3.66383828010501
30
-1E-16
41
1
10
64.2828728928674
20
-3.43437821594921
30
0
0
SPLINE
5
DA
100
AcDbEntity
8
1
62
256
6
ByLayer
370
18
48
1
60
0
100
AcDbSpline
70
4
71
3
72
10
73
6
40
0
40
0
40
0
40
0
40
0.5
40
0.5
40
1
40
1
40
1
40
1
41
1
10
71.1931410654964
20
-4.98521441446275
30
0
41
1
10
71.1766064332562
20
-4.99600427629949
30
0
41
1
10
71.162582595346
20
-5.00046598391609
30
0
41
1
10
71.1385196292302
20
-4.99695841956873
30
0
41
1
10
71.1286209431265
20
-4.98904293091627
30
0
41
1
10
71.1201609232862
20
-4.97547082223821
30
0
0
SPLINE
5
DB
100
AcDbEntity
8
1
62
256
6
ByLayer
370
18
48
1
60
0
100
AcDbSpline
70
4
71
3
72
30
73
26
40
0
40
0
40
0
40
0
40
0.124999999999999
40
0.124999999999999
40
0.187499999999999
40
0.187499999999999
40
0.249999999999999
40
0.249999999999999
40
0.374999999999998
40
0.374999999999998
40
0.437499999999999
40
0.437499999999999
40
0.499999999999999
40
0.499999999999999
40
0.624999999999999
40
0.624999999999999
40
0.687499999999999
40
0.687499999999999
40
0.749999999999999
40
0.749999999999999
40
0.875
40
0.875
40
0.9375
40
0.9375
40
1
40
1
40
1
40
1
41
1
10
70.5536258584553
20
-0.121193282519897
30
0
41
1
10
70.5652560035799
20
-0.415272957026417
30
0
41
1
10
70.5887292034853
20
-0.703274488790129
30
0
41
1
10
70.6332188138426
20
-1.12737664563005
30
1E-16
41
1
10
70.6496280827897
20
-1.26741580889771
30
1E-16
41
1
10
70.6844927672076
20
-1.54491647818207
30
1E-16
41
1
10
70.7030359933157
20
-1.68298984558737
30
1E-16
41
1
10
70.759602510717
20
-2.0886291143444
30
1E-16
41
1
10
70.7981972030524
20
-2.34614963842125
30
1E-16
41
1
10
70.8528402314177
20
-2.71411097643772
30
2E-16
41
1
10
70.8705373902784
20
-2.83368845412343
30
2E-16
41
1
10
70.9043912346754
20
-3.06659563379154
30
2E-16
41
1
10
70.9206056571766
20
-3.18036757509796
30
2E-16
41
1
10
70.9656125660836
20
-3.50597848883913
30
2E-16
41
1
10
70.9909363294449
20
-3.70388627879441
30
-2E-16
41
1
10
71.0224782676227
20
-3.97237907644936
30
-2E-16
41
1
10
71.0319395393176
20
-4.05712006870408
30
-2E-16
41
1
10
71.0491274057495
20
-4.2168054584522
30
-2E-16
41
1
10
71.0568586601254
20
-4.29181521879468
30
-2E-16
41
1
10
71.0779399932693
20
-4.49749866867526
30
-2E-16
41
1
10
71.0892922921502
20
-4.61065158168572
30
1E-16
41
1
10
71.107804888491
20
-4.74479503443766
30
1E-16
41
1
10
71.1142402941597
20
-4.7835450307347
30
1E-16
41
1
10
71.1288198891172
20
-4.84877975539084
30
0
41
1
10
71.1369480262812
20
-4.87511733463484
30
0
41
1
10
71.1464887165975
20
-4.89492332861028
30
0
0
SPLINE
5
DC
100
AcDbEntity
8
1
62
256
6
ByLayer
370
18
48
1
60
0
100
AcDbSpline
70
4
71
3
72
8
73
4
40
0
40
0
40
0
40
0
40
1
40
1
40
1
40
1
41
1
10
3.59750445488476
20
-4.6113179082098
30
1E-16
41
1
10
3.58417660749583
20
-4.60914638583577
30
1E-16
41
1
10
3.57114075903749
20
-4.60972188148949
30
1E-16
41
1
10
3.55888555020121
20
-4.61315527679412
30
1E-16
0
SPLINE
5
DD
100
AcDbEntity
8
1
62
256
6
ByLayer
370
18
48
1
60
0
100
AcDbSpline
70
4
71
3
72
12
73
8
40
0
40
0
40
0
40
0
40
0.5
40
0.5
40
0.75
40
0.75
40
1
40
1
40
1
40
1
41
1
10
3.50164326666575
20
0.56911624566311
30
0
41
1
10
3.50164326666589
20
0.586753359134974
30
0
41
1
10
3.50935698360738
20
0.604460980217766
30
0
41
1
10
3.53468716960452
20
0.626576221600317
30
0
41
1
10
3.54544938658663
20
0.633101560252726
30
0
41
1
10
3.57151261784614
20
0.642569372963635
30
0
41
1
10
3.58669912849891
20
0.645349570823697
30
0
41
1
10
3.60234148886602
20
0.645266714632754
30
0
0
SPLINE
5
DE
100
AcDbEntity
8
1
62
256
6
ByLayer
370
18
48
1
60
0
100
AcDbSpline
70
4
71
3
72
42
73
38
40
0
40
0
40
0
40
0
40
0.0595379340372791
40
0.0595379340372791
40
0.121816062259088
40
0.121816062259088
40
0.184094190480898
40
0.184094190480898
40
0.246372318702708
40
0.246372318702708
40
0.308650446924517
40
0.308650446924517
40
0.370928575146327
40
0.370928575146327
40
0.433206703368136
40
0.433206703368136
40
0.495484831589947
40
0.495484831589947
40
0.557762959811756
40
0.557762959811756
40
0.620041088033566
40
0.620041088033566
40
0.651180152144469
40
0.651180152144469
40
0.682319216255373
40
0.682319216255373
40
0.744597344477183
40
0.744597344477183
40
0.806875472698993
40
0.806875472698993
40
0.869153600920802
40
0.869153600920802
40
0.931431729142612
40
0.931431729142612
40
0.993709857364421
40
0.993709857364421
40
1
40
1
40
1
40
1
41
1
10
38.1145080962472
20
-0.222466262097413
30
0
41
1
10
37.7787166294233
20
-0.0634813486702797
30
0
41
1
10
37.4425884469284
20
0.0955112662256852
30
0
41
1
10
36.7551410434036
20
0.420028070516111
30
0
41
1
10
36.4041702294758
20
0.585686291426327
30
0
41
1
10
35.7021074884981
20
0.914375974029042
30
-1E-16
41
1
10
35.350683465959
20
1.07710938705981
30
-1E-16
41
1
10
34.6477507939324
20
1.39874988877438
30
-1E-16
41
1
10
34.2977247078037
20
1.55701912941817
30
-1E-16
41
1
10
33.5992989879151
20
1.86680077537193
30
-1E-16
41
1
10
33.2507700650958
20
2.01825561964029
30
-1E-16
41
1
10
32.555012494731
20
2.31346715934819
30
-1E-16
41
1
10
32.208000845959
20
2.45724442889721
30
-2E-16
41
1
10
31.5141446080165
20
2.73578735708375
30
-2E-16
41
1
10
31.1673486692643
20
2.87058873919523
30
-2E-16
41
1
10
30.4737870192927
20
3.130210189038
30
-2E-16
41
1
10
30.1272204823751
20
3.2548922107147
30
-2E-16
41
1
10
29.4329902209411
20
3.4933899733922
30
-2E-16
41
1
10
29.0853768402333
20
3.60720933219713
30
-2E-16
41
1
10
28.3889762633658
20
3.82266827616559
30
2E-16
41
1
10
28.0403233206428
20
3.92396532776559
30
2E-16
41
1
10
27.5156382225245
20
4.06647448347206
30
2E-16
41
1
10
27.3404680349007
20
4.11239321777802
30
2E-16
41
1
10
26.9895427118591
20
4.20085883088231
30
2E-16
41
1
10
26.8135966586018
20
4.2434538321495
30
2E-16
41
1
10
26.287083974395
20
4.36530950454872
30
2E-16
41
1
10
25.9376462327533
20
4.43831935899584
30
2E-16
41
1
10
25.2398496205375
20
4.56971480087668
30
-1E-16
41
1
10
24.8915669182476
20
4.62800400303095
30
-1E-16
41
1
10
24.1963477217724
20
4.72824229628594
30
-1E-16
41
1
10
23.849547686552
20
4.7697587719062
30
-1E-16
41
1
10
23.1558948098543
20
4.83783819846954
30
0
41
1
10
22.8091040483289
20
4.86427399074862
30
0
41
1
10
22.1156160960534
20
4.90009794804647
30
0
41
1
10
21.7689861395419
20
4.90908983792244
30
0
41
1
10
21.3866825090754
20
4.91072790170031
30
0
41
1
10
21.3516060486118
20
4.91080013241552
30
0
41
1
10
21.3165238785519
20
4.91079320297212
30
0
0
SPLINE
5
DF
100
AcDbEntity
8
1
62
256
6
ByLayer
370
18
48
1
60
0
100
AcDbSpline
70
4
71
3
72
44
73
40
40
0
40
0
40
0
40
0
40
0.040066811107866
40
0.040066811107866
40
0.0818030367118713
40
0.0818030367118713
40
0.123539262315877
40
0.123539262315877
40
0.165275487919882
40
0.165275487919882
40
0.248747939127893
40
0.248747939127893
40
0.290484164731898
40
0.290484164731898
40
0.332220390335904
40
0.332220390335904
40
0.415692841543915
40
0.415692841543915
40
0.457429067147921
40
0.457429067147921
40
0.499165292751927
40
0.499165292751927
40
0.582637743959938
40
0.582637743959938
40
0.624373969563944
40
0.624373969563944
40
0.66611019516795
40
0.66611019516795
40
0.749582646375962
40
0.749582646375962
40
0.791318871979969
40
0.791318871979969
40
0.833055097583975
40
0.833055097583975
40
0.874791323187981
40
0.874791323187981
40
0.916527548791988
40
0.916527548791988
40
1
40
1
40
1
40
1
41
1
10
34.8811698966428
20
4.88074764214653
30
-1E-16
41
1
10
35.3617868052283
20
4.9609104620933
30
-1E-16
41
1
10
35.8429023999798
20
5.02546869747724
30
-1E-16
41
1
10
36.8248496039831
20
5.12388909403077
30
0
41
1
10
37.3258066024224
20
5.15640320619298
30
0
41
1
10
38.3280011734433
20
5.18533771442529
30
0
41
1
10
38.8282960786423
20
5.1817497806976
30
0
41
1
10
39.8293267570806
20
5.13863131458044
30
0
41
1
10
40.3304037759321
20
5.09904032250984
30
0
41
1
10
41.8331345196884
20
4.92745734570454
30
-1E-16
41
1
10
42.8354402956461
20
4.74227200511368
30
2E-16
41
1
10
44.3379026310055
20
4.36990366149095
30
2E-16
41
1
10
44.83805711664
20
4.23025125075452
30
2E-16
41
1
10
45.8391083082171
20
3.9222259204459
30
2E-16
41
1
10
46.3401270518423
20
3.75378903379865
30
2E-16
41
1
10
47.8427568734438
20
3.21117234267106
30
-2E-16
41
1
10
48.8450453196975
20
2.79912017980206
30
-2E-16
41
1
10
50.3467770912954
20
2.13191578865926
30
-1E-16
41
1
10
50.8468561123309
20
1.90148380800221
30
-1E-16
41
1
10
51.8480831639765
20
1.42835972214158
30
-1E-16
41
1
10
52.3488622292796
20
1.1858453616243
30
-1E-16
41
1
10
53.8497519360618
20
0.449133809952627
30
0
41
1
10
54.8517652615044
20
-0.0559181659507431
30
0
41
1
10
56.3539614655859
20
-0.801930951414221
30
0
41
1
10
56.8547202887936
20
-1.04873411416321
30
1E-16
41
1
10
57.8563054910925
20
-1.53351376118053
30
1E-16
41
1
10
58.3565497370246
20
-1.77119218086398
30
1E-16
41
1
10
59.8573123595627
20
-2.46331258868861
30
2E-16
41
1
10
60.8593494141828
20
-2.89724476495334
30
2E-16
41
1
10
62.3615110965222
20
-3.47925431441965
30
2E-16
41
1
10
62.8622349469677
20
-3.66189001097914
30
-2E-16
41
1
10
63.8635043288517
20
-4.00049642886785
30
-2E-16
41
1
10
64.3633967929623
20
-4.15624674157186
30
-2E-16
41
1
10
65.3638766079045
20
-4.43800528055161
30
-2E-16
41
1
10
65.8647250286709
20
-4.56404103519299
30
-2E-16
41
1
10
66.8660560876073
20
-4.78346872879644
30
-2E-16
41
1
10
67.3666700924234
20
-4.87692916618195
30
1E-16
41
1
10
68.8688637233319
20
-5.10566801949676
30
1E-16
41
1
10
69.8698960050212
20
-5.18870390630946
30
0
41
1
10
70.8710205476596
20
-5.19890111766708
30
0
0
SPLINE
5
E0
100
AcDbEntity
8
1
62
256
6
ByLayer
370
18
48
1
60
0
100
AcDbSpline
70
4
71
3
72
18
73
14
40
0
40
0
40
0
40
0
40
0.195828822947772
40
0.195828822947772
40
0.391657645895543
40
0.391657645895543
40
0.587486468843315
40
0.587486468843315
40
0.783315291791087
40
0.783315291791087
40
0.979144114738858
40
0.979144114738858
40
1
40
1
40
1
40
1
41
1
10
71.1850556591546
20
4.99065607014722
30
0
41
1
10
70.6807563924982
20
4.99417901172694
30
0
41
1
10
70.1766514861234
20
4.97972002874528
30
0
41
1
10
69.1701642517531
20
4.91659616831691
30
0
41
1
10
68.6671943275754
20
4.86736685624078
30
-1E-16
41
1
10
67.659954054433
20
4.7354853593452
30
-1E-16
41
1
10
67.1551987702788
20
4.6527939931936
30
-1E-16
41
1
10
66.1480449485204
20
4.45547199128345
30
2E-16
41
1
10
65.6450754020549
20
4.34067351545531
30
2E-16
41
1
10
64.638548053445
20
4.08085847124116
30
2E-16
41
1
10
64.1344297070862
20
3.93579712056669
30
2E-16
41
1
10
63.5767345827684
20
3.760623248961
30
0
41
1
10
63.5230658471419
20
3.74361759454126
30
-1E-16
41
1
10
63.4694055106281
20
3.72646823343146
30
-1E-16
0
SPLINE
5
E1
100
AcDbEntity
8
1
62
256
6
ByLayer
370
18
48
1
60
0
100
AcDbSpline
70
4
71
3
72
8
73
4
40
0
40
0
40
0
40
0
40
1
40
1
40
1
40
1
41
1
10
23.0980460465887
20
-0.498953887364877
30
0
41
1
10
22.9986936793067
20
-0.451471086764258
30
0
41
1
10
22.8993448635773
20
-0.403912855161735
30
0
41
1
10
22.8
20
-0.356296234313646
30
0
0
SPLINE
5
E2
100
AcDbEntity
8
1
62
256
6
ByLayer
370
18
48
1
60
0
100
AcDbSpline
70
4
71
3
72
46
73
42
40
0
40
0
40
0
40
0
40
0.0339328094221643
40
0.0339328094221643
40
0.0678656188443286
40
0.0678656188443286
40
0.135731237688658
40
0.135731237688658
40
0.169664047110824
40
0.169664047110824
40
0.203596856532989
40
0.203596856532989
40
0.27146247537732
40
0.27146247537732
40
0.305395284799486
40
0.305395284799486
40
0.339328094221652
40
0.339328094221652
40
0.407193713065984
40
0.407193713065984
40
0.542924950754648
40
0.542924950754648
40
0.576857760176814
40
0.576857760176814
40
0.61079056959898
40
0.61079056959898
40
0.678656188443312
40
0.678656188443312
40
0.712588997865479
40
0.712588997865479
40
0.746521807287646
40
0.746521807287646
40
0.81438742613198
40
0.81438742613198
40
0.882253044976315
40
0.882253044976315
40
0.916185854398482
40
0.916185854398482
40
0.950118663820649
40
0.950118663820649
40
1
40
1
40
1
40
1
41
1
10
70.8522552513551
20
-5.13228440296558
30
0
41
1
10
70.5008486538003
20
-5.10377574444874
30
1E-16
41
1
10
70.1495924464283
20
-5.0664911307768
30
1E-16
41
1
10
69.4467726861373
20
-4.97471444380037
30
1E-16
41
1
10
69.0948743490868
20
-4.92015681161769
30
1E-16
41
1
10
68.040392006073
20
-4.73167602679024
30
-2E-16
41
1
10
67.3396216977049
20
-4.57316601728988
30
-2E-16
41
1
10
66.287740360311
20
-4.29004806098567
30
-2E-16
41
1
10
65.9369457125529
20
-4.18816636413419
30
-2E-16
41
1
10
65.2343116903474
20
-3.97014329774169
30
-2E-16
41
1
10
64.8822678915625
20
-3.85391597178614
30
-2E-16
41
1
10
63.8286719773313
20
-3.48698805163417
30
2E-16
41
1
10
63.1280995653146
20
-3.21743307633719
30
2E-16
41
1
10
62.0756348249925
20
-2.78248622314371
30
2E-16
41
1
10
61.7245333882424
20
-2.63242719767999
30
2E-16
41
1
10
61.0211328342739
20
-2.32317161150442
30
1E-16
41
1
10
60.6700538421345
20
-2.164511153604
30
1E-16
41
1
10
59.6207064538666
20
-1.68037113596122
30
1E-16
41
1
10
58.9249696109174
20
-1.34610847148568
30
1E-16
41
1
10
56.84119159139
20
-0.325171707892537
30
0
41
1
10
55.4570793539745
20
0.380713865261328
30
0
41
1
10
53.7048967749539
20
1.23656982868991
30
-1E-16
41
1
10
53.3527074724294
20
1.40671033474922
30
-1E-16
41
1
10
52.6497706798291
20
1.74098121847919
30
-1E-16
41
1
10
52.2988397880316
20
1.90516659243724
30
-1E-16
41
1
10
51.2465104646411
20
2.38676780918752
30
-1E-16
41
1
10
50.5456486545888
20
2.69335582977354
30
-2E-16
41
1
10
49.491025716027
20
3.12369901910736
30
-2E-16
41
1
10
49.1389167965135
20
3.26222725097856
30
-2E-16
41
1
10
48.4364401650691
20
3.52695854619816
30
-2E-16
41
1
10
48.0856116973104
20
3.6533192531256
30
2E-16
41
1
10
47.0333336553551
20
4.01298357274175
30
2E-16
41
1
10
46.3320748859703
20
4.22682414632229
30
2E-16
41
1
10
44.9242561629179
20
4.59498752137739
30
2E-16
41
1
10
44.2227628687802
20
4.7480441358708
30
2E-16
41
1
10
43.1703717158628
20
4.92759031007424
30
-1E-16
41
1
10
42.8195383740588
20
4.97913017245065
30
-1E-16
41
1
10
42.1170498903483
20
5.06507909446375
30
-1E-16
41
1
10
41.7649472935429
20
5.09950907622408
30
0
41
1
10
40.8963133379965
20
5.16266799553929
30
0
41
1
10
40.3805599892145
20
5.1811311577151
30
0
41
1
10
39.8648554698329
20
5.18046377184248
30
0
0
SPLINE
5
E3
100
AcDbEntity
8
1
62
256
6
ByLayer
370
18
48
1
60
0
100
AcDbSpline
70
4
71
3
72
12
73
8
40
0
40
0
40
0
40
0
40
0.0951427979139287
40
0.0951427979139287
40
0.396761865275951
40
0.396761865275951
40
1
40
1
40
1
40
1
41
1
10
10.5134736250202
20
-4.90644063098901
30
1E-16
41
1
10
10.2914537652077
20
-4.94058292180364
30
1E-16
41
1
10
10.0693672011594
20
-4.97138201397675
30
1E-16
41
1
10
9.14611899973303
20
-5.08515540901641
30
0
41
1
10
8.44796701061139
20
-5.1369401065983
30
0
41
1
10
6.35649798232319
20
-5.18779083558883
30
0
41
1
10
4.96581961848617
20
-5.08211008263919
30
1E-16
41
1
10
3.55716310294906
20
-4.8392369710609
30
1E-16
0
SPLINE
5
E4
100
AcDbEntity
8
1
62
256
6
ByLayer
370
18
48
1
60
0
100
AcDbSpline
70
4
71
3
72
8
73
4
40
0
40
0
40
0
40
0
40
1
40
1
40
1
40
1
41
1
10
71.1931410654965
20
4.98521441446269
30
0
41
1
10
71.1904458918881
20
4.98702846783715
30
0
41
1
10
71.1877507564369
20
4.98884235315344
30
0
41
1
10
71.1850556591544
20
4.99065607014978
30
0
0
SPLINE
5
E5
100
AcDbEntity
8
1
62
256
6
ByLayer
370
18
48
1
60
0
100
AcDbSpline
70
4
71
3
72
8
73
4
40
0
40
0
40
0
40
0
40
1
40
1
40
1
40
1
41
1
10
72.5425679214464
20
-1.60693198712215
30
0
41
1
10
72.6976028121931
20
-1.16847139417737
30
0
41
1
10
72.8485023947697
20
-0.728531001088214
30
0
41
1
10
72.9952047368446
20
-0.287088645667723
30
0
0
SPLINE
5
E6
100
AcDbEntity
8
1
62
256
6
ByLayer
370
18
48
1
60
0
100
AcDbSpline
70
4
71
3
72
26
73
22
40
0
40
0
40
0
40
0
40
0.0962417567644786
40
0.0962417567644786
40
0.192483513528957
40
0.192483513528957
40
0.288725270293436
40
0.288725270293436
40
0.384967027057914
40
0.384967027057914
40
0.577450540586874
40
0.577450540586874
40
0.673692297351354
40
0.673692297351354
40
0.769934054115833
40
0.769934054115833
40
0.866175810880313
40
0.866175810880313
40
0.962417567644792
40
0.962417567644792
40
1
40
1
40
1
40
1
41
1
10
22.799999651713
20
-0.352901373141464
30
0
41
1
10
23.3012695155622
20
-0.601692962146274
30
0
41
1
10
23.8016978197232
20
-0.848963953550253
30
1E-16
41
1
10
24.8030927241447
20
-1.33604768496852
30
1E-16
41
1
10
25.304498726065
20
-1.57609973915609
30
1E-16
41
1
10
26.3059873215818
20
-2.04305768611886
30
1E-16
41
1
10
26.8064106761061
20
-2.27010946815315
30
1E-16
41
1
10
27.8086190216763
20
-2.70764432056285
30
2E-16
41
1
10
28.3092851718827
20
-2.9176246156218
30
2E-16
41
1
10
29.8110529432376
20
-3.51498819512591
30
2E-16
41
1
10
30.8137417125033
20
-3.86998556406183
30
-2E-16
41
1
10
32.3170165095366
20
-4.31469399547021
30
-2E-16
41
1
10
32.8181367080422
20
-4.44842076945716
30
-2E-16
41
1
10
33.8202122816554
20
-4.68403736627445
30
-2E-16
41
1
10
34.320499022568
20
-4.78579024163037
30
1E-16
41
1
10
35.3216944221333
20
-4.95550233685225
30
1E-16
41
1
10
35.8228630840503
20
-5.02346016034573
30
1E-16
41
1
10
36.8248496039851
20
-5.12388909403094
30
0
41
1
10
37.3258066024245
20
-5.15640320619309
30
0
41
1
10
38.0225825150631
20
-5.17651992700081
30
0
41
1
10
38.2181387868455
20
-5.17941614972526
30
0
41
1
10
38.4136336093879
20
-5.17956412383944
30
0
0
SPLINE
5
E7
100
AcDbEntity
8
1
62
256
6
ByLayer
370
18
48
1
60
0
100
AcDbSpline
70
4
71
3
72
14
73
10
40
0
40
0
40
0
40
0
40
0.0458014679064002
40
0.0458014679064002
40
0.2843511009298
40
0.2843511009298
40
0.5229007339532
40
0.5229007339532
40
1
40
1
40
1
40
1
41
1
10
64.5755296132974
20
4.21434437670837
30
2E-16
41
1
10
64.6715576425821
20
4.24248023971569
30
2E-16
41
1
10
64.767590767452
20
4.27007722772038
30
2E-16
41
1
10
65.3638766079106
20
4.43800528055317
30
2E-16
41
1
10
65.864725028677
20
4.56404103519444
30
2E-16
41
1
10
66.8660560876136
20
4.78346872879766
30
2E-16
41
1
10
67.3666700924296
20
4.87692916618306
30
-1E-16
41
1
10
68.8688637233384
20
5.10566801949747
30
-1E-16
41
1
10
69.8698960050278
20
5.18870390630985
30
0
41
1
10
70.8710205476664
20
5.19890111766716
30
0
0
SPLINE
5
E8
100
AcDbEntity
8
1
62
256
6
ByLayer
370
18
48
1
60
0
100
AcDbSpline
70
4
71
3
72
8
73
4
40
0
40
0
40
0
40
0
40
1
40
1
40
1
40
1
41
1
10
70.4223465511589
20
-0.0501773331911863
30
0
41
1
10
70.464561282191
20
-0.0705325338338127
30
0
41
1
10
70.5065109378867
20
-0.0897332231904215
30
0
41
1
10
70.5482444979994
20
-0.107809160489637
30
0
0
SPLINE
5
E9
100
AcDbEntity
8
1
62
256
6
ByLayer
370
18
48
1
60
0
100
AcDbSpline
70
4
71
3
72
16
73
12
40
0
40
0
40
0
40
0
40
0.500000000000001
40
0.500000000000001
40
0.625000000000001
40
0.625000000000001
40
0.750000000000001
40
0.750000000000001
40
0.875
40
0.875
40
1
40
1
40
1
40
1
41
1
10
70.4115054337936
20
0.683668066855603
30
0
41
1
10
70.5827637064816
20
0.787218287284986
30
0
41
1
10
70.7630908428024
20
0.856119337345405
30
-1E-16
41
1
10
70.9923220994415
20
0.897970490786264
30
-1E-16
41
1
10
71.0383608616019
20
0.90395622240294
30
-1E-16
41
1
10
71.1306135966682
20
0.912524008083665
30
-1E-16
41
1
10
71.1768367813782
20
0.914985937190522
30
-1E-16
41
1
10
71.2692974509099
20
0.914664003613922
30
-1E-16
41
1
10
71.3155332360301
20
0.911961653990971
30
-1E-16
41
1
10
71.4077644008368
20
0.900548239286081
30
-1E-16
41
1
10
71.4538665385268
20
0.891575763544921
30
-1E-16
41
1
10
71.4992207114263
20
0.879422507867361
30
-1E-16
0
SPLINE
5
EA
100
AcDbEntity
8
1
62
256
6
ByLayer
370
18
48
1
60
0
100
AcDbSpline
70
4
71
3
72
8
73
4
40
0
40
0
40
0
40
0
40
1
40
1
40
1
40
1
41
1
10
70.8522552513543
20
-5.1322844029643
30
0
41
1
10
70.9413458879878
20
-5.08093596337659
30
0
41
1
10
71.0306365474432
20
-5.02865512727098
30
0
41
1
10
71.1201609232862
20
-4.97547082223818
30
0
0
SPLINE
5
EB
100
AcDbEntity
8
1
62
256
6
ByLayer
370
18
48
1
60
0
100
AcDbSpline
70
4
71
3
72
22
73
18
40
0
40
0
40
0
40
0
40
0.125
40
0.125
40
0.25
40
0.25
40
0.375
40
0.375
40
0.4375
40
0.4375
40
0.5
40
0.5
40
0.75
40
0.75
40
0.875
40
0.875
40
1
40
1
40
1
40
1
41
1
10
22.8000000000082
20
-0.427637013267173
30
0
41
1
10
22.2260511981807
20
-0.142733384810072
30
0
41
1
10
21.6535177688527
20
0.142994224952133
30
0
41
1
10
20.5085160316343
20
0.710427499990004
30
0
41
1
10
19.9362156656257
20
0.992473603080811
30
-1E-16
41
1
10
18.7883889779946
20
1.54579885307308
30
-1E-16
41
1
10
18.212859359806
20
1.81707696478063
30
-1E-16
41
1
10
17.3451920540881
20
2.21193060355225
30
-1E-16
41
1
10
17.0546598284623
20
2.34183661423199
30
-1E-16
41
1
10
16.4751157924833
20
2.59489632237592
30
-2E-16
41
1
10
16.1861457969826
20
2.71809812316047
30
-2E-16
41
1
10
14.7444651749279
20
3.31631358675364
30
-2E-16
41
1
10
13.6014956263404
20
3.73814004032999
30
2E-16
41
1
10
11.8836340802922
20
4.25922503201713
30
2E-16
41
1
10
11.3106812941454
20
4.41462346201266
30
2E-16
41
1
10
10.1603281226041
20
4.68407731650291
30
2E-16
41
1
10
9.58301803144204
20
4.79828465192438
30
-1E-16
41
1
10
9.00230698032075
20
4.89027616948331
30
-1E-16
0
SPLINE
5
EC
100
AcDbEntity
8
1
62
256
6
ByLayer
370
18
48
1
60
0
100
AcDbSpline
70
4
71
3
72
14
73
10
40
0
40
0
40
0
40
0
40
0.270743812635797
40
0.270743812635797
40
0.506523511667435
40
0.506523511667435
40
0.78141668104519
40
0.78141668104519
40
1
40
1
40
1
40
1
41
1
10
70.5482444979994
20
-0.107809160489637
30
0
41
1
10
70.5489838032775
20
-0.108129373666174
30
0
41
1
10
70.5497104686134
20
-0.108820099717406
30
0
41
1
10
70.5509244556528
20
-0.110549497120132
30
0
41
1
10
70.5514473016634
20
-0.111555089216466
30
0
41
1
10
70.5524193492186
20
-0.11400169169579
30
0
41
1
10
70.5528575645313
20
-0.115525212274548
30
0
41
1
10
70.5534065189608
20
-0.118431891779778
30
0
41
1
10
70.5535713318
20
-0.11981452233718
30
0
41
1
10
70.5536258584552
20
-0.121193282519045
30
0
0
SPLINE
5
ED
100
AcDbEntity
8
1
62
256
6
ByLayer
370
18
48
1
60
0
100
AcDbSpline
70
4
71
3
72
42
73
38
40
0
40
0
40
0
40
0
40
0.0368900958304172
40
0.0368900958304172
40
0.0988900151722059
40
0.0988900151722059
40
0.160889934513995
40
0.160889934513995
40
0.222889853855783
40
0.222889853855783
40
0.284889773197572
40
0.284889773197572
40
0.346889692539361
40
0.346889692539361
40
0.377889652210254
40
0.377889652210254
40
0.408889611881147
40
0.408889611881147
40
0.470889531222936
40
0.470889531222936
40
0.532889450564724
40
0.532889450564724
40
0.594889369906513
40
0.594889369906513
40
0.656889289248302
40
0.656889289248302
40
0.71888920859009
40
0.71888920859009
40
0.780889127931879
40
0.780889127931879
40
0.842889047273668
40
0.842889047273668
40
0.904888966615456
40
0.904888966615456
40
0.966888885957245
40
0.966888885957245
40
1
40
1
40
1
40
1
41
1
10
20.8030883326157
20
4.91434300249591
30
0
41
1
10
21.0100670925637
20
4.91931617444132
30
0
41
1
10
21.2168376135381
20
4.92134591860309
30
0
41
1
10
21.7705902265296
20
4.91951101121026
30
0
41
1
10
22.1171658578078
20
4.91084731699499
30
0
41
1
10
22.8105441949921
20
4.87564521361318
30
0
41
1
10
23.1572794131918
20
4.84950227859665
30
0
41
1
10
23.8508180465104
20
4.78196986467799
30
-1E-16
41
1
10
24.197560998871
20
4.74071676282696
30
-1E-16
41
1
10
24.8926683722169
20
4.64096313672937
30
-1E-16
41
1
10
25.240896128597
20
4.58289460264649
30
-1E-16
41
1
10
25.9385843957131
20
4.45189704969042
30
2E-16
41
1
10
26.2879692204906
20
4.3790754454987
30
2E-16
41
1
10
26.8144075139171
20
4.25746281807042
30
2E-16
41
1
10
26.9903352969257
20
4.21494035098524
30
2E-16
41
1
10
27.3412259780109
20
4.12660741811507
30
2E-16
41
1
10
27.5163775592332
20
4.08074912168934
30
2E-16
41
1
10
28.0410027265116
20
3.93840359625125
30
2E-16
41
1
10
28.3896132772813
20
3.83720390196723
30
2E-16
41
1
10
29.0859221794028
20
3.62188466027416
30
-2E-16
41
1
10
29.4334857807746
20
3.50810815156342
30
-2E-16
41
1
10
30.1276115787036
20
3.26965336875122
30
-2E-16
41
1
10
30.474124372714
20
3.14497890295493
30
-2E-16
41
1
10
31.1675761004191
20
2.88531867502852
30
-2E-16
41
1
10
31.5143152324132
20
2.75047082396421
30
-2E-16
41
1
10
32.2080572773816
20
2.47179337577327
30
-2E-16
41
1
10
32.5550113667092
20
2.32793209925043
30
-1E-16
41
1
10
33.2506554465134
20
2.03249867992128
30
-1E-16
41
1
10
33.5991280729731
20
1.88090375727043
30
-1E-16
41
1
10
34.2974434763211
20
1.57080239518379
30
-1E-16
41
1
10
34.6474153707321
20
1.41235356841065
30
-1E-16
41
1
10
35.3502454976426
20
1.09030032311981
30
-1E-16
41
1
10
35.7016436361814
20
0.927324218517867
30
-1E-16
41
1
10
36.4036231789125
20
0.598120978737541
30
0
41
1
10
36.7545517650409
20
0.432190090476013
30
0
41
1
10
37.2936365760162
20
0.177223337230743
30
0
41
1
10
37.4813532174914
20
0.088334601433246
30
0
41
1
10
37.6690301059897
20
-0.0006113100625669
30
0
0
SPLINE
5
EE
100
AcDbEntity
8
1
62
256
6
ByLayer
370
18
48
1
60
0
100
AcDbSpline
70
4
71
3
72
12
73
8
40
0
40
0
40
0
40
0
40
0.249999999999985
40
0.249999999999985
40
0.49999999999997
40
0.49999999999997
40
1
40
1
40
1
40
1
41
1
10
3.60234148886602
20
0.656496050131523
30
0
41
1
10
3.58669519799577
20
0.656591393810402
30
0
41
1
10
3.5715064477036
20
0.653390654374817
30
0
41
1
10
3.54544438810814
20
0.642503004032164
30
0
41
1
10
3.53468487105531
20
0.635003655541681
30
0
41
1
10
3.50935957750792
20
0.609611504280423
30
0
41
1
10
3.50164326666584
20
0.58930833762463
30
0
41
1
10
3.50164326666569
20
0.569116245663082
30
0
0
SPLINE
5
EF
100
AcDbEntity
8
1
62
256
6
ByLayer
370
18
48
1
60
0
100
AcDbSpline
70
4
71
3
72
36
73
32
40
0
40
0
40
0
40
0
40
0.159419866484331
40
0.159419866484331
40
0.239129799726497
40
0.239129799726497
40
0.27898476634758
40
0.27898476634758
40
0.318839732968664
40
0.318839732968664
40
0.398549666210829
40
0.398549666210829
40
0.478259599452995
40
0.478259599452995
40
0.557969532695161
40
0.557969532695161
40
0.597824499316244
40
0.597824499316244
40
0.637679465937327
40
0.637679465937327
40
0.717389399179491
40
0.717389399179491
40
0.797099332421656
40
0.797099332421656
40
0.876809265663821
40
0.876809265663821
40
0.916664232284903
40
0.916664232284903
40
0.956519198905985
40
0.956519198905985
40
1
40
1
40
1
40
1
41
1
10
6.59556279866374
20
-0.026354949719007
30
0
41
1
10
7.93889885837891
20
-0.693209700573902
30
0
41
1
10
9.26264988444731
20
-1.3511050134293
30
1E-16
41
1
10
11.2493514224179
20
-2.26476347536345
30
1E-16
41
1
10
11.9113239803853
20
-2.55798619275615
30
2E-16
41
1
10
12.9082636429418
20
-2.97259259936132
30
2E-16
41
1
10
13.241215127201
20
-3.10664439785913
30
2E-16
41
1
10
13.9088690429672
20
-3.36554976966946
30
2E-16
41
1
10
14.2439251390657
20
-3.49052881105644
30
2E-16
41
1
10
15.2502736830523
20
-3.84927514692859
30
-2E-16
41
1
10
15.9167400011612
20
-4.0638039872334
30
-2E-16
41
1
10
17.2450580412524
20
-4.4397456231448
30
-2E-16
41
1
10
17.9067420043064
20
-4.60125261954042
30
-2E-16
41
1
10
19.2309597115836
20
-4.86606354624388
30
1E-16
41
1
10
19.8930628201765
20
-4.96977256868911
30
1E-16
41
1
10
20.8899482556601
20
-5.07920628766254
30
0
41
1
10
21.2229707093205
20
-5.10796200573373
30
0
41
1
10
21.8908258996047
20
-5.14972738640191
30
0
41
1
10
22.226285115353
20
-5.16273293032299
30
0
41
1
10
23.2319555233818
20
-5.17740814232565
30
0
41
1
10
23.8977890130376
20
-5.15474750197725
30
0
41
1
10
25.2253760405044
20
-5.04729099066287
30
1E-16
41
1
10
25.8866998948861
20
-4.96229096124006
30
1E-16
41
1
10
27.2103252478708
20
-4.73337581887395
30
-2E-16
41
1
10
27.8723989193312
20
-4.58941453142509
30
-2E-16
41
1
10
28.8689410033144
20
-4.3311978403957
30
-2E-16
41
1
10
29.2018334823974
20
-4.23822692359272
30
-2E-16
41
1
10
29.8695888777629
20
-4.03897760774876
30
-2E-16
41
1
10
30.2050679904505
20
-3.93244173837087
30
-2E-16
41
1
10
30.9058710610337
20
-3.69719960910649
30
1E-16
41
1
10
31.2700942429212
20
-3.56770643067901
30
2E-16
41
1
10
31.6333634578888
20
-3.43227672033194
30
2E-16
0
SPLINE
5
F0
100
AcDbEntity
8
1
62
256
6
ByLayer
370
18
48
1
60
0
100
AcDbSpline
70
4
71
3
72
24
73
20
40
0
40
0
40
0
40
0
40
0.0661664460765322
40
0.0661664460765322
40
0.199571239494173
40
0.199571239494173
40
0.332976032911813
40
0.332976032911813
40
0.399678429620634
40
0.399678429620634
40
0.466380826329454
40
0.466380826329454
40
0.733190413164728
40
0.733190413164728
40
0.866595206582365
40
0.866595206582365
40
0.933297603291183
40
0.933297603291183
40
1
40
1
40
1
40
1
41
1
10
55.4765681460486
20
5.19022707448872
30
0
41
1
10
55.8067421825094
20
5.1903547554578
30
0
41
1
10
56.1360859689214
20
5.18261085495229
30
0
41
1
10
57.1278191525048
20
5.13581055524187
30
0
41
1
10
57.7890250427158
20
5.07309724013791
30
-1E-16
41
1
10
59.1115185267069
20
4.88674888554257
30
-1E-16
41
1
10
59.7729656657053
20
4.76309337359629
30
2E-16
41
1
10
60.7694356944147
20
4.53439977399711
30
2E-16
41
1
10
61.1022538941268
20
4.45093026588026
30
2E-16
41
1
10
61.7697173885007
20
4.26976520705219
30
2E-16
41
1
10
62.1051418511656
20
4.17179651489641
30
2E-16
41
1
10
63.7786467300154
20
3.65208235269421
30
2E-16
41
1
10
65.0995080448887
20
3.14011315678658
30
-2E-16
41
1
10
67.0831069042468
20
2.27749515839469
30
-1E-16
41
1
10
67.7443937335185
20
1.97365604302922
30
-1E-16
41
1
10
68.7408296704662
20
1.50134556170397
30
-1E-16
41
1
10
69.0736646853353
20
1.34104131175852
30
-1E-16
41
1
10
69.7412245824841
20
1.01559715606214
30
-1E-16
41
1
10
70.0763659973586
20
0.850106549621643
30
-1E-16
41
1
10
70.4115054337937
20
0.683668066855574
30
0
0
SPLINE
5
F1
100
AcDbEntity
8
1
62
256
6
ByLayer
370
18
48
1
60
0
100
AcDbSpline
70
4
71
3
72
8
73
4
40
0
40
0
40
0
40
0
40
1
40
1
40
1
40
1
41
1
10
72.9952047368396
20
0.287088645693359
30
0
41
1
10
73.0016050361832
20
0.0954981941301014
30
0
41
1
10
73.001591819598
20
-0.0958938274123966
30
0
41
1
10
72.9952047368403
20
-0.287088645671901
30
0
0
SPLINE
5
F2
100
AcDbEntity
8
1
62
256
6
ByLayer
370
18
48
1
60
0
100
AcDbSpline
70
4
71
3
72
24
73
20
40
0
40
0
40
0
40
0
40
0.097521304715425
40
0.097521304715425
40
0.223031288114686
40
0.223031288114686
40
0.348541271513947
40
0.348541271513947
40
0.474051254913207
40
0.474051254913207
40
0.599561238312468
40
0.599561238312468
40
0.662316230012099
40
0.662316230012099
40
0.725071221711729
40
0.725071221711729
40
0.85058120511099
40
0.85058120511099
40
1
40
1
40
1
40
1
41
1
10
23.0859200734957
20
0.23217848916272
30
0
41
1
10
23.6300468675801
20
-0.0245819653660249
30
0
41
1
10
24.1743887109152
20
-0.282612978256651
30
0
41
1
10
25.4228773084961
20
-0.868835562432878
30
1E-16
41
1
10
26.1279605947623
20
-1.19670696359898
30
1E-16
41
1
10
27.5477434782742
20
-1.83509514065687
30
1E-16
41
1
10
28.2523150084984
20
-2.14155697640487
30
1E-16
41
1
10
29.657054557908
20
-2.71915594609394
30
2E-16
41
1
10
30.3567924545615
20
-2.99035402273446
30
2E-16
41
1
10
31.7569540360341
20
-3.48887221161704
30
2E-16
41
1
10
32.456974893941
20
-3.71605806265973
30
-2E-16
41
1
10
33.5112902558704
20
-4.01803856266508
30
-2E-16
41
1
10
33.863380891444
20
-4.11215223443386
30
-2E-16
41
1
10
34.5695664830153
20
-4.28628490747278
30
-2E-16
41
1
10
34.9241588091985
20
-4.36647559071764
30
-2E-16
41
1
10
35.9883435277406
20
-4.58387625604979
30
1E-16
41
1
10
36.6970001715482
20
-4.69742907111177
30
1E-16
41
1
10
38.2508969594333
20
-4.87356313014888
30
0
41
1
10
39.0882068404679
20
-4.92076897179768
30
0
41
1
10
39.922751099228
20
-4.92050891834077
30
0
0
SPLINE
5
F3
100
AcDbEntity
8
1
62
256
6
ByLayer
370
18
48
1
60
0
100
AcDbSpline
70
4
71
3
72
8
73
4
40
0
40
0
40
0
40
0
40
1
40
1
40
1
40
1
41
1
10
3.64484247422038
20
0.6468053202899
30
0
41
1
10
4.11634325975376
20
0.423349740795402
30
0
41
1
10
4.58645034698847
20
0.200087192174294
30
0
41
1
10
5.05578609141756
20
-0.0218839987005595
30
0
0
SPLINE
5
F4
100
AcDbEntity
8
1
62
256
6
ByLayer
370
18
48
1
60
0
100
AcDbSpline
70
4
71
3
72
32
73
28
40
0
40
0
40
0
40
0
40
0.0572539324080923
40
0.0572539324080923
40
0.121082371426124
40
0.121082371426124
40
0.184910810444156
40
0.184910810444156
40
0.248739249462189
40
0.248739249462189
40
0.376396127498252
40
0.376396127498252
40
0.440224566516283
40
0.440224566516283
40
0.504053005534314
40
0.504053005534314
40
0.631709883570376
40
0.631709883570376
40
0.695538322588407
40
0.695538322588407
40
0.759366761606438
40
0.759366761606438
40
0.82319520062447
40
0.82319520062447
40
0.887023639642501
40
0.887023639642501
40
1
40
1
40
1
40
1
41
1
10
53.9296417680562
20
4.93860605329724
30
0
41
1
10
54.241645418865
20
4.93941068262961
30
0
41
1
10
54.5540831862179
20
4.93386679801262
30
0
41
1
10
55.2165811656712
20
4.90782464980649
30
0
41
1
10
55.5671323859857
20
4.88526359076553
30
0
41
1
10
56.2699948514817
20
4.82392184595898
30
-1E-16
41
1
10
56.6199954067465
20
4.78578791822721
30
-1E-16
41
1
10
57.3179562507026
20
4.69384407159225
30
-1E-16
41
1
10
57.6661108474167
20
4.63926571905239
30
-1E-16
41
1
10
58.7089258471598
20
4.45219798403122
30
2E-16
41
1
10
59.4020129777876
20
4.29661864934329
30
2E-16
41
1
10
60.4404348586917
20
4.02375585535987
30
2E-16
41
1
10
60.7862897596186
20
3.92632725262456
30
2E-16
41
1
10
61.478724325817
20
3.71835357766622
30
2E-16
41
1
10
61.8254190379981
20
3.60762235886324
30
-2E-16
41
1
10
62.8675449019988
20
3.25692263801767
30
-2E-16
41
1
10
63.5648483702845
20
2.99888821431747
30
-2E-16
41
1
10
64.6180205392633
20
2.58089781013842
30
-2E-16
41
1
10
64.9692638498289
20
2.43676734432228
30
-1E-16
41
1
10
65.6690128483702
20
2.14185048041972
30
-1E-16
41
1
10
66.0181429499768
20
1.99084316724341
30
-1E-16
41
1
10
66.7154124996439
20
1.68293761514678
30
-1E-16
41
1
10
67.0634779350171
20
1.5259864677968
30
-1E-16
41
1
10
67.759543375759
20
1.20779880857037
30
-1E-16
41
1
10
68.1075257702261
20
1.04656545859262
30
-1E-16
41
1
10
69.0718538521046
20
0.595541010918112
30
0
41
1
10
69.6884244737695
20
0.302218209119616
30
0
41
1
10
70.307000126913
20
0.0072527443858803
30
0
0
SPLINE
5
F5
100
AcDbEntity
8
1
62
256
6
ByLayer
370
18
48
1
60
0
100
AcDbSpline
70
4
71
3
72
30
73
26
40
0
40
0
40
0
40
0
40
0.0625
40
0.0625
40
0.125
40
0.125
40
0.25
40
0.25
40
0.3125
40
0.3125
40
0.375
40
0.375
40
0.4375
40
0.4375
40
0.5
40
0.5
40
0.625
40
0.625
40
0.6875
40
0.6875
40
0.75
40
0.75
40
0.875
40
0.875
40
1
40
1
40
1
40
1
41
1
10
3.60234148886605
20
0.645266714632754
30
0
41
1
10
3.60233466027356
20
0.507483081028113
30
0
41
1
10
3.60232711871311
20
0.369280814413685
30
0
41
1
10
3.60231079921755
20
0.0920430243320709
30
0
41
1
10
3.60230199907124
20
-0.0472782870458275
30
0
41
1
10
3.6022743323534
20
-0.461231349197163
30
0
41
1
10
3.60225413784707
20
-0.733452599887784
30
0
41
1
10
3.60222200462445
20
-1.13627344494253
30
1E-16
41
1
10
3.60221098101846
20
-1.26962368165363
30
1E-16
41
1
10
3.60218837594078
20
-1.53443612605142
30
1E-16
41
1
10
3.60217676434422
20
-1.66620549152924
30
1E-16
41
1
10
3.60215336550391
20
-1.92394552950626
30
1E-16
41
1
10
3.60214154213199
20
-2.05035927218381
30
1E-16
41
1
10
3.60211766263137
20
-2.29829136972722
30
1E-16
41
1
10
3.60210557543513
20
-2.42011201010169
30
1E-16
41
1
10
3.60206913849859
20
-2.77604294978252
30
2E-16
41
1
10
3.60204490996475
20
-2.99803103765566
30
2E-16
41
1
10
3.60200824685697
20
-3.30889418651006
30
2E-16
41
1
10
3.60199596880037
20
-3.40880839065059
30
2E-16
41
1
10
3.60197118226608
20
-3.60112172479512
30
2E-16
41
1
10
3.60195863354886
20
-3.69380082483269
30
-2E-16
41
1
10
3.60192068598141
20
-3.95826301580712
30
-2E-16
41
1
10
3.60189536000939
20
-4.11414259766335
30
-2E-16
41
1
10
3.60184330146802
20
-4.38652218555066
30
-2E-16
41
1
10
3.60181652341026
20
-4.50320119414846
30
1E-16
41
1
10
3.60178831492047
20
-4.59883382805032
30
1E-16
0
SPLINE
5
F6
100
AcDbEntity
8
1
62
256
6
ByLayer
370
18
48
1
60
0
100
AcDbSpline
70
4
71
3
72
10
73
6
40
0
40
0
40
0
40
0
40
0.5
40
0.5
40
1
40
1
40
1
40
1
41
1
10
3.55716310294906
20
-4.8392369710609
30
1E-16
41
1
10
3.54044953015165
20
-4.83635530517137
30
1E-16
41
1
10
3.52639506019673
20
-4.83187420753796
30
1E-16
41
1
10
3.50696825981331
20
-4.82082540363263
30
1E-16
41
1
10
3.50164326666575
20
-4.81424693535934
30
1E-16
41
1
10
3.50164326666575
20
-4.80748736897135
30
1E-16
0
SPLINE
5
F7
100
AcDbEntity
8
1
62
256
6
ByLayer
370
18
48
1
60
0
100
AcDbSpline
70
4
71
3
72
8
73
4
40
0
40
0
40
0
40
0
40
1
40
1
40
1
40
1
41
1
10
72.1279729958252
20
-0.546754190699687
30
0
41
1
10
71.9601320480723
20
-0.0987219360856102
30
0
41
1
10
71.7502687025851
20
0.376853327837949
30
0
41
1
10
71.4992207114275
20
0.879422507869748
30
-1E-16
0
SPLINE
5
F8
100
AcDbEntity
8
1
62
256
6
ByLayer
370
18
48
1
60
0
100
AcDbSpline
70
4
71
3
72
8
73
4
40
0
40
0
40
0
40
0
40
1
40
1
40
1
40
1
41
1
10
3.64059054158147
20
0.636566432005736
30
0
41
1
10
3.62860120045667
20
0.642238482315179
30
0
41
1
10
3.61562969451435
20
0.645187210280568
30
0
41
1
10
3.60234148886602
20
0.645266714632754
30
0
0
SPLINE
5
F9
100
AcDbEntity
8
1
62
256
6
ByLayer
370
18
48
1
60
0
100
AcDbSpline
70
4
71
3
72
8
73
4
40
0
40
0
40
0
40
0
40
1
40
1
40
1
40
1
41
1
10
72.5425679214464
20
1.60693198712215
30
0
41
1
10
72.258049410967
20
1.5363477266994
30
0
41
1
10
71.9688767060435
20
1.48453948227515
30
0
41
1
10
71.6772461275285
20
1.44264682569999
30
0
0
SPLINE
5
FA
100
AcDbEntity
8
1
62
256
6
ByLayer
370
18
48
1
60
0
100
AcDbSpline
70
4
71
3
72
8
73
4
40
0
40
0
40
0
40
0
40
1
40
1
40
1
40
1
41
1
10
3.55888555020124
20
-4.61315527679412
30
1E-16
41
1
10
3.55830343785294
20
-4.68851920739431
30
1E-16
41
1
10
3.5577292815984
20
-4.76387970712997
30
1E-16
41
1
10
3.55716310294903
20
-4.8392369710609
30
1E-16
0
SPLINE
5
FB
100
AcDbEntity
8
1
62
256
6
ByLayer
370
18
48
1
60
0
100
AcDbSpline
70
4
71
3
72
24
73
20
40
0
40
0
40
0
40
0
40
0.0353007850462817
40
0.0353007850462817
40
0.0706015700925633
40
0.0706015700925633
40
0.141203140185124
40
0.141203140185124
40
0.282406280370248
40
0.282406280370248
40
0.564812560740497
40
0.564812560740497
40
0.635414130833057
40
0.635414130833057
40
0.706015700925617
40
0.706015700925617
40
0.847218841110738
40
0.847218841110738
40
1
40
1
40
1
40
1
41
1
10
71.1438981678187
20
-4.90614569606535
30
0
41
1
10
70.9666932027015
20
-4.89458400941464
30
0
41
1
10
70.7894903967014
20
-4.88146276240391
30
0
41
1
10
70.4350221405869
20
-4.85037527986987
30
0
41
1
10
70.2576418221709
20
-4.83267744545537
30
1E-16
41
1
10
69.7265416311865
20
-4.77337357668117
30
1E-16
41
1
10
69.3736543611995
20
-4.72555143035274
30
1E-16
41
1
10
68.3175897229966
20
-4.55832084900297
30
1E-16
41
1
10
67.6169096498183
20
-4.41512113424935
30
-2E-16
41
1
10
65.5179713516602
20
-3.90045303842553
30
-2E-16
41
1
10
64.1218523584042
20
-3.44214547368287
30
2E-16
41
1
10
62.3553168926737
20
-2.76030977464683
30
2E-16
41
1
10
62.0001433660323
20
-2.6181956172652
30
2E-16
41
1
10
61.2930076096247
20
-2.32663233452726
30
1E-16
41
1
10
60.9405766498923
20
-2.17700855135757
30
1E-16
41
1
10
59.8856305773247
20
-1.71879894222352
30
1E-16
41
1
10
59.1854308656249
20
-1.40091546039102
30
1E-16
41
1
10
57.7286329303772
20
-0.724823903551822
30
0
41
1
10
56.9722737115732
20
-0.365094518307671
30
0
41
1
10
56.2132719008937
20
-0.0042126396378137
30
0
0
SPLINE
5
FC
100
AcDbEntity
8
1
62
256
6
ByLayer
370
18
48
1
60
0
100
AcDbSpline
70
4
71
3
72
10
73
6
40
0
40
0
40
0
40
0
40
0.033115788670032
40
0.033115788670032
40
1
40
1
40
1
40
1
41
1
10
7.974029003254
20
-4.89801307861234
30
0
41
1
10
7.92578509158827
20
-4.89961739946691
30
0
41
1
10
7.87754759302169
20
-4.90106376494538
30
0
41
1
10
6.42108477391253
20
-4.9399713586734
30
0
41
1
10
5.01764508454099
20
-4.84270314705435
30
1E-16
41
1
10
3.59750445488476
20
-4.6113179082098
30
1E-16
0
SPLINE
5
FD
100
AcDbEntity
8
1
62
256
6
ByLayer
370
18
48
1
60
0
100
AcDbSpline
70
4
71
3
72
10
73
6
40
0
40
0
40
0
40
0
40
0.5
40
0.5
40
1
40
1
40
1
40
1
41
1
10
3.50164326666575
20
0.590084482221357
30
0
41
1
10
3.50164326666575
20
0.624142007868642
30
0
41
1
10
3.5200410435821
20
0.656785771257887
30
0
41
1
10
3.5783547993347
20
0.69240103927666
30
0
41
1
10
3.61598000822346
20
0.694021437969667
30
0
41
1
10
3.64660245310083
20
0.678744788730313
30
0
0
SPLINE
5
FE
100
AcDbEntity
8
1
62
256
6
ByLayer
370
18
48
1
60
0
100
AcDbSpline
70
4
71
3
72
24
73
20
40
0
40
0
40
0
40
0
40
0.182713412034416
40
0.182713412034416
40
0.307432850280127
40
0.307432850280127
40
0.369792569402981
40
0.369792569402981
40
0.432152288525835
40
0.432152288525835
40
0.556871726771544
40
0.556871726771544
40
0.681591165017253
40
0.681591165017253
40
0.806310603262961
40
0.806310603262961
40
0.93103004150867
40
0.93103004150867
40
1
40
1
40
1
40
1
41
1
10
40.496387466285
20
-4.92218925691327
30
0
41
1
10
39.4706882228507
20
-4.95037191407928
30
0
41
1
10
38.4423463086461
20
-4.90690754127792
30
0
41
1
10
36.6936404450957
20
-4.70984726223941
30
1E-16
41
1
10
35.9849465681672
20
-4.59666763757531
30
1E-16
41
1
10
34.9207067182366
20
-4.37969069726248
30
-2E-16
41
1
10
34.5660944036811
20
-4.2996156130333
30
-2E-16
41
1
10
33.8598813930409
20
-4.12566802831176
30
-2E-16
41
1
10
33.5077795492516
20
-4.03162542827238
30
-2E-16
41
1
10
32.4534373426476
20
-3.72979071085169
30
-2E-16
41
1
10
31.7534145914769
20
-3.50259980450554
30
2E-16
41
1
10
30.3532393200717
20
-3.00390944916256
30
2E-16
41
1
10
29.6535023286746
20
-2.73252003331521
30
2E-16
41
1
10
28.2487375213111
20
-2.15437745777154
30
1E-16
41
1
10
27.5441520614641
20
-1.84753578010367
30
1E-16
41
1
10
26.1242969953534
20
-1.20822312073366
30
1E-16
41
1
10
25.4191884363861
20
-0.87979830628413
30
1E-16
41
1
10
24.3280540899149
20
-0.366533350387897
30
0
41
1
10
23.9403139816092
20
-0.182882101247031
30
0
41
1
10
23.5528810498392
20
0.0005780548969199
30
0
0
SPLINE
5
FF
100
AcDbEntity
8
1
62
256
6
ByLayer
370
18
48
1
60
0
100
AcDbSpline
70
4
71
3
72
32
73
28
40
0
40
0
40
0
40
0
40
0.124999999999992
40
0.124999999999992
40
0.187499999999991
40
0.187499999999991
40
0.249999999999991
40
0.249999999999991
40
0.31249999999999
40
0.31249999999999
40
0.37499999999999
40
0.37499999999999
40
0.43749999999999
40
0.43749999999999
40
0.499999999999989
40
0.499999999999989
40
0.562499999999989
40
0.562499999999989
40
0.624999999999988
40
0.624999999999988
40
0.687499999999988
40
0.687499999999988
40
0.749999999999987
40
0.749999999999987
40
0.874999999999994
40
0.874999999999994
40
1
40
1
40
1
40
1
41
1
10
72.9274856565246
20
0.0625993256426511
30
0
41
1
10
72.9023143402113
20
-0.0203940231753279
30
0
41
1
10
72.8733747618375
20
-0.101489960293549
30
0
41
1
10
72.8241001975517
20
-0.220083170891485
30
0
41
1
10
72.8065331871304
20
-0.259407804321455
30
0
41
1
10
72.7702300295571
20
-0.334916078286113
30
0
41
1
10
72.7514849855102
20
-0.371179325501259
30
0
41
1
10
72.7128354084514
20
-0.440631418279565
30
0
41
1
10
72.6929316714645
20
-0.473822282296794
30
0
41
1
10
72.6519052163068
20
-0.536857383818841
30
0
41
1
10
72.6308307866099
20
-0.566558691744689
30
0
41
1
10
72.5891610627096
20
-0.620005695484849
30
0
41
1
10
72.568354949691
20
-0.644089017868851
30
0
41
1
10
72.5267725311149
20
-0.686865758951598
30
0
41
1
10
72.5058067235768
20
-0.705676362293758
30
0
41
1
10
72.4652231330079
20
-0.7365210250384
30
0
41
1
10
72.4455077919375
20
-0.748708860853128
30
0
41
1
10
72.4070788000713
20
-0.766868849163302
30
0
41
1
10
72.3882252569843
20
-0.77284270636315
30
0
41
1
10
72.3522909566516
20
-0.778431379147463
30
0
41
1
10
72.3351716566058
20
-0.778119563628678
30
0
41
1
10
72.3023591786199
20
-0.771768096854203
30
0
41
1
10
72.2865731013921
20
-0.765662220611716
30
0
41
1
10
72.2418111205495
20
-0.739542018771147
30
0
41
1
10
72.2155328161641
20
-0.712132551291489
30
0
41
1
10
72.1679605543677
20
-0.640871442089775
30
0
41
1
10
72.146738448623
20
-0.596846425273242
30
0
41
1
10
72.1279729958252
20
-0.546754190699914
30
0
0
SPLINE
5
100
100
AcDbEntity
8
1
62
256
6
ByLayer
370
18
48
1
60
0
100
AcDbSpline
70
4
71
3
72
8
73
4
40
0
40
0
40
0
40
0
40
1
40
1
40
1
40
1
41
1
10
71.1931410654965
20
-4.98521441446272
30
0
41
1
10
71.1904458918906
20
-4.9870284678355
30
0
41
1
10
71.1877507564419
20
-4.98884235315012
30
0
41
1
10
71.1850556591618
20
-4.99065607014481
30
0
0
SPLINE
5
101
100
AcDbEntity
8
1
62
256
6
ByLayer
370
18
48
1
60
0
100
AcDbSpline
70
4
71
3
72
10
73
6
40
0
40
0
40
0
40
0
40
0.5
40
0.5
40
1
40
1
40
1
40
1
41
1
10
70.8522552513525
20
-5.13228440296641
30
0
41
1
10
70.8555273354217
20
-5.15197065517691
30
0
41
1
10
70.8586563843791
20
-5.16742164684129
30
0
41
1
10
70.8648509097267
20
-5.18970232801021
30
0
41
1
10
70.867928831226
20
-5.19653355630462
30
0
41
1
10
70.8710205476421
20
-5.19890111766713
30
0
0
SPLINE
5
102
100
AcDbEntity
8
1
62
256
6
ByLayer
370
18
48
1
60
0
100
AcDbSpline
70
2053
71
3
72
62
73
58
40
0
40
0
40
0
40
0
40
0.062500000000001
40
0.062500000000001
40
0.125000000000002
40
0.125000000000002
40
0.187500000000003
40
0.187500000000003
40
0.218750000000003
40
0.218750000000003
40
0.250000000000002
40
0.250000000000002
40
0.281250000000002
40
0.281250000000002
40
0.312500000000002
40
0.312500000000002
40
0.343750000000002
40
0.343750000000002
40
0.375000000000002
40
0.375000000000002
40
0.406250000000002
40
0.406250000000002
40
0.437500000000002
40
0.437500000000002
40
0.468750000000002
40
0.468750000000002
40
0.500000000000002
40
0.500000000000002
40
0.531250000000001
40
0.531250000000001
40
0.562500000000001
40
0.562500000000001
40
0.624999999999998
40
0.624999999999998
40
0.656249999999998
40
0.656249999999998
40
0.687499999999998
40
0.687499999999998
40
0.718749999999998
40
0.718749999999998
40
0.749999999999997
40
0.749999999999997
40
0.781249999999997
40
0.781249999999997
40
0.812499999999997
40
0.812499999999997
40
0.828124999999997
40
0.828124999999997
40
0.843749999999996
40
0.843749999999996
40
0.874999999999998
40
0.874999999999998
40
0.9375
40
0.9375
40
0.96875
40
0.96875
40
1
40
1
40
1
40
1
41
1
10
71.4664847049913
20
-2.50641561363989
30
2E-16
41
1
10
71.4269017904555
20
-2.56010283687533
30
2E-16
41
1
10
71.3901001542816
20
-2.59467805758499
30
2E-16
41
1
10
71.3201676955237
20
-2.62665879076499
30
2E-16
41
1
10
71.2886970615657
20
-2.62316426100634
30
2E-16
41
1
10
71.2307304777815
20
-2.5768736974299
30
2E-16
41
1
10
71.2054708063804
20
-2.53509963692719
30
2E-16
41
1
10
71.1723152835474
20
-2.44397166302122
30
1E-16
41
1
10
71.1623703580716
20
-2.40958894528745
30
1E-16
41
1
10
71.1445965131571
20
-2.33281460896862
30
1E-16
41
1
10
71.1367190293492
20
-2.29010471935405
30
1E-16
41
1
10
71.1235942245023
20
-2.19716739963158
30
1E-16
41
1
10
71.1184657181688
20
-2.14796006917374
30
1E-16
41
1
10
71.1113883874275
20
-2.04392331077659
30
1E-16
41
1
10
71.1094425982155
20
-1.98828630094715
30
1E-16
41
1
10
71.1096557304865
20
-1.87480793648774
30
1E-16
41
1
10
71.1117539685244
20
-1.81734961471955
30
1E-16
41
1
10
71.12065549164
20
-1.70094951351285
30
1E-16
41
1
10
71.1275847646043
20
-1.64177533408144
30
1E-16
41
1
10
71.1461291317295
20
-1.52905371851088
30
1E-16
41
1
10
71.1579438917887
20
-1.47403033627418
30
1E-16
41
1
10
71.1862443289859
20
-1.37070657534443
30
1E-16
41
1
10
71.2024354602665
20
-1.3232106936288
30
1E-16
41
1
10
71.2388109284699
20
-1.23598268154456
30
1E-16
41
1
10
71.2587911556225
20
-1.1969069209272
30
1E-16
41
1
10
71.3007864398398
20
-1.12905765826815
30
1E-16
41
1
10
71.3231815509888
20
-1.09970225140037
30
1E-16
41
1
10
71.3686968437768
20
-1.05135199056952
30
1E-16
41
1
10
71.3918870368977
20
-1.03213521115174
30
1E-16
41
1
10
71.4388567759218
20
-1.00270318733803
30
1E-16
41
1
10
71.4624767739526
20
-0.99265851639737
30
1E-16
41
1
10
71.5317789824854
20
-0.975931683819027
30
1E-16
41
1
10
71.5771507025005
20
-0.982403068755104
30
1E-16
41
1
10
71.63794552314
20
-1.01688202675908
30
1E-16
41
1
10
71.6571021146943
20
-1.03247166011678
30
1E-16
41
1
10
71.6927989359904
20
-1.07239774579583
30
1E-16
41
1
10
71.7093225226081
20
-1.09686267309451
30
1E-16
41
1
10
71.7380794236479
20
-1.15363684313164
30
1E-16
41
1
10
71.7504888740399
20
-1.18608751094717
30
1E-16
41
1
10
71.7707209424933
20
-1.26027516069178
30
1E-16
41
1
10
71.7783818276457
20
-1.30171875678323
30
1E-16
41
1
10
71.7878591475555
20
-1.39146878903534
30
1E-16
41
1
10
71.7897470467937
20
-1.44084094642551
30
1E-16
41
1
10
71.7872044415906
20
-1.54458552611263
30
1E-16
41
1
10
71.7828809553831
20
-1.59854872966113
30
1E-16
41
1
10
71.7718736221026
20
-1.68284551906402
30
1E-16
41
1
10
71.7674047308306
20
-1.7117049439762
30
1E-16
41
1
10
71.7572119948152
20
-1.76901394518885
30
1E-16
41
1
10
71.7514804735096
20
-1.79759332359694
30
1E-16
41
1
10
71.732526870059
20
-1.88313312432791
30
-1E-16
41
1
10
71.7173248243196
20
-1.94061746502382
30
-1E-16
41
1
10
71.6673684445883
20
-2.1056217781854
30
-1E-16
41
1
10
71.6278419121573
20
-2.20777490382372
30
-1E-16
41
1
10
71.5674491008662
20
-2.33763620589315
30
-1E-16
41
1
10
71.5468199945637
20
-2.37766583736297
30
-1E-16
41
1
10
71.5063416213839
20
-2.44840199036892
30
-1E-16
41
1
10
71.4862761622591
20
-2.47957200202217
30
2E-16
41
1
10
71.4664847049913
20
-2.50641561363989
30
2E-16
0
SPLINE
5
103
100
AcDbEntity
8
1
62
256
6
ByLayer
370
18
48
1
60
0
100
AcDbSpline
70
4
71
3
72
14
73
10
40
0
40
0
40
0
40
0
40
0.170770200957461
40
0.374688637204339
40
0.468151325687137
40
0.554273225195367
40
0.653927159739485
40
0.811039784116435
40
1
40
1
40
1
40
1
41
1
10
71.4657922654471
20
0.892001560638022
30
-1E-16
41
1
10
71.0969366491885
20
1.00290611591487
30
-1E-16
41
1
10
70.289653821489
20
1.25253089038742
30
-1E-16
41
1
10
69.2866767409442
20
1.58282606549898
30
-1E-16
41
1
10
68.468523669157
20
1.86321396291572
30
-1E-16
41
1
10
67.8743882033154
20
2.07193706211197
30
-1E-16
41
1
10
67.1468344798762
20
2.33397464377143
30
-1E-16
41
1
10
66.2045311515892
20
2.68446101923035
30
-2E-16
41
1
10
65.4773502541341
20
2.96813994463497
30
-2E-16
41
1
10
65.0815484363275
20
3.12636154483641
30
-2E-16
0
SPLINE
5
104
100
AcDbEntity
8
1
62
256
6
ByLayer
370
18
48
1
60
0
100
AcDbSpline
70
4
71
3
72
19
73
15
40
0
40
0
40
0
40
0
40
0.110751677265565
40
0.187379632724311
40
0.260474150488488
40
0.353226850251043
40
0.435807569528797
40
0.503191885390508
40
0.564077650754901
40
0.625591375807332
40
0.731203450961039
40
0.858683119838935
40
0.968280237845962
40
1
40
1
40
1
40
1
41
1
10
39.8789668123007
20
-4.9206564584245
30
0
41
1
10
40.2780163936326
20
-4.92084868093971
30
0
41
1
10
40.953201862143
20
-4.92123272724814
30
0
41
1
10
41.892322887611
20
-4.92174472460241
30
0
41
1
10
42.7657687272012
20
-4.92261566256073
30
0
41
1
10
43.6615007200579
20
-4.92279062186162
30
0
41
1
10
44.5363969842796
20
-4.92353839303877
30
0
41
1
10
45.2964820615036
20
-4.92418508142794
30
0
41
1
10
45.9806149986763
20
-4.92380280340208
30
0
41
1
10
46.8025553121542
20
-4.92516439299024
30
0
41
1
10
47.8645417612705
20
-4.92467991111093
30
0
41
1
10
49.0999108591667
20
-4.92713336898538
30
0
41
1
10
50.0687616679669
20
-4.92563312973081
30
0
41
1
10
50.5783039388384
20
-4.92656902539548
30
0
41
1
10
50.6925760958006
20
-4.92675506126454
30
0
0
SPLINE
5
105
100
AcDbEntity
8
1
62
256
6
ByLayer
370
18
48
1
60
0
100
AcDbSpline
70
4
71
3
72
37
73
33
40
0
40
0
40
0
40
0
40
1.81213859748E-05
40
3.50908279035E-05
40
4.20117898789E-05
40
4.83779505422E-05
40
5.4555453455E-05
40
6.08327464422E-05
40
7.4283214913E-05
40
0.0001652698966372
40
0.0002209365815447
40
0.0003205916520166
40
0.0004993454203461
40
0.0008210953312701
40
0.0014037764371168
40
0.0024702325411024
40
0.0044576050096299
40
0.0082723204641786
40
0.01593742153825
40
0.0323661690441938
40
0.0978852113741875
40
0.177376406622649
40
0.261269637808397
40
0.323411362607594
40
0.396323671140583
40
0.47777398419006
40
0.551758799044125
40
0.61912767328473
40
0.681091600456792
40
0.754094590567368
40
0.867653712814483
40
1
40
1
40
1
40
1
41
1
10
41.2354396012425
20
0.198089925646343
30
0
41
1
10
41.235464481256
20
0.198085595286471
30
0
41
1
10
41.2355068182946
20
0.198078862799378
30
0
41
1
10
41.2355308482016
20
0.198078242648421
30
0
41
1
10
41.2355180665977
20
0.198085630059211
30
0
41
1
10
41.2354963702788
20
0.198093747652621
30
0
41
1
10
41.2354634932641
20
0.198104416891766
30
0
41
1
10
41.2354059431241
20
0.198121834405242
30
0
41
1
10
41.2351049166379
20
0.198207334352304
30
0
41
1
10
41.2346026564712
20
0.198338850993707
30
0
41
1
10
41.2339168411237
20
0.198531183398671
30
0
41
1
10
41.2329625510016
20
0.198794850186317
30
0
41
1
10
41.2312620973108
20
0.19926699277795
30
0
41
1
10
41.2281816748904
20
0.200120681834079
30
0
41
1
10
41.2225749350914
20
0.201674972262453
30
0
41
1
10
41.2122029314407
20
0.204548466515035
30
0
41
1
10
41.1925425909709
20
0.209991914349928
30
0
41
1
10
41.1537754771001
20
0.220712038938473
30
0
41
1
10
41.0728219846596
20
0.243055096140722
30
0
41
1
10
40.810529774601
20
0.315271807016217
30
0
41
1
10
40.3330770819232
20
0.447563957483652
30
0
41
1
10
39.655452887412
20
0.641078536262228
30
0
41
1
10
38.986511808961
20
0.838964057380252
30
-1E-16
41
1
10
38.3392925303285
20
1.03656061746622
30
-1E-16
41
1
10
37.7008516225279
20
1.23703250954151
30
-1E-16
41
1
10
37.02946930856
20
1.45454791431496
30
-1E-16
41
1
10
36.376349171809
20
1.67271842677533
30
-1E-16
41
1
10
35.7820453945961
20
1.87668871014006
30
-1E-16
41
1
10
35.1921430693113
20
2.08408011682937
30
-1E-16
41
1
10
34.4697298976835
20
2.34445851568469
30
-1E-16
41
1
10
33.5463538781789
20
2.68802756773027
30
-2E-16
41
1
10
32.8387200289924
20
2.96404386543753
30
-2E-16
41
1
10
32.4590739410552
20
3.11567346373846
30
-2E-16
0
SPLINE
5
106
100
AcDbEntity
8
1
62
256
6
ByLayer
370
18
48
1
60
0
100
AcDbSpline
70
4
71
3
72
19
73
15
40
0
40
0
40
0
40
0
40
0.113286502647774
40
0.196830815389245
40
0.288922317198705
40
0.391111721708249
40
0.471235852524928
40
0.541077744144491
40
0.610449505898049
40
0.715885806290404
40
0.841167989216314
40
0.950464856187122
40
0.992563054497865
40
1
40
1
40
1
40
1
41
1
10
7.22347224341593
20
-4.90016680167881
30
0
41
1
10
7.63666259719636
20
-4.90040714253016
30
0
41
1
10
8.35466167921692
20
-4.90092423480775
30
0
41
1
10
9.4090591842502
20
-4.90220183875394
30
0
41
1
10
10.4227280600303
20
-4.90311283680239
30
0
41
1
10
11.4245767065171
20
-4.9036043997022
30
0
41
1
10
12.3450123457894
20
-4.9048341745621
30
0
41
1
10
13.1456993183133
20
-4.90491814457332
30
0
41
1
10
14.0387694338046
20
-4.90618912297037
30
0
41
1
10
15.1342636472761
20
-4.90630498376916
30
0
41
1
10
16.3753140458435
20
-4.90819560509553
30
0
41
1
10
17.3854517048619
20
-4.90793170450718
30
0
41
1
10
17.9650508342536
20
-4.90878114965156
30
0
41
1
10
18.145724083253
20
-4.90898640541761
30
0
41
1
10
18.1728483094857
20
-4.90901564072229
30
0
0
SPLINE
5
107
100
AcDbEntity
8
1
62
256
6
ByLayer
370
18
48
1
60
0
100
AcDbSpline
70
4
71
3
72
17
73
13
40
0
40
0
40
0
40
0
40
0.133089714644429
40
0.233287061736822
40
0.355292029045546
40
0.455330331961898
40
0.535402236670313
40
0.619272419692798
40
0.732323459627339
40
0.855670736907893
40
0.962110404589039
40
1
40
1
40
1
40
1
41
1
10
21.3380596640623
20
4.91080012851401
30
0
41
1
10
20.8588324135235
20
4.91068539647347
30
0
41
1
10
20.018818047747
20
4.91031561143291
30
0
41
1
10
18.7402710672108
20
4.90953174659217
30
0
41
1
10
17.5791077344727
20
4.90796998947133
30
0
41
1
10
16.4908076065958
20
4.90821469660884
30
0
41
1
10
15.5398594738352
20
4.90667295737549
30
0
41
1
10
14.5420503159516
20
4.90651587466084
30
0
41
1
10
13.3882475337664
20
4.90513159685833
30
0
41
1
10
12.1538654954269
20
4.90458912468716
30
0
41
1
10
11.1891967905995
20
4.90337015277314
30
0
41
1
10
10.6698400610918
20
4.90317050997857
30
0
41
1
10
10.5334927798509
20
4.9030960008453
30
0
0
SPLINE
5
108
100
AcDbEntity
8
1
62
256
6
ByLayer
370
18
48
1
60
0
100
AcDbSpline
70
4
71
3
72
18
73
14
40
0
40
0
40
0
40
0
40
0.127498099562279
40
0.227587715593588
40
0.347340366826502
40
0.445485889327353
40
0.523015600620451
40
0.605174597954643
40
0.717138987158511
40
0.837063863825891
40
0.941739004814163
40
0.983519656765492
40
1
40
1
40
1
40
1
41
1
10
53.9936887138608
20
4.92867034577498
30
0
41
1
10
53.5293597338375
20
4.92811899835041
30
0
41
1
10
52.7004648757244
20
4.92725364818992
30
0
41
1
10
51.4360660780717
20
4.92782015713084
30
0
41
1
10
50.2767887370189
20
4.92548112389679
30
0
41
1
10
49.2001269232739
20
4.92705486881175
30
0
41
1
10
48.2603885255875
20
4.92470811240875
30
0
41
1
10
47.2702946770919
20
4.92564853193045
30
0
41
1
10
46.1257161684257
20
4.92360885983717
30
0
41
1
10
44.898928553131
20
4.92424960850303
30
0
41
1
10
43.9283618375648
20
4.92284371930143
30
0
41
1
10
43.334066735191
20
4.92286669008811
30
0
41
1
10
43.1229499102305
20
4.92258546607567
30
0
41
1
10
43.0632539511615
20
4.92249398144227
30
0
0
LINE
5
84
100
AcDbEntity
8
SK1
62
256
6
ByLayer
370
18
48
1
60
0
100
AcDbLine
10
-44.15
20
4.031005
30
0
11
-44.15
21
4.867607
31
0
39
0
210
0
220
0
230
1
0
LINE
5
86
100
AcDbEntity
8
SK1
62
256
6
ByLayer
370
18
48
1
60
0
100
AcDbLine
10
-45
20
-4.255
30
0
11
-45
21
2.71725
31
0
39
0
210
0
220
0
230
1
0
LINE
5
87
100
AcDbEntity
8
SK1
62
256
6
ByLayer
370
18
48
1
60
0
100
AcDbLine
10
0
20
6
30
0
11
0
21
-6
31
0
39
0
210
0
220
0
230
1
0
LINE
5
88
100
AcDbEntity
8
SK1
62
256
6
ByLayer
370
18
48
1
60
0
100
AcDbLine
10
-45
20
4.23829
30
0
11
-45
21
4.255
31
0
39
0
210
0
220
0
230
1
0
LINE
5
89
100
AcDbEntity
8
SK1
62
256
6
ByLayer
370
18
48
1
60
0
100
AcDbLine
10
-44.417949
20
3.72551
30
0
11
-44.417949
21
4.655109
31
0
39
0
210
0
220
0
230
1
0
LINE
5
8A
100
AcDbEntity
8
SK1
62
256
6
ByLayer
370
18
48
1
60
0
100
AcDbLine
10
-45
20
2.717201
30
0
11
-45
21
4.23829
31
0
39
0
210
0
220
0
230
1
0
LINE
5
8B
100
AcDbEntity
8
SK1
62
256
6
ByLayer
370
18
48
1
60
0
100
AcDbLine
10
-44.25
20
3.877346
30
0
11
-44.25
21
4.806986
31
0
39
0
210
0
220
0
230
1
0
LINE
5
8C
100
AcDbEntity
8
SK1
62
256
6
ByLayer
370
18
48
1
60
0
100
AcDbLine
10
-43.255
20
-6
30
0
11
-43.255
21
6
31
0
39
0
210
0
220
0
230
1
0
LINE
5
8D
100
AcDbEntity
8
1
62
256
6
ByLayer
370
18
48
1
60
0
100
AcDbLine
10
3.501643
20
-4.807487
30
0
11
3.501643
21
0.590084
31
0
39
0
210
0
220
0
230
1
0
LINE
5
8E
100
AcDbEntity
8
1
62
256
6
ByLayer
370
18
48
1
60
0
100
AcDbLine
10
0
20
6
30
0
11
0
21
0
31
0
39
0
210
0
220
0
230
1
0
LINE
5
8F
100
AcDbEntity
8
1
62
256
6
ByLayer
370
18
48
1
60
0
100
AcDbLine
10
0
20
0
30
0
11
0
21
-6
31
0
39
0
210
0
220
0
230
1
0
LINE
5
90
100
AcDbEntity
8
1
62
256
6
ByLayer
370
18
48
1
60
0
100
AcDbLine
10
0.704947
20
5.578219
30
0
11
0.704947
21
0
31
0
39
0
210
0
220
0
230
1
0
LINE
5
91
100
AcDbEntity
8
1
62
256
6
ByLayer
370
18
48
1
60
0
100
AcDbLine
10
0.704947
20
0
30
0
11
0.704947
21
-5.578219
31
0
39
0
210
0
220
0
230
1
0
LINE
5
92
100
AcDbEntity
8
1
62
256
6
ByLayer
370
18
48
1
60
0
100
AcDbLine
10
72.927486
20
0.062599
30
0
11
71.677246
21
1.442647
31
0
39
0
210
0
220
0
230
1
0
LINE
5
93
100
AcDbEntity
8
1
62
256
6
ByLayer
370
18
48
1
60
0
100
AcDbLine
10
22.8
20
-0.352902
30
0
11
22.8
21
-0.427637
31
0
39
0
210
0
220
0
230
1
0
LINE
5
94
100
AcDbEntity
8
1
62
256
6
ByLayer
370
18
48
1
60
0
100
AcDbLine
10
1.410394
20
5.156438
30
0
11
1.410394
21
0
31
0
39
0
210
0
220
0
230
1
0
LINE
5
95
100
AcDbEntity
8
1
62
256
6
ByLayer
370
18
48
1
60
0
100
AcDbLine
10
1.410394
20
0
30
0
11
1.410394
21
-5.156438
31
0
39
0
210
0
220
0
230
1
0
LINE
5
96
100
AcDbEntity
8
SK1
62
256
6
ByLayer
370
18
48
1
60
0
100
AcDbLine
10
-45
20
-4.255
30
0
11
-43.255
21
-6
31
0
39
0
210
0
220
0
230
1
0
LINE
5
97
100
AcDbEntity
8
SK1
62
256
6
ByLayer
370
18
48
1
60
0
100
AcDbLine
10
-43.255
20
6
30
0
11
-45
21
4.255
31
0
39
0
210
0
220
0
230
1
0
LINE
5
98
100
AcDbEntity
8
SK1
62
256
6
ByLayer
370
18
48
1
60
0
100
AcDbLine
10
-43.255
20
-6
30
0
11
0
21
-6
31
0
39
0
210
0
220
0
230
1
0
LINE
5
99
100
AcDbEntity
8
SK1
62
256
6
ByLayer
370
18
48
1
60
0
100
AcDbLine
10
0
20
6
30
0
11
-43.255
21
6
31
0
39
0
210
0
220
0
230
1
0
LINE
5
9A
100
AcDbEntity
8
1
62
256
6
ByLayer
370
18
48
1
60
0
100
AcDbLine
10
1.410394
20
-5.156438
30
0
11
7.228467
21
-5.160075
31
0
39
0
210
0
220
0
230
1
0
LINE
5
9B
100
AcDbEntity
8
1
62
256
6
ByLayer
370
18
48
1
60
0
100
AcDbLine
10
21.340373
20
-5.168895
30
0
11
22.852033
21
-5.169839
31
0
39
0
210
0
220
0
230
1
0
LINE
5
9C
100
AcDbEntity
8
1
62
256
6
ByLayer
370
18
48
1
60
0
100
AcDbLine
10
38.415365
20
-5.179566
30
0
11
39.87871
21
-5.180481
31
0
39
0
210
0
220
0
230
1
0
LINE
5
9D
100
AcDbEntity
8
1
62
256
6
ByLayer
370
18
48
1
60
0
100
AcDbLine
10
53.995545
20
-5.189304
30
0
11
55.47166
21
-5.190227
31
0
39
0
210
0
220
0
230
1
0
LINE
5
9E
100
AcDbEntity
8
1
62
256
6
ByLayer
370
18
48
1
60
0
100
AcDbLine
10
55.47166
20
5.190227
30
0
11
53.995545
21
5.189304
31
0
39
0
210
0
220
0
230
1
0
LINE
5
9F
100
AcDbEntity
8
1
62
256
6
ByLayer
370
18
48
1
60
0
100
AcDbLine
10
39.87871
20
5.180481
30
0
11
38.415365
21
5.179566
31
0
39
0
210
0
220
0
230
1
0
LINE
5
A0
100
AcDbEntity
8
1
62
256
6
ByLayer
370
18
48
1
60
0
100
AcDbLine
10
22.852033
20
5.169839
30
0
11
21.340373
21
5.168895
31
0
39
0
210
0
220
0
230
1
0
LINE
5
A1
100
AcDbEntity
8
1
62
256
6
ByLayer
370
18
48
1
60
0
100
AcDbLine
10
7.228467
20
5.160075
30
0
11
1.410394
21
5.156438
31
0
39
0
210
0
220
0
230
1
0
LINE
5
A2
100
AcDbEntity
8
SK4
62
256
6
ByLayer
370
18
48
0.05
60
0
100
AcDbLine
10
78
20
0
30
0
11
-50
21
0
31
0
39
0
210
0
220
0
230
1
0
LINE
5
A4
100
AcDbEntity
8
4
62
256
6
ByLayer
370
18
48
0.05
60
0
100
AcDbLine
10
-45
20
0
30
0
11
78
21
0
31
0
39
0
210
0
220
0
230
1
0
LINE
5
A6
100
AcDbEntity
8
80
62
256
6
ByLayer
370
18
48
1
60
0
100
AcDbLine
10
0
20
0
30
0
11
-6
21
0
31
0
39
0
210
0
220
0
230
1
0
LINE
5
A7
100
AcDbEntity
8
81
62
256
6
ByLayer
370
18
48
1
60
0
100
AcDbLine
10
73
20
0
30
0
11
79
21
0
31
0
39
0
210
0
220
0
230
1
0
LINE
5
A8
100
AcDbEntity
8
SK2
62
256
6
ByLayer
370
13
48
1
60
0
100
AcDbLine
10
73.542946
20
1.491766
30
0
11
80.92615
21
21.777437
31
0
39
0
210
0
220
0
230
1
0
LINE
5
AA
100
AcDbEntity
8
SK2
62
256
6
ByLayer
370
13
48
1
60
0
100
AcDbLine
10
73.542946
20
-1.491766
30
0
11
80.92615
21
-21.777437
31
0
39
0
210
0
220
0
230
1
0
LINE
5
AB
100
AcDbEntity
8
1
62
256
6
ByLayer
370
13
48
1
60
0
100
AcDbLine
10
79.840259
20
18.793905
30
0
11
82.936855
21
17.977557
31
0
39
0
210
0
220
0
230
1
0
LINE
5
AC
100
AcDbEntity
8
1
62
256
6
ByLayer
370
13
48
1
60
0
100
AcDbLine
10
79.840259
20
18.793905
30
0
11
82.620058
21
17.203913
31
0
39
0
210
0
220
0
230
1
0
LINE
5
AD
100
AcDbEntity
8
1
62
256
6
ByLayer
370
13
48
1
60
0
100
AcDbLine
10
82.936855
20
17.977557
30
0
11
82.620058
21
17.203913
31
0
39
0
210
0
220
0
230
1
0
LINE
5
AE
100
AcDbEntity
8
1
62
256
6
ByLayer
370
13
48
1
60
0
100
AcDbLine
10
79.840259
20
-18.793905
30
0
11
82.620055
21
-17.203915
31
0
39
0
210
0
220
0
230
1
0
LINE
5
AF
100
AcDbEntity
8
1
62
256
6
ByLayer
370
13
48
1
60
0
100
AcDbLine
10
79.840259
20
-18.793905
30
0
11
82.936858
21
-17.977556
31
0
39
0
210
0
220
0
230
1
0
LINE
5
B0
100
AcDbEntity
8
1
62
256
6
ByLayer
370
13
48
1
60
0
100
AcDbLine
10
82.620055
20
-17.203915
30
0
11
82.936858
21
-17.977556
31
0
39
0
210
0
220
0
230
1
0
MTEXT
5
109
100
AcDbEntity
8
SK2
62
256
6
ByLayer
370
18
48
1
60
0
100
AcDbMText
10
86.717388
20
-2.467451
30
0
210
0
220
0
230
1
1
\W0.7237;140.00
40
3.50012
41
0
44
1.084337
50
0
71
7
72
5
7
iso_b_vert
0
MTEXT
5
10C
100
AcDbEntity
8
SK6
62
256
6
ByLayer
370
18
48
1
60
0
100
AcDbMText
10
-24.521112
20
-98.791186
30
0
210
0
220
0
230
1
1
\W0.7388;860.1-1040-052A1-GM X1BM
40
3.175
41
0
44
1.084337
50
0
71
7
72
5
7
iso_b_vert
0
DIMENSION
5
10F
100
AcDbEntity
8
SK2
62
256
6
ByLayer
370
18
48
1
60
0
100
AcDbDimension
2
_U0
10
73
20
-29.50012
30
0
11
36.5
21
-29.50012
31
0
70
32
71
2
72
1
41
1
210
0
220
0
230
1
3
Standard
100
AcDbAlignedDimension
13
0
23
-6
33
0
14
73
24
0
34
0
50
0
100
AcDbRotatedDimension
1001
ACAD
1000
DSTYLE
1002
{
1070
   371
1070
    13
1070
   372
1070
    13
1070
     3
1000

1070
   170
1070
     0
1070
   144
1040
1.0
1070
   277
1070
     2
1070
   284
1070
     8
1070
   278
1070
    46
1070
   146
1040
0.999966
1070
   345
1005
16
1070
   347
1005
16
1070
   346
1005
16
1070
   344
1005
110
1070
   343
1005
110
1070
   172
1070
     1
1070
    76
1070
     0
1070
    75
1070
     0
1070
   282
1070
     0
1070
   281
1070
     0
1070
    71
1070
     0
1070
    74
1070
     0
1070
   279
1070
     0
1070
   173
1070
     1
1070
   340
1005
10A
1070
   271
1070
     1
1070
   272
1070
     2
1070
    77
1070
     1
1070
    73
1070
     1
1070
   171
1070
     3
1070
   274
1070
     4
1070
   177
1070
   150
1070
   176
1070
     9
1070
   178
1070
    43
1070
    78
1070
     8
1070
    48
1040
-0.1
1070
    41
1040
3.175
1070
   147
1040
1.75006
1070
    42
1040
1.5875
1070
    44
1040
3.175
1070
   140
1040
3.50012
1002
}
1001
ACAD_DSTYLE_DIM_LINETYPE
1070
   380
1005
16
1001
ACAD_DSTYLE_DIM_EXT1_LINETYPE
1070
   381
1005
16
1001
ACAD_DSTYLE_DIM_EXT2_LINETYPE
1070
   382
1005
16
0
DIMENSION
5
135
100
AcDbEntity
8
2
62
256
6
ByLayer
370
18
48
1
60
0
100
AcDbDimension
2
_U1
10
79.75006
20
5.2
30
0
11
79.75006
21
22.273284
31
0
70
32
71
1
72
1
41
1
210
0
220
0
230
1
3
Standard
100
AcDbAlignedDimension
13
71.1074
23
-5.2
33
0
14
71.1074
24
5.2
34
0
50
90
100
AcDbRotatedDimension
1001
ACAD
1000
DSTYLE
1002
{
1070
   371
1070
    13
1070
   372
1070
    13
1070
     3
1000

1070
   170
1070
     0
1070
   144
1040
1.0
1070
   277
1070
     2
1070
   284
1070
     8
1070
   278
1070
    46
1070
   146
1040
0.999966
1070
   345
1005
16
1070
   347
1005
16
1070
   346
1005
16
1070
   344
1005
110
1070
   343
1005
110
1070
   172
1070
     1
1070
    76
1070
     0
1070
    75
1070
     0
1070
   282
1070
     0
1070
   281
1070
     0
1070
    71
1070
     0
1070
    74
1070
     0
1070
   279
1070
     0
1070
   173
1070
     1
1070
   340
1005
10A
1070
   271
1070
     1
1070
   272
1070
     2
1070
    77
1070
     1
1070
    73
1070
     0
1070
   171
1070
     3
1070
   274
1070
     4
1070
   177
1070
   150
1070
   176
1070
     9
1070
   178
1070
    43
1070
    78
1070
     8
1070
    48
1040
-0.1
1070
    41
1040
3.175
1070
   147
1040
1.75006
1070
    42
1040
1.5875
1070
    44
1040
3.175
1070
   140
1040
3.50012
1002
}
1001
ACAD_DSTYLE_DIM_LINETYPE
1070
   380
1005
16
1001
ACAD_DSTYLE_DIM_EXT1_LINETYPE
1070
   381
1005
16
1001
ACAD_DSTYLE_DIM_EXT2_LINETYPE
1070
   382
1005
16
0
DIMENSION
5
154
100
AcDbEntity
8
SK2
62
256
6
ByLayer
370
18
48
1
60
0
100
AcDbDimension
2
_U2
10
-48.24994
20
-6
30
0
11
-48.24994
21
20.97767
31
0
70
32
71
1
72
1
41
1
210
0
220
0
230
1
3
Standard
100
AcDbAlignedDimension
13
-45
23
6
33
0
14
-45
24
-6
34
0
50
90
100
AcDbRotatedDimension
1001
ACAD
1000
DSTYLE
1002
{
1070
   371
1070
    13
1070
   372
1070
    13
1070
     3
1000

1070
   170
1070
     0
1070
   144
1040
1.0
1070
   277
1070
     2
1070
   284
1070
     8
1070
   278
1070
    46
1070
   146
1040
0.999966
1070
   345
1005
16
1070
   347
1005
16
1070
   346
1005
16
1070
   344
1005
110
1070
   343
1005
110
1070
   172
1070
     1
1070
    76
1070
     0
1070
    75
1070
     0
1070
   282
1070
     0
1070
   281
1070
     0
1070
    71
1070
     0
1070
    74
1070
     0
1070
   279
1070
     0
1070
   173
1070
     1
1070
   340
1005
10A
1070
   271
1070
     1
1070
   272
1070
     2
1070
    77
1070
     1
1070
    73
1070
     0
1070
   171
1070
     3
1070
   274
1070
     4
1070
   177
1070
   150
1070
   176
1070
     9
1070
   178
1070
    43
1070
    78
1070
     8
1070
    48
1040
-0.1
1070
    41
1040
3.175
1070
   147
1040
1.75006
1070
    42
1040
1.5875
1070
    44
1040
3.175
1070
   140
1040
3.50012
1002
}
1001
ACAD_DSTYLE_DIM_LINETYPE
1070
   380
1005
16
1001
ACAD_DSTYLE_DIM_EXT1_LINETYPE
1070
   381
1005
16
1001
ACAD_DSTYLE_DIM_EXT2_LINETYPE
1070
   382
1005
16
0
DIMENSION
5
172
100
AcDbEntity
8
SK2
62
256
6
ByLayer
370
18
48
1
60
0
100
AcDbDimension
2
_U3
10
0
20
-29.50012
30
0
11
-22.5
21
-29.50012
31
0
70
32
71
1
72
1
41
1
210
0
220
0
230
1
3
Standard
100
AcDbAlignedDimension
13
-45
23
-6
33
0
14
0
24
-6
34
0
50
0
100
AcDbRotatedDimension
1001
ACAD
1000
DSTYLE
1002
{
1070
   371
1070
    13
1070
   372
1070
    13
1070
     3
1000

1070
   170
1070
     0
1070
   144
1040
1.0
1070
   277
1070
     2
1070
   284
1070
     8
1070
   278
1070
    46
1070
   146
1040
0.999966
1070
   345
1005
16
1070
   347
1005
16
1070
   346
1005
16
1070
   344
1005
110
1070
   343
1005
110
1070
   172
1070
     1
1070
    76
1070
     0
1070
    75
1070
     0
1070
   282
1070
     0
1070
   281
1070
     0
1070
    71
1070
     0
1070
    74
1070
     0
1070
   279
1070
     0
1070
   173
1070
     1
1070
   340
1005
10A
1070
   271
1070
     1
1070
   272
1070
     2
1070
    77
1070
     1
1070
    73
1070
     1
1070
   171
1070
     3
1070
   274
1070
     4
1070
   177
1070
   150
1070
   176
1070
     9
1070
   178
1070
    43
1070
    78
1070
     8
1070
    48
1040
-0.1
1070
    41
1040
3.175
1070
   147
1040
1.75006
1070
    42
1040
1.5875
1070
    44
1040
3.175
1070
   140
1040
3.50012
1002
}
1001
ACAD_DSTYLE_DIM_LINETYPE
1070
   380
1005
16
1001
ACAD_DSTYLE_DIM_EXT1_LINETYPE
1070
   381
1005
16
1001
ACAD_DSTYLE_DIM_EXT2_LINETYPE
1070
   382
1005
16
0
DIMENSION
5
18E
100
AcDbEntity
8
SK2
62
256
6
ByLayer
370
18
48
1
60
0
100
AcDbDimension
2
_U4
10
73
20
-20.74982
30
0
11
37.5
21
-20.74982
31
0
70
32
71
1
72
1
41
1
210
0
220
0
230
1
3
Standard
100
AcDbAlignedDimension
13
2
23
5.7
33
0
14
73
24
0
34
0
50
0
100
AcDbRotatedDimension
1001
ACAD
1000
DSTYLE
1002
{
1070
   371
1070
    13
1070
   372
1070
    13
1070
     3
1000

1070
   170
1070
     0
1070
   144
1040
1.0
1070
   277
1070
     2
1070
   284
1070
     8
1070
   278
1070
    46
1070
   146
1040
0.999966
1070
   345
1005
16
1070
   347
1005
16
1070
   346
1005
16
1070
   344
1005
110
1070
   343
1005
110
1070
   172
1070
     1
1070
    76
1070
     0
1070
    75
1070
     0
1070
   282
1070
     0
1070
   281
1070
     0
1070
    71
1070
     0
1070
    74
1070
     0
1070
   279
1070
     0
1070
   173
1070
     1
1070
   340
1005
10A
1070
   271
1070
     1
1070
   272
1070
     2
1070
    77
1070
     1
1070
    73
1070
     1
1070
   171
1070
     3
1070
   274
1070
     4
1070
   177
1070
   150
1070
   176
1070
     9
1070
   178
1070
    43
1070
    78
1070
     8
1070
    48
1040
-0.1
1070
    41
1040
3.175
1070
   147
1040
1.75006
1070
    42
1040
1.5875
1070
    44
1040
3.175
1070
   140
1040
3.50012
1002
}
1001
ACAD_DSTYLE_DIM_LINETYPE
1070
   380
1005
16
1001
ACAD_DSTYLE_DIM_EXT1_LINETYPE
1070
   381
1005
16
1001
ACAD_DSTYLE_DIM_EXT2_LINETYPE
1070
   382
1005
16
0
DIMENSION
5
1AA
100
AcDbEntity
8
SK2
62
256
6
ByLayer
370
18
48
1
60
0
100
AcDbDimension
2
_U5
10
73
20
-12.82
30
0
11
46.1
21
-12.82
31
0
70
32
71
1
72
1
41
1
210
0
220
0
230
1
3
Standard
100
AcDbAlignedDimension
13
19.2
23
-5.2
33
0
14
73
24
0
34
0
50
0
100
AcDbRotatedDimension
1001
ACAD
1000
DSTYLE
1002
{
1070
   371
1070
    13
1070
   372
1070
    13
1070
     3
1000

1070
   170
1070
     0
1070
   144
1040
1.0
1070
   277
1070
     2
1070
   284
1070
     8
1070
   278
1070
    46
1070
   146
1040
1.25
1070
   345
1005
16
1070
   347
1005
16
1070
   346
1005
16
1070
   344
1005
110
1070
   343
1005
110
1070
   172
1070
     1
1070
    76
1070
     0
1070
    75
1070
     0
1070
   282
1070
     0
1070
   281
1070
     0
1070
    71
1070
     0
1070
    74
1070
     0
1070
   279
1070
     0
1070
   173
1070
     1
1070
   340
1005
10A
1070
   271
1070
     1
1070
   272
1070
     2
1070
    77
1070
     1
1070
    73
1070
     1
1070
   171
1070
     3
1070
   274
1070
     4
1070
   177
1070
   150
1070
   176
1070
     9
1070
   178
1070
    43
1070
    78
1070
     8
1070
    48
1040
-0.1
1070
    41
1040
3.175
1070
   147
1040
0.42
1070
    42
1040
1.5875
1070
    44
1040
0.5
1070
   140
1040
2.8
1002
}
1001
ACAD_DSTYLE_DIM_LINETYPE
1070
   380
1005
16
1001
ACAD_DSTYLE_DIM_EXT1_LINETYPE
1070
   381
1005
16
1001
ACAD_DSTYLE_DIM_EXT2_LINETYPE
1070
   382
1005
16
0
DIMENSION
5
1C6
100
AcDbEntity
8
SK2
62
256
6
ByLayer
370
18
48
1
60
0
100
AcDbDimension
2
_U6
10
73
20
-39.50012
30
0
11
14
21
-39.50012
31
0
70
32
71
1
72
1
41
1
210
0
220
0
230
1
3
Standard
100
AcDbAlignedDimension
13
-45
23
0
33
0
14
73
24
0
34
0
50
0
100
AcDbRotatedDimension
1001
ACAD
1000
DSTYLE
1002
{
1070
   371
1070
    13
1070
   372
1070
    13
1070
     3
1000

1070
   170
1070
     0
1070
   144
1040
1.0
1070
   277
1070
     2
1070
   284
1070
     8
1070
   278
1070
    46
1070
   146
1040
0.999966
1070
   345
1005
16
1070
   347
1005
16
1070
   346
1005
16
1070
   344
1005
110
1070
   343
1005
110
1070
   172
1070
     1
1070
    76
1070
     0
1070
    75
1070
     0
1070
   282
1070
     0
1070
   281
1070
     0
1070
    71
1070
     0
1070
    74
1070
     0
1070
   279
1070
     0
1070
   173
1070
     1
1070
   340
1005
10A
1070
   271
1070
     1
1070
   272
1070
     2
1070
    77
1070
     1
1070
    73
1070
     1
1070
   171
1070
     3
1070
   274
1070
     4
1070
   177
1070
   150
1070
   176
1070
     9
1070
   178
1070
    43
1070
    78
1070
     8
1070
    48
1040
-0.1
1070
    41
1040
3.175
1070
   147
1040
1.75006
1070
    42
1040
1.5875
1070
    44
1040
3.175
1070
   140
1040
3.50012
1002
}
1001
ACAD_DSTYLE_DIM_LINETYPE
1070
   380
1005
16
1001
ACAD_DSTYLE_DIM_EXT1_LINETYPE
1070
   381
1005
16
1001
ACAD_DSTYLE_DIM_EXT2_LINETYPE
1070
   382
1005
16
0
ENDSEC
0
SECTION
2
OBJECTS
0
DICTIONARY
5
252
330
0
100
AcDbDictionary
280
0
281
1
3
ACAD_GROUP
350
253
3
ACAD_MLINESTYLE
350
254
0
DICTIONARY
5
253
330
0
100
AcDbDictionary
280
0
281
1
0
DICTIONARY
5
254
330
0
100
AcDbDictionary
280
0
281
1
3
Standard
350
18
0
MLINESTYLE
5
18
330
254
100
AcDbMlineStyle
2
Standard
70
0
3

62
256
51
90
52
90
71
2
49
-0.5
62
256
6
ByLayer
49
0.5
62
256
6
ByLayer
0
RASTERVARIABLES
5
240
330

100
AcDbRasterVariables
90
0
70
1
71
1
72
1
0
ENDSEC
0
EOF
