0
SECTION
2
HEADER
9
$ACADVER
1
AC1015
9
$DWGCODEPAGE
3
ANSI_1252
9
$HANDSEED
5
260
9
$ANGBASE
50
0
9
$ANGDIR
70
0
9
$ATTMODE
70
1
9
$AUNITS
70
0
9
$AUPREC
70
0
9
$CECOLOR
62
256
9
$CELTSCALE
40
1
9
$CELTYPE
6
ByLayer
9
$CELWEIGHT
370
18
9
$CLAYER
8
0
9
$CMLJUST
70
0
9
$CMLSCALE
40
1
9
$CMLSTYLE
2
Standard
9
$DIMSTYLE
2
Standard
9
$TEXTSIZE
40
0.2
9
$TEXTSTYLE
7
Standard
9
$LUNITS
70
2
9
$LUPREC
70
4
9
$EXTNAMES
290
1
9
$INSUNITS
70
4
9
$LTSCALE
40
1
9
$LWDISPLAY
290
1
9
$PDMODE
70
0
9
$PDSIZE
40
0
9
$PLINEGEN
70
0
0
ENDSEC
0
SECTION
2
CLASSES
0
CLASS
1
RASTERVARIABLES
2
AcDbRasterVariables
3
ISM
90
0
280
0
281
0
0
ENDSEC
0
SECTION
2
TABLES
0
TABLE
2
VPORT
5
256
100
AcDbSymbolTable
0
VPORT
5
1
100
AcDbSymbolTableRecord
100
AcDbViewportTableRecord
2
*Active
70
0
10
0
20
0
11
1
21
1
12
-1
22
1
13
0
23
0
14
0.5
24
0.5
15
10
25
10
16
0
26
0
36
1
17
0
27
0
37
0
0
ENDTAB
0
TABLE
2
LTYPE
5
257
100
AcDbSymbolTable
0
LTYPE
5
14
100
AcDbSymbolTableRecord
100
AcDbLinetypeTableRecord
70
0
2
ByBlock
3

72
65
73
0
40
0
0
LTYPE
5
15
100
AcDbSymbolTableRecord
100
AcDbLinetypeTableRecord
70
0
2
ByLayer
3

72
65
73
0
40
0
0
LTYPE
5
16
100
AcDbSymbolTableRecord
100
AcDbLinetypeTableRecord
70
0
2
Continuous
3
Solid line
72
65
73
0
40
0
0
LTYPE
5
6E
100
AcDbSymbolTableRecord
100
AcDbLinetypeTableRecord
70
0
2
CENTER
3
____ _ ____ _ ____ _ ____
72
65
73
4
40
47.5
49
22
74
0
49
-8.5
74
0
49
8.5
74
0
49
-8.5
74
0
0
LTYPE
5
6F
100
AcDbSymbolTableRecord
100
AcDbLinetypeTableRecord
70
0
2
DASHED
3
__ __ __ __ __ __ __ __ __
72
65
73
2
40
25.72
49
12.86
74
0
49
-12.86
74
0
0
ENDTAB
0
TABLE
2
LAYER
5
258
100
AcDbSymbolTable
0
LAYER
5
10
100
AcDbSymbolTableRecord
100
AcDbLayerTableRecord
2
0
70
0
62
7
6
Continuous
290
1
370
-3
390
0
0
LAYER
5
71
100
AcDbSymbolTableRecord
100
AcDbLayerTableRecord
2
80
70
0
62
-6
6
Continuous
290
1
370
-3
390
0
0
LAYER
5
73
100
AcDbSymbolTableRecord
100
AcDbLayerTableRecord
2
81
70
0
62
-3
6
Continuous
290
1
370
-3
390
0
0
LAYER
5
75
100
AcDbSymbolTableRecord
100
AcDbLayerTableRecord
2
1
70
0
62
4
6
Continuous
290
1
370
-3
390
0
0
LAYER
5
A5
100
AcDbSymbolTableRecord
100
AcDbLayerTableRecord
2
4
70
0
62
-2
6
CENTER
290
1
370
-3
390
0
0
LAYER
5
11A
100
AcDbSymbolTableRecord
100
AcDbLayerTableRecord
2
Defpoints
70
0
62
7
6
Continuous
290
0
370
-3
390
0
0
LAYER
5
147
100
AcDbSymbolTableRecord
100
AcDbLayerTableRecord
2
2
70
0
62
7
6
Continuous
290
1
370
-3
390
0
0
LAYER
5
242
100
AcDbSymbolTableRecord
100
AcDbLayerTableRecord
2
SK1
70
0
62
4
6
Continuous
290
1
370
-3
390
0
0
LAYER
5
243
100
AcDbSymbolTableRecord
100
AcDbLayerTableRecord
2
SK4
70
0
62
2
6
CENTER
290
1
370
-3
390
0
0
LAYER
5
244
100
AcDbSymbolTableRecord
100
AcDbLayerTableRecord
2
SK2
70
0
62
7
6
Continuous
290
1
370
-3
390
0
0
LAYER
5
245
100
AcDbSymbolTableRecord
100
AcDbLayerTableRecord
2
SK6
70
0
62
5
6
Continuous
290
1
370
-3
390
0
0
ENDTAB
0
TABLE
2
STYLE
5
259
100
AcDbSymbolTable
0
STYLE
5
11
100
AcDbSymbolTableRecord
100
AcDbTextStyleTableRecord
2
Standard
3
txt
70
0
71
0
40
0
41
1
42
0
50
0
0
STYLE
5
10B
100
AcDbSymbolTableRecord
100
AcDbTextStyleTableRecord
2
iso_b_vert
3
simplex.shx
70
0
71
0
40
0
41
1
42
0
50
0
0
STYLE
5
10C
100
AcDbSymbolTableRecord
100
AcDbTextStyleTableRecord
2
DWGDirectTextStyle
3
simplex
70
0
71
0
40
0
41
1
42
0
50
0
0
ENDTAB
0
TABLE
2
DIMSTYLE
5
25a
100
AcDbSymbolTable
100
AcDbDimStyleTable
0
DIMSTYLE
105
27
100
AcDbSymbolTableRecord
100
AcDbDimStyleTableRecord
2
Standard
70
0
3
<>
41
0.18
42
0.0625
44
0.18
140
0.18
147
0.09
73
0
74
0
77
1
271
2
275
0
278
52
280
0
340
11
0
ENDTAB
0
TABLE
2
VIEW
5
25b
100
AcDbSymbolTable
0
ENDTAB
0
TABLE
2
UCS
5
25c
100
AcDbSymbolTable
0
ENDTAB
0
TABLE
2
APPID
5
25d
100
AcDbSymbolTable
0
APPID
5
12
100
AcDbSymbolTableRecord
100
AcDbRegAppTableRecord
2
ACAD
70
0
0
APPID
5
10F
100
AcDbSymbolTableRecord
100
AcDbRegAppTableRecord
2
ACAD_DSTYLE_DIMBREAK
70
0
0
APPID
5
201
100
AcDbSymbolTableRecord
100
AcDbRegAppTableRecord
2
ACAD_DSTYLE_DIM_LINETYPE
70
0
0
APPID
5
202
100
AcDbSymbolTableRecord
100
AcDbRegAppTableRecord
2
ACAD_DSTYLE_DIM_EXT1_LINETYPE
70
0
0
APPID
5
203
100
AcDbSymbolTableRecord
100
AcDbRegAppTableRecord
2
ACAD_DSTYLE_DIM_EXT2_LINETYPE
70
0
0
APPID
5
23E
100
AcDbSymbolTableRecord
100
AcDbRegAppTableRecord
2
ACAD_MLEADERVER
70
0
0
ENDTAB
0
TABLE
2
BLOCK_RECORD
5
25e
100
AcDbSymbolTable
0
BLOCK_RECORD
5
1F
100
AcDbSymbolTableRecord
100
AcDbBlockTableRecord
2
*Model_Space
340
0
70
0
0
BLOCK_RECORD
5
1B
100
AcDbSymbolTableRecord
100
AcDbBlockTableRecord
2
*Paper_Space
340
0
70
0
0
BLOCK_RECORD
5
23
100
AcDbSymbolTableRecord
100
AcDbBlockTableRecord
2
*Paper_Space0
340
0
70
0
0
BLOCK_RECORD
5
111
100
AcDbSymbolTableRecord
100
AcDbBlockTableRecord
2
_Closed
340
0
70
0
0
BLOCK_RECORD
5
11B
100
AcDbSymbolTableRecord
100
AcDbBlockTableRecord
2
*D2
340
0
70
0
0
BLOCK_RECORD
5
127
100
AcDbSymbolTableRecord
100
AcDbBlockTableRecord
2
_U0
340
0
70
0
0
BLOCK_RECORD
5
139
100
AcDbSymbolTableRecord
100
AcDbBlockTableRecord
2
*D4
340
0
70
0
0
BLOCK_RECORD
5
148
100
AcDbSymbolTableRecord
100
AcDbBlockTableRecord
2
_U1
340
0
70
0
0
BLOCK_RECORD
5
158
100
AcDbSymbolTableRecord
100
AcDbBlockTableRecord
2
*D6
340
0
70
0
0
BLOCK_RECORD
5
166
100
AcDbSymbolTableRecord
100
AcDbBlockTableRecord
2
_U2
340
0
70
0
0
BLOCK_RECORD
5
176
100
AcDbSymbolTableRecord
100
AcDbBlockTableRecord
2
*D8
340
0
70
0
0
BLOCK_RECORD
5
182
100
AcDbSymbolTableRecord
100
AcDbBlockTableRecord
2
_U3
340
0
70
0
0
BLOCK_RECORD
5
192
100
AcDbSymbolTableRecord
100
AcDbBlockTableRecord
2
*D10
340
0
70
0
0
BLOCK_RECORD
5
19E
100
AcDbSymbolTableRecord
100
AcDbBlockTableRecord
2
_U4
340
0
70
0
0
BLOCK_RECORD
5
1AE
100
AcDbSymbolTableRecord
100
AcDbBlockTableRecord
2
*D12
340
0
70
0
0
BLOCK_RECORD
5
1BA
100
AcDbSymbolTableRecord
100
AcDbBlockTableRecord
2
_U5
340
0
70
0
0
BLOCK_RECORD
5
1CA
100
AcDbSymbolTableRecord
100
AcDbBlockTableRecord
2
*D14
340
0
70
0
0
BLOCK_RECORD
5
1D6
100
AcDbSymbolTableRecord
100
AcDbBlockTableRecord
2
_U6
340
0
70
0
0
ENDTAB
0
ENDSEC
0
SECTION
2
BLOCKS
0
BLOCK
5
20
100
AcDbEntity
8
0
100
AcDbBlockBegin
2
*Model_Space
70
0
10
0
20
0
30
0
3
*Model_Space
0
ENDBLK
5
21
100
AcDbEntity
8
0
100
AcDbBlockEnd
0
BLOCK
5
1C
100
AcDbEntity
8
0
100
AcDbBlockBegin
2
*Paper_Space
70
0
10
0
20
0
30
0
3
*Paper_Space
0
ENDBLK
5
1D
100
AcDbEntity
8
0
100
AcDbBlockEnd
0
BLOCK
5
24
100
AcDbEntity
8
0
100
AcDbBlockBegin
2
*Paper_Space0
70
0
10
0
20
0
30
0
3
*Paper_Space0
0
ENDBLK
5
25
100
AcDbEntity
8
0
100
AcDbBlockEnd
0
BLOCK
5
112
100
AcDbEntity
8
0
100
AcDbBlockBegin
2
_Closed
70
0
10
0
20
0
30
0
3
_Closed
0
LINE
5
114
100
AcDbEntity
8
0
62
256
6
ByLayer
370
-2
48
1
60
0
100
AcDbLine
10
-1
20
0.166667
30
0
11
0
21
0
31
0
39
0
210
0
220
0
230
1
0
LINE
5
115
100
AcDbEntity
8
0
62
256
6
ByLayer
370
-2
48
1
60
0
100
AcDbLine
10
0
20
0
30
0
11
-1
21
-0.166667
31
0
39
0
210
0
220
0
230
1
0
LINE
5
116
100
AcDbEntity
8
0
62
256
6
ByLayer
370
-2
48
1
60
0
100
AcDbLine
10
-1
20
0.166667
30
0
11
-1
21
-0.166667
31
0
39
0
210
0
220
0
230
1
0
LINE
5
117
100
AcDbEntity
8
0
62
256
6
ByLayer
370
-2
48
1
60
0
100
AcDbLine
10
0
20
0
30
0
11
-1
21
0
31
0
39
0
210
0
220
0
230
1
0
ENDBLK
5
113
100
AcDbEntity
8
0
100
AcDbBlockEnd
0
BLOCK
5
11C
100
AcDbEntity
8
0
100
AcDbBlockBegin
2
*D2
70
1
10
0
20
0
30
0
3
*D2
0
LINE
5
11E
100
AcDbEntity
8
0
62
256
6
ByLayer
370
-2
48
1
60
0
100
AcDbLine
10
0
20
-7.5875
30
0
11
0
21
-32.67512
31
0
39
0
210
0
220
0
230
1
0
LINE
5
11F
100
AcDbEntity
8
0
62
256
6
ByLayer
370
-2
48
1
60
0
100
AcDbLine
10
73
20
-1.5875
30
0
11
73
21
-32.67512
31
0
39
0
210
0
220
0
230
1
0
LINE
5
120
100
AcDbEntity
8
0
62
256
6
ByLayer
370
-2
48
1
60
0
100
AcDbLine
10
3.175
20
-29.50012
30
0
11
69.825
21
-29.50012
31
0
39
0
210
0
220
0
230
1
0
SOLID
5
121
100
AcDbEntity
8
0
62
256
6
ByLayer
370
-1
48
1
60
0
100
AcDbTrace
10
3.175
20
-28.970953
30
0
11
3.175
21
-30.029287
31
0
12
0
22
-29.50012
32
0
13
0
23
-29.50012
33
0
39
0
210
0
220
0
230
1
0
SOLID
5
122
100
AcDbEntity
8
0
62
256
6
ByLayer
370
-1
48
1
60
0
100
AcDbTrace
10
69.825
20
-30.029287
30
0
11
69.825
21
-28.970953
31
0
12
73
22
-29.50012
32
0
13
73
23
-29.50012
33
0
39
0
210
0
220
0
230
1
0
MTEXT
5
123
100
AcDbEntity
8
0
62
256
6
ByLayer
370
18
48
1
60
0
100
AcDbMText
10
36.5
20
-22.193619
30
0
210
0
220
0
230
1
1
\A1;73
40
3.50012
41
0
44
1
50
0
71
5
72
5
7
iso_b_vert
0
POINT
5
124
100
AcDbEntity
8
Defpoints
62
0
6
ByLayer
370
-1
48
1
60
0
100
AcDbPoint
10
0
20
-6
30
0
39
0
210
0
220
0
230
1
50
360
0
POINT
5
125
100
AcDbEntity
8
Defpoints
62
0
6
ByLayer
370
-1
48
1
60
0
100
AcDbPoint
10
73
20
0
30
0
39
0
210
0
220
0
230
1
50
360
0
POINT
5
126
100
AcDbEntity
8
Defpoints
62
0
6
ByLayer
370
-1
48
1
60
0
100
AcDbPoint
10
73
20
-29.50012
30
0
39
0
210
0
220
0
230
1
50
360
0
ENDBLK
5
11D
100
AcDbEntity
8
0
100
AcDbBlockEnd
0
BLOCK
5
134
100
AcDbEntity
8
0
100
AcDbBlockBegin
2
_U0
70
0
10
0
20
0
30
0
3
_U0
0
MTEXT
5
128
100
AcDbEntity
8
SK2
62
256
6
ByLayer
370
18
48
1
60
0
100
AcDbMText
10
31.270389
20
-28.467451
30
0
210
0
220
0
230
1
1
\W0.7468;73.00
40
3.50012
41
0
44
1.084337
50
0
71
7
72
5
7
iso_b_vert
0
MTEXT
5
129
100
AcDbEntity
8
SK2
62
256
6
ByLayer
370
18
48
1
60
0
100
AcDbMText
10
27.744329
20
-28.400814
30
0
210
0
220
0
230
1
1
\W0.1790;(
40
3.175
41
0
44
1.084337
50
0
71
7
72
5
7
iso_b_vert
0
MTEXT
5
12A
100
AcDbEntity
8
SK2
62
256
6
ByLayer
370
18
48
1
60
0
100
AcDbMText
10
45.258393
20
-28.400814
30
0
210
0
220
0
230
1
1
\W0.1969;)
40
3.175
41
0
44
1.084337
50
0
71
7
72
5
7
iso_b_vert
0
LINE
5
12B
100
AcDbEntity
8
SK2
62
256
6
ByLayer
370
13
48
1
60
0
100
AcDbLine
10
0
20
-7.5875
30
0
11
0
21
-32.67512
31
0
39
0
210
0
220
0
230
1
0
LINE
5
12C
100
AcDbEntity
8
SK2
62
256
6
ByLayer
370
13
48
1
60
0
100
AcDbLine
10
73
20
-1.5875
30
0
11
73
21
-32.67512
31
0
39
0
210
0
220
0
230
1
0
LINE
5
12D
100
AcDbEntity
8
SK2
62
256
6
ByLayer
370
13
48
1
60
0
100
AcDbLine
10
0
20
-29.50012
30
0
11
73
21
-29.50012
31
0
39
0
210
0
220
0
230
1
0
LINE
5
12E
100
AcDbEntity
8
SK2
62
256
6
ByLayer
370
13
48
1
60
0
100
AcDbLine
10
0
20
-29.50012
30
0
11
3.174998
21
-29.082123
31
0
39
0
210
0
220
0
230
1
0
LINE
5
12F
100
AcDbEntity
8
SK2
62
256
6
ByLayer
370
13
48
1
60
0
100
AcDbLine
10
0
20
-29.50012
30
0
11
3.175002
21
-29.918117
31
0
39
0
210
0
220
0
230
1
0
LINE
5
130
100
AcDbEntity
8
SK2
62
256
6
ByLayer
370
13
48
1
60
0
100
AcDbLine
10
3.174998
20
-29.082123
30
0
11
3.175002
21
-29.918117
31
0
39
0
210
0
220
0
230
1
0
LINE
5
131
100
AcDbEntity
8
SK2
62
256
6
ByLayer
370
13
48
1
60
0
100
AcDbLine
10
73
20
-29.50012
30
0
11
69.825002
21
-29.918117
31
0
39
0
210
0
220
0
230
1
0
LINE
5
132
100
AcDbEntity
8
SK2
62
256
6
ByLayer
370
13
48
1
60
0
100
AcDbLine
10
73
20
-29.50012
30
0
11
69.824998
21
-29.082123
31
0
39
0
210
0
220
0
230
1
0
LINE
5
133
100
AcDbEntity
8
SK2
62
256
6
ByLayer
370
13
48
1
60
0
100
AcDbLine
10
69.825002
20
-29.918117
30
0
11
69.824998
21
-29.082123
31
0
39
0
210
0
220
0
230
1
0
ENDBLK
5
135
100
AcDbEntity
8
0
100
AcDbBlockEnd
0
BLOCK
5
13A
100
AcDbEntity
8
0
100
AcDbBlockBegin
2
*D4
70
1
10
0
20
0
30
0
3
*D4
0
LINE
5
13C
100
AcDbEntity
8
0
62
256
6
ByLayer
370
-2
48
1
60
0
100
AcDbLine
10
72.7131
20
-5.15
30
0
11
82.92506
21
-5.15
31
0
39
0
210
0
220
0
230
1
0
LINE
5
13D
100
AcDbEntity
8
0
62
256
6
ByLayer
370
-2
48
1
60
0
100
AcDbLine
10
72.7131
20
5.15
30
0
11
82.92506
21
5.15
31
0
39
0
210
0
220
0
230
1
0
LINE
5
13E
100
AcDbEntity
8
0
62
256
6
ByLayer
370
-2
48
1
60
0
100
AcDbLine
10
79.75006
20
5.15
30
0
11
79.75006
21
32.779896
31
0
39
0
210
0
220
0
230
1
0
LINE
5
13F
100
AcDbEntity
8
0
62
256
6
ByLayer
370
-2
48
1
60
0
100
AcDbLine
10
79.75006
20
-8.325
30
0
11
79.75006
21
-11.5
31
0
39
0
210
0
220
0
230
1
0
LINE
5
140
100
AcDbEntity
8
0
62
256
6
ByLayer
370
-2
48
1
60
0
100
AcDbLine
10
79.75006
20
8.325
30
0
11
79.75006
21
11.5
31
0
39
0
210
0
220
0
230
1
0
SOLID
5
141
100
AcDbEntity
8
0
62
256
6
ByLayer
370
-1
48
1
60
0
100
AcDbTrace
10
80.279227
20
-8.325
30
0
11
79.220893
21
-8.325
31
0
12
79.75006
22
-5.15
32
0
13
79.75006
23
-5.15
33
0
39
0
210
0
220
0
230
1
0
SOLID
5
142
100
AcDbEntity
8
0
62
256
6
ByLayer
370
-1
48
1
60
0
100
AcDbTrace
10
79.220893
20
8.325
30
0
11
80.279227
21
8.325
31
0
12
79.75006
22
5.15
32
0
13
79.75006
23
5.15
33
0
39
0
210
0
220
0
230
1
0
MTEXT
5
143
100
AcDbEntity
8
0
62
256
6
ByLayer
370
18
48
1
60
0
100
AcDbMText
10
72.44356
20
22.139948
30
0
210
0
220
0
230
1
1
\A1;10.3
40
3.50012
41
0
44
1
50
90
71
5
72
5
7
iso_b_vert
0
POINT
5
144
100
AcDbEntity
8
Defpoints
62
0
6
ByLayer
370
-1
48
1
60
0
100
AcDbPoint
10
71.1256
20
-5.15
30
0
39
0
210
0
220
0
230
1
50
360
0
POINT
5
145
100
AcDbEntity
8
Defpoints
62
0
6
ByLayer
370
-1
48
1
60
0
100
AcDbPoint
10
71.1256
20
5.15
30
0
39
0
210
0
220
0
230
1
50
360
0
POINT
5
146
100
AcDbEntity
8
Defpoints
62
0
6
ByLayer
370
-1
48
1
60
0
100
AcDbPoint
10
79.75006
20
5.15
30
0
39
0
210
0
220
0
230
1
50
360
0
ENDBLK
5
13B
100
AcDbEntity
8
0
100
AcDbBlockEnd
0
BLOCK
5
153
100
AcDbEntity
8
0
100
AcDbBlockBegin
2
_U1
70
0
10
0
20
0
30
0
3
_U1
0
MTEXT
5
149
100
AcDbEntity
8
2
62
256
6
ByLayer
370
18
48
1
60
0
100
AcDbMText
10
79.060403
20
9.307505
30
0
210
0
220
0
230
1
1
\W0.6864;10.30
40
3.50012
41
0
44
1.084337
50
90
71
7
72
5
7
iso_b_vert
0
LINE
5
14A
100
AcDbEntity
8
2
62
256
6
ByLayer
370
13
48
1
60
0
100
AcDbLine
10
72.7131
20
-5.15
30
0
11
82.92506
21
-5.15
31
0
39
0
210
0
220
0
230
1
0
LINE
5
14B
100
AcDbEntity
8
2
62
256
6
ByLayer
370
13
48
1
60
0
100
AcDbLine
10
72.7131
20
5.15
30
0
11
82.92506
21
5.15
31
0
39
0
210
0
220
0
230
1
0
LINE
5
14C
100
AcDbEntity
8
2
62
256
6
ByLayer
370
13
48
1
60
0
100
AcDbLine
10
79.75006
20
-5.15
30
0
11
79.75006
21
19.105339
31
0
39
0
210
0
220
0
230
1
0
LINE
5
14D
100
AcDbEntity
8
2
62
256
6
ByLayer
370
13
48
1
60
0
100
AcDbLine
10
79.75006
20
-5.15
30
0
11
79.332063
21
-1.975002
31
0
39
0
210
0
220
0
230
1
0
LINE
5
14E
100
AcDbEntity
8
2
62
256
6
ByLayer
370
13
48
1
60
0
100
AcDbLine
10
79.75006
20
-5.15
30
0
11
80.168057
21
-1.974998
31
0
39
0
210
0
220
0
230
1
0
LINE
5
14F
100
AcDbEntity
8
2
62
256
6
ByLayer
370
13
48
1
60
0
100
AcDbLine
10
79.332063
20
-1.975002
30
0
11
80.168057
21
-1.974998
31
0
39
0
210
0
220
0
230
1
0
LINE
5
150
100
AcDbEntity
8
2
62
256
6
ByLayer
370
13
48
1
60
0
100
AcDbLine
10
79.75006
20
5.15
30
0
11
80.168057
21
1.975002
31
0
39
0
210
0
220
0
230
1
0
LINE
5
151
100
AcDbEntity
8
2
62
256
6
ByLayer
370
13
48
1
60
0
100
AcDbLine
10
79.75006
20
5.15
30
0
11
79.332063
21
1.974998
31
0
39
0
210
0
220
0
230
1
0
LINE
5
152
100
AcDbEntity
8
2
62
256
6
ByLayer
370
13
48
1
60
0
100
AcDbLine
10
80.168057
20
1.975002
30
0
11
79.332063
21
1.974998
31
0
39
0
210
0
220
0
230
1
0
ENDBLK
5
154
100
AcDbEntity
8
0
100
AcDbBlockEnd
0
BLOCK
5
159
100
AcDbEntity
8
0
100
AcDbBlockBegin
2
*D6
70
1
10
0
20
0
30
0
3
*D6
0
LINE
5
15B
100
AcDbEntity
8
0
62
256
6
ByLayer
370
-2
48
1
60
0
100
AcDbLine
10
-46.5875
20
6
30
0
11
-51.42494
21
6
31
0
39
0
210
0
220
0
230
1
0
LINE
5
15C
100
AcDbEntity
8
0
62
256
6
ByLayer
370
-2
48
1
60
0
100
AcDbLine
10
-46.5875
20
-6
30
0
11
-51.42494
21
-6
31
0
39
0
210
0
220
0
230
1
0
LINE
5
15D
100
AcDbEntity
8
0
62
256
6
ByLayer
370
-2
48
1
60
0
100
AcDbLine
10
-48.24994
20
6
30
0
11
-48.24994
21
29.117532
31
0
39
0
210
0
220
0
230
1
0
LINE
5
15E
100
AcDbEntity
8
0
62
256
6
ByLayer
370
-2
48
1
60
0
100
AcDbLine
10
-48.24994
20
9.175
30
0
11
-48.24994
21
12.35
31
0
39
0
210
0
220
0
230
1
0
LINE
5
15F
100
AcDbEntity
8
0
62
256
6
ByLayer
370
-2
48
1
60
0
100
AcDbLine
10
-48.24994
20
-9.175
30
0
11
-48.24994
21
-12.35
31
0
39
0
210
0
220
0
230
1
0
SOLID
5
160
100
AcDbEntity
8
0
62
256
6
ByLayer
370
-1
48
1
60
0
100
AcDbTrace
10
-48.779107
20
9.175
30
0
11
-47.720773
21
9.175
31
0
12
-48.24994
22
6
32
0
13
-48.24994
23
6
33
0
39
0
210
0
220
0
230
1
0
SOLID
5
161
100
AcDbEntity
8
0
62
256
6
ByLayer
370
-1
48
1
60
0
100
AcDbTrace
10
-47.720773
20
-9.175
30
0
11
-48.779107
21
-9.175
31
0
12
-48.24994
22
-6
32
0
13
-48.24994
23
-6
33
0
39
0
210
0
220
0
230
1
0
MTEXT
5
162
100
AcDbEntity
8
0
62
256
6
ByLayer
370
18
48
1
60
0
100
AcDbMText
10
-55.556441
20
20.97767
30
0
210
0
220
0
230
1
1
\A1;12
40
3.50012
41
0
44
1
50
90
71
5
72
5
7
iso_b_vert
0
POINT
5
163
100
AcDbEntity
8
Defpoints
62
0
6
ByLayer
370
-1
48
1
60
0
100
AcDbPoint
10
-45
20
6
30
0
39
0
210
0
220
0
230
1
50
360
0
POINT
5
164
100
AcDbEntity
8
Defpoints
62
0
6
ByLayer
370
-1
48
1
60
0
100
AcDbPoint
10
-45
20
-6
30
0
39
0
210
0
220
0
230
1
50
360
0
POINT
5
165
100
AcDbEntity
8
Defpoints
62
0
6
ByLayer
370
-1
48
1
60
0
100
AcDbPoint
10
-48.24994
20
-6
30
0
39
0
210
0
220
0
230
1
50
360
0
ENDBLK
5
15A
100
AcDbEntity
8
0
100
AcDbBlockEnd
0
BLOCK
5
171
100
AcDbEntity
8
0
100
AcDbBlockBegin
2
_U2
70
0
10
0
20
0
30
0
3
_U2
0
MTEXT
5
167
100
AcDbEntity
8
SK2
62
256
6
ByLayer
370
18
48
1
60
0
100
AcDbMText
10
-48.939597
20
16.157505
30
0
210
0
220
0
230
1
1
\W0.6864;12.00
40
3.50012
41
0
44
1.084337
50
90
71
7
72
5
7
iso_b_vert
0
LINE
5
168
100
AcDbEntity
8
SK2
62
256
6
ByLayer
370
13
48
1
60
0
100
AcDbLine
10
-46.5875
20
6
30
0
11
-51.42494
21
6
31
0
39
0
210
0
220
0
230
1
0
LINE
5
169
100
AcDbEntity
8
SK2
62
256
6
ByLayer
370
13
48
1
60
0
100
AcDbLine
10
-46.5875
20
-6
30
0
11
-51.42494
21
-6
31
0
39
0
210
0
220
0
230
1
0
LINE
5
16A
100
AcDbEntity
8
SK2
62
256
6
ByLayer
370
13
48
1
60
0
100
AcDbLine
10
-48.24994
20
-6
30
0
11
-48.24994
21
25.955339
31
0
39
0
210
0
220
0
230
1
0
LINE
5
16B
100
AcDbEntity
8
SK2
62
256
6
ByLayer
370
13
48
1
60
0
100
AcDbLine
10
-48.24994
20
6
30
0
11
-47.831943
21
2.825002
31
0
39
0
210
0
220
0
230
1
0
LINE
5
16C
100
AcDbEntity
8
SK2
62
256
6
ByLayer
370
13
48
1
60
0
100
AcDbLine
10
-48.24994
20
6
30
0
11
-48.667937
21
2.824998
31
0
39
0
210
0
220
0
230
1
0
LINE
5
16D
100
AcDbEntity
8
SK2
62
256
6
ByLayer
370
13
48
1
60
0
100
AcDbLine
10
-47.831943
20
2.825002
30
0
11
-48.667937
21
2.824998
31
0
39
0
210
0
220
0
230
1
0
LINE
5
16E
100
AcDbEntity
8
SK2
62
256
6
ByLayer
370
13
48
1
60
0
100
AcDbLine
10
-48.24994
20
-6
30
0
11
-48.667937
21
-2.825002
31
0
39
0
210
0
220
0
230
1
0
LINE
5
16F
100
AcDbEntity
8
SK2
62
256
6
ByLayer
370
13
48
1
60
0
100
AcDbLine
10
-48.24994
20
-6
30
0
11
-47.831943
21
-2.824998
31
0
39
0
210
0
220
0
230
1
0
LINE
5
170
100
AcDbEntity
8
SK2
62
256
6
ByLayer
370
13
48
1
60
0
100
AcDbLine
10
-48.667937
20
-2.825002
30
0
11
-47.831943
21
-2.824998
31
0
39
0
210
0
220
0
230
1
0
ENDBLK
5
172
100
AcDbEntity
8
0
100
AcDbBlockEnd
0
BLOCK
5
177
100
AcDbEntity
8
0
100
AcDbBlockBegin
2
*D8
70
1
10
0
20
0
30
0
3
*D8
0
LINE
5
179
100
AcDbEntity
8
0
62
256
6
ByLayer
370
-2
48
1
60
0
100
AcDbLine
10
-45
20
-7.5875
30
0
11
-45
21
-32.67512
31
0
39
0
210
0
220
0
230
1
0
LINE
5
17A
100
AcDbEntity
8
0
62
256
6
ByLayer
370
-2
48
1
60
0
100
AcDbLine
10
0
20
-7.5875
30
0
11
0
21
-32.67512
31
0
39
0
210
0
220
0
230
1
0
LINE
5
17B
100
AcDbEntity
8
0
62
256
6
ByLayer
370
-2
48
1
60
0
100
AcDbLine
10
-41.825
20
-29.50012
30
0
11
-3.175
21
-29.50012
31
0
39
0
210
0
220
0
230
1
0
SOLID
5
17C
100
AcDbEntity
8
0
62
256
6
ByLayer
370
-1
48
1
60
0
100
AcDbTrace
10
-41.825
20
-28.970953
30
0
11
-41.825
21
-30.029287
31
0
12
-45
22
-29.50012
32
0
13
-45
23
-29.50012
33
0
39
0
210
0
220
0
230
1
0
SOLID
5
17D
100
AcDbEntity
8
0
62
256
6
ByLayer
370
-1
48
1
60
0
100
AcDbTrace
10
-3.175
20
-30.029287
30
0
11
-3.175
21
-28.970953
31
0
12
0
22
-29.50012
32
0
13
0
23
-29.50012
33
0
39
0
210
0
220
0
230
1
0
MTEXT
5
17E
100
AcDbEntity
8
0
62
256
6
ByLayer
370
18
48
1
60
0
100
AcDbMText
10
-22.5
20
-22.193619
30
0
210
0
220
0
230
1
1
\A1;45
40
3.50012
41
0
44
1
50
0
71
5
72
5
7
iso_b_vert
0
POINT
5
17F
100
AcDbEntity
8
Defpoints
62
0
6
ByLayer
370
-1
48
1
60
0
100
AcDbPoint
10
-45
20
-6
30
0
39
0
210
0
220
0
230
1
50
360
0
POINT
5
180
100
AcDbEntity
8
Defpoints
62
0
6
ByLayer
370
-1
48
1
60
0
100
AcDbPoint
10
0
20
-6
30
0
39
0
210
0
220
0
230
1
50
360
0
POINT
5
181
100
AcDbEntity
8
Defpoints
62
0
6
ByLayer
370
-1
48
1
60
0
100
AcDbPoint
10
0
20
-29.50012
30
0
39
0
210
0
220
0
230
1
50
360
0
ENDBLK
5
178
100
AcDbEntity
8
0
100
AcDbBlockEnd
0
BLOCK
5
18D
100
AcDbEntity
8
0
100
AcDbBlockBegin
2
_U3
70
0
10
0
20
0
30
0
3
_U3
0
MTEXT
5
183
100
AcDbEntity
8
SK2
62
256
6
ByLayer
370
18
48
1
60
0
100
AcDbMText
10
-27.913884
20
-28.467451
30
0
210
0
220
0
230
1
1
\W0.7694;45.00
40
3.50012
41
0
44
1.084337
50
0
71
7
72
5
7
iso_b_vert
0
LINE
5
184
100
AcDbEntity
8
SK2
62
256
6
ByLayer
370
13
48
1
60
0
100
AcDbLine
10
-45
20
-7.5875
30
0
11
-45
21
-32.67512
31
0
39
0
210
0
220
0
230
1
0
LINE
5
185
100
AcDbEntity
8
SK2
62
256
6
ByLayer
370
13
48
1
60
0
100
AcDbLine
10
0
20
-7.5875
30
0
11
0
21
-32.67512
31
0
39
0
210
0
220
0
230
1
0
LINE
5
186
100
AcDbEntity
8
SK2
62
256
6
ByLayer
370
13
48
1
60
0
100
AcDbLine
10
-45
20
-29.50012
30
0
11
0
21
-29.50012
31
0
39
0
210
0
220
0
230
1
0
LINE
5
187
100
AcDbEntity
8
SK2
62
256
6
ByLayer
370
13
48
1
60
0
100
AcDbLine
10
-45
20
-29.50012
30
0
11
-41.825002
21
-29.082123
31
0
39
0
210
0
220
0
230
1
0
LINE
5
188
100
AcDbEntity
8
SK2
62
256
6
ByLayer
370
13
48
1
60
0
100
AcDbLine
10
-45
20
-29.50012
30
0
11
-41.824998
21
-29.918117
31
0
39
0
210
0
220
0
230
1
0
LINE
5
189
100
AcDbEntity
8
SK2
62
256
6
ByLayer
370
13
48
1
60
0
100
AcDbLine
10
-41.825002
20
-29.082123
30
0
11
-41.824998
21
-29.918117
31
0
39
0
210
0
220
0
230
1
0
LINE
5
18A
100
AcDbEntity
8
SK2
62
256
6
ByLayer
370
13
48
1
60
0
100
AcDbLine
10
0
20
-29.50012
30
0
11
-3.174998
21
-29.918117
31
0
39
0
210
0
220
0
230
1
0
LINE
5
18B
100
AcDbEntity
8
SK2
62
256
6
ByLayer
370
13
48
1
60
0
100
AcDbLine
10
0
20
-29.50012
30
0
11
-3.175002
21
-29.082123
31
0
39
0
210
0
220
0
230
1
0
LINE
5
18C
100
AcDbEntity
8
SK2
62
256
6
ByLayer
370
13
48
1
60
0
100
AcDbLine
10
-3.174998
20
-29.918117
30
0
11
-3.175002
21
-29.082123
31
0
39
0
210
0
220
0
230
1
0
ENDBLK
5
18E
100
AcDbEntity
8
0
100
AcDbBlockEnd
0
BLOCK
5
193
100
AcDbEntity
8
0
100
AcDbBlockBegin
2
*D10
70
1
10
0
20
0
30
0
3
*D10
0
LINE
5
195
100
AcDbEntity
8
0
62
256
6
ByLayer
370
-2
48
1
60
0
100
AcDbLine
10
2
20
4.0625
30
0
11
2
21
-23.92482
31
0
39
0
210
0
220
0
230
1
0
LINE
5
196
100
AcDbEntity
8
0
62
256
6
ByLayer
370
-2
48
1
60
0
100
AcDbLine
10
73
20
-1.5875
30
0
11
73
21
-23.92482
31
0
39
0
210
0
220
0
230
1
0
LINE
5
197
100
AcDbEntity
8
0
62
256
6
ByLayer
370
-2
48
1
60
0
100
AcDbLine
10
5.175
20
-20.74982
30
0
11
69.825
21
-20.74982
31
0
39
0
210
0
220
0
230
1
0
SOLID
5
198
100
AcDbEntity
8
0
62
256
6
ByLayer
370
-1
48
1
60
0
100
AcDbTrace
10
5.175
20
-20.220653
30
0
11
5.175
21
-21.278987
31
0
12
2
22
-20.74982
32
0
13
2
23
-20.74982
33
0
39
0
210
0
220
0
230
1
0
SOLID
5
199
100
AcDbEntity
8
0
62
256
6
ByLayer
370
-1
48
1
60
0
100
AcDbTrace
10
69.825
20
-21.278987
30
0
11
69.825
21
-20.220653
31
0
12
73
22
-20.74982
32
0
13
73
23
-20.74982
33
0
39
0
210
0
220
0
230
1
0
MTEXT
5
19A
100
AcDbEntity
8
0
62
256
6
ByLayer
370
18
48
1
60
0
100
AcDbMText
10
37.5
20
-13.443319
30
0
210
0
220
0
230
1
1
\A1;71
40
3.50012
41
0
44
1
50
0
71
5
72
5
7
iso_b_vert
0
POINT
5
19B
100
AcDbEntity
8
Defpoints
62
0
6
ByLayer
370
-1
48
1
60
0
100
AcDbPoint
10
2
20
5.65
30
0
39
0
210
0
220
0
230
1
50
360
0
POINT
5
19C
100
AcDbEntity
8
Defpoints
62
0
6
ByLayer
370
-1
48
1
60
0
100
AcDbPoint
10
73
20
0
30
0
39
0
210
0
220
0
230
1
50
360
0
POINT
5
19D
100
AcDbEntity
8
Defpoints
62
0
6
ByLayer
370
-1
48
1
60
0
100
AcDbPoint
10
73
20
-20.74982
30
0
39
0
210
0
220
0
230
1
50
360
0
ENDBLK
5
194
100
AcDbEntity
8
0
100
AcDbBlockEnd
0
BLOCK
5
1A9
100
AcDbEntity
8
0
100
AcDbBlockBegin
2
_U4
70
0
10
0
20
0
30
0
3
_U4
0
MTEXT
5
19F
100
AcDbEntity
8
SK2
62
256
6
ByLayer
370
18
48
1
60
0
100
AcDbMText
10
32.707837
20
-19.717151
30
0
210
0
220
0
230
1
1
\W0.6864;71.00
40
3.50012
41
0
44
1.084337
50
0
71
7
72
5
7
iso_b_vert
0
LINE
5
1A0
100
AcDbEntity
8
SK2
62
256
6
ByLayer
370
13
48
1
60
0
100
AcDbLine
10
2
20
4.0625
30
0
11
2
21
-23.92482
31
0
39
0
210
0
220
0
230
1
0
LINE
5
1A1
100
AcDbEntity
8
SK2
62
256
6
ByLayer
370
13
48
1
60
0
100
AcDbLine
10
73
20
-1.5875
30
0
11
73
21
-23.92482
31
0
39
0
210
0
220
0
230
1
0
LINE
5
1A2
100
AcDbEntity
8
SK2
62
256
6
ByLayer
370
13
48
1
60
0
100
AcDbLine
10
2
20
-20.74982
30
0
11
73
21
-20.74982
31
0
39
0
210
0
220
0
230
1
0
LINE
5
1A3
100
AcDbEntity
8
SK2
62
256
6
ByLayer
370
13
48
1
60
0
100
AcDbLine
10
2
20
-20.74982
30
0
11
5.174998
21
-20.331823
31
0
39
0
210
0
220
0
230
1
0
LINE
5
1A4
100
AcDbEntity
8
SK2
62
256
6
ByLayer
370
13
48
1
60
0
100
AcDbLine
10
2
20
-20.74982
30
0
11
5.175002
21
-21.167817
31
0
39
0
210
0
220
0
230
1
0
LINE
5
1A5
100
AcDbEntity
8
SK2
62
256
6
ByLayer
370
13
48
1
60
0
100
AcDbLine
10
5.174998
20
-20.331823
30
0
11
5.175002
21
-21.167817
31
0
39
0
210
0
220
0
230
1
0
LINE
5
1A6
100
AcDbEntity
8
SK2
62
256
6
ByLayer
370
13
48
1
60
0
100
AcDbLine
10
73
20
-20.74982
30
0
11
69.825002
21
-21.167817
31
0
39
0
210
0
220
0
230
1
0
LINE
5
1A7
100
AcDbEntity
8
SK2
62
256
6
ByLayer
370
13
48
1
60
0
100
AcDbLine
10
73
20
-20.74982
30
0
11
69.824998
21
-20.331823
31
0
39
0
210
0
220
0
230
1
0
LINE
5
1A8
100
AcDbEntity
8
SK2
62
256
6
ByLayer
370
13
48
1
60
0
100
AcDbLine
10
69.825002
20
-21.167817
30
0
11
69.824998
21
-20.331823
31
0
39
0
210
0
220
0
230
1
0
ENDBLK
5
1AA
100
AcDbEntity
8
0
100
AcDbBlockEnd
0
BLOCK
5
1AF
100
AcDbEntity
8
0
100
AcDbBlockBegin
2
*D12
70
1
10
0
20
0
30
0
3
*D12
0
LINE
5
1B1
100
AcDbEntity
8
0
62
256
6
ByLayer
370
-2
48
1
60
0
100
AcDbLine
10
19.7
20
-6.7375
30
0
11
19.7
21
-13.32
31
0
39
0
210
0
220
0
230
1
0
LINE
5
1B2
100
AcDbEntity
8
0
62
256
6
ByLayer
370
-2
48
1
60
0
100
AcDbLine
10
73
20
-1.5875
30
0
11
73
21
-13.32
31
0
39
0
210
0
220
0
230
1
0
LINE
5
1B3
100
AcDbEntity
8
0
62
256
6
ByLayer
370
-2
48
1
60
0
100
AcDbLine
10
22.875
20
-12.82
30
0
11
69.825
21
-12.82
31
0
39
0
210
0
220
0
230
1
0
SOLID
5
1B4
100
AcDbEntity
8
0
62
256
6
ByLayer
370
-1
48
1
60
0
100
AcDbTrace
10
22.875
20
-12.290833
30
0
11
22.875
21
-13.349167
31
0
12
19.7
22
-12.82
32
0
13
19.7
23
-12.82
33
0
39
0
210
0
220
0
230
1
0
SOLID
5
1B5
100
AcDbEntity
8
0
62
256
6
ByLayer
370
-1
48
1
60
0
100
AcDbTrace
10
69.825
20
-13.349167
30
0
11
69.825
21
-12.290833
31
0
12
73
22
-12.82
32
0
13
73
23
-12.82
33
0
39
0
210
0
220
0
230
1
0
MTEXT
5
1B6
100
AcDbEntity
8
0
62
256
6
ByLayer
370
18
48
1
60
0
100
AcDbMText
10
46.35
20
-6.975
30
0
210
0
220
0
230
1
1
\A1;53.3
40
2.8
41
0
44
1
50
0
71
5
72
5
7
iso_b_vert
0
POINT
5
1B7
100
AcDbEntity
8
Defpoints
62
0
6
ByLayer
370
-1
48
1
60
0
100
AcDbPoint
10
19.7
20
-5.15
30
0
39
0
210
0
220
0
230
1
50
360
0
POINT
5
1B8
100
AcDbEntity
8
Defpoints
62
0
6
ByLayer
370
-1
48
1
60
0
100
AcDbPoint
10
73
20
0
30
0
39
0
210
0
220
0
230
1
50
360
0
POINT
5
1B9
100
AcDbEntity
8
Defpoints
62
0
6
ByLayer
370
-1
48
1
60
0
100
AcDbPoint
10
73
20
-12.82
30
0
39
0
210
0
220
0
230
1
50
360
0
ENDBLK
5
1B0
100
AcDbEntity
8
0
100
AcDbBlockEnd
0
BLOCK
5
1C5
100
AcDbEntity
8
0
100
AcDbBlockBegin
2
_U5
70
0
10
0
20
0
30
0
3
_U5
0
MTEXT
5
1BB
100
AcDbEntity
8
SK2
62
256
6
ByLayer
370
18
48
1
60
0
100
AcDbMText
10
42.166454
20
-12.973893
30
0
210
0
220
0
230
1
1
\W0.7468;53.30
40
2.8
41
0
44
1.084337
50
0
71
7
72
5
7
iso_b_vert
0
LINE
5
1BC
100
AcDbEntity
8
SK2
62
256
6
ByLayer
370
13
48
1
60
0
100
AcDbLine
10
19.7
20
-6.7375
30
0
11
19.7
21
-13.32
31
0
39
0
210
0
220
0
230
1
0
LINE
5
1BD
100
AcDbEntity
8
SK2
62
256
6
ByLayer
370
13
48
1
60
0
100
AcDbLine
10
73
20
-1.5875
30
0
11
73
21
-13.32
31
0
39
0
210
0
220
0
230
1
0
LINE
5
1BE
100
AcDbEntity
8
SK2
62
256
6
ByLayer
370
13
48
1
60
0
100
AcDbLine
10
19.7
20
-12.82
30
0
11
73
21
-12.82
31
0
39
0
210
0
220
0
230
1
0
LINE
5
1BF
100
AcDbEntity
8
SK2
62
256
6
ByLayer
370
13
48
1
60
0
100
AcDbLine
10
19.7
20
-12.82
30
0
11
22.874998
21
-12.402003
31
0
39
0
210
0
220
0
230
1
0
LINE
5
1C0
100
AcDbEntity
8
SK2
62
256
6
ByLayer
370
13
48
1
60
0
100
AcDbLine
10
19.7
20
-12.82
30
0
11
22.875002
21
-13.237997
31
0
39
0
210
0
220
0
230
1
0
LINE
5
1C1
100
AcDbEntity
8
SK2
62
256
6
ByLayer
370
13
48
1
60
0
100
AcDbLine
10
22.874998
20
-12.402003
30
0
11
22.875002
21
-13.237997
31
0
39
0
210
0
220
0
230
1
0
LINE
5
1C2
100
AcDbEntity
8
SK2
62
256
6
ByLayer
370
13
48
1
60
0
100
AcDbLine
10
73
20
-12.82
30
0
11
69.825002
21
-13.237997
31
0
39
0
210
0
220
0
230
1
0
LINE
5
1C3
100
AcDbEntity
8
SK2
62
256
6
ByLayer
370
13
48
1
60
0
100
AcDbLine
10
73
20
-12.82
30
0
11
69.824998
21
-12.402003
31
0
39
0
210
0
220
0
230
1
0
LINE
5
1C4
100
AcDbEntity
8
SK2
62
256
6
ByLayer
370
13
48
1
60
0
100
AcDbLine
10
69.825002
20
-13.237997
30
0
11
69.824998
21
-12.402003
31
0
39
0
210
0
220
0
230
1
0
ENDBLK
5
1C6
100
AcDbEntity
8
0
100
AcDbBlockEnd
0
BLOCK
5
1CB
100
AcDbEntity
8
0
100
AcDbBlockBegin
2
*D14
70
1
10
0
20
0
30
0
3
*D14
0
LINE
5
1CD
100
AcDbEntity
8
0
62
256
6
ByLayer
370
-2
48
1
60
0
100
AcDbLine
10
-45
20
-1.5875
30
0
11
-45
21
-42.67512
31
0
39
0
210
0
220
0
230
1
0
LINE
5
1CE
100
AcDbEntity
8
0
62
256
6
ByLayer
370
-2
48
1
60
0
100
AcDbLine
10
73
20
-1.5875
30
0
11
73
21
-42.67512
31
0
39
0
210
0
220
0
230
1
0
LINE
5
1CF
100
AcDbEntity
8
0
62
256
6
ByLayer
370
-2
48
1
60
0
100
AcDbLine
10
-41.825
20
-39.50012
30
0
11
69.825
21
-39.50012
31
0
39
0
210
0
220
0
230
1
0
SOLID
5
1D0
100
AcDbEntity
8
0
62
256
6
ByLayer
370
-1
48
1
60
0
100
AcDbTrace
10
-41.825
20
-38.970953
30
0
11
-41.825
21
-40.029287
31
0
12
-45
22
-39.50012
32
0
13
-45
23
-39.50012
33
0
39
0
210
0
220
0
230
1
0
SOLID
5
1D1
100
AcDbEntity
8
0
62
256
6
ByLayer
370
-1
48
1
60
0
100
AcDbTrace
10
69.825
20
-40.029287
30
0
11
69.825
21
-38.970953
31
0
12
73
22
-39.50012
32
0
13
73
23
-39.50012
33
0
39
0
210
0
220
0
230
1
0
MTEXT
5
1D2
100
AcDbEntity
8
0
62
256
6
ByLayer
370
18
48
1
60
0
100
AcDbMText
10
14
20
-32.193619
30
0
210
0
220
0
230
1
1
\A1;118
40
3.50012
41
0
44
1
50
0
71
5
72
5
7
iso_b_vert
0
POINT
5
1D3
100
AcDbEntity
8
Defpoints
62
0
6
ByLayer
370
-1
48
1
60
0
100
AcDbPoint
10
-45
20
0
30
0
39
0
210
0
220
0
230
1
50
360
0
POINT
5
1D4
100
AcDbEntity
8
Defpoints
62
0
6
ByLayer
370
-1
48
1
60
0
100
AcDbPoint
10
73
20
0
30
0
39
0
210
0
220
0
230
1
50
360
0
POINT
5
1D5
100
AcDbEntity
8
Defpoints
62
0
6
ByLayer
370
-1
48
1
60
0
100
AcDbPoint
10
73
20
-39.50012
30
0
39
0
210
0
220
0
230
1
50
360
0
ENDBLK
5
1CC
100
AcDbEntity
8
0
100
AcDbBlockEnd
0
BLOCK
5
1E1
100
AcDbEntity
8
0
100
AcDbBlockBegin
2
_U6
70
0
10
0
20
0
30
0
3
_U6
0
MTEXT
5
1D7
100
AcDbEntity
8
SK2
62
256
6
ByLayer
370
18
48
1
60
0
100
AcDbMText
10
8.337507
20
-38.467451
30
0
210
0
220
0
230
1
1
\W0.6532;118.00
40
3.50012
41
0
44
1.084337
50
0
71
7
72
5
7
iso_b_vert
0
LINE
5
1D8
100
AcDbEntity
8
SK2
62
256
6
ByLayer
370
13
48
1
60
0
100
AcDbLine
10
-45
20
-1.5875
30
0
11
-45
21
-42.67512
31
0
39
0
210
0
220
0
230
1
0
LINE
5
1D9
100
AcDbEntity
8
SK2
62
256
6
ByLayer
370
13
48
1
60
0
100
AcDbLine
10
73
20
-1.5875
30
0
11
73
21
-42.67512
31
0
39
0
210
0
220
0
230
1
0
LINE
5
1DA
100
AcDbEntity
8
SK2
62
256
6
ByLayer
370
13
48
1
60
0
100
AcDbLine
10
-45
20
-39.50012
30
0
11
73
21
-39.50012
31
0
39
0
210
0
220
0
230
1
0
LINE
5
1DB
100
AcDbEntity
8
SK2
62
256
6
ByLayer
370
13
48
1
60
0
100
AcDbLine
10
-45
20
-39.50012
30
0
11
-41.825002
21
-39.082123
31
0
39
0
210
0
220
0
230
1
0
LINE
5
1DC
100
AcDbEntity
8
SK2
62
256
6
ByLayer
370
13
48
1
60
0
100
AcDbLine
10
-45
20
-39.50012
30
0
11
-41.824998
21
-39.918117
31
0
39
0
210
0
220
0
230
1
0
LINE
5
1DD
100
AcDbEntity
8
SK2
62
256
6
ByLayer
370
13
48
1
60
0
100
AcDbLine
10
-41.825002
20
-39.082123
30
0
11
-41.824998
21
-39.918117
31
0
39
0
210
0
220
0
230
1
0
LINE
5
1DE
100
AcDbEntity
8
SK2
62
256
6
ByLayer
370
13
48
1
60
0
100
AcDbLine
10
73
20
-39.50012
30
0
11
69.825002
21
-39.918117
31
0
39
0
210
0
220
0
230
1
0
LINE
5
1DF
100
AcDbEntity
8
SK2
62
256
6
ByLayer
370
13
48
1
60
0
100
AcDbLine
10
73
20
-39.50012
30
0
11
69.824998
21
-39.082123
31
0
39
0
210
0
220
0
230
1
0
LINE
5
1E0
100
AcDbEntity
8
SK2
62
256
6
ByLayer
370
13
48
1
60
0
100
AcDbLine
10
69.825002
20
-39.918117
30
0
11
69.824998
21
-39.082123
31
0
39
0
210
0
220
0
230
1
0
ENDBLK
5
1E2
100
AcDbEntity
8
0
100
AcDbBlockEnd
0
ENDSEC
0
SECTION
2
ENTITIES
0
ARC
5
B1
100
AcDbEntity
8
1
62
256
6
ByLayer
370
18
48
1
60
0
100
AcDbCircle
39
0
10
1.435597
20
5.906443
30
0
40
0.800000000000001
210
0
220
0
230
1
100
AcDbArc
50
206.201338
51
270.03581
0
ARC
5
B2
100
AcDbEntity
8
1
62
256
6
ByLayer
370
18
48
1
60
0
100
AcDbCircle
39
0
10
1.435597
20
-5.906443
30
0
40
0.800000000000001
210
0
220
0
230
1
100
AcDbArc
50
89.96419
51
153.798662
0
ARC
5
B3
100
AcDbEntity
8
1
62
256
6
ByLayer
370
18
48
1
60
0
100
AcDbCircle
39
0
10
0
20
5.2
30
0
40
0.800000000000001
210
0
220
0
230
1
100
AcDbArc
50
26.201338
51
90
0
ARC
5
B4
100
AcDbEntity
8
1
62
256
6
ByLayer
370
18
48
1
60
0
100
AcDbCircle
39
0
10
0
20
-5.2
30
0
40
0.800000000000001
210
0
220
0
230
1
100
AcDbArc
50
270
51
333.798662
0
ARC
5
B5
100
AcDbEntity
8
SK2
62
256
6
ByLayer
370
13
48
1
60
0
100
AcDbCircle
39
0
10
73
20
0
30
0
40
20
210
0
220
0
230
1
100
AcDbArc
50
9.606349
51
70.000459
0
ARC
5
B6
100
AcDbEntity
8
SK2
62
256
6
ByLayer
370
13
48
1
60
0
100
AcDbCircle
39
0
10
73
20
0
30
0
40
20
210
0
220
0
230
1
100
AcDbArc
50
289.999541
51
350.393651
0
ELLIPSE
5
B7
100
AcDbEntity
8
1
62
256
6
ByLayer
370
18
48
1
60
0
100
AcDbEllipse
10
3.640216
20
0.640882
30
0
11
-0.00424870874593525
21
-0.00905253964322793
31
0
210
0
220
0
230
1
40
0.06257
41
1.45414507259159
42
3.02030332761431
0
ELLIPSE
5
B8
100
AcDbEntity
8
1
62
256
6
ByLayer
370
18
48
1
60
0
100
AcDbEllipse
10
3.601772
20
-4.560709
30
0
11
-0.00160822846378619
21
-0.0098698328865421
31
0
210
0
220
0
230
1
40
0.397
41
-2.7555294221259
42
-1.18586831682352
0
ELLIPSE
5
B9
100
AcDbEntity
8
1
62
256
6
ByLayer
370
18
48
1
60
0
100
AcDbEllipse
10
3.563466
20
-4.562457
30
0
11
-0.00265831274113931
21
0.00964019571224031
31
0
210
0
220
0
230
1
40
0.501711
41
0.374074709908746
42
1.76240671649503
0
ELLIPSE
5
BA
100
AcDbEntity
8
1
62
256
6
ByLayer
370
18
48
1
60
0
100
AcDbEllipse
10
3.602271
20
0.649453
30
0
11
5.99341767144611E-05
21
0.00999982039311015
31
0
210
0
220
0
230
1
40
0.007861
41
-1.70470368722658
42
-0.134055790527423
0
POINT
5
70
100
AcDbEntity
8
80
62
256
6
ByLayer
370
18
48
1
60
0
100
AcDbPoint
10
0
20
0
30
0
39
0
210
0
220
0
230
1
50
360
0
POINT
5
72
100
AcDbEntity
8
81
62
256
6
ByLayer
370
18
48
1
60
0
100
AcDbPoint
10
73
20
0
30
0
39
0
210
0
220
0
230
1
50
360
0
POINT
5
74
100
AcDbEntity
8
1
62
256
6
ByLayer
370
18
48
1
60
0
100
AcDbPoint
10
-45
20
0
30
0
39
0
210
0
220
0
230
1
50
360
0
POINT
5
76
100
AcDbEntity
8
1
62
256
6
ByLayer
370
18
48
1
60
1
100
AcDbPoint
10
0
20
-6
30
0
39
0
210
0
220
0
230
1
50
360
0
POINT
5
77
100
AcDbEntity
8
1
62
256
6
ByLayer
370
18
48
1
60
1
100
AcDbPoint
10
73
20
0
30
0
39
0
210
0
220
0
230
1
50
360
0
POINT
5
78
100
AcDbEntity
8
1
62
256
6
ByLayer
370
18
48
1
60
1
100
AcDbPoint
10
71.1256
20
-5.15
30
0
39
0
210
0
220
0
230
1
50
360
0
POINT
5
79
100
AcDbEntity
8
1
62
256
6
ByLayer
370
18
48
1
60
1
100
AcDbPoint
10
71.1256
20
5.15
30
0
39
0
210
0
220
0
230
1
50
360
0
POINT
5
7A
100
AcDbEntity
8
1
62
256
6
ByLayer
370
18
48
1
60
1
100
AcDbPoint
10
-45
20
6
30
0
39
0
210
0
220
0
230
1
50
360
0
POINT
5
7B
100
AcDbEntity
8
1
62
256
6
ByLayer
370
18
48
1
60
1
100
AcDbPoint
10
-45
20
-6
30
0
39
0
210
0
220
0
230
1
50
360
0
POINT
5
7C
100
AcDbEntity
8
1
62
256
6
ByLayer
370
18
48
1
60
1
100
AcDbPoint
10
-45
20
-6
30
0
39
0
210
0
220
0
230
1
50
360
0
POINT
5
7D
100
AcDbEntity
8
1
62
256
6
ByLayer
370
18
48
1
60
1
100
AcDbPoint
10
0
20
-6
30
0
39
0
210
0
220
0
230
1
50
360
0
POINT
5
7E
100
AcDbEntity
8
1
62
256
6
ByLayer
370
18
48
1
60
1
100
AcDbPoint
10
2
20
5.65
30
0
39
0
210
0
220
0
230
1
50
360
0
POINT
5
7F
100
AcDbEntity
8
1
62
256
6
ByLayer
370
18
48
1
60
1
100
AcDbPoint
10
73
20
0
30
0
39
0
210
0
220
0
230
1
50
360
0
POINT
5
80
100
AcDbEntity
8
1
62
256
6
ByLayer
370
18
48
1
60
1
100
AcDbPoint
10
19.7
20
-5.15
30
0
39
0
210
0
220
0
230
1
50
360
0
POINT
5
81
100
AcDbEntity
8
1
62
256
6
ByLayer
370
18
48
1
60
1
100
AcDbPoint
10
73
20
0
30
0
39
0
210
0
220
0
230
1
50
360
0
POINT
5
82
100
AcDbEntity
8
1
62
256
6
ByLayer
370
18
48
1
60
1
100
AcDbPoint
10
-45
20
0
30
0
39
0
210
0
220
0
230
1
50
360
0
POINT
5
83
100
AcDbEntity
8
1
62
256
6
ByLayer
370
18
48
1
60
1
100
AcDbPoint
10
73
20
0
30
0
39
0
210
0
220
0
230
1
50
360
0
SPLINE
5
BB
100
AcDbEntity
8
1
62
256
6
ByLayer
370
18
48
1
60
0
100
AcDbSpline
70
4
71
3
72
8
73
4
40
0
40
0
40
0
40
0
40
1
40
1
40
1
40
1
41
1
10
72.9952508451364
20
0.284328177948481
30
0
41
1
10
73.001589720424
20
0.0945764314208759
30
0
41
1
10
73.001576396842
20
-0.0949752676089872
30
0
41
1
10
72.9952508451371
20
-0.284328177925431
30
0
0
SPLINE
5
BC
100
AcDbEntity
8
1
62
256
6
ByLayer
370
18
48
1
60
0
100
AcDbSpline
70
4
71
3
72
18
73
14
40
0
40
0
40
0
40
0
40
0.196347685926771
40
0.196347685926771
40
0.392695371853542
40
0.392695371853542
40
0.589043057780314
40
0.589043057780314
40
0.785390743707085
40
0.785390743707085
40
0.981738429633856
40
0.981738429633856
40
1
40
1
40
1
40
1
41
1
10
71.2024627975927
20
4.94270575500218
30
0
41
1
10
70.6959166799646
20
4.94624478792568
30
0
41
1
10
70.1898813823582
20
4.93173537857496
30
0
41
1
10
69.1772385744518
20
4.86833108388527
30
0
41
1
10
68.6705063907146
20
4.81891911611291
30
-1E-16
41
1
10
67.6580070571793
20
4.68681157953591
30
-1E-16
41
1
10
67.1518121353078
20
4.60425287664151
30
-1E-16
41
1
10
66.1387859508428
20
4.40684219391801
30
2E-16
41
1
10
65.6320623898469
20
4.29193274915514
30
2E-16
41
1
10
64.6194472196013
20
4.03188997649227
30
2E-16
41
1
10
64.113202021036
20
3.88682369182206
30
2E-16
41
1
10
63.5596027059258
20
3.71374726421666
30
0
41
1
10
63.5124978526793
20
3.69890707109104
30
0
41
1
10
63.4653950559906
20
3.68395548272676
30
-1E-16
0
SPLINE
5
BD
100
AcDbEntity
8
1
62
256
6
ByLayer
370
18
48
1
60
0
100
AcDbSpline
70
4
71
3
72
8
73
4
40
0
40
0
40
0
40
0
40
1
40
1
40
1
40
1
41
1
10
23.0101982068971
20
-0.444067628383522
30
0
41
1
10
22.8734615199371
20
-0.379292321344451
30
0
41
1
10
22.7367259419501
20
-0.314386207410735
30
0
41
1
10
22.6
20
-0.249396140476392
30
0
0
SPLINE
5
BE
100
AcDbEntity
8
1
62
256
6
ByLayer
370
18
48
1
60
0
100
AcDbSpline
70
4
71
3
72
8
73
4
40
0
40
0
40
0
40
0
40
1
40
1
40
1
40
1
41
1
10
3.64028425705416
20
0.639564013967146
30
0
41
1
10
3.62837572967828
20
0.645141846498802
30
0
41
1
10
3.61551602689357
20
0.648039105102583
30
0
41
1
10
3.60234096277807
20
0.648117822982783
30
0
0
SPLINE
5
BF
100
AcDbEntity
8
1
62
256
6
ByLayer
370
18
48
1
60
0
100
AcDbSpline
70
4
71
3
72
12
73
8
40
0
40
0
40
0
40
0
40
0.5
40
0.5
40
0.75
40
0.75
40
1
40
1
40
1
40
1
41
1
10
3.50164193485875
20
0.57217816858315
30
0
41
1
10
3.5016419348589
20
0.589768587249608
30
0
41
1
10
3.50935654565012
20
0.60742797719152
30
0
41
1
10
3.53468769030093
20
0.629481334210197
30
0
41
1
10
3.54545004818138
20
0.635988029048207
30
0
41
1
10
3.57151300560568
20
0.64542852169788
30
0
41
1
10
3.58669912472431
20
0.64820053678676
30
0
41
1
10
3.60234096277807
20
0.648117822982783
30
0
0
SPLINE
5
C0
100
AcDbEntity
8
1
62
256
6
ByLayer
370
18
48
1
60
0
100
AcDbSpline
70
4
71
3
72
52
73
48
40
0
40
0
40
0
40
0
40
0.0414633172322385
40
0.0414633172322385
40
0.089620099725751
40
0.089620099725751
40
0.185933664712776
40
0.185933664712776
40
0.234090447206289
40
0.234090447206289
40
0.282247229699802
40
0.282247229699802
40
0.330404012193315
40
0.330404012193315
40
0.378560794686828
40
0.378560794686828
40
0.426717577180341
40
0.426717577180341
40
0.474874359673854
40
0.474874359673854
40
0.523031142167367
40
0.523031142167367
40
0.571187924660879
40
0.571187924660879
40
0.595266315907635
40
0.595266315907635
40
0.619344707154392
40
0.619344707154392
40
0.667501489647904
40
0.667501489647904
40
0.715658272141416
40
0.715658272141416
40
0.763815054634928
40
0.763815054634928
40
0.787893445881685
40
0.787893445881685
40
0.811971837128441
40
0.811971837128441
40
0.860128619621953
40
0.860128619621953
40
0.908285402115465
40
0.908285402115465
40
0.956442184608977
40
0.956442184608977
40
0.980520575855734
40
0.980520575855734
40
1
40
1
40
1
40
1
41
1
10
22.8825728203494
20
5.11984281457296
30
0
41
1
10
23.4593222792797
20
5.11990712278069
30
0
41
1
10
24.0328277165883
20
5.09625006156847
30
0
41
1
10
25.2689225826226
20
4.99579860280019
30
-1E-16
41
1
10
25.9305168026922
20
4.91083507893185
30
-1E-16
41
1
10
27.9162227582157
20
4.56857818522704
30
2E-16
41
1
10
29.2398852400927
20
4.22280129842537
30
2E-16
41
1
10
31.2537277132002
20
3.55173860780067
30
-2E-16
41
1
10
31.9200313808736
20
3.30560735527121
30
-2E-16
41
1
10
33.248419508454
20
2.77862319838124
30
-2E-16
41
1
10
33.9100369749098
20
2.49698524961633
30
-2E-16
41
1
10
35.2333991879025
20
1.90708732001096
30
-1E-16
41
1
10
35.8952825537773
20
1.59913517339911
30
-1E-16
41
1
10
37.2230607223807
20
0.963978739277252
30
-1E-16
41
1
10
37.8893096261399
20
0.637467775698951
30
0
41
1
10
39.2313337457202
20
-0.0239776896810326
30
0
41
1
10
39.8980117236856
20
-0.355285097095333
30
0
41
1
10
41.2263369602773
20
-1.00563670959275
30
1E-16
41
1
10
41.888094511813
20
-1.32549050536312
30
1E-16
41
1
10
43.2109713807192
20
-1.94621711132422
30
1E-16
41
1
10
43.8726958582882
20
-2.2459155645368
30
1E-16
41
1
10
45.2001759110871
20
-2.81724950911328
30
2E-16
41
1
10
45.8660064802293
20
-3.08870318264408
30
2E-16
41
1
10
46.8720678393628
20
-3.46669013034816
30
2E-16
41
1
10
47.2069446713349
20
-3.58729445875147
30
2E-16
41
1
10
47.8740416447448
20
-3.81634972000452
30
-2E-16
41
1
10
48.2065798504092
20
-3.92496233273474
30
-2E-16
41
1
10
49.2027026324957
20
-4.23121403448116
30
-2E-16
41
1
10
49.8644859281063
20
-4.40976715063377
30
-2E-16
41
1
10
51.1872133029315
20
-4.71189712172406
30
-2E-16
41
1
10
51.8485914011777
20
-4.83502389237103
30
1E-16
41
1
10
53.1757461287117
20
-5.02160721569427
30
1E-16
41
1
10
53.8412553640229
20
-5.08513485520078
30
0
41
1
10
54.8468605235574
20
-5.13260317598008
30
0
41
1
10
55.1818917097618
20
-5.14040475890351
30
0
41
1
10
55.8490707723855
20
-5.14005266061858
30
0
41
1
10
56.181647340323
20
-5.13191239167691
30
0
41
1
10
57.1775379273089
20
-5.08399144839026
30
0
41
1
10
57.8392930501618
20
-5.02086033337088
30
1E-16
41
1
10
59.1619406413461
20
-4.83442437830573
30
1E-16
41
1
10
59.8229950448911
20
-4.71110364202636
30
-2E-16
41
1
10
61.1497997198494
20
-4.40787617711609
30
-2E-16
41
1
10
61.815084296374
20
-4.22748265193334
30
-2E-16
41
1
10
62.8202200949228
20
-3.91737441895918
30
-2E-16
41
1
10
63.1553080622105
20
-3.80774236915838
30
-2E-16
41
1
10
63.7584706393689
20
-3.59999317820325
30
2E-16
41
1
10
64.0275069715398
20
-3.50355467943095
30
2E-16
41
1
10
64.2959770485484
20
-3.40382576436181
30
2E-16
0
SPLINE
5
C1
100
AcDbEntity
8
1
62
256
6
ByLayer
370
18
48
1
60
0
100
AcDbSpline
70
4
71
3
72
22
73
18
40
0
40
0
40
0
40
0
40
0.245730632414417
40
0.245730632414417
40
0.368595948621626
40
0.368595948621626
40
0.491461264828835
40
0.491461264828835
40
0.614326581036044
40
0.614326581036044
40
0.737191897243253
40
0.737191897243253
40
0.860057213450462
40
0.860057213450462
40
0.982922529657671
40
0.982922529657671
40
1
40
1
40
1
40
1
41
1
10
6.63544056820729
20
-0.0362386465923237
30
0
41
1
10
7.9789772224151
20
-0.696739915904573
30
0
41
1
10
9.30310249799084
20
-1.34817304016684
30
1E-16
41
1
10
11.2901355225826
20
-2.25236147087079
30
1E-16
41
1
10
11.9521851563045
20
-2.54246416550541
30
2E-16
41
1
10
13.2814391297117
20
-3.08918142626507
30
2E-16
41
1
10
13.9487395829356
20
-3.34616368520224
30
2E-16
41
1
10
15.2913208927869
20
-3.81919656526293
30
-2E-16
41
1
10
15.958138084057
20
-4.03123040613016
30
-2E-16
41
1
10
17.2870216242293
20
-4.40253363454258
30
-2E-16
41
1
10
17.9489152383837
20
-4.5619038797964
30
-2E-16
41
1
10
19.2733383335484
20
-4.82287749131913
30
1E-16
41
1
10
19.9354404033876
20
-4.92488676721328
30
1E-16
41
1
10
21.2643215590149
20
-5.06795392561918
30
0
41
1
10
21.9318762501403
20
-5.10895619924943
30
0
41
1
10
22.6962779309351
20
-5.11920387565587
30
0
41
1
10
22.7894678659148
20
-5.11983243521945
30
0
41
1
10
22.8825732615267
20
-5.11984281462207
30
0
0
SPLINE
5
C2
100
AcDbEntity
8
1
62
256
6
ByLayer
370
18
48
1
60
0
100
AcDbSpline
70
4
71
3
72
26
73
22
40
0
40
0
40
0
40
0
40
0.0001333140900929
40
0.0001333140900929
40
0.0667910931507548
40
0.0667910931507548
40
0.200106651272076
40
0.200106651272076
40
0.333422209393398
40
0.333422209393398
40
0.46673776751472
40
0.46673776751472
40
0.53339554657538
40
0.53339554657538
40
0.600053325636041
40
0.600053325636041
40
0.733368883757361
40
0.733368883757361
40
0.86668444187868
40
0.86668444187868
40
1
40
1
40
1
40
1
41
1
10
55.5134797086368
20
5.14022967031443
30
0
41
1
10
55.5141468918755
20
5.14022938204002
30
0
41
1
10
55.5148140693578
20
5.14022906185545
30
0
41
1
10
55.8490707723856
20
5.14005266061858
30
0
41
1
10
56.1816473403231
20
5.13191239167691
30
0
41
1
10
57.1775379273089
20
5.08399144839026
30
0
41
1
10
57.8392930501618
20
5.02086033337091
30
-1E-16
41
1
10
59.1619406413461
20
4.83442437830573
30
-1E-16
41
1
10
59.8229950448911
20
4.71110364202636
30
2E-16
41
1
10
61.1497997198494
20
4.40787617711609
30
2E-16
41
1
10
61.815084296374
20
4.22748265193337
30
2E-16
41
1
10
62.8202200949228
20
3.91737441895918
30
2E-16
41
1
10
63.1553080622106
20
3.80774236915838
30
2E-16
41
1
10
63.822154385326
20
3.57805838449988
30
-2E-16
41
1
10
64.1545032864793
20
3.45782082208268
30
-2E-16
41
1
10
65.149102475447
20
3.08228626850996
30
-2E-16
41
1
10
65.8094012211182
20
2.81298490649022
30
-2E-16
41
1
10
67.1285130051924
20
2.24400769805735
30
-1E-16
41
1
10
67.7871469717937
20
1.94395790224999
30
-1E-16
41
1
10
69.1082420527235
20
1.32339722033461
30
-1E-16
41
1
10
69.7703085290949
20
1.0021283328432
30
-1E-16
41
1
10
70.4363225769794
20
0.674508775983014
30
0
0
SPLINE
5
C3
100
AcDbEntity
8
1
62
256
6
ByLayer
370
18
48
1
60
0
100
AcDbSpline
70
4
71
3
72
56
73
52
40
0
40
0
40
0
40
0
40
0.0166461067200516
40
0.0166461067200516
40
0.0460043406755779
40
0.0460043406755779
40
0.104720808586629
40
0.104720808586629
40
0.134079042542155
40
0.134079042542155
40
0.163437276497681
40
0.163437276497681
40
0.222153744408734
40
0.222153744408734
40
0.25151197836426
40
0.25151197836426
40
0.280870212319786
40
0.280870212319786
40
0.339586680230838
40
0.339586680230838
40
0.368944914186364
40
0.368944914186364
40
0.398303148141891
40
0.398303148141891
40
0.457019616052943
40
0.457019616052943
40
0.486377850008469
40
0.486377850008469
40
0.515736083963995
40
0.515736083963995
40
0.574452551875046
40
0.574452551875046
40
0.603810785830571
40
0.603810785830571
40
0.633169019786096
40
0.633169019786096
40
0.750601955608193
40
0.750601955608193
40
0.779960189563718
40
0.779960189563718
40
0.809318423519243
40
0.809318423519243
40
0.868034891430292
40
0.868034891430292
40
0.897393125385817
40
0.897393125385817
40
0.926751359341341
40
0.926751359341341
40
0.98546782725239
40
0.98546782725239
40
1
40
1
40
1
40
1
41
1
10
43.0475740982275
20
-4.89838868207875
30
1E-16
41
1
10
42.8487343049545
20
-4.92758755214763
30
1E-16
41
1
10
42.6498317853536
20
-4.95410561912692
30
1E-16
41
1
10
42.099771815516
20
-5.01985715576737
30
1E-16
41
1
10
41.7479021705436
20
-5.0533556110033
30
0
41
1
10
40.6934655425398
20
-5.12756028207059
30
0
41
1
10
39.9927421833124
20
-5.14199257410533
30
0
41
1
10
38.9407023758505
20
-5.11110560364088
30
0
41
1
10
38.5898638762251
20
-5.09206282243593
30
0
41
1
10
37.8872152206626
20
-5.03653162258124
30
0
41
1
10
37.5351605848548
20
-4.99999461972797
30
1E-16
41
1
10
36.4814677645015
20
-4.86519291149301
30
1E-16
41
1
10
35.7808663153094
20
-4.74156356591214
30
1E-16
41
1
10
34.7283752143601
20
-4.5088325027956
30
-2E-16
41
1
10
34.3773116418505
20
-4.4233526389302
30
-2E-16
41
1
10
33.6739785051149
20
-4.23720983343657
30
-2E-16
41
1
10
33.3222885352163
20
-4.13673007037249
30
-2E-16
41
1
10
32.2691570350724
20
-3.81523722424598
30
-2E-16
41
1
10
31.5686291766727
20
-3.5735546269585
30
2E-16
41
1
10
30.5154222989074
20
-3.17678081401775
30
2E-16
41
1
10
30.1637847142726
20
-3.03851995903466
30
2E-16
41
1
10
29.4603704397283
20
-2.75203124308712
30
2E-16
41
1
10
29.1092387803211
20
-2.60411341553129
30
2E-16
41
1
10
28.0565171812963
20
-2.14828691399305
30
1E-16
41
1
10
27.3558353882742
20
-1.82785815705114
30
1E-16
41
1
10
26.3018681555985
20
-1.33107906402557
30
1E-16
41
1
10
25.9497719015057
20
-1.1623690657276
30
1E-16
41
1
10
25.2469059510038
20
-0.82241820114541
30
1E-16
41
1
10
24.8959301774312
20
-0.651083504771776
30
0
41
1
10
23.8434503796466
20
-0.13488642703831
30
0
41
1
10
23.1425192598583
20
0.212427447127993
30
0
41
1
10
22.0876006013257
20
0.728771408749708
30
0
41
1
10
21.7356659768171
20
0.900213724932797
30
-1E-16
41
1
10
21.0350757407665
20
1.23764335119077
30
-1E-16
41
1
10
20.6857960832423
20
1.40396931593847
30
-1E-16
41
1
10
18.9429276870286
20
2.22078055463547
30
-1E-16
41
1
10
17.5596621883484
20
2.8260537105869
30
-2E-16
41
1
10
15.8176140092601
20
3.47415399300326
30
-2E-16
41
1
10
15.4685475632361
20
3.59834915997899
30
-2E-16
41
1
10
14.7684632647152
20
3.83477730912068
30
2E-16
41
1
10
14.4170217652014
20
3.94711763644582
30
2E-16
41
1
10
13.3614235519683
20
4.26345271014958
30
2E-16
41
1
10
12.6601425242698
20
4.44568327303523
30
2E-16
41
1
10
11.6076311050531
20
4.67187616393758
30
2E-16
41
1
10
11.2566962205225
20
4.73942262627989
30
-1E-16
41
1
10
10.5539720039064
20
4.85821339177409
30
-1E-16
41
1
10
10.2015927331704
20
4.90950786847387
30
-1E-16
41
1
10
9.14769405662224
20
5.03736886467451
30
0
41
1
10
8.44893910475727
20
5.08813868135883
30
0
41
1
10
7.57870310075049
20
5.10837680985577
30
0
41
1
10
7.40611859884797
20
5.11027192094124
30
0
41
1
10
7.23355984999429
20
5.11005260392255
30
0
0
SPLINE
5
C4
100
AcDbEntity
8
1
62
256
6
ByLayer
370
18
48
1
60
0
100
AcDbSpline
70
4
71
3
72
8
73
4
40
0
40
0
40
0
40
0
40
1
40
1
40
1
40
1
41
1
10
3.59753638615274
20
-4.56382358288062
30
1E-16
41
1
10
3.58431849183728
20
-4.56168082085938
30
1E-16
41
1
10
3.57139266326777
20
-4.56223860784348
30
1E-16
41
1
10
3.55922368499287
20
-4.5656025256059
30
1E-16
0
SPLINE
5
C5
100
AcDbEntity
8
1
62
256
6
ByLayer
370
18
48
1
60
0
100
AcDbSpline
70
4
71
3
72
10
73
6
40
0
40
0
40
0
40
0
40
0.5
40
0.5
40
1
40
1
40
1
40
1
41
1
10
70.44726621039
20
-0.0522182572177314
30
0
41
1
10
70.4407960385352
20
0.0688790212279287
30
0
41
1
10
70.4363414923044
20
0.191348957928596
30
0
41
1
10
70.4324575461064
20
0.434550859666473
30
0
41
1
10
70.4330059491196
20
0.55506847529503
30
0
41
1
10
70.4363225769794
20
0.674508775983014
30
0
0
SPLINE
5
C6
100
AcDbEntity
8
1
62
256
6
ByLayer
370
18
48
1
60
0
100
AcDbSpline
70
4
71
3
72
26
73
22
40
0
40
0
40
0
40
0
40
0.0353107314950379
40
0.0353107314950379
40
0.0706214629900763
40
0.0706214629900763
40
0.141242925980155
40
0.141242925980155
40
0.211864388970234
40
0.211864388970234
40
0.282485851960313
40
0.282485851960313
40
0.564971703920629
40
0.564971703920629
40
0.706214629900788
40
0.706214629900788
40
0.776836092890867
40
0.776836092890867
40
0.847457555880946
40
0.847457555880946
40
1
40
1
40
1
40
1
41
1
10
71.1617146021736
20
-4.85906603629954
30
0
41
1
10
70.9845822060527
20
-4.84762275236096
30
0
41
1
10
70.8074932628335
20
-4.83463249881811
30
0
41
1
10
70.4533821860144
20
-4.80387780720716
30
0
41
1
10
70.2763519862306
20
-4.78639015433754
30
1E-16
41
1
10
69.7452278057959
20
-4.72766925882357
30
1E-16
41
1
10
69.3911017132302
20
-4.68017790323077
30
1E-16
41
1
10
68.6821454376031
20
-4.56889962734906
30
1E-16
41
1
10
68.3281382221771
20
-4.505217031265
30
1E-16
41
1
10
67.6230016976879
20
-4.36314322618577
30
-2E-16
41
1
10
67.2714698039433
20
-4.28470566848796
30
-2E-16
41
1
10
65.5177502781489
20
-3.85783247995101
30
-2E-16
41
1
10
64.1261544799773
20
-3.40392441735361
30
2E-16
41
1
10
62.0262122826117
20
-2.60117179230264
30
2E-16
41
1
10
61.3240630701911
20
-2.31325655684967
30
1E-16
41
1
10
60.2638022983837
20
-1.85736758466686
30
1E-16
41
1
10
59.9085736967364
20
-1.70114710726728
30
1E-16
41
1
10
59.2018754693079
20
-1.38509454595888
30
1E-16
41
1
10
58.8496742647196
20
-1.22495817875418
30
1E-16
41
1
10
57.739307053863
20
-0.714537532271493
30
0
41
1
10
56.9842510919761
20
-0.358931166866796
30
0
41
1
10
56.2298900894063
20
-0.003695813293092
30
0
0
SPLINE
5
C7
100
AcDbEntity
8
1
62
256
6
ByLayer
370
18
48
1
60
0
100
AcDbSpline
70
4
71
3
72
10
73
6
40
0
40
0
40
0
40
0
40
0.0076904664902633
40
0.0076904664902633
40
1
40
1
40
1
40
1
41
1
10
7.8636105162704
20
-4.85448838589707
30
0
41
1
10
7.85268825252803
20
-4.85478532999559
30
0
41
1
10
7.84176630874802
20
-4.85507425432886
30
0
41
1
10
6.42161405706383
20
-4.89160067544177
30
0
41
1
10
5.01756614040119
20
-4.79402559188509
30
1E-16
41
1
10
3.59753638615274
20
-4.56382358288059
30
1E-16
0
SPLINE
5
C8
100
AcDbEntity
8
1
62
256
6
ByLayer
370
18
48
1
60
0
100
AcDbSpline
70
4
71
3
72
40
73
36
40
0
40
0
40
0
40
0
40
0.0266783711054559
40
0.0266783711054559
40
0.08930332568281
40
0.08930332568281
40
0.151928280260164
40
0.151928280260164
40
0.214553234837518
40
0.214553234837518
40
0.277178189414872
40
0.277178189414872
40
0.339803143992227
40
0.339803143992227
40
0.402428098569581
40
0.402428098569581
40
0.465053053146935
40
0.465053053146935
40
0.527678007724289
40
0.527678007724289
40
0.590302962301643
40
0.590302962301643
40
0.652927916878997
40
0.652927916878997
40
0.715552871456351
40
0.715552871456351
40
0.778177826033705
40
0.778177826033705
40
0.840802780611059
40
0.840802780611059
40
0.903427735188413
40
0.903427735188413
40
0.966052689765767
40
0.966052689765767
40
1
40
1
40
1
40
1
41
1
10
20.9838852566043
20
4.87019856498964
30
0
41
1
10
21.1319529248716
20
4.87265446605534
30
0
41
1
10
21.2799240322488
20
4.87363373847955
30
0
41
1
10
21.7749251184646
20
4.87229425847923
30
0
41
1
10
22.1214740378431
20
4.86396743545495
30
0
41
1
10
22.8148574275131
20
4.82958919856253
30
0
41
1
10
23.1616240389544
20
4.80393545290826
30
0
41
1
10
23.8552753782724
20
4.73751618134759
30
-1E-16
41
1
10
24.202100068223
20
4.69688582687235
30
-1E-16
41
1
10
24.8974051542645
20
4.59852281834662
30
-1E-16
41
1
10
25.2457507010964
20
4.54121621874049
30
-1E-16
41
1
10
25.943707045562
20
4.41186210504765
30
2E-16
41
1
10
26.2932428491623
20
4.33992101889206
30
2E-16
41
1
10
26.9954726751279
20
4.17966424616495
30
2E-16
41
1
10
27.3468444697368
20
4.09204330868405
30
2E-16
41
1
10
28.0461653730592
20
3.90450660506224
30
2E-16
41
1
10
28.3947124667257
20
3.80448679882662
30
2E-16
41
1
10
29.0909279162075
20
3.59162668936264
30
-2E-16
41
1
10
29.438463696075
20
3.47912586412431
30
-2E-16
41
1
10
30.1325658845915
20
3.24330175708522
30
-2E-16
41
1
10
30.4790824375374
20
3.11998259922331
30
-2E-16
41
1
10
31.1725539348867
20
2.86310566076705
30
-2E-16
41
1
10
31.5193122981434
20
2.72968493467005
30
-2E-16
41
1
10
32.2131037543954
20
2.45392445900461
30
-2E-16
41
1
10
32.5600871722584
20
2.31155259017703
30
-1E-16
41
1
10
33.2557817954199
20
2.01915234154322
30
-1E-16
41
1
10
33.6042794405529
20
1.86910194624184
30
-1E-16
41
1
10
34.3026376483944
20
1.56213827129835
30
-1E-16
41
1
10
34.6526240711299
20
1.40528108769286
30
-1E-16
41
1
10
35.3554540371697
20
1.08645060089779
30
-1E-16
41
1
10
35.7068777170235
20
0.925083434307453
30
-1E-16
41
1
10
36.4088966769751
20
0.599116397918436
30
0
41
1
10
36.7598404126765
20
0.434797591518617
30
0
41
1
10
37.3017574775914
20
0.180980100113629
30
0
41
1
10
37.4922766966481
20
0.0916373142716225
30
0
41
1
10
37.6826850432794
20
0.002266243453704
30
0
0
SPLINE
5
C9
100
AcDbEntity
8
1
62
256
6
ByLayer
370
18
48
1
60
0
100
AcDbSpline
70
4
71
3
72
8
73
4
40
0
40
0
40
0
40
0
40
1
40
1
40
1
40
1
41
1
10
72.5457752242469
20
-1.59484900624051
30
0
41
1
10
72.6997376352855
20
-1.15948918777892
30
0
41
1
10
72.8495834458981
20
-0.72265628448443
30
0
41
1
10
72.9952508451416
20
-0.28432817792114
30
0
0
SPLINE
5
CA
100
AcDbEntity
8
1
62
256
6
ByLayer
370
18
48
1
60
0
100
AcDbSpline
70
4
71
3
72
8
73
4
40
0
40
0
40
0
40
0
40
1
40
1
40
1
40
1
41
1
10
3.6445022102983
20
0.649835515992237
30
0
41
1
10
3.6312728248941
20
0.656045624724555
30
0
41
1
10
3.61698296553854
20
0.659274255007119
30
0
41
1
10
3.60234096277807
20
0.659363379998581
30
0
0
SPLINE
5
CB
100
AcDbEntity
8
1
62
256
6
ByLayer
370
18
48
1
60
0
100
AcDbSpline
70
2053
71
3
72
64
73
60
40
0
40
0
40
0
40
0
40
0.0625000000000001
40
0.0625000000000001
40
0.125
40
0.125
40
0.15625
40
0.15625
40
0.1875
40
0.1875
40
0.218750000000001
40
0.218750000000001
40
0.250000000000001
40
0.250000000000001
40
0.281250000000001
40
0.281250000000001
40
0.312500000000001
40
0.312500000000001
40
0.343750000000001
40
0.343750000000001
40
0.375000000000001
40
0.375000000000001
40
0.406250000000001
40
0.406250000000001
40
0.437500000000002
40
0.437500000000002
40
0.468750000000002
40
0.468750000000002
40
0.500000000000002
40
0.500000000000002
40
0.531250000000002
40
0.531250000000002
40
0.562500000000002
40
0.562500000000002
40
0.625000000000003
40
0.625000000000003
40
0.656250000000003
40
0.656250000000003
40
0.687500000000003
40
0.687500000000003
40
0.718750000000003
40
0.718750000000003
40
0.750000000000003
40
0.750000000000003
40
0.781250000000003
40
0.781250000000003
40
0.812500000000003
40
0.812500000000003
40
0.828125000000003
40
0.828125000000003
40
0.843750000000003
40
0.843750000000003
40
0.875000000000002
40
0.875000000000002
40
0.937500000000001
40
0.937500000000001
40
0.968750000000001
40
0.968750000000001
40
1
40
1
40
1
40
1
41
1
10
71.4716834144193
20
-2.51377472497841
30
2E-16
41
1
10
71.4323570543952
20
-2.56791100907711
30
2E-16
41
1
10
71.3958023272083
20
-2.60294453646091
30
2E-16
41
1
10
71.3263699532587
20
-2.63581102712917
30
2E-16
41
1
10
71.295119729101
20
-2.6327252131891
30
2E-16
41
1
10
71.2519470223629
20
-2.59858010712972
30
2E-16
41
1
10
71.2385301205431
20
-2.58248200364858
30
2E-16
41
1
10
71.2132977423353
20
-2.54101616290836
30
2E-16
41
1
10
71.2014303970607
20
-2.51550839811759
30
2E-16
41
1
10
71.1794187053572
20
-2.45507392493096
30
2E-16
41
1
10
71.169498332183
20
-2.42083587182702
30
1E-16
41
1
10
71.151727397359
20
-2.34432131029786
30
1E-16
41
1
10
71.1438247750988
20
-2.30170216444455
30
1E-16
41
1
10
71.1306140334578
20
-2.20903936106427
30
1E-16
41
1
10
71.1254144109546
20
-2.15994816782697
30
1E-16
41
1
10
71.1181380522755
20
-2.05609615437484
30
1E-16
41
1
10
71.1160629046082
20
-2.00052321082811
30
1E-16
41
1
10
71.1159633080068
20
-1.88720876543462
30
1E-16
41
1
10
71.1178785750726
20
-1.82979325811064
30
1E-16
41
1
10
71.1263687628896
20
-1.71339233188644
30
1E-16
41
1
10
71.1330657820077
20
-1.65419503958634
30
1E-16
41
1
10
71.1511356140401
20
-1.54133641601732
30
1E-16
41
1
10
71.1627033778154
20
-1.48619592821788
30
1E-16
41
1
10
71.1905256492799
20
-1.38255998287045
30
1E-16
41
1
10
71.2064879829458
20
-1.33487932262156
30
1E-16
41
1
10
71.242436714446
20
-1.24724027036592
30
1E-16
41
1
10
71.2622256619638
20
-1.20793475853785
30
1E-16
41
1
10
71.3038786184883
20
-1.1396387252438
30
1E-16
41
1
10
71.3261226583891
20
-1.11005594456643
30
1E-16
41
1
10
71.371377067797
20
-1.06127126831515
30
1E-16
41
1
10
71.394456503468
20
-1.04184559822932
30
1E-16
41
1
10
71.4412392611029
20
-1.01200813005889
30
1E-16
41
1
10
71.4647762995106
20
-1.00177211786647
30
1E-16
41
1
10
71.5338828686754
20
-0.984490979130612
30
1E-16
41
1
10
71.5791764313362
20
-0.990617322811033
30
1E-16
41
1
10
71.6399183949386
20
-1.0245989525537
30
1E-16
41
1
10
71.6590715264146
20
-1.04002733524138
30
1E-16
41
1
10
71.6947875060198
20
-1.07964198016336
30
1E-16
41
1
10
71.7113194290473
20
-1.1039369131276
30
1E-16
41
1
10
71.7401255169108
20
-1.1603826837985
30
1E-16
41
1
10
71.7525746827223
20
-1.19267580666931
30
1E-16
41
1
10
71.7729139339038
20
-1.26657086821604
30
1E-16
41
1
10
71.7806344850361
20
-1.30784278541307
30
1E-16
41
1
10
71.7902642955309
20
-1.39731040324662
30
1E-16
41
1
10
71.7922421468126
20
-1.44656338271255
30
1E-16
41
1
10
71.7898997763552
20
-1.55006704820087
30
1E-16
41
1
10
71.7856861213421
20
-1.60393964606084
30
1E-16
41
1
10
71.7748539235663
20
-1.68815172816076
30
1E-16
41
1
10
71.7704458579728
20
-1.71698942125408
30
1E-16
41
1
10
71.7603765401519
20
-1.77426653017929
30
1E-16
41
1
10
71.7547072561266
20
-1.80283911304323
30
1E-16
41
1
10
71.7359418904056
20
-1.88838515295399
30
-1E-16
41
1
10
71.7208687401194
20
-1.94591089909917
30
-1E-16
41
1
10
71.6712946194936
20
-2.11113422646133
30
-1E-16
41
1
10
71.6320215734636
20
-2.21356341694522
30
-1E-16
41
1
10
71.5720086442681
20
-2.34394833002821
30
-1E-16
41
1
10
71.5515074027172
20
-2.38417440456132
30
-1E-16
41
1
10
71.5112835443892
20
-2.45532110843339
30
-1E-16
41
1
10
71.4913465944314
20
-2.48670658292906
30
2E-16
41
1
10
71.4716834144193
20
-2.51377472497841
30
2E-16
0
SPLINE
5
CC
100
AcDbEntity
8
1
62
256
6
ByLayer
370
18
48
1
60
0
100
AcDbSpline
70
4
71
3
72
26
73
22
40
0
40
0
40
0
40
0
40
0.0905530750072274
40
0.0905530750072274
40
0.153744245220143
40
0.153744245220143
40
0.216935415433059
40
0.216935415433059
40
0.343317755858893
40
0.343317755858893
40
0.469700096284727
40
0.469700096284727
40
0.596082436710561
40
0.596082436710561
40
0.659273606923478
40
0.659273606923478
40
0.722464777136395
40
0.722464777136395
40
0.848847117562231
40
0.848847117562231
40
1
40
1
40
1
40
1
41
1
10
23.2130985589823
20
0.178892174720858
30
0
41
1
10
23.7148897154697
20
-0.0557292953010347
30
0
41
1
10
24.2170031604118
20
-0.29127959874603
30
0
41
1
10
25.0718236860333
20
-0.688842787746523
30
0
41
1
10
25.4237722097183
20
-0.851718137638727
30
1E-16
41
1
10
26.1295314711882
20
-1.17499148602727
30
1E-16
41
1
10
26.4837034296268
20
-1.33543158895239
30
1E-16
41
1
10
27.5480300852414
20
-1.80961542380396
30
1E-16
41
1
10
28.2523785642661
20
-2.11325053169168
30
1E-16
41
1
10
29.656806971014
20
-2.68569820051897
30
2E-16
41
1
10
30.3564564712202
20
-2.95458032174116
30
2E-16
41
1
10
31.7564931198955
20
-3.44899889888856
30
2E-16
41
1
10
32.4564768571391
20
-3.67440680420722
30
-2E-16
41
1
10
33.5107106775815
20
-3.97415115322909
30
-2E-16
41
1
10
33.8627701670919
20
-4.06759388680433
30
-2E-16
41
1
10
34.5688727306998
20
-4.24053347234667
30
-2E-16
41
1
10
34.9233969332561
20
-4.32019710366515
30
-2E-16
41
1
10
35.9874959554664
20
-4.53629981101631
30
1E-16
41
1
10
36.6959552510296
20
-4.64930248734132
30
1E-16
41
1
10
38.2538982187231
20
-4.82549831865688
30
0
41
1
10
39.097460368823
20
-4.87322737358437
30
0
41
1
10
39.9406076349869
20
-4.87297923738913
30
0
0
SPLINE
5
CD
100
AcDbEntity
8
1
62
256
6
ByLayer
370
18
48
1
60
0
100
AcDbSpline
70
4
71
3
72
8
73
4
40
0
40
0
40
0
40
0
40
1
40
1
40
1
40
1
41
1
10
72.1363578708634
20
-0.541496938863844
30
0
41
1
10
71.972076763329
20
-0.102967271434778
30
0
41
1
10
71.7671475404592
20
0.362208394606768
30
0
41
1
10
71.5223584304663
20
0.853513353192653
30
-1E-16
0
SPLINE
5
CE
100
AcDbEntity
8
1
62
256
6
ByLayer
370
18
48
1
60
0
100
AcDbSpline
70
4
71
3
72
33
73
29
40
0
40
0
40
0
40
0
40
0.126055747992897
40
0.126055747992897
40
0.189083621989345
40
0.189083621989345
40
0.252111495985792
40
0.252111495985792
40
0.378167243978685
40
0.378167243978685
40
0.504222991971578
40
0.504222991971578
40
0.567250865968025
40
0.567250865968025
40
0.630278739964472
40
0.630278739964472
40
0.69330661396092
40
0.724820550959143
40
0.724820550959143
40
0.756334487957365
40
0.756334487957365
40
0.819362361953809
40
0.819362361953809
40
0.882390235950252
40
0.882390235950252
40
0.945418109946696
40
0.945418109946696
40
1
40
1
40
1
40
1
41
1
10
70.5772406445914
20
-0.121905029953894
30
0
41
1
10
69.8761375863
20
0.208681672817022
30
0
41
1
10
69.1763155438143
20
0.53853363406725
30
0
41
1
10
68.1250012201616
20
1.02469687567555
30
-1E-16
41
1
10
67.7743240720179
20
1.18535780990808
30
-1E-16
41
1
10
67.072034934546
20
1.50279591915574
30
-1E-16
41
1
10
66.7204190815198
20
1.65955484268912
30
-1E-16
41
1
10
65.6704172196268
20
2.11794706876691
30
-1E-16
41
1
10
64.9750859857026
20
2.40906970675377
30
-1E-16
41
1
10
63.5874754415466
20
2.95398771652751
30
-2E-16
41
1
10
62.8954584741587
20
3.20775354425641
30
-2E-16
41
1
10
61.8568368756705
20
3.55433415810941
30
-2E-16
41
1
10
61.5105507735535
20
3.66408772810885
30
2E-16
41
1
10
60.8173680537708
20
3.8707147793495
30
2E-16
41
1
10
60.4703965381097
20
3.96775214708217
30
2E-16
41
1
10
59.7745998250525
20
4.1492668997854
30
2E-16
41
1
10
59.2514447859428
20
4.27583288446428
30
2E-16
41
1
10
58.725864496558
20
4.38659788619933
30
2E-16
41
1
10
58.3748855939501
20
4.4567657694563
30
2E-16
41
1
10
58.1988777454095
20
4.49005278074571
30
-1E-16
41
1
10
57.6720765621168
20
4.58374873921275
30
-1E-16
41
1
10
57.3223147725474
20
4.63800384041815
30
-1E-16
41
1
10
56.6253530705567
20
4.72898296939834
30
-1E-16
41
1
10
56.2777196470692
20
4.76651251761737
30
-1E-16
41
1
10
55.5830271741428
20
4.82689737400915
30
0
41
1
10
55.2361538841923
20
4.84931652182613
30
0
41
1
10
54.5898066476052
20
4.87519754345811
30
0
41
1
10
54.2901132844312
20
4.881077913973
30
0
41
1
10
53.9903734849044
20
4.8811602878435
30
0
0
SPLINE
5
CF
100
AcDbEntity
8
1
62
256
6
ByLayer
370
18
48
1
60
0
100
AcDbSpline
70
4
71
3
72
8
73
4
40
0
40
0
40
0
40
0
40
1
40
1
40
1
40
1
41
1
10
5.49070405138235
20
-0.226429606568757
30
0
41
1
10
4.87524270670647
20
0.0603243191074512
30
0
41
1
10
4.25889415258595
20
0.349813460368239
30
0
41
1
10
3.64028425705416
20
0.639564013967146
30
0
0
SPLINE
5
D0
100
AcDbEntity
8
1
62
256
6
ByLayer
370
18
48
1
60
0
100
AcDbSpline
70
4
71
3
72
8
73
4
40
0
40
0
40
0
40
0
40
1
40
1
40
1
40
1
41
1
10
71.2104663182193
20
4.93731925759946
30
0
41
1
10
71.2077984401655
20
4.93911491930763
30
0
41
1
10
71.2051305999607
20
4.940910418539
30
0
41
1
10
71.2024627976174
20
4.94270575503336
30
0
0
SPLINE
5
D1
100
AcDbEntity
8
1
62
256
6
ByLayer
370
18
48
1
60
0
100
AcDbSpline
70
4
71
3
72
70
73
66
40
0
40
0
40
0
40
0
40
0.002184845859631
40
0.002184845859631
40
0.0313198273185556
40
0.0313198273185556
40
0.0604548087774801
40
0.0604548087774801
40
0.0895897902364046
40
0.0895897902364046
40
0.118724771695329
40
0.118724771695329
40
0.147859753154254
40
0.147859753154254
40
0.176994734613178
40
0.176994734613178
40
0.206129716072103
40
0.206129716072103
40
0.235264697531027
40
0.235264697531027
40
0.264399678989952
40
0.264399678989952
40
0.293534660448876
40
0.293534660448876
40
0.322669641907801
40
0.322669641907801
40
0.351804623366725
40
0.351804623366725
40
0.38093960482565
40
0.38093960482565
40
0.410074586284574
40
0.410074586284574
40
0.439209567743499
40
0.439209567743499
40
0.468344549202424
40
0.468344549202424
40
0.497479530661348
40
0.497479530661348
40
0.526614512120273
40
0.526614512120273
40
0.555749493579197
40
0.555749493579197
40
0.584884475038122
40
0.584884475038122
40
0.643154437955971
40
0.643154437955971
40
0.70142440087382
40
0.70142440087382
40
0.730559382332744
40
0.730559382332744
40
0.759694363791669
40
0.759694363791669
40
0.817964326709518
40
0.817964326709518
40
0.847099308168443
40
0.847099308168443
40
0.876234289627367
40
0.876234289627367
40
0.934504252545215
40
0.934504252545215
40
0.963639234004139
40
0.963639234004139
40
0.992774215463063
40
0.992774215463063
40
1
40
1
40
1
40
1
41
1
10
18.2213169678352
20
4.8855426304975
30
-1E-16
41
1
10
18.2474258365261
20
4.88938200603619
30
-1E-16
41
1
10
18.2735265689043
20
4.89317344385321
30
-1E-16
41
1
10
18.6475536843859
20
4.94683220728044
30
-1E-16
41
1
10
18.9945780123201
20
4.98830346462717
30
-1E-16
41
1
10
19.6870253472265
20
5.05452073443797
30
0
41
1
10
20.032399553183
20
5.07924957668698
30
0
41
1
10
20.7226839871388
20
5.11172309720709
30
0
41
1
10
21.067660468063
20
5.11950322346837
30
0
41
1
10
21.7571241025591
20
5.11822322078632
30
0
41
1
10
22.1015635509121
20
5.10909880703684
30
0
41
1
10
22.7915463201153
20
5.07404763703437
30
0
41
1
10
23.1369702311279
20
5.0481539955841
30
0
41
1
10
23.8286737258027
20
4.97946861154034
30
-1E-16
41
1
10
24.1749075886561
20
4.93659647584462
30
-1E-16
41
1
10
24.8698225755905
20
4.83448915555053
30
-1E-16
41
1
10
25.2185130191431
20
4.77518437463485
30
-1E-16
41
1
10
25.9174224168371
20
4.63991392619482
30
2E-16
41
1
10
26.2659830024468
20
4.56416468306014
30
2E-16
41
1
10
26.963203927749
20
4.39830802451908
30
2E-16
41
1
10
27.3116441525733
20
4.30803607543763
30
2E-16
41
1
10
28.0081796151843
20
4.11277622971463
30
2E-16
41
1
10
28.3562129347533
20
4.00765876518872
30
2E-16
41
1
10
29.0538275355178
20
3.78496070182641
30
2E-16
41
1
10
29.4035422005265
20
3.66691853650619
30
2E-16
41
1
10
30.1018948632468
20
3.4184404685468
30
-2E-16
41
1
10
30.4502563671463
20
3.28798335650512
30
-2E-16
41
1
10
31.1472069005451
20
3.01760618430771
30
-2E-16
41
1
10
31.4955287847911
20
2.87728656498862
30
-2E-16
41
1
10
32.1921243184812
20
2.58679011244843
30
-2E-16
41
1
10
32.5403619563735
20
2.43652435121982
30
-1E-16
41
1
10
33.2383513051575
20
2.12885804444207
30
-1E-16
41
1
10
33.5881931696668
20
1.97091881980438
30
-1E-16
41
1
10
34.2858755965929
20
1.64884874799475
30
-1E-16
41
1
10
34.6341734799435
20
1.48481418592019
30
-1E-16
41
1
10
35.3308662923431
20
1.15308681011291
30
-1E-16
41
1
10
35.67918993201
20
0.985262668736453
30
-1E-16
41
1
10
36.3757560213498
20
0.645598318089753
30
0
41
1
10
36.7242105375971
20
0.474176404243679
30
0
41
1
10
37.4226733549847
20
0.130621595430654
30
0
41
1
10
37.7722532488471
20
-0.0417162117496161
30
0
41
1
10
38.4693520074551
20
-0.385940101956379
30
0
41
1
10
38.8175745264716
20
-0.557392611024198
30
0
41
1
10
39.8623770993004
20
-1.06753804284119
30
1E-16
41
1
10
40.5584421188396
20
-1.40342683473975
30
1E-16
41
1
10
41.9562815903062
20
-2.05279911442347
30
1E-16
41
1
10
42.6522086360848
20
-2.36539592285965
30
1E-16
41
1
10
43.6969750875149
20
-2.80650731425965
30
2E-16
41
1
10
44.0452786196378
20
-2.94910837865711
30
2E-16
41
1
10
44.7422544849937
20
-3.22488083632416
30
2E-16
41
1
10
45.0916837606619
20
-3.3576262462955
30
2E-16
41
1
10
46.1390976618076
20
-3.73753717103023
30
-2E-16
41
1
10
46.8346577212958
20
-3.96714803943615
30
-2E-16
41
1
10
47.8794810130192
20
-4.26882054912409
30
-2E-16
41
1
10
48.2278435379658
20
-4.36248087387429
30
-2E-16
41
1
10
48.9251449194504
20
-4.53537627762773
30
-2E-16
41
1
10
49.2747822181999
20
-4.61424539591252
30
-2E-16
41
1
10
50.3214038130078
20
-4.82652515106525
30
1E-16
41
1
10
51.0166853923116
20
-4.93646787256998
30
1E-16
41
1
10
52.0617006742225
20
-5.05040722854773
30
0
41
1
10
52.4101367684752
20
-5.08004774577407
30
0
41
1
10
53.1078133565313
20
-5.12215037607581
30
0
41
1
10
53.4571904208689
20
-5.13446896690581
30
0
41
1
10
53.8923063125295
20
-5.13904929069506
30
0
41
1
10
53.9787416545848
20
-5.13942766937512
30
0
41
1
10
54.0651521496256
20
-5.13927453819286
30
0
0
SPLINE
5
D2
100
AcDbEntity
8
1
62
256
6
ByLayer
370
18
48
1
60
0
100
AcDbSpline
70
4
71
3
72
32
73
28
40
0
40
0
40
0
40
0
40
0.124999999999993
40
0.124999999999993
40
0.187499999999994
40
0.187499999999994
40
0.249999999999994
40
0.249999999999994
40
0.312499999999994
40
0.312499999999994
40
0.374999999999995
40
0.374999999999995
40
0.437499999999995
40
0.437499999999995
40
0.499999999999996
40
0.499999999999996
40
0.562499999999996
40
0.562499999999996
40
0.624999999999997
40
0.624999999999997
40
0.687499999999997
40
0.687499999999997
40
0.749999999999998
40
0.749999999999998
40
0.874999999999999
40
0.874999999999999
40
1
40
1
40
1
40
1
41
1
10
72.9281829098251
20
0.0619974090522817
30
0
41
1
10
72.9032536253995
20
-0.0201979267962997
30
0
41
1
10
72.8745923122024
20
-0.100514095288389
30
0
41
1
10
72.8257915418039
20
-0.217966986553705
30
0
41
1
10
72.8083934449445
20
-0.256913498508368
30
0
41
1
10
72.772439356194
20
-0.331695731377266
30
0
41
1
10
72.7538745529553
20
-0.367610293523029
30
0
41
1
10
72.7155966064452
20
-0.436394577716953
30
0
41
1
10
72.6958842515446
20
-0.469266298810936
30
0
41
1
10
72.6552522815328
20
-0.531695293587632
30
0
41
1
10
72.6343804905829
20
-0.561111012014209
30
0
41
1
10
72.5931114371048
20
-0.614044102256912
30
0
41
1
10
72.5725053828652
20
-0.637895854233363
30
0
41
1
10
72.531322795237
20
-0.680261280498002
30
0
41
1
10
72.5105585820022
20
-0.698891012654201
30
0
41
1
10
72.4703652182656
20
-0.729439092103206
30
0
41
1
10
72.4508394477825
20
-0.741509737188977
30
0
41
1
10
72.4127799654535
20
-0.759495110226965
30
0
41
1
10
72.3941077064346
20
-0.765411526492102
30
0
41
1
10
72.3585189282206
20
-0.770946462038125
30
0
41
1
10
72.341564236829
20
-0.770637644745506
30
0
41
1
10
72.3090672634391
20
-0.764347249766928
30
0
41
1
10
72.2934329754154
20
-0.758300083872882
30
0
41
1
10
72.2491013982347
20
-0.732431037819225
30
0
41
1
10
72.223075769853
20
-0.70528512291142
30
0
41
1
10
72.1759609336507
20
-0.634709216682779
30
0
41
1
10
72.154942886615
20
-0.591107517335644
30
0
41
1
10
72.1363578708634
20
-0.541496938863958
30
0
0
SPLINE
5
D3
100
AcDbEntity
8
1
62
256
6
ByLayer
370
18
48
1
60
0
100
AcDbSpline
70
4
71
3
72
8
73
4
40
0
40
0
40
0
40
0
40
1
40
1
40
1
40
1
41
1
10
3.55922368499287
20
-4.5656025256059
30
1E-16
41
1
10
3.55864414449113
20
-4.64018438234288
30
1E-16
41
1
10
3.55807239960066
20
-4.71476282032708
30
1E-16
41
1
10
3.55750847708444
20
-4.78933803069469
30
1E-16
0
SPLINE
5
D4
100
AcDbEntity
8
1
62
256
6
ByLayer
370
18
48
1
60
0
100
AcDbSpline
70
4
71
3
72
22
73
18
40
0
40
0
40
0
40
0
40
0.125
40
0.125
40
0.25
40
0.25
40
0.375
40
0.375
40
0.4375
40
0.4375
40
0.5
40
0.5
40
0.75
40
0.75
40
0.875
40
0.875
40
1
40
1
40
1
40
1
41
1
10
22.6000000000133
20
-0.31588360131903
30
0
41
1
10
22.029370209551
20
-0.0349480428390052
30
0
41
1
10
21.4601480118366
20
0.246234456435701
30
0
41
1
10
20.3219422163261
20
0.803774492407115
30
0
41
1
10
19.753116953652
20
1.08045303674624
30
-1E-16
41
1
10
18.6124253180631
20
1.62221492041542
30
-1E-16
41
1
10
18.040583326109
20
1.88735580622199
30
-1E-16
41
1
10
17.1787284730544
20
2.27264996841382
30
-1E-16
41
1
10
16.8903243437635
20
2.3992204871397
30
-1E-16
41
1
10
16.3136696808537
20
2.64614277690424
30
-2E-16
41
1
10
16.0261341989912
20
2.76625501465892
30
-2E-16
41
1
10
14.5916127343485
20
3.34898513795372
30
-2E-16
41
1
10
13.4543000978898
20
3.75824438240392
30
2E-16
41
1
10
11.7453612871793
20
4.26126620330177
30
2E-16
41
1
10
11.1754558891988
20
4.4107718784033
30
2E-16
41
1
10
10.031425196358
20
4.66889264177738
30
2E-16
41
1
10
9.45739683513546
20
4.77766630726023
30
-1E-16
41
1
10
8.88014256764748
20
4.86455664303088
30
-1E-16
0
SPLINE
5
D5
100
AcDbEntity
8
1
62
256
6
ByLayer
370
18
48
1
60
0
100
AcDbSpline
70
4
71
3
72
69
73
65
40
0
40
0
40
0
40
0
40
0.0202235592700657
40
0.0202235592700657
40
0.0365727830066037
40
0.0365727830066037
40
0.0529220067431415
40
0.0529220067431415
40
0.0856204542162172
40
0.0856204542162172
40
0.0937950660844861
40
0.0937950660844861
40
0.0978823720186205
40
0.0989041985021542
40
0.0991596551230375
40
0.0991596551230375
40
0.0992873834334792
40
0.0992873834334792
40
0.0994151117439209
40
0.0994151117439209
40
0.0999260249856876
40
0.0999260249856876
40
0.101969677952755
40
0.101969677952755
40
0.110144289821023
40
0.110144289821023
40
0.118318901689291
40
0.118318901689291
40
0.183715796635438
40
0.183715796635438
40
0.249112691581585
40
0.249112691581585
40
0.379906481473878
40
0.379906481473878
40
0.510700271366171
40
0.510700271366171
40
0.527049495102708
40
0.527049495102708
40
0.535224106970976
40
0.535224106970976
40
0.537267759938043
40
0.537267759938043
40
0.538289586421577
40
0.538289586421577
40
0.53854504304246
40
0.53854504304246
40
0.538608907197681
40
0.538608907197681
40
0.538672771352902
40
0.538672771352902
40
0.538800499663343
40
0.538800499663343
40
0.53931141290511
40
0.543398718839243
40
0.543398718839243
40
0.576097166312308
40
0.576097166312308
40
0.641494061258438
40
0.641494061258438
40
0.772287851150697
40
0.772287851150697
40
0.903081641042957
40
0.903081641042957
40
1
40
1
40
1
40
1
41
1
10
8.88014256764959
20
4.86455664303676
30
-1E-16
41
1
10
8.84315458188584
20
4.76055358449116
30
-1E-16
41
1
10
8.80333336044777
20
4.65453816713796
30
-1E-16
41
1
10
8.72791381115655
20
4.45832085549463
30
-1E-16
41
1
10
8.69335044023302
20
4.36876832915354
30
0
41
1
10
8.61947801751296
20
4.1875957621391
30
0
41
1
10
8.58029428969547
20
4.09591149986468
30
0
41
1
10
8.45727814662172
20
3.81681139090145
30
0
41
1
10
8.36788230865005
20
3.62461048573198
30
0
41
1
10
8.2475635283337
20
3.38132340277403
30
0
41
1
10
8.2231097297431
20
3.3324423827618
30
0
41
1
10
8.18593428057355
20
3.25880339920408
30
0
41
1
10
8.17034238320724
20
3.22805633533164
30
0
41
1
10
8.15384620124098
20
3.19568520208546
30
0
41
1
10
8.14991133688903
20
3.18797276131781
30
0
41
1
10
8.14873044690643
20
3.18565872563525
30
0
41
1
10
8.14831691641575
20
3.18477549451231
30
0
41
1
10
8.14921484191797
20
3.18314665429898
30
0
41
1
10
8.14989006298916
20
3.18247897815681
30
0
41
1
10
8.15322521950574
20
3.17924260702085
30
0
41
1
10
8.15624042730187
20
3.17705193792983
30
0
41
1
10
8.17116572425235
20
3.16604673953211
30
0
41
1
10
8.18355626311228
20
3.15793613398557
30
0
41
1
10
8.24535265449325
20
3.1172254592143
30
0
41
1
10
8.29544967335138
20
3.0857901141942
30
0
41
1
10
8.3955469122094
20
3.02281917745941
30
0
41
1
10
8.4456736122433
20
2.99148665555555
30
0
41
1
10
8.89703102338297
20
2.71001347791949
30
-1E-16
41
1
10
9.29921497393468
20
2.46270689244727
30
0
41
1
10
10.1032880601227
20
1.96986306820455
30
0
41
1
10
10.5052762182485
20
1.7249340923168
30
0
41
1
10
11.7101723732076
20
0.993345461874185
30
-1E-16
41
1
10
12.5121173536602
20
0.510021024410264
30
0
41
1
10
14.1149902005691
20
-0.445180610222565
30
0
41
1
10
14.916581051108
20
-0.916816045721703
30
1E-16
41
1
10
15.8151651569616
20
-1.44202755481268
30
1E-16
41
1
10
15.9149719582746
20
-1.50030772103852
30
1E-16
41
1
10
16.0643127545353
20
-1.58790056052399
30
1E-16
41
1
10
16.1140996028381
20
-1.6170711744231
30
1E-16
41
1
10
16.1757722826916
20
-1.6540051181523
30
1E-16
41
1
10
16.1880853047615
20
-1.66141016841817
30
1E-16
41
1
10
16.2063320827052
20
-1.6727119684092
30
1E-16
41
1
10
16.2124357864766
20
-1.67646789287846
30
1E-16
41
1
10
16.2196568906754
20
-1.6814717164643
30
1E-16
41
1
10
16.2211424342691
20
-1.68246959142988
30
1E-16
41
1
10
16.2226175592571
20
-1.68388930826683
30
1E-16
41
1
10
16.2229887151686
20
-1.68421891859208
30
1E-16
41
1
10
16.2228712217912
20
-1.68479579512967
30
1E-16
41
1
10
16.2222582514207
20
-1.68473246177226
30
1E-16
41
1
10
16.2209114419263
20
-1.68460243465617
30
1E-16
41
1
10
16.2200080681925
20
-1.68449077661117
30
1E-16
41
1
10
16.2155039175325
20
-1.68398999231025
30
1E-16
41
1
10
16.1830745926327
20
-1.68038227581536
30
1E-16
41
1
10
16.1506503001814
20
-1.67675593221884
30
1E-16
41
1
10
15.8912920331005
20
-1.64761272011248
30
1E-16
41
1
10
15.6610067301866
20
-1.62076553305386
30
1E-16
41
1
10
14.9709471475168
20
-1.53739528487722
30
1E-16
41
1
10
14.5119781435053
20
-1.47804431491781
30
1E-16
41
1
10
13.1385312813399
20
-1.28867238766546
30
1E-16
41
1
10
12.2271795988113
20
-1.14728561551098
30
1E-16
41
1
10
10.4151571006074
20
-0.834358591668035
30
1E-16
41
1
10
9.51429503308029
20
-0.662773220803757
30
0
41
1
10
7.95456688382163
20
-0.337728760757159
30
0
41
1
10
7.29346092282753
20
-0.191080048575657
30
0
41
1
10
6.63544056819751
20
-0.0362386465900215
30
0
0
SPLINE
5
D6
100
AcDbEntity
8
1
62
256
6
ByLayer
370
18
48
1
60
0
100
AcDbSpline
70
4
71
3
72
16
73
12
40
0
40
0
40
0
40
0
40
0.499999999999995
40
0.499999999999995
40
0.624999999999996
40
0.624999999999996
40
0.749999999999997
40
0.749999999999997
40
0.874999999999999
40
0.874999999999999
40
1
40
1
40
1
40
1
41
1
10
70.4363225769794
20
0.674508775983071
30
0
41
1
10
70.6071879658084
20
0.775799616834263
30
0
41
1
10
70.7874766277423
20
0.842750149577512
30
-1E-16
41
1
10
71.0171252238923
20
0.881483829840221
30
-1E-16
41
1
10
71.0632697903309
20
0.886848963375826
30
-1E-16
41
1
10
71.1557594105006
20
0.894197999097486
30
-1E-16
41
1
10
71.202120067397
20
0.895889579973755
30
-1E-16
41
1
10
71.2948959684388
20
0.893817302907337
30
-1E-16
41
1
10
71.3412214849246
20
0.890125169892059
30
-1E-16
41
1
10
71.432652454613
20
0.87663502847235
30
-1E-16
41
1
10
71.4778136712116
20
0.86649617348769
30
-1E-16
41
1
10
71.5223584304662
20
0.853513353192625
30
-1E-16
0
SPLINE
5
D7
100
AcDbEntity
8
1
62
256
6
ByLayer
370
18
48
1
60
0
100
AcDbSpline
70
4
71
3
72
62
73
58
40
0
40
0
40
0
40
0
40
0.125000000000016
40
0.125000000000016
40
0.250000000000032
40
0.250000000000032
40
0.257812500000033
40
0.257812500000033
40
0.261718750000033
40
0.261718750000033
40
0.265625000000033
40
0.265625000000033
40
0.269531250000033
40
0.269531250000033
40
0.273437500000033
40
0.273437500000033
40
0.281250000000034
40
0.281250000000034
40
0.312500000000031
40
0.312500000000031
40
0.375000000000027
40
0.375000000000027
40
0.437500000000023
40
0.437500000000023
40
0.46875000000002
40
0.46875000000002
40
0.500000000000018
40
0.500000000000018
40
0.515625000000017
40
0.515625000000017
40
0.531250000000017
40
0.531250000000017
40
0.546875000000016
40
0.546875000000016
40
0.562500000000015
40
0.562500000000015
40
0.593750000000013
40
0.593750000000013
40
0.609375000000012
40
0.609375000000012
40
0.625000000000012
40
0.625000000000012
40
0.656250000000011
40
0.656250000000011
40
0.68750000000001
40
0.68750000000001
40
0.718750000000009
40
0.718750000000009
40
0.750000000000008
40
0.750000000000008
40
0.812500000000006
40
0.812500000000006
40
0.875000000000004
40
0.875000000000004
40
0.937500000000002
40
0.937500000000002
40
1
40
1
40
1
40
1
41
1
10
8.88014454867522
20
4.86455648396625
30
-1E-16
41
1
10
8.2902735843187
20
4.95333027376483
30
-1E-16
41
1
10
7.69249508586674
20
5.01207124473919
30
-1E-16
41
1
10
6.47224383422184
20
5.08630298182305
30
0
41
1
10
5.85055487762838
20
5.1019432430954
30
0
41
1
10
5.17967240624191
20
5.107053371946
30
0
41
1
10
5.14017179812365
20
5.10731169351001
30
0
41
1
10
5.08086501323839
20
5.10763958555162
30
0
41
1
10
5.06108627238845
20
5.10773895271655
30
0
41
1
10
5.02151347337059
20
5.10791843873193
30
0
41
1
10
5.0018981543941
20
5.10800889346618
30
0
41
1
10
4.9611859885234
20
5.10808092410579
30
0
41
1
10
4.94022891973006
20
5.10806771355169
30
0
41
1
10
4.89964193692964
20
5.10789080099573
30
0
41
1
10
4.8824354609466
20
5.10768114567003
30
0
41
1
10
4.82945991027057
20
5.10698117594572
30
0
41
1
10
4.79423193373626
20
5.106381308088
30
0
41
1
10
4.61855199715237
20
5.10268735463589
30
0
41
1
10
4.47954497832273
20
5.09751861724703
30
0
41
1
10
4.0682239199339
20
5.07412526727455
30
0
41
1
10
3.80077584016635
20
5.04805542828683
30
0
41
1
10
3.29426757210135
20
4.96614398809217
30
-1E-16
41
1
10
3.05413986139664
20
4.91064416408875
30
-1E-16
41
1
10
2.72470963307205
20
4.79146169851316
30
-1E-16
41
1
10
2.61998448678625
20
4.74542450517092
30
-1E-16
41
1
10
2.42947178114974
20
4.6396146023198
30
2E-16
41
1
10
2.34299898098266
20
4.57969141344461
30
2E-16
41
1
10
2.23047327323872
20
4.47583390699046
30
2E-16
41
1
10
2.19614891989346
20
4.43909362625269
30
2E-16
41
1
10
2.13522272224398
20
4.36186606113984
30
2E-16
41
1
10
2.10848692334608
20
4.32126007348816
30
2E-16
41
1
10
2.06307512024819
20
4.23570980345482
30
2E-16
41
1
10
2.04439750629342
20
4.19076638341417
30
2E-16
41
1
10
2.01586652005849
20
4.09610244211419
30
2E-16
41
1
10
2.00601267503257
20
4.04595444528746
30
2E-16
41
1
10
1.99133989348755
20
3.89204770859973
30
2E-16
41
1
10
2.00084717747296
20
3.78433421658752
30
2E-16
41
1
10
2.04246791236977
20
3.61546086982736
30
-2E-16
41
1
10
2.06109229125923
20
3.55754573257653
30
-2E-16
41
1
10
2.10628944410149
20
3.44183176877379
30
-2E-16
41
1
10
2.13279811739983
20
3.38398659205697
30
-2E-16
41
1
10
2.22269994558718
20
3.21048831727853
30
-2E-16
41
1
10
2.29644549796737
20
3.09481368569252
30
-2E-16
41
1
10
2.46633942923015
20
2.86384213122167
30
-2E-16
41
1
10
2.56030898813873
20
2.75142435105457
30
-2E-16
41
1
10
2.76178064584184
20
2.5312603593739
30
-2E-16
41
1
10
2.86932545568041
20
2.42352859637822
30
-1E-16
41
1
10
3.09532478338599
20
2.21190714012732
30
-1E-16
41
1
10
3.21427146264568
20
2.10765632666318
30
-1E-16
41
1
10
3.57936236679211
20
1.80428758442724
30
-1E-16
41
1
10
3.83469945711988
20
1.61317732684853
30
-1E-16
41
1
10
4.36181367476394
20
1.24661097227317
30
-1E-16
41
1
10
4.63370494163124
20
1.07125823749215
30
-1E-16
41
1
10
5.19035816908433
20
0.733092090287158
30
0
41
1
10
5.47498234373302
20
0.570461528428723
30
0
41
1
10
6.05008332512628
20
0.25831020441251
30
0
41
1
10
6.34123148504648
20
0.108402018454029
30
0
41
1
10
6.63543297803295
20
-0.036239084216902
30
0
0
SPLINE
5
D8
100
AcDbEntity
8
1
62
256
6
ByLayer
370
18
48
1
60
0
100
AcDbSpline
70
4
71
3
72
16
73
12
40
0
40
0
40
0
40
0
40
0.125
40
0.125
40
0.25
40
0.25
40
0.375
40
0.375
40
0.5
40
0.5
40
1
40
1
40
1
40
1
41
1
10
72.5457752242469
20
-1.59484900624051
30
0
41
1
10
72.47493107407
20
-1.7099183495545
30
0
41
1
10
72.4062571067593
20
-1.8310686964098
30
0
41
1
10
72.2728189008063
20
-2.08668102083382
30
0
41
1
10
72.2091839609824
20
-2.21900858779287
30
0
41
1
10
72.0871786044571
20
-2.49207824310071
30
0
41
1
10
72.0288236707362
20
-2.63287807591831
30
0
41
1
10
71.9176885822331
20
-2.91788704679041
30
0
41
1
10
71.8645036353918
20
-3.06317628729238
30
0
41
1
10
71.6103270964229
20
-3.78676217974731
30
0
41
1
10
71.4130355801116
20
-4.36497147832367
30
0
41
1
10
71.2104663182193
20
-4.93731925759943
30
0
0
SPLINE
5
D9
100
AcDbEntity
8
1
62
256
6
ByLayer
370
18
48
1
60
0
100
AcDbSpline
70
4
71
3
72
20
73
16
40
0
40
0
40
0
40
0
40
0.19068417137146
40
0.19068417137146
40
0.286026257057191
40
0.286026257057191
40
0.381368342742921
40
0.381368342742921
40
0.572052514114383
40
0.572052514114383
40
0.762736685485846
40
0.762736685485846
40
0.953420856857308
40
0.953420856857308
40
1
40
1
40
1
40
1
41
1
10
22.6
20
-0.242420096422165
30
0
41
1
10
23.6068513303402
20
-0.737757241629055
30
0
41
1
10
24.6136687000402
20
-1.23003097081741
30
1E-16
41
1
10
26.1240279596701
20
-1.93245402123486
30
1E-16
41
1
10
26.6267650224294
20
-2.16025141621048
30
1E-16
41
1
10
27.6327846356935
20
-2.59951065834181
30
2E-16
41
1
10
28.1363152522243
20
-2.8110732883469
30
2E-16
41
1
10
29.6463283636302
20
-3.41386576256204
30
2E-16
41
1
10
30.6518363091171
20
-3.7727210329976
30
-2E-16
41
1
10
32.6650759964523
20
-4.37600391286091
30
-2E-16
41
1
10
33.672164490801
20
-4.61999263919438
30
-2E-16
41
1
10
35.6834356671487
20
-4.97198241909993
30
1E-16
41
1
10
36.6903712739246
20
-5.08037451132063
30
0
41
1
10
37.9426675950753
20
-5.12496006602967
30
0
41
1
10
38.1885181174012
20
-5.12941172598823
30
0
41
1
10
38.4343833443302
20
-5.12956155305241
30
0
0
SPLINE
5
DA
100
AcDbEntity
8
1
62
256
6
ByLayer
370
18
48
1
60
0
100
AcDbSpline
70
4
71
3
72
12
73
8
40
0
40
0
40
0
40
0
40
0.0382303997676839
40
0.0382303997676839
40
0.519115199883842
40
0.519115199883842
40
1
40
1
40
1
40
1
41
1
10
64.61708964263
20
4.18075798377296
30
2E-16
41
1
10
64.6969840187465
20
4.20386426554015
30
2E-16
41
1
10
64.776884270472
20
4.22660076111876
30
2E-16
41
1
10
65.8619566269255
20
4.53023671219984
30
2E-16
41
1
10
66.8684727062888
20
4.75168573884955
30
2E-16
41
1
10
68.880232822141
20
5.0560823725809
30
-1E-16
41
1
10
69.8859647337547
20
5.1389106995523
30
0
41
1
10
70.8915352082425
20
5.14893613175397
30
0
0
SPLINE
5
DB
100
AcDbEntity
8
1
62
256
6
ByLayer
370
18
48
1
60
0
100
AcDbSpline
70
4
71
3
72
8
73
4
40
0
40
0
40
0
40
0
40
1
40
1
40
1
40
1
41
1
10
70.8729560055676
20
-5.08316574351312
30
0
41
1
10
70.961178658654
20
-5.03222700637824
30
0
41
1
10
71.0495963849768
20
-4.98038013331282
30
0
41
1
10
71.1382419009052
20
-4.92765334190978
30
0
0
SPLINE
5
DC
100
AcDbEntity
8
1
62
256
6
ByLayer
370
18
48
1
60
0
100
AcDbSpline
70
4
71
3
72
16
73
12
40
0
40
0
40
0
40
0
40
0.125000000000001
40
0.125000000000001
40
0.250000000000002
40
0.250000000000002
40
0.375000000000003
40
0.375000000000003
40
0.500000000000004
40
0.500000000000004
40
1
40
1
40
1
40
1
41
1
10
72.5457752242469
20
1.59484900624051
30
0
41
1
10
72.47493107407
20
1.70991834955447
30
0
41
1
10
72.4062571067593
20
1.8310686964098
30
0
41
1
10
72.2728189008064
20
2.08668102083382
30
0
41
1
10
72.2091839609824
20
2.21900858779287
30
0
41
1
10
72.0871786044571
20
2.49207824310068
30
0
41
1
10
72.0288236707362
20
2.63287807591828
30
0
41
1
10
71.9176885822331
20
2.91788704679038
30
0
41
1
10
71.8645036353915
20
3.06317628729235
30
0
41
1
10
71.6103270964239
20
3.78676217974726
30
0
41
1
10
71.4130355801116
20
4.36497147832367
30
0
41
1
10
71.2104663182193
20
4.93731925759943
30
0
0
SPLINE
5
DD
100
AcDbEntity
8
1
62
256
6
ByLayer
370
18
48
1
60
0
100
AcDbSpline
70
4
71
3
72
36
73
32
40
0
40
0
40
0
40
0
40
0.0805367475310342
40
0.0805367475310342
40
0.122330531734169
40
0.122330531734169
40
0.164124315937304
40
0.164124315937304
40
0.247711884343574
40
0.247711884343574
40
0.331299452749843
40
0.331299452749843
40
0.373093236952978
40
0.373093236952978
40
0.414887021156112
40
0.414887021156112
40
0.498474589562381
40
0.498474589562381
40
0.582062157968651
40
0.582062157968651
40
0.66564972637492
40
0.66564972637492
40
0.749237294781189
40
0.749237294781189
40
0.791031078984324
40
0.791031078984324
40
0.83282486318746
40
0.83282486318746
40
0.91641243159373
40
0.91641243159373
40
1
40
1
40
1
40
1
41
1
10
34.7879177593562
20
4.81498776740457
30
0
41
1
10
35.756938295737
20
4.97979805723136
30
-1E-16
41
1
10
36.7271051006698
20
5.08168234718525
30
0
41
1
10
38.2000426287163
20
5.13412339937926
30
0
41
1
10
38.7032738338194
20
5.13401838719611
30
0
41
1
10
39.7099729181779
20
5.09775665283524
30
0
41
1
10
40.2126152933839
20
5.06164597964514
30
0
41
1
10
41.721003122977
20
4.90045799669721
30
-1E-16
41
1
10
42.7283231635464
20
4.72179317118673
30
2E-16
41
1
10
44.7390928370803
20
4.2381495656912
30
2E-16
41
1
10
45.7458285272279
20
3.93265372187466
30
2E-16
41
1
10
47.2552201542109
20
3.39832291330799
30
-2E-16
41
1
10
47.7583724180306
20
3.20757704328972
30
-2E-16
41
1
10
48.7647623237552
20
2.80476617482808
30
-2E-16
41
1
10
49.2673940407323
20
2.59295874292138
30
-2E-16
41
1
10
50.7753929922972
20
1.93242428621383
30
-1E-16
41
1
10
51.7825458893242
20
1.45753524230147
30
-1E-16
41
1
10
53.7929351350485
20
0.4816407010224
30
0
41
1
10
54.7994013436863
20
-0.0205643801751023
30
0
41
1
10
56.8114421278613
20
-1.01071487687838
30
1E-16
41
1
10
57.8176473167869
20
-1.49885717697185
30
1E-16
41
1
10
59.8277887410921
20
-2.41891583655723
30
1E-16
41
1
10
60.8343401698135
20
-2.85175095293707
30
2E-16
41
1
10
62.3433149700334
20
-3.43256572799152
30
2E-16
41
1
10
62.8463252869371
20
-3.61488046683215
30
2E-16
41
1
10
63.8520378697945
20
-3.95284909262225
30
-2E-16
41
1
10
64.3542138271698
20
-4.1083248311472
30
-2E-16
41
1
10
65.8619566269224
20
-4.5302367121991
30
-2E-16
41
1
10
66.8684727062857
20
-4.75168573884895
30
-2E-16
41
1
10
68.8802328221377
20
-5.05608237258056
30
1E-16
41
1
10
69.8859647337514
20
-5.1389106995521
30
0
41
1
10
70.8915352082391
20
-5.14893613175394
30
0
0
SPLINE
5
DE
100
AcDbEntity
8
1
62
256
6
ByLayer
370
18
48
1
60
0
100
AcDbSpline
70
4
71
3
72
8
73
4
40
0
40
0
40
0
40
0
40
1
40
1
40
1
40
1
41
1
10
71.2104663182193
20
-4.93731925759946
30
0
41
1
10
71.2077984401814
20
-4.93911491929697
30
0
41
1
10
71.2051305999924
20
-4.94091041851769
30
0
41
1
10
71.202462797665
20
-4.94270575500138
30
0
0
SPLINE
5
DF
100
AcDbEntity
8
1
62
256
6
ByLayer
370
18
48
1
60
0
100
AcDbSpline
70
4
71
3
72
8
73
4
40
0
40
0
40
0
40
0
40
1
40
1
40
1
40
1
41
1
10
3.64625441205331
20
0.681929604826621
30
0
41
1
10
3.645678576823
20
0.671241639082552
30
0
41
1
10
3.64509450158323
20
0.660543807725588
30
0
41
1
10
3.6445022102983
20
0.649835515992237
30
0
0
SPLINE
5
E0
100
AcDbEntity
8
1
62
256
6
ByLayer
370
18
48
1
60
0
100
AcDbSpline
70
4
71
3
72
30
73
26
40
0
40
0
40
0
40
0
40
0.0625
40
0.0625
40
0.125
40
0.125
40
0.25
40
0.25
40
0.3125
40
0.3125
40
0.375
40
0.375
40
0.437499999999999
40
0.437499999999999
40
0.499999999999999
40
0.499999999999999
40
0.624999999999999
40
0.624999999999999
40
0.687499999999999
40
0.687499999999999
40
0.749999999999999
40
0.749999999999999
40
0.875
40
0.875
40
1
40
1
40
1
40
1
41
1
10
3.6023409627781
20
0.648117822982783
30
0
41
1
10
3.60233423276898
20
0.511688809787501
30
0
41
1
10
3.6023267886078
20
0.374834574620564
30
0
41
1
10
3.60231065699324
20
0.100279751394794
30
0
41
1
10
3.60230194728808
20
-0.0377070170402192
30
0
41
1
10
3.60227453166445
20
-0.447729539608986
30
0
41
1
10
3.60225447905745
20
-0.717405249623141
30
0
41
1
10
3.60222250200806
20
-1.11651818725448
30
1E-16
41
1
10
3.60221152105549
20
-1.24865095128814
30
1E-16
41
1
10
3.60218897978012
20
-1.51106632051704
30
1E-16
41
1
10
3.60217738907397
20
-1.64165577070042
30
1E-16
41
1
10
3.60215400770358
20
-1.89711215581036
30
1E-16
41
1
10
3.60214218121041
20
-2.02241661164706
30
1E-16
41
1
10
3.60211827113733
20
-2.26819506375858
30
1E-16
41
1
10
3.60210615640276
20
-2.38896859590977
30
1E-16
41
1
10
3.60206960046003
20
-2.74187639328008
30
2E-16
41
1
10
3.60204524534206
20
-2.96202612668799
30
2E-16
41
1
10
3.60200833199579
20
-3.27038783174697
30
2E-16
41
1
10
3.60199596049637
20
-3.36951113342144
30
2E-16
41
1
10
3.60197096921513
20
-3.5603296169632
30
2E-16
41
1
10
3.60195830872291
20
-3.65230325530814
30
-2E-16
41
1
10
3.60192000621376
20
-3.91479353354484
30
-2E-16
41
1
10
3.60189442028027
20
-4.06957363638418
30
-2E-16
41
1
10
3.60184182799111
20
-4.34016830404371
30
-2E-16
41
1
10
3.60181477518492
20
-4.45616199630612
30
1E-16
41
1
10
3.60178630542856
20
-4.55132547251915
30
1E-16
0
SPLINE
5
E1
100
AcDbEntity
8
1
62
256
6
ByLayer
370
18
48
1
60
0
100
AcDbSpline
70
4
71
3
72
10
73
6
40
0
40
0
40
0
40
0
40
0.5
40
0.5
40
1
40
1
40
1
40
1
41
1
10
71.2104663182193
20
-4.93731925759948
30
0
41
1
10
71.1941037745231
20
-4.94798844701228
30
0
41
1
10
71.1802180787087
20
-4.95239663630127
30
0
41
1
10
71.1564114316811
20
-4.94891459113418
30
0
41
1
10
71.146615436497
20
-4.94108176052319
30
0
41
1
10
71.1382419009052
20
-4.92765334190978
30
0
0
SPLINE
5
E2
100
AcDbEntity
8
1
62
256
6
ByLayer
370
18
48
1
60
0
100
AcDbSpline
70
4
71
3
72
38
73
34
40
0
40
0
40
0
40
0
40
0.496696954892823
40
0.496696954892823
40
0.663835904124084
40
0.663835904124084
40
0.776035618153157
40
0.776035618153157
40
0.851068567809389
40
0.851068567809389
40
0.901093985505095
40
0.901093985505095
40
0.934376501572741
40
0.934376501572741
40
0.95648663964642
40
0.95648663964642
40
0.971159493017079
40
0.971159493017079
40
0.980889842394451
40
0.980889842394451
40
0.987339728162565
40
0.987339728162565
40
0.991710116763198
40
0.991710116763198
40
0.994625493124487
40
0.994625493124487
40
0.996691551765165
40
0.996691551765165
40
0.99869903852674
40
0.99869903852674
40
0.999392444493027
40
0.999392444493027
40
1
40
1
40
1
40
1
41
1
10
70.891535208236
20
5.14893613174226
30
0
41
1
10
70.9429005757787
20
5.11533217884457
30
0
41
1
10
70.9943419941922
20
5.08143988235264
30
0
41
1
10
71.0631895867326
20
5.03577397893838
30
0
41
1
10
71.0805325436969
20
5.02424472986996
30
0
41
1
10
71.1095312250584
20
5.0049244342928
30
0
41
1
10
71.121182576494
20
4.99715028277515
30
0
41
1
10
71.1406317767496
20
4.98415420852155
30
0
41
1
10
71.148427631634
20
4.97893989364425
30
0
41
1
10
71.1614237988474
20
4.97023890619283
30
0
41
1
10
71.1666232106361
20
4.96675563737364
30
0
41
1
10
71.1752830623776
20
4.96095038262126
30
0
41
1
10
71.1787430994096
20
4.95862991015341
30
0
41
1
10
71.1845022325351
20
4.95476591134772
30
0
41
1
10
71.1868011494876
20
4.95322305515069
30
0
41
1
10
71.1906259226499
20
4.95065544040304
30
0
41
1
10
71.1921516995664
20
4.9496309776782
30
0
41
1
10
71.1946894042322
20
4.94792675235271
30
0
41
1
10
71.1957012965217
20
4.94724712038197
30
0
41
1
10
71.1973839676281
20
4.94611682413728
30
0
41
1
10
71.1980549755351
20
4.94566604974568
30
0
41
1
10
71.1991891416407
20
4.94490396353677
30
0
41
1
10
71.1996507548117
20
4.94459372862124
30
0
41
1
10
71.2004191073529
20
4.94407733546959
30
0
41
1
10
71.2007260259085
20
4.94387106473135
30
0
41
1
10
71.2012422018107
20
4.94352423993911
30
0
41
1
10
71.2014543197909
20
4.94338173827913
30
0
41
1
10
71.2018576796193
20
4.94311088473754
30
0
41
1
10
71.2020539602053
20
4.94297913363155
30
0
41
1
10
71.2022768808042
20
4.94282977997645
30
0
41
1
10
71.202330755959
20
4.94279371612706
30
0
41
1
10
71.2024115477766
20
4.94273975670444
30
0
41
1
10
71.2024419633913
20
4.94271949982897
30
0
41
1
10
71.2024597134499
20
4.94270778799714
30
0
0
SPLINE
5
E3
100
AcDbEntity
8
1
62
256
6
ByLayer
370
18
48
1
60
0
100
AcDbSpline
70
4
71
3
72
30
73
26
40
0
40
0
40
0
40
0
40
0.124999999999999
40
0.124999999999999
40
0.187499999999999
40
0.187499999999999
40
0.249999999999999
40
0.249999999999999
40
0.374999999999998
40
0.374999999999998
40
0.437499999999999
40
0.437499999999999
40
0.499999999999999
40
0.499999999999999
40
0.624999999999999
40
0.624999999999999
40
0.687499999999999
40
0.687499999999999
40
0.749999999999999
40
0.749999999999999
40
0.874999999999999
40
0.874999999999999
40
0.9375
40
0.9375
40
1
40
1
40
1
40
1
41
1
10
70.5772406445938
20
-0.121905029953666
30
0
41
1
10
70.5888057384803
20
-0.413068217383682
30
0
41
1
10
70.6120801406932
20
-0.698206046563399
30
0
41
1
10
70.6561625193318
20
-1.11808027706982
30
1E-16
41
1
10
70.672417514513
20
-1.25672150845793
30
1E-16
41
1
10
70.7069486042728
20
-1.53144826947346
30
1E-16
41
1
10
70.7253114430828
20
-1.66813818322254
30
1E-16
41
1
10
70.7813242395575
20
-2.06972503903805
30
1E-16
41
1
10
70.8195337487763
20
-2.32466671270339
30
1E-16
41
1
10
70.8736260145536
20
-2.688933952729
30
2E-16
41
1
10
70.8911438302102
20
-2.80730932802959
30
2E-16
41
1
10
70.9246533015435
20
-3.03787192314235
30
2E-16
41
1
10
70.9407026058308
20
-3.15050032270938
30
2E-16
41
1
10
70.9852519000724
20
-3.47284839279658
30
2E-16
41
1
10
71.0103164717723
20
-3.668766813503
30
-2E-16
41
1
10
71.041535760084
20
-3.93455445417226
30
-2E-16
41
1
10
71.0509002758284
20
-4.01844050220319
30
-2E-16
41
1
10
71.0679127704618
20
-4.17651323442504
30
-2E-16
41
1
10
71.0755660315161
20
-4.25077103865095
30
-2E-16
41
1
10
71.0964358506855
20
-4.45439442412291
30
-2E-16
41
1
10
71.1076755859712
20
-4.56641125990777
30
1E-16
41
1
10
71.1260051448356
20
-4.69920931102891
30
1E-16
41
1
10
71.1323769658749
20
-4.73757097962618
30
1E-16
41
1
10
71.14681176171
20
-4.80215386742452
30
0
41
1
10
71.1548597833352
20
-4.82823280126067
30
0
41
1
10
71.1643056339132
20
-4.84784494499314
30
0
0
SPLINE
5
E4
100
AcDbEntity
8
1
62
256
6
ByLayer
370
18
48
1
60
0
100
AcDbSpline
70
4
71
3
72
10
73
6
40
0
40
0
40
0
40
0
40
0.5
40
0.5
40
1
40
1
40
1
40
1
41
1
10
3.55750847708447
20
-4.78933803069472
30
1E-16
41
1
10
3.54070492734644
20
-4.78645580759624
30
1E-16
41
1
10
3.52656214040229
20
-4.78195267323659
30
1E-16
41
1
10
3.50700490275168
20
-4.77082658335158
30
1E-16
41
1
10
3.50164193485875
20
-4.76419386691197
30
1E-16
41
1
10
3.50164193485875
20
-4.75737801524912
30
1E-16
0
SPLINE
5
E5
100
AcDbEntity
8
1
62
256
6
ByLayer
370
18
48
1
60
0
100
AcDbSpline
70
4
71
3
72
8
73
4
40
0
40
0
40
0
40
0
40
1
40
1
40
1
40
1
41
1
10
70.4472662103899
20
-0.0522182572177314
30
0
41
1
10
70.4890421134694
20
-0.072122770397101
30
0
41
1
10
70.5305575116166
20
-0.0908966765745447
30
0
41
1
10
70.5718604992275
20
-0.108569004442018
30
0
0
SPLINE
5
E6
100
AcDbEntity
8
1
62
256
6
ByLayer
370
18
48
1
60
0
100
AcDbSpline
70
4
71
3
72
8
73
4
40
0
40
0
40
0
40
0
40
1
40
1
40
1
40
1
41
1
10
72.9952508451412
20
0.284328177950926
30
0
41
1
10
72.9730057530609
20
0.210183563096251
30
0
41
1
10
72.9506496370161
20
0.13607334943444
30
0
41
1
10
72.9281829098251
20
0.0619974090522817
30
0
0
SPLINE
5
E7
100
AcDbEntity
8
1
62
256
6
ByLayer
370
18
48
1
60
0
100
AcDbSpline
70
4
71
3
72
10
73
6
40
0
40
0
40
0
40
0
40
0.5
40
0.5
40
1
40
1
40
1
40
1
41
1
10
70.872956005566
20
-5.08316574351508
30
0
41
1
10
70.8761949694729
20
-5.10262535784389
30
0
41
1
10
70.8792927598765
20
-5.11789204758395
30
0
41
1
10
70.8854259982018
20
-5.13988998303358
30
0
41
1
10
70.8884737983598
20
-5.14662250491875
30
0
41
1
10
70.8915352082187
20
-5.148936131754
30
0
0
SPLINE
5
E8
100
AcDbEntity
8
1
62
256
6
ByLayer
370
18
48
1
60
0
100
AcDbSpline
70
4
71
3
72
8
73
4
40
0
40
0
40
0
40
0
40
1
40
1
40
1
40
1
41
1
10
71.1617146021734
20
-4.85906603629948
30
0
41
1
10
71.1538568507953
20
-4.88192833359247
30
0
41
1
10
71.1460323941272
20
-4.90479070912409
30
0
41
1
10
71.1382419009053
20
-4.92765334190972
30
0
0
SPLINE
5
E9
100
AcDbEntity
8
1
62
256
6
ByLayer
370
18
48
1
60
0
100
AcDbSpline
70
4
71
3
72
10
73
6
40
0
40
0
40
0
40
0
40
0.5
40
0.5
40
1
40
1
40
1
40
1
41
1
10
72.5457752242469
20
1.59484900624051
30
0
41
1
10
72.4036883220631
20
1.55976401495346
30
0
41
1
10
72.2604481801161
20
1.52953245277206
30
0
41
1
10
71.9740816357161
20
1.47601159924156
30
0
41
1
10
71.830619815791
20
1.45277758714826
30
0
41
1
10
71.6869563722385
20
1.4320961305161
30
0
0
SPLINE
5
EA
100
AcDbEntity
8
1
62
256
6
ByLayer
370
18
48
1
60
0
100
AcDbSpline
70
4
71
3
72
50
73
46
40
0
40
0
40
0
40
0
40
0.0339397187436248
40
0.0339397187436248
40
0.0678794374872497
40
0.0678794374872497
40
0.135758874974498
40
0.135758874974498
40
0.169698593718122
40
0.169698593718122
40
0.203638312461746
40
0.203638312461746
40
0.271517749948992
40
0.271517749948992
40
0.305457468692615
40
0.305457468692615
40
0.339397187436238
40
0.339397187436238
40
0.407276624923482
40
0.407276624923482
40
0.441216343667105
40
0.441216343667105
40
0.475156062410728
40
0.475156062410728
40
0.543035499897974
40
0.543035499897974
40
0.576975218641597
40
0.576975218641597
40
0.61091493738522
40
0.61091493738522
40
0.678794374872464
40
0.678794374872464
40
0.712734093616086
40
0.712734093616086
40
0.746673812359707
40
0.746673812359707
40
0.814553249846951
40
0.814553249846951
40
0.882432687334194
40
0.882432687334194
40
0.916372406077816
40
0.916372406077816
40
0.950312124821438
40
0.950312124821438
40
1
40
1
40
1
40
1
41
1
10
70.8729560055683
20
-5.08316574351431
30
0
41
1
10
70.5217591382471
20
-5.05499366677782
30
0
41
1
10
70.1707103759837
20
-5.01813947416235
30
1E-16
41
1
10
69.4683107933052
20
-4.92740828692982
30
1E-16
41
1
10
69.1166296118152
20
-4.87346729534684
30
1E-16
41
1
10
68.0627836281025
20
-4.68709955310283
30
-2E-16
41
1
10
67.3624188181753
20
-4.53034796503255
30
-2E-16
41
1
10
66.3111972277269
20
-4.25035386147255
30
-2E-16
41
1
10
65.9606313674921
20
-4.14959464877944
30
-2E-16
41
1
10
65.2584847361148
20
-3.93397583791429
30
-2E-16
41
1
10
64.9066436339192
20
-3.81901382756215
30
-2E-16
41
1
10
63.8535935633144
20
-3.45604233201521
30
2E-16
41
1
10
63.1534195442704
20
-3.18938849623754
30
2E-16
41
1
10
62.1016814616841
20
-2.759146612991
30
2E-16
41
1
10
61.7508434232412
20
-2.61071559392985
30
2E-16
41
1
10
61.0480242483489
20
-2.30482988616916
30
1E-16
41
1
10
60.6965891334403
20
-2.14760920057984
30
1E-16
41
1
10
59.644233842756
20
-1.66689922239595
30
1E-16
41
1
10
58.9439761752883
20
-1.33376314949797
30
1E-16
41
1
10
57.891493881864
20
-0.823012697952123
30
1E-16
41
1
10
57.5400680762771
20
-0.650769309918644
30
0
41
1
10
56.8370374227302
20
-0.304430516037968
30
0
41
1
10
56.4861669395947
20
-0.130685636486788
30
0
41
1
10
55.4342439716056
20
0.389739324990614
30
0
41
1
10
54.7339530279784
20
0.735758285155526
30
0
41
1
10
53.6807549934222
20
1.24479306923806
30
-1E-16
41
1
10
53.3288128256909
20
1.41299309257155
30
-1E-16
41
1
10
52.6263509770252
20
1.74340057896879
30
-1E-16
41
1
10
52.275632334388
20
1.90565605333694
30
-1E-16
41
1
10
51.2238990346335
20
2.38151923443502
30
-1E-16
41
1
10
50.523374719549
20
2.68434033635535
30
-2E-16
41
1
10
49.4692390376026
20
3.10918121348629
30
-2E-16
41
1
10
49.1173949158917
20
3.24586040478675
30
-2E-16
41
1
10
48.4153949889337
20
3.50700253355697
30
-2E-16
41
1
10
48.0647864080686
20
3.63161246223837
30
2E-16
41
1
10
47.0131449323559
20
3.9861890235112
30
2E-16
41
1
10
46.312264234565
20
4.19683507289639
30
2E-16
41
1
10
44.9052326127772
20
4.55911723956581
30
2E-16
41
1
10
44.2042138213393
20
4.70948134421303
30
2E-16
41
1
10
43.1524501793467
20
4.88549528789699
30
-1E-16
41
1
10
42.80182684106
20
4.93593685749644
30
-1E-16
41
1
10
42.099771815516
20
5.01985715576737
30
-1E-16
41
1
10
41.7479021705436
20
5.0533556110033
30
0
41
1
10
40.8818569055108
20
5.11430247335085
30
0
41
1
10
40.3684877638708
20
5.13174042208576
30
0
41
1
10
39.855189825464
20
5.13040979283946
30
0
0
SPLINE
5
EB
100
AcDbEntity
8
1
62
256
6
ByLayer
370
18
48
1
60
0
100
AcDbSpline
70
4
71
3
72
12
73
8
40
0
40
0
40
0
40
0
40
0.0892691858875428
40
0.0892691858875428
40
0.392846123925029
40
0.392846123925029
40
1
40
1
40
1
40
1
41
1
10
10.4708013728186
20
-4.86804710224334
30
1E-16
41
1
10
10.263876216453
20
-4.89899661124784
30
1E-16
41
1
10
10.0568979699545
20
-4.9270625129397
30
1E-16
41
1
10
9.14769405662227
20
-5.03736886467451
30
0
41
1
10
8.44893910475724
20
-5.08813868135883
30
0
41
1
10
6.35618281829923
20
-5.1368076291422
30
0
41
1
10
4.96532660132317
20
-5.03081355100943
30
1E-16
41
1
10
3.55750847708447
20
-4.78933803069469
30
1E-16
0
SPLINE
5
EC
100
AcDbEntity
8
1
62
256
6
ByLayer
370
18
48
1
60
0
100
AcDbSpline
70
4
71
3
72
38
73
34
40
0
40
0
40
0
40
0
40
0.0473726389947245
40
0.0473726389947245
40
0.108538473590779
40
0.108538473590779
40
0.169704308186832
40
0.169704308186832
40
0.230870142782886
40
0.230870142782886
40
0.29203597737894
40
0.29203597737894
40
0.353201811974994
40
0.353201811974994
40
0.414367646571048
40
0.414367646571048
40
0.475533481167102
40
0.475533481167102
40
0.597865150359209
40
0.597865150359209
40
0.659030984955262
40
0.659030984955262
40
0.720196819551315
40
0.720196819551315
40
0.781362654147369
40
0.781362654147369
40
0.842528488743422
40
0.842528488743422
40
0.903694323339475
40
0.903694323339475
40
0.964860157935529
40
0.964860157935529
40
1
40
1
40
1
40
1
41
1
10
55.6690762310683
20
-0.44814494872449
30
0
41
1
10
55.2768653767003
20
-0.262315973178744
30
0
41
1
10
54.8844494094701
20
-0.0755232826317922
30
0
41
1
10
53.9856969857689
20
0.351650154649718
30
0
41
1
10
53.4796315184583
20
0.591865832626638
30
0
41
1
10
52.4667264264844
20
1.06709645709725
30
-1E-16
41
1
10
51.9600808428567
20
1.30153830611198
30
-1E-16
41
1
10
50.9471138361355
20
1.75942215522227
30
-1E-16
41
1
10
50.4412108851663
20
1.98294068852425
30
-1E-16
41
1
10
49.4282471650761
20
2.41456748005703
30
-1E-16
41
1
10
48.9215936114884
20
2.62230155789504
30
-2E-16
41
1
10
47.9089667060341
20
3.01764204164951
30
-2E-16
41
1
10
47.402710804621
20
3.20563142782831
30
-2E-16
41
1
10
46.3896566096715
20
3.55710666465527
30
-2E-16
41
1
10
45.8830750914507
20
3.72063504161966
30
2E-16
41
1
10
44.8706026923497
20
4.02025659346722
30
2E-16
41
1
10
44.3642468236524
20
4.15650621407096
30
2E-16
41
1
10
42.8446510980982
20
4.51847699592099
30
2E-16
41
1
10
41.8323837249179
20
4.69857835882072
30
-1E-16
41
1
10
40.3127081153645
20
4.86493869192444
30
0
41
1
10
39.8066081268487
20
4.90329232180423
30
0
41
1
10
38.7939671108189
20
4.94529923712696
30
0
41
1
10
38.2871753221502
20
4.94855201885576
30
0
41
1
10
37.2747223704018
20
4.91976341530844
30
0
41
1
10
36.7688802551356
20
4.88789865915936
30
0
41
1
10
35.7559824381304
20
4.78951749910132
30
-1E-16
41
1
10
35.2492942323439
20
4.7228545666606
30
-1E-16
41
1
10
34.2365535147321
20
4.5567307309978
30
-1E-16
41
1
10
33.7304714636752
20
4.45725601418428
30
2E-16
41
1
10
32.7174746257738
20
4.22726809304331
30
2E-16
41
1
10
32.2105514973822
20
4.09658907695371
30
2E-16
41
1
10
31.4138250546731
20
3.86907223641114
30
2E-16
41
1
10
31.1234539975555
20
3.78149019862511
30
2E-16
41
1
10
30.8331881345885
20
3.68960943964876
30
2E-16
0
SPLINE
5
ED
100
AcDbEntity
8
1
62
256
6
ByLayer
370
18
48
1
60
0
100
AcDbSpline
70
4
71
3
72
38
73
34
40
0
40
0
40
0
40
0
40
0.117903670652115
40
0.117903670652115
40
0.176855505978172
40
0.176855505978172
40
0.23580734130423
40
0.23580734130423
40
0.294759176630288
40
0.294759176630288
40
0.353711011956346
40
0.353711011956346
40
0.412662847282403
40
0.412662847282403
40
0.471614682608461
40
0.471614682608461
40
0.530566517934519
40
0.530566517934519
40
0.589518353260577
40
0.589518353260577
40
0.648470188586634
40
0.648470188586634
40
0.707422023912692
40
0.707422023912692
40
0.766373859238751
40
0.766373859238751
40
0.825325694564809
40
0.825325694564809
40
0.884277529890867
40
0.884277529890867
40
0.943229365216924
40
0.943229365216924
40
1
40
1
40
1
40
1
41
1
10
3.64625441205334
20
0.681929604826621
30
0
41
1
10
4.34352742117352
20
0.337522870366399
30
0
41
1
10
5.04142448640454
20
-0.0070309863522766
30
0
41
1
10
6.09096216212626
20
-0.52043856283683
30
0
41
1
10
6.44035397234231
20
-0.690536232535834
30
0
41
1
10
7.13814592495964
20
-1.02806148032991
30
1E-16
41
1
10
7.4864172675081
20
-1.19586945730833
30
1E-16
41
1
10
8.18305214239811
20
-1.52685743142317
30
1E-16
41
1
10
8.53167152466688
20
-1.68954534865509
30
1E-16
41
1
10
9.22941805705301
20
-2.00950489288741
30
1E-16
41
1
10
9.57889098204015
20
-2.16697470705191
30
1E-16
41
1
10
10.27770602879
20
-2.47338960472703
30
2E-16
41
1
10
10.6267065444876
20
-2.62213160133982
30
2E-16
41
1
10
11.3239651222302
20
-2.91063536580063
30
2E-16
41
1
10
11.6721799863153
20
-3.05044661402977
30
2E-16
41
1
10
12.3690657747489
20
-3.31903566379808
30
2E-16
41
1
10
12.7177842562671
20
-3.44776079435118
30
2E-16
41
1
10
13.4159101644272
20
-3.69382823285091
30
-2E-16
41
1
10
13.76564112047
20
-3.81132425089422
30
-2E-16
41
1
10
14.4638164938139
20
-4.03222695983456
30
-2E-16
41
1
10
14.8125725088925
20
-4.13570186000931
30
-2E-16
41
1
10
15.5095700918749
20
-4.32861504066781
30
-2E-16
41
1
10
15.8577609899058
20
-4.41808010038517
30
-2E-16
41
1
10
16.5547500448864
20
-4.58169063534561
30
-2E-16
41
1
10
16.9035970127061
20
-4.65581942673978
30
-2E-16
41
1
10
17.6021646917378
20
-4.7885062782714
30
1E-16
41
1
10
17.9516831124409
20
-4.84700106442898
30
1E-16
41
1
10
18.647553684386
20
-4.94683220728044
30
1E-16
41
1
10
18.9945780123201
20
-4.98830346462717
30
1E-16
41
1
10
19.6870253472265
20
-5.05452073443797
30
0
41
1
10
20.032399553183
20
-5.07924957668698
30
0
41
1
10
20.7099138267713
20
-5.11112234185995
30
0
41
1
10
21.0421321848092
20
-5.11891592176062
30
0
41
1
10
21.3741263573958
20
-5.11889967894808
30
0
0
SPLINE
5
EE
100
AcDbEntity
8
1
62
256
6
ByLayer
370
18
48
1
60
0
100
AcDbSpline
70
4
71
3
72
36
73
32
40
0
40
0
40
0
40
0
40
0.0457529743086789
40
0.0457529743086789
40
0.0987666979581975
40
0.0987666979581975
40
0.151780421607716
40
0.151780421607716
40
0.204794145257234
40
0.204794145257234
40
0.257807868906753
40
0.257807868906753
40
0.310821592556271
40
0.310821592556271
40
0.363835316205789
40
0.363835316205789
40
0.469862763504824
40
0.469862763504824
40
0.522876487154342
40
0.522876487154342
40
0.575890210803859
40
0.575890210803859
40
0.681917658102895
40
0.681917658102895
40
0.734931381752412
40
0.734931381752412
40
0.78794510540193
40
0.78794510540193
40
0.893972552700965
40
0.893972552700965
40
1
40
1
40
1
40
1
41
1
10
50.8119412190519
20
4.8953025658715
30
-1E-16
41
1
10
51.1123619332637
20
4.9405432919622
30
-1E-16
41
1
10
51.4127321832675
20
4.97964936195078
30
0
41
1
10
52.0617006742225
20
5.05040722854775
30
0
41
1
10
52.4101367684752
20
5.08004774577407
30
0
41
1
10
53.1078133565313
20
5.12215037607581
30
0
41
1
10
53.457190420869
20
5.13446896690581
30
0
41
1
10
54.1544856009241
20
5.14180916698248
30
0
41
1
10
54.5025973435666
20
5.13683268200541
30
0
41
1
10
55.1988127315704
20
5.10963048953283
30
0
41
1
10
55.5470436895284
20
5.08745853341676
30
0
41
1
10
56.2438485101478
20
5.02596560518893
30
-1E-16
41
1
10
56.5924359145401
20
4.98653716828412
30
-1E-16
41
1
10
57.290110728832
20
4.89058364915545
30
-1E-16
41
1
10
57.6379650929748
20
4.83454308734039
30
-1E-16
41
1
10
58.6791979521222
20
4.64343061823598
30
2E-16
41
1
10
59.3701886289386
20
4.4854212836018
30
2E-16
41
1
10
60.4038839444137
20
4.20496655670493
30
2E-16
41
1
10
60.7479189575739
20
4.10411484958925
30
2E-16
41
1
10
61.4363058206994
20
3.88928740384787
30
2E-16
41
1
10
61.7807688441565
20
3.77548268519459
30
2E-16
41
1
10
62.8155949677937
20
3.41587930886908
30
-2E-16
41
1
10
63.5071720167227
20
3.15154457564077
30
-2E-16
41
1
10
64.550799370345
20
2.7231490008331
30
-2E-16
41
1
10
64.9003543730507
20
2.57452521227299
30
-2E-16
41
1
10
65.5969230235518
20
2.27011641576229
30
-1E-16
41
1
10
65.9443641219712
20
2.11435663369537
30
-1E-16
41
1
10
66.9849249664568
20
1.63795738346209
30
-1E-16
41
1
10
67.67623481078
20
1.30808569168306
30
-1E-16
41
1
10
69.0601966755651
20
0.636058079553976
30
0
41
1
10
69.7523050388319
20
0.292817685762287
30
0
41
1
10
70.44726621039
20
-0.0522182572177599
30
0
0
SPLINE
5
EF
100
AcDbEntity
8
1
62
256
6
ByLayer
370
18
48
1
60
0
100
AcDbSpline
70
4
71
3
72
14
73
10
40
0
40
0
40
0
40
0
40
0.271221251029178
40
0.271221251029178
40
0.507206740546188
40
0.507206740546188
40
0.781724726341826
40
0.781724726341826
40
1
40
1
40
1
40
1
41
1
10
70.5718604992275
20
-0.108569004441989
30
0
41
1
10
70.5725998812684
20
-0.108885364168117
30
0
41
1
10
70.5733270637909
20
-0.109572341000529
30
0
41
1
10
70.5745416503012
20
-0.111295845007135
30
0
41
1
10
70.575064691564
20
-0.112298687169442
30
0
41
1
10
70.5760358302688
20
-0.114737582159393
30
0
41
1
10
70.5764733469562
20
-0.116255512739684
30
0
41
1
10
70.5770214614199
20
-0.11915232947095
30
0
41
1
10
70.577186050996
20
-0.120530579726136
30
0
41
1
10
70.5772406445938
20
-0.121905029954945
30
0
0
SPLINE
5
F0
100
AcDbEntity
8
1
62
256
6
ByLayer
370
18
48
1
60
0
100
AcDbSpline
70
4
71
3
72
8
73
4
40
0
40
0
40
0
40
0
40
1
40
1
40
1
40
1
41
1
10
3.64450221029836
20
0.649835515992208
30
0
41
1
10
4.12311819391022
20
0.425258938684152
30
0
41
1
10
4.60037883768723
20
0.200810181846236
30
0
41
1
10
5.07692149129187
20
-0.0223633075304122
30
0
0
SPLINE
5
F1
100
AcDbEntity
8
1
62
256
6
ByLayer
370
18
48
1
60
0
100
AcDbSpline
70
4
71
3
72
34
73
30
40
0
40
0
40
0
40
0
40
0.0572812216533623
40
0.0572812216533623
40
0.121068943388767
40
0.121068943388767
40
0.184856665124172
40
0.184856665124172
40
0.248644386859576
40
0.248644386859576
40
0.280538247727279
40
0.280538247727279
40
0.312432108594981
40
0.312432108594981
40
0.376219830330388
40
0.376219830330388
40
0.440007552065795
40
0.440007552065795
40
0.503795273801201
40
0.503795273801201
40
0.631370717272015
40
0.631370717272015
40
0.758946160742828
40
0.758946160742828
40
0.822733882478234
40
0.822733882478234
40
0.886521604213641
40
0.886521604213641
40
1
40
1
40
1
40
1
41
1
10
53.9542310717729
20
4.8910853295672
30
0
41
1
10
54.264999582593
20
4.89181259362402
30
0
41
1
10
54.5757033122998
20
4.88630377049824
30
0
41
1
10
55.2330186432002
20
4.86072075443698
30
0
41
1
10
55.5798303929082
20
4.83868161940785
30
0
41
1
10
56.2744005204498
20
4.77899752168275
30
-1E-16
41
1
10
56.6219736269726
20
4.74178643346906
30
-1E-16
41
1
10
57.3188044971189
20
4.65146680086201
30
-1E-16
41
1
10
57.6685012684162
20
4.59752901638529
30
-1E-16
41
1
10
58.1952108883033
20
4.5042608739401
30
-1E-16
41
1
10
58.3712064350234
20
4.4711069823463
30
-1E-16
41
1
10
58.7221624689113
20
4.40119150285443
30
2E-16
41
1
10
58.8973430987895
20
4.36438990356311
30
2E-16
41
1
10
59.4220720065068
20
4.24869855373001
30
2E-16
41
1
10
59.7708077297088
20
4.16452324393666
30
2E-16
41
1
10
60.4665243512866
20
3.9833610947766
30
2E-16
41
1
10
60.8134494429103
20
3.88647599915578
30
2E-16
41
1
10
61.5065329089516
20
3.68012746624365
30
2E-16
41
1
10
61.8527668775495
20
3.57049501028212
30
-2E-16
41
1
10
62.8912241861544
20
3.22418055386282
30
-2E-16
41
1
10
63.5831196955667
20
2.97049165381654
30
-2E-16
41
1
10
64.9704811184043
20
2.42551641808293
30
-1E-16
41
1
10
65.6656785077428
20
2.13427047732989
30
-1E-16
41
1
10
66.7154905815736
20
1.67552675746171
30
-1E-16
41
1
10
67.0670458942761
20
1.51862295667283
30
-1E-16
41
1
10
67.7692737550012
20
1.20081696927457
30
-1E-16
41
1
10
68.1199157285474
20
1.03994482780408
30
-1E-16
41
1
10
69.093678696111
20
0.58894609850671
30
0
41
1
10
69.7161970605818
20
0.295616858132775
30
0
41
1
10
70.3395200115023
20
0.0011985163402528
30
0
0
SPLINE
5
F2
100
AcDbEntity
8
1
62
256
6
ByLayer
370
18
48
1
60
0
100
AcDbSpline
70
4
71
3
72
10
73
6
40
0
40
0
40
0
40
0
40
0.5
40
0.5
40
1
40
1
40
1
40
1
41
1
10
3.50164193485875
20
0.59311698430389
30
0
41
1
10
3.50164193485875
20
0.627101529741878
30
0
41
1
10
3.51995271751503
20
0.659670958843293
30
0
41
1
10
3.57810051605628
20
0.695335134990103
30
0
41
1
10
3.61563204490869
20
0.697055028199941
30
0
41
1
10
3.64625441205334
20
0.681929604826621
30
0
0
SPLINE
5
F3
100
AcDbEntity
8
1
62
256
6
ByLayer
370
18
48
1
60
0
100
AcDbSpline
70
4
71
3
72
22
73
18
40
0
40
0
40
0
40
0
40
0.236313411624281
40
0.236313411624281
40
0.354470117436422
40
0.354470117436422
40
0.472626823248562
40
0.472626823248562
40
0.590783529060703
40
0.590783529060703
40
0.708940234872844
40
0.708940234872844
40
0.827096940684984
40
0.827096940684984
40
0.945253646497125
40
0.945253646497125
40
1
40
1
40
1
40
1
41
1
10
71.6869563722385
20
1.43209613051607
30
0
41
1
10
71.6056004081477
20
1.42038431433301
30
0
41
1
10
71.5267905953052
20
1.40191024270624
30
0
41
1
10
71.4125558021
20
1.36479183438405
30
0
41
1
10
71.3748693220172
20
1.35072972618011
30
0
41
1
10
71.3027442690247
20
1.32047492306211
30
0
41
1
10
71.2681930439267
20
1.30427734490283
30
0
41
1
10
71.2019609572061
20
1.2702346802966
30
0
41
1
10
71.1702792510118
20
1.25238957173744
30
0
41
1
10
71.1097313632733
20
1.21547719924112
30
0
41
1
10
71.0810613276736
20
1.19650837745604
30
0
41
1
10
71.0280682320144
20
1.15891983786273
30
0
41
1
10
71.0035253105024
20
1.14016763216631
30
0
41
1
10
70.9581475940915
20
1.10311792531886
30
0
41
1
10
70.9371864083612
20
1.08469685812633
30
0
41
1
10
70.909705190234
20
1.05884565954727
30
0
41
1
10
70.9014679096838
20
1.05082982993363
30
0
41
1
10
70.8936935050436
20
1.04298546166305
30
0
0
SPLINE
5
F4
100
AcDbEntity
8
1
62
256
6
ByLayer
370
18
48
1
60
0
100
AcDbSpline
70
4
71
3
72
8
73
4
40
0
40
0
40
0
40
0
40
1
40
1
40
1
40
1
41
1
10
3.60178630542856
20
-4.55132547251915
30
1E-16
41
1
10
3.58708618601756
20
-4.54917211523346
30
1E-16
41
1
10
3.57272273720895
20
-4.55002477015543
30
1E-16
41
1
10
3.55922368499287
20
-4.55397116225754
30
1E-16
0
SPLINE
5
F5
100
AcDbEntity
8
1
62
256
6
ByLayer
370
18
48
1
60
0
100
AcDbSpline
70
4
71
3
72
8
73
4
40
0
40
0
40
0
40
0
40
1
40
1
40
1
40
1
41
1
10
72.5457752242469
20
1.59484900624051
30
0
41
1
10
72.6997376352817
20
1.15948918778986
30
0
41
1
10
72.8495834458906
20
0.7226562845064
30
0
41
1
10
72.9952508451306
20
0.284328177954222
30
0
0
SPLINE
5
F6
100
AcDbEntity
8
1
62
256
6
ByLayer
370
18
48
1
60
0
100
AcDbSpline
70
4
71
3
72
16
73
12
40
0
40
0
40
0
40
0
40
0.226714791586659
40
0.226714791586659
40
0.455727329109954
40
0.455727329109954
40
0.65311156548334
40
0.65311156548334
40
0.827143259179132
40
0.827143259179132
40
1
40
1
40
1
40
1
41
1
10
71.1643056339132
20
-4.84784494499308
30
0
41
1
10
71.1643855392761
20
-4.84801085016485
30
0
41
1
10
71.1644093797305
20
-4.84835612514522
30
0
41
1
10
71.1643193757449
20
-4.84941764912733
30
0
41
1
10
71.1642014633148
20
-4.85015816949317
30
0
41
1
10
71.1638481008803
20
-4.85182951992181
30
0
41
1
10
71.1636251068415
20
-4.85274646005772
30
0
41
1
10
71.1631325938522
20
-4.85457115834032
30
0
41
1
10
71.1628653530597
20
-4.85549085748553
30
0
41
1
10
71.1623071532427
20
-4.85729788916171
30
0
41
1
10
71.1620098260102
20
-4.85820707617225
30
0
41
1
10
71.1617146021734
20
-4.85906603629951
30
0
0
SPLINE
5
F7
100
AcDbEntity
8
1
62
256
6
ByLayer
370
18
48
1
60
0
100
AcDbSpline
70
4
71
3
72
8
73
4
40
0
40
0
40
0
40
0
40
1
40
1
40
1
40
1
41
1
10
3.60178630542853
20
-4.55132547251915
30
1E-16
41
1
10
4.832154768756
20
-4.75139381572205
30
1E-16
41
1
10
6.05056325188315
20
-4.85213637331518
30
0
41
1
10
7.27074740525819
20
-4.8527442056656
30
0
0
SPLINE
5
F8
100
AcDbEntity
8
1
62
256
6
ByLayer
370
18
48
1
60
0
100
AcDbSpline
70
4
71
3
72
24
73
20
40
0
40
0
40
0
40
0
40
0.177687983007816
40
0.177687983007816
40
0.24621398442383
40
0.24621398442383
40
0.314739985839845
40
0.314739985839845
40
0.451791988671875
40
0.451791988671875
40
0.725895994335935
40
0.725895994335935
40
0.794421995751951
40
0.794421995751951
40
0.862947997167968
40
0.862947997167968
40
0.931473998583984
40
0.931473998583984
40
1
40
1
40
1
40
1
41
1
10
55.7791946262003
20
0.219061787679436
30
0
41
1
10
56.684600741486
20
-0.205957300568855
30
0
41
1
10
57.5900711699365
20
-0.633659935354018
30
0
41
1
10
58.8525516040519
20
-1.21308143945737
30
1E-16
41
1
10
59.2047398511496
20
-1.37297413173937
30
1E-16
41
1
10
59.9114040170423
20
-1.68857562934087
30
1E-16
41
1
10
60.2666120055799
20
-1.84458876316424
30
1E-16
41
1
10
61.3268436006407
20
-2.2999368221065
30
1E-16
41
1
10
62.0289862916246
20
-2.58759365327683
30
2E-16
41
1
10
64.1289241932591
20
-3.38985527289012
30
2E-16
41
1
10
65.5205357072938
20
-3.84382568306921
30
-2E-16
41
1
10
67.2742244767284
20
-4.27122138710004
30
-2E-16
41
1
10
67.6257464453512
20
-4.34978773031497
30
-2E-16
41
1
10
68.3308534032437
20
-4.49216691268705
30
1E-16
41
1
10
68.6848372738861
20
-4.55602439376963
30
1E-16
41
1
10
69.3937601533455
20
-4.66770062695397
30
1E-16
41
1
10
69.7478713160926
20
-4.71541348765794
30
1E-16
41
1
10
70.4560084695628
20
-4.79419470220145
30
0
41
1
10
70.8100248871812
20
-4.82470734016718
30
0
41
1
10
71.1643056339138
20
-4.84784494499314
30
0
0
SPLINE
5
F9
100
AcDbEntity
8
1
62
256
6
ByLayer
370
18
48
1
60
0
100
AcDbSpline
70
4
71
3
72
38
73
34
40
0
40
0
40
0
40
0
40
0.496696954728702
40
0.496696954728702
40
0.663835903907097
40
0.663835903907097
40
0.77603561790067
40
0.77603561790067
40
0.851068567533729
40
0.851068567533729
40
0.901093985214582
40
0.901093985214582
40
0.934376501271526
40
0.934376501271526
40
0.956486639338159
40
0.956486639338159
40
0.97115949270395
40
0.97115949270395
40
0.980889842078109
40
0.980889842078109
40
0.987339727844903
40
0.987339727844903
40
0.99171011644427
40
0.99171011644427
40
0.994625492804618
40
0.994625492804618
40
0.996691551444722
40
0.996691551444722
40
0.998699038205808
40
0.998699038205808
40
0.999392444171929
40
0.999392444171929
40
1
40
1
40
1
40
1
41
1
10
70.8915352082388
20
-5.14893613174041
30
0
41
1
10
70.9429005757806
20
-5.11533217884332
30
0
41
1
10
70.9943419941932
20
-5.08143988235202
30
0
41
1
10
71.0631895867325
20
-5.03577397893841
30
0
41
1
10
71.0805325436968
20
-5.02424472987002
30
0
41
1
10
71.1095312250582
20
-5.00492443429297
30
0
41
1
10
71.1211825764937
20
-4.99715028277538
30
0
41
1
10
71.1406317767493
20
-4.98415420852177
30
0
41
1
10
71.1484276316337
20
-4.97893989364445
30
0
41
1
10
71.1614237988472
20
-4.97023890619295
30
0
41
1
10
71.166623210636
20
-4.96675563737372
30
0
41
1
10
71.1752830623775
20
-4.96095038262132
30
0
41
1
10
71.1787430994096
20
-4.95862991015349
30
0
41
1
10
71.184502232535
20
-4.95476591134786
30
0
41
1
10
71.1868011494874
20
-4.9532230551508
30
0
41
1
10
71.1906259226497
20
-4.95065544040315
30
0
41
1
10
71.1921516995662
20
-4.94963097767837
30
0
41
1
10
71.1946894042319
20
-4.94792675235291
30
0
41
1
10
71.1957012965215
20
-4.94724712038214
30
0
41
1
10
71.1973839676278
20
-4.94611682413742
30
0
41
1
10
71.1980549755349
20
-4.9456660497458
30
0
41
1
10
71.1991891416406
20
-4.94490396353683
30
0
41
1
10
71.1996507548116
20
-4.94459372862127
30
0
41
1
10
71.2004191073528
20
-4.94407733546961
30
0
41
1
10
71.2007260259084
20
-4.94387106473138
30
0
41
1
10
71.2012422018105
20
-4.94352423993914
30
0
41
1
10
71.2014543197909
20
-4.94338173827919
30
0
41
1
10
71.2018576796193
20
-4.94311088473759
30
0
41
1
10
71.2020539602053
20
-4.94297913363158
30
0
41
1
10
71.2022768808042
20
-4.94282977997645
30
0
41
1
10
71.202330755959
20
-4.94279371612706
30
0
41
1
10
71.2024115477766
20
-4.94273975670444
30
0
41
1
10
71.2024419633913
20
-4.94271949982897
30
0
41
1
10
71.2024597134499
20
-4.94270778799714
30
0
0
SPLINE
5
FA
100
AcDbEntity
8
1
62
256
6
ByLayer
370
18
48
1
60
0
100
AcDbSpline
70
4
71
3
72
40
73
36
40
0
40
0
40
0
40
0
40
0.0606947491476669
40
0.0606947491476669
40
0.122945743943726
40
0.122945743943726
40
0.185196738739785
40
0.185196738739785
40
0.247447733535844
40
0.247447733535844
40
0.309698728331903
40
0.309698728331903
40
0.371949723127962
40
0.371949723127962
40
0.434200717924022
40
0.434200717924022
40
0.49645171272008
40
0.49645171272008
40
0.55870270751614
40
0.55870270751614
40
0.620953702312199
40
0.620953702312199
40
0.683204697108258
40
0.683204697108258
40
0.745455691904317
40
0.745455691904317
40
0.807706686700377
40
0.807706686700377
40
0.869957681496435
40
0.869957681496435
40
0.932208676292495
40
0.932208676292495
40
0.994459671088554
40
0.994459671088554
40
1
40
1
40
1
40
1
41
1
10
38.1393636960975
20
-0.222798393822899
30
0
41
1
10
37.7973197626178
20
-0.0624026144119512
30
0
41
1
10
37.4545763480533
20
0.0981530913285269
30
0
41
1
10
36.7604351901919
20
0.422642868437322
30
0
41
1
10
36.4094494828501
20
0.586689128567713
30
0
41
1
10
35.7073478821584
20
0.912142953081968
30
-1E-16
41
1
10
35.3558982387987
20
1.07326788500842
30
-1E-16
41
1
10
34.6529664979028
20
1.39168574900341
30
-1E-16
41
1
10
34.3029262130886
20
1.54836334701926
30
-1E-16
41
1
10
33.60445827146
20
1.85500747305716
30
-1E-16
41
1
10
33.2559045803119
20
2.0049179352184
30
-1E-16
41
1
10
32.5600968110764
20
2.29709649504517
30
-1E-16
41
1
10
32.2130559362371
20
2.43938440566282
30
-1E-16
41
1
10
31.5191504595675
20
2.71501070874365
30
-2E-16
41
1
10
31.1723353352763
20
2.84838517514373
30
-2E-16
41
1
10
30.4787538447958
20
3.10522369924738
30
-2E-16
41
1
10
30.1321834347449
20
3.22855054648406
30
-2E-16
41
1
10
29.4379765638003
20
3.46441821983331
30
-2E-16
41
1
10
29.0903908423058
20
3.57696220227933
30
-2E-16
41
1
10
28.3940831905916
20
3.78996246011036
30
2E-16
41
1
10
28.0454933496415
20
3.89007977921813
30
2E-16
41
1
10
27.3460918786316
20
4.07783531769007
30
2E-16
41
1
10
26.9946953224297
20
4.16558602076276
30
2E-16
41
1
10
26.2923676589218
20
4.32616691018907
30
2E-16
41
1
10
25.9427794760231
20
4.39829630263338
30
2E-16
41
1
10
25.2447157681759
20
4.52804879397181
30
-1E-16
41
1
10
24.8963156511237
20
4.58557632314793
30
-1E-16
41
1
10
24.2008992159636
20
4.68442443837321
30
-1E-16
41
1
10
23.8540175559966
20
4.72531839340127
30
-1E-16
41
1
10
23.1602521195531
20
4.79228534083211
30
0
41
1
10
22.8134299164312
20
4.81823223921765
30
0
41
1
10
22.1199365444013
20
4.85323277563302
30
0
41
1
10
21.7733328594364
20
4.86188774405704
30
0
41
1
10
21.3952556748512
20
4.8632782316127
30
0
41
1
10
21.3643527429133
20
4.86333180797666
30
0
41
1
10
21.3334456838585
20
4.86332443241753
30
0
0
SPLINE
5
FB
100
AcDbEntity
8
1
62
256
6
ByLayer
370
18
48
1
60
0
100
AcDbSpline
70
4
71
3
72
12
73
8
40
0
40
0
40
0
40
0
40
0.25
40
0.25
40
0.5
40
0.5
40
1
40
1
40
1
40
1
41
1
10
3.60234096277807
20
0.659363379998581
30
0
41
1
10
3.58669515682178
20
0.659458615079785
30
0
41
1
10
3.57150677669102
20
0.656265426485874
30
0
41
1
10
3.54544500226217
20
0.645402982263334
30
0
41
1
10
3.53468537006228
20
0.637920837461934
30
0
41
1
10
3.50935916484912
20
0.612585762985844
30
0
41
1
10
3.50164193485884
20
0.592327106941269
30
0
41
1
10
3.5016419348587
20
0.572178168583093
30
0
0
SPLINE
5
FC
100
AcDbEntity
8
1
62
256
6
ByLayer
370
18
48
1
60
0
100
AcDbSpline
70
4
71
3
72
26
73
22
40
0
40
0
40
0
40
0
40
0.159465565426379
40
0.159465565426379
40
0.287860021301826
40
0.287860021301826
40
0.352057249239548
40
0.352057249239548
40
0.41625447717727
40
0.41625447717727
40
0.544648933052712
40
0.544648933052712
40
0.673043388928154
40
0.673043388928154
40
0.801437844803597
40
0.801437844803597
40
0.865635072741317
40
0.865635072741317
40
0.929832300679039
40
0.929832300679039
40
1
40
1
40
1
40
1
41
1
10
40.0346519461349
20
-4.8826106198886
30
0
41
1
10
39.1590760439683
20
-4.88751259029854
30
0
41
1
10
38.2832417661526
20
-4.84057797858927
30
0
41
1
10
36.6925857887065
20
-4.66172888782503
30
1E-16
41
1
10
35.9840917916873
20
-4.54909754450162
30
1E-16
41
1
10
34.9199383470755
20
-4.33341569391433
30
-2E-16
41
1
10
34.5653946713034
20
-4.25386671915231
30
-2E-16
41
1
10
33.8592655803479
20
-4.08111050369968
30
-2E-16
41
1
10
33.5071953152463
20
-3.98773802830448
30
-2E-16
41
1
10
32.4529360180584
20
-3.68813700697089
30
-2E-16
41
1
10
31.7529512533248
20
-3.46272247369836
30
2E-16
41
1
10
30.3529027737792
20
-2.96812888458686
30
2E-16
41
1
10
29.6532551167553
20
-2.69905408343564
30
2E-16
41
1
10
28.2488035501779
20
-2.12606063979649
30
1E-16
41
1
10
27.5444422178452
20
-1.82204483470198
30
1E-16
41
1
10
26.4800633476851
20
-1.34716695364966
30
1E-16
41
1
10
26.1258740658743
20
-1.1864669007235
30
1E-16
41
1
10
25.4200908198921
20
-0.862650608579116
30
1E-16
41
1
10
25.0681326367885
20
-0.699488778877878
30
0
41
1
10
24.3327534568348
20
-0.356849487564062
30
0
41
1
10
23.9495229475254
20
-0.17708587745571
30
0
41
1
10
23.5666248696721
20
0.0024754631943154
30
0
0
SPLINE
5
FD
100
AcDbEntity
8
SK1
62
256
6
ByLayer
370
18
48
1
60
0
100
AcDbSpline
70
4
71
3
72
8
73
4
40
0
40
0
40
0
40
0
40
1
40
1
40
1
40
1
41
1
10
-44.25
20
4.80273891767359
30
-1E-16
41
1
10
-44.3060037836704
20
4.75221197989393
30
-1E-16
41
1
10
-44.3619875826153
20
4.70166785438269
30
-1E-16
41
1
10
-44.4179491924311
20
4.65110464525699
30
-1E-16
0
SPLINE
5
FE
100
AcDbEntity
8
SK1
62
256
6
ByLayer
370
18
48
1
60
0
100
AcDbSpline
70
4
71
3
72
12
73
8
40
0
40
0
40
0
40
0
40
0.249999999999998
40
0.249999999999998
40
0.499999999999996
40
0.499999999999996
40
1
40
1
40
1
40
1
41
1
10
-44.15
20
4.86292093253175
30
-1E-16
41
1
10
-44.15
20
4.86805001085858
30
-1E-16
41
1
10
-44.1541964903379
20
4.86897896680708
30
-1E-16
41
1
10
-44.1670510016405
20
4.86511447434603
30
-1E-16
41
1
10
-44.1755314964661
20
4.86050888117299
30
-1E-16
41
1
10
-44.2039103264456
20
4.84208253994782
30
-1E-16
41
1
10
-44.2265803533262
20
4.82386825845666
30
-1E-16
41
1
10
-44.25
20
4.80273891767362
30
-1E-16
0
SPLINE
5
FF
100
AcDbEntity
8
SK1
62
256
6
ByLayer
370
18
48
1
60
0
100
AcDbSpline
70
4
71
3
72
12
73
8
40
0
40
0
40
0
40
0
40
0.25
40
0.25
40
0.5
40
0.5
40
1
40
1
40
1
40
1
41
1
10
-44.4179491924311
20
3.71618495478819
30
2E-16
41
1
10
-44.4585118025587
20
3.63356965092439
30
2E-16
41
1
10
-44.5017617157541
20
3.55008978976852
30
-2E-16
41
1
10
-44.5926945369118
20
3.38172866760371
30
-2E-16
41
1
10
-44.6405857309337
20
3.29650316082385
30
-2E-16
41
1
10
-44.7885787506849
20
3.0416276088182
30
-2E-16
41
1
10
-44.8923167485562
20
2.87368623817417
30
-2E-16
41
1
10
-45.0000000000001
20
2.70731377440606
30
-2E-16
0
SPLINE
5
100
100
AcDbEntity
8
SK1
62
256
6
ByLayer
370
18
48
1
60
0
100
AcDbSpline
70
4
71
3
72
12
73
8
40
0
40
0
40
0
40
0
40
0.500000000000006
40
0.500000000000006
40
0.750000000000003
40
0.750000000000003
40
1
40
1
40
1
40
1
41
1
10
-44.25
20
3.86781922720479
30
2E-16
41
1
10
-44.2265754814923
20
3.88895296338458
30
2E-16
41
1
10
-44.2038494963526
20
3.91459101583385
30
2E-16
41
1
10
-44.1756806214309
20
3.95538015003098
30
2E-16
41
1
10
-44.1670810890644
20
3.96973159601271
30
2E-16
41
1
10
-44.1542487488419
20
3.9974585027997
30
2E-16
41
1
10
-44.15
20
4.01112845241505
30
2E-16
41
1
10
-44.15
20
4.02149321110983
30
2E-16
0
SPLINE
5
101
100
AcDbEntity
8
SK1
62
256
6
ByLayer
370
18
48
1
60
0
100
AcDbSpline
70
4
71
3
72
10
73
6
40
0
40
0
40
0
40
0
40
0.5
40
0.5
40
1
40
1
40
1
40
1
41
1
10
-45.0000000000001
20
4.2371292374504
30
0
41
1
10
-44.892418923189
20
4.33265623030442
30
0
41
1
10
-44.7890116623726
20
4.41763468070229
30
0
41
1
10
-44.5927829535177
20
4.55974152482645
30
1E-16
41
1
10
-44.4993017440334
20
4.61714752134739
30
-1E-16
41
1
10
-44.4179491924311
20
4.65110464525699
30
-1E-16
0
SPLINE
5
102
100
AcDbEntity
8
SK1
62
256
6
ByLayer
370
18
48
1
60
0
100
AcDbSpline
70
4
71
3
72
8
73
4
40
0
40
0
40
0
40
0
40
1
40
1
40
1
40
1
41
1
10
-44.4179491924311
20
3.71618495478819
30
2E-16
41
1
10
-44.3619874127058
20
3.76674831743293
30
2E-16
41
1
10
-44.3060036194575
20
3.81729243757897
30
2E-16
41
1
10
-44.25
20
3.86781922720479
30
2E-16
0
SPLINE
5
103
100
AcDbEntity
8
1
62
256
6
ByLayer
370
18
48
1
60
0
100
AcDbSpline
70
4
71
3
72
14
73
10
40
0
40
0
40
0
40
0
40
0.148245643514649
40
0.35826701829847
40
0.454979116953355
40
0.544065237482234
40
0.644921923430249
40
0.804891002406185
40
1
40
1
40
1
40
1
41
1
10
71.5138216724257
20
0.858987025574208
30
-1E-16
41
1
10
71.1954639516022
20
0.953761873998843
30
-1E-16
41
1
10
70.4278193307362
20
1.18827459326494
30
-1E-16
41
1
10
69.4587559122679
20
1.50498872627418
30
-1E-16
41
1
10
68.6190517989908
20
1.79034226877712
30
-1E-16
41
1
10
68.0126057622556
20
2.0018570268613
30
-1E-16
41
1
10
67.2744250857224
20
2.26592991220539
30
-1E-16
41
1
10
66.3161717870292
20
2.62016072212566
30
-2E-16
41
1
10
65.5744578545857
20
2.90798681339234
30
-2E-16
41
1
10
65.1682072061948
20
3.06963893388007
30
-2E-16
0
SPLINE
5
104
100
AcDbEntity
8
1
62
256
6
ByLayer
370
18
48
1
60
0
100
AcDbSpline
70
4
71
3
72
18
73
14
40
0
40
0
40
0
40
0
40
0.128012301751984
40
0.224664424185835
40
0.34254697690397
40
0.446104517221274
40
0.528429486934064
40
0.609311724166606
40
0.715788646031824
40
0.840451973339216
40
0.949297689500195
40
0.991433742448282
40
1
40
1
40
1
40
1
41
1
10
7.24121118676348
20
-4.85267083916742
30
0
41
1
10
7.7081111155598
20
-4.85291449097491
30
0
41
1
10
8.52755093801994
20
-4.85343523182291
30
0
41
1
10
9.77637361864356
20
-4.85526447082424
30
0
41
1
10
10.9373985060564
20
-4.85556385526945
30
0
41
1
10
12.0458576574553
20
-4.85713253088824
30
0
41
1
10
13.0193703509866
20
-4.85733133786624
30
0
41
1
10
14.0035093398937
20
-4.85863749631207
30
0
41
1
10
15.1422232211207
20
-4.85881623297047
30
0
41
1
10
16.3826823587068
20
-4.86066107081655
30
0
41
1
10
17.3888061393075
20
-4.86042078541587
30
0
41
1
10
17.970727756869
20
-4.86125743170092
30
0
41
1
10
18.1555884178992
20
-4.86146821521609
30
0
41
1
10
18.1868202356775
20
-4.8615019324458
30
0
0
SPLINE
5
105
100
AcDbEntity
8
1
62
256
6
ByLayer
370
18
48
1
60
0
100
AcDbSpline
70
4
71
3
72
33
73
29
40
0
40
0
40
0
40
0
40
3.8564163529E-06
40
2.94106613076E-05
40
4.6717246752E-05
40
5.84605328252E-05
40
6.7245358834E-05
40
0.0001021164753992
40
0.000124858741891
40
0.0001661600124544
40
0.0002406229508463
40
0.0003752450611523
40
0.0006209657885061
40
0.0010770183199539
40
0.002458161921956
40
0.0129642297370535
40
0.0441851225073349
40
0.0884968344114153
40
0.131700641768124
40
0.227360199673207
40
0.315019226373533
40
0.409995413205504
40
0.503542319786498
40
0.595369504629741
40
0.67204571973238
40
0.751377343517892
40
0.867424365653366
40
1
40
1
40
1
40
1
41
1
10
41.4949362306174
20
0.112573933348273
30
0
41
1
10
41.4949437728283
20
0.112572142501676
30
0
41
1
10
41.4950005217517
20
0.112558698855594
30
0
41
1
10
41.4950809136773
20
0.112540049215909
30
0
41
1
10
41.4951491447024
20
0.112525409433346
30
0
41
1
10
41.4951633700993
20
0.112524347365507
30
0
41
1
10
41.4951004544757
20
0.112544763322347
30
0
41
1
10
41.4949464852289
20
0.112590425911861
30
0
41
1
10
41.4947485616101
20
0.112650871934534
30
0
41
1
10
41.4944685477591
20
0.112735966138303
30
0
41
1
10
41.4939631895315
20
0.112889482794998
30
0
41
1
10
41.4930328766231
20
0.113170779439827
30
0
41
1
10
41.4912890530871
20
0.113694326815562
30
0
41
1
10
41.4868479579154
20
0.115015332102018
30
0
41
1
10
41.4572556265339
20
0.123494234967751
30
0
41
1
10
41.3245622255452
20
0.158661884517073
30
0
41
1
10
41.0682049823828
20
0.227385907688443
30
0
41
1
10
40.7049709662826
20
0.32616075805916
30
0
41
1
10
40.1498810451798
20
0.480490385659266
30
0
41
1
10
39.4634914954597
20
0.677498587176586
30
0
41
1
10
38.6236304651147
20
0.928709621986428
30
-1E-16
41
1
10
37.7927539478607
20
1.18719526226062
30
-1E-16
41
1
10
36.9523813522133
20
1.45907387572024
30
-1E-16
41
1
10
36.1698252162586
20
1.72182613153757
30
-1E-16
41
1
10
35.4322685439479
20
1.97765809901878
30
-1E-16
41
1
10
34.6254179755649
20
2.26593097563531
30
-1E-16
41
1
10
33.65681694711
20
2.62409664847988
30
-2E-16
41
1
10
32.927096679294
20
2.90732703819097
30
-2E-16
41
1
10
32.5392199492242
20
3.06155654443319
30
-2E-16
0
SPLINE
5
106
100
AcDbEntity
8
1
62
256
6
ByLayer
370
18
48
1
60
0
100
AcDbSpline
70
4
71
3
72
19
73
15
40
0
40
0
40
0
40
0
40
0.109688818503014
40
0.18603134072748
40
0.258975517295623
40
0.35126092601873
40
0.433232097653696
40
0.499977603202471
40
0.560457988613449
40
0.621751419059148
40
0.727110589370019
40
0.85369726133972
40
0.962606917980026
40
1
40
1
40
1
40
1
41
1
10
39.8967653569524
20
-4.87313062098485
30
0
41
1
10
40.2941608011869
20
-4.87331792334192
30
0
41
1
10
40.9681813627114
20
-4.87369731733375
30
0
41
1
10
41.9070662723901
20
-4.87421752140719
30
0
41
1
10
42.7820559601007
20
-4.87509222529013
30
0
41
1
10
43.6782952012677
20
-4.8752624882778
30
0
41
1
10
44.551809523197
20
-4.87601793003853
30
0
41
1
10
45.3101028965145
20
-4.87665455258673
30
0
41
1
10
45.9934349396852
20
-4.87628101844038
30
0
41
1
10
46.8167351156605
20
-4.87763912653665
30
0
41
1
10
47.879641378704
20
-4.87715351968771
30
0
41
1
10
49.1151945031646
20
-4.8795954221641
30
0
41
1
10
50.1042376605197
20
-4.8780842146011
30
0
41
1
10
50.6346797328939
20
-4.87912298918747
30
0
41
1
10
50.7700895796057
20
-4.87932646675631
30
0
0
SPLINE
5
107
100
AcDbEntity
8
1
62
256
6
ByLayer
370
18
48
1
60
0
100
AcDbSpline
70
4
71
3
72
18
73
14
40
0
40
0
40
0
40
0
40
0.117097059901785
40
0.202859634262924
40
0.298932603512937
40
0.401008177711858
40
0.47698151779122
40
0.545141356605129
40
0.617096100893242
40
0.728571878988362
40
0.852043420357478
40
0.958394936791301
40
1
40
1
40
1
40
1
41
1
10
21.3575988476138
20
4.86333070148569
30
0
41
1
10
20.9336453992357
20
4.86318045348023
30
0
41
1
10
20.1991055968173
20
4.86286047037569
30
0
41
1
10
19.1164674207405
20
4.8619597550398
30
0
41
1
10
18.0880980470172
20
4.86153196431556
30
0
41
1
10
17.0947946610976
20
4.86038232595041
30
0
41
1
10
16.2027139045987
20
4.86039249246514
30
0
41
1
10
15.4198404396194
20
4.85903975038661
30
0
41
1
10
14.5082739585528
20
4.85901297362389
30
0
41
1
10
13.3962704450778
20
4.85760952638404
30
0
41
1
10
12.1602160322249
20
4.85712039688639
30
0
41
1
10
11.1764195675872
20
4.85584931510576
30
0
41
1
10
10.6408733344054
20
4.85564891616264
30
0
41
1
10
10.4902799091983
20
4.85555937442041
30
0
0
SPLINE
5
108
100
AcDbEntity
8
1
62
256
6
ByLayer
370
18
48
1
60
0
100
AcDbSpline
70
4
71
3
72
18
73
14
40
0
40
0
40
0
40
0
40
0.127778313540125
40
0.227680073170993
40
0.347419564206743
40
0.445866370839475
40
0.523682297361381
40
0.605812194270192
40
0.717519183735309
40
0.837753875487764
40
0.94267733198069
40
0.984491018307304
40
1
40
1
40
1
40
1
41
1
10
54.0135131306601
20
4.88113883898674
30
0
41
1
10
53.5482349936919
20
4.88060341344666
30
0
41
1
10
52.719135691847
20
4.87975826396692
30
0
41
1
10
51.4546389167411
20
4.88027074937278
30
0
41
1
10
50.2952297272329
20
4.87796987612288
30
0
41
1
10
49.2166802805689
20
4.87951957252929
30
0
41
1
10
48.2750886445807
20
4.8771903424983
30
0
41
1
10
47.2851866777746
20
4.87811495634449
30
0
41
1
10
46.1407433437517
20
4.87609219528954
30
0
41
1
10
44.9130980055132
20
4.87672012685735
30
0
41
1
10
43.9405599968854
20
4.87531922684738
30
0
41
1
10
43.348903016205
20
4.87533787886358
30
0
41
1
10
43.1411812663343
20
4.87506710811999
30
0
41
1
10
43.0850053027251
20
4.8749828136047
30
0
0
SPLINE
5
109
100
AcDbEntity
8
1
62
256
6
ByLayer
370
18
48
1
60
0
100
AcDbSpline
70
4
71
2
72
6
73
3
40
0
40
0
40
0
40
1
40
1
40
1
41
1
10
56.2237436340249
20
0.0008570801606709
30
0
41
1
10
56.2237532963755
20
0.000874365558559
30
0
41
1
10
56.2237629586882
20
0.0008915465336088
30
0
0
LINE
5
84
100
AcDbEntity
8
1
62
256
6
ByLayer
370
18
48
1
60
0
100
AcDbLine
10
72.928183
20
0.061997
30
0
11
71.686956
21
1.432096
31
0
39
0
210
0
220
0
230
1
0
LINE
5
85
100
AcDbEntity
8
1
62
256
6
ByLayer
370
18
48
1
60
0
100
AcDbLine
10
0.717798
20
5.553221
30
0
11
0.717798
21
0
31
0
39
0
210
0
220
0
230
1
0
LINE
5
86
100
AcDbEntity
8
1
62
256
6
ByLayer
370
18
48
1
60
0
100
AcDbLine
10
0.717798
20
0
30
0
11
0.717798
21
-5.553221
31
0
39
0
210
0
220
0
230
1
0
LINE
5
87
100
AcDbEntity
8
1
62
256
6
ByLayer
370
18
48
1
60
0
100
AcDbLine
10
22.6
20
-0.24242
30
0
11
22.6
21
-0.315884
31
0
39
0
210
0
220
0
230
1
0
LINE
5
88
100
AcDbEntity
8
1
62
256
6
ByLayer
370
18
48
1
60
0
100
AcDbLine
10
1.436097
20
5.106443
30
0
11
1.436097
21
0
31
0
39
0
210
0
220
0
230
1
0
LINE
5
89
100
AcDbEntity
8
1
62
256
6
ByLayer
370
18
48
1
60
0
100
AcDbLine
10
1.436097
20
0
30
0
11
1.436097
21
-5.106443
31
0
39
0
210
0
220
0
230
1
0
LINE
5
8A
100
AcDbEntity
8
1
62
256
6
ByLayer
370
18
48
1
60
0
100
AcDbLine
10
3.501642
20
-4.757378
30
0
11
3.501642
21
0.593117
31
0
39
0
210
0
220
0
230
1
0
LINE
5
8B
100
AcDbEntity
8
1
62
256
6
ByLayer
370
18
48
1
60
0
100
AcDbLine
10
0
20
6
30
0
11
0
21
0
31
0
39
0
210
0
220
0
230
1
0
LINE
5
8C
100
AcDbEntity
8
1
62
256
6
ByLayer
370
18
48
1
60
0
100
AcDbLine
10
0
20
0
30
0
11
0
21
-6
31
0
39
0
210
0
220
0
230
1
0
LINE
5
8D
100
AcDbEntity
8
SK1
62
256
6
ByLayer
370
18
48
1
60
0
100
AcDbLine
10
-45
20
-4.255
30
0
11
-45
21
2.707314
31
0
39
0
210
0
220
0
230
1
0
LINE
5
8F
100
AcDbEntity
8
SK1
62
256
6
ByLayer
370
18
48
1
60
0
100
AcDbLine
10
-45
20
4.237129
30
0
11
-45
21
4.255
31
0
39
0
210
0
220
0
230
1
0
LINE
5
90
100
AcDbEntity
8
SK1
62
256
6
ByLayer
370
18
48
1
60
0
100
AcDbLine
10
-43.255
20
-6
30
0
11
-43.255
21
6
31
0
39
0
210
0
220
0
230
1
0
LINE
5
91
100
AcDbEntity
8
SK1
62
256
6
ByLayer
370
18
48
1
60
0
100
AcDbLine
10
-44.417949
20
3.71606
30
0
11
-44.417949
21
4.651105
31
0
39
0
210
0
220
0
230
1
0
LINE
5
92
100
AcDbEntity
8
SK1
62
256
6
ByLayer
370
18
48
1
60
0
100
AcDbLine
10
-44.25
20
3.867809
30
0
11
-44.25
21
4.802739
31
0
39
0
210
0
220
0
230
1
0
LINE
5
93
100
AcDbEntity
8
SK1
62
256
6
ByLayer
370
18
48
1
60
0
100
AcDbLine
10
0
20
6
30
0
11
0
21
-6
31
0
39
0
210
0
220
0
230
1
0
LINE
5
94
100
AcDbEntity
8
SK1
62
256
6
ByLayer
370
18
48
1
60
0
100
AcDbLine
10
-45
20
2.70729
30
0
11
-45
21
4.237129
31
0
39
0
210
0
220
0
230
1
0
LINE
5
95
100
AcDbEntity
8
SK1
62
256
6
ByLayer
370
18
48
1
60
0
100
AcDbLine
10
-44.15
20
4.021493
30
0
11
-44.15
21
4.862921
31
0
39
0
210
0
220
0
230
1
0
LINE
5
96
100
AcDbEntity
8
SK1
62
256
6
ByLayer
370
18
48
1
60
0
100
AcDbLine
10
-45
20
-4.255
30
0
11
-43.255
21
-6
31
0
39
0
210
0
220
0
230
1
0
LINE
5
97
100
AcDbEntity
8
SK1
62
256
6
ByLayer
370
18
48
1
60
0
100
AcDbLine
10
-43.255
20
6
30
0
11
-45
21
4.255
31
0
39
0
210
0
220
0
230
1
0
LINE
5
98
100
AcDbEntity
8
SK1
62
256
6
ByLayer
370
18
48
1
60
0
100
AcDbLine
10
-43.255
20
-6
30
0
11
0
21
-6
31
0
39
0
210
0
220
0
230
1
0
LINE
5
99
100
AcDbEntity
8
SK1
62
256
6
ByLayer
370
18
48
1
60
0
100
AcDbLine
10
0
20
6
30
0
11
-43.255
21
6
31
0
39
0
210
0
220
0
230
1
0
LINE
5
9A
100
AcDbEntity
8
1
62
256
6
ByLayer
370
18
48
1
60
0
100
AcDbLine
10
1.436097
20
-5.106443
30
0
11
7.246172
21
-5.110074
31
0
39
0
210
0
220
0
230
1
0
LINE
5
9B
100
AcDbEntity
8
1
62
256
6
ByLayer
370
18
48
1
60
0
100
AcDbLine
10
21.36025
20
-5.118896
30
0
11
22.871434
21
-5.11984
31
0
39
0
210
0
220
0
230
1
0
LINE
5
9C
100
AcDbEntity
8
1
62
256
6
ByLayer
370
18
48
1
60
0
100
AcDbLine
10
38.433952
20
-5.129567
30
0
11
39.896391
21
-5.130481
31
0
39
0
210
0
220
0
230
1
0
LINE
5
9D
100
AcDbEntity
8
1
62
256
6
ByLayer
370
18
48
1
60
0
100
AcDbLine
10
54.014401
20
-5.139304
30
0
11
55.490441
21
-5.140227
31
0
39
0
210
0
220
0
230
1
0
LINE
5
9E
100
AcDbEntity
8
1
62
256
6
ByLayer
370
18
48
1
60
0
100
AcDbLine
10
55.490441
20
5.140227
30
0
11
54.014401
21
5.139304
31
0
39
0
210
0
220
0
230
1
0
LINE
5
9F
100
AcDbEntity
8
1
62
256
6
ByLayer
370
18
48
1
60
0
100
AcDbLine
10
39.896391
20
5.130481
30
0
11
38.433952
21
5.129567
31
0
39
0
210
0
220
0
230
1
0
LINE
5
A0
100
AcDbEntity
8
1
62
256
6
ByLayer
370
18
48
1
60
0
100
AcDbLine
10
22.871434
20
5.11984
30
0
11
21.36025
21
5.118896
31
0
39
0
210
0
220
0
230
1
0
LINE
5
A1
100
AcDbEntity
8
1
62
256
6
ByLayer
370
18
48
1
60
0
100
AcDbLine
10
7.246172
20
5.110074
30
0
11
1.436097
21
5.106443
31
0
39
0
210
0
220
0
230
1
0
LINE
5
A2
100
AcDbEntity
8
SK4
62
256
6
ByLayer
370
18
48
0.05
60
0
100
AcDbLine
10
78
20
0
30
0
11
-50
21
0
31
0
39
0
210
0
220
0
230
1
0
LINE
5
A4
100
AcDbEntity
8
4
62
256
6
ByLayer
370
18
48
0.05
60
0
100
AcDbLine
10
-45
20
0
30
0
11
78
21
0
31
0
39
0
210
0
220
0
230
1
0
LINE
5
A6
100
AcDbEntity
8
80
62
256
6
ByLayer
370
18
48
1
60
0
100
AcDbLine
10
0
20
0
30
0
11
-6
21
0
31
0
39
0
210
0
220
0
230
1
0
LINE
5
A7
100
AcDbEntity
8
81
62
256
6
ByLayer
370
18
48
1
60
0
100
AcDbLine
10
73
20
0
30
0
11
79
21
0
31
0
39
0
210
0
220
0
230
1
0
LINE
5
A8
100
AcDbEntity
8
SK2
62
256
6
ByLayer
370
13
48
1
60
0
100
AcDbLine
10
73.542945
20
1.491766
30
0
11
80.926142
21
21.77744
31
0
39
0
210
0
220
0
230
1
0
LINE
5
AA
100
AcDbEntity
8
SK2
62
256
6
ByLayer
370
13
48
1
60
0
100
AcDbLine
10
73.542945
20
-1.491766
30
0
11
80.926142
21
-21.77744
31
0
39
0
210
0
220
0
230
1
0
LINE
5
AB
100
AcDbEntity
8
1
62
256
6
ByLayer
370
13
48
1
60
0
100
AcDbLine
10
79.840252
20
18.793907
30
0
11
82.936849
21
17.97756
31
0
39
0
210
0
220
0
230
1
0
LINE
5
AC
100
AcDbEntity
8
1
62
256
6
ByLayer
370
13
48
1
60
0
100
AcDbLine
10
79.840252
20
18.793907
30
0
11
82.620052
21
17.203917
31
0
39
0
210
0
220
0
230
1
0
LINE
5
AD
100
AcDbEntity
8
1
62
256
6
ByLayer
370
13
48
1
60
0
100
AcDbLine
10
82.936849
20
17.97756
30
0
11
82.620052
21
17.203917
31
0
39
0
210
0
220
0
230
1
0
LINE
5
AE
100
AcDbEntity
8
1
62
256
6
ByLayer
370
13
48
1
60
0
100
AcDbLine
10
79.840252
20
-18.793907
30
0
11
82.620049
21
-17.203918
31
0
39
0
210
0
220
0
230
1
0
LINE
5
AF
100
AcDbEntity
8
1
62
256
6
ByLayer
370
13
48
1
60
0
100
AcDbLine
10
79.840252
20
-18.793907
30
0
11
82.936852
21
-17.977559
31
0
39
0
210
0
220
0
230
1
0
LINE
5
B0
100
AcDbEntity
8
1
62
256
6
ByLayer
370
13
48
1
60
0
100
AcDbLine
10
82.620049
20
-17.203918
30
0
11
82.936852
21
-17.977559
31
0
39
0
210
0
220
0
230
1
0
MTEXT
5
10A
100
AcDbEntity
8
SK2
62
256
6
ByLayer
370
18
48
1
60
0
100
AcDbMText
10
86.717388
20
-2.467451
30
0
210
0
220
0
230
1
1
\W0.7237;140.00
40
3.50012
41
0
44
1.084337
50
0
71
7
72
5
7
iso_b_vert
0
MTEXT
5
10D
100
AcDbEntity
8
SK6
62
256
6
ByLayer
370
18
48
1
60
0
100
AcDbMText
10
-24.404933
20
-98.951952
30
0
210
0
220
0
230
1
1
\W0.7348;860.1-1030-052A1-GM X1BM
40
3.175
41
0
44
1.084337
50
0
71
7
72
5
7
iso_b_vert
0
DIMENSION
5
110
100
AcDbEntity
8
SK2
62
256
6
ByLayer
370
18
48
1
60
0
100
AcDbDimension
2
_U0
10
73
20
-29.50012
30
0
11
36.5
21
-29.50012
31
0
70
32
71
2
72
1
41
1
210
0
220
0
230
1
3
Standard
100
AcDbAlignedDimension
13
0
23
-6
33
0
14
73
24
0
34
0
50
0
100
AcDbRotatedDimension
1001
ACAD
1000
DSTYLE
1002
{
1070
   371
1070
    13
1070
   372
1070
    13
1070
     3
1000

1070
   170
1070
     0
1070
   144
1040
1.0
1070
   277
1070
     2
1070
   284
1070
     8
1070
   278
1070
    46
1070
   146
1040
0.999966
1070
   345
1005
16
1070
   347
1005
16
1070
   346
1005
16
1070
   344
1005
111
1070
   343
1005
111
1070
   172
1070
     1
1070
    76
1070
     0
1070
    75
1070
     0
1070
   282
1070
     0
1070
   281
1070
     0
1070
    71
1070
     0
1070
    74
1070
     0
1070
   279
1070
     0
1070
   173
1070
     1
1070
   340
1005
10B
1070
   271
1070
     1
1070
   272
1070
     2
1070
    77
1070
     1
1070
    73
1070
     1
1070
   171
1070
     3
1070
   274
1070
     4
1070
   177
1070
   150
1070
   176
1070
     9
1070
   178
1070
    43
1070
    78
1070
     8
1070
    48
1040
-0.1
1070
    41
1040
3.175
1070
   147
1040
1.75006
1070
    42
1040
1.5875
1070
    44
1040
3.175
1070
   140
1040
3.50012
1002
}
1001
ACAD_DSTYLE_DIM_LINETYPE
1070
   380
1005
16
1001
ACAD_DSTYLE_DIM_EXT1_LINETYPE
1070
   381
1005
16
1001
ACAD_DSTYLE_DIM_EXT2_LINETYPE
1070
   382
1005
16
0
DIMENSION
5
136
100
AcDbEntity
8
2
62
256
6
ByLayer
370
18
48
1
60
0
100
AcDbDimension
2
_U1
10
79.75006
20
5.15
30
0
11
79.75006
21
22.139948
31
0
70
32
71
1
72
1
41
1
210
0
220
0
230
1
3
Standard
100
AcDbAlignedDimension
13
71.1256
23
-5.15
33
0
14
71.1256
24
5.15
34
0
50
90
100
AcDbRotatedDimension
1001
ACAD
1000
DSTYLE
1002
{
1070
   371
1070
    13
1070
   372
1070
    13
1070
     3
1000

1070
   170
1070
     0
1070
   144
1040
1.0
1070
   277
1070
     2
1070
   284
1070
     8
1070
   278
1070
    46
1070
   146
1040
0.999966
1070
   345
1005
16
1070
   347
1005
16
1070
   346
1005
16
1070
   344
1005
111
1070
   343
1005
111
1070
   172
1070
     1
1070
    76
1070
     0
1070
    75
1070
     0
1070
   282
1070
     0
1070
   281
1070
     0
1070
    71
1070
     0
1070
    74
1070
     0
1070
   279
1070
     0
1070
   173
1070
     1
1070
   340
1005
10B
1070
   271
1070
     1
1070
   272
1070
     2
1070
    77
1070
     1
1070
    73
1070
     0
1070
   171
1070
     3
1070
   274
1070
     4
1070
   177
1070
   150
1070
   176
1070
     9
1070
   178
1070
    43
1070
    78
1070
     8
1070
    48
1040
-0.1
1070
    41
1040
3.175
1070
   147
1040
1.75006
1070
    42
1040
1.5875
1070
    44
1040
3.175
1070
   140
1040
3.50012
1002
}
1001
ACAD_DSTYLE_DIM_LINETYPE
1070
   380
1005
16
1001
ACAD_DSTYLE_DIM_EXT1_LINETYPE
1070
   381
1005
16
1001
ACAD_DSTYLE_DIM_EXT2_LINETYPE
1070
   382
1005
16
0
DIMENSION
5
155
100
AcDbEntity
8
SK2
62
256
6
ByLayer
370
18
48
1
60
0
100
AcDbDimension
2
_U2
10
-48.24994
20
-6
30
0
11
-48.24994
21
20.97767
31
0
70
32
71
1
72
1
41
1
210
0
220
0
230
1
3
Standard
100
AcDbAlignedDimension
13
-45
23
6
33
0
14
-45
24
-6
34
0
50
90
100
AcDbRotatedDimension
1001
ACAD
1000
DSTYLE
1002
{
1070
   371
1070
    13
1070
   372
1070
    13
1070
     3
1000

1070
   170
1070
     0
1070
   144
1040
1.0
1070
   277
1070
     2
1070
   284
1070
     8
1070
   278
1070
    46
1070
   146
1040
0.999966
1070
   345
1005
16
1070
   347
1005
16
1070
   346
1005
16
1070
   344
1005
111
1070
   343
1005
111
1070
   172
1070
     1
1070
    76
1070
     0
1070
    75
1070
     0
1070
   282
1070
     0
1070
   281
1070
     0
1070
    71
1070
     0
1070
    74
1070
     0
1070
   279
1070
     0
1070
   173
1070
     1
1070
   340
1005
10B
1070
   271
1070
     1
1070
   272
1070
     2
1070
    77
1070
     1
1070
    73
1070
     0
1070
   171
1070
     3
1070
   274
1070
     4
1070
   177
1070
   150
1070
   176
1070
     9
1070
   178
1070
    43
1070
    78
1070
     8
1070
    48
1040
-0.1
1070
    41
1040
3.175
1070
   147
1040
1.75006
1070
    42
1040
1.5875
1070
    44
1040
3.175
1070
   140
1040
3.50012
1002
}
1001
ACAD_DSTYLE_DIM_LINETYPE
1070
   380
1005
16
1001
ACAD_DSTYLE_DIM_EXT1_LINETYPE
1070
   381
1005
16
1001
ACAD_DSTYLE_DIM_EXT2_LINETYPE
1070
   382
1005
16
0
DIMENSION
5
173
100
AcDbEntity
8
SK2
62
256
6
ByLayer
370
18
48
1
60
0
100
AcDbDimension
2
_U3
10
0
20
-29.50012
30
0
11
-22.5
21
-29.50012
31
0
70
32
71
1
72
1
41
1
210
0
220
0
230
1
3
Standard
100
AcDbAlignedDimension
13
-45
23
-6
33
0
14
0
24
-6
34
0
50
0
100
AcDbRotatedDimension
1001
ACAD
1000
DSTYLE
1002
{
1070
   371
1070
    13
1070
   372
1070
    13
1070
     3
1000

1070
   170
1070
     0
1070
   144
1040
1.0
1070
   277
1070
     2
1070
   284
1070
     8
1070
   278
1070
    46
1070
   146
1040
0.999966
1070
   345
1005
16
1070
   347
1005
16
1070
   346
1005
16
1070
   344
1005
111
1070
   343
1005
111
1070
   172
1070
     1
1070
    76
1070
     0
1070
    75
1070
     0
1070
   282
1070
     0
1070
   281
1070
     0
1070
    71
1070
     0
1070
    74
1070
     0
1070
   279
1070
     0
1070
   173
1070
     1
1070
   340
1005
10B
1070
   271
1070
     1
1070
   272
1070
     2
1070
    77
1070
     1
1070
    73
1070
     1
1070
   171
1070
     3
1070
   274
1070
     4
1070
   177
1070
   150
1070
   176
1070
     9
1070
   178
1070
    43
1070
    78
1070
     8
1070
    48
1040
-0.1
1070
    41
1040
3.175
1070
   147
1040
1.75006
1070
    42
1040
1.5875
1070
    44
1040
3.175
1070
   140
1040
3.50012
1002
}
1001
ACAD_DSTYLE_DIM_LINETYPE
1070
   380
1005
16
1001
ACAD_DSTYLE_DIM_EXT1_LINETYPE
1070
   381
1005
16
1001
ACAD_DSTYLE_DIM_EXT2_LINETYPE
1070
   382
1005
16
0
DIMENSION
5
18F
100
AcDbEntity
8
SK2
62
256
6
ByLayer
370
18
48
1
60
0
100
AcDbDimension
2
_U4
10
73
20
-20.74982
30
0
11
37.5
21
-20.74982
31
0
70
32
71
1
72
1
41
1
210
0
220
0
230
1
3
Standard
100
AcDbAlignedDimension
13
2
23
5.65
33
0
14
73
24
0
34
0
50
0
100
AcDbRotatedDimension
1001
ACAD
1000
DSTYLE
1002
{
1070
   371
1070
    13
1070
   372
1070
    13
1070
     3
1000

1070
   170
1070
     0
1070
   144
1040
1.0
1070
   277
1070
     2
1070
   284
1070
     8
1070
   278
1070
    46
1070
   146
1040
0.999966
1070
   345
1005
16
1070
   347
1005
16
1070
   346
1005
16
1070
   344
1005
111
1070
   343
1005
111
1070
   172
1070
     1
1070
    76
1070
     0
1070
    75
1070
     0
1070
   282
1070
     0
1070
   281
1070
     0
1070
    71
1070
     0
1070
    74
1070
     0
1070
   279
1070
     0
1070
   173
1070
     1
1070
   340
1005
10B
1070
   271
1070
     1
1070
   272
1070
     2
1070
    77
1070
     1
1070
    73
1070
     1
1070
   171
1070
     3
1070
   274
1070
     4
1070
   177
1070
   150
1070
   176
1070
     9
1070
   178
1070
    43
1070
    78
1070
     8
1070
    48
1040
-0.1
1070
    41
1040
3.175
1070
   147
1040
1.75006
1070
    42
1040
1.5875
1070
    44
1040
3.175
1070
   140
1040
3.50012
1002
}
1001
ACAD_DSTYLE_DIM_LINETYPE
1070
   380
1005
16
1001
ACAD_DSTYLE_DIM_EXT1_LINETYPE
1070
   381
1005
16
1001
ACAD_DSTYLE_DIM_EXT2_LINETYPE
1070
   382
1005
16
0
DIMENSION
5
1AB
100
AcDbEntity
8
SK2
62
256
6
ByLayer
370
18
48
1
60
0
100
AcDbDimension
2
_U5
10
73
20
-12.82
30
0
11
46.35
21
-12.82
31
0
70
32
71
1
72
1
41
1
210
0
220
0
230
1
3
Standard
100
AcDbAlignedDimension
13
19.7
23
-5.15
33
0
14
73
24
0
34
0
50
0
100
AcDbRotatedDimension
1001
ACAD
1000
DSTYLE
1002
{
1070
   371
1070
    13
1070
   372
1070
    13
1070
     3
1000

1070
   170
1070
     0
1070
   144
1040
1.0
1070
   277
1070
     2
1070
   284
1070
     8
1070
   278
1070
    46
1070
   146
1040
1.25
1070
   345
1005
16
1070
   347
1005
16
1070
   346
1005
16
1070
   344
1005
111
1070
   343
1005
111
1070
   172
1070
     1
1070
    76
1070
     0
1070
    75
1070
     0
1070
   282
1070
     0
1070
   281
1070
     0
1070
    71
1070
     0
1070
    74
1070
     0
1070
   279
1070
     0
1070
   173
1070
     1
1070
   340
1005
10B
1070
   271
1070
     1
1070
   272
1070
     2
1070
    77
1070
     1
1070
    73
1070
     1
1070
   171
1070
     3
1070
   274
1070
     4
1070
   177
1070
   150
1070
   176
1070
     9
1070
   178
1070
    43
1070
    78
1070
     8
1070
    48
1040
-0.1
1070
    41
1040
3.175
1070
   147
1040
0.42
1070
    42
1040
1.5875
1070
    44
1040
0.5
1070
   140
1040
2.8
1002
}
1001
ACAD_DSTYLE_DIM_LINETYPE
1070
   380
1005
16
1001
ACAD_DSTYLE_DIM_EXT1_LINETYPE
1070
   381
1005
16
1001
ACAD_DSTYLE_DIM_EXT2_LINETYPE
1070
   382
1005
16
0
DIMENSION
5
1C7
100
AcDbEntity
8
SK2
62
256
6
ByLayer
370
18
48
1
60
0
100
AcDbDimension
2
_U6
10
73
20
-39.50012
30
0
11
14
21
-39.50012
31
0
70
32
71
1
72
1
41
1
210
0
220
0
230
1
3
Standard
100
AcDbAlignedDimension
13
-45
23
0
33
0
14
73
24
0
34
0
50
0
100
AcDbRotatedDimension
1001
ACAD
1000
DSTYLE
1002
{
1070
   371
1070
    13
1070
   372
1070
    13
1070
     3
1000

1070
   170
1070
     0
1070
   144
1040
1.0
1070
   277
1070
     2
1070
   284
1070
     8
1070
   278
1070
    46
1070
   146
1040
0.999966
1070
   345
1005
16
1070
   347
1005
16
1070
   346
1005
16
1070
   344
1005
111
1070
   343
1005
111
1070
   172
1070
     1
1070
    76
1070
     0
1070
    75
1070
     0
1070
   282
1070
     0
1070
   281
1070
     0
1070
    71
1070
     0
1070
    74
1070
     0
1070
   279
1070
     0
1070
   173
1070
     1
1070
   340
1005
10B
1070
   271
1070
     1
1070
   272
1070
     2
1070
    77
1070
     1
1070
    73
1070
     1
1070
   171
1070
     3
1070
   274
1070
     4
1070
   177
1070
   150
1070
   176
1070
     9
1070
   178
1070
    43
1070
    78
1070
     8
1070
    48
1040
-0.1
1070
    41
1040
3.175
1070
   147
1040
1.75006
1070
    42
1040
1.5875
1070
    44
1040
3.175
1070
   140
1040
3.50012
1002
}
1001
ACAD_DSTYLE_DIM_LINETYPE
1070
   380
1005
16
1001
ACAD_DSTYLE_DIM_EXT1_LINETYPE
1070
   381
1005
16
1001
ACAD_DSTYLE_DIM_EXT2_LINETYPE
1070
   382
1005
16
0
ENDSEC
0
SECTION
2
OBJECTS
0
DICTIONARY
5
253
330
0
100
AcDbDictionary
280
0
281
1
3
ACAD_GROUP
350
254
3
ACAD_MLINESTYLE
350
255
0
DICTIONARY
5
254
330
0
100
AcDbDictionary
280
0
281
1
0
DICTIONARY
5
255
330
0
100
AcDbDictionary
280
0
281
1
3
Standard
350
18
0
MLINESTYLE
5
18
330
255
100
AcDbMlineStyle
2
Standard
70
0
3

62
256
51
90
52
90
71
2
49
-0.5
62
256
6
ByLayer
49
0.5
62
256
6
ByLayer
0
RASTERVARIABLES
5
241
330

100
AcDbRasterVariables
90
0
70
1
71
1
72
1
0
ENDSEC
0
EOF
