0
SECTION
2
HEADER
9
$ACADVER
1
AC1015
9
$DWGCODEPAGE
3
ANSI_1252
9
$HANDSEED
5
24d
9
$ANGBASE
50
0
9
$ANGDIR
70
0
9
$ATTMODE
70
1
9
$AUNITS
70
0
9
$AUPREC
70
0
9
$CECOLOR
62
256
9
$CELTSCALE
40
1
9
$CELTYPE
6
ByLayer
9
$CELWEIGHT
370
18
9
$CLAYER
8
0
9
$CMLJUST
70
0
9
$CMLSCALE
40
1
9
$CMLSTYLE
2
Standard
9
$DIMSTYLE
2
Standard
9
$TEXTSIZE
40
0.2
9
$TEXTSTYLE
7
Standard
9
$LUNITS
70
2
9
$LUPREC
70
4
9
$EXTNAMES
290
1
9
$INSUNITS
70
4
9
$LTSCALE
40
1
9
$LWDISPLAY
290
1
9
$PDMODE
70
0
9
$PDSIZE
40
0
9
$PLINEGEN
70
0
0
ENDSEC
0
SECTION
2
CLASSES
0
CLASS
1
RASTERVARIABLES
2
AcDbRasterVariables
3
ISM
90
0
280
0
281
0
0
ENDSEC
0
SECTION
2
TABLES
0
TABLE
2
VPORT
5
243
100
AcDbSymbolTable
0
VPORT
5
1
100
AcDbSymbolTableRecord
100
AcDbViewportTableRecord
2
*Active
70
0
10
0
20
0
11
1
21
1
12
-1
22
1
13
0
23
0
14
0.5
24
0.5
15
10
25
10
16
0
26
0
36
1
17
0
27
0
37
0
0
ENDTAB
0
TABLE
2
LTYPE
5
244
100
AcDbSymbolTable
0
LTYPE
5
14
100
AcDbSymbolTableRecord
100
AcDbLinetypeTableRecord
70
0
2
ByBlock
3

72
65
73
0
40
0
0
LTYPE
5
15
100
AcDbSymbolTableRecord
100
AcDbLinetypeTableRecord
70
0
2
ByLayer
3

72
65
73
0
40
0
0
LTYPE
5
16
100
AcDbSymbolTableRecord
100
AcDbLinetypeTableRecord
70
0
2
Continuous
3
Solid line
72
65
73
0
40
0
0
LTYPE
5
6E
100
AcDbSymbolTableRecord
100
AcDbLinetypeTableRecord
70
0
2
CENTER
3
____ _ ____ _ ____ _ ____
72
65
73
4
40
47.5
49
22
74
0
49
-8.5
74
0
49
8.5
74
0
49
-8.5
74
0
0
LTYPE
5
6F
100
AcDbSymbolTableRecord
100
AcDbLinetypeTableRecord
70
0
2
DASHED
3
__ __ __ __ __ __ __ __ __
72
65
73
2
40
25.72
49
12.86
74
0
49
-12.86
74
0
0
ENDTAB
0
TABLE
2
LAYER
5
245
100
AcDbSymbolTable
0
LAYER
5
10
100
AcDbSymbolTableRecord
100
AcDbLayerTableRecord
2
0
70
0
62
7
6
Continuous
290
1
370
-3
390
0
0
LAYER
5
71
100
AcDbSymbolTableRecord
100
AcDbLayerTableRecord
2
80
70
0
62
-6
6
Continuous
290
1
370
-3
390
0
0
LAYER
5
73
100
AcDbSymbolTableRecord
100
AcDbLayerTableRecord
2
81
70
0
62
-3
6
Continuous
290
1
370
-3
390
0
0
LAYER
5
75
100
AcDbSymbolTableRecord
100
AcDbLayerTableRecord
2
1
70
0
62
4
6
Continuous
290
1
370
-3
390
0
0
LAYER
5
A2
100
AcDbSymbolTableRecord
100
AcDbLayerTableRecord
2
4
70
0
62
-2
6
CENTER
290
1
370
-3
390
0
0
LAYER
5
107
100
AcDbSymbolTableRecord
100
AcDbLayerTableRecord
2
Defpoints
70
0
62
7
6
Continuous
290
0
370
-3
390
0
0
LAYER
5
134
100
AcDbSymbolTableRecord
100
AcDbLayerTableRecord
2
2
70
0
62
7
6
Continuous
290
1
370
-3
390
0
0
LAYER
5
22f
100
AcDbSymbolTableRecord
100
AcDbLayerTableRecord
2
SK1
70
0
62
4
6
Continuous
290
1
370
-3
390
0
0
LAYER
5
230
100
AcDbSymbolTableRecord
100
AcDbLayerTableRecord
2
SK4
70
0
62
2
6
CENTER
290
1
370
-3
390
0
0
LAYER
5
231
100
AcDbSymbolTableRecord
100
AcDbLayerTableRecord
2
SK2
70
0
62
7
6
Continuous
290
1
370
-3
390
0
0
LAYER
5
232
100
AcDbSymbolTableRecord
100
AcDbLayerTableRecord
2
SK6
70
0
62
5
6
Continuous
290
1
370
-3
390
0
0
ENDTAB
0
TABLE
2
STYLE
5
246
100
AcDbSymbolTable
0
STYLE
5
11
100
AcDbSymbolTableRecord
100
AcDbTextStyleTableRecord
2
Standard
3
txt
70
0
71
0
40
0
41
1
42
0
50
0
0
STYLE
5
F8
100
AcDbSymbolTableRecord
100
AcDbTextStyleTableRecord
2
iso_b_vert
3
simplex.shx
70
0
71
0
40
0
41
1
42
0
50
0
0
STYLE
5
F9
100
AcDbSymbolTableRecord
100
AcDbTextStyleTableRecord
2
DWGDirectTextStyle
3
simplex
70
0
71
0
40
0
41
1
42
0
50
0
0
ENDTAB
0
TABLE
2
DIMSTYLE
5
247
100
AcDbSymbolTable
100
AcDbDimStyleTable
0
DIMSTYLE
105
27
100
AcDbSymbolTableRecord
100
AcDbDimStyleTableRecord
2
Standard
70
0
3
<>
41
0.18
42
0.0625
44
0.18
140
0.18
147
0.09
73
0
74
0
77
1
271
2
275
0
278
52
280
0
340
11
0
ENDTAB
0
TABLE
2
VIEW
5
248
100
AcDbSymbolTable
0
ENDTAB
0
TABLE
2
UCS
5
249
100
AcDbSymbolTable
0
ENDTAB
0
TABLE
2
APPID
5
24a
100
AcDbSymbolTable
0
APPID
5
12
100
AcDbSymbolTableRecord
100
AcDbRegAppTableRecord
2
ACAD
70
0
0
APPID
5
FC
100
AcDbSymbolTableRecord
100
AcDbRegAppTableRecord
2
ACAD_DSTYLE_DIMBREAK
70
0
0
APPID
5
1EE
100
AcDbSymbolTableRecord
100
AcDbRegAppTableRecord
2
ACAD_DSTYLE_DIM_LINETYPE
70
0
0
APPID
5
1EF
100
AcDbSymbolTableRecord
100
AcDbRegAppTableRecord
2
ACAD_DSTYLE_DIM_EXT1_LINETYPE
70
0
0
APPID
5
1F0
100
AcDbSymbolTableRecord
100
AcDbRegAppTableRecord
2
ACAD_DSTYLE_DIM_EXT2_LINETYPE
70
0
0
APPID
5
22B
100
AcDbSymbolTableRecord
100
AcDbRegAppTableRecord
2
ACAD_MLEADERVER
70
0
0
ENDTAB
0
TABLE
2
BLOCK_RECORD
5
24b
100
AcDbSymbolTable
0
BLOCK_RECORD
5
1F
100
AcDbSymbolTableRecord
100
AcDbBlockTableRecord
2
*Model_Space
340
0
70
0
0
BLOCK_RECORD
5
1B
100
AcDbSymbolTableRecord
100
AcDbBlockTableRecord
2
*Paper_Space
340
0
70
0
0
BLOCK_RECORD
5
23
100
AcDbSymbolTableRecord
100
AcDbBlockTableRecord
2
*Paper_Space0
340
0
70
0
0
BLOCK_RECORD
5
FE
100
AcDbSymbolTableRecord
100
AcDbBlockTableRecord
2
_Closed
340
0
70
0
0
BLOCK_RECORD
5
108
100
AcDbSymbolTableRecord
100
AcDbBlockTableRecord
2
*D2
340
0
70
0
0
BLOCK_RECORD
5
114
100
AcDbSymbolTableRecord
100
AcDbBlockTableRecord
2
_U0
340
0
70
0
0
BLOCK_RECORD
5
126
100
AcDbSymbolTableRecord
100
AcDbBlockTableRecord
2
*D4
340
0
70
0
0
BLOCK_RECORD
5
135
100
AcDbSymbolTableRecord
100
AcDbBlockTableRecord
2
_U1
340
0
70
0
0
BLOCK_RECORD
5
145
100
AcDbSymbolTableRecord
100
AcDbBlockTableRecord
2
*D6
340
0
70
0
0
BLOCK_RECORD
5
153
100
AcDbSymbolTableRecord
100
AcDbBlockTableRecord
2
_U2
340
0
70
0
0
BLOCK_RECORD
5
163
100
AcDbSymbolTableRecord
100
AcDbBlockTableRecord
2
*D8
340
0
70
0
0
BLOCK_RECORD
5
16F
100
AcDbSymbolTableRecord
100
AcDbBlockTableRecord
2
_U3
340
0
70
0
0
BLOCK_RECORD
5
17F
100
AcDbSymbolTableRecord
100
AcDbBlockTableRecord
2
*D10
340
0
70
0
0
BLOCK_RECORD
5
18B
100
AcDbSymbolTableRecord
100
AcDbBlockTableRecord
2
_U4
340
0
70
0
0
BLOCK_RECORD
5
19B
100
AcDbSymbolTableRecord
100
AcDbBlockTableRecord
2
*D12
340
0
70
0
0
BLOCK_RECORD
5
1A7
100
AcDbSymbolTableRecord
100
AcDbBlockTableRecord
2
_U5
340
0
70
0
0
BLOCK_RECORD
5
1B7
100
AcDbSymbolTableRecord
100
AcDbBlockTableRecord
2
*D14
340
0
70
0
0
BLOCK_RECORD
5
1C3
100
AcDbSymbolTableRecord
100
AcDbBlockTableRecord
2
_U6
340
0
70
0
0
ENDTAB
0
ENDSEC
0
SECTION
2
BLOCKS
0
BLOCK
5
20
100
AcDbEntity
8
0
100
AcDbBlockBegin
2
*Model_Space
70
0
10
0
20
0
30
0
3
*Model_Space
0
ENDBLK
5
21
100
AcDbEntity
8
0
100
AcDbBlockEnd
0
BLOCK
5
1C
100
AcDbEntity
8
0
100
AcDbBlockBegin
2
*Paper_Space
70
0
10
0
20
0
30
0
3
*Paper_Space
0
ENDBLK
5
1D
100
AcDbEntity
8
0
100
AcDbBlockEnd
0
BLOCK
5
24
100
AcDbEntity
8
0
100
AcDbBlockBegin
2
*Paper_Space0
70
0
10
0
20
0
30
0
3
*Paper_Space0
0
ENDBLK
5
25
100
AcDbEntity
8
0
100
AcDbBlockEnd
0
BLOCK
5
FF
100
AcDbEntity
8
0
100
AcDbBlockBegin
2
_Closed
70
0
10
0
20
0
30
0
3
_Closed
0
LINE
5
101
100
AcDbEntity
8
0
62
256
6
ByLayer
370
-2
48
1
60
0
100
AcDbLine
10
-1
20
0.166667
30
0
11
0
21
0
31
0
39
0
210
0
220
0
230
1
0
LINE
5
102
100
AcDbEntity
8
0
62
256
6
ByLayer
370
-2
48
1
60
0
100
AcDbLine
10
0
20
0
30
0
11
-1
21
-0.166667
31
0
39
0
210
0
220
0
230
1
0
LINE
5
103
100
AcDbEntity
8
0
62
256
6
ByLayer
370
-2
48
1
60
0
100
AcDbLine
10
-1
20
0.166667
30
0
11
-1
21
-0.166667
31
0
39
0
210
0
220
0
230
1
0
LINE
5
104
100
AcDbEntity
8
0
62
256
6
ByLayer
370
-2
48
1
60
0
100
AcDbLine
10
0
20
0
30
0
11
-1
21
0
31
0
39
0
210
0
220
0
230
1
0
ENDBLK
5
100
100
AcDbEntity
8
0
100
AcDbBlockEnd
0
BLOCK
5
109
100
AcDbEntity
8
0
100
AcDbBlockBegin
2
*D2
70
1
10
0
20
0
30
0
3
*D2
0
LINE
5
10B
100
AcDbEntity
8
0
62
256
6
ByLayer
370
-2
48
1
60
0
100
AcDbLine
10
0
20
-6.5875
30
0
11
0
21
-31.67512
31
0
39
0
210
0
220
0
230
1
0
LINE
5
10C
100
AcDbEntity
8
0
62
256
6
ByLayer
370
-2
48
1
60
0
100
AcDbLine
10
49
20
-1.5875
30
0
11
49
21
-31.67512
31
0
39
0
210
0
220
0
230
1
0
LINE
5
10D
100
AcDbEntity
8
0
62
256
6
ByLayer
370
-2
48
1
60
0
100
AcDbLine
10
3.175
20
-28.50012
30
0
11
45.825
21
-28.50012
31
0
39
0
210
0
220
0
230
1
0
SOLID
5
10E
100
AcDbEntity
8
0
62
256
6
ByLayer
370
-1
48
1
60
0
100
AcDbTrace
10
3.175
20
-27.970953
30
0
11
3.175
21
-29.029287
31
0
12
0
22
-28.50012
32
0
13
0
23
-28.50012
33
0
39
0
210
0
220
0
230
1
0
SOLID
5
10F
100
AcDbEntity
8
0
62
256
6
ByLayer
370
-1
48
1
60
0
100
AcDbTrace
10
45.825
20
-29.029287
30
0
11
45.825
21
-27.970953
31
0
12
49
22
-28.50012
32
0
13
49
23
-28.50012
33
0
39
0
210
0
220
0
230
1
0
MTEXT
5
110
100
AcDbEntity
8
0
62
256
6
ByLayer
370
18
48
1
60
0
100
AcDbMText
10
24.5
20
-21.193619
30
0
210
0
220
0
230
1
1
\A1;49
40
3.50012
41
0
44
1
50
0
71
5
72
5
7
iso_b_vert
0
POINT
5
111
100
AcDbEntity
8
Defpoints
62
0
6
ByLayer
370
-1
48
1
60
0
100
AcDbPoint
10
0
20
-5
30
0
39
0
210
0
220
0
230
1
50
360
0
POINT
5
112
100
AcDbEntity
8
Defpoints
62
0
6
ByLayer
370
-1
48
1
60
0
100
AcDbPoint
10
49
20
0
30
0
39
0
210
0
220
0
230
1
50
360
0
POINT
5
113
100
AcDbEntity
8
Defpoints
62
0
6
ByLayer
370
-1
48
1
60
0
100
AcDbPoint
10
49
20
-28.50012
30
0
39
0
210
0
220
0
230
1
50
360
0
ENDBLK
5
10A
100
AcDbEntity
8
0
100
AcDbBlockEnd
0
BLOCK
5
121
100
AcDbEntity
8
0
100
AcDbBlockBegin
2
_U0
70
0
10
0
20
0
30
0
3
_U0
0
MTEXT
5
115
100
AcDbEntity
8
SK2
62
256
6
ByLayer
370
18
48
1
60
0
100
AcDbMText
10
19.086116
20
-27.467451
30
0
210
0
220
0
230
1
1
\W0.7694;49.00
40
3.50012
41
0
44
1.084337
50
0
71
7
72
5
7
iso_b_vert
0
MTEXT
5
116
100
AcDbEntity
8
SK2
62
256
6
ByLayer
370
18
48
1
60
0
100
AcDbMText
10
15.560056
20
-27.400814
30
0
210
0
220
0
230
1
1
\W0.1790;(
40
3.175
41
0
44
1.084337
50
0
71
7
72
5
7
iso_b_vert
0
MTEXT
5
117
100
AcDbEntity
8
SK2
62
256
6
ByLayer
370
18
48
1
60
0
100
AcDbMText
10
33.442666
20
-27.400814
30
0
210
0
220
0
230
1
1
\W0.1969;)
40
3.175
41
0
44
1.084337
50
0
71
7
72
5
7
iso_b_vert
0
LINE
5
118
100
AcDbEntity
8
SK2
62
256
6
ByLayer
370
13
48
1
60
0
100
AcDbLine
10
0
20
-6.5875
30
0
11
0
21
-31.67512
31
0
39
0
210
0
220
0
230
1
0
LINE
5
119
100
AcDbEntity
8
SK2
62
256
6
ByLayer
370
13
48
1
60
0
100
AcDbLine
10
49
20
-1.5875
30
0
11
49
21
-31.67512
31
0
39
0
210
0
220
0
230
1
0
LINE
5
11A
100
AcDbEntity
8
SK2
62
256
6
ByLayer
370
13
48
1
60
0
100
AcDbLine
10
0
20
-28.50012
30
0
11
49
21
-28.50012
31
0
39
0
210
0
220
0
230
1
0
LINE
5
11B
100
AcDbEntity
8
SK2
62
256
6
ByLayer
370
13
48
1
60
0
100
AcDbLine
10
0
20
-28.50012
30
0
11
3.174998
21
-28.082123
31
0
39
0
210
0
220
0
230
1
0
LINE
5
11C
100
AcDbEntity
8
SK2
62
256
6
ByLayer
370
13
48
1
60
0
100
AcDbLine
10
0
20
-28.50012
30
0
11
3.175002
21
-28.918117
31
0
39
0
210
0
220
0
230
1
0
LINE
5
11D
100
AcDbEntity
8
SK2
62
256
6
ByLayer
370
13
48
1
60
0
100
AcDbLine
10
3.174998
20
-28.082123
30
0
11
3.175002
21
-28.918117
31
0
39
0
210
0
220
0
230
1
0
LINE
5
11E
100
AcDbEntity
8
SK2
62
256
6
ByLayer
370
13
48
1
60
0
100
AcDbLine
10
49
20
-28.50012
30
0
11
45.825002
21
-28.918117
31
0
39
0
210
0
220
0
230
1
0
LINE
5
11F
100
AcDbEntity
8
SK2
62
256
6
ByLayer
370
13
48
1
60
0
100
AcDbLine
10
49
20
-28.50012
30
0
11
45.824998
21
-28.082123
31
0
39
0
210
0
220
0
230
1
0
LINE
5
120
100
AcDbEntity
8
SK2
62
256
6
ByLayer
370
13
48
1
60
0
100
AcDbLine
10
45.825002
20
-28.918117
30
0
11
45.824998
21
-28.082123
31
0
39
0
210
0
220
0
230
1
0
ENDBLK
5
122
100
AcDbEntity
8
0
100
AcDbBlockEnd
0
BLOCK
5
127
100
AcDbEntity
8
0
100
AcDbBlockBegin
2
*D4
70
1
10
0
20
0
30
0
3
*D4
0
LINE
5
129
100
AcDbEntity
8
0
62
256
6
ByLayer
370
-2
48
1
60
0
100
AcDbLine
10
49.1134
20
-4.05
30
0
11
58.92506
21
-4.05
31
0
39
0
210
0
220
0
230
1
0
LINE
5
12A
100
AcDbEntity
8
0
62
256
6
ByLayer
370
-2
48
1
60
0
100
AcDbLine
10
49.1134
20
4.05
30
0
11
58.92506
21
4.05
31
0
39
0
210
0
220
0
230
1
0
LINE
5
12B
100
AcDbEntity
8
0
62
256
6
ByLayer
370
-2
48
1
60
0
100
AcDbLine
10
55.75006
20
4.05
30
0
11
55.75006
21
27.846431
31
0
39
0
210
0
220
0
230
1
0
LINE
5
12C
100
AcDbEntity
8
0
62
256
6
ByLayer
370
-2
48
1
60
0
100
AcDbLine
10
55.75006
20
-7.225
30
0
11
55.75006
21
-10.4
31
0
39
0
210
0
220
0
230
1
0
LINE
5
12D
100
AcDbEntity
8
0
62
256
6
ByLayer
370
-2
48
1
60
0
100
AcDbLine
10
55.75006
20
7.225
30
0
11
55.75006
21
10.4
31
0
39
0
210
0
220
0
230
1
0
SOLID
5
12E
100
AcDbEntity
8
0
62
256
6
ByLayer
370
-1
48
1
60
0
100
AcDbTrace
10
56.279227
20
-7.225
30
0
11
55.220893
21
-7.225
31
0
12
55.75006
22
-4.05
32
0
13
55.75006
23
-4.05
33
0
39
0
210
0
220
0
230
1
0
SOLID
5
12F
100
AcDbEntity
8
0
62
256
6
ByLayer
370
-1
48
1
60
0
100
AcDbTrace
10
55.220893
20
7.225
30
0
11
56.279227
21
7.225
31
0
12
55.75006
22
4.05
32
0
13
55.75006
23
4.05
33
0
39
0
210
0
220
0
230
1
0
MTEXT
5
130
100
AcDbEntity
8
0
62
256
6
ByLayer
370
18
48
1
60
0
100
AcDbMText
10
48.443559
20
19.123216
30
0
210
0
220
0
230
1
1
\A1;8.1
40
3.50012
41
0
44
1
50
90
71
5
72
5
7
iso_b_vert
0
POINT
5
131
100
AcDbEntity
8
Defpoints
62
0
6
ByLayer
370
-1
48
1
60
0
100
AcDbPoint
10
47.5259
20
-4.05
30
0
39
0
210
0
220
0
230
1
50
360
0
POINT
5
132
100
AcDbEntity
8
Defpoints
62
0
6
ByLayer
370
-1
48
1
60
0
100
AcDbPoint
10
47.5259
20
4.05
30
0
39
0
210
0
220
0
230
1
50
360
0
POINT
5
133
100
AcDbEntity
8
Defpoints
62
0
6
ByLayer
370
-1
48
1
60
0
100
AcDbPoint
10
55.75006
20
4.05
30
0
39
0
210
0
220
0
230
1
50
360
0
ENDBLK
5
128
100
AcDbEntity
8
0
100
AcDbBlockEnd
0
BLOCK
5
140
100
AcDbEntity
8
0
100
AcDbBlockBegin
2
_U1
70
0
10
0
20
0
30
0
3
_U1
0
MTEXT
5
136
100
AcDbEntity
8
2
62
256
6
ByLayer
370
18
48
1
60
0
100
AcDbMText
10
55.060403
20
8.207505
30
0
210
0
220
0
230
1
1
\W0.6563;8.10
40
3.50012
41
0
44
1.084337
50
90
71
7
72
5
7
iso_b_vert
0
LINE
5
137
100
AcDbEntity
8
2
62
256
6
ByLayer
370
13
48
1
60
0
100
AcDbLine
10
49.1134
20
-4.05
30
0
11
58.92506
21
-4.05
31
0
39
0
210
0
220
0
230
1
0
LINE
5
138
100
AcDbEntity
8
2
62
256
6
ByLayer
370
13
48
1
60
0
100
AcDbLine
10
49.1134
20
4.05
30
0
11
58.92506
21
4.05
31
0
39
0
210
0
220
0
230
1
0
LINE
5
139
100
AcDbEntity
8
2
62
256
6
ByLayer
370
13
48
1
60
0
100
AcDbLine
10
55.75006
20
-4.05
30
0
11
55.75006
21
15.389783
31
0
39
0
210
0
220
0
230
1
0
LINE
5
13A
100
AcDbEntity
8
2
62
256
6
ByLayer
370
13
48
1
60
0
100
AcDbLine
10
55.75006
20
-4.05
30
0
11
55.332063
21
-0.875002
31
0
39
0
210
0
220
0
230
1
0
LINE
5
13B
100
AcDbEntity
8
2
62
256
6
ByLayer
370
13
48
1
60
0
100
AcDbLine
10
55.75006
20
-4.05
30
0
11
56.168057
21
-0.874998
31
0
39
0
210
0
220
0
230
1
0
LINE
5
13C
100
AcDbEntity
8
2
62
256
6
ByLayer
370
13
48
1
60
0
100
AcDbLine
10
55.332063
20
-0.875002
30
0
11
56.168057
21
-0.874998
31
0
39
0
210
0
220
0
230
1
0
LINE
5
13D
100
AcDbEntity
8
2
62
256
6
ByLayer
370
13
48
1
60
0
100
AcDbLine
10
55.75006
20
4.05
30
0
11
56.168057
21
0.875002
31
0
39
0
210
0
220
0
230
1
0
LINE
5
13E
100
AcDbEntity
8
2
62
256
6
ByLayer
370
13
48
1
60
0
100
AcDbLine
10
55.75006
20
4.05
30
0
11
55.332063
21
0.874998
31
0
39
0
210
0
220
0
230
1
0
LINE
5
13F
100
AcDbEntity
8
2
62
256
6
ByLayer
370
13
48
1
60
0
100
AcDbLine
10
56.168057
20
0.875002
30
0
11
55.332063
21
0.874998
31
0
39
0
210
0
220
0
230
1
0
ENDBLK
5
141
100
AcDbEntity
8
0
100
AcDbBlockEnd
0
BLOCK
5
146
100
AcDbEntity
8
0
100
AcDbBlockBegin
2
*D6
70
1
10
0
20
0
30
0
3
*D6
0
LINE
5
148
100
AcDbEntity
8
0
62
256
6
ByLayer
370
-2
48
1
60
0
100
AcDbLine
10
-41.5875
20
5
30
0
11
-46.42494
21
5
31
0
39
0
210
0
220
0
230
1
0
LINE
5
149
100
AcDbEntity
8
0
62
256
6
ByLayer
370
-2
48
1
60
0
100
AcDbLine
10
-41.5875
20
-5
30
0
11
-46.42494
21
-5
31
0
39
0
210
0
220
0
230
1
0
LINE
5
14A
100
AcDbEntity
8
0
62
256
6
ByLayer
370
-2
48
1
60
0
100
AcDbLine
10
-43.24994
20
5
30
0
11
-43.24994
21
28.117532
31
0
39
0
210
0
220
0
230
1
0
LINE
5
14B
100
AcDbEntity
8
0
62
256
6
ByLayer
370
-2
48
1
60
0
100
AcDbLine
10
-43.24994
20
8.175
30
0
11
-43.24994
21
11.35
31
0
39
0
210
0
220
0
230
1
0
LINE
5
14C
100
AcDbEntity
8
0
62
256
6
ByLayer
370
-2
48
1
60
0
100
AcDbLine
10
-43.24994
20
-8.175
30
0
11
-43.24994
21
-11.35
31
0
39
0
210
0
220
0
230
1
0
SOLID
5
14D
100
AcDbEntity
8
0
62
256
6
ByLayer
370
-1
48
1
60
0
100
AcDbTrace
10
-43.779107
20
8.175
30
0
11
-42.720773
21
8.175
31
0
12
-43.24994
22
5
32
0
13
-43.24994
23
5
33
0
39
0
210
0
220
0
230
1
0
SOLID
5
14E
100
AcDbEntity
8
0
62
256
6
ByLayer
370
-1
48
1
60
0
100
AcDbTrace
10
-42.720773
20
-8.175
30
0
11
-43.779107
21
-8.175
31
0
12
-43.24994
22
-5
32
0
13
-43.24994
23
-5
33
0
39
0
210
0
220
0
230
1
0
MTEXT
5
14F
100
AcDbEntity
8
0
62
256
6
ByLayer
370
18
48
1
60
0
100
AcDbMText
10
-50.556441
20
19.97767
30
0
210
0
220
0
230
1
1
\A1;10
40
3.50012
41
0
44
1
50
90
71
5
72
5
7
iso_b_vert
0
POINT
5
150
100
AcDbEntity
8
Defpoints
62
0
6
ByLayer
370
-1
48
1
60
0
100
AcDbPoint
10
-40
20
5
30
0
39
0
210
0
220
0
230
1
50
360
0
POINT
5
151
100
AcDbEntity
8
Defpoints
62
0
6
ByLayer
370
-1
48
1
60
0
100
AcDbPoint
10
-40
20
-5
30
0
39
0
210
0
220
0
230
1
50
360
0
POINT
5
152
100
AcDbEntity
8
Defpoints
62
0
6
ByLayer
370
-1
48
1
60
0
100
AcDbPoint
10
-43.24994
20
-5
30
0
39
0
210
0
220
0
230
1
50
360
0
ENDBLK
5
147
100
AcDbEntity
8
0
100
AcDbBlockEnd
0
BLOCK
5
15E
100
AcDbEntity
8
0
100
AcDbBlockBegin
2
_U2
70
0
10
0
20
0
30
0
3
_U2
0
MTEXT
5
154
100
AcDbEntity
8
SK2
62
256
6
ByLayer
370
18
48
1
60
0
100
AcDbMText
10
-43.939597
20
15.157505
30
0
210
0
220
0
230
1
1
\W0.6864;10.00
40
3.50012
41
0
44
1.084337
50
90
71
7
72
5
7
iso_b_vert
0
LINE
5
155
100
AcDbEntity
8
SK2
62
256
6
ByLayer
370
13
48
1
60
0
100
AcDbLine
10
-41.5875
20
5
30
0
11
-46.42494
21
5
31
0
39
0
210
0
220
0
230
1
0
LINE
5
156
100
AcDbEntity
8
SK2
62
256
6
ByLayer
370
13
48
1
60
0
100
AcDbLine
10
-41.5875
20
-5
30
0
11
-46.42494
21
-5
31
0
39
0
210
0
220
0
230
1
0
LINE
5
157
100
AcDbEntity
8
SK2
62
256
6
ByLayer
370
13
48
1
60
0
100
AcDbLine
10
-43.24994
20
-5
30
0
11
-43.24994
21
24.955339
31
0
39
0
210
0
220
0
230
1
0
LINE
5
158
100
AcDbEntity
8
SK2
62
256
6
ByLayer
370
13
48
1
60
0
100
AcDbLine
10
-43.24994
20
5
30
0
11
-42.831943
21
1.825002
31
0
39
0
210
0
220
0
230
1
0
LINE
5
159
100
AcDbEntity
8
SK2
62
256
6
ByLayer
370
13
48
1
60
0
100
AcDbLine
10
-43.24994
20
5
30
0
11
-43.667937
21
1.824998
31
0
39
0
210
0
220
0
230
1
0
LINE
5
15A
100
AcDbEntity
8
SK2
62
256
6
ByLayer
370
13
48
1
60
0
100
AcDbLine
10
-42.831943
20
1.825002
30
0
11
-43.667937
21
1.824998
31
0
39
0
210
0
220
0
230
1
0
LINE
5
15B
100
AcDbEntity
8
SK2
62
256
6
ByLayer
370
13
48
1
60
0
100
AcDbLine
10
-43.24994
20
-5
30
0
11
-43.667937
21
-1.825002
31
0
39
0
210
0
220
0
230
1
0
LINE
5
15C
100
AcDbEntity
8
SK2
62
256
6
ByLayer
370
13
48
1
60
0
100
AcDbLine
10
-43.24994
20
-5
30
0
11
-42.831943
21
-1.824998
31
0
39
0
210
0
220
0
230
1
0
LINE
5
15D
100
AcDbEntity
8
SK2
62
256
6
ByLayer
370
13
48
1
60
0
100
AcDbLine
10
-43.667937
20
-1.825002
30
0
11
-42.831943
21
-1.824998
31
0
39
0
210
0
220
0
230
1
0
ENDBLK
5
15F
100
AcDbEntity
8
0
100
AcDbBlockEnd
0
BLOCK
5
164
100
AcDbEntity
8
0
100
AcDbBlockBegin
2
*D8
70
1
10
0
20
0
30
0
3
*D8
0
LINE
5
166
100
AcDbEntity
8
0
62
256
6
ByLayer
370
-2
48
1
60
0
100
AcDbLine
10
-40
20
-6.5875
30
0
11
-40
21
-31.67512
31
0
39
0
210
0
220
0
230
1
0
LINE
5
167
100
AcDbEntity
8
0
62
256
6
ByLayer
370
-2
48
1
60
0
100
AcDbLine
10
0
20
-6.5875
30
0
11
0
21
-31.67512
31
0
39
0
210
0
220
0
230
1
0
LINE
5
168
100
AcDbEntity
8
0
62
256
6
ByLayer
370
-2
48
1
60
0
100
AcDbLine
10
-36.825
20
-28.50012
30
0
11
-3.175
21
-28.50012
31
0
39
0
210
0
220
0
230
1
0
SOLID
5
169
100
AcDbEntity
8
0
62
256
6
ByLayer
370
-1
48
1
60
0
100
AcDbTrace
10
-36.825
20
-27.970953
30
0
11
-36.825
21
-29.029287
31
0
12
-40
22
-28.50012
32
0
13
-40
23
-28.50012
33
0
39
0
210
0
220
0
230
1
0
SOLID
5
16A
100
AcDbEntity
8
0
62
256
6
ByLayer
370
-1
48
1
60
0
100
AcDbTrace
10
-3.175
20
-29.029287
30
0
11
-3.175
21
-27.970953
31
0
12
0
22
-28.50012
32
0
13
0
23
-28.50012
33
0
39
0
210
0
220
0
230
1
0
MTEXT
5
16B
100
AcDbEntity
8
0
62
256
6
ByLayer
370
18
48
1
60
0
100
AcDbMText
10
-20
20
-21.193619
30
0
210
0
220
0
230
1
1
\A1;40
40
3.50012
41
0
44
1
50
0
71
5
72
5
7
iso_b_vert
0
POINT
5
16C
100
AcDbEntity
8
Defpoints
62
0
6
ByLayer
370
-1
48
1
60
0
100
AcDbPoint
10
-40
20
-5
30
0
39
0
210
0
220
0
230
1
50
360
0
POINT
5
16D
100
AcDbEntity
8
Defpoints
62
0
6
ByLayer
370
-1
48
1
60
0
100
AcDbPoint
10
0
20
-5
30
0
39
0
210
0
220
0
230
1
50
360
0
POINT
5
16E
100
AcDbEntity
8
Defpoints
62
0
6
ByLayer
370
-1
48
1
60
0
100
AcDbPoint
10
0
20
-28.50012
30
0
39
0
210
0
220
0
230
1
50
360
0
ENDBLK
5
165
100
AcDbEntity
8
0
100
AcDbBlockEnd
0
BLOCK
5
17A
100
AcDbEntity
8
0
100
AcDbBlockBegin
2
_U3
70
0
10
0
20
0
30
0
3
_U3
0
MTEXT
5
170
100
AcDbEntity
8
SK2
62
256
6
ByLayer
370
18
48
1
60
0
100
AcDbMText
10
-25.413884
20
-27.467451
30
0
210
0
220
0
230
1
1
\W0.7694;40.00
40
3.50012
41
0
44
1.084337
50
0
71
7
72
5
7
iso_b_vert
0
LINE
5
171
100
AcDbEntity
8
SK2
62
256
6
ByLayer
370
13
48
1
60
0
100
AcDbLine
10
-40
20
-6.5875
30
0
11
-40
21
-31.67512
31
0
39
0
210
0
220
0
230
1
0
LINE
5
172
100
AcDbEntity
8
SK2
62
256
6
ByLayer
370
13
48
1
60
0
100
AcDbLine
10
0
20
-6.5875
30
0
11
0
21
-31.67512
31
0
39
0
210
0
220
0
230
1
0
LINE
5
173
100
AcDbEntity
8
SK2
62
256
6
ByLayer
370
13
48
1
60
0
100
AcDbLine
10
-40
20
-28.50012
30
0
11
0
21
-28.50012
31
0
39
0
210
0
220
0
230
1
0
LINE
5
174
100
AcDbEntity
8
SK2
62
256
6
ByLayer
370
13
48
1
60
0
100
AcDbLine
10
-40
20
-28.50012
30
0
11
-36.825002
21
-28.082123
31
0
39
0
210
0
220
0
230
1
0
LINE
5
175
100
AcDbEntity
8
SK2
62
256
6
ByLayer
370
13
48
1
60
0
100
AcDbLine
10
-40
20
-28.50012
30
0
11
-36.824998
21
-28.918117
31
0
39
0
210
0
220
0
230
1
0
LINE
5
176
100
AcDbEntity
8
SK2
62
256
6
ByLayer
370
13
48
1
60
0
100
AcDbLine
10
-36.825002
20
-28.082123
30
0
11
-36.824998
21
-28.918117
31
0
39
0
210
0
220
0
230
1
0
LINE
5
177
100
AcDbEntity
8
SK2
62
256
6
ByLayer
370
13
48
1
60
0
100
AcDbLine
10
0
20
-28.50012
30
0
11
-3.174998
21
-28.918117
31
0
39
0
210
0
220
0
230
1
0
LINE
5
178
100
AcDbEntity
8
SK2
62
256
6
ByLayer
370
13
48
1
60
0
100
AcDbLine
10
0
20
-28.50012
30
0
11
-3.175002
21
-28.082123
31
0
39
0
210
0
220
0
230
1
0
LINE
5
179
100
AcDbEntity
8
SK2
62
256
6
ByLayer
370
13
48
1
60
0
100
AcDbLine
10
-3.174998
20
-28.918117
30
0
11
-3.175002
21
-28.082123
31
0
39
0
210
0
220
0
230
1
0
ENDBLK
5
17B
100
AcDbEntity
8
0
100
AcDbBlockEnd
0
BLOCK
5
180
100
AcDbEntity
8
0
100
AcDbBlockBegin
2
*D10
70
1
10
0
20
0
30
0
3
*D10
0
LINE
5
182
100
AcDbEntity
8
0
62
256
6
ByLayer
370
-2
48
1
60
0
100
AcDbLine
10
2
20
2.9625
30
0
11
2
21
-22.92482
31
0
39
0
210
0
220
0
230
1
0
LINE
5
183
100
AcDbEntity
8
0
62
256
6
ByLayer
370
-2
48
1
60
0
100
AcDbLine
10
49
20
-1.5875
30
0
11
49
21
-22.92482
31
0
39
0
210
0
220
0
230
1
0
LINE
5
184
100
AcDbEntity
8
0
62
256
6
ByLayer
370
-2
48
1
60
0
100
AcDbLine
10
5.175
20
-19.74982
30
0
11
45.825
21
-19.74982
31
0
39
0
210
0
220
0
230
1
0
SOLID
5
185
100
AcDbEntity
8
0
62
256
6
ByLayer
370
-1
48
1
60
0
100
AcDbTrace
10
5.175
20
-19.220653
30
0
11
5.175
21
-20.278987
31
0
12
2
22
-19.74982
32
0
13
2
23
-19.74982
33
0
39
0
210
0
220
0
230
1
0
SOLID
5
186
100
AcDbEntity
8
0
62
256
6
ByLayer
370
-1
48
1
60
0
100
AcDbTrace
10
45.825
20
-20.278987
30
0
11
45.825
21
-19.220653
31
0
12
49
22
-19.74982
32
0
13
49
23
-19.74982
33
0
39
0
210
0
220
0
230
1
0
MTEXT
5
187
100
AcDbEntity
8
0
62
256
6
ByLayer
370
18
48
1
60
0
100
AcDbMText
10
25.5
20
-12.443319
30
0
210
0
220
0
230
1
1
\A1;47
40
3.50012
41
0
44
1
50
0
71
5
72
5
7
iso_b_vert
0
POINT
5
188
100
AcDbEntity
8
Defpoints
62
0
6
ByLayer
370
-1
48
1
60
0
100
AcDbPoint
10
2
20
4.55
30
0
39
0
210
0
220
0
230
1
50
360
0
POINT
5
189
100
AcDbEntity
8
Defpoints
62
0
6
ByLayer
370
-1
48
1
60
0
100
AcDbPoint
10
49
20
0
30
0
39
0
210
0
220
0
230
1
50
360
0
POINT
5
18A
100
AcDbEntity
8
Defpoints
62
0
6
ByLayer
370
-1
48
1
60
0
100
AcDbPoint
10
49
20
-19.74982
30
0
39
0
210
0
220
0
230
1
50
360
0
ENDBLK
5
181
100
AcDbEntity
8
0
100
AcDbBlockEnd
0
BLOCK
5
196
100
AcDbEntity
8
0
100
AcDbBlockBegin
2
_U4
70
0
10
0
20
0
30
0
3
_U4
0
MTEXT
5
18C
100
AcDbEntity
8
SK2
62
256
6
ByLayer
370
18
48
1
60
0
100
AcDbMText
10
20.086116
20
-18.717151
30
0
210
0
220
0
230
1
1
\W0.7694;47.00
40
3.50012
41
0
44
1.084337
50
0
71
7
72
5
7
iso_b_vert
0
LINE
5
18D
100
AcDbEntity
8
SK2
62
256
6
ByLayer
370
13
48
1
60
0
100
AcDbLine
10
2
20
2.9625
30
0
11
2
21
-22.92482
31
0
39
0
210
0
220
0
230
1
0
LINE
5
18E
100
AcDbEntity
8
SK2
62
256
6
ByLayer
370
13
48
1
60
0
100
AcDbLine
10
49
20
-1.5875
30
0
11
49
21
-22.92482
31
0
39
0
210
0
220
0
230
1
0
LINE
5
18F
100
AcDbEntity
8
SK2
62
256
6
ByLayer
370
13
48
1
60
0
100
AcDbLine
10
2
20
-19.74982
30
0
11
49
21
-19.74982
31
0
39
0
210
0
220
0
230
1
0
LINE
5
190
100
AcDbEntity
8
SK2
62
256
6
ByLayer
370
13
48
1
60
0
100
AcDbLine
10
2
20
-19.74982
30
0
11
5.174998
21
-19.331823
31
0
39
0
210
0
220
0
230
1
0
LINE
5
191
100
AcDbEntity
8
SK2
62
256
6
ByLayer
370
13
48
1
60
0
100
AcDbLine
10
2
20
-19.74982
30
0
11
5.175002
21
-20.167817
31
0
39
0
210
0
220
0
230
1
0
LINE
5
192
100
AcDbEntity
8
SK2
62
256
6
ByLayer
370
13
48
1
60
0
100
AcDbLine
10
5.174998
20
-19.331823
30
0
11
5.175002
21
-20.167817
31
0
39
0
210
0
220
0
230
1
0
LINE
5
193
100
AcDbEntity
8
SK2
62
256
6
ByLayer
370
13
48
1
60
0
100
AcDbLine
10
49
20
-19.74982
30
0
11
45.825002
21
-20.167817
31
0
39
0
210
0
220
0
230
1
0
LINE
5
194
100
AcDbEntity
8
SK2
62
256
6
ByLayer
370
13
48
1
60
0
100
AcDbLine
10
49
20
-19.74982
30
0
11
45.824998
21
-19.331823
31
0
39
0
210
0
220
0
230
1
0
LINE
5
195
100
AcDbEntity
8
SK2
62
256
6
ByLayer
370
13
48
1
60
0
100
AcDbLine
10
45.825002
20
-20.167817
30
0
11
45.824998
21
-19.331823
31
0
39
0
210
0
220
0
230
1
0
ENDBLK
5
197
100
AcDbEntity
8
0
100
AcDbBlockEnd
0
BLOCK
5
19C
100
AcDbEntity
8
0
100
AcDbBlockBegin
2
*D12
70
1
10
0
20
0
30
0
3
*D12
0
LINE
5
19E
100
AcDbEntity
8
0
62
256
6
ByLayer
370
-2
48
1
60
0
100
AcDbLine
10
23.3
20
-5.6375
30
0
11
23.3
21
-12.32
31
0
39
0
210
0
220
0
230
1
0
LINE
5
19F
100
AcDbEntity
8
0
62
256
6
ByLayer
370
-2
48
1
60
0
100
AcDbLine
10
49
20
-1.5875
30
0
11
49
21
-12.32
31
0
39
0
210
0
220
0
230
1
0
LINE
5
1A0
100
AcDbEntity
8
0
62
256
6
ByLayer
370
-2
48
1
60
0
100
AcDbLine
10
26.475
20
-11.82
30
0
11
45.825
21
-11.82
31
0
39
0
210
0
220
0
230
1
0
SOLID
5
1A1
100
AcDbEntity
8
0
62
256
6
ByLayer
370
-1
48
1
60
0
100
AcDbTrace
10
26.475
20
-11.290833
30
0
11
26.475
21
-12.349167
31
0
12
23.3
22
-11.82
32
0
13
23.3
23
-11.82
33
0
39
0
210
0
220
0
230
1
0
SOLID
5
1A2
100
AcDbEntity
8
0
62
256
6
ByLayer
370
-1
48
1
60
0
100
AcDbTrace
10
45.825
20
-12.349167
30
0
11
45.825
21
-11.290833
31
0
12
49
22
-11.82
32
0
13
49
23
-11.82
33
0
39
0
210
0
220
0
230
1
0
MTEXT
5
1A3
100
AcDbEntity
8
0
62
256
6
ByLayer
370
18
48
1
60
0
100
AcDbMText
10
36.15
20
-5.975
30
0
210
0
220
0
230
1
1
\A1;25.7
40
2.8
41
0
44
1
50
0
71
5
72
5
7
iso_b_vert
0
POINT
5
1A4
100
AcDbEntity
8
Defpoints
62
0
6
ByLayer
370
-1
48
1
60
0
100
AcDbPoint
10
23.3
20
-4.05
30
0
39
0
210
0
220
0
230
1
50
360
0
POINT
5
1A5
100
AcDbEntity
8
Defpoints
62
0
6
ByLayer
370
-1
48
1
60
0
100
AcDbPoint
10
49
20
0
30
0
39
0
210
0
220
0
230
1
50
360
0
POINT
5
1A6
100
AcDbEntity
8
Defpoints
62
0
6
ByLayer
370
-1
48
1
60
0
100
AcDbPoint
10
49
20
-11.82
30
0
39
0
210
0
220
0
230
1
50
360
0
ENDBLK
5
19D
100
AcDbEntity
8
0
100
AcDbBlockEnd
0
BLOCK
5
1B2
100
AcDbEntity
8
0
100
AcDbBlockBegin
2
_U5
70
0
10
0
20
0
30
0
3
_U5
0
MTEXT
5
1A8
100
AcDbEntity
8
SK2
62
256
6
ByLayer
370
18
48
1
60
0
100
AcDbMText
10
31.966454
20
-11.973893
30
0
210
0
220
0
230
1
1
\W0.7468;25.70
40
2.8
41
0
44
1.084337
50
0
71
7
72
5
7
iso_b_vert
0
LINE
5
1A9
100
AcDbEntity
8
SK2
62
256
6
ByLayer
370
13
48
1
60
0
100
AcDbLine
10
23.3
20
-5.6375
30
0
11
23.3
21
-12.32
31
0
39
0
210
0
220
0
230
1
0
LINE
5
1AA
100
AcDbEntity
8
SK2
62
256
6
ByLayer
370
13
48
1
60
0
100
AcDbLine
10
49
20
-1.5875
30
0
11
49
21
-12.32
31
0
39
0
210
0
220
0
230
1
0
LINE
5
1AB
100
AcDbEntity
8
SK2
62
256
6
ByLayer
370
13
48
1
60
0
100
AcDbLine
10
23.3
20
-11.82
30
0
11
49
21
-11.82
31
0
39
0
210
0
220
0
230
1
0
LINE
5
1AC
100
AcDbEntity
8
SK2
62
256
6
ByLayer
370
13
48
1
60
0
100
AcDbLine
10
23.3
20
-11.82
30
0
11
26.474998
21
-11.402003
31
0
39
0
210
0
220
0
230
1
0
LINE
5
1AD
100
AcDbEntity
8
SK2
62
256
6
ByLayer
370
13
48
1
60
0
100
AcDbLine
10
23.3
20
-11.82
30
0
11
26.475002
21
-12.237997
31
0
39
0
210
0
220
0
230
1
0
LINE
5
1AE
100
AcDbEntity
8
SK2
62
256
6
ByLayer
370
13
48
1
60
0
100
AcDbLine
10
26.474998
20
-11.402003
30
0
11
26.475002
21
-12.237997
31
0
39
0
210
0
220
0
230
1
0
LINE
5
1AF
100
AcDbEntity
8
SK2
62
256
6
ByLayer
370
13
48
1
60
0
100
AcDbLine
10
49
20
-11.82
30
0
11
45.825002
21
-12.237997
31
0
39
0
210
0
220
0
230
1
0
LINE
5
1B0
100
AcDbEntity
8
SK2
62
256
6
ByLayer
370
13
48
1
60
0
100
AcDbLine
10
49
20
-11.82
30
0
11
45.824998
21
-11.402003
31
0
39
0
210
0
220
0
230
1
0
LINE
5
1B1
100
AcDbEntity
8
SK2
62
256
6
ByLayer
370
13
48
1
60
0
100
AcDbLine
10
45.825002
20
-12.237997
30
0
11
45.824998
21
-11.402003
31
0
39
0
210
0
220
0
230
1
0
ENDBLK
5
1B3
100
AcDbEntity
8
0
100
AcDbBlockEnd
0
BLOCK
5
1B8
100
AcDbEntity
8
0
100
AcDbBlockBegin
2
*D14
70
1
10
0
20
0
30
0
3
*D14
0
LINE
5
1BA
100
AcDbEntity
8
0
62
256
6
ByLayer
370
-2
48
1
60
0
100
AcDbLine
10
-40
20
-1.5875
30
0
11
-40
21
-41.67512
31
0
39
0
210
0
220
0
230
1
0
LINE
5
1BB
100
AcDbEntity
8
0
62
256
6
ByLayer
370
-2
48
1
60
0
100
AcDbLine
10
49
20
-1.5875
30
0
11
49
21
-41.67512
31
0
39
0
210
0
220
0
230
1
0
LINE
5
1BC
100
AcDbEntity
8
0
62
256
6
ByLayer
370
-2
48
1
60
0
100
AcDbLine
10
-36.825
20
-38.50012
30
0
11
45.825
21
-38.50012
31
0
39
0
210
0
220
0
230
1
0
SOLID
5
1BD
100
AcDbEntity
8
0
62
256
6
ByLayer
370
-1
48
1
60
0
100
AcDbTrace
10
-36.825
20
-37.970953
30
0
11
-36.825
21
-39.029287
31
0
12
-40
22
-38.50012
32
0
13
-40
23
-38.50012
33
0
39
0
210
0
220
0
230
1
0
SOLID
5
1BE
100
AcDbEntity
8
0
62
256
6
ByLayer
370
-1
48
1
60
0
100
AcDbTrace
10
45.825
20
-39.029287
30
0
11
45.825
21
-37.970953
31
0
12
49
22
-38.50012
32
0
13
49
23
-38.50012
33
0
39
0
210
0
220
0
230
1
0
MTEXT
5
1BF
100
AcDbEntity
8
0
62
256
6
ByLayer
370
18
48
1
60
0
100
AcDbMText
10
4.5
20
-31.19362
30
0
210
0
220
0
230
1
1
\A1;89
40
3.50012
41
0
44
1
50
0
71
5
72
5
7
iso_b_vert
0
POINT
5
1C0
100
AcDbEntity
8
Defpoints
62
0
6
ByLayer
370
-1
48
1
60
0
100
AcDbPoint
10
-40
20
0
30
0
39
0
210
0
220
0
230
1
50
360
0
POINT
5
1C1
100
AcDbEntity
8
Defpoints
62
0
6
ByLayer
370
-1
48
1
60
0
100
AcDbPoint
10
49
20
0
30
0
39
0
210
0
220
0
230
1
50
360
0
POINT
5
1C2
100
AcDbEntity
8
Defpoints
62
0
6
ByLayer
370
-1
48
1
60
0
100
AcDbPoint
10
49
20
-38.50012
30
0
39
0
210
0
220
0
230
1
50
360
0
ENDBLK
5
1B9
100
AcDbEntity
8
0
100
AcDbBlockEnd
0
BLOCK
5
1CE
100
AcDbEntity
8
0
100
AcDbBlockBegin
2
_U6
70
0
10
0
20
0
30
0
3
_U6
0
MTEXT
5
1C4
100
AcDbEntity
8
SK2
62
256
6
ByLayer
370
18
48
1
60
0
100
AcDbMText
10
-0.729611
20
-37.467451
30
0
210
0
220
0
230
1
1
\W0.7468;89.00
40
3.50012
41
0
44
1.084337
50
0
71
7
72
5
7
iso_b_vert
0
LINE
5
1C5
100
AcDbEntity
8
SK2
62
256
6
ByLayer
370
13
48
1
60
0
100
AcDbLine
10
-40
20
-1.5875
30
0
11
-40
21
-41.67512
31
0
39
0
210
0
220
0
230
1
0
LINE
5
1C6
100
AcDbEntity
8
SK2
62
256
6
ByLayer
370
13
48
1
60
0
100
AcDbLine
10
49
20
-1.5875
30
0
11
49
21
-41.67512
31
0
39
0
210
0
220
0
230
1
0
LINE
5
1C7
100
AcDbEntity
8
SK2
62
256
6
ByLayer
370
13
48
1
60
0
100
AcDbLine
10
-40
20
-38.50012
30
0
11
49
21
-38.50012
31
0
39
0
210
0
220
0
230
1
0
LINE
5
1C8
100
AcDbEntity
8
SK2
62
256
6
ByLayer
370
13
48
1
60
0
100
AcDbLine
10
-40
20
-38.50012
30
0
11
-36.825002
21
-38.082123
31
0
39
0
210
0
220
0
230
1
0
LINE
5
1C9
100
AcDbEntity
8
SK2
62
256
6
ByLayer
370
13
48
1
60
0
100
AcDbLine
10
-40
20
-38.50012
30
0
11
-36.824998
21
-38.918117
31
0
39
0
210
0
220
0
230
1
0
LINE
5
1CA
100
AcDbEntity
8
SK2
62
256
6
ByLayer
370
13
48
1
60
0
100
AcDbLine
10
-36.825002
20
-38.082123
30
0
11
-36.824998
21
-38.918117
31
0
39
0
210
0
220
0
230
1
0
LINE
5
1CB
100
AcDbEntity
8
SK2
62
256
6
ByLayer
370
13
48
1
60
0
100
AcDbLine
10
49
20
-38.50012
30
0
11
45.825002
21
-38.918117
31
0
39
0
210
0
220
0
230
1
0
LINE
5
1CC
100
AcDbEntity
8
SK2
62
256
6
ByLayer
370
13
48
1
60
0
100
AcDbLine
10
49
20
-38.50012
30
0
11
45.824998
21
-38.082123
31
0
39
0
210
0
220
0
230
1
0
LINE
5
1CD
100
AcDbEntity
8
SK2
62
256
6
ByLayer
370
13
48
1
60
0
100
AcDbLine
10
45.825002
20
-38.918117
30
0
11
45.824998
21
-38.082123
31
0
39
0
210
0
220
0
230
1
0
ENDBLK
5
1CF
100
AcDbEntity
8
0
100
AcDbBlockEnd
0
ENDSEC
0
SECTION
2
ENTITIES
0
ARC
5
AE
100
AcDbEntity
8
1
62
256
6
ByLayer
370
18
48
1
60
0
100
AcDbCircle
39
0
10
1.474479
20
4.821217
30
0
40
0.800000000000002
210
0
220
0
230
1
100
AcDbArc
50
202.846312
51
270.03581
0
ARC
5
AF
100
AcDbEntity
8
1
62
256
6
ByLayer
370
18
48
1
60
0
100
AcDbCircle
39
0
10
1.474479
20
-4.821217
30
0
40
0.800000000000002
210
0
220
0
230
1
100
AcDbArc
50
89.96419
51
157.153688
0
ARC
5
B0
100
AcDbEntity
8
1
62
256
6
ByLayer
370
18
48
1
60
0
100
AcDbCircle
39
0
10
0
20
4.2
30
0
40
0.799999999999995
210
0
220
0
230
1
100
AcDbArc
50
22.846312
51
90
0
ARC
5
B1
100
AcDbEntity
8
1
62
256
6
ByLayer
370
18
48
1
60
0
100
AcDbCircle
39
0
10
0
20
-4.2
30
0
40
0.799999999999995
210
0
220
0
230
1
100
AcDbArc
50
270
51
337.153688
0
ARC
5
B2
100
AcDbEntity
8
SK2
62
256
6
ByLayer
370
13
48
1
60
0
100
AcDbCircle
39
0
10
49
20
0
30
0
40
20
210
0
220
0
230
1
100
AcDbArc
50
9.606349
51
69.999743
0
ARC
5
B3
100
AcDbEntity
8
SK2
62
256
6
ByLayer
370
13
48
1
60
0
100
AcDbCircle
39
0
10
49
20
0
30
0
40
20
210
0
220
0
230
1
100
AcDbArc
50
290.000257
51
350.393651
0
ELLIPSE
5
B4
100
AcDbEntity
8
1
62
256
6
ByLayer
370
18
48
1
60
0
100
AcDbEllipse
10
3.601713
20
3.920406
30
0
11
-0.1
21
1.22460635382238E-17
31
0
210
0
220
0
230
1
40
1
41
0.00392053870363942
42
1.5789018650833
0
ELLIPSE
5
B5
100
AcDbEntity
8
1
62
256
6
ByLayer
370
18
48
1
60
0
100
AcDbEllipse
10
3.601713
20
-3.920406
30
0
11
-0.1
21
1.22460635382238E-17
31
0
210
0
220
0
230
1
40
1
41
-0.451230542884866
42
-0.00392053870363054
0
POINT
5
70
100
AcDbEntity
8
80
62
256
6
ByLayer
370
18
48
1
60
0
100
AcDbPoint
10
0
20
0
30
0
39
0
210
0
220
0
230
1
50
360
0
POINT
5
72
100
AcDbEntity
8
81
62
256
6
ByLayer
370
18
48
1
60
0
100
AcDbPoint
10
49
20
0
30
0
39
0
210
0
220
0
230
1
50
360
0
POINT
5
74
100
AcDbEntity
8
1
62
256
6
ByLayer
370
18
48
1
60
0
100
AcDbPoint
10
-40
20
0
30
0
39
0
210
0
220
0
230
1
50
360
0
POINT
5
76
100
AcDbEntity
8
1
62
256
6
ByLayer
370
18
48
1
60
1
100
AcDbPoint
10
0
20
-5
30
0
39
0
210
0
220
0
230
1
50
360
0
POINT
5
77
100
AcDbEntity
8
1
62
256
6
ByLayer
370
18
48
1
60
1
100
AcDbPoint
10
49
20
0
30
0
39
0
210
0
220
0
230
1
50
360
0
POINT
5
78
100
AcDbEntity
8
1
62
256
6
ByLayer
370
18
48
1
60
1
100
AcDbPoint
10
47.5259
20
-4.05
30
0
39
0
210
0
220
0
230
1
50
360
0
POINT
5
79
100
AcDbEntity
8
1
62
256
6
ByLayer
370
18
48
1
60
1
100
AcDbPoint
10
47.5259
20
4.05
30
0
39
0
210
0
220
0
230
1
50
360
0
POINT
5
7A
100
AcDbEntity
8
1
62
256
6
ByLayer
370
18
48
1
60
1
100
AcDbPoint
10
-40
20
5
30
0
39
0
210
0
220
0
230
1
50
360
0
POINT
5
7B
100
AcDbEntity
8
1
62
256
6
ByLayer
370
18
48
1
60
1
100
AcDbPoint
10
-40
20
-5
30
0
39
0
210
0
220
0
230
1
50
360
0
POINT
5
7C
100
AcDbEntity
8
1
62
256
6
ByLayer
370
18
48
1
60
1
100
AcDbPoint
10
-40
20
-5
30
0
39
0
210
0
220
0
230
1
50
360
0
POINT
5
7D
100
AcDbEntity
8
1
62
256
6
ByLayer
370
18
48
1
60
1
100
AcDbPoint
10
0
20
-5
30
0
39
0
210
0
220
0
230
1
50
360
0
POINT
5
7E
100
AcDbEntity
8
1
62
256
6
ByLayer
370
18
48
1
60
1
100
AcDbPoint
10
2
20
4.55
30
0
39
0
210
0
220
0
230
1
50
360
0
POINT
5
7F
100
AcDbEntity
8
1
62
256
6
ByLayer
370
18
48
1
60
1
100
AcDbPoint
10
49
20
0
30
0
39
0
210
0
220
0
230
1
50
360
0
POINT
5
80
100
AcDbEntity
8
1
62
256
6
ByLayer
370
18
48
1
60
1
100
AcDbPoint
10
23.3
20
-4.05
30
0
39
0
210
0
220
0
230
1
50
360
0
POINT
5
81
100
AcDbEntity
8
1
62
256
6
ByLayer
370
18
48
1
60
1
100
AcDbPoint
10
49
20
0
30
0
39
0
210
0
220
0
230
1
50
360
0
POINT
5
82
100
AcDbEntity
8
1
62
256
6
ByLayer
370
18
48
1
60
1
100
AcDbPoint
10
-40
20
0
30
0
39
0
210
0
220
0
230
1
50
360
0
POINT
5
83
100
AcDbEntity
8
1
62
256
6
ByLayer
370
18
48
1
60
1
100
AcDbPoint
10
49
20
0
30
0
39
0
210
0
220
0
230
1
50
360
0
SPLINE
5
B6
100
AcDbEntity
8
1
62
256
6
ByLayer
370
18
48
1
60
0
100
AcDbSpline
70
4
71
3
72
10
73
6
40
0
40
0
40
0
40
0
40
0.5
40
0.5
40
1
40
1
40
1
40
1
41
1
10
47.9426609697521
20
1.1535326858658
30
0
41
1
10
48.0581834710146
20
1.17116594118622
30
0
41
1
10
48.1733348233165
20
1.19101674000362
30
0
41
1
10
48.4027776086488
20
1.2358561895268
30
0
41
1
10
48.5171230442763
20
1.26078146120855
30
0
41
1
10
48.6302464512839
20
1.28964583513991
30
0
0
SPLINE
5
B7
100
AcDbEntity
8
1
62
256
6
ByLayer
370
18
48
1
60
0
100
AcDbSpline
70
4
71
3
72
86
73
82
40
0
40
0
40
0
40
0
40
0.0173453309249129
40
0.0173453309249129
40
0.0358371425273086
40
0.0358371425273086
40
0.0728207657320999
40
0.0728207657320999
40
0.0913125773344956
40
0.0913125773344956
40
0.109804388936891
40
0.109804388936891
40
0.146788012141683
40
0.146788012141683
40
0.183771635346474
40
0.183771635346474
40
0.220755258551265
40
0.220755258551265
40
0.239247070153661
40
0.239247070153661
40
0.257738881756057
40
0.257738881756057
40
0.294722504960848
40
0.294722504960848
40
0.331706128165639
40
0.331706128165639
40
0.350197939768035
40
0.350197939768035
40
0.368689751370431
40
0.368689751370431
40
0.387181562972826
40
0.387181562972826
40
0.405673374575222
40
0.405673374575222
40
0.424165186177618
40
0.424165186177618
40
0.442656997780013
40
0.442656997780013
40
0.461148809382409
40
0.461148809382409
40
0.479640620984805
40
0.479640620984805
40
0.516624244189596
40
0.516624244189596
40
0.553607867394388
40
0.553607867394388
40
0.590591490599179
40
0.590591490599179
40
0.609083302201575
40
0.609083302201575
40
0.627575113803971
40
0.627575113803971
40
0.664558737008763
40
0.664558737008763
40
0.701542360213556
40
0.701542360213556
40
0.720034171815952
40
0.720034171815952
40
0.738525983418349
40
0.738525983418349
40
0.757017795020745
40
0.757017795020745
40
0.775509606623141
40
0.775509606623141
40
0.812493229827934
40
0.812493229827934
40
0.83098504143033
40
0.83098504143033
40
0.849476853032726
40
0.849476853032726
40
0.88646047623752
40
0.88646047623752
40
0.923444099442313
40
0.923444099442313
40
0.94193591104471
40
0.94193591104471
40
0.960427722647106
40
0.960427722647106
40
0.9974113458519
40
0.9974113458519
40
1
40
1
40
1
40
1
41
1
10
41.849758587795
20
-2.67382542084974
30
2E-16
41
1
10
41.6496807736471
20
-2.74410769430054
30
2E-16
41
1
10
41.4491759688777
20
-2.81224371812394
30
2E-16
41
1
10
41.0338287600712
20
-2.94824035462005
30
2E-16
41
1
10
40.8187426810098
20
-3.01579118421125
30
2E-16
41
1
10
40.1768968862214
20
-3.21056723133253
30
2E-16
41
1
10
39.7509833208999
20
-3.3284372566564
30
2E-16
41
1
10
39.1130767158626
20
-3.48534185556548
30
2E-16
41
1
10
38.9006853926932
20
-3.53445583012723
30
0
41
1
10
38.4767882232643
20
-3.62668518885476
30
0
41
1
10
38.2650121717083
20
-3.6695027740098
30
0
41
1
10
37.629655627202
20
-3.78764448897368
30
0
41
1
10
37.205795892586
20
-3.85258520935471
30
0
41
1
10
36.3586061931124
20
-3.95544471451456
30
0
41
1
10
35.9343043986603
20
-3.99265724627739
30
0
41
1
10
35.0824944561033
20
-4.03802276513238
30
0
41
1
10
34.6560287656929
20
-4.04632230361716
30
0
41
1
10
34.0123404228082
20
-4.03620067375613
30
0
41
1
10
33.7977170496367
20
-4.02911001340613
30
0
41
1
10
33.3698715536588
20
-4.00766989549501
30
0
41
1
10
33.1566899024399
20
-3.99322536737085
30
0
41
1
10
32.5180835407283
20
-3.93910230434591
30
0
41
1
10
32.0933890292129
20
-3.88882977328095
30
0
41
1
10
31.2452868861008
20
-3.76112606936914
30
0
41
1
10
30.8226702792615
20
-3.68293850094281
30
0
41
1
10
30.1874026404386
20
-3.54719489171578
30
0
41
1
10
29.9754506621099
20
-3.49889709602195
30
2E-16
41
1
10
29.5516320630752
20
-3.39565992275158
30
2E-16
41
1
10
29.339845505251
20
-3.34059178287339
30
2E-16
41
1
10
28.9155024503692
20
-3.22471394798146
30
2E-16
41
1
10
28.7030252039179
20
-3.16381924792381
30
2E-16
41
1
10
28.2771811748137
20
-3.03652435306108
30
2E-16
41
1
10
28.0637587298465
20
-2.97023072661847
30
2E-16
41
1
10
27.6365964327814
20
-2.83116904798129
30
2E-16
41
1
10
27.4227052427326
20
-2.7586070570672
30
2E-16
41
1
10
26.9935864488003
20
-2.60852770139351
30
2E-16
41
1
10
26.779113561498
20
-2.53119978265571
30
2E-16
41
1
10
26.3512845477392
20
-2.37288293759235
30
1E-16
41
1
10
26.1377272863578
20
-2.29186369936201
30
1E-16
41
1
10
25.7119484781184
20
-2.12492726531192
30
1E-16
41
1
10
25.4994529827212
20
-2.03952401078604
30
1E-16
41
1
10
24.8624627534853
20
-1.77888287933837
30
1E-16
41
1
10
24.4381517153125
20
-1.59988575583026
30
1E-16
41
1
10
23.5916305475123
20
-1.22863254327709
30
1E-16
41
1
10
23.1684476027181
20
-1.03832895622364
30
1E-16
41
1
10
22.3202393376958
20
-0.65272692103224
30
0
41
1
10
21.8962454793963
20
-0.455164297199929
30
0
41
1
10
21.2575666054613
20
-0.157851354673369
30
0
41
1
10
21.0442132098771
20
-0.0586253082771293
30
0
41
1
10
20.6165726291427
20
0.140043683117881
30
0
41
1
10
20.4025071541005
20
0.240006640695356
30
0
41
1
10
19.7587486368687
20
0.539947514503211
30
0
41
1
10
19.3309184491001
20
0.73710066048929
30
0
41
1
10
18.4783781301491
20
1.12238740543737
30
-1E-16
41
1
10
18.054374538746
20
1.31279705706885
30
-1E-16
41
1
10
17.4182437744034
20
1.58761284673034
30
-1E-16
41
1
10
17.2062075391019
20
1.67750424181315
30
-1E-16
41
1
10
16.7824510481223
20
1.85448940701031
30
-1E-16
41
1
10
16.5709355133597
20
1.94197179697335
30
-1E-16
41
1
10
16.1475479456188
20
2.11277047005703
30
-1E-16
41
1
10
15.9357531390996
20
2.19624407847371
30
-1E-16
41
1
10
15.5116577188529
20
2.35880111975706
30
-1E-16
41
1
10
15.299304178419
20
2.43779874749393
30
-1E-16
41
1
10
14.6621402999699
20
2.66936216475352
30
-2E-16
41
1
10
14.2369089613287
20
2.81583411166042
30
-2E-16
41
1
10
13.5953529722814
20
3.01848070313483
30
-2E-16
41
1
10
13.380903267558
20
3.08324949131614
30
-2E-16
41
1
10
12.9514955457511
20
3.20819451241343
30
-2E-16
41
1
10
12.7372851376578
20
3.26776841684682
30
-2E-16
41
1
10
12.0959405303851
20
3.4364087559787
30
-2E-16
41
1
10
11.6694708376584
20
3.53532417260152
30
0
41
1
10
10.8201818141551
20
3.70830298999934
30
0
41
1
10
10.3964793640796
20
3.78129141587496
30
0
41
1
10
9.7605974665864
20
3.86962004880832
30
0
41
1
10
9.54870231127217
20
3.89563914612768
30
0
41
1
10
9.12527867215672
20
3.94085329750223
30
0
41
1
10
8.91351009423516
20
3.95990953049898
30
0
41
1
10
8.27743306280399
20
4.00622129471969
30
0
41
1
10
7.85248109721763
20
4.02277564951385
30
0
41
1
10
7.39690237519085
20
4.02482851539827
30
0
41
1
10
7.36709184193987
20
4.02489023647155
30
0
41
1
10
7.33727242818307
20
4.0248795137764
30
0
0
SPLINE
5
B8
100
AcDbEntity
8
1
62
256
6
ByLayer
370
18
48
1
60
0
100
AcDbSpline
70
4
71
3
72
36
73
32
40
0
40
0
40
0
40
0
40
0.0025267885243554
40
0.0025267885243554
40
0.0690250026227322
40
0.0690250026227322
40
0.135523216721109
40
0.135523216721109
40
0.202021430819486
40
0.202021430819486
40
0.268519644917862
40
0.268519644917862
40
0.335017859016239
40
0.335017859016239
40
0.401516073114616
40
0.401516073114616
40
0.468014287212992
40
0.468014287212992
40
0.601010715409745
40
0.601010715409745
40
0.667508929508122
40
0.667508929508122
40
0.734007143606498
40
0.734007143606498
40
0.767256250655686
40
0.767256250655686
40
0.800505357704874
40
0.800505357704874
40
0.86700357180325
40
0.86700357180325
40
1
40
1
40
1
40
1
41
1
10
24.1239349836264
20
-3.85162681161785
30
0
41
1
10
24.1066201604803
20
-3.85402341885305
30
0
41
1
10
24.0893068740763
20
-3.85639663504034
30
0
41
1
10
23.6163988913152
20
-3.92058592358433
30
0
41
1
10
23.1613314231665
20
-3.96637137666011
30
0
41
1
10
22.2499483844041
20
-4.02469711875872
30
0
41
1
10
21.7927890896868
20
-4.03722478518861
30
0
41
1
10
20.8800220705706
20
-4.02857785987453
30
0
41
1
10
20.4247906187106
20
-4.00743468006277
30
0
41
1
10
19.5139417752848
20
-3.93218234859879
30
0
41
1
10
19.0583790282886
20
-3.87809829490314
30
0
41
1
10
18.1451025208976
20
-3.7378708749734
30
0
41
1
10
17.6884407354601
20
-3.65169869295229
30
0
41
1
10
16.7771610226869
20
-3.45035797702658
30
2E-16
41
1
10
16.3219293209952
20
-3.33505582592997
30
2E-16
41
1
10
15.4102903030734
20
-3.07752899707398
30
2E-16
41
1
10
14.9530166741151
20
-2.93505125544903
30
2E-16
41
1
10
13.5839420376969
20
-2.47333726198431
30
2E-16
41
1
10
12.6749898070398
20
-2.12032734515242
30
1E-16
41
1
10
11.3047945565099
20
-1.54516184970564
30
1E-16
41
1
10
10.848018317783
20
-1.34600100434747
30
1E-16
41
1
10
9.93661010463663
20
-0.939198470994171
30
1E-16
41
1
10
9.48126123996207
20
-0.731410142811768
30
0
41
1
10
8.79734870634672
20
-0.416167944155603
30
0
41
1
10
8.56923200916947
20
-0.310489173345957
30
0
41
1
10
8.1124937203644
20
-0.0983871254173039
30
0
41
1
10
7.88384256183451
20
0.0080397038864817
30
0
41
1
10
7.19959308839037
20
0.326033570633797
30
0
41
1
10
6.74473661618131
20
0.536804034466826
30
0
41
1
10
5.38132039537177
20
1.15951411919016
30
-1E-16
41
1
10
4.47370423243015
20
1.5613717873112
30
-1E-16
41
1
10
3.55957644836539
20
1.93354467063361
30
-1E-16
0
SPLINE
5
B9
100
AcDbEntity
8
1
62
256
6
ByLayer
370
18
48
1
60
0
100
AcDbSpline
70
4
71
3
72
14
73
10
40
0
40
0
40
0
40
0
40
0.274214344734885
40
0.274214344734885
40
0.511253956607165
40
0.511253956607165
40
0.783655750851194
40
0.783655750851194
40
1
40
1
40
1
40
1
41
1
10
47.0903276130451
20
-0.0933534582374023
30
0
41
1
10
47.0910673693816
20
-0.0936488673671931
30
0
41
1
10
47.0917973183206
20
-0.0943160663711353
30
0
41
1
10
47.0930136588107
20
-0.0960080816502114
30
0
41
1
10
47.0935365421309
20
-0.0969952162460004
30
0
41
1
10
47.0945002553283
20
-0.0993902269637488
30
0
41
1
10
47.0949326516757
20
-0.100876307682682
30
0
41
1
10
47.0954742053467
20
-0.10371501464499
30
0
41
1
10
47.095636895687
20
-0.105066234369559
30
0
41
1
10
47.0956918851138
20
-0.10641417346892
30
0
0
SPLINE
5
BA
100
AcDbEntity
8
1
62
256
6
ByLayer
370
18
48
1
60
0
100
AcDbSpline
70
4
71
3
72
40
73
36
40
0
40
0
40
0
40
0
40
0.0121751168942243
40
0.0121751168942243
40
0.108802805958481
40
0.108802805958481
40
0.157116650490609
40
0.157116650490609
40
0.205430495022737
40
0.205430495022737
40
0.253744339554865
40
0.253744339554865
40
0.302058184086993
40
0.302058184086993
40
0.398685873151249
40
0.398685873151249
40
0.446999717683377
40
0.446999717683377
40
0.495313562215506
40
0.495313562215506
40
0.591941251279762
40
0.591941251279762
40
0.640255095811891
40
0.640255095811891
40
0.68856894034402
40
0.68856894034402
40
0.785196629408276
40
0.785196629408276
40
0.833510473940404
40
0.833510473940404
40
0.881824318472532
40
0.881824318472532
40
0.978452007536789
40
0.978452007536789
40
1
40
1
40
1
40
1
41
1
10
20.1155689597427
20
-0.203717073264187
30
0
41
1
10
20.0588685656148
20
-0.178705040475734
30
0
41
1
10
20.0021663369246
20
-0.153697891284196
30
0
41
1
10
19.4954328490858
20
0.0697386843229708
30
0
41
1
10
19.0452658653846
20
0.267813886281743
30
0
41
1
10
18.3697714091382
20
0.564286747660105
30
0
41
1
10
18.1445698217842
20
0.663013193858035
30
0
41
1
10
17.6934812983709
20
0.858849370101893
30
-1E-16
41
1
10
17.4676060323509
20
0.955986200692934
30
-1E-16
41
1
10
17.0151366152117
20
1.14856223225459
30
-1E-16
41
1
10
16.7885311339728
20
1.24397526192109
30
-1E-16
41
1
10
16.3341780888037
20
1.43212208404052
30
-1E-16
41
1
10
16.1062529189667
20
1.52494915236346
30
-1E-16
41
1
10
15.4218870641763
20
1.79859187825099
30
-1E-16
41
1
10
14.9665882453849
20
1.97397235040935
30
-1E-16
41
1
10
14.2851746627496
20
2.22356145528451
30
-1E-16
41
1
10
14.0582706333971
20
2.304492666367
30
-1E-16
41
1
10
13.6039803159138
20
2.46146290462531
30
-2E-16
41
1
10
13.3766168594748
20
2.5375018157597
30
-2E-16
41
1
10
12.6938872494488
20
2.75789611490626
30
-2E-16
41
1
10
12.236654949935
20
2.89480011807632
30
-2E-16
41
1
10
11.5556610205172
20
3.07915231490656
30
-2E-16
41
1
10
11.3293263893247
20
3.13718948320681
30
-2E-16
41
1
10
10.8770126625039
20
3.24692669456766
30
-2E-16
41
1
10
10.6510567443034
20
3.29860352496897
30
0
41
1
10
9.97392307567924
20
3.4434550508374
30
0
41
1
10
9.52346637340679
20
3.52644846592491
30
0
41
1
10
8.84863740249256
20
3.62767686371544
30
0
41
1
10
8.62383540154309
20
3.657548465491
30
0
41
1
10
8.1739011167702
20
3.71031995773228
30
0
41
1
10
7.94876452523704
20
3.733227925873
30
0
41
1
10
7.27287067318923
20
3.79050272321067
30
0
41
1
10
6.8216129118548
20
3.81353269464779
30
0
41
1
10
6.26787143046991
20
3.82210633969697
30
0
41
1
10
6.16683095299621
20
3.82285619623025
30
0
41
1
10
6.06570243348511
20
3.82282452208207
30
0
0
SPLINE
5
BB
100
AcDbEntity
8
1
62
256
6
ByLayer
370
18
48
1
60
0
100
AcDbSpline
70
4
71
3
72
22
73
18
40
0
40
0
40
0
40
0
40
0.12120322096621
40
0.12120322096621
40
0.315595116090776
40
0.315595116090776
40
0.412791063653058
40
0.412791063653058
40
0.50998701121534
40
0.50998701121534
40
0.607182958777623
40
0.607182958777623
40
0.704378906339905
40
0.704378906339905
40
0.898770801464469
40
0.898770801464469
40
1
40
1
40
1
40
1
41
1
10
7.39736858302339
20
0.233178681413278
30
0
41
1
10
7.96611919087525
20
-0.0174401907684398
30
0
41
1
10
8.53334173289446
20
-0.268929607805745
30
0
41
1
10
10.0109304526224
20
-0.915272874654022
30
1E-16
41
1
10
10.9213432861006
20
-1.30574200298412
30
1E-16
41
1
10
12.2990010919051
20
-1.85338287667099
30
1E-16
41
1
10
12.7609682488232
20
-2.03005014622315
30
1E-16
41
1
10
13.6814284749793
20
-2.36352739194123
30
1E-16
41
1
10
14.1409272586321
20
-2.52070441542264
30
2E-16
41
1
10
15.0603799053837
20
-2.81251085440212
30
2E-16
41
1
10
15.5203194067093
20
-2.94720691300617
30
2E-16
41
1
10
16.44246118949
20
-3.19133039161105
30
2E-16
41
1
10
16.9020100164771
20
-3.29995159719735
30
0
41
1
10
18.2745120322994
20
-3.58168752745613
30
0
41
1
10
19.1833857939334
20
-3.71105474716458
30
0
41
1
10
20.5669449100933
20
-3.81290157084678
30
0
41
1
10
21.0410390753783
20
-3.83077429471814
30
0
41
1
10
21.5164320447044
20
-3.83132600153721
30
0
0
SPLINE
5
BC
100
AcDbEntity
8
1
62
256
6
ByLayer
370
18
48
1
60
0
100
AcDbSpline
70
4
71
3
72
60
73
56
40
0
40
0
40
0
40
0
40
0.0457184832142668
40
0.0457184832142668
40
0.0914369664285336
40
0.0914369664285336
40
0.1371554496428
40
0.1371554496428
40
0.182873932857067
40
0.182873932857067
40
0.228592416071334
40
0.228592416071334
40
0.251451657678467
40
0.251451657678467
40
0.2743108992856
40
0.2743108992856
40
0.320029382499867
40
0.320029382499867
40
0.342888624107
40
0.342888624107
40
0.365747865714134
40
0.365747865714134
40
0.4114663489284
40
0.4114663489284
40
0.434325590535533
40
0.434325590535533
40
0.457184832142666
40
0.457184832142666
40
0.502903315356932
40
0.502903315356932
40
0.548621798571199
40
0.548621798571199
40
0.571481040178331
40
0.571481040178331
40
0.594340281785464
40
0.594340281785464
40
0.640058764999729
40
0.640058764999729
40
0.662918006606862
40
0.662918006606862
40
0.685777248213995
40
0.685777248213995
40
0.731495731428262
40
0.731495731428262
40
0.777214214642528
40
0.777214214642528
40
0.822932697856794
40
0.822932697856794
40
0.86865118107106
40
0.86865118107106
40
0.914369664285326
40
0.914369664285326
40
0.960088147499592
40
0.960088147499592
40
1
40
1
40
1
40
1
41
1
10
3.644124137315
20
3.86495757234292
30
0
41
1
10
4.09609627050992
20
3.92389817453929
30
0
41
1
10
4.54805754481555
20
3.96634398821462
30
0
41
1
10
5.45278930883657
20
4.01876861160284
30
0
41
1
10
5.90562278822955
20
4.02871458099995
30
0
41
1
10
6.80994255911347
20
4.01550074777782
30
0
41
1
10
7.26190611744713
20
3.99244285210088
30
0
41
1
10
8.16716736736515
20
3.91387875860161
30
0
41
1
10
8.61926762392105
20
3.8582189292749
30
0
41
1
10
9.52317709357737
20
3.71593442369476
30
0
41
1
10
9.97625277691705
20
3.62945989059355
30
0
41
1
10
10.6546905640386
20
3.47814002999013
30
-2E-16
41
1
10
10.8805621037104
20
3.42413237714499
30
-2E-16
41
1
10
11.3317546663182
20
3.30893905012965
30
-2E-16
41
1
10
11.5570696075284
20
3.24772628102721
30
-2E-16
41
1
10
12.2335002952661
20
3.05493614905038
30
-2E-16
41
1
10
12.6850962992413
20
2.91433868406028
30
-2E-16
41
1
10
13.3634370481449
20
2.68538126590642
30
-2E-16
41
1
10
13.589905941987
20
2.60598892549774
30
-2E-16
41
1
10
14.041760223096
20
2.4416841258394
30
-1E-16
41
1
10
14.2672400198315
20
2.35668482125047
30
-1E-16
41
1
10
14.9438776481115
20
2.09587720148389
30
-1E-16
41
1
10
15.3952718443671
20
1.91442899561838
30
-1E-16
41
1
10
16.0726411461449
20
1.63077842318663
30
-1E-16
41
1
10
16.2984955995026
20
1.53433916392714
30
-1E-16
41
1
10
16.750424802047
20
1.33780231538088
30
-1E-16
41
1
10
16.9766802943504
20
1.23756868640768
30
-1E-16
41
1
10
17.6545849421252
20
0.934067200622138
30
-1E-16
41
1
10
18.1053906098971
20
0.727322599626035
30
0
41
1
10
19.007452857361
20
0.310827588696242
30
0
41
1
10
19.4590589667676
20
0.101846495600512
30
0
41
1
10
20.1371658712057
20
-0.213081674188203
30
0
41
1
10
20.363548862837
20
-0.318347652359165
30
0
41
1
10
20.8153758136905
20
-0.528555717607986
30
0
41
1
10
21.0407887881362
20
-0.633601586326193
30
0
41
1
10
21.717595982111
20
-0.944146159117878
30
1E-16
41
1
10
22.1688768049991
20
-1.1465688449633
30
1E-16
41
1
10
22.8458226830816
20
-1.44353924447825
30
1E-16
41
1
10
23.0714729040356
20
-1.54141612013856
30
1E-16
41
1
10
23.5230806345871
20
-1.73429694323698
30
1E-16
41
1
10
23.7492220532636
20
-1.82942413464278
30
1E-16
41
1
10
24.4273377332713
20
-2.10780122254511
30
1E-16
41
1
10
24.8788774569126
20
-2.28408228309834
30
1E-16
41
1
10
25.7809954679453
20
-2.61809938037408
30
2E-16
41
1
10
26.2311759386798
20
-2.77635636730759
30
2E-16
41
1
10
27.1345174397931
20
-3.06753396840943
30
2E-16
41
1
10
27.5877536922316
20
-3.20072603171215
30
2E-16
41
1
10
28.4907735322136
20
-3.44017625892729
30
2E-16
41
1
10
28.9411793824527
20
-3.54681357568728
30
0
41
1
10
29.8429762564743
20
-3.73017679495558
30
0
41
1
10
30.2945291996244
20
-3.80724233271383
30
0
41
1
10
31.1991904897756
20
-3.92914851043258
30
0
41
1
10
31.6506964698319
20
-3.97406919970666
30
0
41
1
10
32.4952838675895
20
-4.02809458014906
30
0
41
1
10
32.8881497463649
20
-4.04091238349821
30
0
41
1
10
33.2820656044906
20
-4.04108814415164
30
0
0
SPLINE
5
BD
100
AcDbEntity
8
1
62
256
6
ByLayer
370
18
48
1
60
0
100
AcDbSpline
70
4
71
3
72
30
73
26
40
0
40
0
40
0
40
0
40
0.499245946685102
40
0.499245946685102
40
0.677096077310184
40
0.677096077310184
40
0.792276872617107
40
0.792276872617107
40
0.866817409251044
40
0.866817409251044
40
0.915290476716099
40
0.915290476716099
40
0.946844826150208
40
0.946844826150208
40
0.967322118920067
40
0.967322118920067
40
0.980407206402964
40
0.980407206402964
40
0.988721342421514
40
0.988721342421514
40
0.99421014766864
40
0.99421014766864
40
0.99796882411872
40
0.99796882411872
40
1
40
1
40
1
40
1
41
1
10
47.3424451024159
20
4.04934251120167
30
0
41
1
10
47.3827414454668
20
4.0228776413359
30
0
41
1
10
47.4230904412011
20
3.99620963181312
30
0
41
1
10
47.4778814058586
20
3.95977770448417
30
0
41
1
10
47.4922771085673
20
3.95018529859519
30
0
41
1
10
47.5160207919796
20
3.93433028296107
30
0
41
1
10
47.5253638095148
20
3.92808272838863
30
0
41
1
10
47.5407650443824
20
3.91777044156854
30
0
41
1
10
47.5468163413518
20
3.91371527326186
30
0
41
1
10
47.5567829518033
20
3.90703108436324
30
0
41
1
10
47.5607052129671
20
3.90439923593436
30
0
41
1
10
47.5671656174047
20
3.90006202010451
30
0
41
1
10
47.5697058398555
20
3.89835608874876
30
0
41
1
10
47.5738992814333
20
3.89553874291329
30
0
41
1
10
47.5755511491022
20
3.89442863950765
30
0
41
1
10
47.5782914102637
20
3.89258632128167
30
0
41
1
10
47.5793694133478
20
3.89186136221392
30
0
41
1
10
47.5811488457312
20
3.89066438046368
30
0
41
1
10
47.5818436158927
20
3.89019696123773
30
0
41
1
10
47.5829883974742
20
3.88942682826982
30
0
41
1
10
47.5834418441417
20
3.88912178784017
30
0
41
1
10
47.5841924581757
20
3.88861691880979
30
0
41
1
10
47.5844945624281
20
3.88841374285224
30
0
41
1
10
47.5849432827866
20
3.88811204882913
30
0
41
1
10
47.5850976883152
20
3.88800825246639
30
0
41
1
10
47.5852452575224
20
3.88790908405863
30
0
0
SPLINE
5
BE
100
AcDbEntity
8
1
62
256
6
ByLayer
370
18
48
1
60
0
100
AcDbSpline
70
4
71
3
72
30
73
26
40
0
40
0
40
0
40
0
40
0.49924594668486
40
0.49924594668486
40
0.677096077309683
40
0.677096077309683
40
0.792276872616348
40
0.792276872616348
40
0.866817409249403
40
0.866817409249403
40
0.915290476715257
40
0.915290476715257
40
0.946844826149169
40
0.946844826149169
40
0.967322118919105
40
0.967322118919105
40
0.98040720640188
40
0.98040720640188
40
0.988721342420526
40
0.988721342420526
40
0.994210147667801
40
0.994210147667801
40
0.997968824117875
40
0.997968824117875
40
1
40
1
40
1
40
1
41
1
10
47.3424451024159
20
-4.04934251120167
30
0
41
1
10
47.3827414454668
20
-4.0228776413359
30
0
41
1
10
47.4230904412011
20
-3.99620963181309
30
0
41
1
10
47.4778814058587
20
-3.95977770448417
30
0
41
1
10
47.4922771085673
20
-3.95018529859516
30
0
41
1
10
47.5160207919796
20
-3.93433028296104
30
0
41
1
10
47.5253638095148
20
-3.92808272838866
30
0
41
1
10
47.5407650443824
20
-3.91777044156862
30
0
41
1
10
47.5468163413516
20
-3.91371527326197
30
0
41
1
10
47.5567829518031
20
-3.90703108436335
30
0
41
1
10
47.560705212967
20
-3.90439923593439
30
0
41
1
10
47.5671656174047
20
-3.90006202010451
30
0
41
1
10
47.5697058398555
20
-3.89835608874881
30
0
41
1
10
47.5738992814333
20
-3.89553874291334
30
0
41
1
10
47.5755511491022
20
-3.89442863950768
30
0
41
1
10
47.5782914102636
20
-3.8925863212817
30
0
41
1
10
47.5793694133477
20
-3.89186136221395
30
0
41
1
10
47.5811488457312
20
-3.8906643804637
30
0
41
1
10
47.5818436158926
20
-3.89019696123776
30
0
41
1
10
47.5829883974742
20
-3.88942682826985
30
0
41
1
10
47.5834418441417
20
-3.8891217878402
30
0
41
1
10
47.5841924581757
20
-3.88861691880982
30
0
41
1
10
47.5844945624281
20
-3.88841374285224
30
0
41
1
10
47.5849432827867
20
-3.88811204882907
30
0
41
1
10
47.5850976883153
20
-3.88800825246634
30
0
41
1
10
47.5852452575226
20
-3.88790908405852
30
0
0
SPLINE
5
BF
100
AcDbEntity
8
1
62
256
6
ByLayer
370
18
48
1
60
0
100
AcDbSpline
70
4
71
3
72
8
73
4
40
0
40
0
40
0
40
0
40
1
40
1
40
1
40
1
41
1
10
21.7411277585796
20
-3.83999848738048
30
0
41
1
10
21.4754251441543
20
-3.84308468113494
30
0
41
1
10
21.2101782582321
20
-3.84074010257555
30
0
41
1
10
20.9452164396246
20
-3.83301925254293
30
0
0
SPLINE
5
C0
100
AcDbEntity
8
1
62
256
6
ByLayer
370
18
48
1
60
0
100
AcDbSpline
70
4
71
3
72
22
73
18
40
0
40
0
40
0
40
0
40
0.0580892264460398
40
0.0580892264460398
40
0.269528901355205
40
0.269528901355205
40
0.375248738809788
40
0.375248738809788
40
0.480968576264372
40
0.480968576264372
40
0.586688413718955
40
0.586688413718955
40
0.692408251173538
40
0.692408251173538
40
0.903847926082703
40
0.903847926082703
40
1
40
1
40
1
40
1
41
1
10
20.8399948521345
20
-3.82967015275369
30
0
41
1
10
20.5897203551447
20
-3.82103118560281
30
0
41
1
10
20.3396801672991
20
-3.80759927611902
30
0
41
1
10
19.1799349784919
20
-3.72325085613195
30
0
41
1
10
18.2710602673721
20
-3.5944927979416
30
0
41
1
10
16.8985218759666
20
-3.31334092208004
30
0
41
1
10
16.4389550495619
20
-3.20485635215164
30
2E-16
41
1
10
15.5167496595986
20
-2.96088136774489
30
2E-16
41
1
10
15.0567829747013
20
-2.82620118596526
30
2E-16
41
1
10
14.1372827767311
20
-2.53431102326991
30
2E-16
41
1
10
13.6777636130548
20
-2.37703185126006
30
1E-16
41
1
10
12.7572506022765
20
-2.04323477467378
30
1E-16
41
1
10
12.2952475833499
20
-1.86634809977005
30
1E-16
41
1
10
10.9175210533293
20
-1.31789699304002
30
1E-16
41
1
10
10.00709877648
20
-0.926690215585609
30
1E-16
41
1
10
8.68308330161111
20
-0.346204807231572
30
0
41
1
10
8.26932913290727
20
-0.162975883637216
30
0
41
1
10
7.85501443184572
20
0.0204184289922296
30
0
0
SPLINE
5
C1
100
AcDbEntity
8
1
62
256
6
ByLayer
370
18
48
1
60
0
100
AcDbSpline
70
4
71
3
72
10
73
6
40
0
40
0
40
0
40
0
40
0.366106988771657
40
0.366106988771657
40
1
40
1
40
1
40
1
41
1
10
3.51072209579348
20
3.87827501162599
30
0
41
1
10
3.51868542433113
20
3.87362674040901
30
0
41
1
10
3.53158477921096
20
3.86948665472639
30
0
41
1
10
3.57651033443471
20
3.86163286578835
30
0
41
1
10
3.61351682563517
20
3.86096614621391
30
0
41
1
10
3.64412413731503
20
3.86495757234292
30
0
0
SPLINE
5
C2
100
AcDbEntity
8
1
62
256
6
ByLayer
370
18
48
1
60
0
100
AcDbSpline
70
4
71
3
72
10
73
6
40
0
40
0
40
0
40
0
40
0.557868650317159
40
0.557868650317159
40
1
40
1
40
1
40
1
41
1
10
3.644124137315
20
-3.86495757234292
30
0
41
1
10
4.09609627050992
20
-3.92389817453929
30
0
41
1
10
4.54805754481555
20
-3.96634398821462
30
0
41
1
10
5.35893996624816
20
-4.01333051753329
30
0
41
1
10
5.71775021029018
20
-4.02388761234889
30
0
41
1
10
6.07628606976286
20
-4.02408494185565
30
0
0
SPLINE
5
C3
100
AcDbEntity
8
1
62
256
6
ByLayer
370
18
48
1
60
0
100
AcDbSpline
70
4
71
3
72
30
73
26
40
0
40
0
40
0
40
0
40
0.0125143754780517
40
0.0125143754780517
40
0.0948048441882137
40
0.0948048441882137
40
0.177095312898376
40
0.177095312898376
40
0.259385781608538
40
0.259385781608538
40
0.3416762503187
40
0.3416762503187
40
0.423966719028863
40
0.423966719028863
40
0.506257187739025
40
0.506257187739025
40
0.588547656449187
40
0.588547656449187
40
0.670838125159349
40
0.670838125159349
40
0.753128593869511
40
0.753128593869511
40
0.835419062579674
40
0.835419062579674
40
1
40
1
40
1
40
1
41
1
10
30.540547955703
20
3.83927434710614
30
0
41
1
10
30.6093008883141
20
3.84928382930076
30
0
41
1
10
30.6780713735511
20
3.85892594173566
30
0
41
1
10
31.1991904897756
20
3.92914851043258
30
0
41
1
10
31.6506964698319
20
3.97406919970666
30
0
41
1
10
32.5525557103707
20
4.03175806495017
30
0
41
1
10
33.0024462494284
20
4.04438033313019
30
0
41
1
10
33.9056859882927
20
4.03634215169137
30
0
41
1
10
34.3589548666485
20
4.01588228972619
30
0
41
1
10
35.2617212621594
20
3.9425119510139
30
0
41
1
10
35.7116625263744
20
3.88923003612067
30
0
41
1
10
36.6135986453329
20
3.75214885744111
30
0
41
1
10
37.065415059191
20
3.66813407696159
30
0
41
1
10
37.9699820303366
20
3.47032665665404
30
-2E-16
41
1
10
38.4204831666991
20
3.35635053244067
30
-2E-16
41
1
10
39.322252623325
20
3.10349684520023
30
-2E-16
41
1
10
39.7732037497251
20
2.96436354398395
30
-2E-16
41
1
10
40.6760198024942
20
2.66162761295334
30
-2E-16
41
1
10
41.1281962325803
20
2.49742440104481
30
-2E-16
41
1
10
42.0309743808654
20
2.15304445414603
30
-1E-16
41
1
10
42.4819775437679
20
1.972186906975
30
-1E-16
41
1
10
43.3836271310212
20
1.59384632776144
30
-1E-16
41
1
10
43.834529332379
20
1.39592703230622
30
-1E-16
41
1
10
45.1910729060414
20
0.790999420473952
30
0
41
1
10
46.0915055887882
20
0.371878886893114
30
0
41
1
10
46.9931183267333
20
-0.0523015468890264
30
0
0
SPLINE
5
C4
100
AcDbEntity
8
1
62
256
6
ByLayer
370
18
48
1
60
0
100
AcDbSpline
70
4
71
3
72
34
73
30
40
0
40
0
40
0
40
0
40
0.0980920766977238
40
0.0980920766977238
40
0.196184153395448
40
0.196184153395448
40
0.245230191744308
40
0.245230191744308
40
0.294276230093169
40
0.294276230093169
40
0.392368306790888
40
0.392368306790888
40
0.490460383488606
40
0.490460383488606
40
0.539506421837465
40
0.539506421837465
40
0.588552460186323
40
0.588552460186323
40
0.686644536884042
40
0.686644536884042
40
0.784736613581761
40
0.784736613581761
40
0.833782651930621
40
0.833782651930621
40
0.882828690279482
40
0.882828690279482
40
0.980920766977206
40
0.980920766977206
40
1
40
1
40
1
40
1
41
1
10
47.0956918851138
20
-0.10641417346892
30
0
41
1
10
46.6430699568837
20
0.0958756800021661
30
0
41
1
10
46.1918769219521
20
0.296604016932633
30
0
41
1
10
45.2912972902535
20
0.692356908962296
30
0
41
1
10
44.8419479902571
20
0.887414870920395
30
-1E-16
41
1
10
44.1687743364698
20
1.17381193723642
30
-1E-16
41
1
10
43.9445182626761
20
1.2682303275453
30
-1E-16
41
1
10
43.4961763870592
20
1.45451963112862
30
-1E-16
41
1
10
43.2720638165405
20
1.54635722159315
30
-1E-16
41
1
10
42.5987711080171
20
1.81664631714142
30
-1E-16
41
1
10
42.148956886693
20
1.99016114247107
30
-1E-16
41
1
10
41.2468200773189
20
2.32106987297368
30
-1E-16
41
1
10
40.7946089678003
20
2.47815874250884
30
-2E-16
41
1
10
40.1124793591668
20
2.69874039397774
30
-2E-16
41
1
10
39.8844493097538
20
2.76975942513584
30
-2E-16
41
1
10
39.4301772786509
20
2.90540450071947
30
-2E-16
41
1
10
39.2035479311654
20
2.9701716716088
30
-2E-16
41
1
10
38.5251215043486
20
3.15468997808773
30
-2E-16
41
1
10
38.0751724955809
20
3.26393773377231
30
-2E-16
41
1
10
37.1756313429063
20
3.45651032874804
30
0
41
1
10
36.7264320028737
20
3.5394090449561
30
0
41
1
10
36.0528118820396
20
3.64144186706957
30
0
41
1
10
35.8283217321662
20
3.67161514500165
30
0
41
1
10
35.3792678858383
20
3.72389253178636
30
0
41
1
10
35.1546027747336
20
3.74630334366569
30
0
41
1
10
34.4794755313677
20
3.80365037973763
30
0
41
1
10
34.0281178708703
20
3.82802460154886
30
0
41
1
10
33.4871103785953
20
3.83704375942486
30
0
41
1
10
33.3989584082149
20
3.83785118868428
30
0
41
1
10
33.3107400224818
20
3.83798532248579
30
0
0
SPLINE
5
C5
100
AcDbEntity
8
1
62
256
6
ByLayer
370
18
48
1
60
0
100
AcDbSpline
70
4
71
3
72
22
73
18
40
0
40
0
40
0
40
0
40
0.0549269665069492
40
0.0549269665069492
40
0.109853933013898
40
0.109853933013898
40
0.219707866027797
40
0.219707866027797
40
0.439415732055594
40
0.439415732055594
40
0.549269665069494
40
0.549269665069494
40
0.659123598083394
40
0.659123598083394
40
0.878831464111193
40
0.878831464111193
40
1
40
1
40
1
40
1
41
1
10
47.5538618189268
20
-3.82370753584829
30
0
41
1
10
47.3239045113407
20
-3.80979535558572
30
0
41
1
10
47.0944391414339
20
-3.79250285532822
30
0
41
1
10
46.6365628133651
20
-3.74937268759223
30
0
41
1
10
46.4081031510066
20
-3.72386847001064
30
0
41
1
10
45.7238166807422
20
-3.63591410951213
30
0
41
1
10
45.2690813386841
20
-3.56201993037047
30
0
41
1
10
43.9066292331307
20
-3.29784277731289
30
2E-16
41
1
10
43.0006555792319
20
-3.06494803448913
30
2E-16
41
1
10
41.6342257364336
20
-2.64352625005762
30
2E-16
41
1
10
41.1775318593332
20
-2.49118629981976
30
2E-16
41
1
10
40.2597775564636
20
-2.16546007373111
30
1E-16
41
1
10
39.797816673634
20
-1.99156278922314
30
1E-16
41
1
10
38.4223562032175
20
-1.45092707969619
30
1E-16
41
1
10
37.5131090311338
20
-1.06334912762097
30
1E-16
41
1
10
36.1030850786198
20
-0.44555038585284
30
0
41
1
10
35.6020190745417
20
-0.222676206739436
30
0
41
1
10
35.0998684348372
20
0.0006146389387709
30
0
0
SPLINE
5
C6
100
AcDbEntity
8
1
62
256
6
ByLayer
370
18
48
1
60
0
100
AcDbSpline
70
4
71
3
72
14
73
10
40
0
40
0
40
0
40
0
40
0.286971431556438
40
0.286971431556438
40
0.573942863112876
40
0.573942863112876
40
0.860914294669314
40
0.860914294669314
40
1
40
1
40
1
40
1
41
1
10
47.5852452575189
20
3.88790908405775
30
0
41
1
10
46.9727190664708
20
3.89224294791964
30
0
41
1
10
46.3598581260866
20
3.86633890634528
30
0
41
1
10
45.1364630637162
20
3.7589768175352
30
0
41
1
10
44.5249610787407
20
3.67654621417392
30
0
41
1
10
43.2998892909637
20
3.45759388977149
30
0
41
1
10
42.6870179153822
20
3.32093609783999
30
-2E-16
41
1
10
41.7786692375897
20
3.08377165936486
30
-2E-16
41
1
10
41.4820927891224
20
3.00076026986022
30
-2E-16
41
1
10
41.1854306737005
20
2.91258132864869
30
-2E-16
0
SPLINE
5
C7
100
AcDbEntity
8
1
62
256
6
ByLayer
370
18
48
1
60
0
100
AcDbSpline
70
4
71
3
72
8
73
4
40
0
40
0
40
0
40
0
40
1
40
1
40
1
40
1
41
1
10
0
20
-3.10671880720747
30
2E-16
41
1
10
0
20
-2.59153310176782
30
2E-16
41
1
10
0
20
-2.08130934048751
30
1E-16
41
1
10
0
20
-1.57601352946622
30
1E-16
0
SPLINE
5
C8
100
AcDbEntity
8
1
62
256
6
ByLayer
370
18
48
1
60
0
100
AcDbSpline
70
4
71
3
72
46
73
42
40
0
40
0
40
0
40
0
40
0.0312499999999995
40
0.0312499999999995
40
0.062499999999999
40
0.062499999999999
40
0.124999999999998
40
0.124999999999998
40
0.187499999999997
40
0.187499999999997
40
0.249999999999996
40
0.249999999999996
40
0.281249999999996
40
0.281249999999996
40
0.312499999999996
40
0.312499999999996
40
0.374999999999996
40
0.374999999999996
40
0.406249999999997
40
0.406249999999997
40
0.437499999999997
40
0.437499999999997
40
0.499999999999999
40
0.499999999999999
40
0.531249999999999
40
0.531249999999999
40
0.562499999999999
40
0.562499999999999
40
0.624999999999999
40
0.624999999999999
40
0.687499999999999
40
0.687499999999999
40
0.749999999999999
40
0.749999999999999
40
0.8125
40
0.8125
40
0.84375
40
0.84375
40
0.875
40
0.875
40
1
40
1
40
1
40
1
41
1
10
18.1999999999994
20
3.91567013580632
30
0
41
1
10
18.5042960295196
20
3.94960725462502
30
0
41
1
10
18.8087656937385
20
3.9763027367847
30
0
41
1
10
19.4167784894946
20
4.0148094595736
30
0
41
1
10
19.7202473488685
20
4.0266307205911
30
0
41
1
10
20.6299999423252
20
4.03981068767561
30
0
41
1
10
21.2356188965401
20
4.01888601046571
30
0
41
1
10
22.4496055816511
20
3.91821120372518
30
0
41
1
10
23.0588277735637
20
3.83815581454891
30
0
41
1
10
24.2726949955256
20
3.62340919695413
30
0
41
1
10
24.8787449872486
20
3.48869555600112
30
-2E-16
41
1
10
25.7899107909179
20
3.24894681805492
30
-2E-16
41
1
10
26.094357852078
20
3.16264173244372
30
-2E-16
41
1
10
26.7021985571953
20
2.97891762563617
30
-2E-16
41
1
10
27.0056645657272
20
2.88149915429446
30
-2E-16
41
1
10
27.9156339364049
20
2.5740604680912
30
-2E-16
41
1
10
28.5217365275704
20
2.34889791081076
30
-1E-16
41
1
10
29.4334912391069
20
1.9865590011712
30
-1E-16
41
1
10
29.7379503550923
20
1.86161901258191
30
-1E-16
41
1
10
30.3453599029778
20
1.60586635063709
30
-1E-16
41
1
10
30.6486752659335
20
1.47491433251398
30
-1E-16
41
1
10
31.5583776905098
20
1.07470707765461
30
-1E-16
41
1
10
32.1645372279586
20
0.798127079405901
30
0
41
1
10
33.0768928496631
20
0.376015386312872
30
0
41
1
10
33.3809628051025
20
0.234350848855541
30
0
41
1
10
33.9879788960458
20
-0.048878908191341
30
0
41
1
10
34.2911731645775
20
-0.190557167386544
30
0
41
1
10
35.2007296506821
20
-0.613811561187106
30
0
41
1
10
35.8074137367097
20
-0.893732387157286
30
1E-16
41
1
10
37.0241512954172
20
-1.43780817812569
30
1E-16
41
1
10
37.6319491578388
20
-1.70103673583165
30
1E-16
41
1
10
38.8482569753857
20
-2.19923334337128
30
1E-16
41
1
10
39.4561519257927
20
-2.43383865034778
30
1E-16
41
1
10
40.6722881454908
20
-2.86372355772764
30
2E-16
41
1
10
41.280432030115
20
-3.05898825500867
30
2E-16
41
1
10
42.1923767395861
20
-3.31606009227616
30
2E-16
41
1
10
42.4962194681441
20
-3.3957635880115
30
2E-16
41
1
10
43.104243992046
20
-3.54244236629447
30
0
41
1
10
43.4084712527028
20
-3.60940621922683
30
0
41
1
10
44.9249960612135
20
-3.90945052593511
30
0
41
1
10
46.1288405456446
20
-4.03929955316707
30
0
41
1
10
47.3424451024159
20
-4.04934251120164
30
0
0
SPLINE
5
C9
100
AcDbEntity
8
1
62
256
6
ByLayer
370
18
48
1
60
0
100
AcDbSpline
70
4
71
3
72
8
73
4
40
0
40
0
40
0
40
0
40
1
40
1
40
1
40
1
41
1
10
48.3208251217477
20
-0.425837398524664
30
0
41
1
10
48.2090158834753
20
-0.127375397561451
30
0
41
1
10
48.0732510617311
20
0.186858075180851
30
0
41
1
10
47.9138321933601
20
0.516664498975729
30
0
0
SPLINE
5
CA
100
AcDbEntity
8
1
62
256
6
ByLayer
370
18
48
1
60
0
100
AcDbSpline
70
4
71
3
72
8
73
4
40
0
40
0
40
0
40
0
40
1
40
1
40
1
40
1
41
1
10
48.630246451284
20
-1.28964583513994
30
0
41
1
10
48.7557335410486
20
-0.935541974146474
30
0
41
1
10
48.8777577294447
20
-0.580199073534828
30
0
41
1
10
48.9962652277348
20
-0.2235978874848
30
0
0
SPLINE
5
CB
100
AcDbEntity
8
1
62
256
6
ByLayer
370
18
48
1
60
0
100
AcDbSpline
70
4
71
3
72
10
73
6
40
0
40
0
40
0
40
0
40
0.5
40
0.5
40
1
40
1
40
1
40
1
41
1
10
3.5017134806393
20
-3.88899441544203
30
0
41
1
10
3.5017134806393
20
-3.88035986060078
30
0
41
1
10
3.51955434347093
20
-3.87158978962731
30
0
41
1
10
3.57651033443471
20
-3.86163286578835
30
0
41
1
10
3.61351682563517
20
-3.86096614621391
30
0
41
1
10
3.644124137315
20
-3.86495757234292
30
0
0
SPLINE
5
CC
100
AcDbEntity
8
1
62
256
6
ByLayer
370
18
48
1
60
0
100
AcDbSpline
70
4
71
3
72
20
73
16
40
0
40
0
40
0
40
0
40
0.0059864943336631
40
0.0059864943336631
40
0.204789195466946
40
0.204789195466946
40
0.403591896600228
40
0.403591896600228
40
0.502993247166857
40
0.502993247166857
40
0.602394597733485
40
0.602394597733485
40
0.801197298866743
40
0.801197298866743
40
1
40
1
40
1
40
1
41
1
10
47.3078009970171
20
0.736896061279396
30
0
41
1
10
47.3080806936077
20
0.737728527968301
30
0
41
1
10
47.3083670987307
20
0.738562943078506
30
0
41
1
10
47.3183928861704
20
0.767171228055929
30
0
41
1
10
47.3351161585001
20
0.797558653810654
30
0
41
1
10
47.3840698342448
20
0.863125050280985
30
-1E-16
41
1
10
47.4153242551315
20
0.896891545210536
30
0
41
1
10
47.4728116677839
20
0.947353424567922
30
0
41
1
10
47.4939889730995
20
0.964301510022551
30
0
41
1
10
47.5390590714255
20
0.996964828531048
30
0
41
1
10
47.5629523574886
20
1.01271397087464
30
0
41
1
10
47.638799910983
20
1.05775754924304
30
0
41
1
10
47.6958367385761
20
1.08508139818451
30
0
41
1
10
47.8150017254222
20
1.12780147017784
30
0
41
1
10
47.8781862777403
20
1.14369132428232
30
0
41
1
10
47.9426609697521
20
1.15353268586577
30
0
0
SPLINE
5
CD
100
AcDbEntity
8
1
62
256
6
ByLayer
370
18
48
1
60
0
100
AcDbSpline
70
4
71
3
72
56
73
52
40
0
40
0
40
0
40
0
40
0.0312499999999979
40
0.0312499999999979
40
0.0624999999999959
40
0.0624999999999959
40
0.0937499999999938
40
0.0937499999999938
40
0.109374999999995
40
0.109374999999995
40
0.124999999999996
40
0.124999999999996
40
0.140624999999997
40
0.140624999999997
40
0.156249999999998
40
0.156249999999998
40
0.1875
40
0.1875
40
0.218750000000002
40
0.218750000000002
40
0.250000000000004
40
0.250000000000004
40
0.312500000000006
40
0.312500000000006
40
0.375000000000008
40
0.375000000000008
40
0.500000000000013
40
0.500000000000013
40
0.625000000000018
40
0.625000000000018
40
0.68750000000002
40
0.68750000000002
40
0.750000000000022
40
0.750000000000022
40
0.781250000000023
40
0.781250000000023
40
0.812500000000025
40
0.812500000000025
40
0.843750000000026
40
0.843750000000026
40
0.875000000000027
40
0.875000000000027
40
0.890625000000025
40
0.890625000000025
40
0.906250000000023
40
0.906250000000023
40
0.937500000000015
40
0.937500000000015
40
0.968750000000008
40
0.968750000000008
40
1
40
1
40
1
40
1
41
1
10
0
20
-1.57601352946625
30
1E-16
41
1
10
0.0151640115966245
20
-1.54151175532002
30
1E-16
41
1
10
0.0318344067776479
20
-1.50753179655663
30
1E-16
41
1
10
0.069189692713735
20
-1.44095196859504
30
1E-16
41
1
10
0.0900272442146388
20
-1.40810551098315
30
1E-16
41
1
10
0.136631836219124
20
-1.34603350146978
30
1E-16
41
1
10
0.162427927810711
20
-1.31656914570621
30
1E-16
41
1
10
0.206936618707971
20
-1.27727744666177
30
1E-16
41
1
10
0.222471761812756
20
-1.26527776839885
30
1E-16
41
1
10
0.255379002222838
20
-1.24416508352272
30
1E-16
41
1
10
0.272797861026532
20
-1.23509833982982
30
1E-16
41
1
10
0.308110237645934
20
-1.22168886209332
30
1E-16
41
1
10
0.326489644252035
20
-1.2172278143172
30
1E-16
41
1
10
0.361893154019327
20
-1.21387895862398
30
1E-16
41
1
10
0.379344498418021
20
-1.2149033422869
30
1E-16
41
1
10
0.428496416538934
20
-1.22519117457023
30
1E-16
41
1
10
0.456716271632786
20
-1.24133323816113
30
1E-16
41
1
10
0.50407407139258
20
-1.28168296959387
30
1E-16
41
1
10
0.523879255424276
20
-1.30629617891961
30
1E-16
41
1
10
0.557570635660227
20
-1.35859328212868
30
1E-16
41
1
10
0.571716528076223
20
-1.38662837374193
30
1E-16
41
1
10
0.60896911789132
20
-1.47439338709327
30
1E-16
41
1
10
0.626520144134133
20
-1.53647674504583
30
1E-16
41
1
10
0.654242942275403
20
-1.66285148077131
30
1E-16
41
1
10
0.664313562492339
20
-1.72754133882063
30
1E-16
41
1
10
0.687435793097166
20
-1.92454097033689
30
1E-16
41
1
10
0.69364944516883
20
-2.06000511114098
30
1E-16
41
1
10
0.693687042394714
20
-2.33331269799717
30
1E-16
41
1
10
0.687541523132296
20
-2.47208315424621
30
2E-16
41
1
10
0.664302117597657
20
-2.68166634894217
30
2E-16
41
1
10
0.654169292865959
20
-2.75163759629535
30
2E-16
41
1
10
0.626257466989983
20
-2.89184558674643
30
2E-16
41
1
10
0.608717491781192
20
-2.96207835044331
30
2E-16
41
1
10
0.57095055814824
20
-3.06771906784348
30
2E-16
41
1
10
0.556381883928225
20
-3.10294306904768
30
2E-16
41
1
10
0.52168526376289
20
-3.17131927008384
30
2E-16
41
1
10
0.501373743023549
20
-3.20485443678692
30
2E-16
41
1
10
0.452838470543782
20
-3.26558115179543
30
2E-16
41
1
10
0.423590547607489
20
-3.29371090171705
30
2E-16
41
1
10
0.356567507767409
20
-3.33314805371811
30
2E-16
41
1
10
0.319202038542414
20
-3.34330430560451
30
2E-16
41
1
10
0.266841677581596
20
-3.3427056421572
30
2E-16
41
1
10
0.249752818536621
20
-3.34006608524169
30
2E-16
41
1
10
0.217742435310186
20
-3.33128764616302
30
2E-16
41
1
10
0.202656048785059
20
-3.32517839446507
30
2E-16
41
1
10
0.159481877513997
20
-3.30295468334418
30
2E-16
41
1
10
0.134140418584508
20
-3.2833634102746
30
2E-16
41
1
10
0.0886728714840501
20
-3.23951912631449
30
2E-16
41
1
10
0.0682649232446124
20
-3.21488296009045
30
2E-16
41
1
10
0.0314478037670654
20
-3.16280208470769
30
2E-16
41
1
10
0.0149888750279672
20
-3.13530522318896
30
2E-16
41
1
10
0
20
-3.10671880720744
30
2E-16
0
SPLINE
5
CE
100
AcDbEntity
8
1
62
256
6
ByLayer
370
18
48
1
60
0
100
AcDbSpline
70
4
71
3
72
12
73
8
40
0
40
0
40
0
40
0
40
0.231154531636582
40
0.231154531636582
40
0.681659086488266
40
0.681659086488266
40
1
40
1
40
1
40
1
41
1
10
12.1031805674546
20
-2.41546906110278
30
0
41
1
10
11.6380334438926
20
-2.53244135595852
30
0
41
1
10
11.1741550644152
20
-2.65058137685685
30
0
41
1
10
9.81013518522244
20
-3.00197112941626
30
0
41
1
10
8.91317464583412
20
-3.23817969963125
30
0
41
1
10
7.39299462100314
20
-3.64550311257005
30
0
41
1
10
6.76651351674548
20
-3.81542904302876
30
0
41
1
10
6.14288775065518
20
-3.98640256025808
30
0
0
SPLINE
5
CF
100
AcDbEntity
8
1
62
256
6
ByLayer
370
18
48
1
60
0
100
AcDbSpline
70
4
71
3
72
8
73
4
40
0
40
0
40
0
40
0
40
1
40
1
40
1
40
1
41
1
10
47.5538618189268
20
-3.82370753584829
30
0
41
1
10
47.5479312591284
20
-3.84100873370949
30
0
41
1
10
47.5420240330888
20
-3.8583102148923
30
0
41
1
10
47.536140593824
20
-3.87561209148603
30
0
0
SPLINE
5
D0
100
AcDbEntity
8
1
62
256
6
ByLayer
370
18
48
1
60
0
100
AcDbSpline
70
4
71
3
72
8
73
4
40
0
40
0
40
0
40
0
40
1
40
1
40
1
40
1
41
1
10
46.9931183267333
20
-0.0523015468890264
30
0
41
1
10
46.982581187418
20
0.140098619685176
30
0
41
1
10
46.9787330661472
20
0.330359174160719
30
0
41
1
10
46.9835842117667
20
0.518485192156732
30
0
0
SPLINE
5
D1
100
AcDbEntity
8
1
62
256
6
ByLayer
370
18
48
1
60
0
100
AcDbSpline
70
4
71
3
72
18
73
14
40
0
40
0
40
0
40
0
40
0.25
40
0.25
40
0.5
40
0.5
40
0.5625
40
0.5625
40
0.624999999999999
40
0.624999999999999
40
0.75
40
0.75
40
1
40
1
40
1
40
1
41
1
10
7.23928076243607
20
-0.313842147181731
30
0
41
1
10
8.16065392791876
20
-0.74073723873434
30
0
41
1
10
9.07236296964081
20
-1.15843610976245
30
1E-16
41
1
10
10.893206949407
20
-1.94073024313113
30
1E-16
41
1
10
11.8022517517882
20
-2.30556883179469
30
1E-16
41
1
10
12.9465083785192
20
-2.70981415960648
30
2E-16
41
1
10
13.1757847540404
20
-2.78802810783412
30
2E-16
41
1
10
13.6354499114927
20
-2.93870399204096
30
2E-16
41
1
10
13.8659607259185
20
-3.01124046250141
30
2E-16
41
1
10
14.5548131206159
20
-3.21826440326638
30
2E-16
41
1
10
15.0119164043115
20
-3.34275562527614
30
2E-16
41
1
10
16.3803153107988
20
-3.67204381281269
30
0
41
1
10
17.2883678463962
20
-3.83301908385906
30
0
41
1
10
18.2000000000102
20
-3.92890646905178
30
0
0
SPLINE
5
D2
100
AcDbEntity
8
1
62
256
6
ByLayer
370
18
48
1
60
0
100
AcDbSpline
70
4
71
3
72
8
73
4
40
0
40
0
40
0
40
0
40
1
40
1
40
1
40
1
41
1
10
48.9962652277254
20
0.22359788749074
30
0
41
1
10
48.9787714013704
20
0.165289609299123
30
0
41
1
10
48.9611903770912
20
0.107008762492057
30
0
41
1
10
48.9435224824839
20
0.0487552440118861
30
0
0
SPLINE
5
D3
100
AcDbEntity
8
1
62
256
6
ByLayer
370
18
48
1
60
0
100
AcDbSpline
70
4
71
3
72
8
73
4
40
0
40
0
40
0
40
0
40
1
40
1
40
1
40
1
41
1
10
48.9962652277292
20
0.22359788749236
30
0
41
1
10
49.0012426526822
20
0.0746006229497311
30
0
41
1
10
49.0012471975774
20
-0.0744645732925449
30
0
41
1
10
48.9962652277293
20
-0.2235978874902
30
0
0
SPLINE
5
D4
100
AcDbEntity
8
1
62
256
6
ByLayer
370
18
48
1
60
0
100
AcDbSpline
70
4
71
3
72
30
73
26
40
0
40
0
40
0
40
0
40
0.125
40
0.125
40
0.1875
40
0.1875
40
0.25
40
0.25
40
0.375
40
0.375
40
0.437499999999999
40
0.437499999999999
40
0.499999999999999
40
0.499999999999999
40
0.624999999999999
40
0.624999999999999
40
0.687499999999999
40
0.687499999999999
40
0.75
40
0.75
40
0.875
40
0.875
40
0.9375
40
0.9375
40
1
40
1
40
1
40
1
41
1
10
47.0956918851138
20
-0.10641417346892
30
0
41
1
10
47.105013190414
20
-0.334904496097465
30
0
41
1
10
47.1234296715358
20
-0.558643507278589
30
0
41
1
10
47.1581616886312
20
-0.888065706715224
30
1E-16
41
1
10
47.1709487135237
20
-0.996833096131667
30
1E-16
41
1
10
47.1980844859623
20
-1.21234807661196
30
1E-16
41
1
10
47.2125008621194
20
-1.31956698532446
30
1E-16
41
1
10
47.256451693672
20
-1.63457950469126
30
1E-16
41
1
10
47.2863974079557
20
-1.83453527750135
30
1E-16
41
1
10
47.3287645224632
20
-2.12019109800437
30
1E-16
41
1
10
47.3424804134337
20
-2.21301222107979
30
1E-16
41
1
10
47.3687107485456
20
-2.39378537991914
30
1E-16
41
1
10
47.381272124693
20
-2.48209566855343
30
2E-16
41
1
10
47.4161405958706
20
-2.73487287061764
30
2E-16
41
1
10
47.435749156528
20
-2.88846927673254
30
2E-16
41
1
10
47.4601736571115
20
-3.09679758491393
30
2E-16
41
1
10
47.4675001757906
20
-3.16254059909014
30
2E-16
41
1
10
47.4808129750551
20
-3.28641168247307
30
2E-16
41
1
10
47.4868058804387
20
-3.34461916352589
30
0
41
1
10
47.5031565679814
20
-3.5042303770835
30
0
41
1
10
47.5119730537008
20
-3.59201018827298
30
0
41
1
10
47.5263651718497
20
-3.69605714585026
30
0
41
1
10
47.5313702926091
20
-3.7261096631039
30
0
41
1
10
47.5427090865758
20
-3.77669911494928
30
0
41
1
10
47.5490344701381
20
-3.79713708374968
30
0
41
1
10
47.5564560277069
20
-3.81250038587299
30
0
0
SPLINE
5
D5
100
AcDbEntity
8
1
62
256
6
ByLayer
370
18
48
1
60
0
100
AcDbSpline
70
4
71
3
72
30
73
26
40
0
40
0
40
0
40
0
40
0.124999999999987
40
0.124999999999987
40
0.187499999999986
40
0.187499999999986
40
0.249999999999985
40
0.249999999999985
40
0.312499999999983
40
0.312499999999983
40
0.374999999999982
40
0.374999999999982
40
0.437499999999981
40
0.437499999999981
40
0.499999999999979
40
0.499999999999979
40
0.562499999999978
40
0.562499999999978
40
0.624999999999976
40
0.624999999999976
40
0.749999999999984
40
0.749999999999984
40
0.874999999999992
40
0.874999999999992
40
1
40
1
40
1
40
1
41
1
10
48.9435224824839
20
0.0487552440118861
30
0
41
1
10
48.9239178995861
20
-0.0158838065098337
30
0
41
1
10
48.9013784202757
20
-0.079045065226893
30
0
41
1
10
48.8630011153993
20
-0.171410931173398
30
0
41
1
10
48.8493191168982
20
-0.202038770671749
30
0
41
1
10
48.8210445422498
20
-0.260848099432707
30
0
41
1
10
48.8064450367902
20
-0.28909159005218
30
0
41
1
10
48.7763429623502
20
-0.343184085389169
30
0
41
1
10
48.7608410133508
20
-0.369034662171828
30
0
41
1
10
48.7288877165454
20
-0.418129308549624
30
0
41
1
10
48.7124739780314
20
-0.441262057991935
30
0
41
1
10
48.6800196738399
20
-0.48288905128959
30
0
41
1
10
48.6638149127389
20
-0.501646254300255
30
0
41
1
10
48.6314286059634
20
-0.534962754566635
30
0
41
1
10
48.6150994674001
20
-0.549613320631238
30
0
41
1
10
48.5834910939762
20
-0.573636567576614
30
0
41
1
10
48.5681358764116
20
-0.583129016625008
30
0
41
1
10
48.5382056039005
20
-0.597272853674326
30
0
41
1
10
48.523521594381
20
-0.601925569377698
30
0
41
1
10
48.4815406569732
20
-0.608454643832545
30
0
41
1
10
48.4559711028405
20
-0.603114281914657
30
0
41
1
10
48.4094875073501
20
-0.575989456926436
30
0
41
1
10
48.3890207510499
20
-0.554641698600932
30
0
41
1
10
48.3519692779201
20
-0.499140257780397
30
0
41
1
10
48.3354405224843
20
-0.464851542759845
30
0
41
1
10
48.3208251217476
20
-0.425837398524863
30
0
0
SPLINE
5
D6
100
AcDbEntity
8
1
62
256
6
ByLayer
370
18
48
1
60
0
100
AcDbSpline
70
4
71
3
72
28
73
24
40
0
40
0
40
0
40
0
40
0.101628330929252
40
0.101628330929252
40
0.213924789563097
40
0.213924789563097
40
0.27007301888002
40
0.27007301888002
40
0.326221248196942
40
0.326221248196942
40
0.438517706830785
40
0.438517706830785
40
0.550814165464628
40
0.550814165464628
40
0.663110624098471
40
0.663110624098471
40
0.775407082732313
40
0.775407082732313
40
0.831555312049235
40
0.831555312049235
40
0.887703541366156
40
0.887703541366156
40
1
40
1
40
1
40
1
41
1
10
34.5532138617611
20
-0.313314108434867
30
0
41
1
10
33.9993356969749
20
-0.0653634746937826
30
0
41
1
10
33.4458729729035
20
0.184008242960459
30
0
41
1
10
32.2788986125776
20
0.705098964319092
30
0
41
1
10
31.6660813758821
20
0.975009539954783
30
-1E-16
41
1
10
30.7483818074083
20
1.36600444750738
30
-1E-16
41
1
10
30.4425277457468
20
1.49384245454533
30
-1E-16
41
1
10
29.8304023855311
20
1.74364703298014
30
-1E-16
41
1
10
29.5239574185933
20
1.8656844380528
30
-1E-16
41
1
10
28.6058646928795
20
2.2206628023246
30
-1E-16
41
1
10
27.9943893030888
20
2.44158186991734
30
-1E-16
41
1
10
26.7692799652992
20
2.84534726937088
30
-2E-16
41
1
10
26.1563817897845
20
3.0264856586974
30
-2E-16
41
1
10
24.9328945075458
20
3.3421520705825
30
-2E-16
41
1
10
24.3212731323657
20
3.47567987401479
30
0
41
1
10
23.0960815789632
20
3.68995010180316
30
0
41
1
10
22.4832326770047
20
3.76918344921336
30
0
41
1
10
21.5654591487643
20
3.84608774880923
30
0
41
1
10
21.2595820615854
20
3.86441248574258
30
0
41
1
10
20.6474232404325
20
3.88658562243148
30
0
41
1
10
20.3409643322785
20
3.89042416020192
30
0
41
1
10
19.4231103610781
20
3.88011572568655
30
0
41
1
10
18.8121195376011
20
3.84323828364512
30
0
41
1
10
18.200000000039
20
3.77859729622915
30
0
0
SPLINE
5
D7
100
AcDbEntity
8
1
62
256
6
ByLayer
370
18
48
1
60
0
100
AcDbSpline
70
4
71
3
72
34
73
30
40
0
40
0
40
0
40
0
40
0.0511169595377847
40
0.0511169595377847
40
0.10223391907557
40
0.10223391907557
40
0.204467838151139
40
0.204467838151139
40
0.306701757226708
40
0.306701757226708
40
0.357818716764493
40
0.357818716764493
40
0.408935676302278
40
0.408935676302278
40
0.460052635840063
40
0.460052635840063
40
0.511169595377847
40
0.511169595377847
40
0.613403514453417
40
0.613403514453417
40
0.664520473991202
40
0.664520473991202
40
0.715637433528986
40
0.715637433528986
40
0.817871352604556
40
0.817871352604556
40
0.920105271680125
40
0.920105271680125
40
1
40
1
40
1
40
1
41
1
10
46.9835842117664
20
0.518485192145647
30
0
41
1
10
46.7701997992093
20
0.617458697702773
30
0
41
1
10
46.5570890892215
20
0.715459502037561
30
0
41
1
10
46.1316035245447
20
0.909985491121006
30
-1E-16
41
1
10
45.9194738047183
20
1.00703665474313
30
-1E-16
41
1
10
45.283369909233
20
1.29415574653928
30
-1E-16
41
1
10
44.8595990972179
20
1.48008459095101
30
-1E-16
41
1
10
44.0125303906773
20
1.84091318821785
30
-1E-16
41
1
10
43.5896621584494
20
2.01657811971563
30
-1E-16
41
1
10
42.953095303545
20
2.26661374971158
30
-1E-16
41
1
10
42.7405447607177
20
2.34777087289484
30
-1E-16
41
1
10
42.3153837875878
20
2.50688147679165
30
-2E-16
41
1
10
42.1026695792749
20
2.5846314738568
30
-2E-16
41
1
10
41.6761841585917
20
2.73509036549066
30
-2E-16
41
1
10
41.4624635112356
20
2.80789299412811
30
-2E-16
41
1
10
41.0338287600704
20
2.94824035462034
30
-2E-16
41
1
10
40.818742681009
20
3.01579118421154
30
-2E-16
41
1
10
40.1768968862208
20
3.2105672313327
30
-2E-16
41
1
10
39.7509833208993
20
3.3284372566566
30
-2E-16
41
1
10
39.1130767158621
20
3.48534185556562
30
-2E-16
41
1
10
38.9006853926927
20
3.53445583012734
30
0
41
1
10
38.4767882232638
20
3.62668518885491
30
0
41
1
10
38.2650121717078
20
3.66950277400991
30
0
41
1
10
37.6296556272014
20
3.7876444889738
30
0
41
1
10
37.2057958925854
20
3.85258520935483
30
0
41
1
10
36.3586061931116
20
3.95544471451464
30
0
41
1
10
35.9343043986594
20
3.99265724627747
30
0
41
1
10
35.1755591892476
20
4.03306634270143
30
0
41
1
10
34.8423765055037
20
4.04200847634107
30
0
41
1
10
34.5078495016787
20
4.04184946176082
30
0
0
SPLINE
5
D8
100
AcDbEntity
8
1
62
256
6
ByLayer
370
18
48
1
60
0
100
AcDbSpline
70
4
71
3
72
22
73
18
40
0
40
0
40
0
40
0
40
0.0736063976939447
40
0.0736063976939447
40
0.157823997903586
40
0.157823997903586
40
0.326259198322868
40
0.326259198322868
40
0.49469439874215
40
0.49469439874215
40
0.578911998951791
40
0.578911998951791
40
0.663129599161432
40
0.663129599161432
40
0.831564799580716
40
0.831564799580716
40
1
40
1
40
1
40
1
41
1
10
13.7283427733788
20
-2.97633335587585
30
2E-16
41
1
10
13.5413087073751
20
-3.0347656526632
30
2E-16
41
1
10
13.3538511294845
20
-3.09112086807693
30
2E-16
41
1
10
12.9514955457491
20
-3.208194512414
30
2E-16
41
1
10
12.7372851376561
20
-3.26776841684728
30
2E-16
41
1
10
12.0959405303838
20
-3.43640875597902
30
2E-16
41
1
10
11.6694708376572
20
-3.53532417260178
30
0
41
1
10
10.8201818141542
20
-3.70830298999948
30
0
41
1
10
10.3964793640789
20
-3.78129141587507
30
0
41
1
10
9.76059746658592
20
-3.86962004880837
30
0
41
1
10
9.54870231127174
20
-3.89563914612773
30
0
41
1
10
9.12527867215641
20
-3.94085329750229
30
0
41
1
10
8.91351009423488
20
-3.959909530499
30
0
41
1
10
8.27743306280382
20
-4.00622129471972
30
0
41
1
10
7.85248109721749
20
-4.02277564951385
30
0
41
1
10
7.00092779158874
20
-4.02661280135032
30
0
41
1
10
6.57342351772428
20
-4.01371911658356
30
0
41
1
10
6.14297715215557
20
-3.98637804991554
30
0
0
SPLINE
5
D9
100
AcDbEntity
8
1
62
256
6
ByLayer
370
18
48
1
60
0
100
AcDbSpline
70
4
71
3
72
16
73
12
40
0
40
0
40
0
40
0
40
0.223516273364213
40
0.223516273364213
40
0.449100010276468
40
0.449100010276468
40
0.646311575980697
40
0.646311575980697
40
0.82260898805688
40
0.82260898805688
40
1
40
1
40
1
40
1
41
1
10
47.5564560277069
20
-3.81250038587297
30
0
41
1
10
47.5565345528382
20
-3.81266294006807
30
0
41
1
10
47.5565576594863
20
-3.81300263049039
30
0
41
1
10
47.5564692295576
20
-3.81404412733227
30
0
41
1
10
47.5563539519358
20
-3.81476874151838
30
0
41
1
10
47.5560081990554
20
-3.81641092588004
30
0
41
1
10
47.5557883004216
20
-3.81731831114109
30
0
41
1
10
47.5552990481338
20
-3.81913826394847
30
0
41
1
10
47.5550311249825
20
-3.82006365802255
30
0
41
1
10
47.5544667296781
20
-3.82189733457273
30
0
41
1
10
47.5541633502947
20
-3.8228278796212
30
0
41
1
10
47.5538618189268
20
-3.82370753584829
30
0
0
SPLINE
5
DA
100
AcDbEntity
8
1
62
256
6
ByLayer
370
18
48
1
60
0
100
AcDbSpline
70
4
71
3
72
8
73
4
40
0
40
0
40
0
40
0
40
1
40
1
40
1
40
1
41
1
10
46.9931183267333
20
-0.052301546888998
30
0
41
1
10
47.0257040975423
20
-0.0668047874804927
30
0
41
1
10
47.0580953422706
20
-0.0804820483003823
30
0
41
1
10
47.0903276130452
20
-0.0933534582374307
30
0
0
SPLINE
5
DB
100
AcDbEntity
8
1
62
256
6
ByLayer
370
18
48
1
60
0
100
AcDbSpline
70
4
71
3
72
26
73
22
40
0
40
0
40
0
40
0
40
0.0554705653052768
40
0.0554705653052768
40
0.136877545802756
40
0.136877545802756
40
0.218284526300236
40
0.218284526300236
40
0.299691506797716
40
0.299691506797716
40
0.381098487295196
40
0.381098487295196
40
0.543912448290155
40
0.543912448290155
40
0.625319428787634
40
0.625319428787634
40
0.706726409285114
40
0.706726409285114
40
0.869540370280073
40
0.869540370280073
40
1
40
1
40
1
40
1
41
1
10
3.60211212396371
20
3.82042574426532
30
0
41
1
10
3.60210794125482
20
3.82039481142618
30
0
41
1
10
3.60210366647118
20
3.81827462380818
30
0
41
1
10
3.60209291610397
20
3.80792004614631
30
0
41
1
10
3.6020863426933
20
3.79726667866538
30
0
41
1
10
3.6020728622818
20
3.76676253812033
30
0
41
1
10
3.60206594053815
20
3.7468299108005
30
0
41
1
10
3.6020519806639
20
3.69822826776243
30
0
41
1
10
3.60204491917082
20
3.66952457320724
30
0
41
1
10
3.60203062741397
20
3.60333694233458
30
0
41
1
10
3.60202337623579
20
3.5657308926495
30
0
41
1
10
3.60200147068795
20
3.44034412394336
30
0
41
1
10
3.60198681809348
20
3.34101344162028
30
0
41
1
10
3.60196444961383
20
3.1692383994972
30
-2E-16
41
1
10
3.60195692642017
20
3.10816263851726
30
-2E-16
41
1
10
3.60194166522231
20
2.9782677875217
30
-2E-16
41
1
10
3.60193389904381
20
2.90918602367034
30
-2E-16
41
1
10
3.60191032073857
20
2.69173807329957
30
-2E-16
41
1
10
3.60189442724075
20
2.53512456558136
30
-2E-16
41
1
10
3.60186473025996
20
2.23277491474363
30
-1E-16
41
1
10
3.60185111639791
20
2.0907942724744
30
-1E-16
41
1
10
3.60183689716794
20
1.94170980088188
30
-1E-16
0
SPLINE
5
DC
100
AcDbEntity
8
1
62
256
6
ByLayer
370
18
48
1
60
0
100
AcDbSpline
70
4
71
3
72
36
73
32
40
0
40
0
40
0
40
0
40
0.0055314707715995
40
0.0055314707715995
40
0.0536291940386592
40
0.0536291940386592
40
0.149824640572775
40
0.149824640572775
40
0.197922363839834
40
0.197922363839834
40
0.246020087106892
40
0.246020087106892
40
0.342215533641008
40
0.342215533641008
40
0.438410980175125
40
0.438410980175125
40
0.486508703442183
40
0.486508703442183
40
0.534606426709241
40
0.534606426709241
40
0.630801873243358
40
0.630801873243358
40
0.726997319777474
40
0.726997319777474
40
0.775095043044532
40
0.775095043044532
40
0.82319276631159
40
0.82319276631159
40
0.919388212845707
40
0.919388212845707
40
1
40
1
40
1
40
1
41
1
10
32.8139554929433
20
3.8409866729981
30
0
41
1
10
32.8401128828646
20
3.84171623388644
30
0
41
1
10
32.8662642269237
20
3.84239726395535
30
0
41
1
10
33.1197374179571
20
3.8485247428523
30
0
41
1
10
33.3465467292555
20
3.84945141722619
30
0
41
1
10
34.0257996995885
20
3.83905070683827
30
0
41
1
10
34.4770686878823
20
3.8152402384446
30
0
41
1
10
35.1520466020915
20
3.75865559732219
30
0
41
1
10
35.3766586029934
20
3.73648472187779
30
0
41
1
10
35.8256029742717
20
3.68469357533624
30
0
41
1
10
36.0500375495243
20
3.65476245337715
30
0
41
1
10
36.7234892818985
20
3.55339059512113
30
0
41
1
10
37.1725717917274
20
3.47088043674208
30
0
41
1
10
38.0718795946957
20
3.27896283323363
30
-2E-16
41
1
10
38.5217038471529
20
3.17000725768543
30
-2E-16
41
1
10
39.1999498441133
20
2.98583936281989
30
-2E-16
41
1
10
39.4265202179171
20
2.92117141033904
30
-2E-16
41
1
10
39.8806773921363
20
2.78569497496224
30
-2E-16
41
1
10
40.1086535794736
20
2.71474406068597
30
-2E-16
41
1
10
40.7906899474385
20
2.49429409063541
30
-2E-16
41
1
10
41.242824069939
20
2.33724618402746
30
-1E-16
41
1
10
42.1447912457372
20
2.0062917566776
30
-1E-16
41
1
10
42.5945114639825
20
1.83268822142193
30
-1E-16
41
1
10
43.2676527966561
20
1.56218295804095
30
-1E-16
41
1
10
43.4917126042595
20
1.47025883470039
30
-1E-16
41
1
10
43.9399433877405
20
1.28377566745493
30
-1E-16
41
1
10
44.1641429748793
20
1.18924208984129
30
-1E-16
41
1
10
44.8371473363976
20
0.902457113256531
30
-1E-16
41
1
10
45.286383061256
20
0.707080752989441
30
0
41
1
10
46.113808309579
20
0.34269671783224
30
0
41
1
10
46.4916908511728
20
0.174520463913069
30
0
41
1
10
46.8705179130335
20
0.0050623541375785
30
0
0
SPLINE
5
DD
100
AcDbEntity
8
1
62
256
6
ByLayer
370
18
48
1
60
0
100
AcDbSpline
70
4
71
3
72
8
73
4
40
0
40
0
40
0
40
0
40
1
40
1
40
1
40
1
41
1
10
47.5852452575191
20
-3.88790908405764
30
0
41
1
10
47.5878000232372
20
-3.88618902736928
30
0
41
1
10
47.5903548363471
20
-3.88446879826222
30
0
41
1
10
47.5929096972383
20
-3.882748396859
30
0
0
SPLINE
5
DE
100
AcDbEntity
8
1
62
256
6
ByLayer
370
18
48
1
60
0
100
AcDbSpline
70
4
71
3
72
10
73
6
40
0
40
0
40
0
40
0
40
0.500000000000002
40
0.500000000000002
40
1
40
1
40
1
40
1
41
1
10
3.55957644836542
20
1.93354467063361
30
-1E-16
41
1
10
3.54225814107261
20
1.94059554959364
30
-1E-16
41
1
10
3.52760662619977
20
1.9518926263531
30
-1E-16
41
1
10
3.50729459270147
20
1.9796178498803
30
-1E-16
41
1
10
3.5017134806393
20
1.99602626736871
30
-1E-16
41
1
10
3.5017134806393
20
2.01256061138736
30
-1E-16
0
SPLINE
5
DF
100
AcDbEntity
8
1
62
256
6
ByLayer
370
18
48
1
60
0
100
AcDbSpline
70
4
71
3
72
8
73
4
40
0
40
0
40
0
40
0
40
1
40
1
40
1
40
1
41
1
10
18.2
20
3.92890646906383
30
0
41
1
10
18.2
20
3.87890615252738
30
0
41
1
10
18.2
20
3.82880281281379
30
0
41
1
10
18.2
20
3.77859729658033
30
0
0
SPLINE
5
E0
100
AcDbEntity
8
1
62
256
6
ByLayer
370
18
48
1
60
0
100
AcDbSpline
70
4
71
3
72
12
73
8
40
0
40
0
40
0
40
0
40
0.0817132559305316
40
0.0817132559305316
40
0.38780883728702
40
0.38780883728702
40
1
40
1
40
1
40
1
41
1
10
13.7272704341683
20
2.96681014402219
30
-2E-16
41
1
10
13.8501348846516
20
3.00555496418542
30
-2E-16
41
1
10
13.9729838652656
20
3.04340461295109
30
-2E-16
41
1
10
14.5548131206159
20
3.2182644032664
30
-2E-16
41
1
10
15.0119164043116
20
3.34275562527617
30
-2E-16
41
1
10
16.3803153107988
20
3.67204381281269
30
0
41
1
10
17.2883678463963
20
3.83301908385906
30
0
41
1
10
18.2000000000102
20
3.92890646905181
30
0
0
SPLINE
5
E1
100
AcDbEntity
8
1
62
256
6
ByLayer
370
18
48
1
60
0
100
AcDbSpline
70
4
71
3
72
8
73
4
40
0
40
0
40
0
40
0
40
1
40
1
40
1
40
1
41
1
10
48.630246451284
20
1.28964583513991
30
0
41
1
10
48.7557335410482
20
0.935541974147583
30
0
41
1
10
48.877757729444
20
0.580199073537017
30
0
41
1
10
48.9962652277337
20
0.223597887488097
30
0
0
SPLINE
5
E2
100
AcDbEntity
8
1
62
256
6
ByLayer
370
18
48
1
60
0
100
AcDbSpline
70
4
71
3
72
67
73
63
40
0
40
0
40
0
40
0
40
0.125000000000006
40
0.125000000000006
40
0.187500000000008
40
0.187500000000008
40
0.250000000000011
40
0.250000000000011
40
0.281250000000012
40
0.281250000000012
40
0.312500000000014
40
0.312500000000014
40
0.343750000000015
40
0.343750000000015
40
0.375000000000016
40
0.375000000000016
40
0.406250000000018
40
0.406250000000018
40
0.421875000000018
40
0.421875000000018
40
0.437500000000019
40
0.437500000000019
40
0.468750000000019
40
0.468750000000019
40
0.48437500000002
40
0.48437500000002
40
0.50000000000002
40
0.50000000000002
40
0.51562500000002
40
0.51562500000002
40
0.531250000000021
40
0.531250000000021
40
0.562500000000021
40
0.562500000000021
40
0.578125000000022
40
0.578125000000022
40
0.593750000000022
40
0.593750000000022
40
0.625000000000023
40
0.625000000000023
40
0.687500000000024
40
0.687500000000024
40
0.750000000000026
40
0.750000000000026
40
0.757812500000025
40
0.757812500000025
40
0.759765625000025
40
0.759765625000025
40
0.761718750000026
40
0.761718750000026
40
0.765625000000026
40
0.765625000000026
40
0.769531250000026
40
0.769531250000026
40
0.773437500000027
40
0.781250000000026
40
0.781250000000026
40
0.812500000000022
40
0.812500000000022
40
0.875000000000015
40
0.875000000000015
40
1
40
1
40
1
40
1
41
1
10
6.14279115127721
20
-3.98636623453933
30
0
41
1
10
5.66306416226735
20
-3.9556163175599
30
0
41
1
10
5.19244809942919
20
-3.90527597109957
30
0
41
1
10
4.50553999001352
20
-3.78440503736437
30
0
41
1
10
4.27977171422626
20
-3.73646659417255
30
0
41
1
10
3.83647226078654
20
-3.62003361949263
30
0
41
1
10
3.61814951707959
20
-3.55128516790495
30
0
41
1
10
3.30442314539098
20
-3.42780140388572
30
2E-16
41
1
10
3.20202211606187
20
-3.38319846797461
30
2E-16
41
1
10
3.00250405339219
20
-3.28552670291472
30
2E-16
41
1
10
2.9050850091628
20
-3.23226133224955
30
2E-16
41
1
10
2.71931927463533
20
-3.11646709141257
30
2E-16
41
1
10
2.63077042410697
20
-3.05389808059567
30
2E-16
41
1
10
2.46457954026144
20
-2.91691760096086
30
2E-16
41
1
10
2.38690036316873
20
-2.84254658049227
30
2E-16
41
1
10
2.24614839049218
20
-2.67786774464426
30
2E-16
41
1
10
2.18428870512776
20
-2.58875494214959
30
2E-16
41
1
10
2.10919556712372
20
-2.44446474911257
30
1E-16
41
1
10
2.08704878615188
20
-2.39449600374789
30
1E-16
41
1
10
2.0493604020032
20
-2.29027148886513
30
1E-16
41
1
10
2.03404133899056
20
-2.23648294690429
30
1E-16
41
1
10
1.99991677939079
20
-2.07252492634961
30
1E-16
41
1
10
1.99250730830826
20
-1.95875697475969
30
1E-16
41
1
10
2.00643530019556
20
-1.78087367919164
30
1E-16
41
1
10
2.01525434199635
20
-1.72107949561266
30
1E-16
41
1
10
2.04041357900897
20
-1.60258843682706
30
1E-16
41
1
10
2.0567765910898
20
-1.5435665568836
30
1E-16
41
1
10
2.09652930661167
20
-1.42594887804984
30
1E-16
41
1
10
2.12007337421971
20
-1.3670335789611
30
1E-16
41
1
10
2.17297688427624
20
-1.25127142984604
30
1E-16
41
1
10
2.20220275846668
20
-1.19460287226917
30
1E-16
41
1
10
2.29704043438537
20
-1.02773826099926
30
1E-16
41
1
10
2.36975532687995
20
-0.920658735519851
30
1E-16
41
1
10
2.48996651891514
20
-0.764968347680792
30
0
41
1
10
2.53197763723418
20
-0.713842100990718
30
0
41
1
10
2.61818067710195
20
-0.614409516329488
30
0
41
1
10
2.66250978490533
20
-0.565916633747889
30
0
41
1
10
2.79868983445851
20
-0.423622975084498
30
0
41
1
10
2.89371029442489
20
-0.332984187552995
30
0
41
1
10
3.18877123519553
20
-0.0710646377417561
30
0
41
1
10
3.39945374090195
20
0.0908563413580907
30
0
41
1
10
3.83478582542267
20
0.393098688916695
30
0
41
1
10
4.05959402289056
20
0.533496398829044
30
0
41
1
10
4.31736151241216
20
0.681938978497158
30
0
41
1
10
4.34607221261282
20
0.698300547192133
30
0
41
1
10
4.38204221384561
20
0.718588286198411
30
0
41
1
10
4.38934049060344
20
0.722499677551923
30
0
41
1
10
4.40471540207409
20
0.728373667426581
30
0
41
1
10
4.4127885818192
20
0.730463378566299
30
0
41
1
10
4.43705560515943
20
0.734337668701841
30
0
41
1
10
4.45372814610386
20
0.734257586564979
30
0
41
1
10
4.48622469972645
20
0.729847127350581
30
0
41
1
10
4.50208818409465
20
0.725211597118658
30
0
41
1
10
4.53374561699221
20
0.71613285881898
30
0
41
1
10
4.58121107081286
20
0.7024399925441
30
0
41
1
10
4.62861271943058
20
0.688524608930152
30
0
41
1
10
4.78647790013878
20
0.641648086213849
30
0
41
1
10
4.91229719817196
20
0.60257838415481
30
0
41
1
10
5.28830387105668
20
0.480820621760017
30
0
41
1
10
5.53718275715221
20
0.393510585652649
30
0
41
1
10
6.27680333606011
20
0.115471482341491
30
0
41
1
10
6.76103250459266
20
-0.0916996427901893
30
0
41
1
10
7.2392739587344
20
-0.31384022109296
30
0
0
SPLINE
5
E3
100
AcDbEntity
8
1
62
256
6
ByLayer
370
18
48
1
60
0
100
AcDbSpline
70
4
71
3
72
22
73
18
40
0
40
0
40
0
40
0
40
0.146302321155242
40
0.146302321155242
40
0.359726740866432
40
0.359726740866432
40
0.466438950722026
40
0.466438950722026
40
0.57315116057762
40
0.57315116057762
40
0.786575580288807
40
0.786575580288807
40
0.893287790144402
40
0.893287790144402
40
0.946643895072201
40
0.946643895072201
40
1
40
1
40
1
40
1
41
1
10
34.7363662356724
20
0.172673762956805
30
0
41
1
10
35.3612647796359
20
-0.104159353693177
30
0
41
1
10
35.9840350450877
20
-0.381496154656986
30
0
41
1
10
37.5158323306463
20
-1.05120591654014
30
1E-16
41
1
10
38.4250712158018
20
-1.43810409116662
30
1E-16
41
1
10
39.8004579921785
20
-1.97803930279392
30
1E-16
41
1
10
40.2623806528109
20
-2.15175325474811
30
1E-16
41
1
10
41.180105429908
20
-2.47724561692814
30
2E-16
41
1
10
41.6367942948108
20
-2.62953268214747
30
2E-16
41
1
10
43.0032208853099
20
-3.05097926049467
30
2E-16
41
1
10
43.9092214993208
20
-3.28412500175082
30
2E-16
41
1
10
45.2716914109569
20
-3.54900668517632
30
0
41
1
10
45.7264302372331
20
-3.6231884436057
30
0
41
1
10
46.4107152649486
20
-3.71165287384523
30
0
41
1
10
46.6391733346615
20
-3.73734024261646
30
0
41
1
10
47.0970430818719
20
-3.78086388552475
30
0
41
1
10
47.3264858675152
20
-3.79838738810398
30
0
41
1
10
47.556456027707
20
-3.81250038587299
30
0
0
SPLINE
5
E4
100
AcDbEntity
8
1
62
256
6
ByLayer
370
18
48
1
60
0
100
AcDbSpline
70
4
71
3
72
38
73
34
40
0
40
0
40
0
40
0
40
0.0372570488690177
40
0.0372570488690177
40
0.13543101290605
40
0.13543101290605
40
0.184517994924566
40
0.184517994924566
40
0.233604976943083
40
0.233604976943083
40
0.331778940980116
40
0.331778940980116
40
0.380865922998632
40
0.380865922998632
40
0.429952905017149
40
0.429952905017149
40
0.52812686905418
40
0.52812686905418
40
0.577213851072696
40
0.577213851072696
40
0.626300833091211
40
0.626300833091211
40
0.724474797128244
40
0.724474797128244
40
0.773561779146761
40
0.773561779146761
40
0.822648761165278
40
0.822648761165278
40
0.871735743183795
40
0.871735743183795
40
0.920822725202312
40
0.920822725202312
40
1
40
1
40
1
40
1
41
1
10
5.85625820195969
20
3.83137591469313
30
0
41
1
10
6.02854673933186
20
3.8334600109612
30
0
41
1
10
6.20054698568242
20
3.83334073377713
30
0
41
1
10
6.82501509386879
20
3.82432325991607
30
0
41
1
10
7.27616908936113
20
3.80172781607578
30
0
41
1
10
7.95190341540371
20
3.74504561012159
30
0
41
1
10
8.17698529987248
20
3.72232435018535
30
0
41
1
10
8.62680668499081
20
3.66990386817076
30
0
41
1
10
8.85155219969926
20
3.64019881722916
30
0
41
1
10
9.52621777826522
20
3.53944308843271
30
0
41
1
10
9.97656712851912
20
3.45671811656473
30
0
41
1
10
10.6535405920135
20
3.31219143046423
30
0
41
1
10
10.8794433313337
20
3.26060985772315
30
-2E-16
41
1
10
11.3316505420547
20
3.15103493144937
30
-2E-16
41
1
10
11.557932793173
20
3.09306844388774
30
-2E-16
41
1
10
12.2387814659538
20
2.90890218217933
30
-2E-16
41
1
10
12.6959376678456
20
2.77206144063959
30
-2E-16
41
1
10
13.3785364276863
20
2.55166991170174
30
-2E-16
41
1
10
13.6058545540225
20
2.47561792364331
30
-2E-16
41
1
10
14.0600498134349
20
2.3185919509819
30
-1E-16
41
1
10
14.2869051264636
20
2.23762212927079
30
-1E-16
41
1
10
14.968182509299
20
1.98789741351433
30
-1E-16
41
1
10
15.4233937704796
20
1.81236560805164
30
-1E-16
41
1
10
16.1076272803136
20
1.53840250885551
30
-1E-16
41
1
10
16.3355171509218
20
1.44545051982615
30
-1E-16
41
1
10
16.7897833094597
20
1.25703279561421
30
-1E-16
41
1
10
17.0163425889382
20
1.16147357851293
30
-1E-16
41
1
10
17.4687185197058
20
0.968587999884249
30
-1E-16
41
1
10
17.6945452115702
20
0.871284527454549
30
-1E-16
41
1
10
18.1455310364024
20
0.675088820663802
30
0
41
1
10
18.3706804150139
20
0.576174120007835
30
0
41
1
10
18.9588995461915
20
0.317427244369441
30
0
41
1
10
19.3218992646165
20
0.157397033962127
30
0
41
1
10
19.6848029950339
20
-0.0029054604320322
30
0
0
SPLINE
5
E5
100
AcDbEntity
8
1
62
256
6
ByLayer
370
18
48
1
60
0
100
AcDbSpline
70
4
71
3
72
8
73
4
40
0
40
0
40
0
40
0
40
1
40
1
40
1
40
1
41
1
10
47.3274589019266
20
-3.99899104168276
30
0
41
1
10
47.3328213143309
20
-4.02923669211955
30
0
41
1
10
47.3377698372289
20
-4.04621160994955
30
0
41
1
10
47.3424451024159
20
-4.04934251120164
30
0
0
SPLINE
5
E6
100
AcDbEntity
8
1
62
256
6
ByLayer
370
18
48
1
60
0
100
AcDbSpline
70
4
71
3
72
40
73
36
40
0
40
0
40
0
40
0
40
0.0529478925823518
40
0.0529478925823518
40
0.105895785164704
40
0.105895785164704
40
0.211791570329407
40
0.211791570329407
40
0.264739462911758
40
0.264739462911758
40
0.317687355494109
40
0.317687355494109
40
0.370635248076461
40
0.370635248076461
40
0.423583140658812
40
0.423583140658812
40
0.476531033241163
40
0.476531033241163
40
0.529478925823514
40
0.529478925823514
40
0.582426818405865
40
0.582426818405865
40
0.635374710988216
40
0.635374710988216
40
0.688322603570567
40
0.688322603570567
40
0.741270496152919
40
0.741270496152919
40
0.847166281317621
40
0.847166281317621
40
0.900114173899971
40
0.900114173899971
40
0.953062066482322
40
0.953062066482322
40
1
40
1
40
1
40
1
41
1
10
47.3274589019301
20
-3.99899104168153
30
0
41
1
10
46.8712386531985
20
-3.96492961620342
30
0
41
1
10
46.4154843954884
20
-3.9142510611164
30
0
41
1
10
45.5030444928807
20
-3.78081552651298
30
0
41
1
10
45.0462007368646
20
-3.69797199130821
30
0
41
1
10
43.6779260218358
20
-3.40474172782547
30
2E-16
41
1
10
42.7649222661787
20
-3.1486490644331
30
2E-16
41
1
10
41.3965820250323
20
-2.69324961199729
30
2E-16
41
1
10
40.9397406051726
20
-2.52932595797526
30
2E-16
41
1
10
40.0272180857449
20
-2.18240134079034
30
1E-16
41
1
10
39.5713393073862
20
-1.99932425587639
30
1E-16
41
1
10
38.6583747875155
20
-1.61753941600304
30
1E-16
41
1
10
38.2019560059889
20
-1.41919416851474
30
1E-16
41
1
10
37.2911415178376
20
-1.01335682658493
30
1E-16
41
1
10
36.8361781186956
20
-0.80561927498394
30
0
41
1
10
35.9250900751542
20
-0.384809679994845
30
0
41
1
10
35.4681738468249
20
-0.171245284691196
30
0
41
1
10
34.5559103753837
20
0.25468711670527
30
0
41
1
10
34.1006983812259
20
0.466932112114847
30
0
41
1
10
33.1901396173406
20
0.885768170209133
30
-1E-16
41
1
10
32.7348601991227
20
1.09250044919017
30
-1E-16
41
1
10
31.8221088878492
20
1.49594870221426
30
-1E-16
41
1
10
31.3654938107577
20
1.69226520362451
30
-1E-16
41
1
10
30.4544447507851
20
2.06806541303027
30
-1E-16
41
1
10
29.9994089527063
20
2.24803474054281
30
-1E-16
41
1
10
29.0881510105121
20
2.58814303978141
30
-2E-16
41
1
10
28.6311404486577
20
2.74862852679206
30
-2E-16
41
1
10
27.2624567318196
20
3.19268159836821
30
-2E-16
41
1
10
26.3537437514115
20
3.43898082401307
30
-2E-16
41
1
10
24.9843033518264
20
3.71882731354904
30
0
41
1
10
24.5275915053413
20
3.79690688294011
30
0
41
1
10
23.6163988913152
20
3.92058592358433
30
0
41
1
10
23.1613314231665
20
3.96637137666011
30
0
41
1
10
22.3016725842547
20
4.02138692731074
30
0
41
1
10
21.8965517844859
20
4.03416650279544
30
0
41
1
10
21.4918405212695
20
4.03372254649776
30
0
0
SPLINE
5
E7
100
AcDbEntity
8
1
62
256
6
ByLayer
370
18
48
1
60
0
100
AcDbSpline
70
4
71
3
72
20
73
16
40
0
40
0
40
0
40
0
40
0.25
40
0.25
40
0.375
40
0.375
40
0.5
40
0.5
40
0.625
40
0.625
40
0.75
40
0.75
40
0.875
40
0.875
40
1
40
1
40
1
40
1
41
1
10
47.5929096972383
20
-3.88274839685903
30
0
41
1
10
47.6719030255427
20
-3.66011065935004
30
0
41
1
10
47.7498885848526
20
-3.43604892200619
30
0
41
1
10
47.8668040514087
20
-3.09887405565968
30
0
41
1
10
47.9057489591853
20
-2.98633431254112
30
0
41
1
10
47.9837665331531
20
-2.76114132367286
30
0
41
1
10
48.0225135757364
20
-2.64826896538287
30
0
41
1
10
48.1031124639011
20
-2.42409836681008
30
0
41
1
10
48.1450152869049
20
-2.31224107928219
30
0
41
1
10
48.2320499428613
20
-2.09283612485808
30
0
41
1
10
48.2770277213946
20
-1.98563840880038
30
0
41
1
10
48.3708800822054
20
-1.77657226297461
30
0
41
1
10
48.4197648045149
20
-1.67472199151072
30
0
41
1
10
48.5221964925776
20
-1.47651865658722
30
0
41
1
10
48.5755855239773
20
-1.38060610732612
30
0
41
1
10
48.630246451284
20
-1.28964583513994
30
0
0
SPLINE
5
E8
100
AcDbEntity
8
1
62
256
6
ByLayer
370
18
48
1
60
0
100
AcDbSpline
70
4
71
3
72
12
73
8
40
0
40
0
40
0
40
0
40
0.437444997037912
40
0.437444997037912
40
0.874889994075824
40
0.874889994075824
40
1
40
1
40
1
40
1
41
1
10
18.2000000000006
20
-3.91567013580647
30
0
41
1
10
18.5042960295208
20
-3.94960725462514
30
0
41
1
10
18.8087656937396
20
-3.97630273678482
30
0
41
1
10
19.4167784894958
20
-4.01480945957366
30
0
41
1
10
19.7202473488697
20
-4.02663072059113
30
0
41
1
10
20.1102284713516
20
-4.0322805405475
30
0
41
1
10
20.1969406772743
20
-4.03292946416423
30
0
41
1
10
20.2836414316521
20
-4.03297168697404
30
0
0
SPLINE
5
E9
100
AcDbEntity
8
1
62
256
6
ByLayer
370
18
48
1
60
0
100
AcDbSpline
70
4
71
3
72
8
73
4
40
0
40
0
40
0
40
0
40
1
40
1
40
1
40
1
41
1
10
45.9739458347032
20
3.98749350068499
30
0
41
1
10
46.4294091230786
20
4.0247711561324
30
0
41
1
10
46.8852344828044
20
4.04555895004074
30
0
41
1
10
47.3424451024159
20
4.04934251120164
30
0
0
SPLINE
5
EA
100
AcDbEntity
8
1
62
256
6
ByLayer
370
18
48
1
60
0
100
AcDbSpline
70
4
71
3
72
8
73
4
40
0
40
0
40
0
40
0
40
1
40
1
40
1
40
1
41
1
10
47.5852452575189
20
3.88790908405778
30
0
41
1
10
47.5878000232371
20
3.8861890273694
30
0
41
1
10
47.5903548363471
20
3.88446879826225
30
0
41
1
10
47.5929096972383
20
3.88274839685897
30
0
0
SPLINE
5
EB
100
AcDbEntity
8
1
62
256
6
ByLayer
370
18
48
1
60
0
100
AcDbSpline
70
4
71
3
72
10
73
6
40
0
40
0
40
0
40
0
40
0.5
40
0.5
40
1
40
1
40
1
40
1
41
1
10
47.5929096972383
20
-3.882748396859
30
0
41
1
10
47.5800161809377
20
-3.89126656137771
30
0
41
1
10
47.5690481063937
20
-3.89484826057267
30
0
41
1
10
47.5503671538213
20
-3.89226032125384
30
0
41
1
10
47.542693246989
20
-3.88614327938456
30
0
41
1
10
47.536140593824
20
-3.87561209148598
30
0
0
SPLINE
5
EC
100
AcDbEntity
8
1
62
256
6
ByLayer
370
18
48
1
60
0
100
AcDbSpline
70
4
71
3
72
20
73
16
40
0
40
0
40
0
40
0
40
0.249999999999997
40
0.249999999999997
40
0.374999999999997
40
0.374999999999997
40
0.499999999999998
40
0.499999999999998
40
0.624999999999998
40
0.624999999999998
40
0.749999999999999
40
0.749999999999999
40
0.874999999999999
40
0.874999999999999
40
1
40
1
40
1
40
1
41
1
10
47.5929096972383
20
3.882748396859
30
0
41
1
10
47.6719030255427
20
3.66011065935007
30
0
41
1
10
47.7498885848526
20
3.43604892200628
30
0
41
1
10
47.8668040514087
20
3.09887405565985
30
0
41
1
10
47.9057489591853
20
2.98633431254132
30
0
41
1
10
47.9837665331531
20
2.76114132367311
30
0
41
1
10
48.0225135757363
20
2.64826896538312
30
0
41
1
10
48.103112463901
20
2.42409836681028
30
0
41
1
10
48.1450152869048
20
2.31224107928244
30
0
41
1
10
48.2320499428613
20
2.09283612485808
30
0
41
1
10
48.2770277213946
20
1.98563840880033
30
0
41
1
10
48.3708800822054
20
1.77657226297461
30
0
41
1
10
48.4197648045148
20
1.67472199151078
30
0
41
1
10
48.5221964925775
20
1.47651865658756
30
0
41
1
10
48.5755855239772
20
1.38060610732623
30
0
41
1
10
48.6302464512839
20
1.28964583513994
30
0
0
SPLINE
5
ED
100
AcDbEntity
8
1
62
256
6
ByLayer
370
18
48
1
60
0
100
AcDbSpline
70
4
71
3
72
26
73
22
40
0
40
0
40
0
40
0
40
0.0312499999999953
40
0.0312499999999953
40
0.0624999999999907
40
0.0624999999999907
40
0.124999999999991
40
0.124999999999991
40
0.187499999999991
40
0.187499999999991
40
0.249999999999991
40
0.249999999999991
40
0.37499999999999
40
0.37499999999999
40
0.49999999999999
40
0.49999999999999
40
0.74999999999999
40
0.74999999999999
40
0.874999999999995
40
0.874999999999995
40
1
40
1
40
1
40
1
41
1
10
47.9138321933607
20
0.516664498977178
30
0
41
1
10
47.905029799061
20
0.522797933981792
30
0
41
1
10
47.896150480253
20
0.528724537265276
30
0
41
1
10
47.8785061602869
20
0.541268931971047
30
0
41
1
10
47.8696108444096
20
0.547342512153762
30
0
41
1
10
47.842530302415
20
0.564167884653386
30
0
41
1
10
47.8239440358088
20
0.573603824212654
30
0
41
1
10
47.7863483864942
20
0.589833884243035
30
0
41
1
10
47.7673037488674
20
0.596637805127642
30
0
41
1
10
47.7289455390157
20
0.6089351890042
30
0
41
1
10
47.7097380127792
20
0.61528317981498
30
0
41
1
10
47.6516014099407
20
0.631279834529096
30
0
41
1
10
47.6121761912784
20
0.637880391145018
30
0
41
1
10
47.5325492482491
20
0.644702014817653
30
0
41
1
10
47.4923521143522
20
0.644938989478874
30
0
41
1
10
47.372253138589
20
0.642657370141109
30
0
41
1
10
47.2925801336942
20
0.630139131968434
30
0
41
1
10
47.175044300862
20
0.597329638939016
30
0
41
1
10
47.1361742849246
20
0.584335360347154
30
0
41
1
10
47.0591856467567
20
0.554936370846889
30
0
41
1
10
47.0211085862099
20
0.537959485490035
30
0
41
1
10
46.9835842117803
20
0.518485192152866
30
0
0
SPLINE
5
EE
100
AcDbEntity
8
1
62
256
6
ByLayer
370
18
48
1
60
0
100
AcDbSpline
70
4
71
3
72
8
73
4
40
0
40
0
40
0
40
0
40
1
40
1
40
1
40
1
41
1
10
47.327458901929
20
-3.99899104167969
30
0
41
1
10
47.3968697121648
20
-3.95850809783036
30
0
41
1
10
47.4664228041552
20
-3.91737620113045
30
0
41
1
10
47.5361405938239
20
-3.87561209148603
30
0
0
SPLINE
5
EF
100
AcDbEntity
8
SK1
62
256
6
ByLayer
370
18
48
1
60
0
100
AcDbSpline
70
4
71
3
72
18
73
14
40
0
40
0
40
0
40
0
40
0.249999999999999
40
0.249999999999999
40
0.374999999999999
40
0.374999999999999
40
0.5
40
0.5
40
0.75
40
0.75
40
0.875
40
0.875
40
1
40
1
40
1
40
1
41
1
10
0
20
-1.57601352946622
30
1E-16
41
1
10
-0.0581044679586284
20
-1.70821517133524
30
1E-16
41
1
10
-0.103353855920602
20
-1.84123471255887
30
1E-16
41
1
10
-0.14960096358368
20
-2.04206302439897
30
1E-16
41
1
10
-0.161401838993072
20
-2.10922305977948
30
1E-16
41
1
10
-0.177230975180151
20
-2.24399968173907
30
1E-16
41
1
10
-0.181162005648162
20
-2.31132793454802
30
1E-16
41
1
10
-0.180882148192126
20
-2.50850217152348
30
2E-16
41
1
10
-0.164880743657079
20
-2.63532110040157
30
2E-16
41
1
10
-0.118570897677785
20
-2.8189781638969
30
2E-16
41
1
10
-0.0993255004054845
20
-2.87922532935036
30
2E-16
41
1
10
-0.0544127405927952
20
-2.9955976216624
30
2E-16
41
1
10
-0.0286996174952208
20
-3.05198359841432
30
2E-16
41
1
10
0
20
-3.10671880720747
30
2E-16
0
SPLINE
5
F0
100
AcDbEntity
8
SK1
62
256
6
ByLayer
370
18
48
1
60
0
100
AcDbSpline
70
4
71
3
72
8
73
4
40
0
40
0
40
0
40
0
40
1
40
1
40
1
40
1
41
1
10
0
20
-3.10671880720747
30
2E-16
41
1
10
0
20
-2.59153310176785
30
2E-16
41
1
10
0
20
-2.08130934048751
30
1E-16
41
1
10
0
20
-1.57601352946622
30
1E-16
0
SPLINE
5
F1
100
AcDbEntity
8
1
62
256
6
ByLayer
370
18
48
1
60
0
100
AcDbSpline
70
4
71
3
72
11
73
7
40
0
40
0
40
0
40
0
40
0.178882267265768
40
0.404460107815819
40
0.677853515851426
40
1
40
1
40
1
40
1
41
1
10
6.07258138425465
20
3.82284254015536
30
0
41
1
10
5.91992822452667
20
3.82253150542104
30
0
41
1
10
5.57433587933522
20
3.82200240293852
30
0
41
1
10
4.99231048037302
20
3.82202390749836
30
0
41
1
10
4.28794313901838
20
3.82237090833536
30
0
41
1
10
3.77760959680421
20
3.82101442813175
30
0
41
1
10
3.5017134806393
20
3.81998373754729
30
0
0
SPLINE
5
F2
100
AcDbEntity
8
1
62
256
6
ByLayer
370
18
48
1
60
0
100
AcDbSpline
70
4
71
3
72
13
73
9
40
0
40
0
40
0
40
0
40
0.0508927127542697
40
0.1824254631221
40
0.352591936084414
40
0.52922839322103
40
0.741943883152681
40
1
40
1
40
1
40
1
41
1
10
47.7352593041422
20
0.6076578995077
30
0
41
1
10
47.6528073353419
20
0.632823044154406
30
0
41
1
10
47.3574641063461
20
0.723722379611729
30
0
41
1
10
46.7883757671754
20
0.90552150495057
30
-1E-16
41
1
10
46.0185562548444
20
1.15891773428351
30
-1E-16
41
1
10
45.1217142180355
20
1.46650491389514
30
-1E-16
41
1
10
44.0884411810754
20
1.83567842073114
30
-1E-16
41
1
10
43.3417630597756
20
2.1167832468137
30
-1E-16
41
1
10
42.9338014272226
20
2.27458266830502
30
-1E-16
0
SPLINE
5
F3
100
AcDbEntity
8
1
62
256
6
ByLayer
370
18
48
1
60
0
100
AcDbSpline
70
4
71
3
72
29
73
25
40
0
40
0
40
0
40
0
40
6.5044680926E-06
40
4.93781728627E-05
40
6.80494152914E-05
40
8.51705834085E-05
40
0.0001012195129698
40
0.0001169263808957
40
0.0005202314064781
40
0.0008417318743489
40
0.0014268919171174
40
0.0025070786481707
40
0.0045484932609249
40
0.0085530302075733
40
0.0168509252524099
40
0.0353316298716796
40
0.0800286070169441
40
0.187019720319234
40
0.281576617731837
40
0.370816229726147
40
0.477280790826978
40
0.613162289692881
40
0.79697303293007
40
1
40
1
40
1
40
1
41
1
10
22.7663838355349
20
-0.0438274025156034
30
0
41
1
10
22.7663866398407
20
-0.0438277763143162
30
0
41
1
10
22.7664059294219
20
-0.0438298530955308
30
0
41
1
10
22.7664108113252
20
-0.043824156498232
30
0
41
1
10
22.7663565811959
20
-0.0438093870582748
30
0
41
1
10
22.7662986654699
20
-0.0437913913915509
30
0
41
1
10
22.7662203089357
20
-0.0437682182943888
30
0
41
1
10
22.7652993725905
20
-0.0435066326972446
30
0
41
1
10
22.7634908583283
20
-0.0430082861049641
30
0
41
1
10
22.760488476258
20
-0.0421704378831862
30
0
41
1
10
22.7558613704445
20
-0.0408833414092271
30
0
41
1
10
22.7472667393825
20
-0.038490399713055
30
0
41
1
10
22.7306906342786
20
-0.0338777855835986
30
0
41
1
10
22.6972775633179
20
-0.0245802488664424
30
0
41
1
10
22.6253619923539
20
-0.0045647078732145
30
0
41
1
10
22.4579240407225
20
0.0421348659611169
30
0
41
1
10
22.0583866421952
20
0.154521556418018
30
0
41
1
10
21.4805844855764
20
0.321540761537619
30
0
41
1
10
20.7999173130817
20
0.525704969085552
30
0
41
1
10
20.1210334343561
20
0.73614338435533
30
0
41
1
10
19.3483406463584
20
0.983993447164437
30
-1E-16
41
1
10
18.3591782915369
20
1.31456158170005
30
-1E-16
41
1
10
17.1520945269863
20
1.73851845211499
30
-1E-16
41
1
10
16.2654444513681
20
2.07056897096265
30
-1E-16
41
1
10
15.8018326080559
20
2.24972775331457
30
-1E-16
0
SPLINE
5
F4
100
AcDbEntity
8
1
62
256
6
ByLayer
370
18
48
1
60
0
100
AcDbSpline
70
4
71
3
72
18
73
14
40
0
40
0
40
0
40
0
40
0.112880583783942
40
0.192842352223673
40
0.281364592855702
40
0.391231266413901
40
0.480218264444852
40
0.546059917691516
40
0.625952371097432
40
0.743280018882459
40
0.828820105741131
40
0.941263319180641
40
1
40
1
40
1
40
1
41
1
10
21.5004929511933
20
-3.83134575357599
30
0
41
1
10
21.8403405177274
20
-3.83144277389118
30
0
41
1
10
22.4209838983554
20
-3.83168606322789
30
0
41
1
10
23.2685428474243
20
-3.83191273462671
30
0
41
1
10
24.106650430187
20
-3.83297436153399
30
0
41
1
10
24.9725371976014
20
-3.83301482054065
30
0
41
1
10
25.7699160845037
20
-3.83271945642676
30
0
41
1
10
26.4770223408765
20
-3.83457193079715
30
0
41
1
10
27.2695187255886
20
-3.83483791003334
30
0
41
1
10
28.1213501855168
20
-3.83337794705258
30
0
41
1
10
29.071249884874
20
-3.83475344039866
30
0
41
1
10
29.8446312988501
20
-3.83569879761802
30
0
41
1
10
30.3603245480913
20
-3.83641417719747
30
0
41
1
10
30.5372721975068
20
-3.83646050748286
30
0
0
SPLINE
5
F5
100
AcDbEntity
8
1
62
256
6
ByLayer
370
18
48
1
60
0
100
AcDbSpline
70
4
71
3
72
25
73
21
40
0
40
0
40
0
40
0
40
0.0960441567746719
40
0.166509594353255
40
0.220968374926584
40
0.275520547755435
40
0.328399929892573
40
0.37380737402425
40
0.429899337360775
40
0.506809539457523
40
0.574297553366862
40
0.623346167200695
40
0.665298347888098
40
0.709565420607828
40
0.768858422336867
40
0.840309525682509
40
0.897036426656384
40
0.933889227257715
40
0.971917343671208
40
1
40
1
40
1
40
1
41
1
10
33.2773478184788
20
3.8380576820997
30
0
41
1
10
32.9848234054763
20
3.83660189978241
30
0
41
1
10
32.4776402299363
20
3.8349553359015
30
0
41
1
10
31.8036279060957
20
3.83510368229076
30
0
41
1
10
31.2573547489587
20
3.83600046622917
30
0
41
1
10
30.7637596618751
20
3.83648733528804
30
0
41
1
10
30.2978633122944
20
3.83649446764508
30
0
41
1
10
29.8272462094278
20
3.83556884213704
30
0
41
1
10
29.2833794557794
20
3.83488036286067
30
0
41
1
10
28.6721981978255
20
3.83413686078086
30
0
41
1
10
28.0824907361277
20
3.83373174868112
30
0
41
1
10
27.5993481311247
20
3.83435719633621
30
0
41
1
10
27.1869950369428
20
3.83460934572483
30
0
41
1
10
26.7434045297329
20
3.83474831970713
30
0
41
1
10
26.2099403913169
20
3.83382950427119
30
0
41
1
10
25.6387027426514
20
3.83273355246723
30
0
41
1
10
25.1353894008395
20
3.83286971103701
30
0
41
1
10
24.7346908438425
20
3.83298653962282
30
0
41
1
10
24.4211363818597
20
3.83296267154378
30
0
41
1
10
24.2197511549013
20
3.8328241390131
30
0
41
1
10
24.1341918042824
20
3.83275166684388
30
0
0
SPLINE
5
F6
100
AcDbEntity
8
1
62
256
6
ByLayer
370
18
48
1
60
0
100
AcDbSpline
70
4
71
2
72
6
73
3
40
0
40
0
40
0
40
1
40
1
40
1
41
1
10
35.1062643868602
20
-0.002290789715147
30
0
41
1
10
35.1062607826321
20
-0.0022809024966648
30
0
41
1
10
35.1062571784041
20
-0.0022710293166313
30
0
0
LINE
5
84
100
AcDbEntity
8
1
62
256
6
ByLayer
370
18
48
1
60
0
100
AcDbLine
10
1.474979
20
4.021217
30
0
11
1.474979
21
0
31
0
39
0
210
0
220
0
230
1
0
LINE
5
85
100
AcDbEntity
8
1
62
256
6
ByLayer
370
18
48
1
60
0
100
AcDbLine
10
1.474979
20
0
30
0
11
1.474979
21
-4.021217
31
0
39
0
210
0
220
0
230
1
0
LINE
5
86
100
AcDbEntity
8
1
62
256
6
ByLayer
370
18
48
1
60
0
100
AcDbLine
10
18.2
20
-3.91567
30
0
11
18.2
21
-3.928906
31
0
39
0
210
0
220
0
230
1
0
LINE
5
87
100
AcDbEntity
8
1
62
256
6
ByLayer
370
18
48
1
60
0
100
AcDbLine
10
48.943522
20
0.048755
30
0
11
47.942661
21
1.153533
31
0
39
0
210
0
220
0
230
1
0
LINE
5
88
100
AcDbEntity
8
1
62
256
6
ByLayer
370
18
48
1
60
0
100
AcDbLine
10
0
20
-3.106719
30
0
11
0
21
-5
31
0
39
0
210
0
220
0
230
1
0
LINE
5
89
100
AcDbEntity
8
1
62
256
6
ByLayer
370
18
48
1
60
0
100
AcDbLine
10
3.501713
20
-3.888994
30
0
11
3.501713
21
-4.022484
31
0
39
0
210
0
220
0
230
1
0
LINE
5
8A
100
AcDbEntity
8
1
62
256
6
ByLayer
370
18
48
1
60
0
100
AcDbLine
10
0.73724
20
4.510608
30
0
11
0.73724
21
0
31
0
39
0
210
0
220
0
230
1
0
LINE
5
8B
100
AcDbEntity
8
1
62
256
6
ByLayer
370
18
48
1
60
0
100
AcDbLine
10
0.73724
20
0
30
0
11
0.73724
21
-4.510608
31
0
39
0
210
0
220
0
230
1
0
LINE
5
8C
100
AcDbEntity
8
1
62
256
6
ByLayer
370
18
48
1
60
0
100
AcDbLine
10
3.501713
20
4.022484
30
0
11
3.501713
21
2.012561
31
0
39
0
210
0
220
0
230
1
0
LINE
5
8D
100
AcDbEntity
8
1
62
256
6
ByLayer
370
18
48
1
60
0
100
AcDbLine
10
0
20
5
30
0
11
0
21
-1.576014
31
0
39
0
210
0
220
0
230
1
0
LINE
5
8E
100
AcDbEntity
8
SK1
62
256
6
ByLayer
370
18
48
1
60
0
100
AcDbLine
10
-38.66
20
-5
30
0
11
-38.66
21
5
31
0
39
0
210
0
220
0
230
1
0
LINE
5
90
100
AcDbEntity
8
SK1
62
256
6
ByLayer
370
18
48
1
60
0
100
AcDbLine
10
0
20
5
30
0
11
0
21
-1.576014
31
0
39
0
210
0
220
0
230
1
0
LINE
5
91
100
AcDbEntity
8
SK1
62
256
6
ByLayer
370
18
48
1
60
0
100
AcDbLine
10
0
20
-3.106719
30
0
11
0
21
-5
31
0
39
0
210
0
220
0
230
1
0
LINE
5
92
100
AcDbEntity
8
SK1
62
256
6
ByLayer
370
18
48
1
60
0
100
AcDbLine
10
-40
20
-3.66
30
0
11
-40
21
3.66
31
0
39
0
210
0
220
0
230
1
0
LINE
5
93
100
AcDbEntity
8
1
62
256
6
ByLayer
370
18
48
1
60
0
100
AcDbLine
10
6.073477
20
-4.024091
30
0
11
7.330414
21
-4.024877
31
0
39
0
210
0
220
0
230
1
0
LINE
5
94
100
AcDbEntity
8
1
62
256
6
ByLayer
370
18
48
1
60
0
100
AcDbLine
10
7.330414
20
4.024877
30
0
11
6.073477
21
4.024091
31
0
39
0
210
0
220
0
230
1
0
LINE
5
95
100
AcDbEntity
8
SK1
62
256
6
ByLayer
370
18
48
1
60
0
100
AcDbLine
10
-38.66
20
-5
30
0
11
0
21
-5
31
0
39
0
210
0
220
0
230
1
0
LINE
5
96
100
AcDbEntity
8
SK1
62
256
6
ByLayer
370
18
48
1
60
0
100
AcDbLine
10
0
20
5
30
0
11
-38.66
21
5
31
0
39
0
210
0
220
0
230
1
0
LINE
5
97
100
AcDbEntity
8
SK1
62
256
6
ByLayer
370
18
48
1
60
0
100
AcDbLine
10
-40
20
-3.66
30
0
11
-38.66
21
-5
31
0
39
0
210
0
220
0
230
1
0
LINE
5
98
100
AcDbEntity
8
SK1
62
256
6
ByLayer
370
18
48
1
60
0
100
AcDbLine
10
-38.66
20
5
30
0
11
-40
21
3.66
31
0
39
0
210
0
220
0
230
1
0
LINE
5
99
100
AcDbEntity
8
1
62
256
6
ByLayer
370
18
48
1
60
0
100
AcDbLine
10
1.474979
20
-4.021217
30
0
11
3.501713
21
-4.022484
31
0
39
0
210
0
220
0
230
1
0
LINE
5
9A
100
AcDbEntity
8
1
62
256
6
ByLayer
370
18
48
1
60
0
100
AcDbLine
10
20.281943
20
-4.032971
30
0
11
21.501845
21
-4.033734
31
0
39
0
210
0
220
0
230
1
0
LINE
5
9B
100
AcDbEntity
8
1
62
256
6
ByLayer
370
18
48
1
60
0
100
AcDbLine
10
33.279901
20
-4.041095
30
0
11
34.505863
21
-4.041861
31
0
39
0
210
0
220
0
230
1
0
LINE
5
9C
100
AcDbEntity
8
1
62
256
6
ByLayer
370
18
48
1
60
0
100
AcDbLine
10
34.505863
20
4.041861
30
0
11
33.279901
21
4.041095
31
0
39
0
210
0
220
0
230
1
0
LINE
5
9D
100
AcDbEntity
8
1
62
256
6
ByLayer
370
18
48
1
60
0
100
AcDbLine
10
21.501845
20
4.033734
30
0
11
20.281943
21
4.032971
31
0
39
0
210
0
220
0
230
1
0
LINE
5
9E
100
AcDbEntity
8
1
62
256
6
ByLayer
370
18
48
1
60
0
100
AcDbLine
10
3.501713
20
4.022484
30
0
11
1.474979
21
4.021217
31
0
39
0
210
0
220
0
230
1
0
LINE
5
9F
100
AcDbEntity
8
SK4
62
256
6
ByLayer
370
18
48
0.05
60
0
100
AcDbLine
10
54
20
0
30
0
11
-45
21
0
31
0
39
0
210
0
220
0
230
1
0
LINE
5
A1
100
AcDbEntity
8
4
62
256
6
ByLayer
370
18
48
0.05
60
0
100
AcDbLine
10
-40
20
0
30
0
11
54
21
0
31
0
39
0
210
0
220
0
230
1
0
LINE
5
A3
100
AcDbEntity
8
80
62
256
6
ByLayer
370
18
48
1
60
0
100
AcDbLine
10
0
20
0
30
0
11
-6
21
0
31
0
39
0
210
0
220
0
230
1
0
LINE
5
A4
100
AcDbEntity
8
81
62
256
6
ByLayer
370
18
48
1
60
0
100
AcDbLine
10
49
20
0
30
0
11
55
21
0
31
0
39
0
210
0
220
0
230
1
0
LINE
5
A5
100
AcDbEntity
8
SK2
62
256
6
ByLayer
370
13
48
1
60
0
100
AcDbLine
10
49.542964
20
1.49176
30
0
11
56.926414
21
21.777341
31
0
39
0
210
0
220
0
230
1
0
LINE
5
A7
100
AcDbEntity
8
SK2
62
256
6
ByLayer
370
13
48
1
60
0
100
AcDbLine
10
49.542964
20
-1.49176
30
0
11
56.926414
21
-21.777341
31
0
39
0
210
0
220
0
230
1
0
LINE
5
A8
100
AcDbEntity
8
1
62
256
6
ByLayer
370
13
48
1
60
0
100
AcDbLine
10
55.840487
20
18.793822
30
0
11
58.937074
21
17.977436
31
0
39
0
210
0
220
0
230
1
0
LINE
5
A9
100
AcDbEntity
8
1
62
256
6
ByLayer
370
13
48
1
60
0
100
AcDbLine
10
55.840487
20
18.793822
30
0
11
58.620267
21
17.203796
31
0
39
0
210
0
220
0
230
1
0
LINE
5
AA
100
AcDbEntity
8
1
62
256
6
ByLayer
370
13
48
1
60
0
100
AcDbLine
10
58.937074
20
17.977436
30
0
11
58.620267
21
17.203796
31
0
39
0
210
0
220
0
230
1
0
LINE
5
AB
100
AcDbEntity
8
1
62
256
6
ByLayer
370
13
48
1
60
0
100
AcDbLine
10
55.840487
20
-18.793822
30
0
11
58.620264
21
-17.203798
31
0
39
0
210
0
220
0
230
1
0
LINE
5
AC
100
AcDbEntity
8
1
62
256
6
ByLayer
370
13
48
1
60
0
100
AcDbLine
10
55.840487
20
-18.793822
30
0
11
58.937077
21
-17.977435
31
0
39
0
210
0
220
0
230
1
0
LINE
5
AD
100
AcDbEntity
8
1
62
256
6
ByLayer
370
13
48
1
60
0
100
AcDbLine
10
58.620264
20
-17.203798
30
0
11
58.937077
21
-17.977435
31
0
39
0
210
0
220
0
230
1
0
MTEXT
5
F7
100
AcDbEntity
8
SK2
62
256
6
ByLayer
370
18
48
1
60
0
100
AcDbMText
10
62.717388
20
-2.467451
30
0
210
0
220
0
230
1
1
\W0.7237;140.00
40
3.50012
41
0
44
1.084337
50
0
71
7
72
5
7
iso_b_vert
0
MTEXT
5
FA
100
AcDbEntity
8
SK6
62
256
6
ByLayer
370
18
48
1
60
0
100
AcDbMText
10
-34.636198
20
-55.854912
30
0
210
0
220
0
230
1
1
\W0.7454;860.1-0810-025A0-GM X1BM
40
3.175
41
0
44
1.084337
50
0
71
7
72
5
7
iso_b_vert
0
DIMENSION
5
FD
100
AcDbEntity
8
SK2
62
256
6
ByLayer
370
18
48
1
60
0
100
AcDbDimension
2
_U0
10
49
20
-28.50012
30
0
11
24.5
21
-28.50012
31
0
70
32
71
2
72
1
41
1
210
0
220
0
230
1
3
Standard
100
AcDbAlignedDimension
13
0
23
-5
33
0
14
49
24
0
34
0
50
0
100
AcDbRotatedDimension
1001
ACAD
1000
DSTYLE
1002
{
1070
   371
1070
    13
1070
   372
1070
    13
1070
     3
1000

1070
   170
1070
     0
1070
   144
1040
1.0
1070
   277
1070
     2
1070
   284
1070
     8
1070
   278
1070
    46
1070
   146
1040
0.999966
1070
   345
1005
16
1070
   347
1005
16
1070
   346
1005
16
1070
   344
1005
FE
1070
   343
1005
FE
1070
   172
1070
     1
1070
    76
1070
     0
1070
    75
1070
     0
1070
   282
1070
     0
1070
   281
1070
     0
1070
    71
1070
     0
1070
    74
1070
     0
1070
   279
1070
     0
1070
   173
1070
     1
1070
   340
1005
F8
1070
   271
1070
     1
1070
   272
1070
     2
1070
    77
1070
     1
1070
    73
1070
     1
1070
   171
1070
     3
1070
   274
1070
     4
1070
   177
1070
   150
1070
   176
1070
     9
1070
   178
1070
    43
1070
    78
1070
     8
1070
    48
1040
-0.1
1070
    41
1040
3.175
1070
   147
1040
1.75006
1070
    42
1040
1.5875
1070
    44
1040
3.175
1070
   140
1040
3.50012
1002
}
1001
ACAD_DSTYLE_DIM_LINETYPE
1070
   380
1005
16
1001
ACAD_DSTYLE_DIM_EXT1_LINETYPE
1070
   381
1005
16
1001
ACAD_DSTYLE_DIM_EXT2_LINETYPE
1070
   382
1005
16
0
DIMENSION
5
123
100
AcDbEntity
8
2
62
256
6
ByLayer
370
18
48
1
60
0
100
AcDbDimension
2
_U1
10
55.75006
20
4.05
30
0
11
55.75006
21
19.123216
31
0
70
32
71
1
72
1
41
1
210
0
220
0
230
1
3
Standard
100
AcDbAlignedDimension
13
47.5259
23
-4.05
33
0
14
47.5259
24
4.05
34
0
50
90
100
AcDbRotatedDimension
1001
ACAD
1000
DSTYLE
1002
{
1070
   371
1070
    13
1070
   372
1070
    13
1070
     3
1000

1070
   170
1070
     0
1070
   144
1040
1.0
1070
   277
1070
     2
1070
   284
1070
     8
1070
   278
1070
    46
1070
   146
1040
0.999966
1070
   345
1005
16
1070
   347
1005
16
1070
   346
1005
16
1070
   344
1005
FE
1070
   343
1005
FE
1070
   172
1070
     1
1070
    76
1070
     0
1070
    75
1070
     0
1070
   282
1070
     0
1070
   281
1070
     0
1070
    71
1070
     0
1070
    74
1070
     0
1070
   279
1070
     0
1070
   173
1070
     1
1070
   340
1005
F8
1070
   271
1070
     1
1070
   272
1070
     2
1070
    77
1070
     1
1070
    73
1070
     0
1070
   171
1070
     3
1070
   274
1070
     4
1070
   177
1070
   150
1070
   176
1070
     9
1070
   178
1070
    43
1070
    78
1070
     8
1070
    48
1040
-0.1
1070
    41
1040
3.175
1070
   147
1040
1.75006
1070
    42
1040
1.5875
1070
    44
1040
3.175
1070
   140
1040
3.50012
1002
}
1001
ACAD_DSTYLE_DIM_LINETYPE
1070
   380
1005
16
1001
ACAD_DSTYLE_DIM_EXT1_LINETYPE
1070
   381
1005
16
1001
ACAD_DSTYLE_DIM_EXT2_LINETYPE
1070
   382
1005
16
0
DIMENSION
5
142
100
AcDbEntity
8
SK2
62
256
6
ByLayer
370
18
48
1
60
0
100
AcDbDimension
2
_U2
10
-43.24994
20
-5
30
0
11
-43.24994
21
19.97767
31
0
70
32
71
1
72
1
41
1
210
0
220
0
230
1
3
Standard
100
AcDbAlignedDimension
13
-40
23
5
33
0
14
-40
24
-5
34
0
50
90
100
AcDbRotatedDimension
1001
ACAD
1000
DSTYLE
1002
{
1070
   371
1070
    13
1070
   372
1070
    13
1070
     3
1000

1070
   170
1070
     0
1070
   144
1040
1.0
1070
   277
1070
     2
1070
   284
1070
     8
1070
   278
1070
    46
1070
   146
1040
0.999966
1070
   345
1005
16
1070
   347
1005
16
1070
   346
1005
16
1070
   344
1005
FE
1070
   343
1005
FE
1070
   172
1070
     1
1070
    76
1070
     0
1070
    75
1070
     0
1070
   282
1070
     0
1070
   281
1070
     0
1070
    71
1070
     0
1070
    74
1070
     0
1070
   279
1070
     0
1070
   173
1070
     1
1070
   340
1005
F8
1070
   271
1070
     1
1070
   272
1070
     2
1070
    77
1070
     1
1070
    73
1070
     0
1070
   171
1070
     3
1070
   274
1070
     4
1070
   177
1070
   150
1070
   176
1070
     9
1070
   178
1070
    43
1070
    78
1070
     8
1070
    48
1040
-0.1
1070
    41
1040
3.175
1070
   147
1040
1.75006
1070
    42
1040
1.5875
1070
    44
1040
3.175
1070
   140
1040
3.50012
1002
}
1001
ACAD_DSTYLE_DIM_LINETYPE
1070
   380
1005
16
1001
ACAD_DSTYLE_DIM_EXT1_LINETYPE
1070
   381
1005
16
1001
ACAD_DSTYLE_DIM_EXT2_LINETYPE
1070
   382
1005
16
0
DIMENSION
5
160
100
AcDbEntity
8
SK2
62
256
6
ByLayer
370
18
48
1
60
0
100
AcDbDimension
2
_U3
10
0
20
-28.50012
30
0
11
-20
21
-28.50012
31
0
70
32
71
1
72
1
41
1
210
0
220
0
230
1
3
Standard
100
AcDbAlignedDimension
13
-40
23
-5
33
0
14
0
24
-5
34
0
50
0
100
AcDbRotatedDimension
1001
ACAD
1000
DSTYLE
1002
{
1070
   371
1070
    13
1070
   372
1070
    13
1070
     3
1000

1070
   170
1070
     0
1070
   144
1040
1.0
1070
   277
1070
     2
1070
   284
1070
     8
1070
   278
1070
    46
1070
   146
1040
0.999966
1070
   345
1005
16
1070
   347
1005
16
1070
   346
1005
16
1070
   344
1005
FE
1070
   343
1005
FE
1070
   172
1070
     1
1070
    76
1070
     0
1070
    75
1070
     0
1070
   282
1070
     0
1070
   281
1070
     0
1070
    71
1070
     0
1070
    74
1070
     0
1070
   279
1070
     0
1070
   173
1070
     1
1070
   340
1005
F8
1070
   271
1070
     1
1070
   272
1070
     2
1070
    77
1070
     1
1070
    73
1070
     1
1070
   171
1070
     3
1070
   274
1070
     4
1070
   177
1070
   150
1070
   176
1070
     9
1070
   178
1070
    43
1070
    78
1070
     8
1070
    48
1040
-0.1
1070
    41
1040
3.175
1070
   147
1040
1.75006
1070
    42
1040
1.5875
1070
    44
1040
3.175
1070
   140
1040
3.50012
1002
}
1001
ACAD_DSTYLE_DIM_LINETYPE
1070
   380
1005
16
1001
ACAD_DSTYLE_DIM_EXT1_LINETYPE
1070
   381
1005
16
1001
ACAD_DSTYLE_DIM_EXT2_LINETYPE
1070
   382
1005
16
0
DIMENSION
5
17C
100
AcDbEntity
8
SK2
62
256
6
ByLayer
370
18
48
1
60
0
100
AcDbDimension
2
_U4
10
49
20
-19.74982
30
0
11
25.5
21
-19.74982
31
0
70
32
71
1
72
1
41
1
210
0
220
0
230
1
3
Standard
100
AcDbAlignedDimension
13
2
23
4.55
33
0
14
49
24
0
34
0
50
0
100
AcDbRotatedDimension
1001
ACAD
1000
DSTYLE
1002
{
1070
   371
1070
    13
1070
   372
1070
    13
1070
     3
1000

1070
   170
1070
     0
1070
   144
1040
1.0
1070
   277
1070
     2
1070
   284
1070
     8
1070
   278
1070
    46
1070
   146
1040
0.999966
1070
   345
1005
16
1070
   347
1005
16
1070
   346
1005
16
1070
   344
1005
FE
1070
   343
1005
FE
1070
   172
1070
     1
1070
    76
1070
     0
1070
    75
1070
     0
1070
   282
1070
     0
1070
   281
1070
     0
1070
    71
1070
     0
1070
    74
1070
     0
1070
   279
1070
     0
1070
   173
1070
     1
1070
   340
1005
F8
1070
   271
1070
     1
1070
   272
1070
     2
1070
    77
1070
     1
1070
    73
1070
     1
1070
   171
1070
     3
1070
   274
1070
     4
1070
   177
1070
   150
1070
   176
1070
     9
1070
   178
1070
    43
1070
    78
1070
     8
1070
    48
1040
-0.1
1070
    41
1040
3.175
1070
   147
1040
1.75006
1070
    42
1040
1.5875
1070
    44
1040
3.175
1070
   140
1040
3.50012
1002
}
1001
ACAD_DSTYLE_DIM_LINETYPE
1070
   380
1005
16
1001
ACAD_DSTYLE_DIM_EXT1_LINETYPE
1070
   381
1005
16
1001
ACAD_DSTYLE_DIM_EXT2_LINETYPE
1070
   382
1005
16
0
DIMENSION
5
198
100
AcDbEntity
8
SK2
62
256
6
ByLayer
370
18
48
1
60
0
100
AcDbDimension
2
_U5
10
49
20
-11.82
30
0
11
36.15
21
-11.82
31
0
70
32
71
1
72
1
41
1
210
0
220
0
230
1
3
Standard
100
AcDbAlignedDimension
13
23.3
23
-4.05
33
0
14
49
24
0
34
0
50
0
100
AcDbRotatedDimension
1001
ACAD
1000
DSTYLE
1002
{
1070
   371
1070
    13
1070
   372
1070
    13
1070
     3
1000

1070
   170
1070
     0
1070
   144
1040
1.0
1070
   277
1070
     2
1070
   284
1070
     8
1070
   278
1070
    46
1070
   146
1040
1.25
1070
   345
1005
16
1070
   347
1005
16
1070
   346
1005
16
1070
   344
1005
FE
1070
   343
1005
FE
1070
   172
1070
     1
1070
    76
1070
     0
1070
    75
1070
     0
1070
   282
1070
     0
1070
   281
1070
     0
1070
    71
1070
     0
1070
    74
1070
     0
1070
   279
1070
     0
1070
   173
1070
     1
1070
   340
1005
F8
1070
   271
1070
     1
1070
   272
1070
     2
1070
    77
1070
     1
1070
    73
1070
     1
1070
   171
1070
     3
1070
   274
1070
     4
1070
   177
1070
   150
1070
   176
1070
     9
1070
   178
1070
    43
1070
    78
1070
     8
1070
    48
1040
-0.1
1070
    41
1040
3.175
1070
   147
1040
0.42
1070
    42
1040
1.5875
1070
    44
1040
0.5
1070
   140
1040
2.8
1002
}
1001
ACAD_DSTYLE_DIM_LINETYPE
1070
   380
1005
16
1001
ACAD_DSTYLE_DIM_EXT1_LINETYPE
1070
   381
1005
16
1001
ACAD_DSTYLE_DIM_EXT2_LINETYPE
1070
   382
1005
16
0
DIMENSION
5
1B4
100
AcDbEntity
8
SK2
62
256
6
ByLayer
370
18
48
1
60
0
100
AcDbDimension
2
_U6
10
49
20
-38.50012
30
0
11
4.5
21
-38.50012
31
0
70
32
71
1
72
1
41
1
210
0
220
0
230
1
3
Standard
100
AcDbAlignedDimension
13
-40
23
0
33
0
14
49
24
0
34
0
50
0
100
AcDbRotatedDimension
1001
ACAD
1000
DSTYLE
1002
{
1070
   371
1070
    13
1070
   372
1070
    13
1070
     3
1000

1070
   170
1070
     0
1070
   144
1040
1.0
1070
   277
1070
     2
1070
   284
1070
     8
1070
   278
1070
    46
1070
   146
1040
0.999966
1070
   345
1005
16
1070
   347
1005
16
1070
   346
1005
16
1070
   344
1005
FE
1070
   343
1005
FE
1070
   172
1070
     1
1070
    76
1070
     0
1070
    75
1070
     0
1070
   282
1070
     0
1070
   281
1070
     0
1070
    71
1070
     0
1070
    74
1070
     0
1070
   279
1070
     0
1070
   173
1070
     1
1070
   340
1005
F8
1070
   271
1070
     1
1070
   272
1070
     2
1070
    77
1070
     1
1070
    73
1070
     1
1070
   171
1070
     3
1070
   274
1070
     4
1070
   177
1070
   150
1070
   176
1070
     9
1070
   178
1070
    43
1070
    78
1070
     8
1070
    48
1040
-0.1
1070
    41
1040
3.175
1070
   147
1040
1.75006
1070
    42
1040
1.5875
1070
    44
1040
3.175
1070
   140
1040
3.50012
1002
}
1001
ACAD_DSTYLE_DIM_LINETYPE
1070
   380
1005
16
1001
ACAD_DSTYLE_DIM_EXT1_LINETYPE
1070
   381
1005
16
1001
ACAD_DSTYLE_DIM_EXT2_LINETYPE
1070
   382
1005
16
0
ENDSEC
0
SECTION
2
OBJECTS
0
DICTIONARY
5
240
330
0
100
AcDbDictionary
280
0
281
1
3
ACAD_GROUP
350
241
3
ACAD_MLINESTYLE
350
242
0
DICTIONARY
5
241
330
0
100
AcDbDictionary
280
0
281
1
0
DICTIONARY
5
242
330
0
100
AcDbDictionary
280
0
281
1
3
Standard
350
18
0
MLINESTYLE
5
18
330
242
100
AcDbMlineStyle
2
Standard
70
0
3

62
256
51
90
52
90
71
2
49
-0.5
62
256
6
ByLayer
49
0.5
62
256
6
ByLayer
0
RASTERVARIABLES
5
22e
330

100
AcDbRasterVariables
90
0
70
1
71
1
72
1
0
ENDSEC
0
EOF
