0
SECTION
2
HEADER
9
$ACADVER
1
AC1015
9
$DWGCODEPAGE
3
ANSI_1252
9
$HANDSEED
5
268
9
$ANGBASE
50
0
9
$ANGDIR
70
0
9
$ATTMODE
70
1
9
$AUNITS
70
0
9
$AUPREC
70
0
9
$CECOLOR
62
256
9
$CELTSCALE
40
1
9
$CELTYPE
6
ByLayer
9
$CELWEIGHT
370
18
9
$CLAYER
8
0
9
$CMLJUST
70
0
9
$CMLSCALE
40
1
9
$CMLSTYLE
2
Standard
9
$DIMSTYLE
2
Standard
9
$TEXTSIZE
40
0.2
9
$TEXTSTYLE
7
Standard
9
$LUNITS
70
2
9
$LUPREC
70
4
9
$EXTNAMES
290
1
9
$INSUNITS
70
4
9
$LTSCALE
40
1
9
$LWDISPLAY
290
1
9
$PDMODE
70
0
9
$PDSIZE
40
0
9
$PLINEGEN
70
0
0
ENDSEC
0
SECTION
2
CLASSES
0
CLASS
1
RASTERVARIABLES
2
AcDbRasterVariables
3
ISM
90
0
280
0
281
0
0
ENDSEC
0
SECTION
2
TABLES
0
TABLE
2
VPORT
5
25e
100
AcDbSymbolTable
0
VPORT
5
1
100
AcDbSymbolTableRecord
100
AcDbViewportTableRecord
2
*Active
70
0
10
0
20
0
11
1
21
1
12
-1
22
1
13
0
23
0
14
0.5
24
0.5
15
10
25
10
16
0
26
0
36
1
17
0
27
0
37
0
0
ENDTAB
0
TABLE
2
LTYPE
5
25f
100
AcDbSymbolTable
0
LTYPE
5
14
100
AcDbSymbolTableRecord
100
AcDbLinetypeTableRecord
70
0
2
ByBlock
3

72
65
73
0
40
0
0
LTYPE
5
15
100
AcDbSymbolTableRecord
100
AcDbLinetypeTableRecord
70
0
2
ByLayer
3

72
65
73
0
40
0
0
LTYPE
5
16
100
AcDbSymbolTableRecord
100
AcDbLinetypeTableRecord
70
0
2
Continuous
3
Solid line
72
65
73
0
40
0
0
LTYPE
5
6E
100
AcDbSymbolTableRecord
100
AcDbLinetypeTableRecord
70
0
2
CENTER
3
____ _ ____ _ ____ _ ____
72
65
73
4
40
47.5
49
22
74
0
49
-8.5
74
0
49
8.5
74
0
49
-8.5
74
0
0
LTYPE
5
6F
100
AcDbSymbolTableRecord
100
AcDbLinetypeTableRecord
70
0
2
DASHED
3
__ __ __ __ __ __ __ __ __
72
65
73
2
40
25.72
49
12.86
74
0
49
-12.86
74
0
0
ENDTAB
0
TABLE
2
LAYER
5
260
100
AcDbSymbolTable
0
LAYER
5
10
100
AcDbSymbolTableRecord
100
AcDbLayerTableRecord
2
0
70
0
62
7
6
Continuous
290
1
370
-3
390
0
0
LAYER
5
71
100
AcDbSymbolTableRecord
100
AcDbLayerTableRecord
2
80
70
0
62
-6
6
Continuous
290
1
370
-3
390
0
0
LAYER
5
73
100
AcDbSymbolTableRecord
100
AcDbLayerTableRecord
2
81
70
0
62
-3
6
Continuous
290
1
370
-3
390
0
0
LAYER
5
75
100
AcDbSymbolTableRecord
100
AcDbLayerTableRecord
2
1
70
0
62
4
6
Continuous
290
1
370
-3
390
0
0
LAYER
5
A7
100
AcDbSymbolTableRecord
100
AcDbLayerTableRecord
2
4
70
0
62
-2
6
CENTER
290
1
370
-3
390
0
0
LAYER
5
122
100
AcDbSymbolTableRecord
100
AcDbLayerTableRecord
2
Defpoints
70
0
62
7
6
Continuous
290
0
370
-3
390
0
0
LAYER
5
14F
100
AcDbSymbolTableRecord
100
AcDbLayerTableRecord
2
2
70
0
62
7
6
Continuous
290
1
370
-3
390
0
0
LAYER
5
24a
100
AcDbSymbolTableRecord
100
AcDbLayerTableRecord
2
SK1
70
0
62
4
6
Continuous
290
1
370
-3
390
0
0
LAYER
5
24b
100
AcDbSymbolTableRecord
100
AcDbLayerTableRecord
2
SK4
70
0
62
2
6
CENTER
290
1
370
-3
390
0
0
LAYER
5
24c
100
AcDbSymbolTableRecord
100
AcDbLayerTableRecord
2
SK2
70
0
62
7
6
Continuous
290
1
370
-3
390
0
0
LAYER
5
24d
100
AcDbSymbolTableRecord
100
AcDbLayerTableRecord
2
SK6
70
0
62
5
6
Continuous
290
1
370
-3
390
0
0
ENDTAB
0
TABLE
2
STYLE
5
261
100
AcDbSymbolTable
0
STYLE
5
11
100
AcDbSymbolTableRecord
100
AcDbTextStyleTableRecord
2
Standard
3
txt
70
0
71
0
40
0
41
1
42
0
50
0
0
STYLE
5
113
100
AcDbSymbolTableRecord
100
AcDbTextStyleTableRecord
2
iso_b_vert
3
simplex.shx
70
0
71
0
40
0
41
1
42
0
50
0
0
STYLE
5
114
100
AcDbSymbolTableRecord
100
AcDbTextStyleTableRecord
2
DWGDirectTextStyle
3
simplex
70
0
71
0
40
0
41
1
42
0
50
0
0
ENDTAB
0
TABLE
2
DIMSTYLE
5
262
100
AcDbSymbolTable
100
AcDbDimStyleTable
0
DIMSTYLE
105
27
100
AcDbSymbolTableRecord
100
AcDbDimStyleTableRecord
2
Standard
70
0
3
<>
41
0.18
42
0.0625
44
0.18
140
0.18
147
0.09
73
0
74
0
77
1
271
2
275
0
278
52
280
0
340
11
0
ENDTAB
0
TABLE
2
VIEW
5
263
100
AcDbSymbolTable
0
ENDTAB
0
TABLE
2
UCS
5
264
100
AcDbSymbolTable
0
ENDTAB
0
TABLE
2
APPID
5
265
100
AcDbSymbolTable
0
APPID
5
12
100
AcDbSymbolTableRecord
100
AcDbRegAppTableRecord
2
ACAD
70
0
0
APPID
5
117
100
AcDbSymbolTableRecord
100
AcDbRegAppTableRecord
2
ACAD_DSTYLE_DIMBREAK
70
0
0
APPID
5
209
100
AcDbSymbolTableRecord
100
AcDbRegAppTableRecord
2
ACAD_DSTYLE_DIM_LINETYPE
70
0
0
APPID
5
20A
100
AcDbSymbolTableRecord
100
AcDbRegAppTableRecord
2
ACAD_DSTYLE_DIM_EXT1_LINETYPE
70
0
0
APPID
5
20B
100
AcDbSymbolTableRecord
100
AcDbRegAppTableRecord
2
ACAD_DSTYLE_DIM_EXT2_LINETYPE
70
0
0
APPID
5
246
100
AcDbSymbolTableRecord
100
AcDbRegAppTableRecord
2
ACAD_MLEADERVER
70
0
0
ENDTAB
0
TABLE
2
BLOCK_RECORD
5
266
100
AcDbSymbolTable
0
BLOCK_RECORD
5
1F
100
AcDbSymbolTableRecord
100
AcDbBlockTableRecord
2
*Model_Space
340
0
70
0
0
BLOCK_RECORD
5
1B
100
AcDbSymbolTableRecord
100
AcDbBlockTableRecord
2
*Paper_Space
340
0
70
0
0
BLOCK_RECORD
5
23
100
AcDbSymbolTableRecord
100
AcDbBlockTableRecord
2
*Paper_Space0
340
0
70
0
0
BLOCK_RECORD
5
119
100
AcDbSymbolTableRecord
100
AcDbBlockTableRecord
2
_Closed
340
0
70
0
0
BLOCK_RECORD
5
123
100
AcDbSymbolTableRecord
100
AcDbBlockTableRecord
2
*D2
340
0
70
0
0
BLOCK_RECORD
5
12F
100
AcDbSymbolTableRecord
100
AcDbBlockTableRecord
2
_U0
340
0
70
0
0
BLOCK_RECORD
5
141
100
AcDbSymbolTableRecord
100
AcDbBlockTableRecord
2
*D4
340
0
70
0
0
BLOCK_RECORD
5
150
100
AcDbSymbolTableRecord
100
AcDbBlockTableRecord
2
_U1
340
0
70
0
0
BLOCK_RECORD
5
160
100
AcDbSymbolTableRecord
100
AcDbBlockTableRecord
2
*D6
340
0
70
0
0
BLOCK_RECORD
5
16E
100
AcDbSymbolTableRecord
100
AcDbBlockTableRecord
2
_U2
340
0
70
0
0
BLOCK_RECORD
5
17E
100
AcDbSymbolTableRecord
100
AcDbBlockTableRecord
2
*D8
340
0
70
0
0
BLOCK_RECORD
5
18A
100
AcDbSymbolTableRecord
100
AcDbBlockTableRecord
2
_U3
340
0
70
0
0
BLOCK_RECORD
5
19A
100
AcDbSymbolTableRecord
100
AcDbBlockTableRecord
2
*D10
340
0
70
0
0
BLOCK_RECORD
5
1A6
100
AcDbSymbolTableRecord
100
AcDbBlockTableRecord
2
_U4
340
0
70
0
0
BLOCK_RECORD
5
1B6
100
AcDbSymbolTableRecord
100
AcDbBlockTableRecord
2
*D12
340
0
70
0
0
BLOCK_RECORD
5
1C2
100
AcDbSymbolTableRecord
100
AcDbBlockTableRecord
2
_U5
340
0
70
0
0
BLOCK_RECORD
5
1D2
100
AcDbSymbolTableRecord
100
AcDbBlockTableRecord
2
*D14
340
0
70
0
0
BLOCK_RECORD
5
1DE
100
AcDbSymbolTableRecord
100
AcDbBlockTableRecord
2
_U6
340
0
70
0
0
ENDTAB
0
ENDSEC
0
SECTION
2
BLOCKS
0
BLOCK
5
20
100
AcDbEntity
8
0
100
AcDbBlockBegin
2
*Model_Space
70
0
10
0
20
0
30
0
3
*Model_Space
0
ENDBLK
5
21
100
AcDbEntity
8
0
100
AcDbBlockEnd
0
BLOCK
5
1C
100
AcDbEntity
8
0
100
AcDbBlockBegin
2
*Paper_Space
70
0
10
0
20
0
30
0
3
*Paper_Space
0
ENDBLK
5
1D
100
AcDbEntity
8
0
100
AcDbBlockEnd
0
BLOCK
5
24
100
AcDbEntity
8
0
100
AcDbBlockBegin
2
*Paper_Space0
70
0
10
0
20
0
30
0
3
*Paper_Space0
0
ENDBLK
5
25
100
AcDbEntity
8
0
100
AcDbBlockEnd
0
BLOCK
5
11A
100
AcDbEntity
8
0
100
AcDbBlockBegin
2
_Closed
70
0
10
0
20
0
30
0
3
_Closed
0
LINE
5
11C
100
AcDbEntity
8
0
62
256
6
ByLayer
370
-2
48
1
60
0
100
AcDbLine
10
-1
20
0.166667
30
0
11
0
21
0
31
0
39
0
210
0
220
0
230
1
0
LINE
5
11D
100
AcDbEntity
8
0
62
256
6
ByLayer
370
-2
48
1
60
0
100
AcDbLine
10
0
20
0
30
0
11
-1
21
-0.166667
31
0
39
0
210
0
220
0
230
1
0
LINE
5
11E
100
AcDbEntity
8
0
62
256
6
ByLayer
370
-2
48
1
60
0
100
AcDbLine
10
-1
20
0.166667
30
0
11
-1
21
-0.166667
31
0
39
0
210
0
220
0
230
1
0
LINE
5
11F
100
AcDbEntity
8
0
62
256
6
ByLayer
370
-2
48
1
60
0
100
AcDbLine
10
0
20
0
30
0
11
-1
21
0
31
0
39
0
210
0
220
0
230
1
0
ENDBLK
5
11B
100
AcDbEntity
8
0
100
AcDbBlockEnd
0
BLOCK
5
124
100
AcDbEntity
8
0
100
AcDbBlockBegin
2
*D2
70
1
10
0
20
0
30
0
3
*D2
0
LINE
5
126
100
AcDbEntity
8
0
62
256
6
ByLayer
370
-2
48
1
60
0
100
AcDbLine
10
0
20
-6.5875
30
0
11
0
21
-31.67512
31
0
39
0
210
0
220
0
230
1
0
LINE
5
127
100
AcDbEntity
8
0
62
256
6
ByLayer
370
-2
48
1
60
0
100
AcDbLine
10
63
20
-1.5875
30
0
11
63
21
-31.67512
31
0
39
0
210
0
220
0
230
1
0
LINE
5
128
100
AcDbEntity
8
0
62
256
6
ByLayer
370
-2
48
1
60
0
100
AcDbLine
10
3.175
20
-28.50012
30
0
11
59.825
21
-28.50012
31
0
39
0
210
0
220
0
230
1
0
SOLID
5
129
100
AcDbEntity
8
0
62
256
6
ByLayer
370
-1
48
1
60
0
100
AcDbTrace
10
3.175
20
-27.970953
30
0
11
3.175
21
-29.029287
31
0
12
0
22
-28.50012
32
0
13
0
23
-28.50012
33
0
39
0
210
0
220
0
230
1
0
SOLID
5
12A
100
AcDbEntity
8
0
62
256
6
ByLayer
370
-1
48
1
60
0
100
AcDbTrace
10
59.825
20
-29.029287
30
0
11
59.825
21
-27.970953
31
0
12
63
22
-28.50012
32
0
13
63
23
-28.50012
33
0
39
0
210
0
220
0
230
1
0
MTEXT
5
12B
100
AcDbEntity
8
0
62
256
6
ByLayer
370
18
48
1
60
0
100
AcDbMText
10
31.5
20
-21.193619
30
0
210
0
220
0
230
1
1
\A1;63
40
3.50012
41
0
44
1
50
0
71
5
72
5
7
iso_b_vert
0
POINT
5
12C
100
AcDbEntity
8
Defpoints
62
0
6
ByLayer
370
-1
48
1
60
0
100
AcDbPoint
10
0
20
-5
30
0
39
0
210
0
220
0
230
1
50
360
0
POINT
5
12D
100
AcDbEntity
8
Defpoints
62
0
6
ByLayer
370
-1
48
1
60
0
100
AcDbPoint
10
63
20
0
30
0
39
0
210
0
220
0
230
1
50
360
0
POINT
5
12E
100
AcDbEntity
8
Defpoints
62
0
6
ByLayer
370
-1
48
1
60
0
100
AcDbPoint
10
63
20
-28.50012
30
0
39
0
210
0
220
0
230
1
50
360
0
ENDBLK
5
125
100
AcDbEntity
8
0
100
AcDbBlockEnd
0
BLOCK
5
13C
100
AcDbEntity
8
0
100
AcDbBlockBegin
2
_U0
70
0
10
0
20
0
30
0
3
_U0
0
MTEXT
5
130
100
AcDbEntity
8
SK2
62
256
6
ByLayer
370
18
48
1
60
0
100
AcDbMText
10
26.270389
20
-27.467451
30
0
210
0
220
0
230
1
1
\W0.7468;63.00
40
3.50012
41
0
44
1.084337
50
0
71
7
72
5
7
iso_b_vert
0
MTEXT
5
131
100
AcDbEntity
8
SK2
62
256
6
ByLayer
370
18
48
1
60
0
100
AcDbMText
10
22.744329
20
-27.400814
30
0
210
0
220
0
230
1
1
\W0.1790;(
40
3.175
41
0
44
1.084337
50
0
71
7
72
5
7
iso_b_vert
0
MTEXT
5
132
100
AcDbEntity
8
SK2
62
256
6
ByLayer
370
18
48
1
60
0
100
AcDbMText
10
40.258393
20
-27.400814
30
0
210
0
220
0
230
1
1
\W0.1969;)
40
3.175
41
0
44
1.084337
50
0
71
7
72
5
7
iso_b_vert
0
LINE
5
133
100
AcDbEntity
8
SK2
62
256
6
ByLayer
370
13
48
1
60
0
100
AcDbLine
10
0
20
-6.5875
30
0
11
0
21
-31.67512
31
0
39
0
210
0
220
0
230
1
0
LINE
5
134
100
AcDbEntity
8
SK2
62
256
6
ByLayer
370
13
48
1
60
0
100
AcDbLine
10
63
20
-1.5875
30
0
11
63
21
-31.67512
31
0
39
0
210
0
220
0
230
1
0
LINE
5
135
100
AcDbEntity
8
SK2
62
256
6
ByLayer
370
13
48
1
60
0
100
AcDbLine
10
0
20
-28.50012
30
0
11
63
21
-28.50012
31
0
39
0
210
0
220
0
230
1
0
LINE
5
136
100
AcDbEntity
8
SK2
62
256
6
ByLayer
370
13
48
1
60
0
100
AcDbLine
10
0
20
-28.50012
30
0
11
3.174998
21
-28.082123
31
0
39
0
210
0
220
0
230
1
0
LINE
5
137
100
AcDbEntity
8
SK2
62
256
6
ByLayer
370
13
48
1
60
0
100
AcDbLine
10
0
20
-28.50012
30
0
11
3.175002
21
-28.918117
31
0
39
0
210
0
220
0
230
1
0
LINE
5
138
100
AcDbEntity
8
SK2
62
256
6
ByLayer
370
13
48
1
60
0
100
AcDbLine
10
3.174998
20
-28.082123
30
0
11
3.175002
21
-28.918117
31
0
39
0
210
0
220
0
230
1
0
LINE
5
139
100
AcDbEntity
8
SK2
62
256
6
ByLayer
370
13
48
1
60
0
100
AcDbLine
10
63
20
-28.50012
30
0
11
59.825002
21
-28.918117
31
0
39
0
210
0
220
0
230
1
0
LINE
5
13A
100
AcDbEntity
8
SK2
62
256
6
ByLayer
370
13
48
1
60
0
100
AcDbLine
10
63
20
-28.50012
30
0
11
59.824998
21
-28.082123
31
0
39
0
210
0
220
0
230
1
0
LINE
5
13B
100
AcDbEntity
8
SK2
62
256
6
ByLayer
370
13
48
1
60
0
100
AcDbLine
10
59.825002
20
-28.918117
30
0
11
59.824998
21
-28.082123
31
0
39
0
210
0
220
0
230
1
0
ENDBLK
5
13D
100
AcDbEntity
8
0
100
AcDbBlockEnd
0
BLOCK
5
142
100
AcDbEntity
8
0
100
AcDbBlockBegin
2
*D4
70
1
10
0
20
0
30
0
3
*D4
0
LINE
5
144
100
AcDbEntity
8
0
62
256
6
ByLayer
370
-2
48
1
60
0
100
AcDbLine
10
63.0406
20
-4.25
30
0
11
72.92506
21
-4.25
31
0
39
0
210
0
220
0
230
1
0
LINE
5
145
100
AcDbEntity
8
0
62
256
6
ByLayer
370
-2
48
1
60
0
100
AcDbLine
10
63.0406
20
4.25
30
0
11
72.92506
21
4.25
31
0
39
0
210
0
220
0
230
1
0
LINE
5
146
100
AcDbEntity
8
0
62
256
6
ByLayer
370
-2
48
1
60
0
100
AcDbLine
10
69.75006
20
4.25
30
0
11
69.75006
21
29.046466
31
0
39
0
210
0
220
0
230
1
0
LINE
5
147
100
AcDbEntity
8
0
62
256
6
ByLayer
370
-2
48
1
60
0
100
AcDbLine
10
69.75006
20
-7.425
30
0
11
69.75006
21
-10.6
31
0
39
0
210
0
220
0
230
1
0
LINE
5
148
100
AcDbEntity
8
0
62
256
6
ByLayer
370
-2
48
1
60
0
100
AcDbLine
10
69.75006
20
7.425
30
0
11
69.75006
21
10.6
31
0
39
0
210
0
220
0
230
1
0
SOLID
5
149
100
AcDbEntity
8
0
62
256
6
ByLayer
370
-1
48
1
60
0
100
AcDbTrace
10
70.279227
20
-7.425
30
0
11
69.220893
21
-7.425
31
0
12
69.75006
22
-4.25
32
0
13
69.75006
23
-4.25
33
0
39
0
210
0
220
0
230
1
0
SOLID
5
14A
100
AcDbEntity
8
0
62
256
6
ByLayer
370
-1
48
1
60
0
100
AcDbTrace
10
69.220893
20
7.425
30
0
11
70.279227
21
7.425
31
0
12
69.75006
22
4.25
32
0
13
69.75006
23
4.25
33
0
39
0
210
0
220
0
230
1
0
MTEXT
5
14B
100
AcDbEntity
8
0
62
256
6
ByLayer
370
18
48
1
60
0
100
AcDbMText
10
62.44356
20
19.823233
30
0
210
0
220
0
230
1
1
\A1;8.5
40
3.50012
41
0
44
1
50
90
71
5
72
5
7
iso_b_vert
0
POINT
5
14C
100
AcDbEntity
8
Defpoints
62
0
6
ByLayer
370
-1
48
1
60
0
100
AcDbPoint
10
61.4531
20
-4.25
30
0
39
0
210
0
220
0
230
1
50
360
0
POINT
5
14D
100
AcDbEntity
8
Defpoints
62
0
6
ByLayer
370
-1
48
1
60
0
100
AcDbPoint
10
61.4531
20
4.25
30
0
39
0
210
0
220
0
230
1
50
360
0
POINT
5
14E
100
AcDbEntity
8
Defpoints
62
0
6
ByLayer
370
-1
48
1
60
0
100
AcDbPoint
10
69.75006
20
4.25
30
0
39
0
210
0
220
0
230
1
50
360
0
ENDBLK
5
143
100
AcDbEntity
8
0
100
AcDbBlockEnd
0
BLOCK
5
15B
100
AcDbEntity
8
0
100
AcDbBlockBegin
2
_U1
70
0
10
0
20
0
30
0
3
_U1
0
MTEXT
5
151
100
AcDbEntity
8
2
62
256
6
ByLayer
370
18
48
1
60
0
100
AcDbMText
10
69.060403
20
8.407505
30
0
210
0
220
0
230
1
1
\W0.7346;8.50
40
3.50012
41
0
44
1.084337
50
90
71
7
72
5
7
iso_b_vert
0
LINE
5
152
100
AcDbEntity
8
2
62
256
6
ByLayer
370
13
48
1
60
0
100
AcDbLine
10
63.0406
20
-4.25
30
0
11
72.92506
21
-4.25
31
0
39
0
210
0
220
0
230
1
0
LINE
5
153
100
AcDbEntity
8
2
62
256
6
ByLayer
370
13
48
1
60
0
100
AcDbLine
10
63.0406
20
4.25
30
0
11
72.92506
21
4.25
31
0
39
0
210
0
220
0
230
1
0
LINE
5
154
100
AcDbEntity
8
2
62
256
6
ByLayer
370
13
48
1
60
0
100
AcDbLine
10
69.75006
20
-4.25
30
0
11
69.75006
21
16.46468
31
0
39
0
210
0
220
0
230
1
0
LINE
5
155
100
AcDbEntity
8
2
62
256
6
ByLayer
370
13
48
1
60
0
100
AcDbLine
10
69.75006
20
-4.25
30
0
11
69.332063
21
-1.075002
31
0
39
0
210
0
220
0
230
1
0
LINE
5
156
100
AcDbEntity
8
2
62
256
6
ByLayer
370
13
48
1
60
0
100
AcDbLine
10
69.75006
20
-4.25
30
0
11
70.168057
21
-1.074998
31
0
39
0
210
0
220
0
230
1
0
LINE
5
157
100
AcDbEntity
8
2
62
256
6
ByLayer
370
13
48
1
60
0
100
AcDbLine
10
69.332063
20
-1.075002
30
0
11
70.168057
21
-1.074998
31
0
39
0
210
0
220
0
230
1
0
LINE
5
158
100
AcDbEntity
8
2
62
256
6
ByLayer
370
13
48
1
60
0
100
AcDbLine
10
69.75006
20
4.25
30
0
11
70.168057
21
1.075002
31
0
39
0
210
0
220
0
230
1
0
LINE
5
159
100
AcDbEntity
8
2
62
256
6
ByLayer
370
13
48
1
60
0
100
AcDbLine
10
69.75006
20
4.25
30
0
11
69.332063
21
1.074998
31
0
39
0
210
0
220
0
230
1
0
LINE
5
15A
100
AcDbEntity
8
2
62
256
6
ByLayer
370
13
48
1
60
0
100
AcDbLine
10
70.168057
20
1.075002
30
0
11
69.332063
21
1.074998
31
0
39
0
210
0
220
0
230
1
0
ENDBLK
5
15C
100
AcDbEntity
8
0
100
AcDbBlockEnd
0
BLOCK
5
161
100
AcDbEntity
8
0
100
AcDbBlockBegin
2
*D6
70
1
10
0
20
0
30
0
3
*D6
0
LINE
5
163
100
AcDbEntity
8
0
62
256
6
ByLayer
370
-2
48
1
60
0
100
AcDbLine
10
-41.5875
20
5
30
0
11
-46.42494
21
5
31
0
39
0
210
0
220
0
230
1
0
LINE
5
164
100
AcDbEntity
8
0
62
256
6
ByLayer
370
-2
48
1
60
0
100
AcDbLine
10
-41.5875
20
-5
30
0
11
-46.42494
21
-5
31
0
39
0
210
0
220
0
230
1
0
LINE
5
165
100
AcDbEntity
8
0
62
256
6
ByLayer
370
-2
48
1
60
0
100
AcDbLine
10
-43.24994
20
5
30
0
11
-43.24994
21
28.117532
31
0
39
0
210
0
220
0
230
1
0
LINE
5
166
100
AcDbEntity
8
0
62
256
6
ByLayer
370
-2
48
1
60
0
100
AcDbLine
10
-43.24994
20
8.175
30
0
11
-43.24994
21
11.35
31
0
39
0
210
0
220
0
230
1
0
LINE
5
167
100
AcDbEntity
8
0
62
256
6
ByLayer
370
-2
48
1
60
0
100
AcDbLine
10
-43.24994
20
-8.175
30
0
11
-43.24994
21
-11.35
31
0
39
0
210
0
220
0
230
1
0
SOLID
5
168
100
AcDbEntity
8
0
62
256
6
ByLayer
370
-1
48
1
60
0
100
AcDbTrace
10
-43.779107
20
8.175
30
0
11
-42.720773
21
8.175
31
0
12
-43.24994
22
5
32
0
13
-43.24994
23
5
33
0
39
0
210
0
220
0
230
1
0
SOLID
5
169
100
AcDbEntity
8
0
62
256
6
ByLayer
370
-1
48
1
60
0
100
AcDbTrace
10
-42.720773
20
-8.175
30
0
11
-43.779107
21
-8.175
31
0
12
-43.24994
22
-5
32
0
13
-43.24994
23
-5
33
0
39
0
210
0
220
0
230
1
0
MTEXT
5
16A
100
AcDbEntity
8
0
62
256
6
ByLayer
370
18
48
1
60
0
100
AcDbMText
10
-50.556441
20
19.97767
30
0
210
0
220
0
230
1
1
\A1;10
40
3.50012
41
0
44
1
50
90
71
5
72
5
7
iso_b_vert
0
POINT
5
16B
100
AcDbEntity
8
Defpoints
62
0
6
ByLayer
370
-1
48
1
60
0
100
AcDbPoint
10
-40
20
5
30
0
39
0
210
0
220
0
230
1
50
360
0
POINT
5
16C
100
AcDbEntity
8
Defpoints
62
0
6
ByLayer
370
-1
48
1
60
0
100
AcDbPoint
10
-40
20
-5
30
0
39
0
210
0
220
0
230
1
50
360
0
POINT
5
16D
100
AcDbEntity
8
Defpoints
62
0
6
ByLayer
370
-1
48
1
60
0
100
AcDbPoint
10
-43.24994
20
-5
30
0
39
0
210
0
220
0
230
1
50
360
0
ENDBLK
5
162
100
AcDbEntity
8
0
100
AcDbBlockEnd
0
BLOCK
5
179
100
AcDbEntity
8
0
100
AcDbBlockBegin
2
_U2
70
0
10
0
20
0
30
0
3
_U2
0
MTEXT
5
16F
100
AcDbEntity
8
SK2
62
256
6
ByLayer
370
18
48
1
60
0
100
AcDbMText
10
-43.939597
20
15.157505
30
0
210
0
220
0
230
1
1
\W0.6864;10.00
40
3.50012
41
0
44
1.084337
50
90
71
7
72
5
7
iso_b_vert
0
LINE
5
170
100
AcDbEntity
8
SK2
62
256
6
ByLayer
370
13
48
1
60
0
100
AcDbLine
10
-41.5875
20
5
30
0
11
-46.42494
21
5
31
0
39
0
210
0
220
0
230
1
0
LINE
5
171
100
AcDbEntity
8
SK2
62
256
6
ByLayer
370
13
48
1
60
0
100
AcDbLine
10
-41.5875
20
-5
30
0
11
-46.42494
21
-5
31
0
39
0
210
0
220
0
230
1
0
LINE
5
172
100
AcDbEntity
8
SK2
62
256
6
ByLayer
370
13
48
1
60
0
100
AcDbLine
10
-43.24994
20
-5
30
0
11
-43.24994
21
24.955339
31
0
39
0
210
0
220
0
230
1
0
LINE
5
173
100
AcDbEntity
8
SK2
62
256
6
ByLayer
370
13
48
1
60
0
100
AcDbLine
10
-43.24994
20
5
30
0
11
-42.831943
21
1.825002
31
0
39
0
210
0
220
0
230
1
0
LINE
5
174
100
AcDbEntity
8
SK2
62
256
6
ByLayer
370
13
48
1
60
0
100
AcDbLine
10
-43.24994
20
5
30
0
11
-43.667937
21
1.824998
31
0
39
0
210
0
220
0
230
1
0
LINE
5
175
100
AcDbEntity
8
SK2
62
256
6
ByLayer
370
13
48
1
60
0
100
AcDbLine
10
-42.831943
20
1.825002
30
0
11
-43.667937
21
1.824998
31
0
39
0
210
0
220
0
230
1
0
LINE
5
176
100
AcDbEntity
8
SK2
62
256
6
ByLayer
370
13
48
1
60
0
100
AcDbLine
10
-43.24994
20
-5
30
0
11
-43.667937
21
-1.825002
31
0
39
0
210
0
220
0
230
1
0
LINE
5
177
100
AcDbEntity
8
SK2
62
256
6
ByLayer
370
13
48
1
60
0
100
AcDbLine
10
-43.24994
20
-5
30
0
11
-42.831943
21
-1.824998
31
0
39
0
210
0
220
0
230
1
0
LINE
5
178
100
AcDbEntity
8
SK2
62
256
6
ByLayer
370
13
48
1
60
0
100
AcDbLine
10
-43.667937
20
-1.825002
30
0
11
-42.831943
21
-1.824998
31
0
39
0
210
0
220
0
230
1
0
ENDBLK
5
17A
100
AcDbEntity
8
0
100
AcDbBlockEnd
0
BLOCK
5
17F
100
AcDbEntity
8
0
100
AcDbBlockBegin
2
*D8
70
1
10
0
20
0
30
0
3
*D8
0
LINE
5
181
100
AcDbEntity
8
0
62
256
6
ByLayer
370
-2
48
1
60
0
100
AcDbLine
10
-40
20
-6.5875
30
0
11
-40
21
-31.67512
31
0
39
0
210
0
220
0
230
1
0
LINE
5
182
100
AcDbEntity
8
0
62
256
6
ByLayer
370
-2
48
1
60
0
100
AcDbLine
10
0
20
-6.5875
30
0
11
0
21
-31.67512
31
0
39
0
210
0
220
0
230
1
0
LINE
5
183
100
AcDbEntity
8
0
62
256
6
ByLayer
370
-2
48
1
60
0
100
AcDbLine
10
-36.825
20
-28.50012
30
0
11
-3.175
21
-28.50012
31
0
39
0
210
0
220
0
230
1
0
SOLID
5
184
100
AcDbEntity
8
0
62
256
6
ByLayer
370
-1
48
1
60
0
100
AcDbTrace
10
-36.825
20
-27.970953
30
0
11
-36.825
21
-29.029287
31
0
12
-40
22
-28.50012
32
0
13
-40
23
-28.50012
33
0
39
0
210
0
220
0
230
1
0
SOLID
5
185
100
AcDbEntity
8
0
62
256
6
ByLayer
370
-1
48
1
60
0
100
AcDbTrace
10
-3.175
20
-29.029287
30
0
11
-3.175
21
-27.970953
31
0
12
0
22
-28.50012
32
0
13
0
23
-28.50012
33
0
39
0
210
0
220
0
230
1
0
MTEXT
5
186
100
AcDbEntity
8
0
62
256
6
ByLayer
370
18
48
1
60
0
100
AcDbMText
10
-20
20
-21.193619
30
0
210
0
220
0
230
1
1
\A1;40
40
3.50012
41
0
44
1
50
0
71
5
72
5
7
iso_b_vert
0
POINT
5
187
100
AcDbEntity
8
Defpoints
62
0
6
ByLayer
370
-1
48
1
60
0
100
AcDbPoint
10
-40
20
-5
30
0
39
0
210
0
220
0
230
1
50
360
0
POINT
5
188
100
AcDbEntity
8
Defpoints
62
0
6
ByLayer
370
-1
48
1
60
0
100
AcDbPoint
10
0
20
-5
30
0
39
0
210
0
220
0
230
1
50
360
0
POINT
5
189
100
AcDbEntity
8
Defpoints
62
0
6
ByLayer
370
-1
48
1
60
0
100
AcDbPoint
10
0
20
-28.50012
30
0
39
0
210
0
220
0
230
1
50
360
0
ENDBLK
5
180
100
AcDbEntity
8
0
100
AcDbBlockEnd
0
BLOCK
5
195
100
AcDbEntity
8
0
100
AcDbBlockBegin
2
_U3
70
0
10
0
20
0
30
0
3
_U3
0
MTEXT
5
18B
100
AcDbEntity
8
SK2
62
256
6
ByLayer
370
18
48
1
60
0
100
AcDbMText
10
-25.413884
20
-27.467451
30
0
210
0
220
0
230
1
1
\W0.7694;40.00
40
3.50012
41
0
44
1.084337
50
0
71
7
72
5
7
iso_b_vert
0
LINE
5
18C
100
AcDbEntity
8
SK2
62
256
6
ByLayer
370
13
48
1
60
0
100
AcDbLine
10
-40
20
-6.5875
30
0
11
-40
21
-31.67512
31
0
39
0
210
0
220
0
230
1
0
LINE
5
18D
100
AcDbEntity
8
SK2
62
256
6
ByLayer
370
13
48
1
60
0
100
AcDbLine
10
0
20
-6.5875
30
0
11
0
21
-31.67512
31
0
39
0
210
0
220
0
230
1
0
LINE
5
18E
100
AcDbEntity
8
SK2
62
256
6
ByLayer
370
13
48
1
60
0
100
AcDbLine
10
-40
20
-28.50012
30
0
11
0
21
-28.50012
31
0
39
0
210
0
220
0
230
1
0
LINE
5
18F
100
AcDbEntity
8
SK2
62
256
6
ByLayer
370
13
48
1
60
0
100
AcDbLine
10
-40
20
-28.50012
30
0
11
-36.825002
21
-28.082123
31
0
39
0
210
0
220
0
230
1
0
LINE
5
190
100
AcDbEntity
8
SK2
62
256
6
ByLayer
370
13
48
1
60
0
100
AcDbLine
10
-40
20
-28.50012
30
0
11
-36.824998
21
-28.918117
31
0
39
0
210
0
220
0
230
1
0
LINE
5
191
100
AcDbEntity
8
SK2
62
256
6
ByLayer
370
13
48
1
60
0
100
AcDbLine
10
-36.825002
20
-28.082123
30
0
11
-36.824998
21
-28.918117
31
0
39
0
210
0
220
0
230
1
0
LINE
5
192
100
AcDbEntity
8
SK2
62
256
6
ByLayer
370
13
48
1
60
0
100
AcDbLine
10
0
20
-28.50012
30
0
11
-3.174998
21
-28.918117
31
0
39
0
210
0
220
0
230
1
0
LINE
5
193
100
AcDbEntity
8
SK2
62
256
6
ByLayer
370
13
48
1
60
0
100
AcDbLine
10
0
20
-28.50012
30
0
11
-3.175002
21
-28.082123
31
0
39
0
210
0
220
0
230
1
0
LINE
5
194
100
AcDbEntity
8
SK2
62
256
6
ByLayer
370
13
48
1
60
0
100
AcDbLine
10
-3.174998
20
-28.918117
30
0
11
-3.175002
21
-28.082123
31
0
39
0
210
0
220
0
230
1
0
ENDBLK
5
196
100
AcDbEntity
8
0
100
AcDbBlockEnd
0
BLOCK
5
19B
100
AcDbEntity
8
0
100
AcDbBlockBegin
2
*D10
70
1
10
0
20
0
30
0
3
*D10
0
LINE
5
19D
100
AcDbEntity
8
0
62
256
6
ByLayer
370
-2
48
1
60
0
100
AcDbLine
10
2
20
3.1625
30
0
11
2
21
-22.92482
31
0
39
0
210
0
220
0
230
1
0
LINE
5
19E
100
AcDbEntity
8
0
62
256
6
ByLayer
370
-2
48
1
60
0
100
AcDbLine
10
63
20
-1.5875
30
0
11
63
21
-22.92482
31
0
39
0
210
0
220
0
230
1
0
LINE
5
19F
100
AcDbEntity
8
0
62
256
6
ByLayer
370
-2
48
1
60
0
100
AcDbLine
10
5.175
20
-19.74982
30
0
11
59.825
21
-19.74982
31
0
39
0
210
0
220
0
230
1
0
SOLID
5
1A0
100
AcDbEntity
8
0
62
256
6
ByLayer
370
-1
48
1
60
0
100
AcDbTrace
10
5.175
20
-19.220653
30
0
11
5.175
21
-20.278987
31
0
12
2
22
-19.74982
32
0
13
2
23
-19.74982
33
0
39
0
210
0
220
0
230
1
0
SOLID
5
1A1
100
AcDbEntity
8
0
62
256
6
ByLayer
370
-1
48
1
60
0
100
AcDbTrace
10
59.825
20
-20.278987
30
0
11
59.825
21
-19.220653
31
0
12
63
22
-19.74982
32
0
13
63
23
-19.74982
33
0
39
0
210
0
220
0
230
1
0
MTEXT
5
1A2
100
AcDbEntity
8
0
62
256
6
ByLayer
370
18
48
1
60
0
100
AcDbMText
10
32.5
20
-12.443319
30
0
210
0
220
0
230
1
1
\A1;61
40
3.50012
41
0
44
1
50
0
71
5
72
5
7
iso_b_vert
0
POINT
5
1A3
100
AcDbEntity
8
Defpoints
62
0
6
ByLayer
370
-1
48
1
60
0
100
AcDbPoint
10
2
20
4.75
30
0
39
0
210
0
220
0
230
1
50
360
0
POINT
5
1A4
100
AcDbEntity
8
Defpoints
62
0
6
ByLayer
370
-1
48
1
60
0
100
AcDbPoint
10
63
20
0
30
0
39
0
210
0
220
0
230
1
50
360
0
POINT
5
1A5
100
AcDbEntity
8
Defpoints
62
0
6
ByLayer
370
-1
48
1
60
0
100
AcDbPoint
10
63
20
-19.74982
30
0
39
0
210
0
220
0
230
1
50
360
0
ENDBLK
5
19C
100
AcDbEntity
8
0
100
AcDbBlockEnd
0
BLOCK
5
1B1
100
AcDbEntity
8
0
100
AcDbBlockBegin
2
_U4
70
0
10
0
20
0
30
0
3
_U4
0
MTEXT
5
1A7
100
AcDbEntity
8
SK2
62
256
6
ByLayer
370
18
48
1
60
0
100
AcDbMText
10
27.707837
20
-18.717151
30
0
210
0
220
0
230
1
1
\W0.6864;61.00
40
3.50012
41
0
44
1.084337
50
0
71
7
72
5
7
iso_b_vert
0
LINE
5
1A8
100
AcDbEntity
8
SK2
62
256
6
ByLayer
370
13
48
1
60
0
100
AcDbLine
10
2
20
3.1625
30
0
11
2
21
-22.92482
31
0
39
0
210
0
220
0
230
1
0
LINE
5
1A9
100
AcDbEntity
8
SK2
62
256
6
ByLayer
370
13
48
1
60
0
100
AcDbLine
10
63
20
-1.5875
30
0
11
63
21
-22.92482
31
0
39
0
210
0
220
0
230
1
0
LINE
5
1AA
100
AcDbEntity
8
SK2
62
256
6
ByLayer
370
13
48
1
60
0
100
AcDbLine
10
2
20
-19.74982
30
0
11
63
21
-19.74982
31
0
39
0
210
0
220
0
230
1
0
LINE
5
1AB
100
AcDbEntity
8
SK2
62
256
6
ByLayer
370
13
48
1
60
0
100
AcDbLine
10
2
20
-19.74982
30
0
11
5.174998
21
-19.331823
31
0
39
0
210
0
220
0
230
1
0
LINE
5
1AC
100
AcDbEntity
8
SK2
62
256
6
ByLayer
370
13
48
1
60
0
100
AcDbLine
10
2
20
-19.74982
30
0
11
5.175002
21
-20.167817
31
0
39
0
210
0
220
0
230
1
0
LINE
5
1AD
100
AcDbEntity
8
SK2
62
256
6
ByLayer
370
13
48
1
60
0
100
AcDbLine
10
5.174998
20
-19.331823
30
0
11
5.175002
21
-20.167817
31
0
39
0
210
0
220
0
230
1
0
LINE
5
1AE
100
AcDbEntity
8
SK2
62
256
6
ByLayer
370
13
48
1
60
0
100
AcDbLine
10
63
20
-19.74982
30
0
11
59.825002
21
-20.167817
31
0
39
0
210
0
220
0
230
1
0
LINE
5
1AF
100
AcDbEntity
8
SK2
62
256
6
ByLayer
370
13
48
1
60
0
100
AcDbLine
10
63
20
-19.74982
30
0
11
59.824998
21
-19.331823
31
0
39
0
210
0
220
0
230
1
0
LINE
5
1B0
100
AcDbEntity
8
SK2
62
256
6
ByLayer
370
13
48
1
60
0
100
AcDbLine
10
59.825002
20
-20.167817
30
0
11
59.824998
21
-19.331823
31
0
39
0
210
0
220
0
230
1
0
ENDBLK
5
1B2
100
AcDbEntity
8
0
100
AcDbBlockEnd
0
BLOCK
5
1B7
100
AcDbEntity
8
0
100
AcDbBlockBegin
2
*D12
70
1
10
0
20
0
30
0
3
*D12
0
LINE
5
1B9
100
AcDbEntity
8
0
62
256
6
ByLayer
370
-2
48
1
60
0
100
AcDbLine
10
19
20
-5.8375
30
0
11
19
21
-12.32
31
0
39
0
210
0
220
0
230
1
0
LINE
5
1BA
100
AcDbEntity
8
0
62
256
6
ByLayer
370
-2
48
1
60
0
100
AcDbLine
10
63
20
-1.5875
30
0
11
63
21
-12.32
31
0
39
0
210
0
220
0
230
1
0
LINE
5
1BB
100
AcDbEntity
8
0
62
256
6
ByLayer
370
-2
48
1
60
0
100
AcDbLine
10
22.175
20
-11.82
30
0
11
59.825
21
-11.82
31
0
39
0
210
0
220
0
230
1
0
SOLID
5
1BC
100
AcDbEntity
8
0
62
256
6
ByLayer
370
-1
48
1
60
0
100
AcDbTrace
10
22.175
20
-11.290833
30
0
11
22.175
21
-12.349167
31
0
12
19
22
-11.82
32
0
13
19
23
-11.82
33
0
39
0
210
0
220
0
230
1
0
SOLID
5
1BD
100
AcDbEntity
8
0
62
256
6
ByLayer
370
-1
48
1
60
0
100
AcDbTrace
10
59.825
20
-12.349167
30
0
11
59.825
21
-11.290833
31
0
12
63
22
-11.82
32
0
13
63
23
-11.82
33
0
39
0
210
0
220
0
230
1
0
MTEXT
5
1BE
100
AcDbEntity
8
0
62
256
6
ByLayer
370
18
48
1
60
0
100
AcDbMText
10
41
20
-5.975
30
0
210
0
220
0
230
1
1
\A1;44
40
2.8
41
0
44
1
50
0
71
5
72
5
7
iso_b_vert
0
POINT
5
1BF
100
AcDbEntity
8
Defpoints
62
0
6
ByLayer
370
-1
48
1
60
0
100
AcDbPoint
10
19
20
-4.25
30
0
39
0
210
0
220
0
230
1
50
360
0
POINT
5
1C0
100
AcDbEntity
8
Defpoints
62
0
6
ByLayer
370
-1
48
1
60
0
100
AcDbPoint
10
63
20
0
30
0
39
0
210
0
220
0
230
1
50
360
0
POINT
5
1C1
100
AcDbEntity
8
Defpoints
62
0
6
ByLayer
370
-1
48
1
60
0
100
AcDbPoint
10
63
20
-11.82
30
0
39
0
210
0
220
0
230
1
50
360
0
ENDBLK
5
1B8
100
AcDbEntity
8
0
100
AcDbBlockEnd
0
BLOCK
5
1CD
100
AcDbEntity
8
0
100
AcDbBlockBegin
2
_U5
70
0
10
0
20
0
30
0
3
_U5
0
MTEXT
5
1C3
100
AcDbEntity
8
SK2
62
256
6
ByLayer
370
18
48
1
60
0
100
AcDbMText
10
36.521628
20
-11.973893
30
0
210
0
220
0
230
1
1
\W0.7958;44.00
40
2.8
41
0
44
1.084337
50
0
71
7
72
5
7
iso_b_vert
0
LINE
5
1C4
100
AcDbEntity
8
SK2
62
256
6
ByLayer
370
13
48
1
60
0
100
AcDbLine
10
19
20
-5.8375
30
0
11
19
21
-12.32
31
0
39
0
210
0
220
0
230
1
0
LINE
5
1C5
100
AcDbEntity
8
SK2
62
256
6
ByLayer
370
13
48
1
60
0
100
AcDbLine
10
63
20
-1.5875
30
0
11
63
21
-12.32
31
0
39
0
210
0
220
0
230
1
0
LINE
5
1C6
100
AcDbEntity
8
SK2
62
256
6
ByLayer
370
13
48
1
60
0
100
AcDbLine
10
19
20
-11.82
30
0
11
63
21
-11.82
31
0
39
0
210
0
220
0
230
1
0
LINE
5
1C7
100
AcDbEntity
8
SK2
62
256
6
ByLayer
370
13
48
1
60
0
100
AcDbLine
10
19
20
-11.82
30
0
11
22.174998
21
-11.402003
31
0
39
0
210
0
220
0
230
1
0
LINE
5
1C8
100
AcDbEntity
8
SK2
62
256
6
ByLayer
370
13
48
1
60
0
100
AcDbLine
10
19
20
-11.82
30
0
11
22.175002
21
-12.237997
31
0
39
0
210
0
220
0
230
1
0
LINE
5
1C9
100
AcDbEntity
8
SK2
62
256
6
ByLayer
370
13
48
1
60
0
100
AcDbLine
10
22.174998
20
-11.402003
30
0
11
22.175002
21
-12.237997
31
0
39
0
210
0
220
0
230
1
0
LINE
5
1CA
100
AcDbEntity
8
SK2
62
256
6
ByLayer
370
13
48
1
60
0
100
AcDbLine
10
63
20
-11.82
30
0
11
59.825002
21
-12.237997
31
0
39
0
210
0
220
0
230
1
0
LINE
5
1CB
100
AcDbEntity
8
SK2
62
256
6
ByLayer
370
13
48
1
60
0
100
AcDbLine
10
63
20
-11.82
30
0
11
59.824998
21
-11.402003
31
0
39
0
210
0
220
0
230
1
0
LINE
5
1CC
100
AcDbEntity
8
SK2
62
256
6
ByLayer
370
13
48
1
60
0
100
AcDbLine
10
59.825002
20
-12.237997
30
0
11
59.824998
21
-11.402003
31
0
39
0
210
0
220
0
230
1
0
ENDBLK
5
1CE
100
AcDbEntity
8
0
100
AcDbBlockEnd
0
BLOCK
5
1D3
100
AcDbEntity
8
0
100
AcDbBlockBegin
2
*D14
70
1
10
0
20
0
30
0
3
*D14
0
LINE
5
1D5
100
AcDbEntity
8
0
62
256
6
ByLayer
370
-2
48
1
60
0
100
AcDbLine
10
-40
20
-1.5875
30
0
11
-40
21
-41.67512
31
0
39
0
210
0
220
0
230
1
0
LINE
5
1D6
100
AcDbEntity
8
0
62
256
6
ByLayer
370
-2
48
1
60
0
100
AcDbLine
10
63
20
-1.5875
30
0
11
63
21
-41.67512
31
0
39
0
210
0
220
0
230
1
0
LINE
5
1D7
100
AcDbEntity
8
0
62
256
6
ByLayer
370
-2
48
1
60
0
100
AcDbLine
10
-36.825
20
-38.50012
30
0
11
59.825
21
-38.50012
31
0
39
0
210
0
220
0
230
1
0
SOLID
5
1D8
100
AcDbEntity
8
0
62
256
6
ByLayer
370
-1
48
1
60
0
100
AcDbTrace
10
-36.825
20
-37.970953
30
0
11
-36.825
21
-39.029287
31
0
12
-40
22
-38.50012
32
0
13
-40
23
-38.50012
33
0
39
0
210
0
220
0
230
1
0
SOLID
5
1D9
100
AcDbEntity
8
0
62
256
6
ByLayer
370
-1
48
1
60
0
100
AcDbTrace
10
59.825
20
-39.029287
30
0
11
59.825
21
-37.970953
31
0
12
63
22
-38.50012
32
0
13
63
23
-38.50012
33
0
39
0
210
0
220
0
230
1
0
MTEXT
5
1DA
100
AcDbEntity
8
0
62
256
6
ByLayer
370
18
48
1
60
0
100
AcDbMText
10
11.5
20
-31.193619
30
0
210
0
220
0
230
1
1
\A1;103
40
3.50012
41
0
44
1
50
0
71
5
72
5
7
iso_b_vert
0
POINT
5
1DB
100
AcDbEntity
8
Defpoints
62
0
6
ByLayer
370
-1
48
1
60
0
100
AcDbPoint
10
-40
20
0
30
0
39
0
210
0
220
0
230
1
50
360
0
POINT
5
1DC
100
AcDbEntity
8
Defpoints
62
0
6
ByLayer
370
-1
48
1
60
0
100
AcDbPoint
10
63
20
0
30
0
39
0
210
0
220
0
230
1
50
360
0
POINT
5
1DD
100
AcDbEntity
8
Defpoints
62
0
6
ByLayer
370
-1
48
1
60
0
100
AcDbPoint
10
63
20
-38.50012
30
0
39
0
210
0
220
0
230
1
50
360
0
ENDBLK
5
1D4
100
AcDbEntity
8
0
100
AcDbBlockEnd
0
BLOCK
5
1E9
100
AcDbEntity
8
0
100
AcDbBlockBegin
2
_U6
70
0
10
0
20
0
30
0
3
_U6
0
MTEXT
5
1DF
100
AcDbEntity
8
SK2
62
256
6
ByLayer
370
18
48
1
60
0
100
AcDbMText
10
5.400059
20
-37.467451
30
0
210
0
220
0
230
1
1
\W0.7022;103.00
40
3.50012
41
0
44
1.084337
50
0
71
7
72
5
7
iso_b_vert
0
LINE
5
1E0
100
AcDbEntity
8
SK2
62
256
6
ByLayer
370
13
48
1
60
0
100
AcDbLine
10
-40
20
-1.5875
30
0
11
-40
21
-41.67512
31
0
39
0
210
0
220
0
230
1
0
LINE
5
1E1
100
AcDbEntity
8
SK2
62
256
6
ByLayer
370
13
48
1
60
0
100
AcDbLine
10
63
20
-1.5875
30
0
11
63
21
-41.67512
31
0
39
0
210
0
220
0
230
1
0
LINE
5
1E2
100
AcDbEntity
8
SK2
62
256
6
ByLayer
370
13
48
1
60
0
100
AcDbLine
10
-40
20
-38.50012
30
0
11
63
21
-38.50012
31
0
39
0
210
0
220
0
230
1
0
LINE
5
1E3
100
AcDbEntity
8
SK2
62
256
6
ByLayer
370
13
48
1
60
0
100
AcDbLine
10
-40
20
-38.50012
30
0
11
-36.825002
21
-38.082123
31
0
39
0
210
0
220
0
230
1
0
LINE
5
1E4
100
AcDbEntity
8
SK2
62
256
6
ByLayer
370
13
48
1
60
0
100
AcDbLine
10
-40
20
-38.50012
30
0
11
-36.824998
21
-38.918117
31
0
39
0
210
0
220
0
230
1
0
LINE
5
1E5
100
AcDbEntity
8
SK2
62
256
6
ByLayer
370
13
48
1
60
0
100
AcDbLine
10
-36.825002
20
-38.082123
30
0
11
-36.824998
21
-38.918117
31
0
39
0
210
0
220
0
230
1
0
LINE
5
1E6
100
AcDbEntity
8
SK2
62
256
6
ByLayer
370
13
48
1
60
0
100
AcDbLine
10
63
20
-38.50012
30
0
11
59.825002
21
-38.918117
31
0
39
0
210
0
220
0
230
1
0
LINE
5
1E7
100
AcDbEntity
8
SK2
62
256
6
ByLayer
370
13
48
1
60
0
100
AcDbLine
10
63
20
-38.50012
30
0
11
59.824998
21
-38.082123
31
0
39
0
210
0
220
0
230
1
0
LINE
5
1E8
100
AcDbEntity
8
SK2
62
256
6
ByLayer
370
13
48
1
60
0
100
AcDbLine
10
59.825002
20
-38.918117
30
0
11
59.824998
21
-38.082123
31
0
39
0
210
0
220
0
230
1
0
ENDBLK
5
1EA
100
AcDbEntity
8
0
100
AcDbBlockEnd
0
ENDSEC
0
SECTION
2
ENTITIES
0
ARC
5
B3
100
AcDbEntity
8
1
62
256
6
ByLayer
370
18
48
1
60
0
100
AcDbCircle
39
0
10
1.378376
20
5.012452
30
0
40
0.799999999999997
210
0
220
0
230
1
100
AcDbArc
50
210.516252
51
270.03581
0
ARC
5
B4
100
AcDbEntity
8
1
62
256
6
ByLayer
370
18
48
1
60
0
100
AcDbCircle
39
0
10
1.378376
20
-5.012452
30
0
40
0.799999999999997
210
0
220
0
230
1
100
AcDbArc
50
89.96419
51
149.483748
0
ARC
5
B5
100
AcDbEntity
8
1
62
256
6
ByLayer
370
18
48
1
60
0
100
AcDbCircle
39
0
10
0
20
4.2
30
0
40
0.800000000000004
210
0
220
0
230
1
100
AcDbArc
50
30.516252
51
90
0
ARC
5
B6
100
AcDbEntity
8
1
62
256
6
ByLayer
370
18
48
1
60
0
100
AcDbCircle
39
0
10
0
20
-4.2
30
0
40
0.800000000000004
210
0
220
0
230
1
100
AcDbArc
50
270
51
329.483748
0
ARC
5
B7
100
AcDbEntity
8
SK2
62
256
6
ByLayer
370
13
48
1
60
0
100
AcDbCircle
39
0
10
63
20
0
30
0
40
20
210
0
220
0
230
1
100
AcDbArc
50
9.606349
51
69.999684
0
ARC
5
B8
100
AcDbEntity
8
SK2
62
256
6
ByLayer
370
13
48
1
60
0
100
AcDbCircle
39
0
10
63
20
0
30
0
40
20
210
0
220
0
230
1
100
AcDbArc
50
290.000316
51
350.393651
0
ELLIPSE
5
B9
100
AcDbEntity
8
1
62
256
6
ByLayer
370
18
48
1
60
0
100
AcDbEllipse
10
3.640015
20
1.251311
30
0
11
-0.004062482046131
21
-0.00913762768035902
31
0
210
0
220
0
230
1
40
0.138656
41
1.2848528961286
42
2.85059350754627
0
ELLIPSE
5
BA
100
AcDbEntity
8
1
62
256
6
ByLayer
370
18
48
1
60
0
100
AcDbEllipse
10
3.602365
20
1.259351
30
0
11
4.5664794252699E-05
21
0.00999989573578474
31
0
210
0
220
0
230
1
40
0.009077
41
-1.88997763777368
42
-0.31939003752809
0
ELLIPSE
5
BB
100
AcDbEntity
8
1
62
256
6
ByLayer
370
18
48
1
60
0
100
AcDbEllipse
10
3.563827
20
-3.444282
30
0
11
-0.00157035328100815
21
0.00987592985864252
31
0
210
0
220
0
230
1
40
0.531951
41
0.584975565370597
42
1.97569523356196
0
ELLIPSE
5
BC
100
AcDbEntity
8
1
62
256
6
ByLayer
370
18
48
1
60
0
100
AcDbEllipse
10
3.601857
20
-3.446151
30
0
11
-0.00231831944144589
21
-0.00972755853065989
31
0
210
0
220
0
230
1
40
0.360354
41
-2.5609346022754
42
-0.991616963578138
0
POINT
5
70
100
AcDbEntity
8
80
62
256
6
ByLayer
370
18
48
1
60
0
100
AcDbPoint
10
0
20
0
30
0
39
0
210
0
220
0
230
1
50
360
0
POINT
5
72
100
AcDbEntity
8
81
62
256
6
ByLayer
370
18
48
1
60
0
100
AcDbPoint
10
63
20
0
30
0
39
0
210
0
220
0
230
1
50
360
0
POINT
5
74
100
AcDbEntity
8
1
62
256
6
ByLayer
370
18
48
1
60
0
100
AcDbPoint
10
-40
20
0
30
0
39
0
210
0
220
0
230
1
50
360
0
POINT
5
76
100
AcDbEntity
8
1
62
256
6
ByLayer
370
18
48
1
60
1
100
AcDbPoint
10
0
20
-5
30
0
39
0
210
0
220
0
230
1
50
360
0
POINT
5
77
100
AcDbEntity
8
1
62
256
6
ByLayer
370
18
48
1
60
1
100
AcDbPoint
10
63
20
0
30
0
39
0
210
0
220
0
230
1
50
360
0
POINT
5
78
100
AcDbEntity
8
1
62
256
6
ByLayer
370
18
48
1
60
1
100
AcDbPoint
10
61.4531
20
-4.25
30
0
39
0
210
0
220
0
230
1
50
360
0
POINT
5
79
100
AcDbEntity
8
1
62
256
6
ByLayer
370
18
48
1
60
1
100
AcDbPoint
10
61.4531
20
4.25
30
0
39
0
210
0
220
0
230
1
50
360
0
POINT
5
7A
100
AcDbEntity
8
1
62
256
6
ByLayer
370
18
48
1
60
1
100
AcDbPoint
10
-40
20
5
30
0
39
0
210
0
220
0
230
1
50
360
0
POINT
5
7B
100
AcDbEntity
8
1
62
256
6
ByLayer
370
18
48
1
60
1
100
AcDbPoint
10
-40
20
-5
30
0
39
0
210
0
220
0
230
1
50
360
0
POINT
5
7C
100
AcDbEntity
8
1
62
256
6
ByLayer
370
18
48
1
60
1
100
AcDbPoint
10
-40
20
-5
30
0
39
0
210
0
220
0
230
1
50
360
0
POINT
5
7D
100
AcDbEntity
8
1
62
256
6
ByLayer
370
18
48
1
60
1
100
AcDbPoint
10
0
20
-5
30
0
39
0
210
0
220
0
230
1
50
360
0
POINT
5
7E
100
AcDbEntity
8
1
62
256
6
ByLayer
370
18
48
1
60
1
100
AcDbPoint
10
2
20
4.75
30
0
39
0
210
0
220
0
230
1
50
360
0
POINT
5
7F
100
AcDbEntity
8
1
62
256
6
ByLayer
370
18
48
1
60
1
100
AcDbPoint
10
63
20
0
30
0
39
0
210
0
220
0
230
1
50
360
0
POINT
5
80
100
AcDbEntity
8
1
62
256
6
ByLayer
370
18
48
1
60
1
100
AcDbPoint
10
19
20
-4.25
30
0
39
0
210
0
220
0
230
1
50
360
0
POINT
5
81
100
AcDbEntity
8
1
62
256
6
ByLayer
370
18
48
1
60
1
100
AcDbPoint
10
63
20
0
30
0
39
0
210
0
220
0
230
1
50
360
0
POINT
5
82
100
AcDbEntity
8
1
62
256
6
ByLayer
370
18
48
1
60
1
100
AcDbPoint
10
-40
20
0
30
0
39
0
210
0
220
0
230
1
50
360
0
POINT
5
83
100
AcDbEntity
8
1
62
256
6
ByLayer
370
18
48
1
60
1
100
AcDbPoint
10
63
20
0
30
0
39
0
210
0
220
0
230
1
50
360
0
SPLINE
5
BD
100
AcDbEntity
8
SK1
62
256
6
ByLayer
370
18
48
1
60
0
100
AcDbSpline
70
4
71
3
72
12
73
8
40
0
40
0
40
0
40
0
40
0.5
40
0.5
40
0.75
40
0.75
40
1
40
1
40
1
40
1
41
1
10
-39.35
20
4.23718004454568
30
0
41
1
10
-39.3264103729719
20
4.26140106831105
30
0
41
1
10
-39.3036886178189
20
4.28624432427875
30
0
41
1
10
-39.275599229617
20
4.31931680285123
30
0
41
1
10
-39.2670477807071
20
4.32988250815512
30
0
41
1
10
-39.2542670006876
20
4.34726334939626
30
0
41
1
10
-39.25
20
4.3541867440839
30
0
41
1
10
-39.25
20
4.35681948386667
30
0
0
SPLINE
5
BE
100
AcDbEntity
8
SK1
62
256
6
ByLayer
370
18
48
1
60
0
100
AcDbSpline
70
4
71
3
72
10
73
6
40
0
40
0
40
0
40
0
40
0.5
40
0.5
40
1
40
1
40
1
40
1
41
1
10
-39.5179491924311
20
4.06453617081937
30
0
41
1
10
-39.5876702969376
20
3.9688178162308
30
0
41
1
10
-39.6641392526984
20
3.86217266616464
30
0
41
1
10
-39.8261142497238
20
3.63360765469233
30
0
41
1
10
-39.9120447599511
20
3.51106253716708
30
0
41
1
10
-40
20
3.3842909668717
30
0
0
SPLINE
5
BF
100
AcDbEntity
8
SK1
62
256
6
ByLayer
370
18
48
1
60
0
100
AcDbSpline
70
4
71
3
72
8
73
4
40
0
40
0
40
0
40
0
40
1
40
1
40
1
40
1
41
1
10
-39.5179491924311
20
4.06453617081937
30
0
41
1
10
-39.4620006671977
20
4.12211789836849
30
0
41
1
10
-39.4060162190119
20
4.1796645030613
30
0
41
1
10
-39.35
20
4.23718004454565
30
0
0
SPLINE
5
C0
100
AcDbEntity
8
SK1
62
256
6
ByLayer
370
18
48
1
60
0
100
AcDbSpline
70
4
71
3
72
8
73
4
40
0
40
0
40
0
40
0
40
1
40
1
40
1
40
1
41
1
10
-39.35
20
-4.13708422164814
30
0
41
1
10
-39.4060167471228
20
-4.07956813791753
30
0
41
1
10
-39.4620012166791
20
-4.02202150994961
30
0
41
1
10
-39.5179491924311
20
-3.96444034792185
30
0
0
SPLINE
5
C1
100
AcDbEntity
8
SK1
62
256
6
ByLayer
370
18
48
1
60
0
100
AcDbSpline
70
4
71
3
72
12
73
8
40
0
40
0
40
0
40
0
40
0.5
40
0.5
40
0.75
40
0.75
40
1
40
1
40
1
40
1
41
1
10
-40.0000000000001
20
-3.22801641346089
30
0
41
1
10
-39.9123015823215
20
-3.36144604181536
30
0
41
1
10
-39.8274378507374
20
-3.49047356520057
30
0
41
1
10
-39.7059807717948
20
-3.67574425800532
30
0
41
1
10
-39.6664759830087
20
-3.73611055586332
30
0
41
1
10
-39.589878798846
20
-3.85352387781631
30
0
41
1
10
-39.5527407465257
20
-3.91064404817269
30
0
41
1
10
-39.5179491924311
20
-3.96444034792185
30
0
0
SPLINE
5
C2
100
AcDbEntity
8
SK1
62
256
6
ByLayer
370
18
48
1
60
0
100
AcDbSpline
70
4
71
3
72
12
73
8
40
0
40
0
40
0
40
0
40
0.250000000000001
40
0.250000000000001
40
0.500000000000001
40
0.500000000000001
40
1
40
1
40
1
40
1
41
1
10
-39.25
20
-4.26673324325893
30
0
41
1
10
-39.25
20
-4.26242975628861
30
0
41
1
10
-39.2542356242269
20
-4.25400722171406
30
0
41
1
10
-39.2670201311554
20
-4.23406538782913
30
0
41
1
10
-39.2754786511825
20
-4.22258555602525
30
0
41
1
10
-39.3037388067419
20
-4.18687914602947
30
0
41
1
10
-39.3264172660865
20
-4.16129816779883
30
0
41
1
10
-39.35
20
-4.13708422164817
30
0
0
SPLINE
5
C3
100
AcDbEntity
8
SK1
62
256
6
ByLayer
370
18
48
1
60
0
100
AcDbSpline
70
4
71
3
72
10
73
6
40
0
40
0
40
0
40
0
40
0.5
40
0.5
40
1
40
1
40
1
40
1
41
1
10
-39.5179491924311
20
-4.06453617081934
30
0
41
1
10
-39.5876702969376
20
-3.9688178162308
30
0
41
1
10
-39.6641392526985
20
-3.86217266616464
30
0
41
1
10
-39.8261142497238
20
-3.63360765469233
30
0
41
1
10
-39.9120447599511
20
-3.51106253716708
30
0
41
1
10
-40
20
-3.3842909668717
30
0
0
SPLINE
5
C4
100
AcDbEntity
8
SK1
62
256
6
ByLayer
370
18
48
1
60
0
100
AcDbSpline
70
4
71
3
72
12
73
8
40
0
40
0
40
0
40
0
40
0.5
40
0.5
40
0.75
40
0.75
40
1
40
1
40
1
40
1
41
1
10
-39.35
20
-4.23718004454568
30
0
41
1
10
-39.3264103729719
20
-4.26140106831105
30
0
41
1
10
-39.3036886178189
20
-4.28624432427875
30
0
41
1
10
-39.275599229617
20
-4.31931680285123
30
0
41
1
10
-39.2670477807071
20
-4.32988250815512
30
0
41
1
10
-39.2542670006876
20
-4.34726334939626
30
0
41
1
10
-39.25
20
-4.3541867440839
30
0
41
1
10
-39.25
20
-4.35681948386667
30
0
0
SPLINE
5
C5
100
AcDbEntity
8
1
62
256
6
ByLayer
370
18
48
1
60
0
100
AcDbSpline
70
4
71
3
72
8
73
4
40
0
40
0
40
0
40
0
40
1
40
1
40
1
40
1
41
1
10
60.8931648473187
20
-0.0391405779371041
30
0
41
1
10
60.8824522994063
20
0.163062289286387
30
0
41
1
10
60.8788583501371
20
0.36274233469976
30
0
41
1
10
60.8844358330398
20
0.559910733841264
30
0
0
SPLINE
5
C6
100
AcDbEntity
8
1
62
256
6
ByLayer
370
18
48
1
60
0
100
AcDbSpline
70
4
71
3
72
20
73
16
40
0
40
0
40
0
40
0
40
0.448847955824108
40
0.448847955824108
40
0.700664518686658
40
0.700664518686658
40
0.838206313984879
40
0.838206313984879
40
0.91335148843491
40
0.91335148843491
40
0.95459877581354
40
0.95459877581354
40
0.977300187230621
40
0.977300187230621
40
1
40
1
40
1
40
1
41
1
10
61.2603807252489
20
4.24920610138091
30
0
41
1
10
61.2984887367691
20
4.2242371812259
30
0
41
1
10
61.3366451399512
20
4.19907969657717
30
0
41
1
10
61.3962808005324
20
4.15952502451071
30
0
41
1
10
61.4177289295078
20
4.14525167862305
30
0
41
1
10
61.450914646224
20
4.12309556028805
30
0
41
1
10
61.4626420650246
20
4.11525205524512
30
0
41
1
10
61.4807834654635
20
4.1030976859571
30
0
41
1
10
61.4871943926184
20
4.09879842761598
30
0
41
1
10
61.497126313698
20
4.09213168550681
30
0
41
1
10
61.50064639608
20
4.08976763487328
30
0
41
1
10
61.5061044086345
20
4.08610021182793
30
0
41
1
10
61.508038495638
20
4.08480029591863
30
0
41
1
10
61.5119488086837
20
4.08217099037674
30
0
41
1
10
61.5140831752041
20
4.08073481734021
30
0
41
1
10
61.5157104124548
20
4.07964177809939
30
0
0
SPLINE
5
C7
100
AcDbEntity
8
1
62
256
6
ByLayer
370
18
48
1
60
0
100
AcDbSpline
70
4
71
3
72
8
73
4
40
0
40
0
40
0
40
0
40
1
40
1
40
1
40
1
41
1
10
62.9960807945314
20
0.234639758501743
30
0
41
1
10
62.9777231013091
20
0.173452145132046
30
0
41
1
10
62.9592738785219
20
0.112293231620583
30
0
41
1
10
62.9407334692715
20
0.05116291038496
30
0
0
SPLINE
5
C8
100
AcDbEntity
8
1
62
256
6
ByLayer
370
18
48
1
60
0
100
AcDbSpline
70
4
71
3
72
10
73
6
40
0
40
0
40
0
40
0
40
0.779119986032163
40
0.779119986032163
40
1
40
1
40
1
40
1
41
1
10
3.60187249083154
20
-3.43755924333078
30
2E-16
41
1
10
4.81866815117789
20
-3.72682651477444
30
0
41
1
10
6.02086203104321
20
-3.90890432099289
30
0
41
1
10
7.56939746941325
20
-3.99448628364027
30
0
41
1
10
7.91177738648096
20
-4.00414323885232
30
0
41
1
10
8.25490728783447
20
-4.0043700213505
30
0
0
SPLINE
5
C9
100
AcDbEntity
8
1
62
256
6
ByLayer
370
18
48
1
60
0
100
AcDbSpline
70
4
71
3
72
22
73
18
40
0
40
0
40
0
40
0
40
0.161425340393915
40
0.161425340393915
40
0.301187783661595
40
0.301187783661595
40
0.371069005295436
40
0.371069005295436
40
0.440950226929276
40
0.440950226929276
40
0.720475113464639
40
0.720475113464639
40
0.860237556732321
40
0.860237556732321
40
0.93011877836616
40
0.93011877836616
40
1
40
1
40
1
40
1
41
1
10
48.556807210438
20
0.231529860013211
30
0
41
1
10
49.2509274319958
20
-0.0909794473147372
30
0
41
1
10
49.9425430874809
20
-0.41469313956992
30
0
41
1
10
51.2349066096614
20
-1.00633475817432
30
1E-16
41
1
10
51.8352829835331
20
-1.27617174025684
30
1E-16
41
1
10
52.7403424925344
20
-1.66623405538101
30
1E-16
41
1
10
53.0427836119167
20
-1.79379756536616
30
1E-16
41
1
10
53.6497918317846
20
-2.04268754213322
30
1E-16
41
1
10
53.9534635880828
20
-2.16364245631507
30
1E-16
41
1
10
55.4646102700814
20
-2.74484738532806
30
2E-16
41
1
10
56.659983236072
20
-3.13771390062905
30
2E-16
41
1
10
58.4595798396901
20
-3.57970542155601
30
0
41
1
10
59.0605635052766
20
-3.70269659142298
30
0
41
1
10
59.9671163377121
20
-3.84633878018104
30
0
41
1
10
60.2704567401432
20
-3.88743319792954
30
0
41
1
10
60.8779824276749
20
-3.95513364840733
30
0
41
1
10
61.1815300153613
20
-3.98122104364592
30
0
41
1
10
61.4851840673606
20
-4.00080496280228
30
0
0
SPLINE
5
CA
100
AcDbEntity
8
1
62
256
6
ByLayer
370
18
48
1
60
0
100
AcDbSpline
70
4
71
3
72
18
73
14
40
0
40
0
40
0
40
0
40
0.0964853842367576
40
0.0964853842367576
40
0.322364038177568
40
0.322364038177568
40
0.435303365147974
40
0.435303365147974
40
0.548242692118379
40
0.548242692118379
40
0.774121346059189
40
0.774121346059189
40
1
40
1
40
1
40
1
41
1
10
61.2478185823586
20
0.838296105070611
30
0
41
1
10
61.2573111607268
20
0.85090398833816
30
0
41
1
10
61.268177249946
20
0.863963027473886
30
0
41
1
10
61.3091303039248
20
0.908762360646847
30
1E-16
41
1
10
61.3445875429215
20
0.941132097381569
30
1E-16
41
1
10
61.4082264586224
20
0.9904100033487
30
0
41
1
10
61.4313103863834
20
1.00696296571144
30
0
41
1
10
61.4798030452117
20
1.0388740758475
30
0
41
1
10
61.5053709143989
20
1.05436465977058
30
0
41
1
10
61.5862062333029
20
1.09888702086693
30
0
41
1
10
61.6462672718201
20
1.12607423525731
30
0
41
1
10
61.7709819523568
20
1.16898473955746
30
0
41
1
10
61.8369622512558
20
1.18521481162173
30
0
41
1
10
61.9041815171369
20
1.19533640438036
30
0
0
SPLINE
5
CB
100
AcDbEntity
8
1
62
256
6
ByLayer
370
18
48
1
60
0
100
AcDbSpline
70
4
71
3
72
8
73
4
40
0
40
0
40
0
40
0
40
1
40
1
40
1
40
1
41
1
10
61.2446403728524
20
-4.19552987690895
30
0
41
1
10
61.2502704490775
20
-4.2275350558121
30
0
41
1
10
61.2554729077608
20
-4.24563390645741
30
0
41
1
10
61.260380725232
20
-4.24920610139245
30
0
0
SPLINE
5
CC
100
AcDbEntity
8
1
62
256
6
ByLayer
370
18
48
1
60
0
100
AcDbSpline
70
4
71
3
72
20
73
16
40
0
40
0
40
0
40
0
40
0.448847955737361
40
0.448847955737361
40
0.700664518560403
40
0.700664518560403
40
0.838206313840157
40
0.838206313840157
40
0.913351488277123
40
0.913351488277123
40
0.95459877564905
40
0.95459877564905
40
0.977300187061814
40
0.977300187061814
40
1
40
1
40
1
40
1
41
1
10
61.2603807252536
20
-4.24920610137784
30
0
41
1
10
61.2984887367724
20
-4.22423718122377
30
0
41
1
10
61.336645139953
20
-4.19907969657595
30
0
41
1
10
61.3962808005328
20
-4.15952502451046
30
0
41
1
10
61.4177289295082
20
-4.14525167862283
30
0
41
1
10
61.4509146462246
20
-4.12309556028768
30
0
41
1
10
61.4626420650254
20
-4.11525205524455
30
0
41
1
10
61.4807834654644
20
-4.10309768595644
30
0
41
1
10
61.4871943926192
20
-4.09879842761541
30
0
41
1
10
61.4971263136987
20
-4.09213168550636
30
0
41
1
10
61.5006463960807
20
-4.08976763487286
30
0
41
1
10
61.5061044086351
20
-4.08610021182756
30
0
41
1
10
61.5080384956385
20
-4.08480029591829
30
0
41
1
10
61.5119488086989
20
-4.08217099036648
30
0
41
1
10
61.5140831752437
20
-4.08073481731358
30
0
41
1
10
61.5157104124934
20
-4.07964177807347
30
0
0
SPLINE
5
CD
100
AcDbEntity
8
1
62
256
6
ByLayer
370
18
48
1
60
0
100
AcDbSpline
70
4
71
3
72
30
73
26
40
0
40
0
40
0
40
0
40
0.0648466487489323
40
0.0648466487489323
40
0.129693297497865
40
0.129693297497865
40
0.25938659499573
40
0.25938659499573
40
0.389079892493596
40
0.389079892493596
40
0.518773189991461
40
0.518773189991461
40
0.583619838740392
40
0.583619838740392
40
0.648466487489324
40
0.648466487489324
40
0.778159784987184
40
0.778159784987184
40
0.843006433736116
40
0.843006433736116
40
0.907853082485047
40
0.907853082485047
40
0.972699731233979
40
0.972699731233979
40
1
40
1
40
1
40
1
41
1
10
61.0005401617866
20
-0.0983264231126668
30
0
41
1
10
60.6995416283533
20
0.0422594797429667
30
0
41
1
10
60.3980694030236
20
0.183050828230563
30
0
41
1
10
59.7969481759633
20
0.462349432364363
30
0
41
1
10
59.4972667651139
20
0.600848122332138
30
0
41
1
10
58.6001918592928
20
1.01127441581949
30
-1E-16
41
1
10
58.0052286193868
20
1.27848066574865
30
-1E-16
41
1
10
56.816327549373
20
1.79044133158504
30
-1E-16
41
1
10
56.2226280547845
20
2.03517909420174
30
-1E-16
41
1
10
55.0315567449918
20
2.49375870390992
30
-2E-16
41
1
10
54.4343332453728
20
2.70759093196537
30
-2E-16
41
1
10
53.5328664507411
20
2.99882935693552
30
-2E-16
41
1
10
53.2310232677875
20
3.09100127314352
30
-2E-16
41
1
10
52.6309889897998
20
3.26226436879648
30
-2E-16
41
1
10
52.3320000709159
20
3.34176495819958
30
-2E-16
41
1
10
51.4360533052978
20
3.56263342096369
30
0
41
1
10
50.8404735830446
20
3.68593457251504
30
0
41
1
10
49.9483987054452
20
3.82977099253833
30
0
41
1
10
49.6512828770019
20
3.87070807307808
30
0
41
1
10
49.0570368211714
20
3.93761777622845
30
0
41
1
10
48.7596681824231
20
3.96423215651228
30
0
41
1
10
48.1636235549507
20
4.00473345010022
30
0
41
1
10
47.8650376097702
20
4.01828202979075
30
0
41
1
10
47.4398286073277
20
4.02670839349639
30
0
41
1
10
47.3137275560387
20
4.02791121687468
30
0
41
1
10
47.1874726403539
20
4.0278534076802
30
0
0
SPLINE
5
CE
100
AcDbEntity
8
1
62
256
6
ByLayer
370
18
48
1
60
0
100
AcDbSpline
70
4
71
3
72
12
73
8
40
0
40
0
40
0
40
0
40
0.157776337225849
40
0.157776337225849
40
0.438517558150564
40
0.438517558150564
40
1
40
1
40
1
40
1
41
1
10
6.8371338574438
20
-0.210454076716076
30
0
41
1
10
6.66940500279608
20
-0.132819769145641
30
0
41
1
10
6.50168765437405
20
-0.0551627728480923
30
0
41
1
10
6.03530511884043
20
0.160149561294702
30
0
41
1
10
5.73661201136008
20
0.297737678792828
30
0
41
1
10
4.8399125132037
20
0.709110672788114
30
0
41
1
10
4.2413084404489
20
0.981553737121487
30
-1E-16
41
1
10
3.64008494959228
20
1.24819364740992
30
-1E-16
0
SPLINE
5
CF
100
AcDbEntity
8
1
62
256
6
ByLayer
370
18
48
1
60
0
100
AcDbSpline
70
2053
71
3
72
58
73
54
40
0
40
0
40
0
40
0
40
0.0624999999999979
40
0.0624999999999979
40
0.124999999999996
40
0.124999999999996
40
0.187499999999994
40
0.187499999999994
40
0.218749999999994
40
0.218749999999994
40
0.249999999999994
40
0.249999999999994
40
0.281249999999994
40
0.281249999999994
40
0.312499999999994
40
0.312499999999994
40
0.343749999999994
40
0.343749999999994
40
0.374999999999994
40
0.374999999999994
40
0.406249999999994
40
0.406249999999994
40
0.437499999999994
40
0.437499999999994
40
0.499999999999995
40
0.499999999999995
40
0.531249999999995
40
0.531249999999995
40
0.562499999999994
40
0.562499999999994
40
0.624999999999995
40
0.624999999999995
40
0.656249999999995
40
0.656249999999995
40
0.687499999999995
40
0.687499999999995
40
0.718749999999995
40
0.718749999999995
40
0.749999999999995
40
0.749999999999995
40
0.781249999999995
40
0.781249999999995
40
0.812499999999995
40
0.812499999999995
40
0.843749999999995
40
0.843749999999995
40
0.874999999999995
40
0.874999999999995
40
0.937499999999997
40
0.937499999999997
40
0.968749999999999
40
0.968749999999999
40
1
40
1
40
1
40
1
41
1
10
61.8140408481498
20
-1.93489467348215
30
-1E-16
41
1
10
61.7824773416398
20
-1.97716259406533
30
-1E-16
41
1
10
61.7530208841267
20
-2.00502759962961
30
-1E-16
41
1
10
61.6969984389674
20
-2.032692528127
30
-1E-16
41
1
10
61.6718167045265
20
-2.03172224123748
30
-1E-16
41
1
10
61.6256472917343
20
-1.99965343082923
30
1E-16
41
1
10
61.6057293064154
20
-1.9693306273862
30
1E-16
41
1
10
61.579968333824
20
-1.90159458260945
30
1E-16
41
1
10
61.5723322433561
20
-1.87588421561023
30
1E-16
41
1
10
61.558885272933
20
-1.81819419120063
30
1E-16
41
1
10
61.5530401352807
20
-1.78598270818739
30
1E-16
41
1
10
61.5435715869911
20
-1.71557320306294
30
1E-16
41
1
10
61.5400393639777
20
-1.67819974159011
30
1E-16
41
1
10
61.5356018987101
20
-1.59900916238792
30
1E-16
41
1
10
61.5347108563747
20
-1.55655832968967
30
1E-16
41
1
10
61.5362052609539
20
-1.47000714562367
30
1E-16
41
1
10
61.5385365144566
20
-1.42612148421381
30
1E-16
41
1
10
61.5468826786248
20
-1.33709900173486
30
1E-16
41
1
10
61.5529748910183
20
-1.29196516620439
30
1E-16
41
1
10
61.568664786181
20
-1.20578935216989
30
1E-16
41
1
10
61.5784594414008
20
-1.16356847466199
30
1E-16
41
1
10
61.6013792372122
20
-1.08446868119171
30
1E-16
41
1
10
61.6143382344556
20
-1.04793384472009
30
1E-16
41
1
10
61.6576369595208
20
-0.946802848895629
30
1E-16
41
1
10
61.6915376786862
20
-0.893295323222986
30
1E-16
41
1
10
61.744654865565
20
-0.835496931870239
30
1E-16
41
1
10
61.7626602983285
20
-0.819948282510495
30
1E-16
41
1
10
61.7990871952948
20
-0.795653938748643
30
0
41
1
10
61.8174086347999
20
-0.787032867661196
30
0
41
1
10
61.8710999892637
20
-0.771490961350025
30
0
41
1
10
61.9062274129596
20
-0.774621495663268
30
0
41
1
10
61.9532735134212
20
-0.798657062054531
30
0
41
1
10
61.9680841026249
20
-0.809856362298291
30
0
41
1
10
61.9956597249331
20
-0.839060199942963
30
1E-16
41
1
10
62.0084308971186
20
-0.857191043266965
30
1E-16
41
1
10
62.0306083766847
20
-0.899611300469246
30
1E-16
41
1
10
62.0401539769087
20
-0.92399943275953
30
1E-16
41
1
10
62.0556584082205
20
-0.980013899294136
30
1E-16
41
1
10
62.0614900337912
20
-1.01141451075171
30
1E-16
41
1
10
62.0685967460942
20
-1.07957367216866
30
1E-16
41
1
10
62.0699238282973
20
-1.11715415421713
30
1E-16
41
1
10
62.0676687237915
20
-1.19614639633232
30
1E-16
41
1
10
62.0641716424757
20
-1.23728883119949
30
1E-16
41
1
10
62.052483641024
20
-1.3230750227138
30
1E-16
41
1
10
62.0442724144042
20
-1.3673821618799
30
1E-16
41
1
10
62.0243658776542
20
-1.45448809714313
30
1E-16
41
1
10
62.0124089404437
20
-1.49843994009643
30
1E-16
41
1
10
61.9731435160485
20
-1.62466193499944
30
1E-16
41
1
10
61.942031913022
20
-1.70310987531258
30
1E-16
41
1
10
61.8942827478086
20
-1.80335484204014
30
1E-16
41
1
10
61.8779388563417
20
-1.83435995065025
30
-1E-16
41
1
10
61.8457915710294
20
-1.8893885446208
30
-1E-16
41
1
10
61.8298226014049
20
-1.91376071319055
30
-1E-16
41
1
10
61.8140408481498
20
-1.93489467348215
30
-1E-16
0
SPLINE
5
D0
100
AcDbEntity
8
1
62
256
6
ByLayer
370
18
48
1
60
0
100
AcDbSpline
70
4
71
3
72
28
73
24
40
0
40
0
40
0
40
0
40
0.137833618764841
40
0.137833618764841
40
0.206750428147262
40
0.206750428147262
40
0.275667237529683
40
0.275667237529683
40
0.413500856294527
40
0.413500856294527
40
0.48241766567695
40
0.48241766567695
40
0.551334475059373
40
0.551334475059373
40
0.620251284441797
40
0.620251284441797
40
0.68916809382422
40
0.68916809382422
40
0.82700171258907
40
0.82700171258907
40
0.964835331353919
40
0.964835331353919
40
1
40
1
40
1
40
1
41
1
10
60.8844358330399
20
0.559910733841264
30
0
41
1
10
60.3109183373604
20
0.838736839598141
30
-1E-16
41
1
10
59.7410975691658
20
1.11386823289581
30
-1E-16
41
1
10
58.8864895893827
20
1.51018123707121
30
-1E-16
41
1
10
58.6017515317582
20
1.63980035018125
30
-1E-16
41
1
10
58.0323191102717
20
1.8936518058853
30
-1E-16
41
1
10
57.7477540695453
20
2.0181194317025
30
-1E-16
41
1
10
56.8930692803056
20
2.38136192773007
30
-1E-16
41
1
10
56.3212491542013
20
2.60876555350632
30
-2E-16
41
1
10
55.4589146771412
20
2.92476064547716
30
-2E-16
41
1
10
55.1702732634599
20
3.02640959663995
30
-2E-16
41
1
10
54.5950801287116
20
3.21781444405403
30
-2E-16
41
1
10
54.308181317432
20
3.30771550308447
30
-2E-16
41
1
10
53.7356314832426
20
3.47605399757688
30
-2E-16
41
1
10
53.4499501240053
20
3.55445582147149
30
-2E-16
41
1
10
52.879787189464
20
3.69975526187415
30
2E-16
41
1
10
52.5952222882161
20
3.76651924089944
30
0
41
1
10
51.7411030650339
20
3.9473472221014
30
0
41
1
10
51.1714125555955
20
4.04249413429551
30
0
41
1
10
50.030435886683
20
4.18057333228492
30
0
41
1
10
49.4576642566398
20
4.2226003302541
30
0
41
1
10
48.7339561556252
20
4.24020984258465
30
0
41
1
10
48.5868689342703
20
4.24195178226449
30
0
41
1
10
48.4399751702077
20
4.24185915394474
30
0
0
SPLINE
5
D1
100
AcDbEntity
8
1
62
256
6
ByLayer
370
18
48
1
60
0
100
AcDbSpline
70
4
71
3
72
52
73
48
40
0
40
0
40
0
40
0
40
0.0138501314531959
40
0.0138501314531959
40
0.0517789725511493
40
0.0517789725511493
40
0.0897078136491026
40
0.0897078136491026
40
0.165565495845011
40
0.165565495845011
40
0.203494336942965
40
0.203494336942965
40
0.241423178040919
40
0.241423178040919
40
0.279352019138873
40
0.279352019138873
40
0.317280860236827
40
0.317280860236827
40
0.393138542432735
40
0.393138542432735
40
0.43106738353069
40
0.43106738353069
40
0.468996224628644
40
0.468996224628644
40
0.544853906824552
40
0.544853906824552
40
0.582782747922506
40
0.582782747922506
40
0.62071158902046
40
0.62071158902046
40
0.696569271216368
40
0.696569271216368
40
0.734498112314322
40
0.734498112314322
40
0.772426953412276
40
0.772426953412276
40
0.81035579451023
40
0.81035579451023
40
0.848284635608184
40
0.848284635608184
40
0.886213476706138
40
0.886213476706138
40
0.924142317804092
40
0.924142317804092
40
0.962071158902046
40
0.962071158902046
40
1
40
1
40
1
40
1
41
1
10
28.6081434119668
20
-2.79563428016416
30
2E-16
41
1
10
28.5028478601079
20
-2.8342650716009
30
2E-16
41
1
10
28.3975360363858
20
-2.87224288729931
30
2E-16
41
1
10
28.0041915457091
20
-3.01147211953719
30
2E-16
41
1
10
27.7169262118491
20
-3.10814260702631
30
2E-16
41
1
10
27.143938678261
20
-3.29079491405722
30
2E-16
41
1
10
26.8583156610413
20
-3.37689470435024
30
2E-16
41
1
10
26.0027844000969
20
-3.61787099283021
30
2E-16
41
1
10
25.4333773843539
20
-3.75456188296789
30
0
41
1
10
24.5791104970142
20
-3.92262284366379
30
0
41
1
10
24.2945619607113
20
-3.97262009477828
30
0
41
1
10
23.7244006118255
20
-4.05930547292184
30
0
41
1
10
23.4387452955638
20
-4.09600658451797
30
0
41
1
10
22.866119349451
20
-4.15603344431142
30
0
41
1
10
22.5791441714686
20
-4.17936170897872
30
0
41
1
10
22.0037940913413
20
-4.21230422870434
30
0
41
1
10
21.7148356680694
20
-4.2218490203025
30
0
41
1
10
20.8514217125588
20
-4.22909327795554
30
0
41
1
10
20.2787401946491
20
-4.20599116508689
30
0
41
1
10
19.4234325571752
20
-4.13044579942431
30
0
41
1
10
19.1387132267853
20
-4.09847032915559
30
0
41
1
10
18.5690726950233
20
-4.0215935205639
30
0
41
1
10
18.2842359854277
20
-3.97667268182028
30
0
41
1
10
17.4295818548392
20
-3.82255337419429
30
0
41
1
10
16.8599765597463
20
-3.69343971948621
30
-2E-16
41
1
10
16.0003196409695
20
-3.46495674346957
30
2E-16
41
1
10
15.7130557842208
20
-3.38286515793124
30
2E-16
41
1
10
15.1367663142499
20
-3.20700813586188
30
2E-16
41
1
10
14.84780251106
20
-3.11283613392874
30
2E-16
41
1
10
13.9853232326699
20
-2.81719385392597
30
2E-16
41
1
10
13.4130029886943
20
-2.60265657505343
30
2E-16
41
1
10
12.5574298518865
20
-2.25708932354783
30
1E-16
41
1
10
12.2728532046136
20
-2.13767503993088
30
1E-16
41
1
10
11.7033834183719
20
-1.89319505924215
30
1E-16
41
1
10
11.4185046482033
20
-1.76812679773675
30
1E-16
41
1
10
10.8484480418444
20
-1.51240012277614
30
1E-16
41
1
10
10.5632151071534
20
-1.38184985008783
30
1E-16
41
1
10
9.99238397895525
20
-1.11517642693983
30
1E-16
41
1
10
9.70659055344157
20
-0.979431586096808
30
1E-16
41
1
10
9.13310601178875
20
-0.705477153138787
30
0
41
1
10
8.84548551569651
20
-0.567135685745086
30
0
41
1
10
8.26845782612097
20
-0.287695926939023
30
0
41
1
10
7.97935689899904
20
-0.146948123771409
30
0
41
1
10
7.40303348698913
20
0.135419734824154
30
0
41
1
10
7.11517796895149
20
0.27680165376492
30
0
41
1
10
6.53833063587913
20
0.556377600565753
30
0
41
1
10
6.24947870078748
20
0.694861109448794
30
0
41
1
10
5.95997359659262
20
0.831589404173258
30
-1E-16
0
SPLINE
5
D2
100
AcDbEntity
8
1
62
256
6
ByLayer
370
18
48
1
60
0
100
AcDbSpline
70
4
71
3
72
8
73
4
40
0
40
0
40
0
40
0
40
1
40
1
40
1
40
1
41
1
10
61.5157104123838
20
4.07964177807105
30
0
41
1
10
61.5183114810874
20
4.07789057247254
30
0
41
1
10
61.5209125964502
20
4.07613917548218
30
0
41
1
10
61.5235137588483
20
4.07438758721594
30
0
0
SPLINE
5
D3
100
AcDbEntity
8
1
62
256
6
ByLayer
370
18
48
1
60
0
100
AcDbSpline
70
4
71
3
72
8
73
4
40
0
40
0
40
0
40
0
40
1
40
1
40
1
40
1
41
1
10
3.64427047731337
20
1.25990329585167
30
-1E-16
41
1
10
3.63112875835881
20
1.26574837615519
30
-1E-16
41
1
10
3.61695859892066
20
1.26877531714234
30
-1E-16
41
1
10
3.60243706573343
20
1.26884490565411
30
-1E-16
0
SPLINE
5
D4
100
AcDbEntity
8
1
62
256
6
ByLayer
370
18
48
1
60
0
100
AcDbSpline
70
4
71
3
72
22
73
18
40
0
40
0
40
0
40
0
40
0.250000000000003
40
0.250000000000003
40
0.375000000000002
40
0.375000000000002
40
0.437500000000001
40
0.437500000000001
40
0.500000000000001
40
0.500000000000001
40
0.625
40
0.625
40
0.75
40
0.75
40
0.875
40
0.875
40
1
40
1
40
1
40
1
41
1
10
61.5235137588483
20
4.07438758721597
30
0
41
1
10
61.6068818695371
20
3.83953390126541
30
0
41
1
10
61.6893128162453
20
3.60307467301976
30
0
41
1
10
61.8132400553949
20
3.24740350278671
30
0
41
1
10
61.8545901136493
20
3.12869724237734
30
0
41
1
10
61.9168456354379
20
2.95060624250715
30
0
41
1
10
61.937632441263
20
2.89124321802277
30
0
41
1
10
61.9793001995451
20
2.77252889730187
30
0
41
1
10
62.000107138101
20
2.7131605671114
30
0
41
1
10
62.0632049863696
20
2.53520296135278
30
0
41
1
10
62.1069752750586
20
2.41667501692868
30
0
41
1
10
62.1976488825822
20
2.18561381968507
30
0
41
1
10
62.2447036300342
20
2.07247740234939
30
0
41
1
10
62.3433613240627
20
1.8513470354923
30
0
41
1
10
62.3950679682223
20
1.74318829618071
30
0
41
1
10
62.5037090429249
20
1.5332272575364
30
0
41
1
10
62.5596620070585
20
1.43327557369486
30
0
41
1
10
62.617430162128
20
1.3379658049293
30
0
0
SPLINE
5
D5
100
AcDbEntity
8
1
62
256
6
ByLayer
370
18
48
1
60
0
100
AcDbSpline
70
4
71
3
72
10
73
6
40
0
40
0
40
0
40
0
40
0.5
40
0.5
40
1
40
1
40
1
40
1
41
1
10
61.9041815171369
20
1.19533640438036
30
0
41
1
10
62.024098132451
20
1.21339294113795
30
0
41
1
10
62.1435676305007
20
1.23408399655344
30
0
41
1
10
62.3814682295335
20
1.2815845838195
30
0
41
1
10
62.5001092440184
20
1.30775134071877
30
0
41
1
10
62.6174301621309
20
1.33796580493026
30
0
0
SPLINE
5
D6
100
AcDbEntity
8
1
62
256
6
ByLayer
370
18
48
1
60
0
100
AcDbSpline
70
4
71
3
72
64
73
60
40
0
40
0
40
0
40
0
40
0.125000000000005
40
0.125000000000005
40
0.187500000000007
40
0.187500000000007
40
0.218750000000008
40
0.218750000000008
40
0.250000000000009
40
0.250000000000009
40
0.28125000000001
40
0.28125000000001
40
0.312500000000011
40
0.312500000000011
40
0.343750000000012
40
0.343750000000012
40
0.359375000000013
40
0.359375000000013
40
0.375000000000013
40
0.375000000000013
40
0.406250000000014
40
0.406250000000014
40
0.421875000000014
40
0.421875000000014
40
0.437500000000015
40
0.453125000000015
40
0.453125000000015
40
0.468750000000016
40
0.468750000000016
40
0.500000000000016
40
0.500000000000016
40
0.531250000000017
40
0.531250000000017
40
0.562500000000017
40
0.562500000000017
40
0.593750000000018
40
0.593750000000018
40
0.625000000000018
40
0.625000000000018
40
0.687500000000019
40
0.687500000000019
40
0.71875000000002
40
0.71875000000002
40
0.72656250000002
40
0.730468750000019
40
0.730468750000019
40
0.732421875000018
40
0.732421875000018
40
0.734375000000017
40
0.734375000000017
40
0.738281250000017
40
0.738281250000017
40
0.742187500000017
40
0.742187500000017
40
0.750000000000016
40
0.750000000000016
40
0.875000000000008
40
0.875000000000008
40
1
40
1
40
1
40
1
41
1
10
5.96009946197628
20
0.831541563368347
30
-1E-16
41
1
10
5.46741052875555
20
1.06643719077456
30
-1E-16
41
1
10
4.9853025080221
20
1.31257567638954
30
-1E-16
41
1
10
4.2850327947159
20
1.7042703776587
30
-1E-16
41
1
10
4.05546606936414
20
1.83861869839174
30
-1E-16
41
1
10
3.71881392760616
20
2.04742340989091
30
-1E-16
41
1
10
3.60788470110899
20
2.11826521321257
30
-1E-16
41
1
10
3.39105976969674
20
2.26152387485368
30
-1E-16
41
1
10
3.28493225670312
20
2.33407728622646
30
-1E-16
41
1
10
3.07816431509642
20
2.48133439916319
30
-2E-16
41
1
10
2.97751468761481
20
2.55603477244324
30
-2E-16
41
1
10
2.78307542476077
20
2.70805117091382
30
-2E-16
41
1
10
2.69022159926951
20
2.78465319082144
30
-2E-16
41
1
10
2.51637213572204
20
2.93827030873896
30
-2E-16
41
1
10
2.43517979373985
20
3.01541639821866
30
-2E-16
41
1
10
2.32445960276433
20
3.13173171228024
30
-2E-16
41
1
10
2.28940901250664
20
3.17060346681637
30
-2E-16
41
1
10
2.22363925047449
20
3.24857349085823
30
-2E-16
41
1
10
2.19275944405666
20
3.28790013999495
30
-2E-16
41
1
10
2.1091499957526
20
3.40446020309489
30
-2E-16
41
1
10
2.06558578862274
20
3.47982216615691
30
-2E-16
41
1
10
2.02233957344083
20
3.58861618905644
30
-2E-16
41
1
10
2.01162197974153
20
3.62438429036322
30
-2E-16
41
1
10
1.99872358256741
20
3.69249092607385
30
2E-16
41
1
10
1.99413006486557
20
3.75752079343539
30
0
41
1
10
2.0060515113006
20
3.81646359963222
30
0
41
1
10
2.02625828287808
20
3.8723742597972
30
0
41
1
10
2.04059448089069
20
3.89881877071721
30
0
41
1
10
2.09427423103179
20
3.9717089704427
30
0
41
1
10
2.1444800001255
20
4.01262980139015
30
0
41
1
10
2.26850204317324
20
4.08174371252903
30
0
41
1
10
2.34047335619644
20
4.10901415911837
30
0
41
1
10
2.49919896316257
20
4.15296319429331
30
0
41
1
10
2.58600457685117
20
4.16960282579882
30
0
41
1
10
2.77146038971406
20
4.19459672091207
30
0
41
1
10
2.86890754463596
20
4.20277500976309
30
0
41
1
10
3.06992667355971
20
4.21260296150925
30
0
41
1
10
3.17371846055414
20
4.21426195504526
30
0
41
1
10
3.49302092229973
20
4.21162446370627
30
0
41
1
10
3.71652416129544
20
4.19980705138153
30
0
41
1
10
4.0625765828166
20
4.17204152567462
30
0
41
1
10
4.17944275006974
20
4.16110588937494
30
0
41
1
10
4.32705253428858
20
4.14570673208394
30
0
41
1
10
4.37144971596453
20
4.14095679174301
30
0
41
1
10
4.41600800076998
20
4.13602063091022
30
0
41
1
10
4.43831328679298
20
4.13352221798908
30
0
41
1
10
4.44577385725026
20
4.1326837512616
30
0
41
1
10
4.4616127037026
20
4.13139990409795
30
0
41
1
10
4.46991187497838
20
4.13094706656335
30
0
41
1
10
4.49501866705268
20
4.1301002123713
30
0
41
1
10
4.51237904242117
20
4.13012087018279
30
0
41
1
10
4.5458875860526
20
4.13106947793602
30
0
41
1
10
4.56228802102285
20
4.13205658231561
30
0
41
1
10
4.61151431280993
20
4.13485962663131
30
0
41
1
10
4.64430235100602
20
4.13671730746236
30
0
41
1
10
5.20117999207974
20
4.16807156377712
30
0
41
1
10
5.71739552078515
20
4.1942417247059
30
0
41
1
10
6.73143313940832
20
4.22019590740416
30
0
41
1
10
7.22870091308434
20
4.21978943856999
30
0
41
1
10
7.71973042822941
20
4.19731008770404
30
0
0
SPLINE
5
D7
100
AcDbEntity
8
1
62
256
6
ByLayer
370
18
48
1
60
0
100
AcDbSpline
70
4
71
3
72
50
73
46
40
0
40
0
40
0
40
0
40
0.0617118928533917
40
0.0617118928533917
40
0.139902568448941
40
0.139902568448941
40
0.178997906246715
40
0.178997906246715
40
0.21809324404449
40
0.21809324404449
40
0.257188581842265
40
0.257188581842265
40
0.29628391964004
40
0.29628391964004
40
0.335379257437815
40
0.335379257437815
40
0.37447459523559
40
0.37447459523559
40
0.452665270831141
40
0.452665270831141
40
0.491760608628916
40
0.491760608628916
40
0.530855946426692
40
0.530855946426692
40
0.569951284224467
40
0.569951284224467
40
0.609046622022242
40
0.609046622022242
40
0.648141959820018
40
0.648141959820018
40
0.687237297617793
40
0.687237297617793
40
0.765427973213344
40
0.765427973213344
40
0.80452331101112
40
0.80452331101112
40
0.843618648808896
40
0.843618648808896
40
0.882713986606672
40
0.882713986606672
40
0.921809324404448
40
0.921809324404448
40
0.960904662202224
40
0.960904662202224
40
1
40
1
40
1
40
1
41
1
10
28.6506075335263
20
3.38685226217498
30
-2E-16
41
1
10
29.3154413399895
20
3.58170237610023
30
-1E-16
41
1
10
29.9824319340719
20
3.74729639882798
30
2E-16
41
1
10
31.50718148309
20
4.04558845347
30
0
41
1
10
32.3551960363331
20
4.15511070645434
30
0
41
1
10
33.6303050053659
20
4.22816059160618
30
0
41
1
10
34.0567003001111
20
4.2373069411471
30
0
41
1
10
34.9075772479443
20
4.22483960059554
30
0
41
1
10
35.3322021868338
20
4.20330512624133
30
0
41
1
10
36.1815008451879
20
4.13011212595438
30
0
41
1
10
36.6061666252616
20
4.07843982530255
30
0
41
1
10
37.4574311497321
20
3.94566405453085
30
0
41
1
10
37.8833662107991
20
3.86463417804333
30
0
41
1
10
38.7330808274681
20
3.67574980234815
30
2E-16
41
1
10
39.1574974412024
20
3.56778303565642
30
-2E-16
41
1
10
40.007180138626
20
3.32663482066303
30
-2E-16
41
1
10
40.4331151676366
20
3.19322514944776
30
-2E-16
41
1
10
41.7099335704997
20
2.75989978092957
30
-2E-16
41
1
10
42.5572229150649
20
2.42781333854572
30
-1E-16
41
1
10
43.8331735950528
20
1.88269822878246
30
-1E-16
41
1
10
44.259454525779
20
1.69309674802247
30
-1E-16
41
1
10
45.109328807616
20
1.30414481612115
30
-1E-16
41
1
10
45.5336786726344
20
1.10447838948002
30
-1E-16
41
1
10
46.3829556671896
20
0.698224309704472
30
0
41
1
10
46.808134215859
20
0.49149895178013
30
0
41
1
10
47.659744230802
20
0.0751604653131324
30
0
41
1
10
48.0844474450805
20
-0.133548937175902
30
0
41
1
10
48.9335593967642
20
-0.54814041419192
30
0
41
1
10
49.3580012743511
20
-0.75395677615154
30
0
41
1
10
50.2081708770014
20
-1.15954792400797
30
1E-16
41
1
10
50.634353413002
20
-1.35987751028708
30
1E-16
41
1
10
51.9091444273541
20
-1.94222669179683
30
1E-16
41
1
10
52.7565219577995
20
-2.30604159773441
30
1E-16
41
1
10
54.0337346738873
20
-2.79747726015057
30
2E-16
41
1
10
54.4589561060014
20
-2.95160274992691
30
2E-16
41
1
10
55.3080337183762
20
-3.23708862915603
30
2E-16
41
1
10
55.7322378560498
20
-3.36857629106441
30
2E-16
41
1
10
56.5817694852318
20
-3.60669067190707
30
2E-16
41
1
10
57.0077491523856
20
-3.71345784784353
30
-2E-16
41
1
10
57.8585106701519
20
-3.89917469758396
30
0
41
1
10
58.2833226920461
20
-3.97817317006172
30
0
41
1
10
59.13372189545
20
-4.10698430952516
30
0
41
1
10
59.5597367893106
20
-4.15681264385807
30
0
41
1
10
60.4101976815682
20
-4.22588830606213
30
0
41
1
10
60.8350483548058
20
-4.24522871544494
30
0
41
1
10
61.2603807252536
20
-4.24920610139242
30
0
0
SPLINE
5
D8
100
AcDbEntity
8
1
62
256
6
ByLayer
370
18
48
1
60
0
100
AcDbSpline
70
4
71
3
72
8
73
4
40
0
40
0
40
0
40
0
40
1
40
1
40
1
40
1
41
1
10
3.64008494959225
20
1.24819364740995
30
-1E-16
41
1
10
3.62825495020448
20
1.2534401988562
30
-1E-16
41
1
10
3.61550318545926
20
1.2561532338909
30
-1E-16
41
1
10
3.60243706573343
20
1.2562126095246
30
-1E-16
0
SPLINE
5
D9
100
AcDbEntity
8
1
62
256
6
ByLayer
370
18
48
1
60
0
100
AcDbSpline
70
4
71
3
72
8
73
4
40
0
40
0
40
0
40
0
40
1
40
1
40
1
40
1
41
1
10
62.9960807945276
20
0.234639758499839
30
0
41
1
10
63.0013140034778
20
0.0779857002965798
30
0
41
1
10
63.0012988222212
20
-0.0784401452458781
30
0
41
1
10
62.9960807945282
20
-0.234639758480512
30
0
0
SPLINE
5
DA
100
AcDbEntity
8
1
62
256
6
ByLayer
370
18
48
1
60
0
100
AcDbSpline
70
4
71
3
72
8
73
4
40
0
40
0
40
0
40
0
40
1
40
1
40
1
40
1
41
1
10
62.6174301621279
20
1.33796580492964
30
0
41
1
10
62.7472002390081
20
0.971461883676994
30
0
41
1
10
62.8734351684676
20
0.603692994343618
30
0
41
1
10
62.9960807945232
20
0.234639758504272
30
0
0
SPLINE
5
DB
100
AcDbEntity
8
1
62
256
6
ByLayer
370
18
48
1
60
0
100
AcDbSpline
70
4
71
3
72
8
73
4
40
0
40
0
40
0
40
0
40
1
40
1
40
1
40
1
41
1
10
61.4825919610005
20
-4.01201852376229
30
0
41
1
10
61.4763084758747
20
-4.03030246070804
30
0
41
1
10
61.4700505949586
20
-4.0485865158654
30
0
41
1
10
61.4638188170133
20
-4.06687082087694
30
0
0
SPLINE
5
DC
100
AcDbEntity
8
1
62
256
6
ByLayer
370
18
48
1
60
0
100
AcDbSpline
70
4
71
3
72
8
73
4
40
0
40
0
40
0
40
0
40
1
40
1
40
1
40
1
41
1
10
61.5157104124293
20
-4.07964177804038
30
0
41
1
10
61.5183114811177
20
-4.07789057245208
30
0
41
1
10
61.5209125964654
20
-4.07613917547195
30
0
41
1
10
61.5235137588483
20
-4.07438758721594
30
0
0
SPLINE
5
DD
100
AcDbEntity
8
1
62
256
6
ByLayer
370
18
48
1
60
0
100
AcDbSpline
70
4
71
3
72
40
73
36
40
0
40
0
40
0
40
0
40
0.0116610688505154
40
0.0116610688505154
40
0.0757307331830763
40
0.0757307331830763
40
0.139800397515637
40
0.139800397515637
40
0.203870061848198
40
0.203870061848198
40
0.26793972618076
40
0.26793972618076
40
0.332009390513322
40
0.332009390513322
40
0.396079054845885
40
0.396079054845885
40
0.460148719178447
40
0.460148719178447
40
0.524218383511009
40
0.524218383511009
40
0.588288047843571
40
0.588288047843571
40
0.652357712176134
40
0.652357712176134
40
0.716427376508696
40
0.716427376508696
40
0.780497040841258
40
0.780497040841258
40
0.84456670517382
40
0.84456670517382
40
0.908636369506383
40
0.908636369506383
40
0.972706033838945
40
0.972706033838945
40
1
40
1
40
1
40
1
41
1
10
19.6169900562474
20
4.01945427763366
30
0
41
1
10
19.6710616683675
20
4.02064058746581
30
0
41
1
10
19.7251355514883
20
4.02157526447851
30
0
41
1
10
20.0763486160963
20
4.02595265566757
30
0
41
1
10
20.3735959934894
20
4.02219512846875
30
0
41
1
10
20.9682753160593
20
4.0013906542971
30
0
41
1
10
21.265676056874
20
3.98441977688455
30
0
41
1
10
21.8620701168543
20
3.93494256995089
30
0
41
1
10
22.1609309008998
20
3.90287838488732
30
0
41
1
10
22.7598616321472
20
3.82546130993765
30
0
41
1
10
23.0601514625571
20
3.78011963149439
30
0
41
1
10
23.6625965832047
20
3.67436492153431
30
0
41
1
10
23.9628049645389
20
3.61477929046001
30
0
41
1
10
24.5614323597448
20
3.48382336045805
30
-2E-16
41
1
10
24.8598353861739
20
3.41246855108813
30
-2E-16
41
1
10
25.4560167550219
20
3.25722532386919
30
-2E-16
41
1
10
25.7536661649708
20
3.17374907370325
30
-2E-16
41
1
10
26.3482297651016
20
2.99632644276682
30
-2E-16
41
1
10
26.645113987942
20
2.90239031846068
30
-2E-16
41
1
10
27.2394363435042
20
2.70412506294497
30
-2E-16
41
1
10
27.5366874742661
20
2.60001191104939
30
-2E-16
41
1
10
28.1315400609398
20
2.3828025937697
30
-1E-16
41
1
10
28.4292072089439
20
2.26966595316662
30
-1E-16
41
1
10
29.0260374697653
20
2.03521023762974
30
-1E-16
41
1
10
29.3251411814402
20
1.91391972265254
30
-1E-16
41
1
10
29.9246889956982
20
1.66405229892709
30
-1E-16
41
1
10
30.2257501773905
20
1.5352859454751
30
-1E-16
41
1
10
30.8280468269608
20
1.27285572382058
30
-1E-16
41
1
10
31.1289500269705
20
1.13925268204508
30
-1E-16
41
1
10
31.7304750462776
20
0.868002269007377
30
-1E-16
41
1
10
32.0312419288714
20
0.730534980401217
30
0
41
1
10
32.633668102191
20
0.453547609611178
30
0
41
1
10
32.9346817762327
20
0.314059618758335
30
0
41
1
10
33.3620605955437
20
0.115119421480898
30
0
41
1
10
33.4895826078627
20
0.0557063630883476
30
0
41
1
10
33.6169772897915
20
-0.0036261134511619
30
0
0
SPLINE
5
DE
100
AcDbEntity
8
1
62
256
6
ByLayer
370
18
48
1
60
0
100
AcDbSpline
70
4
71
3
72
10
73
6
40
0
40
0
40
0
40
0
40
0.5
40
0.5
40
1
40
1
40
1
40
1
41
1
10
3.55961726730931
20
-3.43650937440839
30
2E-16
41
1
10
3.53953692628369
20
-3.44019141509514
30
2E-16
41
1
10
3.52512399418566
20
-3.44588451259392
30
2E-16
41
1
10
3.50626982600892
20
-3.4582052143661
30
2E-16
41
1
10
3.50171850672834
20
-3.46495755479984
30
2E-16
41
1
10
3.50171850672822
20
-3.47155226197208
30
2E-16
0
SPLINE
5
DF
100
AcDbEntity
8
1
62
256
6
ByLayer
370
18
48
1
60
0
100
AcDbSpline
70
4
71
3
72
16
73
12
40
0
40
0
40
0
40
0
40
0.226226837258328
40
0.226226837258328
40
0.454716281925929
40
0.454716281925929
40
0.652078925914543
40
0.652078925914543
40
0.826472618559237
40
0.826472618559237
40
1
40
1
40
1
40
1
41
1
10
61.4851840673595
20
-4.00080496280222
30
0
41
1
10
61.4852638114514
20
-4.00097000564372
30
0
41
1
10
61.4852875898814
20
-4.00131400829073
30
0
41
1
10
61.4851978678894
20
-4.00237156728937
30
0
41
1
10
61.4850803473199
20
-4.00310915296234
30
0
41
1
10
61.4847280510203
20
-4.00477513324753
30
0
41
1
10
61.4845054488885
20
-4.00569019442531
30
0
41
1
10
61.4840132367815
20
-4.00751353590485
30
0
41
1
10
61.4837457742365
20
-4.00843387180836
30
0
41
1
10
61.4831864618309
20
-4.01024445551678
30
0
41
1
10
61.4828881721164
20
-4.01115659678126
30
0
41
1
10
61.4825919610005
20
-4.01201852376232
30
0
0
SPLINE
5
E0
100
AcDbEntity
8
1
62
256
6
ByLayer
370
18
48
1
60
0
100
AcDbSpline
70
4
71
3
72
50
73
46
40
0
40
0
40
0
40
0
40
0.0099847062027369
40
0.0099847062027369
40
0.0401497052091797
40
0.0401497052091797
40
0.0703147042156224
40
0.0703147042156224
40
0.130644702228508
40
0.130644702228508
40
0.16080970123495
40
0.16080970123495
40
0.190974700241392
40
0.190974700241392
40
0.251304698254277
40
0.251304698254277
40
0.311634696267161
40
0.311634696267161
40
0.371964694280045
40
0.371964694280045
40
0.402129693286488
40
0.402129693286488
40
0.43229469229293
40
0.43229469229293
40
0.552954688318698
40
0.552954688318698
40
0.613284686331583
40
0.613284686331583
40
0.643449685338025
40
0.643449685338025
40
0.673614684344467
40
0.673614684344467
40
0.703779683350909
40
0.703779683350909
40
0.733944682357352
40
0.733944682357352
40
0.794274680370236
40
0.794274680370236
40
0.914934676396003
40
0.914934676396003
40
0.945099675402445
40
0.945099675402445
40
0.975264674408888
40
0.975264674408888
40
1
40
1
40
1
40
1
41
1
10
38.1220716627075
20
-4.03237243437704
30
0
41
1
10
38.022365314213
20
-4.04722968864488
30
0
41
1
10
37.9226685227399
20
-4.06128281641512
30
0
41
1
10
37.5217738978069
20
-4.11453632486894
30
0
41
1
10
37.2205938629341
20
-4.14716312461607
30
0
41
1
10
36.6175628637367
20
-4.19726702395235
30
0
41
1
10
36.3153743916945
20
-4.21475041008304
30
0
41
1
10
35.4091963329801
20
-4.24400166042247
30
0
41
1
10
34.8072075172806
20
-4.23254796807137
30
0
41
1
10
33.9032920721774
20
-4.16966623854125
30
0
41
1
10
33.6018801674289
20
-4.14108843960994
30
0
41
1
10
32.9982326541736
20
-4.06883275211013
30
0
41
1
10
32.6957544989227
20
-4.02512067979748
30
0
41
1
10
31.7904719092363
20
-3.87261854182393
30
0
41
1
10
31.1886165621202
20
-3.74217123658352
30
0
41
1
10
29.9827762484811
20
-3.4288851469228
30
2E-16
41
1
10
29.3776923819071
20
-3.24531208337155
30
2E-16
41
1
10
28.171539455353
20
-2.83518920968433
30
2E-16
41
1
10
27.5696427936893
20
-2.60829819349914
30
2E-16
41
1
10
26.6644949823114
20
-2.24165318346718
30
1E-16
41
1
10
26.3619290647615
20
-2.1146439567091
30
1E-16
41
1
10
25.7585578527618
20
-1.85420100964711
30
1E-16
41
1
10
25.4578895735861
20
-1.72087934145756
30
1E-16
41
1
10
23.9580791714847
20
-1.04197975390929
30
1E-16
41
1
10
22.770146324341
20
-0.458213886297045
30
0
41
1
10
20.976274381929
20
0.416368536026653
30
0
41
1
10
20.3765518914232
20
0.708197535672809
30
0
41
1
10
19.4701753041034
20
1.13764240048525
30
-1E-16
41
1
10
19.1679157809728
20
1.27917222591975
30
-1E-16
41
1
10
18.564675501827
20
1.55630311763994
30
-1E-16
41
1
10
18.2633325790901
20
1.6920829257308
30
-1E-16
41
1
10
17.6606449963017
20
1.95703530844574
30
-1E-16
41
1
10
17.3592930410904
20
2.08619272101234
30
-1E-16
41
1
10
16.7559141410576
20
2.33665637662705
30
-1E-16
41
1
10
16.4534181963019
20
2.45814735979619
30
-2E-16
41
1
10
15.547387716048
20
2.80784710629541
30
-2E-16
41
1
10
14.9476998430566
20
3.02050941405452
30
-2E-16
41
1
10
13.1539650004047
20
3.58746249232709
30
-2E-16
41
1
10
11.9654622672978
20
3.87076832906436
30
0
41
1
10
10.4648053711904
20
4.08085611095916
30
0
41
1
10
10.163917068829
20
4.11569113855165
30
0
41
1
10
9.56003925367187
20
4.17044023319733
30
0
41
1
10
9.25748124585178
20
4.19026722205123
30
0
41
1
10
8.7095035406239
20
4.21228436857339
30
0
41
1
10
8.46314885055537
20
4.21705289873677
30
0
41
1
10
8.21716720174192
20
4.21671924348558
30
0
0
SPLINE
5
E1
100
AcDbEntity
8
1
62
256
6
ByLayer
370
18
48
1
60
0
100
AcDbSpline
70
4
71
3
72
28
73
24
40
0
40
0
40
0
40
0
40
0.125
40
0.125
40
0.1875
40
0.1875
40
0.250000000000001
40
0.250000000000001
40
0.375000000000001
40
0.375000000000001
40
0.437500000000001
40
0.437500000000001
40
0.500000000000001
40
0.500000000000001
40
0.625000000000001
40
0.625000000000001
40
0.687500000000001
40
0.687500000000001
40
0.750000000000001
40
0.750000000000001
40
0.875
40
0.875
40
1
40
1
40
1
40
1
41
1
10
61.0005401617874
20
-0.09832642311261
30
0
41
1
10
61.0100265214365
20
-0.338736277138764
30
0
41
1
10
61.0292022120602
20
-0.57419309500068
30
0
41
1
10
61.065562365228
20
-0.920939331795921
30
1E-16
41
1
10
61.0789752716629
20
-1.03543885319678
30
1E-16
41
1
10
61.1074767221414
20
-1.26233678450117
30
1E-16
41
1
10
61.1226380021888
20
-1.37524180564171
30
1E-16
41
1
10
61.1688779896157
20
-1.70685898708558
30
1E-16
41
1
10
61.2004307967789
20
-1.91739866814197
30
1E-16
41
1
10
61.2451063526329
20
-2.21824430683543
30
1E-16
41
1
10
61.259575798532
20
-2.31601337239883
30
1E-16
41
1
10
61.2872555565375
20
-2.50644717433582
30
2E-16
41
1
10
61.300511432531
20
-2.59946240590105
30
2E-16
41
1
10
61.337300885528
20
-2.86563199866919
30
2E-16
41
1
10
61.358001532812
20
-3.02741953376324
30
2E-16
41
1
10
61.3837847164482
20
-3.24691300529446
30
2E-16
41
1
10
61.3915185324763
20
-3.31618959514805
30
2E-16
41
1
10
61.4055682501815
20
-3.44673330687857
30
2E-16
41
1
10
61.4118862558313
20
-3.50803735046941
30
2E-16
41
1
10
61.4291146286299
20
-3.67612942160795
30
0
41
1
10
61.4383936956317
20
-3.76860024649616
30
0
41
1
10
61.458579589874
20
-3.91474236338178
30
0
41
1
10
61.4695691113369
20
-3.96848737472897
30
0
41
1
10
61.4851840673596
20
-4.00080496280228
30
0
0
SPLINE
5
E2
100
AcDbEntity
8
1
62
256
6
ByLayer
370
18
48
1
60
0
100
AcDbSpline
70
4
71
3
72
26
73
22
40
0
40
0
40
0
40
0
40
0.0205525554731075
40
0.0205525554731075
40
0.0849814028860414
40
0.0849814028860414
40
0.149410250298975
40
0.149410250298975
40
0.278267945124845
40
0.278267945124845
40
0.407125639950715
40
0.407125639950715
40
0.535983334776586
40
0.535983334776586
40
0.600412182189521
40
0.600412182189521
40
0.664841029602456
40
0.664841029602456
40
0.793698724428326
40
0.793698724428326
40
1
40
1
40
1
40
1
41
1
10
21.4099052990833
20
0.205747761745442
30
0
41
1
10
21.5058790235616
20
0.161337482301718
30
0
41
1
10
21.6019047691179
20
0.116871739799251
30
0
41
1
10
21.9992131011707
20
-0.0671188787291044
30
0
41
1
10
22.3009886418928
20
-0.20709599717398
30
0
41
1
10
22.9062374793999
20
-0.486770739128076
30
0
41
1
10
23.2103840134389
20
-0.626615794018051
30
0
41
1
10
24.1216341164592
20
-1.04122564005598
30
1E-16
41
1
10
24.724727710527
20
-1.31033090584833
30
1E-16
41
1
10
25.9276251605311
20
-1.82406367374639
30
1E-16
41
1
10
26.5270044497846
20
-2.06891705234011
30
1E-16
41
1
10
27.7269355606169
20
-2.52583252336055
30
2E-16
41
1
10
28.3271491887239
20
-2.73790285455308
30
2E-16
41
1
10
29.2315512970214
20
-3.02548813167053
30
2E-16
41
1
10
29.5336684375257
20
-3.11622531038913
30
2E-16
41
1
10
30.1398020928937
20
-3.28644826740836
30
2E-16
41
1
10
30.4442048758895
20
-3.36607323670955
30
2E-16
41
1
10
31.3556796608833
20
-3.58547916282737
30
0
41
1
10
31.9627326719329
20
-3.70595302925307
30
0
41
1
10
33.5437662819645
20
-3.94705161224854
30
0
41
1
10
34.5056301290547
20
-4.02115429667421
30
0
41
1
10
35.465707377654
20
-4.02130078500616
30
0
0
SPLINE
5
E3
100
AcDbEntity
8
1
62
256
6
ByLayer
370
18
48
1
60
0
100
AcDbSpline
70
4
71
3
72
16
73
12
40
0
40
0
40
0
40
0
40
0.200300898196066
40
0.200300898196066
40
0.400601796392132
40
0.400601796392132
40
0.600902694588198
40
0.600902694588198
40
0.801203592784264
40
0.801203592784264
40
1
40
1
40
1
40
1
41
1
10
61.5157104123843
20
4.07964177806974
30
0
41
1
10
61.087282222953
20
4.08282322179221
30
0
41
1
10
60.658625647938
20
4.07054339438042
30
0
41
1
10
59.8025657783464
20
4.0172420212173
30
0
41
1
10
59.3747658158472
20
3.97567311410757
30
0
41
1
10
58.5179241863076
20
3.86320353694805
30
0
41
1
10
58.0891546193318
20
3.79247792103874
30
0
41
1
10
57.2328196153258
20
3.62466839649855
30
0
41
1
10
56.8058342644202
20
3.52720154777913
30
-2E-16
41
1
10
55.955891700335
20
3.30806020526583
30
-2E-16
41
1
10
55.5329374812276
20
3.18673478013065
30
-2E-16
41
1
10
55.1095355524101
20
3.0544033014593
30
-2E-16
0
SPLINE
5
E4
100
AcDbEntity
8
1
62
256
6
ByLayer
370
18
48
1
60
0
100
AcDbSpline
70
4
71
3
72
8
73
4
40
0
40
0
40
0
40
0
40
1
40
1
40
1
40
1
41
1
10
21.1668439385659
20
-0.274495489161353
30
0
41
1
10
20.9449396773074
20
-0.170162583771372
30
0
41
1
10
20.7226997313337
20
-0.065416050119552
30
0
41
1
10
20.5
20
0.0394853198611429
30
0
0
SPLINE
5
E5
100
AcDbEntity
8
1
62
256
6
ByLayer
370
18
48
1
60
0
100
AcDbSpline
70
4
71
3
72
22
73
18
40
0
40
0
40
0
40
0
40
0.0725900521828287
40
0.0725900521828287
40
0.145180104365657
40
0.145180104365657
40
0.290360208731312
40
0.290360208731312
40
0.580720417462622
40
0.580720417462622
40
0.653310469645449
40
0.653310469645449
40
0.725900521828276
40
0.725900521828276
40
0.871080626193934
40
0.871080626193934
40
1
40
1
40
1
40
1
41
1
10
61.4825919610005
20
-4.01201852376232
30
0
41
1
10
61.1789519905391
20
-3.99269350719686
30
0
41
1
10
60.875362398179
20
-3.96691026922795
30
0
41
1
10
60.2678029578172
20
-3.89970753456774
30
0
41
1
10
59.9644401219413
20
-3.8588374817796
30
0
41
1
10
59.057842727356
20
-3.71579821302325
30
0
41
1
10
58.4568449569669
20
-3.59311407479393
30
0
41
1
10
56.6572295293633
20
-3.15175038993863
30
2E-16
41
1
10
55.4618689513107
20
-2.75891693282722
30
2E-16
41
1
10
53.9506770899929
20
-2.17721639954351
30
1E-16
41
1
10
53.6469936809522
20
-2.05613714888278
30
1E-16
41
1
10
53.0399450606736
20
-1.80693893993052
30
1E-16
41
1
10
52.7374896470974
20
-1.67919706883791
30
1E-16
41
1
10
51.8323971183153
20
-1.28853689737008
30
1E-16
41
1
10
51.2320101055045
20
-1.018220710289
30
1E-16
41
1
10
50.0997567580172
20
-0.498831799592153
30
0
41
1
10
49.5678367526676
20
-0.250567470424187
30
0
41
1
10
49.0349185965894
20
-0.0018885483212614
30
0
0
SPLINE
5
E6
100
AcDbEntity
8
1
62
256
6
ByLayer
370
18
48
1
60
0
100
AcDbSpline
70
4
71
3
72
8
73
4
40
0
40
0
40
0
40
0
40
1
40
1
40
1
40
1
41
1
10
5.72838428785357
20
-3.84654846291349
30
0
41
1
10
5.02063487547869
20
-3.75276083227584
30
0
41
1
10
4.31166821401163
20
-3.62028730976732
30
1E-16
41
1
10
3.59765450767253
20
-3.45077584679419
30
2E-16
0
SPLINE
5
E7
100
AcDbEntity
8
1
62
256
6
ByLayer
370
18
48
1
60
0
100
AcDbSpline
70
4
71
3
72
18
73
14
40
0
40
0
40
0
40
0
40
0.25
40
0.25
40
0.5
40
0.5
40
0.625
40
0.625
40
0.75
40
0.75
40
0.875
40
0.875
40
1
40
1
40
1
40
1
41
1
10
7.71966597845764
20
4.19731256775896
30
0
41
1
10
8.79422418615073
20
4.14822914099818
30
0
41
1
10
9.85468115000069
20
4.00237732435838
30
0
41
1
10
11.9760977688004
20
3.5406183612281
30
-2E-16
41
1
10
13.0364503311605
20
3.22421892364031
30
-2E-16
41
1
10
14.6474896022845
20
2.64326472476958
30
-2E-16
41
1
10
15.18140933217
20
2.4340812802312
30
-1E-16
41
1
10
16.2455310618911
20
1.99267800224595
30
-1E-16
41
1
10
16.7758039266872
20
1.76005846774396
30
-1E-16
41
1
10
17.8360096299865
20
1.27719609688921
30
-1E-16
41
1
10
18.3662948831566
20
1.02765717530463
30
-1E-16
41
1
10
19.4298502153515
20
0.517550129123606
30
0
41
1
10
19.9631673482546
20
0.257050990471385
30
0
41
1
10
20.5
20
-0.0048552086771849
30
0
0
SPLINE
5
E8
100
AcDbEntity
8
1
62
256
6
ByLayer
370
18
48
1
60
0
100
AcDbSpline
70
4
71
3
72
8
73
4
40
0
40
0
40
0
40
0
40
1
40
1
40
1
40
1
41
1
10
62.6174301621278
20
-1.33796580492964
30
0
41
1
10
62.7472002390113
20
-0.971461883667786
30
0
41
1
10
62.8734351684739
20
-0.603692994325201
30
0
41
1
10
62.9960807945325
20
-0.234639758476533
30
0
0
SPLINE
5
E9
100
AcDbEntity
8
1
62
256
6
ByLayer
370
18
48
1
60
0
100
AcDbSpline
70
4
71
3
72
8
73
4
40
0
40
0
40
0
40
0
40
1
40
1
40
1
40
1
41
1
10
62.2872856215851
20
-0.446866405857037
30
0
41
1
10
62.1561765299203
20
-0.0968856489236316
30
0
41
1
10
61.9936662777656
20
0.273750839575286
30
0
41
1
10
61.8002736618663
20
0.66470179434441
30
0
0
SPLINE
5
EA
100
AcDbEntity
8
1
62
256
6
ByLayer
370
18
48
1
60
0
100
AcDbSpline
70
4
71
3
72
8
73
4
40
0
40
0
40
0
40
0
40
1
40
1
40
1
40
1
41
1
10
3.59765450767253
20
-3.45077584679419
30
2E-16
41
1
10
3.58453534225109
20
-3.4476612722363
30
2E-16
41
1
10
3.57170838021582
20
-3.44700843671245
30
2E-16
41
1
10
3.55961726730928
20
-3.44894011702524
30
2E-16
0
SPLINE
5
EB
100
AcDbEntity
8
1
62
256
6
ByLayer
370
18
48
1
60
0
100
AcDbSpline
70
4
71
3
72
42
73
38
40
0
40
0
40
0
40
0
40
0.0698007186311163
40
0.0698007186311163
40
0.139601437262233
40
0.139601437262233
40
0.174501796577791
40
0.174501796577791
40
0.209402155893349
40
0.209402155893349
40
0.279202874524465
40
0.279202874524465
40
0.418804311786697
40
0.418804311786697
40
0.453704671102255
40
0.453704671102255
40
0.488605030417813
40
0.488605030417813
40
0.558405749048932
40
0.558405749048932
40
0.59330610836449
40
0.59330610836449
40
0.628206467680049
40
0.628206467680049
40
0.698007186311166
40
0.698007186311166
40
0.8376086235734
40
0.8376086235734
40
0.872508982888958
40
0.872508982888958
40
0.907409342204516
40
0.907409342204516
40
0.942309701520074
40
0.942309701520074
40
0.977210060835631
40
0.977210060835631
40
1
40
1
40
1
40
1
41
1
10
61.2446403728545
20
-4.19552987690827
30
0
41
1
10
60.6412896119506
20
-4.1478641023873
30
0
41
1
10
60.0386561566125
20
-4.06973041483252
30
0
41
1
10
58.8303410380761
20
-3.85511556113076
30
0
41
1
10
58.2284460131369
20
-3.71929527428623
30
-2E-16
41
1
10
57.3253310816795
20
-3.47674378087248
30
2E-16
41
1
10
57.0242433514097
20
-3.38942272052711
30
2E-16
41
1
10
56.4213000464587
20
-3.2025968806804
30
2E-16
41
1
10
56.118874045249
20
-3.10288647524104
30
2E-16
41
1
10
55.2148710596981
20
-2.78857294244207
30
2E-16
41
1
10
54.6163212998001
20
-2.55867884302597
30
2E-16
41
1
10
52.8255003442664
20
-1.82168428003411
30
1E-16
41
1
10
51.6382254152715
20
-1.2667966310562
30
1E-16
41
1
10
50.1375980375396
20
-0.541357910987244
30
0
41
1
10
49.8366540420802
20
-0.394675901123861
30
0
41
1
10
49.232579690448
20
-0.099190323801281
30
0
41
1
10
48.9308247340386
20
0.0489220008978748
30
0
41
1
10
48.0268539079899
20
0.491429537192346
30
0
41
1
10
47.4252993492309
20
0.784362899357433
30
0
41
1
10
46.5207550606474
20
1.21283702400959
30
-1E-16
41
1
10
46.2183091651411
20
1.35409312409413
30
-1E-16
41
1
10
45.6151895358705
20
1.63043738709737
30
-1E-16
41
1
10
45.3146849803918
20
1.76541092554433
30
-1E-16
41
1
10
44.4153408988231
20
2.1590192331368
30
-1E-16
41
1
10
43.8187251190516
20
2.40643374237052
30
-1E-16
41
1
10
42.0302729610891
20
3.09149757249571
30
-2E-16
41
1
10
40.8401091713672
20
3.47218640909139
30
-2E-16
41
1
10
39.3304267676273
20
3.81589827030933
30
0
41
1
10
39.0282921733487
20
3.87784184902733
30
0
41
1
10
38.425361882696
20
3.98711609124413
30
0
41
1
10
38.1241686551178
20
4.03451620909328
30
0
41
1
10
37.5217738978069
20
4.11453632486891
30
0
41
1
10
37.2205938629341
20
4.14716312461607
30
0
41
1
10
36.6175628637367
20
4.19726702395235
30
0
41
1
10
36.3153743916944
20
4.21475041008301
30
0
41
1
10
35.8160702421247
20
4.23086785028599
30
0
41
1
10
35.6190524966281
20
4.23393505028722
30
0
41
1
10
35.4221660390239
20
4.23371937949142
30
0
0
SPLINE
5
EC
100
AcDbEntity
8
1
62
256
6
ByLayer
370
18
48
1
60
0
100
AcDbSpline
70
4
71
3
72
16
73
12
40
0
40
0
40
0
40
0
40
0.0147783148305486
40
0.0147783148305486
40
0.13793102547673
40
0.13793102547673
40
0.261083736122912
40
0.261083736122912
40
0.507389157415275
40
0.507389157415275
40
1
40
1
40
1
40
1
41
1
10
10.8729520313487
20
-4.02340166472885
30
0
41
1
10
10.8369574100149
20
-4.02865063627442
30
0
41
1
10
10.8009524904585
20
-4.03379645137903
30
0
41
1
10
10.4648053711904
20
-4.08085611095916
30
0
41
1
10
10.163917068829
20
-4.11569113855165
30
0
41
1
10
9.56003925367187
20
-4.17044023319733
30
0
41
1
10
9.25748124585181
20
-4.19026722205123
30
0
41
1
10
8.35422172662734
20
-4.22655920435742
30
0
41
1
10
7.75524031170355
20
-4.22010973117921
30
0
41
1
10
5.96075545430463
20
-4.11096630296609
30
0
41
1
10
4.76741593720064
20
-3.9183039967152
30
0
41
1
10
3.55793486772274
20
-3.6150044826104
30
2E-16
0
SPLINE
5
ED
100
AcDbEntity
8
1
62
256
6
ByLayer
370
18
48
1
60
0
100
AcDbSpline
70
4
71
3
72
8
73
4
40
0
40
0
40
0
40
0
40
1
40
1
40
1
40
1
41
1
10
60.8931648473186
20
-0.0391405779370757
30
0
41
1
10
60.9273625122363
20
-0.0553371616358902
30
0
41
1
10
60.9613492232533
20
-0.0706249902823686
30
0
41
1
10
60.9951633390471
20
-0.0850272095861726
30
0
0
SPLINE
5
EE
100
AcDbEntity
8
1
62
256
6
ByLayer
370
18
48
1
60
0
100
AcDbSpline
70
4
71
3
72
42
73
38
40
0
40
0
40
0
40
0
40
0.10939722203952
40
0.10939722203952
40
0.16409583305928
40
0.16409583305928
40
0.218794444079041
40
0.218794444079041
40
0.273493055098801
40
0.273493055098801
40
0.328191666118562
40
0.328191666118562
40
0.382890277138322
40
0.382890277138322
40
0.437588888158083
40
0.437588888158083
40
0.492287499177843
40
0.492287499177843
40
0.546986110197604
40
0.546986110197604
40
0.601684721217364
40
0.601684721217364
40
0.656383332237125
40
0.656383332237125
40
0.711081943256885
40
0.711081943256885
40
0.765780554276645
40
0.765780554276645
40
0.820479165296406
40
0.820479165296406
40
0.875177776316166
40
0.875177776316166
40
0.929876387335927
40
0.929876387335927
40
0.984574998355688
40
0.984574998355688
40
1
40
1
40
1
40
1
41
1
10
3.64599936352366
20
1.32238521558386
30
-1E-16
41
1
10
4.24362208638988
20
1.04226642565558
30
-1E-16
41
1
10
4.84163114700689
20
0.756430391357128
30
0
41
1
10
5.74082295251404
20
0.322712350558959
30
0
41
1
10
6.04081704967891
20
0.177368945434011
30
0
41
1
10
6.63925545247201
20
-0.113346628954019
30
0
41
1
10
6.93783438313281
20
-0.259218409444145
30
0
41
1
10
7.53499892428093
20
-0.549315686534356
30
0
41
1
10
7.83378182704462
20
-0.693140655136119
30
0
41
1
10
8.43165082182384
20
-0.978548790850482
30
1E-16
41
1
10
8.73078570158987
20
-1.12018006956529
30
1E-16
41
1
10
9.33019846524491
20
-1.39886056423961
30
1E-16
41
1
10
9.62949441194198
20
-1.53540806135223
30
1E-16
41
1
10
10.2273202662146
20
-1.80287037641247
30
1E-16
41
1
10
10.5258199825179
20
-1.93382386162114
30
1E-16
41
1
10
11.1231567223081
20
-2.1880163974981
30
1E-16
41
1
10
11.422028077922
20
-2.31121133455423
30
1E-16
41
1
10
12.0202810301195
20
-2.54959705895416
30
2E-16
41
1
10
12.3200034263213
20
-2.66496236896032
30
2E-16
41
1
10
12.9186580598457
20
-2.88501616538372
30
2E-16
41
1
10
13.2176688720773
20
-2.98970116401495
30
2E-16
41
1
10
13.8151734921108
20
-3.18829816445859
30
2E-16
41
1
10
14.1136299923404
20
-3.28223547203177
30
2E-16
41
1
10
14.7110615453453
20
-3.45789221213243
30
2E-16
41
1
10
15.0100719892489
20
-3.53959432938663
30
2E-16
41
1
10
15.6088149000286
20
-3.69053718593236
30
-2E-16
41
1
10
15.9084818043175
20
-3.75974292272701
30
0
41
1
10
16.5050417230371
20
-3.88368811898343
30
0
41
1
10
16.8025234556979
20
-3.93858008081497
30
0
41
1
10
17.3960716650341
20
-4.0342963785892
30
0
41
1
10
17.6921029643983
20
-4.07511032443358
30
0
41
1
10
18.2837955695723
20
-4.14211979372388
30
0
41
1
10
18.579504507917
20
-4.16833767805943
30
0
41
1
10
19.1704922395448
20
-4.20629778697534
30
0
41
1
10
19.465754573607
20
-4.21798625485818
30
0
41
1
10
19.8449330692466
20
-4.22345326680963
30
0
41
1
10
19.9283716958932
20
-4.22407026197629
30
0
41
1
10
20.0118414732744
20
-4.22409989728547
30
0
0
SPLINE
5
EF
100
AcDbEntity
8
1
62
256
6
ByLayer
370
18
48
1
60
0
100
AcDbSpline
70
4
71
3
72
34
73
30
40
0
40
0
40
0
40
0
40
0.0137538309002408
40
0.0137538309002408
40
0.0685452847391151
40
0.0685452847391151
40
0.12333673857799
40
0.12333673857799
40
0.232919646255738
40
0.232919646255738
40
0.287711100094614
40
0.287711100094614
40
0.342502553933489
40
0.342502553933489
40
0.452085461611239
40
0.452085461611239
40
0.506876915450115
40
0.506876915450115
40
0.56166836928899
40
0.56166836928899
40
0.616459823127866
40
0.616459823127866
40
0.671251276966741
40
0.671251276966741
40
0.780834184644494
40
0.780834184644494
40
0.890417092322247
40
0.890417092322247
40
1
40
1
40
1
40
1
41
1
10
44.6107850726582
20
4.04967793961237
30
0
41
1
10
44.6849691640332
20
4.06046635564385
30
0
41
1
10
44.7591421408577
20
4.07080309465499
30
0
41
1
10
45.1287772432881
20
4.12004685038471
30
0
41
1
10
45.423945875463
20
4.15234553122301
30
0
41
1
10
46.0142242501305
20
4.20241708614324
30
0
41
1
10
46.3097421963959
20
4.22005915048027
30
0
41
1
10
47.1975616819616
20
4.25093204284769
30
0
41
1
10
47.7907814280103
20
4.24202457093008
30
0
41
1
10
48.6867231241406
20
4.18325250839098
30
0
41
1
10
48.9862681449762
20
4.15598364808147
30
0
41
1
10
49.5832716540571
20
4.08661441710564
30
0
41
1
10
49.8816068542214
20
4.0446544686437
30
0
41
1
10
50.7769938553631
20
3.8979247254498
30
0
41
1
10
51.374112352117
20
3.77223236416424
30
0
41
1
10
52.2718687853023
20
3.54275468801384
30
-2E-16
41
1
10
52.5705678336622
20
3.45953646611559
30
-2E-16
41
1
10
53.1673112625838
20
3.2814135695119
30
-2E-16
41
1
10
53.4655915037056
20
3.18662275451683
30
-2E-16
41
1
10
54.0623315738167
20
2.98620558885159
30
-2E-16
41
1
10
54.3607335989049
20
2.88049087849197
30
-2E-16
41
1
10
54.9582259074387
20
2.65893795625553
30
-2E-16
41
1
10
55.2578761064733
20
2.54294618539717
30
-2E-16
41
1
10
56.1543353752294
20
2.18250546953783
30
-1E-16
41
1
10
56.7477210136134
20
1.92584914761355
30
-1E-16
41
1
10
57.931935279081
20
1.39137689715417
30
-1E-16
41
1
10
58.522455404312
20
1.11297522162565
30
-1E-16
41
1
10
59.7056620084237
20
0.544577165495781
30
0
41
1
10
60.2978765282526
20
0.253623543753861
30
0
41
1
10
60.8931648473186
20
-0.0391405779370757
30
0
0
SPLINE
5
F0
100
AcDbEntity
8
1
62
256
6
ByLayer
370
18
48
1
60
0
100
AcDbSpline
70
4
71
3
72
8
73
4
40
0
40
0
40
0
40
0
40
1
40
1
40
1
40
1
41
1
10
3.64599936352366
20
1.32238521558386
30
-1E-16
41
1
10
3.64543099643052
20
1.30156730572733
30
-1E-16
41
1
10
3.64485469159772
20
1.28074017915546
30
-1E-16
41
1
10
3.64427047731337
20
1.25990329585167
30
-1E-16
0
SPLINE
5
F1
100
AcDbEntity
8
1
62
256
6
ByLayer
370
18
48
1
60
0
100
AcDbSpline
70
4
71
3
72
14
73
10
40
0
40
0
40
0
40
0
40
0.271738582334818
40
0.271738582334818
40
0.508185165427164
40
0.508185165427164
40
0.78251970838064
40
0.78251970838064
40
1
40
1
40
1
40
1
41
1
10
60.9951633390471
20
-0.085027209586201
30
0
41
1
10
60.9959033596268
20
-0.0853424015830058
30
0
41
1
10
60.9966313731805
20
-0.0860278255096887
30
0
41
1
10
60.9978473545526
20
-0.0877495018804666
30
0
41
1
10
60.9983710139079
20
-0.0887519580900857
30
0
41
1
10
60.9993413252426
20
-0.0911876653617867
30
0
41
1
10
60.9997777874857
20
-0.0927021239119199
30
0
41
1
10
61.0003229890451
20
-0.0955886005183402
30
0
41
1
10
61.0004862237083
20
-0.0969594871941126
30
0
41
1
10
61.0005401617875
20
-0.0983264231130363
30
0
0
SPLINE
5
F2
100
AcDbEntity
8
1
62
256
6
ByLayer
370
18
48
1
60
0
100
AcDbSpline
70
4
71
3
72
10
73
6
40
0
40
0
40
0
40
0
40
0.5
40
0.5
40
1
40
1
40
1
40
1
41
1
10
3.50171850672822
20
1.23692534466633
30
-1E-16
41
1
10
3.50171850672822
20
1.26957357027416
30
-1E-16
41
1
10
3.51994567838142
20
1.3007620072992
30
-1E-16
41
1
10
3.57793514296603
20
1.33499879714364
30
-1E-16
41
1
10
3.61537736270051
20
1.33673841449607
30
-1E-16
41
1
10
3.64599936352366
20
1.32238521558386
30
-1E-16
0
SPLINE
5
F3
100
AcDbEntity
8
1
62
256
6
ByLayer
370
18
48
1
60
0
100
AcDbSpline
70
4
71
3
72
22
73
18
40
0
40
0
40
0
40
0
40
0.250000000000005
40
0.250000000000005
40
0.375000000000007
40
0.375000000000007
40
0.437500000000008
40
0.437500000000008
40
0.500000000000009
40
0.500000000000009
40
0.625000000000007
40
0.625000000000007
40
0.750000000000005
40
0.750000000000005
40
0.875000000000002
40
0.875000000000002
40
1
40
1
40
1
40
1
41
1
10
61.5235137588483
20
-4.07438758721597
30
0
41
1
10
61.6068818695371
20
-3.83953390126538
30
0
41
1
10
61.6893128162453
20
-3.60307467301962
30
0
41
1
10
61.8132400553949
20
-3.24740350278651
30
0
41
1
10
61.8545901136494
20
-3.12869724237714
30
0
41
1
10
61.9168456354379
20
-2.95060624250692
30
0
41
1
10
61.937632441263
20
-2.89124321802251
30
0
41
1
10
61.9793001995452
20
-2.77252889730161
30
0
41
1
10
62.0001071381012
20
-2.71316056711112
30
0
41
1
10
62.0632049863697
20
-2.53520296135244
30
0
41
1
10
62.1069752750586
20
-2.41667501692848
30
0
41
1
10
62.1976488825822
20
-2.18561381968507
30
0
41
1
10
62.2447036300341
20
-2.07247740234942
30
0
41
1
10
62.3433613240626
20
-1.85134703549224
30
0
41
1
10
62.3950679682224
20
-1.74318829618025
30
0
41
1
10
62.503709042925
20
-1.53322725753625
30
0
41
1
10
62.5596620070585
20
-1.4332755736948
30
0
41
1
10
62.617430162128
20
-1.3379658049293
30
0
0
SPLINE
5
F4
100
AcDbEntity
8
1
62
256
6
ByLayer
370
18
48
1
60
0
100
AcDbSpline
70
4
71
3
72
8
73
4
40
0
40
0
40
0
40
0
40
1
40
1
40
1
40
1
41
1
10
61.2446403728538
20
-4.19552987690722
30
0
41
1
10
61.3175325118541
20
-4.15337381492984
30
0
41
1
10
61.3905838170908
20
-4.11048099320041
30
0
41
1
10
61.4638188170133
20
-4.06687082087691
30
0
0
SPLINE
5
F5
100
AcDbEntity
8
1
62
256
6
ByLayer
370
18
48
1
60
0
100
AcDbSpline
70
4
71
3
72
67
73
63
40
0
40
0
40
0
40
0
40
0.0161275358000668
40
0.0161275358000668
40
0.0352539376701063
40
0.0352539376701063
40
0.0543803395401459
40
0.0543803395401459
40
0.0735067414101854
40
0.0735067414101854
40
0.0926331432802248
40
0.0926331432802248
40
0.0938285433971024
40
0.0938285433971024
40
0.0939779684117121
40
0.0939779684117121
40
0.0941273934263217
40
0.0941273934263217
40
0.0944262434555411
40
0.0944262434555411
40
0.0950239435139797
40
0.0950239435139797
40
0.0974147437477345
40
0.0974147437477345
40
0.102196344215244
40
0.102196344215244
40
0.111759545150263
40
0.111759545150263
40
0.130885947020302
40
0.130885947020302
40
0.169138750760378
40
0.169138750760378
40
0.245644358240531
40
0.245644358240531
40
0.398655573200838
40
0.398655573200838
40
0.475161180680991
40
0.475161180680991
40
0.513413984421068
40
0.513413984421068
40
0.532540386291106
40
0.532540386291106
40
0.537321986758616
40
0.537321986758616
40
0.537919686817055
40
0.537919686817055
40
0.538218536846274
40
0.538218536846274
40
0.538367961860883
40
0.538367961860883
40
0.538517386875493
40
0.538517386875493
40
0.539115086933932
40
0.539115086933932
40
0.53971278699237
40
0.542103587226125
40
0.551666788161142
40
0.704678003121419
40
0.704678003121419
40
0.857689218081695
40
0.857689218081695
40
1
40
1
40
1
40
1
41
1
10
7.7196697642012
20
4.19732425425272
30
0
41
1
10
7.69269512570463
20
4.11405406659699
30
0
41
1
10
7.66435979566111
20
4.03015564074781
30
0
41
1
10
7.60026009394633
20
3.84500681018491
30
0
41
1
10
7.56454589026279
20
3.74320021932937
30
0
41
1
10
7.48745678269549
20
3.53879275341208
30
0
41
1
10
7.44642625163627
20
3.43602080237591
30
0
41
1
10
7.36055825013551
20
3.22872715945226
30
0
41
1
10
7.3157198287611
20
3.12420421930622
30
0
41
1
10
7.22093983744944
20
2.91398522213885
30
0
41
1
10
7.17151743951004
20
2.80865019129212
30
0
41
1
10
7.117518612906
20
2.69652903298106
30
0
41
1
10
7.11433668740031
20
2.68993287760495
30
0
41
1
10
7.1107509649388
20
2.68251131758109
30
0
41
1
10
7.11013633222899
20
2.68166078603909
30
0
41
1
10
7.11058168536871
20
2.67984750384636
30
0
41
1
10
7.11124520273015
20
2.6791262887871
30
0
41
1
10
7.11311384079329
20
2.67712470547099
30
0
41
1
10
7.1145277812858
20
2.6759680559079
30
0
41
1
10
7.11879223059321
20
2.67258233089669
30
0
41
1
10
7.12174501618213
20
2.67049287617834
30
0
41
1
10
7.1366130890338
20
2.6602049578961
30
0
41
1
10
7.1488638619862
20
2.65256104339858
30
0
41
1
10
7.18561181990665
20
2.62969243032492
30
0
41
1
10
7.21032230878518
20
2.61482971355218
30
0
41
1
10
7.28452878743499
20
2.57042957170464
30
0
41
1
10
7.33418610295661
20
2.54121069352925
30
0
41
1
10
7.48329453556204
20
2.45389672445131
30
0
41
1
10
7.58292498777124
20
2.39623324817734
30
0
41
1
10
7.88192946998942
20
2.22386266215833
30
0
41
1
10
8.08145854852862
20
2.10983403791434
30
0
41
1
10
8.68003963721861
20
1.7693263830997
30
0
41
1
10
9.07911631187523
20
1.54469553624764
30
0
41
1
10
10.2753997142483
20
0.877076674088755
30
-1E-16
41
1
10
11.0716711355302
20
0.440256230159719
30
0
41
1
10
12.2659922788563
20
-0.200014886127036
30
0
41
1
10
12.6641049104668
20
-0.411064779381491
30
0
41
1
10
13.260400683856
20
-0.724270905090208
30
0
41
1
10
13.4591073185898
20
-0.828069641255638
30
1E-16
41
1
10
13.7564103213053
20
-0.983287851059998
30
1E-16
41
1
10
13.8555501152376
20
-1.03484948646138
30
1E-16
41
1
10
13.9781940843193
20
-1.09990019094229
30
1E-16
41
1
10
14.0028568974785
20
-1.11284543693966
30
1E-16
41
1
10
14.0295147479102
20
-1.12795987889723
30
1E-16
41
1
10
14.0324593464965
20
-1.12965065862323
30
1E-16
41
1
10
14.0367423634882
20
-1.13224026407909
30
1E-16
41
1
10
14.038151927562
20
-1.13310972653935
30
1E-16
41
1
10
14.0401363176354
20
-1.13445908193216
30
1E-16
41
1
10
14.0407928222569
20
-1.13491816985265
30
1E-16
41
1
10
14.0418647521903
20
-1.1358811991251
30
1E-16
41
1
10
14.0418444048099
20
-1.13641530744962
30
1E-16
41
1
10
14.0375966221204
20
-1.13603525386966
30
1E-16
41
1
10
14.0339165530652
20
-1.13510038364106
30
1E-16
41
1
10
14.0268232703253
20
-1.13381612059823
30
1E-16
41
1
10
14.0090903951476
20
-1.13060410251254
30
1E-16
41
1
10
13.9346192929337
20
-1.11708505785322
30
1E-16
41
1
10
12.9562242070959
20
-0.937905339070539
30
1E-16
41
1
10
11.9970036454989
20
-0.74119113891237
30
0
41
1
10
10.2019321673667
20
-0.335684552989164
30
0
41
1
10
9.30942886445357
20
-0.115259505830608
30
0
41
1
10
7.59604562004427
20
0.344195474919729
30
0
41
1
10
6.77556347737408
20
0.580544103665773
30
0
41
1
10
5.96003270402949
20
0.831571210387722
30
-1E-16
0
SPLINE
5
F6
100
AcDbEntity
8
1
62
256
6
ByLayer
370
18
48
1
60
0
100
AcDbSpline
70
4
71
3
72
10
73
6
40
0
40
0
40
0
40
0
40
0.5
40
0.5
40
1
40
1
40
1
40
1
41
1
10
61.5235137588483
20
-4.07438758721594
30
0
41
1
10
61.5099493630819
20
-4.0833617772704
30
0
41
1
10
61.4984158621733
20
-4.08713579195935
30
0
41
1
10
61.4787706520847
20
-4.08441051950123
30
0
41
1
10
61.4707044907071
20
-4.0779656053318
30
0
41
1
10
61.4638188170134
20
-4.06687082087686
30
0
0
SPLINE
5
F7
100
AcDbEntity
8
1
62
256
6
ByLayer
370
18
48
1
60
0
100
AcDbSpline
70
4
71
3
72
8
73
4
40
0
40
0
40
0
40
0
40
1
40
1
40
1
40
1
41
1
10
3.60187249083154
20
-3.43755924333078
30
2E-16
41
1
10
3.58728334613548
20
-3.4344358104691
30
2E-16
41
1
10
3.57303038426815
20
-3.43404987223539
30
2E-16
41
1
10
3.55961726730956
20
-3.43650937440793
30
2E-16
0
SPLINE
5
F8
100
AcDbEntity
8
1
62
256
6
ByLayer
370
18
48
1
60
0
100
AcDbSpline
70
4
71
3
72
8
73
4
40
0
40
0
40
0
40
0
40
1
40
1
40
1
40
1
41
1
10
3.55961726730928
20
-3.44894011702524
30
2E-16
41
1
10
3.5590490470664
20
-3.5042996889147
30
2E-16
41
1
10
3.55848823700967
20
-3.55965438922726
30
2E-16
41
1
10
3.55793486772274
20
-3.61500448261037
30
2E-16
0
SPLINE
5
F9
100
AcDbEntity
8
1
62
256
6
ByLayer
370
18
48
1
60
0
100
AcDbSpline
70
4
71
3
72
74
73
70
40
0
40
0
40
0
40
0
40
0.0247217975995
40
0.0247217975995
40
0.0496178558484163
40
0.0496178558484163
40
0.0745139140973326
40
0.0745139140973326
40
0.0994099723462489
40
0.0994099723462489
40
0.149202088844083
40
0.149202088844083
40
0.198994205341916
40
0.198994205341916
40
0.223890263590833
40
0.223890263590833
40
0.248786321839751
40
0.248786321839751
40
0.273682380088668
40
0.273682380088668
40
0.298578438337585
40
0.298578438337585
40
0.348370554835419
40
0.348370554835419
40
0.373266613084336
40
0.373266613084336
40
0.398162671333253
40
0.398162671333253
40
0.423058729582171
40
0.423058729582171
40
0.447954787831088
40
0.447954787831088
40
0.497746904328922
40
0.497746904328922
40
0.547539020826757
40
0.547539020826757
40
0.572435079075674
40
0.572435079075674
40
0.597331137324592
40
0.597331137324592
40
0.622227195573509
40
0.622227195573509
40
0.647123253822426
40
0.647123253822426
40
0.696915370320261
40
0.696915370320261
40
0.721811428569178
40
0.721811428569178
40
0.746707486818095
40
0.746707486818095
40
0.771603545067011
40
0.771603545067011
40
0.796499603315928
40
0.796499603315928
40
0.821395661564845
40
0.821395661564845
40
0.846291719813762
40
0.846291719813762
40
0.896083836311594
40
0.896083836311594
40
0.920979894560511
40
0.920979894560511
40
0.945875952809428
40
0.945875952809428
40
0.970772011058345
40
0.970772011058345
40
0.995668069307261
40
0.995668069307261
40
1
40
1
40
1
40
1
41
1
10
55.7403233936606
20
-2.82164022248676
30
2E-16
41
1
10
55.4548740211894
20
-2.92618334343584
30
2E-16
41
1
10
55.1682602233196
20
-3.02707946840582
30
2E-16
41
1
10
54.5950801287119
20
-3.21781444405391
30
2E-16
41
1
10
54.3081813174323
20
-3.30771550308435
30
2E-16
41
1
10
53.7356314832428
20
-3.47605399757683
30
2E-16
41
1
10
53.4499501240054
20
-3.55445582147141
30
2E-16
41
1
10
52.8797871894642
20
-3.69975526187412
30
-2E-16
41
1
10
52.5952222882163
20
-3.76651924089939
30
0
41
1
10
51.7411030650342
20
-3.94734722210137
30
0
41
1
10
51.1714125555958
20
-4.04249413429545
30
0
41
1
10
50.0304358866835
20
-4.18057333228487
30
0
41
1
10
49.4576642566405
20
-4.22260033025404
30
0
41
1
10
48.5927599736117
20
-4.24364547623961
30
0
41
1
10
48.304527776176
20
-4.24360289658236
30
0
41
1
10
47.7308430166128
20
-4.2294462509613
30
0
41
1
10
47.4447067542685
20
-4.21537129563987
30
0
41
1
10
46.8732433848304
20
-4.17370942418978
30
0
41
1
10
46.5880320630221
20
-4.14609341181406
30
0
41
1
10
46.018300584817
20
-4.07752729985395
30
0
41
1
10
45.7340140747744
20
-4.03642336777233
30
0
41
1
10
44.8808174881487
20
-3.89383393185634
30
0
41
1
10
44.3112555849997
20
-3.77358111823557
30
0
41
1
10
43.4548233395545
20
-3.55603540423513
30
2E-16
41
1
10
43.1690853717522
20
-3.4771512747844
30
2E-16
41
1
10
42.595578971338
20
-3.30826808649115
30
2E-16
41
1
10
42.3077646163916
20
-3.2182635524938
30
2E-16
41
1
10
41.7304128438519
20
-3.02716107119372
30
2E-16
41
1
10
41.4427717403648
20
-2.92678985037716
30
2E-16
41
1
10
40.8695435532012
20
-2.71647940063386
30
2E-16
41
1
10
40.583740834093
20
-2.6068751795666
30
2E-16
41
1
10
39.7271718446376
20
-2.26759147484549
30
1E-16
41
1
10
39.1577317923563
20
-2.02669499976395
30
1E-16
41
1
10
38.0201594684783
20
-1.51898576825735
30
1E-16
41
1
10
37.4506160463323
20
-1.25483754353644
30
1E-16
41
1
10
36.5932502192595
20
-0.846964134289351
30
1E-16
41
1
10
36.3071463285781
20
-0.708643235288662
30
0
41
1
10
35.7331937861272
20
-0.429502393548375
30
0
41
1
10
35.4446865161917
20
-0.288684927876432
30
0
41
1
10
34.8678546294526
20
-0.0071362492113565
30
0
41
1
10
34.5804218537168
20
0.133349604892317
30
0
41
1
10
34.0072350465036
20
0.413175001415368
30
0
41
1
10
33.7216684112651
20
0.552906102717088
30
0
41
1
10
32.8657151453179
20
0.966630488976335
30
-1E-16
41
1
10
32.2960440583102
20
1.23521718060354
30
-1E-16
41
1
10
31.4425264597675
20
1.62642371228401
30
-1E-16
41
1
10
31.1580735139961
20
1.75463325241992
30
-1E-16
41
1
10
30.5880328642964
20
2.00428168968537
30
-1E-16
41
1
10
30.3025014145444
20
2.12584149490129
30
-1E-16
41
1
10
29.7304172721187
20
2.36241075776096
30
-1E-16
41
1
10
29.4438256634336
20
2.47734716066517
30
-2E-16
41
1
10
28.8693166280452
20
2.69999029380338
30
-2E-16
41
1
10
28.5804525238083
20
2.80749729479416
30
-2E-16
41
1
10
28.0041915457095
20
3.01147211953705
30
-2E-16
41
1
10
27.7169262118494
20
3.10814260702622
30
-2E-16
41
1
10
27.143938678261
20
3.29079491405716
30
-2E-16
41
1
10
26.8583156610413
20
3.37689470435024
30
-2E-16
41
1
10
26.0027844000968
20
3.61787099283023
30
-2E-16
41
1
10
25.4333773843538
20
3.75456188296792
30
0
41
1
10
24.5791104970141
20
3.92262284366379
30
0
41
1
10
24.2945619607111
20
3.97262009477828
30
0
41
1
10
23.7244006118255
20
4.05930547292184
30
0
41
1
10
23.4387452955639
20
4.09600658451797
30
0
41
1
10
22.8661193494511
20
4.15603344431142
30
0
41
1
10
22.5791441714688
20
4.17936170897869
30
0
41
1
10
22.0037940913417
20
4.21230422870434
30
0
41
1
10
21.7148356680698
20
4.22184902030247
30
0
41
1
10
21.3769528154052
20
4.22468394140333
30
0
41
1
10
21.3268967751575
20
4.22489269392062
30
0
41
1
10
21.2768625982645
20
4.22489047170865
30
0
0
SPLINE
5
FA
100
AcDbEntity
8
1
62
256
6
ByLayer
370
18
48
1
60
0
100
AcDbSpline
70
4
71
3
72
10
73
6
40
0
40
0
40
0
40
0
40
0.5
40
0.5
40
1
40
1
40
1
40
1
41
1
10
3.55793486772274
20
-3.6150044826104
30
2E-16
41
1
10
3.54104042148032
20
-3.61076789101281
30
2E-16
41
1
10
3.52680832541995
20
-3.60411965146008
30
2E-16
41
1
10
3.50711936761545
20
-3.58771714998022
30
2E-16
41
1
10
3.50171850672834
20
-3.57795273711432
30
2E-16
41
1
10
3.50171850672822
20
-3.56795547354875
30
2E-16
0
SPLINE
5
FB
100
AcDbEntity
8
1
62
256
6
ByLayer
370
18
48
1
60
0
100
AcDbSpline
70
4
71
3
72
10
73
6
40
0
40
0
40
0
40
0
40
0.5
40
0.5
40
1
40
1
40
1
40
1
41
1
10
3.55961726730928
20
-3.44894011702524
30
2E-16
41
1
10
3.5395355500529
20
-3.4513353446022
30
2E-16
41
1
10
3.52512671552145
20
-3.45503049749451
30
2E-16
41
1
10
3.50627264133263
20
-3.46298732190772
30
2E-16
41
1
10
3.50171850672834
20
-3.4673298384678
30
2E-16
41
1
10
3.50171850672822
20
-3.47155226197194
30
2E-16
0
SPLINE
5
FC
100
AcDbEntity
8
1
62
256
6
ByLayer
370
18
48
1
60
0
100
AcDbSpline
70
4
71
3
72
30
73
26
40
0
40
0
40
0
40
0
40
0.125000000000008
40
0.125000000000008
40
0.187500000000007
40
0.187500000000007
40
0.250000000000007
40
0.250000000000007
40
0.312500000000006
40
0.312500000000006
40
0.375000000000006
40
0.375000000000006
40
0.437500000000005
40
0.437500000000005
40
0.500000000000005
40
0.500000000000005
40
0.562500000000004
40
0.562500000000004
40
0.625000000000004
40
0.625000000000004
40
0.750000000000002
40
0.750000000000002
40
0.875000000000001
40
0.875000000000001
40
1
40
1
40
1
40
1
41
1
10
62.9407334692714
20
0.05116291038496
30
0
41
1
10
62.920160758823
20
-0.0166681920143503
30
0
41
1
10
62.896508218806
20
-0.08294852523602
30
0
41
1
10
62.8562357383801
20
-0.179875668513205
30
0
41
1
10
62.8418780856321
20
-0.212015993912701
30
0
41
1
10
62.8122072356924
20
-0.273729487056926
30
0
41
1
10
62.7968867670003
20
-0.303367717953904
30
0
41
1
10
62.7652981703657
20
-0.360131447628532
30
0
41
1
10
62.7490306930206
20
-0.387258596104147
30
0
41
1
10
62.7154994556322
20
-0.438777669463548
30
0
41
1
10
62.69827516213
20
-0.463052776902941
30
0
41
1
10
62.6642181762499
20
-0.506735424190623
30
0
41
1
10
62.6472131800327
20
-0.526418908831488
30
0
41
1
10
62.6132275494658
20
-0.561380668370305
30
0
41
1
10
62.5960920336895
20
-0.57675471917878
30
0
41
1
10
62.562922752936
20
-0.601964299306644
30
0
41
1
10
62.5468092530226
20
-0.611925511271039
30
0
41
1
10
62.5154009423628
20
-0.626767809409188
30
0
41
1
10
62.4999917965707
20
-0.631650288850949
30
0
41
1
10
62.4559377264514
20
-0.638501786735645
30
0
41
1
10
62.4291054782874
20
-0.632897703241611
30
0
41
1
10
62.3803263966
20
-0.604433380723094
30
0
41
1
10
62.358848936285
20
-0.582031412109899
30
0
41
1
10
62.3199677607783
20
-0.523789159396983
30
0
41
1
10
62.3026227705062
20
-0.487807174498869
30
0
41
1
10
62.287285621585
20
-0.446866405857236
30
0
0
SPLINE
5
FD
100
AcDbEntity
8
1
62
256
6
ByLayer
370
18
48
1
60
0
100
AcDbSpline
70
4
71
3
72
30
73
26
40
0
40
0
40
0
40
0
40
0.0625
40
0.0625
40
0.125
40
0.125
40
0.25
40
0.25
40
0.3125
40
0.3125
40
0.375
40
0.375
40
0.4375
40
0.4375
40
0.5
40
0.5
40
0.625
40
0.625
40
0.6875
40
0.6875
40
0.75
40
0.75
40
0.875
40
0.875
40
1
40
1
40
1
40
1
41
1
10
3.60243706573345
20
1.2562126095246
30
-1E-16
41
1
10
3.60243027135263
20
1.14830802323692
30
-1E-16
41
1
10
3.60242275855038
20
1.03916253859524
30
-1E-16
41
1
10
3.6024064830834
20
0.818400883518848
30
-1E-16
41
1
10
3.60239770103632
20
0.706585850719307
30
0
41
1
10
3.60237006779781
20
0.371724679537607
30
0
41
1
10
3.60234986215849
20
0.147945321365029
30
0
41
1
10
3.60231763132745
20
-0.188516652851035
30
0
41
1
10
3.60230656156341
20
-0.3008035011554
30
0
41
1
10
3.60228382973744
20
-0.525649021491205
30
0
41
1
10
3.60227214218375
20
-0.638430215212395
30
0
41
1
10
3.60224855841167
20
-0.860888997318398
30
1E-16
41
1
10
3.60223662306905
20
-0.970964951540083
30
1E-16
41
1
10
3.60221247324367
20
-1.18881671862223
30
1E-16
41
1
10
3.6022002232838
20
-1.29689717895911
30
1E-16
41
1
10
3.60216325204726
20
-1.615495803518
30
1E-16
41
1
10
3.60213856777668
20
-1.81838562999692
30
1E-16
41
1
10
3.6021010333925
20
-2.10895725686345
30
1E-16
41
1
10
3.60208843353792
20
-2.20350796877091
30
1E-16
41
1
10
3.60206293272893
20
-2.38793054200883
30
1E-16
41
1
10
3.60204998430865
20
-2.47811751259417
30
2E-16
41
1
10
3.60201077677721
20
-2.73919742654036
30
2E-16
41
1
10
3.60198447825005
20
-2.89869124808948
30
2E-16
41
1
10
3.60193017895534
20
-3.18957826778194
30
2E-16
41
1
10
3.60190211877338
20
-3.32123303829988
30
2E-16
41
1
10
3.60187249083154
20
-3.43755924333078
30
2E-16
0
SPLINE
5
FE
100
AcDbEntity
8
1
62
256
6
ByLayer
370
18
48
1
60
0
100
AcDbSpline
70
4
71
3
72
12
73
8
40
0
40
0
40
0
40
0
40
0.499999999999973
40
0.499999999999973
40
0.749999999999986
40
0.749999999999986
40
1
40
1
40
1
40
1
41
1
10
3.50171850672822
20
1.20184383129677
30
-1E-16
41
1
10
3.50171850672817
20
1.21452199358365
30
-1E-16
41
1
10
3.50945080745569
20
1.22719058193368
30
-1E-16
41
1
10
3.53479926408025
20
1.24294807570337
30
-1E-16
41
1
10
3.54556417248136
20
1.24758501010049
30
-1E-16
41
1
10
3.57162339780081
20
1.25430463113077
30
-1E-16
41
1
10
3.58680352681458
20
1.25627309656025
30
-1E-16
41
1
10
3.60243706573343
20
1.2562126095246
30
-1E-16
0
SPLINE
5
FF
100
AcDbEntity
8
1
62
256
6
ByLayer
370
18
48
1
60
0
100
AcDbSpline
70
4
71
3
72
12
73
8
40
0
40
0
40
0
40
0
40
0.64935062289938
40
0.64935062289938
40
0.974025934349069
40
0.974025934349069
40
1
40
1
40
1
40
1
41
1
10
3.6442704773132
20
1.25990329585176
30
-1E-16
41
1
10
4.24539268361377
20
0.992851983395525
30
-1E-16
41
1
10
4.84389223004427
20
0.719921678716332
30
0
41
1
10
5.74043368453178
20
0.307710419034095
30
0
41
1
10
6.03907359886267
20
0.169824314303611
30
0
41
1
10
6.3614809691806
20
0.0206082398499916
30
0
41
1
10
6.38536128808209
20
0.0095512017174997
30
0
41
1
10
6.40924014715583
20
-0.0015091954058164
30
0
0
SPLINE
5
100
100
AcDbEntity
8
1
62
256
6
ByLayer
370
18
48
1
60
0
100
AcDbSpline
70
4
71
3
72
30
73
26
40
0
40
0
40
0
40
0
40
0.0512768310294832
40
0.0512768310294832
40
0.11545326813
40
0.11545326813
40
0.179629705230517
40
0.179629705230517
40
0.243806142331034
40
0.243806142331034
40
0.372159016532068
40
0.372159016532068
40
0.436335453632585
40
0.436335453632585
40
0.500511890733104
40
0.500511890733104
40
0.628864764934137
40
0.628864764934137
40
0.757217639135171
40
0.757217639135171
40
0.885570513336205
40
0.885570513336205
40
0.949746950436722
40
0.949746950436722
40
1
40
1
40
1
40
1
41
1
10
46.8439942177959
20
4.03414991547885
30
0
41
1
10
47.0841573771392
20
4.03885647833042
30
0
41
1
10
47.323667837278
20
4.03911663918137
30
0
41
1
10
47.8619242220394
20
4.02920255404473
30
0
41
1
10
48.1604719873819
20
4.01605781137101
30
0
41
1
10
48.7564291300631
20
3.9762999389643
30
0
41
1
10
49.053748549852
20
3.95002792326611
30
0
41
1
10
49.6478881735185
20
3.88380889139276
30
0
41
1
10
49.9449482301711
20
3.84320956126584
30
0
41
1
10
50.8368531811424
20
3.7002797595049
30
0
41
1
10
51.432316736155
20
3.57748434285028
30
0
41
1
10
52.3280863836628
20
3.35721783549332
30
-2E-16
41
1
10
52.6270142255588
20
3.27789319209643
30
-2E-16
41
1
10
53.2269236525675
20
3.10695515885274
30
-2E-16
41
1
10
53.5287211916018
20
3.01492123987657
30
-2E-16
41
1
10
54.4301180350202
20
2.72396219283112
30
-2E-16
41
1
10
55.0272687507794
20
2.51020738299533
30
-2E-16
41
1
10
56.2181611839325
20
2.05156483170052
30
-1E-16
41
1
10
56.8117521706714
20
1.80669747567259
30
-1E-16
41
1
10
58.0004235120539
20
1.29426351037407
30
-1E-16
41
1
10
58.5952601623975
20
1.02671572683081
30
-1E-16
41
1
10
59.4921492837086
20
0.615613990619693
30
0
41
1
10
59.7917691307821
20
0.476862350677351
30
0
41
1
10
60.327572710371
20
0.227363968824903
30
0
41
1
10
60.5634518976002
20
0.117070098313519
30
0
41
1
10
60.7992266594138
20
0.0067075962164154
30
0
0
SPLINE
5
101
100
AcDbEntity
8
1
62
256
6
ByLayer
370
18
48
1
60
0
100
AcDbSpline
70
4
71
3
72
29
73
25
40
0
40
0
40
0
40
0
40
0.0167287941685758
40
0.0167287941685758
40
0.2226265891525
40
0.2226265891525
40
0.325575486644463
40
0.325575486644463
40
0.351312711017453
40
0.364181323203951
40
0.364181323203951
40
0.370615629297197
40
0.370615629297197
40
0.377049935390444
40
0.377049935390444
40
0.389918547576942
40
0.389918547576942
40
0.40278715976344
40
0.40278715976344
40
0.428524384136437
40
0.428524384136437
40
0.84031997410439
40
0.84031997410439
40
1
40
1
40
1
40
1
41
1
10
3.22847927063776
20
-4.21360723763726
30
0
41
1
10
3.24563211664227
20
-4.21360149263541
30
0
41
1
10
3.26285747973034
20
-4.21352565194957
30
0
41
1
10
3.49302092229976
20
-4.21162446370627
30
0
41
1
10
3.7165241612955
20
-4.19980705138153
30
0
41
1
10
4.06257658281666
20
-4.17204152567462
30
0
41
1
10
4.1794427500698
20
-4.16110588937491
30
0
41
1
10
4.32705253428858
20
-4.14570673208394
30
0
41
1
10
4.37144971596459
20
-4.14095679174298
30
0
41
1
10
4.41600800077003
20
-4.13602063091022
30
0
41
1
10
4.43831328679303
20
-4.13352221798908
30
0
41
1
10
4.44577385725032
20
-4.1326837512616
30
0
41
1
10
4.46161270370268
20
-4.13139990409795
30
0
41
1
10
4.46991187497844
20
-4.13094706656335
30
0
41
1
10
4.49501866705273
20
-4.1301002123713
30
0
41
1
10
4.5123790424212
20
-4.13012087018279
30
0
41
1
10
4.54588758605266
20
-4.13106947793602
30
0
41
1
10
4.56228802102291
20
-4.13205658231561
30
0
41
1
10
4.61151431280996
20
-4.13485962663134
30
0
41
1
10
4.64430235100607
20
-4.13671730746236
30
0
41
1
10
5.20117999207977
20
-4.16807156377712
30
0
41
1
10
5.7173955207852
20
-4.19424172470593
30
0
41
1
10
6.42101861283504
20
-4.21225088131547
30
0
41
1
10
6.61615671132415
20
-4.21527056903244
30
0
41
1
10
6.81003343846209
20
-4.2157712472347
30
0
0
SPLINE
5
102
100
AcDbEntity
8
1
62
256
6
ByLayer
370
18
48
1
60
0
100
AcDbSpline
70
4
71
3
72
40
73
36
40
0
40
0
40
0
40
0
40
0.0532688228735875
40
0.0532688228735875
40
0.115353663137254
40
0.115353663137254
40
0.146396083269088
40
0.146396083269088
40
0.177438503400922
40
0.177438503400922
40
0.23952334366459
40
0.23952334366459
40
0.301608183928258
40
0.301608183928258
40
0.363693024191926
40
0.363693024191926
40
0.487862704719262
40
0.487862704719262
40
0.54994754498293
40
0.54994754498293
40
0.612032385246598
40
0.612032385246598
40
0.674117225510265
40
0.674117225510265
40
0.736202065773933
40
0.736202065773933
40
0.798286906037601
40
0.798286906037601
40
0.860371746301269
40
0.860371746301269
40
0.922456586564937
40
0.922456586564937
40
0.984541426828605
40
0.984541426828605
40
1
40
1
40
1
40
1
41
1
10
48.5019238535355
20
-0.338270394779244
30
0
41
1
10
48.1350413822115
20
-0.165980041868579
30
0
41
1
10
47.7689649551543
20
0.0070716478374777
30
0
41
1
10
46.9764953438189
20
0.380209944215295
30
0
41
1
10
46.5501577394124
20
0.580083498665005
30
0
41
1
10
45.9098592400163
20
0.876257074885331
30
-1E-16
41
1
10
45.6963499147881
20
0.974505095619065
30
-1E-16
41
1
10
45.2687231536077
20
1.16902347613922
30
-1E-16
41
1
10
45.0544307729712
20
1.26543504801131
30
-1E-16
41
1
10
44.4121321152489
20
1.55076034683435
30
-1E-16
41
1
10
43.9848614138404
20
1.7352501450178
30
-1E-16
41
1
10
43.1309441629315
20
2.0910642340248
30
-1E-16
41
1
10
42.7041234247081
20
2.26178249032702
30
-1E-16
41
1
10
41.8490194085536
20
2.58573123575246
30
-2E-16
41
1
10
41.4201183379987
20
2.73904569918284
30
-2E-16
41
1
10
40.137487644142
20
3.16764375378381
30
-2E-16
41
1
10
39.2848710637417
20
3.40894134628658
30
-2E-16
41
1
10
38.0005099581087
20
3.69492520445832
30
0
41
1
10
37.5723409691885
20
3.77652010658045
30
0
41
1
10
36.7179436217072
20
3.91098827664442
30
0
41
1
10
36.2912192460255
20
3.96443136511601
30
0
41
1
10
35.4367528573835
20
4.04206555097045
30
0
41
1
10
35.0084079156123
20
4.06639831431312
30
0
41
1
10
34.1521974731816
20
4.08484802731738
30
0
41
1
10
33.7251683908233
20
4.07944778051169
30
0
41
1
10
32.8711519756708
20
4.03816598019463
30
0
41
1
10
32.4442324058947
20
4.00265457575682
30
0
41
1
10
31.5888137550133
20
3.90268961776258
30
0
41
1
10
31.1601624164771
20
3.83849435454238
30
0
41
1
10
30.3033631293328
20
3.68181903744915
30
0
41
1
10
29.8746280651345
20
3.58929345969736
30
0
41
1
10
29.0193183562264
20
3.37938566800457
30
-2E-16
41
1
10
28.5927175362786
20
3.26209097163354
30
-2E-16
41
1
10
28.0599947387827
20
3.10127849066208
30
-2E-16
41
1
10
27.9537975865034
20
3.06851314687989
30
-2E-16
41
1
10
27.847594720466
20
3.03506250998669
30
-2E-16
0
SPLINE
5
103
100
AcDbEntity
8
1
62
256
6
ByLayer
370
18
48
1
60
0
100
AcDbSpline
70
4
71
3
72
12
73
8
40
0
40
0
40
0
40
0
40
0.25
40
0.25
40
0.499999999999999
40
0.499999999999999
40
1
40
1
40
1
40
1
41
1
10
3.60243706573343
20
1.26884490565411
30
-1E-16
41
1
10
3.58679873562457
20
1.26891984595858
30
-1E-16
41
1
10
3.57161587625691
20
1.26647925190267
30
-1E-16
41
1
10
3.54555808685095
20
1.25816376049664
30
-1E-16
41
1
10
3.53479647234948
20
1.25243145964345
30
-1E-16
41
1
10
3.50945398612004
20
1.2329868839303
30
-1E-16
41
1
10
3.50171850672817
20
1.21739698328471
30
-1E-16
41
1
10
3.50171850672822
20
1.20184383129677
30
-1E-16
0
SPLINE
5
104
100
AcDbEntity
8
1
62
256
6
ByLayer
370
18
48
1
60
0
100
AcDbSpline
70
4
71
3
72
18
73
14
40
0
40
0
40
0
40
0
40
0.125
40
0.125
40
0.25
40
0.25
40
0.375
40
0.375
40
0.5
40
0.5
40
0.75
40
0.75
40
1
40
1
40
1
40
1
41
1
10
61.8002736618664
20
0.66470179434441
30
0
41
1
10
61.763319908671
20
0.679818946416816
30
0
41
1
10
61.7256716213011
20
0.693155654128304
30
0
41
1
10
61.6496052598427
20
0.712863614785647
30
0
41
1
10
61.6111986344202
20
0.719203201526227
30
0
41
1
10
61.5339966013294
20
0.725912212200313
30
0
41
1
10
61.4952160157868
20
0.726477340842649
30
0
41
1
10
61.4176088051294
20
0.725213640887375
30
0
41
1
10
61.3787479141487
20
0.722633980044549
30
0
41
1
10
61.2622560900792
20
0.708612029750043
30
0
41
1
10
61.1845666272596
20
0.690353323909164
30
0
41
1
10
61.0316460203095
20
0.636318030748697
30
0
41
1
10
60.9568481443909
20
0.601991853112992
30
0
41
1
10
60.8844358330398
20
0.559910733841264
30
0
0
SPLINE
5
105
100
AcDbEntity
8
1
62
256
6
ByLayer
370
18
48
1
60
0
100
AcDbSpline
70
4
71
3
72
64
73
60
40
0
40
0
40
0
40
0
40
0.0233301450817938
40
0.0233301450817938
40
0.0532023535995881
40
0.0532023535995881
40
0.0830745621173823
40
0.0830745621173823
40
0.112946770635177
40
0.112946770635177
40
0.142818979152971
40
0.142818979152971
40
0.172691187670765
40
0.172691187670765
40
0.202563396188559
40
0.202563396188559
40
0.232435604706353
40
0.232435604706353
40
0.262307813224148
40
0.262307813224148
40
0.292180021741942
40
0.292180021741942
40
0.322052230259736
40
0.322052230259736
40
0.381796647295325
40
0.381796647295325
40
0.41166885581312
40
0.41166885581312
40
0.441541064330914
40
0.441541064330914
40
0.471413272848709
40
0.471413272848709
40
0.501285481366504
40
0.501285481366504
40
0.561029898402093
40
0.561029898402093
40
0.590902106919888
40
0.590902106919888
40
0.620774315437683
40
0.620774315437683
40
0.680518732473273
40
0.680518732473273
40
0.710390940991068
40
0.710390940991068
40
0.740263149508863
40
0.740263149508863
40
0.800007566544455
40
0.800007566544455
40
0.829879775062251
40
0.829879775062251
40
0.859751983580047
40
0.859751983580047
40
0.919496400615638
40
0.919496400615638
40
0.949368609133433
40
0.949368609133433
40
0.979240817651228
40
0.979240817651228
40
1
40
1
40
1
40
1
41
1
10
17.2941786108853
20
4.01686493267877
30
0
41
1
10
17.5257254878359
20
4.05182246045837
30
0
41
1
10
17.7568937975795
20
4.08244791714367
30
0
41
1
10
18.2837955695723
20
4.14211979372388
30
0
41
1
10
18.579504507917
20
4.16833767805943
30
0
41
1
10
19.1704922395448
20
4.20629778697534
30
0
41
1
10
19.465754573607
20
4.21798625485818
30
0
41
1
10
20.0572967446987
20
4.22651513546805
30
0
41
1
10
20.3534603731217
20
4.22341605047578
30
0
41
1
10
20.9465668458528
20
4.20233178250132
30
0
41
1
10
21.2434925520387
20
4.1842889922888
30
0
41
1
10
21.8395570120291
20
4.13341654227438
30
0
41
1
10
22.1389852167322
20
4.10052523724036
30
0
41
1
10
22.737787034941
20
4.01989165455845
30
0
41
1
10
23.0364613551528
20
3.97219804643788
30
0
41
1
10
23.6339951137499
20
3.86332213394303
30
0
41
1
10
23.9326481634773
20
3.80203188557016
30
0
41
1
10
24.529735564646
20
3.66570579804943
30
2E-16
41
1
10
24.828143516478
20
3.59058870441666
30
-2E-16
41
1
10
25.4264364288075
20
3.4282967849035
30
-2E-16
41
1
10
25.7263877967058
20
3.34076632746766
30
-2E-16
41
1
10
26.3246075074075
20
3.15395578812303
30
-2E-16
41
1
10
26.62308082291
20
3.05455004616931
30
-2E-16
41
1
10
27.5190249831386
20
2.74188314576216
30
-2E-16
41
1
10
28.1155417864169
20
2.51201852516826
30
-2E-16
41
1
10
29.0136710551123
20
2.14213905496635
30
-1E-16
41
1
10
29.3133051722895
20
2.01484616199778
30
-1E-16
41
1
10
29.9109102310356
20
1.75338693715173
30
-1E-16
41
1
10
30.2093427862434
20
1.6193244021861
30
-1E-16
41
1
10
30.8064808014275
20
1.34649019073177
30
-1E-16
41
1
10
31.1050753264379
20
1.20751491338481
30
-1E-16
41
1
10
31.7024873881119
20
0.924740632634837
30
-1E-16
41
1
10
32.00169185413
20
0.781173972666124
30
0
41
1
10
32.900139065686
20
0.347770794880233
30
0
41
1
10
33.4965758797764
20
0.0544066827339407
30
0
41
1
10
34.3922747218524
20
-0.382323120914805
30
0
41
1
10
34.690901369937
20
-0.527581462169195
30
0
41
1
10
35.2887270052733
20
-0.816530356291764
30
0
41
1
10
35.5884149588496
20
-0.960058068015201
30
1E-16
41
1
10
36.4857894523597
20
-1.38340387311601
30
1E-16
41
1
10
37.0819279930916
20
-1.65776071388737
30
1E-16
41
1
10
37.9778474586516
20
-2.04819038193989
30
1E-16
41
1
10
38.2766503127603
20
-2.17505776269502
30
1E-16
41
1
10
38.8749183415555
20
-2.42154777587629
30
1E-16
41
1
10
39.1743983424079
20
-2.54049573168371
30
2E-16
41
1
10
40.0709769110414
20
-2.88221298104918
30
2E-16
41
1
10
40.6669491162953
20
-3.09127105247652
30
2E-16
41
1
10
41.5632589704298
20
-3.36945632468365
30
2E-16
41
1
10
41.8625726590463
20
-3.45661882663197
30
2E-16
41
1
10
42.4607082084495
20
-3.61849014588338
30
2E-16
41
1
10
42.7588882307591
20
-3.69254595775786
30
-2E-16
41
1
10
43.6511577860194
20
-3.89429700475
30
0
41
1
10
44.2423773371913
20
-4.00195833506876
30
0
41
1
10
45.1287772432883
20
-4.12004685038471
30
0
41
1
10
45.4239458754631
20
-4.15234553122301
30
0
41
1
10
46.0142242501304
20
-4.20241708614327
30
0
41
1
10
46.3097421963959
20
-4.22005915048027
30
0
41
1
10
46.8113403665464
20
-4.23750164478292
30
0
41
1
10
47.017160501081
20
-4.24109283252724
30
0
41
1
10
47.2232571480014
20
-4.24109076742317
30
0
0
SPLINE
5
106
100
AcDbEntity
8
1
62
256
6
ByLayer
370
18
48
1
60
0
100
AcDbSpline
70
4
71
3
72
8
73
4
40
0
40
0
40
0
40
0
40
1
40
1
40
1
40
1
41
1
10
35.7664536062346
20
-4.02849960230151
30
0
41
1
10
35.4897929757703
20
-4.03327268964657
30
0
41
1
10
35.2130677239024
20
-4.03188931274741
30
0
41
1
10
34.9360485633755
20
-4.02433993777584
30
0
0
SPLINE
5
107
100
AcDbEntity
8
1
62
256
6
ByLayer
370
18
48
1
60
0
100
AcDbSpline
70
4
71
3
72
24
73
20
40
0
40
0
40
0
40
0
40
0.174511446403685
40
0.174511446403685
40
0.313728670152622
40
0.313728670152622
40
0.38333728202709
40
0.38333728202709
40
0.452945893901559
40
0.452945893901559
40
0.592163117650498
40
0.592163117650498
40
0.731380341399437
40
0.731380341399437
40
0.870597565148377
40
0.870597565148377
40
0.940206177022846
40
0.940206177022846
40
1
40
1
40
1
40
1
41
1
10
34.8369919509299
20
-4.02137803127954
30
0
41
1
10
34.0843263213902
20
-3.99687916690985
30
0
41
1
10
33.3292905350347
20
-3.92687750268973
30
0
41
1
10
31.9593997034887
20
-3.71888537526664
30
0
41
1
10
31.3523102244228
20
-3.59870608638295
30
0
41
1
10
30.4407805814221
20
-3.37959943913603
30
2E-16
41
1
10
30.1363573825313
20
-3.30004597963145
30
2E-16
41
1
10
29.5301925913302
20
-3.12991541606189
30
2E-16
41
1
10
29.2280627424051
20
-3.03920207137378
30
2E-16
41
1
10
28.3236322906947
20
-2.75161403593413
30
2E-16
41
1
10
27.723415161383
20
-2.53943887602392
30
2E-16
41
1
10
26.5234726955231
20
-2.08213928804824
30
1E-16
41
1
10
25.9240967765664
20
-1.83698508674533
30
1E-16
41
1
10
24.7211788240486
20
-1.32248972763941
30
1E-16
41
1
10
24.118074661245
20
-1.05289303349716
30
1E-16
41
1
10
23.2067744493615
20
-0.637425927097553
30
0
41
1
10
22.9026089787602
20
-0.497264484350211
30
0
41
1
10
22.3400060191845
20
-0.236701181636363
30
0
41
1
10
22.0806686732669
20
-0.116187961835095
30
0
41
1
10
21.8217734422676
20
0.0040438386463393
30
0
0
SPLINE
5
108
100
AcDbEntity
8
1
62
256
6
ByLayer
370
18
48
1
60
0
100
AcDbSpline
70
4
71
3
72
38
73
34
40
0
40
0
40
0
40
0
40
0.0610623767488057
40
0.0610623767488057
40
0.124602846853561
40
0.124602846853561
40
0.188143316958317
40
0.188143316958317
40
0.251683787063073
40
0.251683787063073
40
0.315224257167829
40
0.315224257167829
40
0.378764727272585
40
0.378764727272585
40
0.44230519737734
40
0.44230519737734
40
0.505845667482096
40
0.505845667482096
40
0.569386137586852
40
0.569386137586852
40
0.632926607691608
40
0.632926607691608
40
0.696467077796363
40
0.696467077796363
40
0.760007547901119
40
0.760007547901119
40
0.823548018005875
40
0.823548018005875
40
0.887088488110631
40
0.887088488110631
40
0.950628958215386
40
0.950628958215386
40
1
40
1
40
1
40
1
41
1
10
34.0972011321586
20
-0.237455308817317
30
0
41
1
10
33.8104062558418
20
-0.104621339230675
30
0
41
1
10
33.5231323337613
20
0.0290371006490204
30
0
41
1
10
32.9353432121716
20
0.302001908592331
30
0
41
1
10
32.6343062016452
20
0.44118992569895
30
0
41
1
10
32.0317957864519
20
0.717643062570659
30
0
41
1
10
31.7309871507367
20
0.85486939364705
30
-1E-16
41
1
10
31.1293806084331
20
1.12567745646936
30
-1E-16
41
1
10
30.8284380832571
20
1.25907895788407
30
-1E-16
41
1
10
30.2260688763554
20
1.52115998980221
30
-1E-16
41
1
10
29.924955096296
20
1.6497868682327
30
-1E-16
41
1
10
29.3253011944032
20
1.8994174923497
30
-1E-16
41
1
10
29.0261430853413
20
2.02061260393509
30
-1E-16
41
1
10
28.4292014220209
20
2.25493815080955
30
-1E-16
41
1
10
28.1314773699588
20
2.36803715989302
30
-1E-16
41
1
10
27.5365109912164
20
2.58521089867546
30
-2E-16
41
1
10
27.2392029215862
20
2.68932646663438
30
-2E-16
41
1
10
26.6447700107605
20
2.8876573935942
30
-2E-16
41
1
10
26.3478314358008
20
2.98165575435408
30
-2E-16
41
1
10
25.7531616194103
20
3.15922995337945
30
-2E-16
41
1
10
25.455461448864
20
3.24280457607347
30
-2E-16
41
1
10
24.859185815037
20
3.398299987673
30
-2E-16
41
1
10
24.5607391941219
20
3.46981093897074
30
-2E-16
41
1
10
23.9620289672143
20
3.60110077401623
30
0
41
1
10
23.6617842189274
20
3.66087650973031
30
0
41
1
10
23.0592779900959
20
3.76706481909568
30
0
41
1
10
22.758925137991
20
3.81265637396794
30
0
41
1
10
22.1598902182127
20
3.8905866628177
30
0
41
1
10
21.8609761722443
20
3.92292876575547
30
0
41
1
10
21.2644725252012
20
3.97300349468557
30
0
41
1
10
20.967015424174
20
3.9902942826597
30
0
41
1
10
20.4385414890523
20
4.00936264561028
30
0
41
1
10
20.2075205388304
20
4.01369966323404
30
0
41
1
10
19.9765660112766
20
4.01365249087445
30
0
0
SPLINE
5
109
100
AcDbEntity
8
1
62
256
6
ByLayer
370
18
48
1
60
0
100
AcDbSpline
70
4
71
3
72
22
73
18
40
0
40
0
40
0
40
0
40
0.185865201239867
40
0.185865201239867
40
0.232331501549835
40
0.232331501549835
40
0.278797801859803
40
0.278797801859803
40
0.371730402479738
40
0.371730402479738
40
0.557595603719609
40
0.557595603719609
40
0.74346080495948
40
0.74346080495948
40
0.929326006199351
40
0.929326006199351
40
1
40
1
40
1
40
1
41
1
10
20.4999999999986
20
0.0537444459268102
30
0
41
1
10
21.3510974484916
20
-0.361529479065808
30
0
41
1
10
22.1978701073886
20
-0.775602005911026
30
0
41
1
10
23.2598245245518
20
-1.27353973412906
30
1E-16
41
1
10
23.4723853299022
20
-1.37215489064746
30
1E-16
41
1
10
23.8980591038497
20
-1.56701023043777
30
1E-16
41
1
10
24.1113891922068
20
-1.66334322465667
30
1E-16
41
1
10
24.7491315027125
20
-1.94660953382117
30
1E-16
41
1
10
25.1722327661933
20
-2.12824269301578
30
1E-16
41
1
10
26.4380204757686
20
-2.64714226202875
30
2E-16
41
1
10
27.2772033355469
20
-2.95834655065329
30
2E-16
41
1
10
28.9596297528674
20
-3.4908405685706
30
2E-16
41
1
10
29.8028353989037
20
-3.71216130433561
30
-2E-16
41
1
10
31.5071814830894
20
-4.04558845346992
30
0
41
1
10
32.3551960363327
20
-4.15511070645431
30
0
41
1
10
33.5285030937144
20
-4.22232844852277
30
0
41
1
10
33.8525234525271
20
-4.23205341299976
30
0
41
1
10
34.1763112277137
20
-4.23290793577294
30
0
0
SPLINE
5
10A
100
AcDbEntity
8
1
62
256
6
ByLayer
370
18
48
1
60
0
100
AcDbSpline
70
4
71
3
72
16
73
12
40
0
40
0
40
0
40
0
40
0.195899129069838
40
0.195899129069838
40
0.396924346802379
40
0.396924346802379
40
0.59794956453492
40
0.59794956453492
40
0.79897478226746
40
0.79897478226746
40
1
40
1
40
1
40
1
41
1
10
54.9159711482946
20
3.10524343330786
30
-2E-16
41
1
10
55.3296682650757
20
3.24378634602053
30
-2E-16
41
1
10
55.7430692693984
20
3.37161221720839
30
-2E-16
41
1
10
56.5817694852333
20
3.60669067190744
30
-2E-16
41
1
10
57.0077491523871
20
3.7134578478439
30
2E-16
41
1
10
57.8585106701534
20
3.89917469758427
30
0
41
1
10
58.2833226920477
20
3.97817317006201
30
0
41
1
10
59.1337218954517
20
4.10698430952536
30
0
41
1
10
59.5597367893123
20
4.15681264385825
30
0
41
1
10
60.41019768157
20
4.22588830606225
30
0
41
1
10
60.8350483548076
20
4.24522871544499
30
0
41
1
10
61.2603807252554
20
4.24920610139245
30
0
0
SPLINE
5
10B
100
AcDbEntity
8
1
62
256
6
ByLayer
370
18
48
1
60
0
100
AcDbSpline
70
4
71
3
72
13
73
9
40
0
40
0
40
0
40
0
40
0.116610940880613
40
0.240120795132104
40
0.362446665711741
40
0.527267360520621
40
0.747436610238307
40
1
40
1
40
1
40
1
41
1
10
61.7273753197444
20
0.692673445550582
30
0
41
1
10
61.5224143546254
20
0.755868752377268
30
0
41
1
10
61.1010343180295
20
0.888109973051797
30
-1E-16
41
1
10
60.4672410389798
20
1.09495774535918
30
-1E-16
41
1
10
59.7511542667702
20
1.33541228930346
30
-1E-16
41
1
10
58.8697760796087
20
1.64204942884422
30
-1E-16
41
1
10
57.7674119167239
20
2.0426723997804
30
-1E-16
41
1
10
56.9555558254403
20
2.35449818347013
30
-1E-16
41
1
10
56.5233232592053
20
2.52523240995967
30
-2E-16
0
SPLINE
5
10C
100
AcDbEntity
8
1
62
256
6
ByLayer
370
18
48
1
60
0
100
AcDbSpline
70
4
71
3
72
26
73
22
40
0
40
0
40
0
40
0
40
2.7964782188E-06
40
2.86923055549E-05
40
3.89014976863E-05
40
4.74812215414E-05
40
7.59909354254E-05
40
0.0001999230504401
40
0.0008425986323758
40
0.0013911348256425
40
0.0024610701794218
40
0.0046648572782474
40
0.0342323553191875
40
0.118801019863628
40
0.214330145844396
40
0.297764111184111
40
0.369165920991479
40
0.477550608352553
40
0.623229619955437
40
0.806214640660091
40
1
40
1
40
1
40
1
41
1
10
36.8583380586636
20
0.0106188971717245
30
0
41
1
10
36.8583406294752
20
0.0106183013069767
30
0
41
1
10
36.858366524334
20
0.0106123197106172
30
0
41
1
10
36.8583947575404
20
0.010606092433818
30
0
41
1
10
36.8584127079816
20
0.0106038931518242
30
0
41
1
10
36.8583810314546
20
0.0106135036209309
30
0
41
1
10
36.8580817076347
20
0.0106987228545279
30
0
41
1
10
36.8564620407723
20
0.0111507071532913
30
0
41
1
10
36.8530296296939
20
0.012079942154287
30
0
41
1
10
36.847740235075
20
0.0135330215768477
30
0
41
1
10
36.8383915158639
20
0.0160884924666789
30
0
41
1
10
36.757388931739
20
0.0382524168864791
30
0
41
1
10
36.4587359211104
20
0.120874770096151
30
0
41
1
10
35.9300335086845
20
0.27063298425756
30
0
41
1
10
35.2630537635299
20
0.466678475992296
30
0
41
1
10
34.6324318859231
20
0.658726329816233
30
0
41
1
10
33.9709282545223
20
0.866248164916556
30
-1E-16
41
1
10
33.1557841312371
20
1.13065422934204
30
-1E-16
41
1
10
32.0662901339971
20
1.50062840591502
30
-1E-16
41
1
10
30.7717613688012
20
1.96481151263777
30
-1E-16
41
1
10
29.8460008759331
20
2.31932815081257
30
-1E-16
41
1
10
29.371803076531
20
2.50675391274788
30
-2E-16
0
SPLINE
5
10D
100
AcDbEntity
8
1
62
256
6
ByLayer
370
18
48
1
60
0
100
AcDbSpline
70
4
71
3
72
20
73
16
40
0
40
0
40
0
40
0
40
0.0973512328475224
40
0.166844153054623
40
0.210207247904479
40
0.250840953812515
40
0.296314416532864
40
0.345731072341765
40
0.395543107541558
40
0.53038214023717
40
0.645013485893764
40
0.741786216832718
40
0.856992679010073
40
0.97235144232284
40
1
40
1
40
1
40
1
41
1
10
20.0047313985421
20
4.01365291222658
30
0
41
1
10
19.7086866949717
20
4.01328142847589
30
0
41
1
10
19.2013145255537
20
4.01282107018633
30
0
41
1
10
18.5620829469716
20
4.01237653721719
30
0
41
1
10
18.0953189091502
20
4.01253074999576
30
0
41
1
10
17.7016141204959
20
4.01206006267248
30
0
41
1
10
17.2894872504116
20
4.01148581377009
30
0
41
1
10
16.8494479892493
20
4.01129330090973
30
0
41
1
10
16.1376489318868
20
4.01107309792042
30
0
41
1
10
15.2275404858009
20
4.0098019244441
30
0
41
1
10
14.1745962047828
20
4.00943198752853
30
0
41
1
10
13.181448142605
20
4.00847824958177
30
0
41
1
10
12.1859025652707
20
4.00773376711115
30
0
41
1
10
11.4009976770533
20
4.00719002238463
30
0
41
1
10
10.966329046122
20
4.00672220664291
30
0
41
1
10
10.8822804327677
20
4.00662951193175
30
0
0
SPLINE
5
10E
100
AcDbEntity
8
1
62
256
6
ByLayer
370
18
48
1
60
0
100
AcDbSpline
70
4
71
3
72
20
73
16
40
0
40
0
40
0
40
0
40
0.0981260418378993
40
0.168621727265515
40
0.213010108288808
40
0.253344444069712
40
0.29793120549291
40
0.346322290445038
40
0.396036475102633
40
0.534993794679585
40
0.652048499312243
40
0.748762575884503
40
0.861812333388609
40
0.979083122855445
40
1
40
1
40
1
40
1
41
1
10
8.22473488591254
20
-4.00436659577113
30
0
41
1
10
8.52056321621188
20
-4.00468685951654
30
0
41
1
10
9.02880038111508
20
-4.00516396079618
30
0
41
1
10
9.67096788560383
20
-4.00564948854486
30
0
41
1
10
10.1383029837399
20
-4.0058746695382
30
0
41
1
10
10.528084455434
20
-4.00620633373032
30
0
41
1
10
10.9299815728041
20
-4.00672067070596
30
0
41
1
10
11.3597355923667
20
-4.00709507721155
30
0
41
1
10
12.0741002699271
20
-4.00751117690612
30
0
41
1
10
12.9957740751334
20
-4.00850867789026
30
0
41
1
10
14.0589792247741
20
-4.00926387733116
30
0
41
1
10
15.0441627783165
20
-4.00991457665487
30
0
41
1
10
16.02998126989
20
-4.01079892640408
30
0
41
1
10
16.7873189765822
20
-4.01115322775354
30
0
41
1
10
17.2038773852926
20
-4.01149750885463
30
0
41
1
10
17.2669299386564
20
-4.01155486281812
30
0
0
SPLINE
5
10F
100
AcDbEntity
8
1
62
256
6
ByLayer
370
18
48
1
60
0
100
AcDbSpline
70
4
71
3
72
20
73
16
40
0
40
0
40
0
40
0
40
0.102363384447742
40
0.174845506371752
40
0.218966545871757
40
0.25857222526113
40
0.301784725279402
40
0.348348246269882
40
0.397115902317755
40
0.537865259080313
40
0.654677663201666
40
0.750364541783154
40
0.859679199890295
40
0.976945172759472
40
1
40
1
40
1
40
1
41
1
10
47.2114661699691
20
4.02784356128453
30
0
41
1
10
46.9012110950385
20
4.02819948629931
30
0
41
1
10
46.3712617635083
20
4.02837779847175
30
0
41
1
10
45.7075508085366
20
4.0273257630634
30
0
41
1
10
45.2340787894953
20
4.02654691484054
30
0
41
1
10
44.8493173172618
20
4.02668847862307
30
0
41
1
10
44.4571516743986
20
4.02686575706178
30
0
41
1
10
44.0372169517056
20
4.02640792975316
30
0
41
1
10
43.3216310123555
20
4.02512906489443
30
0
41
1
10
42.3932214462364
20
4.02602153628558
30
0
41
1
10
41.3221711439406
20
4.0249619004818
30
0
41
1
10
40.3478448604783
20
4.02405856480661
30
0
41
1
10
39.3709985030137
20
4.02404703546699
30
0
41
1
10
38.6145313514269
20
4.02332249175419
30
0
41
1
10
38.1892217144255
20
4.02311491244961
30
0
41
1
10
38.1193419677002
20
4.02308301666974
30
0
0
SPLINE
5
110
100
AcDbEntity
8
1
62
256
6
ByLayer
370
18
48
1
60
0
100
AcDbSpline
70
4
71
3
72
20
73
16
40
0
40
0
40
0
40
0
40
0.093991298009328
40
0.161600229646213
40
0.204451309460286
40
0.245366756446344
40
0.291732833682768
40
0.342371550968486
40
0.392486255076218
40
0.523780392836053
40
0.637184427358823
40
0.733782057068223
40
0.851191756185122
40
0.965065887898123
40
1
40
1
40
1
40
1
41
1
10
35.4290553399778
20
-4.02134686595099
30
0
41
1
10
35.7157408615612
20
-4.02156705992869
30
0
41
1
10
36.2086396578515
20
-4.02193323585675
30
0
41
1
10
36.8322029822615
20
-4.02233477715055
30
0
41
1
10
37.2939221388201
20
-4.02266045297435
30
0
41
1
10
37.6908201925752
20
-4.02291379909826
30
0
41
1
10
38.1114794767617
20
-4.02303624486098
30
0
41
1
10
38.5602067330483
20
-4.02337406009241
30
0
41
1
10
39.2678890833798
20
-4.02411962316873
30
0
41
1
10
40.166846591325
20
-4.02360668790155
30
0
41
1
10
41.2070045247482
20
-4.0250366518508
30
0
41
1
10
42.2057866569931
20
-4.02535967227439
30
0
41
1
10
43.2058111447309
20
-4.02560638372407
30
0
41
1
10
44.0178131678726
20
-4.02660725752807
30
0
41
1
10
44.4716929654577
20
-4.02674951849914
30
0
41
1
10
44.5782454224652
20
-4.0267519281015
30
0
0
SPLINE
5
111
100
AcDbEntity
8
1
62
256
6
ByLayer
370
18
48
1
60
0
100
AcDbSpline
70
4
71
2
72
6
73
3
40
0
40
0
40
0
40
1
40
1
40
1
41
1
10
49.0318451417286
20
-0.0006765342751294
30
0
41
1
10
49.0318224034266
20
-0.0006693794196337
30
0
41
1
10
49.0317996650677
20
-0.0006616777534703
30
0
0
LINE
5
84
100
AcDbEntity
8
SK1
62
256
6
ByLayer
370
18
48
1
60
0
100
AcDbLine
10
-39.25
20
4.41
30
0
11
-39.25
21
4.356819
31
0
39
0
210
0
220
0
230
1
0
LINE
5
86
100
AcDbEntity
8
SK1
62
256
6
ByLayer
370
18
48
1
60
0
100
AcDbLine
10
-39.517949
20
-4.064536
30
0
11
-39.517949
21
-3.964425
31
0
39
0
210
0
220
0
230
1
0
LINE
5
87
100
AcDbEntity
8
SK1
62
256
6
ByLayer
370
18
48
1
60
0
100
AcDbLine
10
-40
20
3.384291
30
0
11
-40
21
-3.228016
31
0
39
0
210
0
220
0
230
1
0
LINE
5
88
100
AcDbEntity
8
SK1
62
256
6
ByLayer
370
18
48
1
60
0
100
AcDbLine
10
-39.25
20
-4.41
30
0
11
-39.25
21
-4.266733
31
0
39
0
210
0
220
0
230
1
0
LINE
5
89
100
AcDbEntity
8
SK1
62
256
6
ByLayer
370
18
48
1
60
0
100
AcDbLine
10
0
20
5
30
0
11
0
21
-5
31
0
39
0
210
0
220
0
230
1
0
LINE
5
8A
100
AcDbEntity
8
SK1
62
256
6
ByLayer
370
18
48
1
60
0
100
AcDbLine
10
-40
20
-3.384291
30
0
11
-40
21
-3.227972
31
0
39
0
210
0
220
0
230
1
0
LINE
5
8B
100
AcDbEntity
8
SK1
62
256
6
ByLayer
370
18
48
1
60
0
100
AcDbLine
10
-38.66
20
-5
30
0
11
-38.66
21
5
31
0
39
0
210
0
220
0
230
1
0
LINE
5
8C
100
AcDbEntity
8
SK1
62
256
6
ByLayer
370
18
48
1
60
0
100
AcDbLine
10
-39.35
20
-4.23718
30
0
11
-39.35
21
-4.137081
31
0
39
0
210
0
220
0
230
1
0
LINE
5
8D
100
AcDbEntity
8
1
62
256
6
ByLayer
370
18
48
1
60
0
100
AcDbLine
10
1.378876
20
4.212453
30
0
11
1.378876
21
0
31
0
39
0
210
0
220
0
230
1
0
LINE
5
8E
100
AcDbEntity
8
1
62
256
6
ByLayer
370
18
48
1
60
0
100
AcDbLine
10
1.378876
20
0
30
0
11
1.378876
21
-4.212453
31
0
39
0
210
0
220
0
230
1
0
LINE
5
8F
100
AcDbEntity
8
1
62
256
6
ByLayer
370
18
48
1
60
0
100
AcDbLine
10
20.5
20
0.053744
30
0
11
20.5
21
-0.004855
31
0
39
0
210
0
220
0
230
1
0
LINE
5
90
100
AcDbEntity
8
1
62
256
6
ByLayer
370
18
48
1
60
0
100
AcDbLine
10
0.689188
20
4.606226
30
0
11
0.689188
21
0
31
0
39
0
210
0
220
0
230
1
0
LINE
5
91
100
AcDbEntity
8
1
62
256
6
ByLayer
370
18
48
1
60
0
100
AcDbLine
10
0.689188
20
0
30
0
11
0.689188
21
-4.606226
31
0
39
0
210
0
220
0
230
1
0
LINE
5
92
100
AcDbEntity
8
1
62
256
6
ByLayer
370
18
48
1
60
0
100
AcDbLine
10
0
20
5
30
0
11
0
21
0
31
0
39
0
210
0
220
0
230
1
0
LINE
5
93
100
AcDbEntity
8
1
62
256
6
ByLayer
370
18
48
1
60
0
100
AcDbLine
10
0
20
0
30
0
11
0
21
-5
31
0
39
0
210
0
220
0
230
1
0
LINE
5
94
100
AcDbEntity
8
1
62
256
6
ByLayer
370
18
48
1
60
0
100
AcDbLine
10
3.501719
20
-3.567955
30
0
11
3.501719
21
1.236925
31
0
39
0
210
0
220
0
230
1
0
LINE
5
95
100
AcDbEntity
8
1
62
256
6
ByLayer
370
18
48
1
60
0
100
AcDbLine
10
62.940733
20
0.051163
30
0
11
61.904182
21
1.195336
31
0
39
0
210
0
220
0
230
1
0
LINE
5
96
100
AcDbEntity
8
SK1
62
256
6
ByLayer
370
18
48
1
60
0
100
AcDbLine
10
-39.25
20
-4.41
30
0
11
-38.66
21
-5
31
0
39
0
210
0
220
0
230
1
0
LINE
5
97
100
AcDbEntity
8
SK1
62
256
6
ByLayer
370
18
48
1
60
0
100
AcDbLine
10
-38.66
20
5
30
0
11
-39.25
21
4.41
31
0
39
0
210
0
220
0
230
1
0
LINE
5
98
100
AcDbEntity
8
SK1
62
256
6
ByLayer
370
18
48
1
60
0
100
AcDbLine
10
-38.66
20
-5
30
0
11
0
21
-5
31
0
39
0
210
0
220
0
230
1
0
LINE
5
99
100
AcDbEntity
8
SK1
62
256
6
ByLayer
370
18
48
1
60
0
100
AcDbLine
10
0
20
5
30
0
11
-38.66
21
5
31
0
39
0
210
0
220
0
230
1
0
LINE
5
9A
100
AcDbEntity
8
1
62
256
6
ByLayer
370
18
48
1
60
0
100
AcDbLine
10
1.378876
20
-4.212453
30
0
11
3.228228
21
-4.213608
31
0
39
0
210
0
220
0
230
1
0
LINE
5
9B
100
AcDbEntity
8
1
62
256
6
ByLayer
370
18
48
1
60
0
100
AcDbLine
10
6.798981
20
-4.21584
30
0
11
8.229915
21
-4.216734
31
0
39
0
210
0
220
0
230
1
0
LINE
5
9C
100
AcDbEntity
8
1
62
256
6
ByLayer
370
18
48
1
60
0
100
AcDbLine
10
20.007796
20
-4.224096
30
0
11
21.266551
21
-4.224882
31
0
39
0
210
0
220
0
230
1
0
LINE
5
9D
100
AcDbEntity
8
1
62
256
6
ByLayer
370
18
48
1
60
0
100
AcDbLine
10
34.210902
20
-4.232973
30
0
11
35.430284
21
-4.233735
31
0
39
0
210
0
220
0
230
1
0
LINE
5
9E
100
AcDbEntity
8
1
62
256
6
ByLayer
370
18
48
1
60
0
100
AcDbLine
10
47.211601
20
-4.241098
30
0
11
48.440578
21
-4.241866
31
0
39
0
210
0
220
0
230
1
0
LINE
5
9F
100
AcDbEntity
8
1
62
256
6
ByLayer
370
18
48
1
60
0
100
AcDbLine
10
48.440578
20
4.241866
30
0
11
47.211601
21
4.241098
31
0
39
0
210
0
220
0
230
1
0
LINE
5
A0
100
AcDbEntity
8
1
62
256
6
ByLayer
370
18
48
1
60
0
100
AcDbLine
10
35.430284
20
4.233735
30
0
11
34.210902
21
4.232973
31
0
39
0
210
0
220
0
230
1
0
LINE
5
A1
100
AcDbEntity
8
1
62
256
6
ByLayer
370
18
48
1
60
0
100
AcDbLine
10
21.266551
20
4.224882
30
0
11
20.007796
21
4.224096
31
0
39
0
210
0
220
0
230
1
0
LINE
5
A2
100
AcDbEntity
8
1
62
256
6
ByLayer
370
18
48
1
60
0
100
AcDbLine
10
8.229915
20
4.216734
30
0
11
6.798981
21
4.21584
31
0
39
0
210
0
220
0
230
1
0
LINE
5
A3
100
AcDbEntity
8
1
62
256
6
ByLayer
370
18
48
1
60
0
100
AcDbLine
10
3.228228
20
4.213608
30
0
11
1.378876
21
4.212453
31
0
39
0
210
0
220
0
230
1
0
LINE
5
A4
100
AcDbEntity
8
SK4
62
256
6
ByLayer
370
18
48
0.05
60
0
100
AcDbLine
10
68
20
0
30
0
11
-45
21
0
31
0
39
0
210
0
220
0
230
1
0
LINE
5
A6
100
AcDbEntity
8
4
62
256
6
ByLayer
370
18
48
0.05
60
0
100
AcDbLine
10
-40
20
0
30
0
11
68
21
0
31
0
39
0
210
0
220
0
230
1
0
LINE
5
A8
100
AcDbEntity
8
80
62
256
6
ByLayer
370
18
48
1
60
0
100
AcDbLine
10
0
20
0
30
0
11
-6
21
0
31
0
39
0
210
0
220
0
230
1
0
LINE
5
A9
100
AcDbEntity
8
81
62
256
6
ByLayer
370
18
48
1
60
0
100
AcDbLine
10
63
20
0
30
0
11
69
21
0
31
0
39
0
210
0
220
0
230
1
0
LINE
5
AA
100
AcDbEntity
8
SK2
62
256
6
ByLayer
370
13
48
1
60
0
100
AcDbLine
10
63.542965
20
1.491759
30
0
11
70.926437
21
21.777333
31
0
39
0
210
0
220
0
230
1
0
LINE
5
AC
100
AcDbEntity
8
SK2
62
256
6
ByLayer
370
13
48
1
60
0
100
AcDbLine
10
63.542965
20
-1.491759
30
0
11
70.926437
21
-21.777333
31
0
39
0
210
0
220
0
230
1
0
LINE
5
AD
100
AcDbEntity
8
1
62
256
6
ByLayer
370
13
48
1
60
0
100
AcDbLine
10
69.840506
20
18.793815
30
0
11
72.937092
21
17.977426
31
0
39
0
210
0
220
0
230
1
0
LINE
5
AE
100
AcDbEntity
8
1
62
256
6
ByLayer
370
13
48
1
60
0
100
AcDbLine
10
69.840506
20
18.793815
30
0
11
72.620284
21
17.203787
31
0
39
0
210
0
220
0
230
1
0
LINE
5
AF
100
AcDbEntity
8
1
62
256
6
ByLayer
370
13
48
1
60
0
100
AcDbLine
10
72.937092
20
17.977426
30
0
11
72.620284
21
17.203787
31
0
39
0
210
0
220
0
230
1
0
LINE
5
B0
100
AcDbEntity
8
1
62
256
6
ByLayer
370
13
48
1
60
0
100
AcDbLine
10
69.840506
20
-18.793815
30
0
11
72.620282
21
-17.203788
31
0
39
0
210
0
220
0
230
1
0
LINE
5
B1
100
AcDbEntity
8
1
62
256
6
ByLayer
370
13
48
1
60
0
100
AcDbLine
10
69.840506
20
-18.793815
30
0
11
72.937095
21
-17.977425
31
0
39
0
210
0
220
0
230
1
0
LINE
5
B2
100
AcDbEntity
8
1
62
256
6
ByLayer
370
13
48
1
60
0
100
AcDbLine
10
72.620282
20
-17.203788
30
0
11
72.937095
21
-17.977425
31
0
39
0
210
0
220
0
230
1
0
MTEXT
5
112
100
AcDbEntity
8
SK2
62
256
6
ByLayer
370
18
48
1
60
0
100
AcDbMText
10
76.717388
20
-2.467451
30
0
210
0
220
0
230
1
1
\W0.7237;140.00
40
3.50012
41
0
44
1.084337
50
0
71
7
72
5
7
iso_b_vert
0
MTEXT
5
115
100
AcDbEntity
8
SK6
62
256
6
ByLayer
370
18
48
1
60
0
100
AcDbMText
10
-27.629812
20
-105.083674
30
0
210
0
220
0
230
1
1
\W0.7541;860.1-0850-044A1-GM X1BM
40
3.175
41
0
44
1.084337
50
0
71
7
72
5
7
iso_b_vert
0
DIMENSION
5
118
100
AcDbEntity
8
SK2
62
256
6
ByLayer
370
18
48
1
60
0
100
AcDbDimension
2
_U0
10
63
20
-28.50012
30
0
11
31.5
21
-28.50012
31
0
70
32
71
2
72
1
41
1
210
0
220
0
230
1
3
Standard
100
AcDbAlignedDimension
13
0
23
-5
33
0
14
63
24
0
34
0
50
0
100
AcDbRotatedDimension
1001
ACAD
1000
DSTYLE
1002
{
1070
   371
1070
    13
1070
   372
1070
    13
1070
     3
1000

1070
   170
1070
     0
1070
   144
1040
1.0
1070
   277
1070
     2
1070
   284
1070
     8
1070
   278
1070
    46
1070
   146
1040
0.999966
1070
   345
1005
16
1070
   347
1005
16
1070
   346
1005
16
1070
   344
1005
119
1070
   343
1005
119
1070
   172
1070
     1
1070
    76
1070
     0
1070
    75
1070
     0
1070
   282
1070
     0
1070
   281
1070
     0
1070
    71
1070
     0
1070
    74
1070
     0
1070
   279
1070
     0
1070
   173
1070
     1
1070
   340
1005
113
1070
   271
1070
     1
1070
   272
1070
     2
1070
    77
1070
     1
1070
    73
1070
     1
1070
   171
1070
     3
1070
   274
1070
     4
1070
   177
1070
   150
1070
   176
1070
     9
1070
   178
1070
    43
1070
    78
1070
     8
1070
    48
1040
-0.1
1070
    41
1040
3.175
1070
   147
1040
1.75006
1070
    42
1040
1.5875
1070
    44
1040
3.175
1070
   140
1040
3.50012
1002
}
1001
ACAD_DSTYLE_DIM_LINETYPE
1070
   380
1005
16
1001
ACAD_DSTYLE_DIM_EXT1_LINETYPE
1070
   381
1005
16
1001
ACAD_DSTYLE_DIM_EXT2_LINETYPE
1070
   382
1005
16
0
DIMENSION
5
13E
100
AcDbEntity
8
2
62
256
6
ByLayer
370
18
48
1
60
0
100
AcDbDimension
2
_U1
10
69.75006
20
4.25
30
0
11
69.75006
21
19.823233
31
0
70
32
71
1
72
1
41
1
210
0
220
0
230
1
3
Standard
100
AcDbAlignedDimension
13
61.4531
23
-4.25
33
0
14
61.4531
24
4.25
34
0
50
90
100
AcDbRotatedDimension
1001
ACAD
1000
DSTYLE
1002
{
1070
   371
1070
    13
1070
   372
1070
    13
1070
     3
1000

1070
   170
1070
     0
1070
   144
1040
1.0
1070
   277
1070
     2
1070
   284
1070
     8
1070
   278
1070
    46
1070
   146
1040
0.999966
1070
   345
1005
16
1070
   347
1005
16
1070
   346
1005
16
1070
   344
1005
119
1070
   343
1005
119
1070
   172
1070
     1
1070
    76
1070
     0
1070
    75
1070
     0
1070
   282
1070
     0
1070
   281
1070
     0
1070
    71
1070
     0
1070
    74
1070
     0
1070
   279
1070
     0
1070
   173
1070
     1
1070
   340
1005
113
1070
   271
1070
     1
1070
   272
1070
     2
1070
    77
1070
     1
1070
    73
1070
     0
1070
   171
1070
     3
1070
   274
1070
     4
1070
   177
1070
   150
1070
   176
1070
     9
1070
   178
1070
    43
1070
    78
1070
     8
1070
    48
1040
-0.1
1070
    41
1040
3.175
1070
   147
1040
1.75006
1070
    42
1040
1.5875
1070
    44
1040
3.175
1070
   140
1040
3.50012
1002
}
1001
ACAD_DSTYLE_DIM_LINETYPE
1070
   380
1005
16
1001
ACAD_DSTYLE_DIM_EXT1_LINETYPE
1070
   381
1005
16
1001
ACAD_DSTYLE_DIM_EXT2_LINETYPE
1070
   382
1005
16
0
DIMENSION
5
15D
100
AcDbEntity
8
SK2
62
256
6
ByLayer
370
18
48
1
60
0
100
AcDbDimension
2
_U2
10
-43.24994
20
-5
30
0
11
-43.24994
21
19.97767
31
0
70
32
71
1
72
1
41
1
210
0
220
0
230
1
3
Standard
100
AcDbAlignedDimension
13
-40
23
5
33
0
14
-40
24
-5
34
0
50
90
100
AcDbRotatedDimension
1001
ACAD
1000
DSTYLE
1002
{
1070
   371
1070
    13
1070
   372
1070
    13
1070
     3
1000

1070
   170
1070
     0
1070
   144
1040
1.0
1070
   277
1070
     2
1070
   284
1070
     8
1070
   278
1070
    46
1070
   146
1040
0.999966
1070
   345
1005
16
1070
   347
1005
16
1070
   346
1005
16
1070
   344
1005
119
1070
   343
1005
119
1070
   172
1070
     1
1070
    76
1070
     0
1070
    75
1070
     0
1070
   282
1070
     0
1070
   281
1070
     0
1070
    71
1070
     0
1070
    74
1070
     0
1070
   279
1070
     0
1070
   173
1070
     1
1070
   340
1005
113
1070
   271
1070
     1
1070
   272
1070
     2
1070
    77
1070
     1
1070
    73
1070
     0
1070
   171
1070
     3
1070
   274
1070
     4
1070
   177
1070
   150
1070
   176
1070
     9
1070
   178
1070
    43
1070
    78
1070
     8
1070
    48
1040
-0.1
1070
    41
1040
3.175
1070
   147
1040
1.75006
1070
    42
1040
1.5875
1070
    44
1040
3.175
1070
   140
1040
3.50012
1002
}
1001
ACAD_DSTYLE_DIM_LINETYPE
1070
   380
1005
16
1001
ACAD_DSTYLE_DIM_EXT1_LINETYPE
1070
   381
1005
16
1001
ACAD_DSTYLE_DIM_EXT2_LINETYPE
1070
   382
1005
16
0
DIMENSION
5
17B
100
AcDbEntity
8
SK2
62
256
6
ByLayer
370
18
48
1
60
0
100
AcDbDimension
2
_U3
10
0
20
-28.50012
30
0
11
-20
21
-28.50012
31
0
70
32
71
1
72
1
41
1
210
0
220
0
230
1
3
Standard
100
AcDbAlignedDimension
13
-40
23
-5
33
0
14
0
24
-5
34
0
50
0
100
AcDbRotatedDimension
1001
ACAD
1000
DSTYLE
1002
{
1070
   371
1070
    13
1070
   372
1070
    13
1070
     3
1000

1070
   170
1070
     0
1070
   144
1040
1.0
1070
   277
1070
     2
1070
   284
1070
     8
1070
   278
1070
    46
1070
   146
1040
0.999966
1070
   345
1005
16
1070
   347
1005
16
1070
   346
1005
16
1070
   344
1005
119
1070
   343
1005
119
1070
   172
1070
     1
1070
    76
1070
     0
1070
    75
1070
     0
1070
   282
1070
     0
1070
   281
1070
     0
1070
    71
1070
     0
1070
    74
1070
     0
1070
   279
1070
     0
1070
   173
1070
     1
1070
   340
1005
113
1070
   271
1070
     1
1070
   272
1070
     2
1070
    77
1070
     1
1070
    73
1070
     1
1070
   171
1070
     3
1070
   274
1070
     4
1070
   177
1070
   150
1070
   176
1070
     9
1070
   178
1070
    43
1070
    78
1070
     8
1070
    48
1040
-0.1
1070
    41
1040
3.175
1070
   147
1040
1.75006
1070
    42
1040
1.5875
1070
    44
1040
3.175
1070
   140
1040
3.50012
1002
}
1001
ACAD_DSTYLE_DIM_LINETYPE
1070
   380
1005
16
1001
ACAD_DSTYLE_DIM_EXT1_LINETYPE
1070
   381
1005
16
1001
ACAD_DSTYLE_DIM_EXT2_LINETYPE
1070
   382
1005
16
0
DIMENSION
5
197
100
AcDbEntity
8
SK2
62
256
6
ByLayer
370
18
48
1
60
0
100
AcDbDimension
2
_U4
10
63
20
-19.74982
30
0
11
32.5
21
-19.74982
31
0
70
32
71
1
72
1
41
1
210
0
220
0
230
1
3
Standard
100
AcDbAlignedDimension
13
2
23
4.75
33
0
14
63
24
0
34
0
50
0
100
AcDbRotatedDimension
1001
ACAD
1000
DSTYLE
1002
{
1070
   371
1070
    13
1070
   372
1070
    13
1070
     3
1000

1070
   170
1070
     0
1070
   144
1040
1.0
1070
   277
1070
     2
1070
   284
1070
     8
1070
   278
1070
    46
1070
   146
1040
0.999966
1070
   345
1005
16
1070
   347
1005
16
1070
   346
1005
16
1070
   344
1005
119
1070
   343
1005
119
1070
   172
1070
     1
1070
    76
1070
     0
1070
    75
1070
     0
1070
   282
1070
     0
1070
   281
1070
     0
1070
    71
1070
     0
1070
    74
1070
     0
1070
   279
1070
     0
1070
   173
1070
     1
1070
   340
1005
113
1070
   271
1070
     1
1070
   272
1070
     2
1070
    77
1070
     1
1070
    73
1070
     1
1070
   171
1070
     3
1070
   274
1070
     4
1070
   177
1070
   150
1070
   176
1070
     9
1070
   178
1070
    43
1070
    78
1070
     8
1070
    48
1040
-0.1
1070
    41
1040
3.175
1070
   147
1040
1.75006
1070
    42
1040
1.5875
1070
    44
1040
3.175
1070
   140
1040
3.50012
1002
}
1001
ACAD_DSTYLE_DIM_LINETYPE
1070
   380
1005
16
1001
ACAD_DSTYLE_DIM_EXT1_LINETYPE
1070
   381
1005
16
1001
ACAD_DSTYLE_DIM_EXT2_LINETYPE
1070
   382
1005
16
0
DIMENSION
5
1B3
100
AcDbEntity
8
SK2
62
256
6
ByLayer
370
18
48
1
60
0
100
AcDbDimension
2
_U5
10
63
20
-11.82
30
0
11
41
21
-11.82
31
0
70
32
71
1
72
1
41
1
210
0
220
0
230
1
3
Standard
100
AcDbAlignedDimension
13
19
23
-4.25
33
0
14
63
24
0
34
0
50
0
100
AcDbRotatedDimension
1001
ACAD
1000
DSTYLE
1002
{
1070
   371
1070
    13
1070
   372
1070
    13
1070
     3
1000

1070
   170
1070
     0
1070
   144
1040
1.0
1070
   277
1070
     2
1070
   284
1070
     8
1070
   278
1070
    46
1070
   146
1040
1.25
1070
   345
1005
16
1070
   347
1005
16
1070
   346
1005
16
1070
   344
1005
119
1070
   343
1005
119
1070
   172
1070
     1
1070
    76
1070
     0
1070
    75
1070
     0
1070
   282
1070
     0
1070
   281
1070
     0
1070
    71
1070
     0
1070
    74
1070
     0
1070
   279
1070
     0
1070
   173
1070
     1
1070
   340
1005
113
1070
   271
1070
     1
1070
   272
1070
     2
1070
    77
1070
     1
1070
    73
1070
     1
1070
   171
1070
     3
1070
   274
1070
     4
1070
   177
1070
   150
1070
   176
1070
     9
1070
   178
1070
    43
1070
    78
1070
     8
1070
    48
1040
-0.1
1070
    41
1040
3.175
1070
   147
1040
0.42
1070
    42
1040
1.5875
1070
    44
1040
0.5
1070
   140
1040
2.8
1002
}
1001
ACAD_DSTYLE_DIM_LINETYPE
1070
   380
1005
16
1001
ACAD_DSTYLE_DIM_EXT1_LINETYPE
1070
   381
1005
16
1001
ACAD_DSTYLE_DIM_EXT2_LINETYPE
1070
   382
1005
16
0
DIMENSION
5
1CF
100
AcDbEntity
8
SK2
62
256
6
ByLayer
370
18
48
1
60
0
100
AcDbDimension
2
_U6
10
63
20
-38.50012
30
0
11
11.5
21
-38.50012
31
0
70
32
71
1
72
1
41
1
210
0
220
0
230
1
3
Standard
100
AcDbAlignedDimension
13
-40
23
0
33
0
14
63
24
0
34
0
50
0
100
AcDbRotatedDimension
1001
ACAD
1000
DSTYLE
1002
{
1070
   371
1070
    13
1070
   372
1070
    13
1070
     3
1000

1070
   170
1070
     0
1070
   144
1040
1.0
1070
   277
1070
     2
1070
   284
1070
     8
1070
   278
1070
    46
1070
   146
1040
0.999966
1070
   345
1005
16
1070
   347
1005
16
1070
   346
1005
16
1070
   344
1005
119
1070
   343
1005
119
1070
   172
1070
     1
1070
    76
1070
     0
1070
    75
1070
     0
1070
   282
1070
     0
1070
   281
1070
     0
1070
    71
1070
     0
1070
    74
1070
     0
1070
   279
1070
     0
1070
   173
1070
     1
1070
   340
1005
113
1070
   271
1070
     1
1070
   272
1070
     2
1070
    77
1070
     1
1070
    73
1070
     1
1070
   171
1070
     3
1070
   274
1070
     4
1070
   177
1070
   150
1070
   176
1070
     9
1070
   178
1070
    43
1070
    78
1070
     8
1070
    48
1040
-0.1
1070
    41
1040
3.175
1070
   147
1040
1.75006
1070
    42
1040
1.5875
1070
    44
1040
3.175
1070
   140
1040
3.50012
1002
}
1001
ACAD_DSTYLE_DIM_LINETYPE
1070
   380
1005
16
1001
ACAD_DSTYLE_DIM_EXT1_LINETYPE
1070
   381
1005
16
1001
ACAD_DSTYLE_DIM_EXT2_LINETYPE
1070
   382
1005
16
0
ENDSEC
0
SECTION
2
OBJECTS
0
DICTIONARY
5
25b
330
0
100
AcDbDictionary
280
0
281
1
3
ACAD_GROUP
350
25c
3
ACAD_MLINESTYLE
350
25d
0
DICTIONARY
5
25c
330
0
100
AcDbDictionary
280
0
281
1
0
DICTIONARY
5
25d
330
0
100
AcDbDictionary
280
0
281
1
3
Standard
350
18
0
MLINESTYLE
5
18
330
25d
100
AcDbMlineStyle
2
Standard
70
0
3

62
256
51
90
52
90
71
2
49
-0.5
62
256
6
ByLayer
49
0.5
62
256
6
ByLayer
0
RASTERVARIABLES
5
249
330

100
AcDbRasterVariables
90
0
70
1
71
1
72
1
0
ENDSEC
0
EOF
